  0
SECTION
  2
HEADER
  9
$ACADVER
  1
AC1015
  9
$ACADMAINTVER
 70
     6
  9
$DWGCODEPAGE
  3
ANSI_949
  9
$INSBASE
 10
0.0
 20
0.0
 30
0.0
  9
$EXTMIN
 10
-71.37500000000075
 20
-49.97073246008785
 30
0.0
  9
$EXTMAX
 10
129.1503333333328
 20
62.03723769604574
 30
0.0
  9
$LIMMIN
 10
0.0
 20
0.0
  9
$LIMMAX
 10
420.0
 20
297.0
  9
$ORTHOMODE
 70
     1
  9
$REGENMODE
 70
     1
  9
$FILLMODE
 70
     1
  9
$QTEXTMODE
 70
     0
  9
$MIRRTEXT
 70
     1
  9
$LTSCALE
 40
1.0
  9
$ATTMODE
 70
     1
  9
$TEXTSIZE
 40
3.5
  9
$TRACEWID
 40
1.0
  9
$TEXTSTYLE
  7
Standard
  9
$CLAYER
  8
0
  9
$CELTYPE
  6
ByLayer
  9
$CECOLOR
 62
   256
  9
$CELTSCALE
 40
1.0
  9
$DISPSILH
 70
     0
  9
$DIMSCALE
 40
1.0
  9
$DIMASZ
 40
3.302
  9
$DIMEXO
 40
1.0
  9
$DIMDLI
 40
3.75
  9
$DIMRND
 40
0.0
  9
$DIMDLE
 40
0.0
  9
$DIMEXE
 40
1.0
  9
$DIMTP
 40
0.0
  9
$DIMTM
 40
0.0
  9
$DIMTXT
 40
3.5
  9
$DIMCEN
 40
2.5
  9
$DIMTSZ
 40
0.0
  9
$DIMTOL
 70
     0
  9
$DIMLIM
 70
     0
  9
$DIMTIH
 70
     1
  9
$DIMTOH
 70
     1
  9
$DIMSE1
 70
     0
  9
$DIMSE2
 70
     0
  9
$DIMTAD
 70
     1
  9
$DIMZIN
 70
     0
  9
$DIMBLK
  1

  9
$DIMASO
 70
     1
  9
$DIMSHO
 70
     1
  9
$DIMPOST
  1

  9
$DIMAPOST
  1

  9
$DIMALT
 70
     0
  9
$DIMALTD
 70
     3
  9
$DIMALTF
 40
0.0393700787401575
  9
$DIMLFAC
 40
1.0
  9
$DIMTOFL
 70
     1
  9
$DIMTVP
 40
0.0
  9
$DIMTIX
 70
     0
  9
$DIMSOXD
 70
     0
  9
$DIMSAH
 70
     0
  9
$DIMBLK1
  1

  9
$DIMBLK2
  1

  9
$DIMSTYLE
  2
ISO-25
  9
$DIMCLRD
 70
     0
  9
$DIMCLRE
 70
     0
  9
$DIMCLRT
 70
     0
  9
$DIMTFAC
 40
1.0
  9
$DIMGAP
 40
1.524
  9
$DIMJUST
 70
     0
  9
$DIMSD1
 70
     0
  9
$DIMSD2
 70
     0
  9
$DIMTOLJ
 70
     0
  9
$DIMTZIN
 70
     0
  9
$DIMALTZ
 70
     0
  9
$DIMALTTZ
 70
     0
  9
$DIMUPT
 70
     0
  9
$DIMDEC
 70
     2
  9
$DIMTDEC
 70
     2
  9
$DIMALTU
 70
     2
  9
$DIMALTTD
 70
     3
  9
$DIMTXSTY
  7
Standard
  9
$DIMAUNIT
 70
     0
  9
$DIMADEC
 70
     2
  9
$DIMALTRND
 40
0.0
  9
$DIMAZIN
 70
     0
  9
$DIMDSEP
 70
    44
  9
$DIMATFIT
 70
     3
  9
$DIMFRAC
 70
     0
  9
$DIMLDRBLK
  1

  9
$DIMLUNIT
 70
     2
  9
$DIMLWD
 70
    -2
  9
$DIMLWE
 70
    -2
  9
$DIMTMOVE
 70
     0
  9
$LUNITS
 70
     2
  9
$LUPREC
 70
     2
  9
$SKETCHINC
 40
1.0
  9
$FILLETRAD
 40
10.0
  9
$AUNITS
 70
     0
  9
$AUPREC
 70
     2
  9
$MENU
  1
.
  9
$ELEVATION
 40
0.0
  9
$PELEVATION
 40
0.0
  9
$THICKNESS
 40
0.0
  9
$LIMCHECK
 70
     0
  9
$CHAMFERA
 40
0.0
  9
$CHAMFERB
 40
0.0
  9
$CHAMFERC
 40
0.0
  9
$CHAMFERD
 40
0.0
  9
$SKPOLY
 70
     0
  9
$TDCREATE
 40
2458323.474183866
  9
$TDUCREATE
 40
2458323.099183866
  9
$TDUPDATE
 40
2458330.599017986
  9
$TDUUPDATE
 40
2458330.224017986
  9
$TDINDWG
 40
0.0002828935
  9
$TDUSRTIMER
 40
2458330.223977604
  9
$USRTIMER
 70
     1
  9
$ANGBASE
 50
0.0
  9
$ANGDIR
 70
     0
  9
$PDMODE
 70
     0
  9
$PDSIZE
 40
-1.0
  9
$PLINEWID
 40
0.0
  9
$SPLFRAME
 70
     0
  9
$SPLINETYPE
 70
     6
  9
$SPLINESEGS
 70
     8
  9
$HANDSEED
  5
332
  9
$SURFTAB1
 70
     6
  9
$SURFTAB2
 70
     6
  9
$SURFTYPE
 70
     6
  9
$SURFU
 70
     6
  9
$SURFV
 70
     6
  9
$UCSBASE
  2

  9
$UCSNAME
  2

  9
$UCSORG
 10
0.0
 20
0.0
 30
0.0
  9
$UCSXDIR
 10
1.0
 20
0.0
 30
0.0
  9
$UCSYDIR
 10
0.0
 20
1.0
 30
0.0
  9
$UCSORTHOREF
  2

  9
$UCSORTHOVIEW
 70
     0
  9
$UCSORGTOP
 10
0.0
 20
0.0
 30
0.0
  9
$UCSORGBOTTOM
 10
0.0
 20
0.0
 30
0.0
  9
$UCSORGLEFT
 10
0.0
 20
0.0
 30
0.0
  9
$UCSORGRIGHT
 10
0.0
 20
0.0
 30
0.0
  9
$UCSORGFRONT
 10
0.0
 20
0.0
 30
0.0
  9
$UCSORGBACK
 10
0.0
 20
0.0
 30
0.0
  9
$PUCSBASE
  2

  9
$PUCSNAME
  2

  9
$PUCSORG
 10
0.0
 20
0.0
 30
0.0
  9
$PUCSXDIR
 10
1.0
 20
0.0
 30
0.0
  9
$PUCSYDIR
 10
0.0
 20
1.0
 30
0.0
  9
$PUCSORTHOREF
  2

  9
$PUCSORTHOVIEW
 70
     0
  9
$PUCSORGTOP
 10
0.0
 20
0.0
 30
0.0
  9
$PUCSORGBOTTOM
 10
0.0
 20
0.0
 30
0.0
  9
$PUCSORGLEFT
 10
0.0
 20
0.0
 30
0.0
  9
$PUCSORGRIGHT
 10
0.0
 20
0.0
 30
0.0
  9
$PUCSORGFRONT
 10
0.0
 20
0.0
 30
0.0
  9
$PUCSORGBACK
 10
0.0
 20
0.0
 30
0.0
  9
$USERI1
 70
     0
  9
$USERI2
 70
     0
  9
$USERI3
 70
     0
  9
$USERI4
 70
     0
  9
$USERI5
 70
     0
  9
$USERR1
 40
0.0
  9
$USERR2
 40
0.0
  9
$USERR3
 40
0.0
  9
$USERR4
 40
0.0
  9
$USERR5
 40
0.0
  9
$WORLDVIEW
 70
     1
  9
$SHADEDGE
 70
     3
  9
$SHADEDIF
 70
    70
  9
$TILEMODE
 70
     1
  9
$MAXACTVP
 70
    64
  9
$PINSBASE
 10
0.0
 20
0.0
 30
0.0
  9
$PLIMCHECK
 70
     0
  9
$PEXTMIN
 10
1.000000000000000E+20
 20
1.000000000000000E+20
 30
1.000000000000000E+20
  9
$PEXTMAX
 10
-1.000000000000000E+20
 20
-1.000000000000000E+20
 30
-1.000000000000000E+20
  9
$PLIMMIN
 10
0.0
 20
0.0
  9
$PLIMMAX
 10
0.0
 20
0.0
  9
$UNITMODE
 70
     0
  9
$VISRETAIN
 70
     1
  9
$PLINEGEN
 70
     0
  9
$PSLTSCALE
 70
     1
  9
$TREEDEPTH
 70
  3020
  9
$CMLSTYLE
  2
Standard
  9
$CMLJUST
 70
     0
  9
$CMLSCALE
 40
20.0
  9
$PROXYGRAPHICS
 70
     1
  9
$MEASUREMENT
 70
     1
  9
$CELWEIGHT
370
    -1
  9
$ENDCAPS
280
     0
  9
$JOINSTYLE
280
     0
  9
$LWDISPLAY
290
     1
  9
$INSUNITS
 70
     4
  9
$HYPERLINKBASE
  1

  9
$STYLESHEET
  1

  9
$XEDIT
290
     1
  9
$CEPSNTYPE
380
     0
  9
$PSTYLEMODE
290
     1
  9
$FINGERPRINTGUID
  2
{E155980F-C0F7-406E-93ED-A806CC310E9D}
  9
$VERSIONGUID
  2
{FAEB1C32-E019-11D5-929B-00C0DF256EC4}
  9
$EXTNAMES
290
     1
  9
$PSVPSCALE
 40
0.0
  9
$OLESTARTUP
290
     0
  0
ENDSEC
  0
SECTION
  2
CLASSES
  0
CLASS
  1
ACDBDICTIONARYWDFLT
  2
AcDbDictionaryWithDefault
  3
ObjectDBX Classes
 90
        0
280
     0
281
     0
  0
CLASS
  1
VISUALSTYLE
  2
AcDbVisualStyle
  3
ObjectDBX Classes
 90
     4095
280
     0
281
     0
  0
CLASS
  1
MATERIAL
  2
AcDbMaterial
  3
ObjectDBX Classes
 90
     1153
280
     0
281
     0
  0
CLASS
  1
SCALE
  2
AcDbScale
  3
ObjectDBX Classes
 90
     1153
280
     0
281
     0
  0
CLASS
  1
SUN
  2
AcDbSun
  3
SCENEOE
 90
     1153
280
     0
281
     0
  0
CLASS
  1
ACDBPLACEHOLDER
  2
AcDbPlaceHolder
  3
ObjectDBX Classes
 90
        0
280
     0
281
     0
  0
CLASS
  1
LAYOUT
  2
AcDbLayout
  3
ObjectDBX Classes
 90
        0
280
     0
281
     0
  0
CLASS
  1
TABLESTYLE
  2
AcDbTableStyle
  3
ObjectDBX Classes
 90
     4095
280
     0
281
     0
  0
CLASS
  1
MLEADERSTYLE
  2
AcDbMLeaderStyle
  3
ACDB_MLEADERSTYLE_CLASS
 90
     4095
280
     0
281
     0
  0
CLASS
  1
RASTERVARIABLES
  2
AcDbRasterVariables
  3
ISM
 90
        0
280
     0
281
     0
  0
ENDSEC
  0
SECTION
  2
TABLES
  0
TABLE
  2
VPORT
  5
8
330
0
100
AcDbSymbolTable
 70
     1
  0
VPORT
  5
29
330
8
100
AcDbSymbolTableRecord
100
AcDbViewportTableRecord
  2
*Active
 70
     0
 10
0.0
 20
0.0
 11
1.0
 21
1.0
 12
2.66746299739491
 22
-28.3317628675328
 13
0.0
 23
0.0
 14
10.0
 24
10.0
 15
10.0
 25
10.0
 16
0.0
 26
0.0
 36
1.0
 17
0.0
 27
0.0
 37
0.0
 40
116.2886976497804
 41
1.516441005802708
 42
50.0
 43
0.0
 44
0.0
 50
0.0
 51
0.0
 71
    16
 72
  2000
 73
     1
 74
     3
 75
     0
 76
     0
 77
     0
 78
     0
281
     0
 65
     1
110
0.0
120
0.0
130
0.0
111
1.0
121
0.0
131
0.0
112
0.0
122
1.0
132
0.0
 79
     0
146
0.0
  0
ENDTAB
  0
TABLE
  2
LTYPE
  5
5
330
0
100
AcDbSymbolTable
 70
     6
  0
LTYPE
  5
14
330
5
100
AcDbSymbolTableRecord
100
AcDbLinetypeTableRecord
  2
ByBlock
 70
     0
  3

 72
    65
 73
     0
 40
0.0
  0
LTYPE
  5
15
330
5
100
AcDbSymbolTableRecord
100
AcDbLinetypeTableRecord
  2
ByLayer
 70
     0
  3

 72
    65
 73
     0
 40
0.0
  0
LTYPE
  5
16
330
5
100
AcDbSymbolTableRecord
100
AcDbLinetypeTableRecord
  2
Continuous
 70
     0
  3
Solid line
 72
    65
 73
     0
 40
0.0
  0
LTYPE
  5
6A
330
5
100
AcDbSymbolTableRecord
100
AcDbLinetypeTableRecord
  2
HIDDEN
 70
     0
  3
Hidden __ __ __ __ __ __ __ __ __ __ __ __ __ __
 72
    65
 73
     2
 40
1.905
 49
1.27
 74
     0
 49
-0.635
 74
     0
  0
LTYPE
  5
6B
330
5
100
AcDbSymbolTableRecord
100
AcDbLinetypeTableRecord
  2
PHANTOM
 70
     0
  3
Phantom ______  __  __  ______  __  __  ______
 72
    65
 73
     6
 40
12.7
 49
6.35
 74
     0
 49
-1.27
 74
     0
 49
1.27
 74
     0
 49
-1.27
 74
     0
 49
1.27
 74
     0
 49
-1.27
 74
     0
  0
LTYPE
  5
6C
330
5
100
AcDbSymbolTableRecord
100
AcDbLinetypeTableRecord
  2
CENTER
 70
     0
  3
Center ____ _ ____ _ ____ _ ____ _ ____ _ ____
 72
    65
 73
     4
 40
10.16
 49
6.35
 74
     0
 49
-1.27
 74
     0
 49
1.27
 74
     0
 49
-1.27
 74
     0
  0
LTYPE
  5
6D
330
5
100
AcDbSymbolTableRecord
100
AcDbLinetypeTableRecord
  2
CENTERX2
 70
     0
  3
Center (2x) ________  __  ________  __  _____
 72
    65
 73
     4
 40
20.32
 49
12.7
 74
     0
 49
-2.54
 74
     0
 49
2.54
 74
     0
 49
-2.54
 74
     0
  0
LTYPE
  5
6E
330
5
100
AcDbSymbolTableRecord
100
AcDbLinetypeTableRecord
  2
DOT2
 70
     0
  3
Dot (.5x) ........................................
 72
    65
 73
     2
 40
0.635
 49
0.0
 74
     0
 49
-0.635
 74
     0
  0
ENDTAB
  0
TABLE
  2
LAYER
  5
2
102
{ACAD_XDICTIONARY
360
204
102
}
330
0
100
AcDbSymbolTable
 70
    18
  0
LAYER
  5
10
330
2
100
AcDbSymbolTableRecord
100
AcDbLayerTableRecord
  2
0
 70
     0
 62
     7
  6
Continuous
370
    -3
390
F
  0
LAYER
  5
6F
330
2
100
AcDbSymbolTableRecord
100
AcDbLayerTableRecord
  2
FORMAT
 70
     0
 62
     2
  6
Continuous
370
    -3
390
F
  0
LAYER
  5
70
330
2
100
AcDbSymbolTableRecord
100
AcDbLayerTableRecord
  2
외형선
 70
     0
 62
     4
  6
Continuous
370
    30
390
F
  0
LAYER
  5
71
330
2
100
AcDbSymbolTableRecord
100
AcDbLayerTableRecord
  2
숨은선
 70
     0
 62
     2
  6
HIDDEN
370
    15
390
F
  0
LAYER
  5
72
330
2
100
AcDbSymbolTableRecord
100
AcDbLayerTableRecord
  2
중심선
 70
     0
 62
     1
  6
CENTERX2
370
    -3
390
F
  0
LAYER
  5
73
330
2
100
AcDbSymbolTableRecord
100
AcDbLayerTableRecord
  2
파단선
 70
     0
 62
     4
  6
Continuous
370
    -3
390
F
  0
LAYER
  5
74
330
2
100
AcDbSymbolTableRecord
100
AcDbLayerTableRecord
  2
해칭선
 70
     0
 62
   100
  6
Continuous
370
    -3
390
F
  0
LAYER
  5
75
330
2
100
AcDbSymbolTableRecord
100
AcDbLayerTableRecord
  2
가는실선
 70
     0
 62
     4
  6
Continuous
370
    -3
390
F
  0
LAYER
  5
76
330
2
100
AcDbSymbolTableRecord
100
AcDbLayerTableRecord
  2
치수_보조선
 70
     0
 62
     4
  6
Continuous
370
    -3
390
F
  0
LAYER
  5
77
330
2
100
AcDbSymbolTableRecord
100
AcDbLayerTableRecord
  2
치수문자_일반주서
 70
     0
 62
     7
  6
Continuous
370
    15
390
F
  0
LAYER
  5
78
330
2
100
AcDbSymbolTableRecord
100
AcDbLayerTableRecord
  2
개별주서
 70
     0
 62
   100
  6
Continuous
370
    30
390
F
  0
LAYER
  5
79
330
2
100
AcDbSymbolTableRecord
100
AcDbLayerTableRecord
  2
중간선
 70
     0
 62
     2
  6
Continuous
370
    15
390
F
  0
LAYER
  5
7A
330
2
100
AcDbSymbolTableRecord
100
AcDbLayerTableRecord
  2
윤곽선
 70
     0
 62
     3
  6
Continuous
370
    40
390
F
  0
LAYER
  5
7B
330
2
100
AcDbSymbolTableRecord
100
AcDbLayerTableRecord
  2
중심마크
 70
     0
 62
   100
  6
Continuous
370
    30
390
F
  0
LAYER
  5
7C
330
2
100
AcDbSymbolTableRecord
100
AcDbLayerTableRecord
  2
가상선
 70
     0
 62
     4
  6
PHANTOM
370
    -3
390
F
  0
LAYER
  5
7D
330
2
100
AcDbSymbolTableRecord
100
AcDbLayerTableRecord
  2
특수지정선
 70
     0
 62
     5
  6
CENTERX2
370
    60
390
F
  0
LAYER
  5
7E
330
2
100
AcDbSymbolTableRecord
100
AcDbLayerTableRecord
  2
참조1
 70
     0
 62
    -4
  6
Continuous
370
    -3
390
F
  0
LAYER
  5
14A
330
2
100
AcDbSymbolTableRecord
100
AcDbLayerTableRecord
  2
Defpoints
 70
     0
 62
     7
  6
Continuous
290
     0
370
    -3
390
F
  0
ENDTAB
  0
TABLE
  2
STYLE
  5
3
330
0
100
AcDbSymbolTable
 70
     2
  0
STYLE
  5
11
330
3
100
AcDbSymbolTableRecord
100
AcDbTextStyleTableRecord
  2
Standard
 70
     0
 40
0.0
 41
1.0
 50
0.0
 71
     0
 42
3.5
  3
txt
  4

  0
STYLE
  5
94
330
3
100
AcDbSymbolTableRecord
100
AcDbTextStyleTableRecord
  2
SLDTEXTSTYLE0
 70
     0
 40
0.0
 41
0.75
 50
0.0
 71
     0
 42
3.5
  3
TXT
  4

  0
ENDTAB
  0
TABLE
  2
VIEW
  5
6
330
0
100
AcDbSymbolTable
 70
     0
  0
ENDTAB
  0
TABLE
  2
UCS
  5
7
330
0
100
AcDbSymbolTable
 70
     0
  0
ENDTAB
  0
TABLE
  2
APPID
  5
9
330
0
100
AcDbSymbolTable
 70
     4
  0
APPID
  5
12
330
9
100
AcDbSymbolTableRecord
100
AcDbRegAppTableRecord
  2
ACAD
 70
     0
  0
APPID
  5
155
330
9
100
AcDbSymbolTableRecord
100
AcDbRegAppTableRecord
  2
PE_URL
 70
     0
  0
APPID
  5
30D
330
9
100
AcDbSymbolTableRecord
100
AcDbRegAppTableRecord
  2
ACAD_DSTYLE_DIMFLIPARROW_SYMBOL
 70
     0
  0
APPID
  5
30E
330
9
100
AcDbSymbolTableRecord
100
AcDbRegAppTableRecord
  2
ACAD_DSTYLE_DIMFLIPARROW_WHICH_SYMBOL
 70
     0
  0
ENDTAB
  0
TABLE
  2
DIMSTYLE
  5
A
330
0
100
AcDbSymbolTable
 70
     3
100
AcDbDimStyleTable
  0
DIMSTYLE
105
27
330
A
100
AcDbSymbolTableRecord
100
AcDbDimStyleTableRecord
  2
ISO-25
 70
     0
 41
2.5
 42
0.625
 43
3.75
 44
1.25
 73
     0
 74
     0
 77
     1
 78
     8
140
2.5
141
2.5
143
0.03937007874016
147
0.625
171
     3
172
     1
178
     0
271
     2
272
     2
274
     3
278
    44
283
     0
284
     8
340
11
  0
DIMSTYLE
105
C8
102
{ACAD_REACTORS
330
284
330
285
330
286
330
287
102
}
330
A
100
AcDbSymbolTableRecord
100
AcDbDimStyleTableRecord
  2
SLDDIMSTYLE0
 70
     0
 41
3.302
 44
0.0
 45
0.000000001
 73
     0
 74
     0
 77
     1
 78
    12
 79
     3
140
3.5
143
0.0393700787401575
147
0.875
148
0.000000001
170
     1
172
     1
173
     1
178
     0
271
     2
272
     2
276
     2
284
    12
289
     0
340
94
  0
DIMSTYLE
105
F1
330
A
100
AcDbSymbolTableRecord
100
AcDbDimStyleTableRecord
  2
SLDDIMSTYLE1
 70
     0
 41
3.302
 44
0.0
 45
0.000000001
 73
     0
 74
     0
 77
     1
 78
    12
 79
     3
140
3.5
143
0.0393700787401575
147
0.875
148
0.000000001
170
     1
173
     1
178
     0
271
     2
272
     2
276
     2
284
    12
340
94
  0
ENDTAB
  0
TABLE
  2
BLOCK_RECORD
  5
1
330
0
100
AcDbSymbolTable
 70
    15
  0
BLOCK_RECORD
  5
1F
330
1
100
AcDbSymbolTableRecord
100
AcDbBlockTableRecord
  2
*Model_Space
340
22
  0
BLOCK_RECORD
  5
1B
330
1
100
AcDbSymbolTableRecord
100
AcDbBlockTableRecord
  2
*Paper_Space
340
1E
  0
BLOCK_RECORD
  5
23
330
1
100
AcDbSymbolTableRecord
100
AcDbBlockTableRecord
  2
*Paper_Space0
340
26
  0
BLOCK_RECORD
  5
7F
330
1
100
AcDbSymbolTableRecord
100
AcDbBlockTableRecord
  2
블럭10
340
0
102
{BLKREFS
331
C0
102
}
  0
BLOCK_RECORD
  5
C9
330
1
100
AcDbSymbolTableRecord
100
AcDbBlockTableRecord
  2
_D
340
0
  0
BLOCK_RECORD
  5
DD
330
1
100
AcDbSymbolTableRecord
100
AcDbBlockTableRecord
  2
_D_1
340
0
  0
BLOCK_RECORD
  5
F2
330
1
100
AcDbSymbolTableRecord
100
AcDbBlockTableRecord
  2
_D_2
340
0
  0
BLOCK_RECORD
  5
105
330
1
100
AcDbSymbolTableRecord
100
AcDbBlockTableRecord
  2
_D_3
340
0
  0
BLOCK_RECORD
  5
11E
330
1
100
AcDbSymbolTableRecord
100
AcDbBlockTableRecord
  2
SW_DOWELSYMBOL_0
340
0
102
{BLKREFS
331
288
102
}
  0
BLOCK_RECORD
  5
208
330
1
100
AcDbSymbolTableRecord
100
AcDbBlockTableRecord
  2
*D7
340
0
  0
BLOCK_RECORD
  5
215
330
1
100
AcDbSymbolTableRecord
100
AcDbBlockTableRecord
  2
*D8
340
0
  0
BLOCK_RECORD
  5
221
330
1
100
AcDbSymbolTableRecord
100
AcDbBlockTableRecord
  2
*D9
340
0
  0
BLOCK_RECORD
  5
22D
330
1
100
AcDbSymbolTableRecord
100
AcDbBlockTableRecord
  2
*D10
340
0
  0
BLOCK_RECORD
  5
28F
330
1
100
AcDbSymbolTableRecord
100
AcDbBlockTableRecord
  2
*D11
340
0
  0
BLOCK_RECORD
  5
29C
330
1
100
AcDbSymbolTableRecord
100
AcDbBlockTableRecord
  2
*D12
340
0
  0
BLOCK_RECORD
  5
2A8
330
1
100
AcDbSymbolTableRecord
100
AcDbBlockTableRecord
  2
*D13
340
0
  0
BLOCK_RECORD
  5
2B4
330
1
100
AcDbSymbolTableRecord
100
AcDbBlockTableRecord
  2
*D14
340
0
  0
ENDTAB
  0
ENDSEC
  0
SECTION
  2
BLOCKS
  0
BLOCK
  5
20
330
1F
100
AcDbEntity
  8
0
100
AcDbBlockBegin
  2
*Model_Space
 70
     0
 10
0.0
 20
0.0
 30
0.0
  3
*Model_Space
  1
*Model_Space
  0
ENDBLK
  5
21
330
1F
100
AcDbEntity
  8
0
100
AcDbBlockEnd
  0
BLOCK
  5
1C
330
1B
100
AcDbEntity
 67
     1
  8
0
100
AcDbBlockBegin
  2
*Paper_Space
 70
     0
 10
0.0
 20
0.0
 30
0.0
  3
*Paper_Space
  1
*Paper_Space
  0
ENDBLK
  5
1D
330
1B
100
AcDbEntity
 67
     1
  8
0
100
AcDbBlockEnd
  0
BLOCK
  5
24
330
23
100
AcDbEntity
  8
0
100
AcDbBlockBegin
  2
*Paper_Space0
 70
     0
 10
0.0
 20
0.0
 30
0.0
  3
*Paper_Space0
  1
*Paper_Space0
  0
ENDBLK
  5
25
330
23
100
AcDbEntity
  8
0
100
AcDbBlockEnd
  0
BLOCK
  5
80
330
7F
100
AcDbEntity
  8
0
100
AcDbBlockBegin
  2
블럭10
 70
     2
 10
0.0
 20
0.0
 30
0.0
  3
블럭10
  1
블럭10
  0
ELLIPSE
  5
82
330
7F
100
AcDbEntity
  8
중심선
100
AcDbEllipse
 10
20.54032771741204
 20
12.0471743016438
 30
0.0
 11
6.600054785286829
 21
-1.261213355974178E-13
 31
0.0
210
0.0
220
0.0
230
1.0
 40
0.636358354079598
 41
0.9219305317359503
 42
6.513795318482858
  0
ELLIPSE
  5
83
330
7F
100
AcDbEntity
  8
중심선
100
AcDbEllipse
 10
20.54032771746488
 20
12.04717430159265
 30
0.0
 11
3.960054785062283
 21
1.540847449632565E-10
 31
0.0
210
0.0
220
0.0
230
1.0
 40
0.3939339440162632
 41
1.131841032648279
 42
5.62031148352944
  0
LINE
  5
84
330
7F
100
AcDbEntity
  8
중심선
100
AcDbLine
 10
2.268634060543552
 20
16.24717430164393
 30
0.0
 11
5.714909304380834
 21
16.24717430164393
 31
0.0
  0
LINE
  5
85
330
7F
100
AcDbEntity
  8
중심선
100
AcDbLine
 10
5.245725140726316
 20
7.84717430164391
 30
0.0
 11
8.692000384563599
 21
7.84717430164391
 31
0.0
  0
LINE
  5
86
330
7F
100
AcDbEntity
  8
중심선
100
AcDbLine
 10
15.74043728645272
 20
16.24717430164393
 30
0.0
 11
8.692000384563599
 21
7.84717430164391
 31
0.0
  0
LINE
  5
87
330
7F
100
AcDbEntity
  8
중심선
100
AcDbLine
 10
0.1404042013395286
 20
13.71084872107135
 30
0.0
 11
3.58671253028996
 21
13.71088815037384
 31
0.0
  0
LINE
  5
88
330
7F
100
AcDbEntity
  8
중심선
100
AcDbLine
 10
2.750260043222114
 20
10.84717430164391
 30
0.0
 11
6.196535287059397
 21
10.84717430164391
 31
0.0
  0
LINE
  5
89
330
7F
100
AcDbEntity
  8
중심선
100
AcDbLine
 10
12.29416204261559
 20
16.24717430164393
 30
0.0
 11
5.245725140726316
 21
7.84717430164391
 31
0.0
  0
LINE
  5
8A
330
7F
100
AcDbEntity
  8
중심선
100
AcDbLine
 10
10.72767329541681
 20
16.24717430164393
 30
0.0
 11
6.196535287059397
 21
10.84717430164391
 31
0.0
  0
LINE
  5
8B
330
7F
100
AcDbEntity
  8
중심선
100
AcDbLine
 10
7.28139805157953
 20
16.24717430164393
 30
0.0
 11
2.750260043222114
 21
10.84717430164391
 31
0.0
  0
LINE
  5
8C
330
7F
100
AcDbEntity
  8
중심선
100
AcDbLine
 10
5.714909304380834
 20
16.24717430164393
 30
0.0
 11
3.58671253028996
 21
13.71088815037384
 31
0.0
  0
LINE
  5
8D
330
7F
100
AcDbEntity
  8
중심선
100
AcDbLine
 10
2.268634060543552
 20
16.24717430164393
 30
0.0
 11
0.1404042013395286
 21
13.71084872107135
 31
0.0
  0
LINE
  5
8E
330
7F
100
AcDbEntity
  8
중심선
100
AcDbLine
 10
7.28139805157953
 20
16.24717430164393
 30
0.0
 11
10.72767329541681
 21
16.24717430164393
 31
0.0
  0
LINE
  5
8F
330
7F
100
AcDbEntity
  8
중심선
100
AcDbLine
 10
12.29416204261559
 20
16.24717430164393
 30
0.0
 11
15.74043728645272
 21
16.24717430164393
 31
0.0
  0
LINE
  5
90
330
7F
100
AcDbEntity
  8
중심선
100
AcDbLine
 10
19.22036997980202
 20
11.08717430171403
 30
0.0
 11
23.66174974927406
 21
11.08717430171406
 31
0.0
  0
LINE
  5
91
330
7F
100
AcDbEntity
  8
중심선
100
AcDbLine
 10
19.22039502424796
 20
13.00717430171391
 30
0.0
 11
19.22036997980202
 21
11.08717430171403
 31
0.0
  0
LINE
  5
92
330
7F
100
AcDbEntity
  8
중심선
100
AcDbLine
 10
19.22039502424796
 20
13.00717430171391
 30
0.0
 11
26.96566020931264
 21
13.00717430171391
 31
0.0
  0
LINE
  5
93
330
7F
100
AcDbEntity
  8
중심선
100
AcDbLine
 10
22.22332737316547
 20
13.45928029700563
 30
0.0
 11
24.52862924686651
 21
15.39360700705356
 31
0.0
  0
ATTDEF
  5
95
330
7F
100
AcDbEntity
  8
FORMAT
 62
     2
100
AcDbText
 10
4.408487351596664
 20
2.075366912832191
 30
0.0
 40
4.233333333333333
  1
E1035108
 41
0.75
  7
SLDTEXTSTYLE0
 11
4.408487351596664
 21
-0.0412997538344756
 31
0.0
100
AcDbAttributeDefinition
  3

  2
AUTOATTR0
 70
     0
 74
     1
  0
ENDBLK
  5
81
330
7F
100
AcDbEntity
  8
0
100
AcDbBlockEnd
  0
BLOCK
  5
CA
330
C9
100
AcDbEntity
  8
0
100
AcDbBlockBegin
  2
_D
 70
     0
 10
0.0
 20
0.0
 30
0.0
  3
_D
  1
_D
  0
SOLID
  5
CC
330
C9
100
AcDbEntity
  8
치수문자_일반주서
100
AcDbTrace
 10
97.9119459855236
 20
12.5010749287239
 30
0.0
 11
98.4199459855236
 21
15.80307492872389
 31
0.0
 12
97.4039459855236
 22
15.80307492872389
 32
0.0
 13
97.4039459855236
 23
15.80307492872389
 33
0.0
  0
SOLID
  5
CD
330
C9
100
AcDbEntity
  8
치수문자_일반주서
100
AcDbTrace
 10
97.9119459855236
 20
-12.49892507127611
 30
0.0
 11
97.4039459855236
 21
-15.80092507127611
 31
0.0
 12
98.4199459855236
 22
-15.80092507127611
 32
0.0
 13
98.4199459855236
 23
-15.80092507127611
 33
0.0
  0
LINE
  5
CE
330
C9
100
AcDbEntity
  8
치수문자_일반주서
100
AcDbLine
 10
87.11906426948089
 20
-5.413291502344828
 30
0.0
 11
87.11906426948089
 21
-6.124228987909328
 31
0.0
  0
LINE
  5
CF
330
C9
100
AcDbEntity
  8
치수문자_일반주서
100
AcDbLine
 10
87.11906426948089
 20
-6.124228987909328
 30
0.0
 11
92.67531426054019
 21
-6.124228987909289
 31
0.0
  0
LINE
  5
D0
330
C9
100
AcDbEntity
  8
치수문자_일반주서
100
AcDbLine
 10
92.67531426054019
 20
-6.124228987909289
 30
0.0
 11
92.67531426054019
 21
-5.413291502344789
 31
0.0
  0
LINE
  5
D1
330
C9
100
AcDbEntity
  8
치수문자_일반주서
100
AcDbLine
 10
87.1190642694808
 20
5.41544135979243
 30
0.0
 11
87.1190642694808
 21
6.12637884535693
 31
0.0
  0
LINE
  5
D2
330
C9
100
AcDbEntity
  8
치수문자_일반주서
100
AcDbLine
 10
87.1190642694808
 20
6.12637884535693
 30
0.0
 11
92.6753142605401
 21
6.126378845356969
 31
0.0
  0
LINE
  5
D3
330
C9
100
AcDbEntity
  8
치수문자_일반주서
100
AcDbLine
 10
92.6753142605401
 20
6.126378845356969
 30
0.0
 11
92.6753142605401
 21
5.415441359792469
 31
0.0
  0
LINE
  5
D4
330
C9
100
AcDbEntity
  8
치수문자_일반주서
100
AcDbLine
 10
79.91194598552357
 20
12.5010749287239
 30
0.0
 11
98.9119459855236
 21
12.5010749287239
 31
0.0
  0
LINE
  5
D5
330
C9
100
AcDbEntity
  8
치수문자_일반주서
100
AcDbLine
 10
79.91194598552357
 20
-12.49892507127611
 30
0.0
 11
98.9119459855236
 21
-12.49892507127611
 31
0.0
  0
LINE
  5
D6
330
C9
100
AcDbEntity
  8
치수문자_일반주서
100
AcDbLine
 10
97.9119459855236
 20
12.5010749287239
 30
0.0
 11
97.9119459855236
 21
18.8510749287239
 31
0.0
  0
LINE
  5
D7
330
C9
100
AcDbEntity
  8
치수문자_일반주서
100
AcDbLine
 10
97.9119459855236
 20
12.5010749287239
 30
0.0
 11
97.9119459855236
 21
-12.49892507127611
 31
0.0
  0
LINE
  5
D8
330
C9
100
AcDbEntity
  8
치수문자_일반주서
100
AcDbLine
 10
97.9119459855236
 20
-12.49892507127611
 30
0.0
 11
97.9119459855236
 21
-18.84892507127611
 31
0.0
  0
MTEXT
  5
D9
330
C9
100
AcDbEntity
  8
치수문자_일반주서
100
AcDbMText
 10
88.16357734596129
 20
-4.52461960173345
 30
0.0
 40
3.5
 41
0.0
 71
     1
 72
     1
  1
0.98
  7
SLDTEXTSTYLE0
 11
-7.044195017643634E-15
 21
1.0
 31
0.0
 73
     1
 44
1.0
  0
MTEXT
  5
DA
330
C9
100
AcDbEntity
  8
치수문자_일반주서
100
AcDbMText
 10
93.40020889632177
 20
-5.22425519681665
 30
0.0
 40
3.5
 41
0.0
 71
     1
 72
     1
  1
%%c
  7
SLDTEXTSTYLE0
 11
-7.044195017643634E-15
 21
1.0
 31
0.0
 73
     1
 44
1.0
  0
MTEXT
  5
DB
330
C9
100
AcDbEntity
  8
치수문자_일반주서
100
AcDbMText
 10
93.40020889632173
 20
0.0541822015574309
 30
0.0
 40
3.5
 41
0.0
 71
     1
 72
     1
  1
25
  7
SLDTEXTSTYLE0
 11
-7.044195017643634E-15
 21
1.0
 31
0.0
 73
     1
 44
1.0
  0
ENDBLK
  5
CB
330
C9
100
AcDbEntity
  8
0
100
AcDbBlockEnd
  0
BLOCK
  5
DE
330
DD
100
AcDbEntity
  8
0
100
AcDbBlockBegin
  2
_D_1
 70
     0
 10
0.0
 20
0.0
 30
0.0
  3
_D_1
  1
_D_1
  0
SOLID
  5
E0
330
DD
100
AcDbEntity
  8
치수문자_일반주서
100
AcDbTrace
 10
-55.08805401447646
 20
7.938574928723906
 30
0.0
 11
-54.58005401447646
 21
11.24057492872391
 31
0.0
 12
-55.59605401447646
 22
11.24057492872391
 32
0.0
 13
-55.59605401447646
 23
11.24057492872391
 33
0.0
  0
SOLID
  5
E1
330
DD
100
AcDbEntity
  8
치수문자_일반주서
100
AcDbTrace
 10
-55.08805401447646
 20
-7.936425071276123
 30
0.0
 11
-55.59605401447646
 21
-11.23842507127612
 31
0.0
 12
-54.58005401447646
 22
-11.23842507127612
 32
0.0
 13
-54.58005401447646
 23
-11.23842507127612
 33
0.0
  0
LINE
  5
E2
330
DD
100
AcDbEntity
  8
치수문자_일반주서
100
AcDbLine
 10
-65.88093573051917
 20
-6.595745043212554
 30
0.0
 11
-65.88093573051917
 21
-7.306682528777054
 31
0.0
  0
LINE
  5
E3
330
DD
100
AcDbEntity
  8
치수문자_일반주서
100
AcDbLine
 10
-65.88093573051917
 20
-7.306682528777054
 30
0.0
 11
-60.32468573945987
 21
-7.306682528777015
 31
0.0
  0
LINE
  5
E4
330
DD
100
AcDbEntity
  8
치수문자_일반주서
100
AcDbLine
 10
-60.32468573945987
 20
-7.306682528777015
 30
0.0
 11
-60.32468573945987
 21
-6.595745043212514
 31
0.0
  0
LINE
  5
E5
330
DD
100
AcDbEntity
  8
치수문자_일반주서
100
AcDbLine
 10
-65.88093573051925
 20
4.232987818924705
 30
0.0
 11
-65.88093573051925
 21
4.943925304489205
 31
0.0
  0
LINE
  5
E6
330
DD
100
AcDbEntity
  8
치수문자_일반주서
100
AcDbLine
 10
-65.88093573051925
 20
4.943925304489205
 30
0.0
 11
-60.32468573945995
 21
4.943925304489244
 31
0.0
  0
LINE
  5
E7
330
DD
100
AcDbEntity
  8
치수문자_일반주서
100
AcDbLine
 10
-60.32468573945995
 20
4.943925304489244
 30
0.0
 11
-60.32468573945994
 21
4.232987818924744
 31
0.0
  0
LINE
  5
E8
330
DD
100
AcDbEntity
  8
치수문자_일반주서
100
AcDbLine
 10
-41.50055401447643
 20
7.938574928723908
 30
0.0
 11
-56.08805401447646
 21
7.938574928723906
 31
0.0
  0
LINE
  5
E9
330
DD
100
AcDbEntity
  8
치수문자_일반주서
100
AcDbLine
 10
-41.50055401447643
 20
-7.936425071276121
 30
0.0
 11
-56.08805401447646
 21
-7.936425071276123
 31
0.0
  0
LINE
  5
EA
330
DD
100
AcDbEntity
  8
치수문자_일반주서
100
AcDbLine
 10
-55.08805401447646
 20
7.938574928723906
 30
0.0
 11
-55.08805401447646
 21
14.28857492872391
 31
0.0
  0
LINE
  5
EB
330
DD
100
AcDbEntity
  8
치수문자_일반주서
100
AcDbLine
 10
-55.08805401447646
 20
7.938574928723906
 30
0.0
 11
-55.08805401447646
 21
-7.936425071276123
 31
0.0
  0
LINE
  5
EC
330
DD
100
AcDbEntity
  8
치수문자_일반주서
100
AcDbLine
 10
-55.08805401447646
 20
-7.936425071276123
 30
0.0
 11
-55.08805401447646
 21
-14.28642507127612
 31
0.0
  0
MTEXT
  5
ED
330
DD
100
AcDbEntity
  8
치수문자_일반주서
100
AcDbMText
 10
-64.83642265403878
 20
-5.707073142601175
 30
0.0
 40
3.5
 41
0.0
 71
     1
 72
     1
  1
0.63
  7
SLDTEXTSTYLE0
 11
-7.044195017643634E-15
 21
1.0
 31
0.0
 73
     1
 44
1.0
  0
MTEXT
  5
EE
330
DD
100
AcDbEntity
  8
치수문자_일반주서
100
AcDbMText
 10
-59.59979110367827
 20
-9.639347554964907
 30
0.0
 40
3.5
 41
0.0
 71
     1
 72
     1
  1
%%c
  7
SLDTEXTSTYLE0
 11
-7.044195017643634E-15
 21
1.0
 31
0.0
 73
     1
 44
1.0
  0
MTEXT
  5
EF
330
DD
100
AcDbEntity
  8
치수문자_일반주서
100
AcDbMText
 10
-59.59979110367831
 20
-4.360910156590827
 30
0.0
 40
3.5
 41
0.0
 71
     1
 72
     1
  1
15.88
  7
SLDTEXTSTYLE0
 11
-7.044195017643634E-15
 21
1.0
 31
0.0
 73
     1
 44
1.0
  0
ENDBLK
  5
DF
330
DD
100
AcDbEntity
  8
0
100
AcDbBlockEnd
  0
BLOCK
  5
F3
330
F2
100
AcDbEntity
  8
0
100
AcDbBlockBegin
  2
_D_2
 70
     0
 10
0.0
 20
0.0
 30
0.0
  3
_D_2
  1
_D_2
  0
SOLID
  5
F5
330
F2
100
AcDbEntity
  8
치수문자_일반주서
100
AcDbTrace
 10
78.91194598552357
 20
22.70945704078098
 30
0.0
 11
75.60994598552358
 21
23.21745704078098
 31
0.0
 12
75.60994598552358
 22
22.20145704078098
 32
0.0
 13
75.60994598552358
 23
22.20145704078098
 33
0.0
  0
SOLID
  5
F6
330
F2
100
AcDbEntity
  8
치수문자_일반주서
100
AcDbTrace
 10
33.91194598552358
 20
22.70945704078098
 30
0.0
 11
37.21394598552358
 21
22.20145704078098
 31
0.0
 12
37.21394598552358
 22
23.21745704078098
 32
0.0
 13
37.21394598552358
 23
23.21745704078098
 33
0.0
  0
LINE
  5
F7
330
F2
100
AcDbEntity
  8
치수문자_일반주서
100
AcDbLine
 10
50.99757990370087
 20
33.5023387568237
 30
0.0
 11
50.28664241813637
 21
33.50233875682371
 31
0.0
  0
LINE
  5
F8
330
F2
100
AcDbEntity
  8
치수문자_일반주서
100
AcDbLine
 10
50.28664241813637
 20
33.50233875682371
 30
0.0
 11
50.28664241813632
 21
27.94608876576441
 31
0.0
  0
LINE
  5
F9
330
F2
100
AcDbEntity
  8
치수문자_일반주서
100
AcDbLine
 10
50.28664241813632
 20
27.94608876576441
 30
0.0
 11
50.99757990370082
 21
27.9460887657644
 31
0.0
  0
LINE
  5
FA
330
F2
100
AcDbEntity
  8
치수문자_일반주서
100
AcDbLine
 10
61.82631276583813
 20
33.50233875682363
 30
0.0
 11
62.53725025140263
 21
33.50233875682363
 31
0.0
  0
LINE
  5
FB
330
F2
100
AcDbEntity
  8
치수문자_일반주서
100
AcDbLine
 10
62.53725025140263
 20
33.50233875682363
 30
0.0
 11
62.53725025140258
 21
27.94608876576432
 31
0.0
  0
LINE
  5
FC
330
F2
100
AcDbEntity
  8
치수문자_일반주서
100
AcDbLine
 10
62.53725025140258
 20
27.94608876576432
 30
0.0
 11
61.82631276583808
 21
27.94608876576432
 31
0.0
  0
LINE
  5
FD
330
F2
100
AcDbEntity
  8
치수문자_일반주서
100
AcDbLine
 10
78.91194598552357
 20
13.41913328825097
 30
0.0
 11
78.91194598552357
 21
23.70945704078098
 31
0.0
  0
LINE
  5
FE
330
F2
100
AcDbEntity
  8
치수문자_일반주서
100
AcDbLine
 10
33.91194598552358
 20
13.43021557357927
 30
0.0
 11
33.91194598552358
 21
23.70945704078098
 31
0.0
  0
LINE
  5
FF
330
F2
100
AcDbEntity
  8
치수문자_일반주서
100
AcDbLine
 10
78.91194598552357
 20
22.70945704078098
 30
0.0
 11
33.91194598552358
 21
22.70945704078098
 31
0.0
  0
MTEXT
  5
100
330
F2
100
AcDbEntity
  8
치수문자_일반주서
100
AcDbMText
 10
49.77288369264962
 20
27.2746663066427
 30
0.0
 40
3.5
 41
0.0
 71
     1
 72
     1
  1

  7
SLDTEXTSTYLE0
 73
     1
 44
1.0
  0
MTEXT
  5
101
330
F2
100
AcDbEntity
  8
치수문자_일반주서
100
AcDbMText
 10
51.88625180431223
 20
32.4578256803433
 30
0.0
 40
3.5
 41
0.0
 71
     1
 72
     1
  1
1.77
  7
SLDTEXTSTYLE0
 73
     1
 44
1.0
  0
MTEXT
  5
102
330
F2
100
AcDbEntity
  8
치수문자_일반주서
100
AcDbMText
 10
53.82583514124664
 20
27.22119412998281
 30
0.0
 40
3.5
 41
0.0
 71
     1
 72
     1
  1
45
  7
SLDTEXTSTYLE0
 73
     1
 44
1.0
  0
MTEXT
  5
103
330
F2
100
AcDbEntity
  8
치수문자_일반주서
100
AcDbMText
 10
64.3829534965432
 20
27.27466630664259
 30
0.0
 40
3.5
 41
0.0
 71
     1
 72
     1
  1

  7
SLDTEXTSTYLE0
 73
     1
 44
1.0
  0
ENDBLK
  5
F4
330
F2
100
AcDbEntity
  8
0
100
AcDbBlockEnd
  0
BLOCK
  5
106
330
105
100
AcDbEntity
  8
0
100
AcDbBlockBegin
  2
_D_3
 70
     0
 10
0.0
 20
0.0
 30
0.0
  3
_D_3
  1
_D_3
  0
SOLID
  5
108
330
105
100
AcDbEntity
  8
치수문자_일반주서
100
AcDbTrace
 10
78.91194598552357
 20
38.36394344956528
 30
0.0
 11
75.60994598552358
 21
38.87194344956529
 31
0.0
 12
75.60994598552358
 22
37.85594344956528
 32
0.0
 13
75.60994598552358
 23
37.85594344956528
 33
0.0
  0
SOLID
  5
109
330
105
100
AcDbEntity
  8
치수문자_일반주서
100
AcDbTrace
 10
-42.08805401447642
 20
38.36394344956528
 30
0.0
 11
-38.78605401447642
 21
37.85594344956527
 31
0.0
 12
-38.78605401447642
 22
38.87194344956528
 32
0.0
 13
-38.78605401447642
 23
38.87194344956528
 33
0.0
  0
LINE
  5
10A
330
105
100
AcDbEntity
  8
치수문자_일반주서
100
AcDbLine
 10
14.47912979228456
 20
49.15682516560803
 30
0.0
 11
13.76819230672006
 21
49.15682516560804
 31
0.0
  0
LINE
  5
10B
330
105
100
AcDbEntity
  8
치수문자_일반주서
100
AcDbLine
 10
13.76819230672006
 20
49.15682516560804
 30
0.0
 11
13.76819230672002
 21
43.60057517454874
 31
0.0
  0
LINE
  5
10C
330
105
100
AcDbEntity
  8
치수문자_일반주서
100
AcDbLine
 10
13.76819230672002
 20
43.60057517454874
 30
0.0
 11
14.47912979228452
 21
43.60057517454873
 31
0.0
  0
LINE
  5
10D
330
105
100
AcDbEntity
  8
치수문자_일반주서
100
AcDbLine
 10
25.30786265442182
 20
49.15682516560796
 30
0.0
 11
26.01880013998632
 21
49.15682516560796
 31
0.0
  0
LINE
  5
10E
330
105
100
AcDbEntity
  8
치수문자_일반주서
100
AcDbLine
 10
26.01880013998632
 20
49.15682516560796
 30
0.0
 11
26.01880013998629
 21
43.60057517454865
 31
0.0
  0
LINE
  5
10F
330
105
100
AcDbEntity
  8
치수문자_일반주서
100
AcDbLine
 10
26.01880013998629
 20
43.60057517454865
 30
0.0
 11
25.30786265442179
 21
43.60057517454866
 31
0.0
  0
LINE
  5
110
330
105
100
AcDbEntity
  8
치수문자_일반주서
100
AcDbLine
 10
78.91194598552357
 20
13.21639659633511
 30
0.0
 11
78.91194598552357
 21
39.36394344956528
 31
0.0
  0
LINE
  5
111
330
105
100
AcDbEntity
  8
치수문자_일반주서
100
AcDbLine
 10
-42.08805401447642
 20
7.351074928723897
 30
0.0
 11
-42.08805401447642
 21
39.36394344956528
 31
0.0
  0
LINE
  5
112
330
105
100
AcDbEntity
  8
치수문자_일반주서
100
AcDbLine
 10
78.91194598552357
 20
38.36394344956528
 30
0.0
 11
-42.08805401447642
 21
38.36394344956528
 31
0.0
  0
MTEXT
  5
113
330
105
100
AcDbEntity
  8
치수문자_일반주서
100
AcDbMText
 10
13.25443358123332
 20
42.92915271542702
 30
0.0
 40
3.5
 41
0.0
 71
     1
 72
     1
  1

  7
SLDTEXTSTYLE0
 73
     1
 44
1.0
  0
MTEXT
  5
114
330
105
100
AcDbEntity
  8
치수문자_일반주서
100
AcDbMText
 10
15.36780169289593
 20
48.11231208912763
 30
0.0
 40
3.5
 41
0.0
 71
     1
 72
     1
  1
4.76
  7
SLDTEXTSTYLE0
 73
     1
 44
1.0
  0
MTEXT
  5
115
330
105
100
AcDbEntity
  8
치수문자_일반주서
100
AcDbMText
 10
16.01432954948426
 20
42.87568053876715
 30
0.0
 40
3.5
 41
0.0
 71
     1
 72
     1
  1
121
  7
SLDTEXTSTYLE0
 73
     1
 44
1.0
  0
MTEXT
  5
116
330
105
100
AcDbEntity
  8
치수문자_일반주서
100
AcDbMText
 10
27.86450338512689
 20
42.92915271542692
 30
0.0
 40
3.5
 41
0.0
 71
     1
 72
     1
  1

  7
SLDTEXTSTYLE0
 73
     1
 44
1.0
  0
ENDBLK
  5
107
330
105
100
AcDbEntity
  8
0
100
AcDbBlockEnd
  0
BLOCK
  5
11F
330
11E
100
AcDbEntity
  8
0
100
AcDbBlockBegin
  2
SW_DOWELSYMBOL_0
 70
     0
 10
0.0
 20
0.0
 30
0.0
  3
SW_DOWELSYMBOL_0
  1
SW_DOWELSYMBOL_0
  0
CIRCLE
  5
121
330
11E
100
AcDbEntity
  8
해칭선
 62
     0
100
AcDbCircle
 10
0.0
 20
0.0
 30
0.0
 40
3.000000000000001
  0
HATCH
  5
122
330
11E
100
AcDbEntity
  8
0
  6
Continuous
 62
     0
370
     0
100
AcDbHatch
 10
0.0
 20
0.0
 30
0.0
210
0.0
220
0.0
230
1.0
  2
SOLID
 70
     1
 71
     0
 91
        1
 92
        0
 93
        3
 72
     2
 10
0.0
 20
0.0
 40
3.000000000000001
 50
0.0
 51
90.0
 73
     1
 72
     1
 10
0.0
 20
3.000000000000001
 11
0.0
 21
0.0
 72
     1
 10
0.0
 20
0.0
 11
3.000000000000001
 21
0.0
 97
        0
 75
     0
 76
     1
 98
        1
 10
0.0
 20
0.0
  0
HATCH
  5
123
330
11E
100
AcDbEntity
  8
0
  6
Continuous
 62
     0
370
     0
100
AcDbHatch
 10
0.0
 20
0.0
 30
0.0
210
0.0
220
0.0
230
1.0
  2
SOLID
 70
     1
 71
     0
 91
        1
 92
        0
 93
        3
 72
     2
 10
0.0
 20
0.0
 40
3.000000000000001
 50
180.0
 51
270.0000000000007
 73
     1
 72
     1
 10
0.0
 20
-3.000000000000001
 11
0.0
 21
0.0
 72
     1
 10
0.0
 20
0.0
 11
-3.000000000000001
 21
0.0
 97
        0
 75
     0
 76
     1
 98
        1
 10
0.0
 20
0.0
  0
ENDBLK
  5
120
330
11E
100
AcDbEntity
  8
0
100
AcDbBlockEnd
  0
BLOCK
  5
209
330
208
100
AcDbEntity
  8
0
100
AcDbBlockBegin
  2
*D7
 70
     1
 10
0.0
 20
0.0
 30
0.0
  3
*D7
  1
*D8
  0
LINE
  5
20B
330
208
100
AcDbEntity
  8
치수문자_일반주서
 62
     0
370
    -2
100
AcDbLine
 10
34.41750000000014
 20
38.35400000000007
 30
0.0
 11
4.875000000000145
 21
38.35399999999996
 31
0.0
  0
LINE
  5
20C
330
208
100
AcDbEntity
  8
치수문자_일반주서
 62
     0
370
    -2
100
AcDbLine
 10
22.98750000000017
 20
6.60400000000007
 30
0.0
 11
4.875000000000256
 21
6.603999999999999
 31
0.0
  0
LINE
  5
20D
330
208
100
AcDbEntity
  8
치수문자_일반주서
 62
     0
370
    -2
100
AcDbLine
 10
4.875000000000145
 20
38.35399999999996
 30
0.0
 11
4.874999999999997
 21
80.70799999999996
 31
0.0
  0
LINE
  5
20E
330
208
100
AcDbEntity
  8
치수문자_일반주서
 62
     0
370
    -2
100
AcDbLine
 10
4.875000000000156
 20
35.05199999999996
 30
0.0
 11
4.875000000000244
 21
9.905999999999999
 31
0.0
  0
SOLID
  5
20F
330
208
100
AcDbEntity
  8
치수문자_일반주서
 62
     0
100
AcDbTrace
 10
5.42533333333349
 20
35.05199999999996
 30
0.0
 11
4.324666666666823
 21
35.05199999999996
 31
0.0
 12
4.875000000000145
 22
38.35399999999996
 32
0.0
 13
4.875000000000145
 23
38.35399999999996
 33
0.0
  0
SOLID
  5
210
330
208
100
AcDbEntity
  8
치수문자_일반주서
 62
     0
100
AcDbTrace
 10
4.324666666666911
 20
9.905999999999997
 30
0.0
 11
5.425333333333578
 21
9.906
 31
0.0
 12
4.875000000000256
 22
6.603999999999999
 32
0.0
 13
4.875000000000256
 23
6.603999999999999
 33
0.0
  0
MTEXT
  5
211
330
208
100
AcDbEntity
  8
치수문자_일반주서
100
AcDbMText
 10
0.0000000000000595
 20
62.83299999999994
 30
0.0
 40
4.0
 41
0.0
 71
     2
 72
     1
  1
\A1;%%c31.75 [1 1/4]
  7
SLDTEXTSTYLE0
 11
-3.496765431890262E-15
 21
1.0
 31
0.0
 73
     1
 44
1.0
  0
POINT
  5
212
330
208
100
AcDbEntity
  8
Defpoints
 62
     0
100
AcDbPoint
 10
34.48000000000014
 20
38.35400000000007
 30
0.0
  0
POINT
  5
213
330
208
100
AcDbEntity
  8
Defpoints
 62
     0
100
AcDbPoint
 10
23.05000000000017
 20
6.60400000000007
 30
0.0
  0
POINT
  5
214
330
208
100
AcDbEntity
  8
Defpoints
 62
     0
100
AcDbPoint
 10
4.875000000000256
 20
6.604000000000003
 30
0.0
  0
ENDBLK
  5
20A
330
208
100
AcDbEntity
  8
0
100
AcDbBlockEnd
  0
BLOCK
  5
216
330
215
100
AcDbEntity
  8
0
100
AcDbBlockBegin
  2
*D8
 70
     1
 10
0.0
 20
0.0
 30
0.0
  3
*D8
  1
*D9
  0
LINE
  5
218
330
215
100
AcDbEntity
  8
치수문자_일반주서
 62
     0
370
    -2
100
AcDbLine
 10
184.9750000000002
 20
38.41650000000022
 30
0.0
 11
184.9750000000002
 21
53.35400000000009
 31
0.0
  0
LINE
  5
219
330
215
100
AcDbEntity
  8
치수문자_일반주서
 62
     0
370
    -2
100
AcDbLine
 10
83.3750000000002
 20
38.41636653488495
 30
0.0
 11
83.3750000000002
 21
53.35400000000009
 31
0.0
  0
LINE
  5
21A
330
215
100
AcDbEntity
  8
치수문자_일반주서
 62
     0
370
    -2
100
AcDbLine
 10
181.6730000000002
 20
53.35400000000009
 30
0.0
 11
86.67700000000019
 21
53.35400000000009
 31
0.0
  0
SOLID
  5
21B
330
215
100
AcDbEntity
  8
치수문자_일반주서
 62
     0
100
AcDbTrace
 10
181.6730000000002
 20
52.80366666666676
 30
0.0
 11
181.6730000000002
 21
53.90433333333343
 31
0.0
 12
184.9750000000002
 22
53.35400000000009
 32
0.0
 13
184.9750000000002
 23
53.35400000000009
 33
0.0
  0
SOLID
  5
21C
330
215
100
AcDbEntity
  8
치수문자_일반주서
 62
     0
100
AcDbTrace
 10
86.67700000000019
 20
53.90433333333343
 30
0.0
 11
86.67700000000019
 21
52.80366666666676
 31
0.0
 12
83.3750000000002
 22
53.35400000000009
 32
0.0
 13
83.3750000000002
 23
53.35400000000009
 33
0.0
  0
MTEXT
  5
21D
330
215
100
AcDbEntity
  8
치수문자_일반주서
100
AcDbMText
 10
134.1750000000002
 20
58.22900000000009
 30
0.0
 40
4.0
 41
0.0
 71
     2
 72
     1
  1
\A1;101.6 [4]
  7
SLDTEXTSTYLE0
 73
     1
 44
1.0
  0
POINT
  5
21E
330
215
100
AcDbEntity
  8
Defpoints
 62
     0
100
AcDbPoint
 10
184.9750000000002
 20
38.35400000000022
 30
0.0
  0
POINT
  5
21F
330
215
100
AcDbEntity
  8
Defpoints
 62
     0
100
AcDbPoint
 10
83.3750000000002
 20
38.35386653488495
 30
0.0
  0
POINT
  5
220
330
215
100
AcDbEntity
  8
Defpoints
 62
     0
100
AcDbPoint
 10
83.3750000000002
 20
53.35400000000009
 30
0.0
  0
ENDBLK
  5
217
330
215
100
AcDbEntity
  8
0
100
AcDbBlockEnd
  0
BLOCK
  5
222
330
221
100
AcDbEntity
  8
0
100
AcDbBlockBegin
  2
*D9
 70
     1
 10
0.0
 20
0.0
 30
0.0
  3
*D9
  1
*D10
  0
LINE
  5
224
330
221
100
AcDbEntity
  8
치수문자_일반주서
 62
     0
370
    -2
100
AcDbLine
 10
184.9750000000002
 20
38.41650000000022
 30
0.0
 11
184.9750000000002
 21
68.3540000000001
 31
0.0
  0
LINE
  5
225
330
221
100
AcDbEntity
  8
치수문자_일반주서
 62
     0
370
    -2
100
AcDbLine
 10
19.87500000000015
 20
36.51150000000008
 30
0.0
 11
19.87500000000016
 21
68.3540000000001
 31
0.0
  0
LINE
  5
226
330
221
100
AcDbEntity
  8
치수문자_일반주서
 62
     0
370
    -2
100
AcDbLine
 10
181.6730000000002
 20
68.3540000000001
 30
0.0
 11
23.17700000000016
 21
68.3540000000001
 31
0.0
  0
SOLID
  5
227
330
221
100
AcDbEntity
  8
치수문자_일반주서
 62
     0
100
AcDbTrace
 10
181.6730000000002
 20
67.80366666666677
 30
0.0
 11
181.6730000000002
 21
68.90433333333343
 31
0.0
 12
184.9750000000002
 22
68.3540000000001
 32
0.0
 13
184.9750000000002
 23
68.3540000000001
 33
0.0
  0
SOLID
  5
228
330
221
100
AcDbEntity
  8
치수문자_일반주서
 62
     0
100
AcDbTrace
 10
23.17700000000016
 20
68.90433333333343
 30
0.0
 11
23.17700000000016
 21
67.80366666666677
 31
0.0
 12
19.87500000000016
 22
68.3540000000001
 32
0.0
 13
19.87500000000016
 23
68.3540000000001
 33
0.0
  0
MTEXT
  5
229
330
221
100
AcDbEntity
  8
치수문자_일반주서
100
AcDbMText
 10
102.4250000000001
 20
73.2290000000001
 30
0.0
 40
4.0
 41
0.0
 71
     2
 72
     1
  1
\A1;165.1 [6 1/2]
  7
SLDTEXTSTYLE0
 73
     1
 44
1.0
  0
POINT
  5
22A
330
221
100
AcDbEntity
  8
Defpoints
 62
     0
100
AcDbPoint
 10
184.9750000000002
 20
38.35400000000022
 30
0.0
  0
POINT
  5
22B
330
221
100
AcDbEntity
  8
Defpoints
 62
     0
100
AcDbPoint
 10
19.87500000000015
 20
36.44900000000008
 30
0.0
  0
POINT
  5
22C
330
221
100
AcDbEntity
  8
Defpoints
 62
     0
100
AcDbPoint
 10
19.87500000000015
 20
68.3540000000001
 30
0.0
  0
ENDBLK
  5
223
330
221
100
AcDbEntity
  8
0
100
AcDbBlockEnd
  0
BLOCK
  5
22E
330
22D
100
AcDbEntity
  8
0
100
AcDbBlockBegin
  2
*D10
 70
     1
 10
0.0
 20
0.0
 30
0.0
  3
*D10
  1
*D11
  0
LINE
  5
230
330
22D
100
AcDbEntity
  8
치수문자_일반주서
 62
     0
370
    -2
100
AcDbLine
 10
185.0375000000002
 20
38.35400000000008
 30
0.0
 11
199.9750000000002
 21
38.35400000000014
 31
0.0
  0
LINE
  5
231
330
22D
100
AcDbEntity
  8
치수문자_일반주서
 62
     0
370
    -2
100
AcDbLine
 10
185.0375000000002
 20
6.604000000000219
 30
0.0
 11
199.9750000000003
 21
6.604000000000276
 31
0.0
  0
LINE
  5
232
330
22D
100
AcDbEntity
  8
치수문자_일반주서
 62
     0
370
    -2
100
AcDbLine
 10
199.9750000000002
 20
38.35400000000014
 30
0.0
 11
199.975
 21
80.70800000000014
 31
0.0
  0
LINE
  5
233
330
22D
100
AcDbEntity
  8
치수문자_일반주서
 62
     0
370
    -2
100
AcDbLine
 10
199.9750000000002
 20
35.05200000000014
 30
0.0
 11
199.9750000000003
 21
9.906000000000276
 31
0.0
  0
SOLID
  5
234
330
22D
100
AcDbEntity
  8
치수문자_일반주서
 62
     0
100
AcDbTrace
 10
200.5253333333335
 20
35.05200000000014
 30
0.0
 11
199.4246666666668
 21
35.05200000000014
 31
0.0
 12
199.9750000000002
 22
38.35400000000014
 32
0.0
 13
199.9750000000002
 23
38.35400000000014
 33
0.0
  0
SOLID
  5
235
330
22D
100
AcDbEntity
  8
치수문자_일반주서
 62
     0
100
AcDbTrace
 10
199.424666666667
 20
9.906000000000274
 30
0.0
 11
200.5253333333336
 21
9.906000000000278
 31
0.0
 12
199.9750000000003
 22
6.604000000000276
 32
0.0
 13
199.9750000000003
 23
6.604000000000276
 33
0.0
  0
MTEXT
  5
236
330
22D
100
AcDbEntity
  8
치수문자_일반주서
100
AcDbMText
 10
195.1000000000001
 20
62.83300000000013
 30
0.0
 40
4.0
 41
0.0
 71
     2
 72
     1
  1
\A1;%%c31.75 [1 1/4]
  7
SLDTEXTSTYLE0
 11
-3.580687802255638E-15
 21
1.0
 31
0.0
 73
     1
 44
1.0
  0
POINT
  5
237
330
22D
100
AcDbEntity
  8
Defpoints
 62
     0
100
AcDbPoint
 10
184.9750000000002
 20
38.35400000000008
 30
0.0
  0
POINT
  5
238
330
22D
100
AcDbEntity
  8
Defpoints
 62
     0
100
AcDbPoint
 10
184.9750000000002
 20
6.604000000000219
 30
0.0
  0
POINT
  5
239
330
22D
100
AcDbEntity
  8
Defpoints
 62
     0
100
AcDbPoint
 10
199.9750000000003
 20
6.604000000000275
 30
0.0
  0
ENDBLK
  5
22F
330
22D
100
AcDbEntity
  8
0
100
AcDbBlockEnd
  0
BLOCK
  5
290
330
28F
100
AcDbEntity
  8
0
100
AcDbBlockBegin
  2
*D11
 70
     1
 10
0.0
 20
0.0
 30
0.0
  3
*D11
  1
*D12
  0
LINE
  5
292
330
28F
100
AcDbEntity
  8
치수문자_일반주서
 62
     0
370
    -2
100
AcDbLine
 10
-48.38750000000063
 20
12.7
 30
0.0
 11
-66.50000000000063
 21
12.69999999999993
 31
0.0
  0
LINE
  5
293
330
28F
100
AcDbEntity
  8
치수문자_일반주서
 62
     0
370
    -2
100
AcDbLine
 10
-48.38750000000063
 20
-12.7
 30
0.0
 11
-66.50000000000054
 21
-12.70000000000007
 31
0.0
  0
LINE
  5
294
330
28F
100
AcDbEntity
  8
치수문자_일반주서
 62
     0
370
    -2
100
AcDbLine
 10
-66.50000000000063
 20
12.69999999999993
 30
0.0
 11
-66.50000000000077
 21
52.22899999999989
 31
0.0
  0
LINE
  5
295
330
28F
100
AcDbEntity
  8
치수문자_일반주서
 62
     0
370
    -2
100
AcDbLine
 10
-66.50000000000061
 20
9.397999999999932
 30
0.0
 11
-66.50000000000055
 21
-9.398000000000074
 31
0.0
  0
SOLID
  5
296
330
28F
100
AcDbEntity
  8
치수문자_일반주서
 62
     0
100
AcDbTrace
 10
-65.94966666666728
 20
9.397999999999934
 30
0.0
 11
-67.05033333333394
 21
9.39799999999993
 31
0.0
 12
-66.50000000000063
 22
12.69999999999993
 32
0.0
 13
-66.50000000000063
 23
12.69999999999993
 33
0.0
  0
SOLID
  5
297
330
28F
100
AcDbEntity
  8
치수문자_일반주서
 62
     0
100
AcDbTrace
 10
-67.05033333333388
 20
-9.398000000000076
 30
0.0
 11
-65.94966666666723
 21
-9.398000000000073
 31
0.0
 12
-66.50000000000054
 22
-12.70000000000007
 32
0.0
 13
-66.50000000000054
 23
-12.70000000000007
 33
0.0
  0
MTEXT
  5
298
330
28F
100
AcDbEntity
  8
치수문자_일반주서
100
AcDbMText
 10
-71.37500000000072
 20
40.85399999999987
 30
0.0
 40
4.0
 41
0.0
 71
     2
 72
     1
  1
\A1;%%c25.4 [1]
  7
SLDTEXTSTYLE0
 11
-3.356894814614647E-15
 21
1.0
 31
0.0
 73
     1
 44
1.0
  0
POINT
  5
299
330
28F
100
AcDbEntity
  8
Defpoints
 62
     0
100
AcDbPoint
 10
-48.32500000000063
 20
12.7
 30
0.0
  0
POINT
  5
29A
330
28F
100
AcDbEntity
  8
Defpoints
 62
     0
100
AcDbPoint
 10
-48.32500000000063
 20
-12.7
 30
0.0
  0
POINT
  5
29B
330
28F
100
AcDbEntity
  8
Defpoints
 62
     0
100
AcDbPoint
 10
-66.50000000000054
 20
-12.70000000000007
 30
0.0
  0
ENDBLK
  5
291
330
28F
100
AcDbEntity
  8
0
100
AcDbBlockEnd
  0
BLOCK
  5
29D
330
29C
100
AcDbEntity
  8
0
100
AcDbBlockBegin
  2
*D12
 70
     1
 10
0.0
 20
0.0
 30
0.0
  3
*D12
  1
*D13
  0
LINE
  5
29F
330
29C
100
AcDbEntity
  8
치수문자_일반주서
 62
     0
370
    -2
100
AcDbLine
 10
113.5999999999994
 20
15.93750000000014
 30
0.0
 11
113.5999999999994
 21
30.87500000000003
 31
0.0
  0
LINE
  5
2A0
330
29C
100
AcDbEntity
  8
치수문자_일반주서
 62
     0
370
    -2
100
AcDbLine
 10
11.99999999999942
 20
15.93736653488489
 30
0.0
 11
11.99999999999942
 21
30.87500000000003
 31
0.0
  0
LINE
  5
2A1
330
29C
100
AcDbEntity
  8
치수문자_일반주서
 62
     0
370
    -2
100
AcDbLine
 10
110.2979999999994
 20
30.87500000000003
 30
0.0
 11
15.30199999999942
 21
30.87500000000003
 31
0.0
  0
SOLID
  5
2A2
330
29C
100
AcDbEntity
  8
치수문자_일반주서
 62
     0
100
AcDbTrace
 10
110.2979999999994
 20
30.32466666666669
 30
0.0
 11
110.2979999999994
 21
31.42533333333336
 31
0.0
 12
113.5999999999994
 22
30.87500000000003
 32
0.0
 13
113.5999999999994
 23
30.87500000000003
 33
0.0
  0
SOLID
  5
2A3
330
29C
100
AcDbEntity
  8
치수문자_일반주서
 62
     0
100
AcDbTrace
 10
15.30199999999942
 20
31.42533333333336
 30
0.0
 11
15.30199999999942
 21
30.32466666666669
 31
0.0
 12
11.99999999999942
 22
30.87500000000003
 32
0.0
 13
11.99999999999942
 23
30.87500000000003
 33
0.0
  0
MTEXT
  5
2A4
330
29C
100
AcDbEntity
  8
치수문자_일반주서
100
AcDbMText
 10
62.7999999999994
 20
35.75000000000003
 30
0.0
 40
4.0
 41
0.0
 71
     2
 72
     1
  1
\A1;101.6 [4]
  7
SLDTEXTSTYLE0
 73
     1
 44
1.0
  0
POINT
  5
2A5
330
29C
100
AcDbEntity
  8
Defpoints
 62
     0
100
AcDbPoint
 10
113.5999999999994
 20
15.87500000000014
 30
0.0
  0
POINT
  5
2A6
330
29C
100
AcDbEntity
  8
Defpoints
 62
     0
100
AcDbPoint
 10
11.99999999999942
 20
15.87486653488489
 30
0.0
  0
POINT
  5
2A7
330
29C
100
AcDbEntity
  8
Defpoints
 62
     0
100
AcDbPoint
 10
11.99999999999942
 20
30.87500000000003
 30
0.0
  0
ENDBLK
  5
29E
330
29C
100
AcDbEntity
  8
0
100
AcDbBlockEnd
  0
BLOCK
  5
2A9
330
2A8
100
AcDbEntity
  8
0
100
AcDbBlockBegin
  2
*D13
 70
     1
 10
0.0
 20
0.0
 30
0.0
  3
*D13
  1
*D14
  0
LINE
  5
2AB
330
2A8
100
AcDbEntity
  8
치수문자_일반주서
 62
     0
370
    -2
100
AcDbLine
 10
113.5999999999994
 20
15.93750000000014
 30
0.0
 11
113.5999999999994
 21
45.87500000000003
 31
0.0
  0
LINE
  5
2AC
330
2A8
100
AcDbEntity
  8
치수문자_일반주서
 62
     0
370
    -2
100
AcDbLine
 10
-51.50000000000063
 20
14.03250000000001
 30
0.0
 11
-51.50000000000064
 21
45.87500000000003
 31
0.0
  0
LINE
  5
2AD
330
2A8
100
AcDbEntity
  8
치수문자_일반주서
 62
     0
370
    -2
100
AcDbLine
 10
110.2979999999994
 20
45.87500000000003
 30
0.0
 11
-48.19800000000064
 21
45.87500000000003
 31
0.0
  0
SOLID
  5
2AE
330
2A8
100
AcDbEntity
  8
치수문자_일반주서
 62
     0
100
AcDbTrace
 10
110.2979999999994
 20
45.32466666666669
 30
0.0
 11
110.2979999999994
 21
46.42533333333336
 31
0.0
 12
113.5999999999994
 22
45.87500000000003
 32
0.0
 13
113.5999999999994
 23
45.87500000000003
 33
0.0
  0
SOLID
  5
2AF
330
2A8
100
AcDbEntity
  8
치수문자_일반주서
 62
     0
100
AcDbTrace
 10
-48.19800000000064
 20
46.42533333333336
 30
0.0
 11
-48.19800000000064
 21
45.32466666666669
 31
0.0
 12
-51.50000000000064
 22
45.87500000000003
 32
0.0
 13
-51.50000000000064
 23
45.87500000000003
 33
0.0
  0
MTEXT
  5
2B0
330
2A8
100
AcDbEntity
  8
치수문자_일반주서
100
AcDbMText
 10
31.04999999999936
 20
50.75000000000003
 30
0.0
 40
4.0
 41
0.0
 71
     2
 72
     1
  1
\A1;165.1 [6 1/2]
  7
SLDTEXTSTYLE0
 73
     1
 44
1.0
  0
POINT
  5
2B1
330
2A8
100
AcDbEntity
  8
Defpoints
 62
     0
100
AcDbPoint
 10
113.5999999999994
 20
15.87500000000014
 30
0.0
  0
POINT
  5
2B2
330
2A8
100
AcDbEntity
  8
Defpoints
 62
     0
100
AcDbPoint
 10
-51.50000000000063
 20
13.97000000000001
 30
0.0
  0
POINT
  5
2B3
330
2A8
100
AcDbEntity
  8
Defpoints
 62
     0
100
AcDbPoint
 10
-51.50000000000063
 20
45.87500000000003
 30
0.0
  0
ENDBLK
  5
2AA
330
2A8
100
AcDbEntity
  8
0
100
AcDbBlockEnd
  0
BLOCK
  5
2B5
330
2B4
100
AcDbEntity
  8
0
100
AcDbBlockBegin
  2
*D14
 70
     1
 10
0.0
 20
0.0
 30
0.0
  3
*D14
  1
*D15
  0
LINE
  5
2B7
330
2B4
100
AcDbEntity
  8
치수문자_일반주서
 62
     0
370
    -2
100
AcDbLine
 10
113.6624999999994
 20
14.28750000000009
 30
0.0
 11
128.5999999999994
 21
14.28750000000014
 31
0.0
  0
LINE
  5
2B8
330
2B4
100
AcDbEntity
  8
치수문자_일반주서
 62
     0
370
    -2
100
AcDbLine
 10
113.6624999999994
 20
-14.28749999999991
 30
0.0
 11
128.5999999999995
 21
-14.28749999999986
 31
0.0
  0
LINE
  5
2B9
330
2B4
100
AcDbEntity
  8
치수문자_일반주서
 62
     0
370
    -2
100
AcDbLine
 10
128.5999999999994
 20
14.28750000000014
 30
0.0
 11
128.5999999999992
 21
62.03723769604574
 31
0.0
  0
LINE
  5
2BA
330
2B4
100
AcDbEntity
  8
치수문자_일반주서
 62
     0
370
    -2
100
AcDbLine
 10
128.5999999999994
 20
10.98550000000014
 30
0.0
 11
128.5999999999995
 21
-10.98549999999986
 31
0.0
  0
SOLID
  5
2BB
330
2B4
100
AcDbEntity
  8
치수문자_일반주서
 62
     0
100
AcDbTrace
 10
129.1503333333327
 20
10.98550000000015
 30
0.0
 11
128.0496666666661
 21
10.98550000000014
 31
0.0
 12
128.5999999999994
 22
14.28750000000014
 32
0.0
 13
128.5999999999994
 23
14.28750000000014
 33
0.0
  0
SOLID
  5
2BC
330
2B4
100
AcDbEntity
  8
치수문자_일반주서
 62
     0
100
AcDbTrace
 10
128.0496666666662
 20
-10.98549999999986
 30
0.0
 11
129.1503333333328
 21
-10.98549999999986
 31
0.0
 12
128.5999999999995
 22
-14.28749999999986
 32
0.0
 13
128.5999999999995
 23
-14.28749999999986
 33
0.0
  0
MTEXT
  5
2BD
330
2B4
100
AcDbEntity
  8
치수문자_일반주서
100
AcDbMText
 10
123.7249999999993
 20
43.66223769604571
 30
0.0
 40
4.0
 41
0.0
 71
     2
 72
     1
  1
\A1;%%c28.58 [1 1/8]
  7
SLDTEXTSTYLE0
 11
-3.978542002506247E-15
 21
1.0
 31
0.0
 73
     1
 44
1.0
  0
POINT
  5
2BE
330
2B4
100
AcDbEntity
  8
Defpoints
 62
     0
100
AcDbPoint
 10
113.5999999999994
 20
14.28750000000009
 30
0.0
  0
POINT
  5
2BF
330
2B4
100
AcDbEntity
  8
Defpoints
 62
     0
100
AcDbPoint
 10
113.5999999999994
 20
-14.28749999999991
 30
0.0
  0
POINT
  5
2C0
330
2B4
100
AcDbEntity
  8
Defpoints
 62
     0
100
AcDbPoint
 10
128.5999999999995
 20
-14.28749999999986
 30
0.0
  0
ENDBLK
  5
2B6
330
2B4
100
AcDbEntity
  8
0
100
AcDbBlockEnd
  0
ENDSEC
  0
SECTION
  2
ENTITIES
  0
LINE
  5
BD
330
1F
100
AcDbEntity
  8
참조1
100
AcDbLine
 10
18.41194598552359
 20
0.0010749287238892
 30
0.0
 11
18.4119459855236
 21
-39.99892507127611
 31
0.0
  0
LINE
  5
BE
330
1F
100
AcDbEntity
  8
참조1
100
AcDbLine
 10
18.4119459855236
 20
-39.99892507127611
 30
0.0
 11
3.253089171214916
 21
-39.9989250712761
 31
0.0
  0
INSERT
  5
C0
330
1F
100
AcDbEntity
  8
0
  6
Continuous
 62
     7
100
AcDbBlockReference
 66
     1
  2
블럭10
 10
4.471673053398387
 20
-52.04609937292004
 30
0.0
  0
ATTRIB
  5
C1
330
C0
100
AcDbEntity
  8
FORMAT
 62
     2
100
AcDbText
 10
-4.709622235342893
 20
-49.97073246008785
 30
0.0
 40
4.233333333333333
  1
E2035108 [ 6 FLUTE ]
 41
0.75
  7
SLDTEXTSTYLE0
 11
-4.709622235342893
 21
-52.08739912675452
 31
0.0
100
AcDbAttribute
  2
AUTOATTR0
 70
     0
 74
     1
  0
SEQEND
  5
C2
330
C0
100
AcDbEntity
  8
0
  6
Continuous
 62
     7
  0
HATCH
  5
C3
330
1F
100
AcDbEntity
  8
중심선
100
AcDbHatch
 10
0.0
 20
0.0
 30
0.0
210
0.0
220
0.0
230
1.0
  2
SOLID
 70
     1
 71
     0
 91
        1
 92
        0
 93
        4
 72
     1
 10
10.18658235777922
 20
-35.7989250712761
 11
6.74030711394194
 21
-35.7989250712761
 72
     1
 10
6.74030711394194
 20
-35.7989250712761
 11
4.612077254737917
 21
-38.3352506518487
 72
     1
 10
4.612077254737917
 20
-38.3352506518487
 11
8.058385583688349
 21
-38.33521122254621
 72
     1
 10
8.058385583688349
 20
-38.33521122254621
 11
10.18658235777922
 21
-35.7989250712761
 97
        0
 75
     0
 76
     1
 98
        1
 10
0.0
 20
0.0
  0
HATCH
  5
C4
330
1F
100
AcDbEntity
  8
중심선
100
AcDbHatch
 10
0.0
 20
0.0
 30
0.0
210
0.0
220
0.0
230
1.0
  2
SOLID
 70
     1
 71
     0
 91
        1
 92
        0
 93
        4
 72
     1
 10
15.1993463488152
 20
-35.7989250712761
 11
11.75307110497792
 21
-35.7989250712761
 72
     1
 10
11.75307110497792
 20
-35.7989250712761
 11
7.221933096620504
 21
-41.19892507127612
 72
     1
 10
7.221933096620504
 20
-41.19892507127612
 11
10.66820834045778
 21
-41.19892507127612
 72
     1
 10
10.66820834045778
 20
-41.19892507127612
 11
15.1993463488152
 21
-35.7989250712761
 97
        0
 75
     0
 76
     1
 98
        1
 10
0.0
 20
0.0
  0
HATCH
  5
C5
330
1F
100
AcDbEntity
  8
중심선
100
AcDbHatch
 10
0.0
 20
0.0
 30
0.0
210
0.0
220
0.0
230
1.0
  2
SOLID
 70
     1
 71
     0
 91
        1
 92
        0
 93
        4
 72
     1
 10
20.21211033985107
 20
-35.7989250712761
 11
16.76583509601396
 21
-35.7989250712761
 72
     1
 10
16.76583509601396
 20
-35.7989250712761
 11
9.717398194124705
 21
-44.19892507127612
 72
     1
 10
9.717398194124705
 20
-44.19892507127612
 11
13.16367343796199
 21
-44.19892507127612
 72
     1
 10
13.16367343796199
 20
-44.19892507127612
 11
20.21211033985107
 21
-35.7989250712761
 97
        0
 75
     0
 76
     1
 98
        1
 10
0.0
 20
0.0
  0
HATCH
  5
C6
330
1F
100
AcDbEntity
  8
중심선
100
AcDbHatch
 10
0.0
 20
0.0
 30
0.0
210
0.0
220
0.0
230
1.0
  2
SOLID
 70
     1
 71
     0
 91
        1
 92
        0
 93
        6
 72
     3
 10
25.01200077086327
 20
-39.99892507132738
 11
3.960054785062284
 21
1.540850780301639E-10
 40
0.3939339440162633
 50
17.09539180608432
 51
320.0019657685075
 73
     0
 72
     1
 10
26.69500042656387
 20
-38.58681907591438
 11
29.0003023002649
 21
-36.65249236586649
 72
     3
 10
25.01200077081042
 20
-39.99892507127625
 11
6.600054785286829
 21
-1.249000902703301E-13
 40
0.6363583540795982
 50
39.99873849337406
 51
368.4976242363724
 73
     1
 72
     1
 10
31.43733326271103
 20
-39.03892507120613
 11
23.69206807764634
 21
-39.0389250712061
 72
     1
 10
23.69206807764634
 20
-39.0389250712061
 11
23.69204303320041
 21
-40.95892507120602
 72
     1
 10
23.69204303320041
 20
-40.95892507120602
 11
28.13342280267245
 21
-40.95892507120599
 97
        0
 75
     0
 76
     1
 98
        1
 10
0.0
 20
0.0
  0
LINE
  5
117
330
1F
100
AcDbEntity
  8
참조1
100
AcDbLine
 10
101.2254298008692
 20
7.441074928723896
 30
0.0
 11
101.2254298008692
 21
-7.438925071276109
 31
0.0
  0
LINE
  5
118
330
1F
100
AcDbEntity
  8
참조1
100
AcDbLine
 10
113.9254298008692
 20
5.441074928723896
 30
0.0
 11
101.2254298008692
 21
5.441074928723896
 31
0.0
  0
SOLID
  5
119
330
1F
100
AcDbEntity
  8
참조1
100
AcDbTrace
 10
101.2254298008692
 20
5.441074928723896
 30
0.0
 11
107.5754298008692
 21
4.425074928723896
 31
0.0
 12
107.5754298008692
 22
6.457074928723896
 32
0.0
 13
107.5754298008692
 23
6.457074928723896
 33
0.0
  0
LINE
  5
11A
330
1F
100
AcDbEntity
  8
참조1
100
AcDbLine
 10
113.9254298008692
 20
-5.438925071276109
 30
0.0
 11
101.2254298008692
 21
-5.438925071276109
 31
0.0
  0
SOLID
  5
11B
330
1F
100
AcDbEntity
  8
참조1
100
AcDbTrace
 10
101.2254298008692
 20
-5.438925071276109
 30
0.0
 11
107.5754298008692
 21
-6.454925071276109
 31
0.0
 12
107.5754298008692
 22
-4.422925071276109
 32
0.0
 13
107.5754298008692
 23
-4.422925071276109
 33
0.0
  0
MTEXT
  5
11C
330
1F
100
AcDbEntity
  8
참조1
100
AcDbMText
 10
110.6229198933395
 20
10.98929157337383
 30
0.0
 40
3.5
 41
0.0
 71
     1
 72
     1
  1
A
  7
SLDTEXTSTYLE0
 73
     1
 44
1.0
  0
MTEXT
  5
11D
330
1F
100
AcDbEntity
  8
참조1
100
AcDbMText
 10
110.6229198933395
 20
0.1092915733738259
 30
0.0
 40
3.5
 41
0.0
 71
     1
 72
     1
  1
A
  7
SLDTEXTSTYLE0
 73
     1
 44
1.0
  0
LINE
  5
23B
330
1F
100
AcDbEntity
  8
0
  6
Continuous
 62
     1
370
    15
100
AcDbLine
 10
35.81948118455068
 20
-2.765529077831117
 30
0.0
 11
35.9143757236782
 21
-2.857665505852664
 31
0.0
1001
PE_URL
1000

  0
LINE
  5
23C
330
1F
100
AcDbEntity
  8
0
  6
Continuous
 62
     1
370
    15
100
AcDbLine
 10
41.87321549065815
 20
2.658241573903859
 30
0.0
 11
41.66870196510166
 21
2.857240218221817
 31
0.0
1001
PE_URL
1000

  0
LINE
  5
23D
330
1F
100
AcDbEntity
  8
0
  6
Continuous
 62
     1
370
    15
100
AcDbLine
 10
111.8719523393756
 20
-14.28749999999991
 30
0.0
 11
113.5999999999994
 21
-14.28749999999991
 31
0.0
1001
PE_URL
1000

  0
LINE
  5
23E
330
1F
100
AcDbEntity
  8
0
  6
Continuous
 62
     1
370
    15
100
AcDbLine
 10
11.99999999999942
 20
-14.28749999999977
 30
0.0
 11
25.55608338110668
 21
-14.28749999999991
 31
0.0
1001
PE_URL
1000

  0
LINE
  5
23F
330
1F
100
AcDbEntity
  8
0
  6
Continuous
 62
     1
370
    15
100
AcDbLine
 10
70.44070454051354
 20
14.28749999999996
 30
0.0
 11
66.98799385833138
 21
14.28749999999996
 31
0.0
1001
PE_URL
1000

  0
LINE
  5
240
330
1F
100
AcDbEntity
  8
0
  6
Continuous
 62
     1
370
    15
100
AcDbLine
 10
52.02468059038446
 20
-14.28749999999991
 30
0.0
 11
55.47958663439184
 21
-14.28749999999991
 31
0.0
1001
PE_URL
1000

  0
LINE
  5
241
330
1F
100
AcDbEntity
  8
0
  6
Continuous
 62
     1
370
    15
100
AcDbLine
 10
100.3654616187207
 20
14.28749999999996
 30
0.0
 11
96.91198732748855
 21
14.28749999999996
 31
0.0
1001
PE_URL
1000

  0
LINE
  5
242
330
1F
100
AcDbEntity
  8
0
  6
Continuous
 62
     1
370
    15
100
AcDbLine
 10
37.06349519707729
 20
-14.28749999999991
 30
0.0
 11
40.51767188075446
 21
-14.28749999999991
 31
0.0
1001
PE_URL
1000

  0
LINE
  5
243
330
1F
100
AcDbEntity
  8
0
  6
Continuous
 62
     1
370
    15
100
AcDbLine
 10
85.4040523567329
 20
14.28749999999996
 30
0.0
 11
81.94942171472063
 21
14.28749999999996
 31
0.0
1001
PE_URL
1000

  0
LINE
  5
244
330
1F
100
AcDbEntity
  8
0
  6
Continuous
 62
     1
370
    15
100
AcDbLine
 10
66.98799385833144
 20
-14.28749999999991
 30
0.0
 11
70.44070454051345
 21
-14.28749999999991
 31
0.0
1001
PE_URL
1000

  0
LINE
  5
245
330
1F
100
AcDbEntity
  8
0
  6
Continuous
 62
     1
370
    15
100
AcDbLine
 10
25.5560833811066
 20
14.28749999999996
 30
0.0
 11
11.99999999999942
 21
14.28750000000009
 31
0.0
1001
PE_URL
1000

  0
LINE
  5
246
330
1F
100
AcDbEntity
  8
0
  6
Continuous
 62
     1
370
    15
100
AcDbLine
 10
113.5999999999994
 20
14.28749999999996
 30
0.0
 11
111.8719523393756
 21
14.28749999999996
 31
0.0
1001
PE_URL
1000

  0
LINE
  5
247
330
1F
100
AcDbEntity
  8
0
  6
Continuous
 62
     1
370
    15
100
AcDbLine
 10
96.91198732748843
 20
-14.28749999999991
 30
0.0
 11
100.3654616187207
 21
-14.28749999999991
 31
0.0
1001
PE_URL
1000

  0
LINE
  5
248
330
1F
100
AcDbEntity
  8
0
  6
Continuous
 62
     1
370
    15
100
AcDbLine
 10
55.47958663439184
 20
14.28749999999996
 30
0.0
 11
52.02468059038434
 21
14.28749999999996
 31
0.0
1001
PE_URL
1000

  0
LINE
  5
249
330
1F
100
AcDbEntity
  8
0
  6
Continuous
 62
     1
370
    15
100
AcDbLine
 10
81.94942171472053
 20
-14.28749999999991
 30
0.0
 11
85.40405235673282
 21
-14.28749999999991
 31
0.0
1001
PE_URL
1000

  0
LINE
  5
24A
330
1F
100
AcDbEntity
  8
0
  6
Continuous
 62
     1
370
    15
100
AcDbLine
 10
40.51767188075436
 20
14.28749999999996
 30
0.0
 11
37.06349519707718
 21
14.28749999999996
 31
0.0
1001
PE_URL
1000

  0
LINE
  5
24C
330
1F
100
AcDbEntity
  8
외형선
  6
Continuous
370
    15
100
AcDbLine
 10
-48.32500000000063
 20
-12.7
 30
0.0
 11
11.99999999999942
 21
-12.7
 31
0.0
  0
LINE
  5
24F
330
1F
100
AcDbEntity
  8
외형선
  6
Continuous
370
    15
100
AcDbLine
 10
-51.50000000000063
 20
-9.525000000000016
 30
0.0
 11
-48.32500000000063
 21
-12.7
 31
0.0
  0
LINE
  5
250
330
1F
100
AcDbEntity
  8
0
  6
Continuous
 62
     1
370
    15
100
AcDbLine
 10
113.5999999999994
 20
8.56400696272254
 30
0.0
 11
113.5999999999994
 21
14.28750000000007
 31
0.0
1001
PE_URL
1000

  0
SPLINE
  5
251
330
1F
100
AcDbEntity
  8
0
  6
Continuous
 62
     1
370
    15
100
AcDbSpline
210
0.0
220
0.0
230
1.0
 70
     8
 71
     3
 72
    25
 73
    21
 74
     0
 42
0.000000001
 43
0.00000001
 40
0.0045825770675645
 40
0.0045825770675645
 40
0.0045825770675645
 40
0.0045825770675645
 40
0.0544672829900751
 40
0.1089623835124796
 40
0.1634508549807326
 40
0.217914457036826
 40
0.2723700064714151
 40
0.3314400932500237
 40
0.3905184663888956
 40
0.449609690724028
 40
0.5087058609543462
 40
0.5677881523181051
 40
0.6268605800584885
 40
0.6859277230892009
 40
0.7449941728512117
 40
0.8040645224298382
 40
0.863143355663446
 40
0.9222352362992978
 40
0.9813309276883572
 40
1.0
 40
1.0
 40
1.0
 40
1.0
 10
15.14097557266805
 20
14.28750000000006
 30
0.0
 10
22.98864835808491
 20
9.231063960536295
 30
0.0
 10
24.34794805043583
 20
8.199870527431061
 30
0.0
 10
26.4176511550912
 20
6.406334771269887
 30
0.0
 10
28.54674380536377
 20
4.434683111413224
 30
0.0
 10
30.6747177748568
 20
2.360467006717856
 30
0.0
 10
32.86211124280025
 20
0.175408525663014
 30
0.0
 10
35.11026492137155
 20
-2.075694048472672
 30
0.0
 10
37.41877624023637
 20
-4.332934399195701
 30
0.0
 10
39.72796898617529
 20
-6.477358972135417
 30
0.0
 10
42.0373738635974
 20
-8.452928502500944
 30
0.0
 10
44.34612701962192
 20
-10.20840505737365
 30
0.0
 10
46.65434266595221
 20
-11.69781733317021
 30
0.0
 10
48.96223975149258
 20
-12.88235647767574
 30
0.0
 10
51.27009794394911
 20
-13.73182269669916
 30
0.0
 10
53.57818655226424
 20
-14.22189507995326
 30
0.0
 10
55.88676330457234
 20
-14.34804576796042
 30
0.0
 10
58.19595955553226
 20
-14.07601555654483
 30
0.0
 10
59.97891556184694
 20
-13.65315111020081
 30
0.0
 10
60.99182551288698
 20
-13.21308795479222
 30
0.0
 10
61.23499591836689
 20
-13.10744150929368
 30
0.0
1001
PE_URL
1000

  0
SPLINE
  5
252
330
1F
100
AcDbEntity
  8
0
  6
Continuous
 62
     1
370
    15
100
AcDbSpline
210
0.0
220
0.0
230
1.0
 70
     8
 71
     3
 72
    13
 73
     9
 74
     0
 42
0.000000001
 43
0.00000001
 40
0.0
 40
0.0
 40
0.0
 40
0.0
 40
0.1279072623673748
 40
0.3022993142516614
 40
0.4766910737269934
 40
0.6510960999490012
 40
0.8255279206195878
 40
1.0
 40
1.0
 40
1.0
 40
1.0
 10
100.3654616187207
 20
14.25107109081374
 30
0.0
 10
100.9297131869758
 20
14.24627687561388
 30
0.0
 10
102.2632798585773
 20
14.23494610408093
 30
0.0
 10
104.3660314045291
 20
13.78270820887077
 30
0.0
 10
106.6739066580452
 20
12.97617383369579
 30
0.0
 10
108.98204694253
 20
11.81455523123711
 30
0.0
 10
111.290695032247
 20
10.36450173837811
 30
0.0
 10
112.8301724659101
 20
9.1773490025192
 30
0.0
 10
113.5999999999994
 20
8.583704144043343
 30
0.0
1001
PE_URL
1000

  0
SPLINE
  5
254
330
1F
100
AcDbEntity
  8
0
  6
Continuous
 62
     1
370
    15
100
AcDbSpline
210
0.0
220
0.0
230
1.0
 70
     8
 71
     3
 72
    11
 73
     7
 74
     0
 42
0.000000001
 43
0.00000001
 40
0.0
 40
0.0
 40
0.0
 40
0.0
 40
0.3086210507870028
 40
0.6171708885445392
 40
0.9256733300028794
 40
0.9999999999999999
 40
0.9999999999999999
 40
0.9999999999999999
 40
0.9999999999999999
 10
113.5999999999994
 20
14.28750000000007
 30
0.0
 10
112.8301722124064
 20
14.24177182408068
 30
0.0
 10
111.2906942717944
 20
14.35882657364306
 30
0.0
 10
108.9820499833267
 20
14.03547497254488
 30
0.0
 10
107.2578406890702
 20
13.61787664659314
 30
0.0
 10
106.3031551655728
 20
13.19521681108671
 30
0.0
 10
106.1178019786475
 20
13.11315696460509
 30
0.0
1001
PE_URL
1000

  0
SPLINE
  5
255
330
1F
100
AcDbEntity
  8
0
  6
Continuous
 62
     1
370
    15
100
AcDbSpline
210
0.0
220
0.0
230
1.0
 70
     8
 71
     3
 72
    27
 73
    23
 74
     0
 42
0.000000001
 43
0.00000001
 40
0.0
 40
0.0
 40
0.0
 40
0.0
 40
0.0416216539204289
 40
0.0931125215817198
 40
0.1446118152513567
 40
0.1961232419856894
 40
0.2476313470339563
 40
0.2991280791667198
 40
0.3506174164258174
 40
0.4021033543657236
 40
0.4535898966011222
 40
0.5050810453133832
 40
0.556580791764344
 40
0.6080926358860671
 40
0.6596001688624
 40
0.7110964999483916
 40
0.7625856081348862
 40
0.8100524027360397
 40
0.8575262164956616
 40
0.905021707959229
 40
0.952522977712706
 40
1.0
 40
1.0
 40
1.0
 40
1.0
 10
66.98799385833138
 20
-14.25865262046128
 30
0.0
 10
66.36611025219014
 20
-14.2467701842418
 30
0.0
 10
64.97488368515252
 20
-14.22018778073987
 30
0.0
 10
62.81408406768632
 20
-13.73488848884424
 30
0.0
 10
60.50535895059825
 20
-12.89969038402038
 30
0.0
 10
58.19597284978101
 20
-11.71747969949372
 30
0.0
 10
55.88675974334415
 20
-10.23291052413818
 30
0.0
 10
53.57818750625292
 20
-8.480970471521143
 30
0.0
 10
51.27009768836303
 20
-6.50846217814887
 30
0.0
 10
48.96223981997547
 20
-4.366439877654454
 30
0.0
 10
46.65434264760049
 20
-2.110690084082003
 30
0.0
 10
44.34612702454032
 20
0.2001355820035262
 30
0.0
 10
42.03737386227903
 20
2.505966061519422
 30
0.0
 10
39.72796898652852
 20
4.746350158115647
 30
0.0
 10
37.41877624014168
 20
6.863208063837228
 30
0.0
 10
35.11026492139695
 20
8.801187452512094
 30
0.0
 10
32.86211124279401
 20
10.46543097962312
 30
0.0
 10
30.67471777485841
 20
11.83542458797451
 30
0.0
 10
28.54674380536339
 20
12.90746925898326
 30
0.0
 10
26.41765115509138
 20
13.68742466834572
 30
0.0
 10
24.28824718309689
 20
14.18691163232752
 30
0.0
 10
22.86929497731516
 20
14.25389616531531
 30
0.0
 10
22.15999999999986
 20
14.28737988140697
 30
0.0
1001
PE_URL
1000

  0
SPLINE
  5
256
330
1F
100
AcDbEntity
  8
0
  6
Continuous
 62
     1
370
    15
100
AcDbSpline
210
0.0
220
0.0
230
1.0
 70
     8
 71
     3
 72
    30
 73
    26
 74
     0
 42
0.000000001
 43
0.00000001
 40
0.0
 40
0.0
 40
0.0
 40
0.0
 40
0.0170128549976136
 40
0.0590588072515661
 40
0.1010855690586575
 40
0.1431061170717084
 40
0.1886874663260598
 40
0.2342752097386359
 40
0.2798728697587037
 40
0.3254743462718247
 40
0.3710651131771154
 40
0.4166482688313229
 40
0.4622273465467568
 40
0.5078058893023738
 40
0.5533874413459888
 40
0.5989755397900198
 40
0.6445737062436132
 40
0.6901748132595514
 40
0.7357651793347566
 40
0.7813480861852292
 40
0.8269270677127722
 40
0.8725056671244743
 40
0.9180874285337619
 40
0.9636758885568254
 40
1.0
 40
1.0
 40
1.0
 40
1.0
 10
25.5560833811066
 20
14.24931483636241
 30
0.0
 10
25.84328715511663
 20
14.25875784526022
 30
0.0
 10
26.840292791946
 20
14.29153851860685
 30
0.0
 10
28.54675377078629
 20
14.01543820888158
 30
0.0
 10
30.67471511281965
 20
13.43333849481026
 30
0.0
 10
32.86211202362114
 20
12.50896671210056
 30
0.0
 10
35.11026470499917
 20
11.25902168869421
 30
0.0
 10
37.41877629814233
 20
9.680695127418907
 30
0.0
 10
39.72796897098554
 20
7.850553442144333
 30
0.0
 10
42.03737386643839
 20
5.815881114026372
 30
0.0
 10
44.34612702344301
 20
3.62957645215424
 30
0.0
 10
46.65434264783158
 20
1.348919927768012
 30
0.0
 10
48.96223982014811
 20
-0.9667739524896514
 30
0.0
 10
51.27009768744116
 20
-3.257273221854672
 30
0.0
 10
53.5781875097684
 20
-5.463002914879425
 30
0.0
 10
55.88675973020106
 20
-7.526592084540568
 30
0.0
 10
58.19597289885029
 20
-9.394107010578095
 30
0.0
 10
60.50535876747413
 20
-11.01683705427338
 30
0.0
 10
62.81408475088698
 20
-12.35259142173822
 30
0.0
 10
65.12228134719322
 20
-13.36663593616873
 30
0.0
 10
67.43017154959671
 20
-14.03173973318511
 30
0.0
 10
69.73803250369409
 20
-14.334163103236
 30
0.0
 10
72.04614276076944
 20
-14.25280743598028
 30
0.0
 10
74.19817599163605
 20
-13.86712649366143
 30
0.0
 10
75.5810268558082
 20
-13.34725934722947
 30
0.0
 10
76.1942517613428
 20
-13.11672437775383
 30
0.0
1001
PE_URL
1000

  0
SPLINE
  5
257
330
1F
100
AcDbEntity
  8
0
  6
Continuous
 62
     1
370
    15
100
AcDbSpline
210
0.0
220
0.0
230
1.0
 70
     8
 71
     3
 72
    30
 73
    26
 74
     0
 42
0.000000001
 43
0.00000001
 40
0.0
 40
0.0
 40
0.0
 40
0.0
 40
0.0131780503533012
 40
0.0587681728014143
 40
0.1043690153929555
 40
0.1499678454775754
 40
0.1955564561610348
 40
0.2411383682085804
 40
0.2867171182480913
 40
0.3322962504047055
 40
0.3778793078972218
 40
0.4234698246391216
 40
0.4690710823572513
 40
0.5146693995033185
 40
0.5602576486065503
 40
0.6058393512877314
 40
0.6514180446709694
 40
0.6969972730157925
 40
0.7425805793128659
 40
0.7881714968861767
 40
0.8337731241027101
 40
0.8793709348135774
 40
0.9249588288841811
 40
0.9705403287754285
 40
0.9999999999999999
 40
0.9999999999999999
 40
0.9999999999999999
 40
0.9999999999999999
 10
81.94942171472053
 20
-14.24920683042001
 30
0.0
 10
81.72699562733568
 20
-14.26031667085126
 30
0.0
 10
80.73507539721597
 20
-14.30986155835396
 30
0.0
 10
78.97333574185086
 20
-14.02207056727483
 30
0.0
 10
76.66398205705488
 20
-13.38384903386578
 30
0.0
 10
74.35473637936293
 20
-12.36901039970941
 30
0.0
 10
72.04613985331957
 20
-11.03940661122705
 30
0.0
 10
69.7380332826339
 20
-9.42034312562861
 30
0.0
 10
67.43017134088532
 20
-7.556506966747842
 30
0.0
 10
65.12228140312237
 20
-5.49570051639132
 30
0.0
 10
62.81408473589791
 20
-3.291701683497757
 30
0.0
 10
60.50535877149074
 20
-1.001728121698869
 30
0.0
 10
58.19597289777798
 20
1.314199274118042
 30
0.0
 10
55.88675973047345
 20
3.595984835878941
 30
0.0
 10
53.57818750975075
 20
5.784064932937309
 30
0.0
 10
51.27009768723941
 20
7.821307394370464
 30
0.0
 10
48.96223982097262
 20
9.654766271060378
 30
0.0
 10
46.65434264473529
 20
11.23678353103119
 30
0.0
 10
44.3461270350056
 20
12.52611519002978
 30
0.0
 10
42.03737382327253
 20
13.48946134050661
 30
0.0
 10
39.72796913211833
 20
14.10046326103078
 30
0.0
 10
37.41877569690266
 20
14.34736644343941
 30
0.0
 10
35.11026694818498
 20
14.20848980093795
 30
0.0
 10
33.07412580609532
 20
13.79897544811018
 30
0.0
 10
31.80782343605743
 20
13.30707555889536
 30
0.0
 10
31.31069831210868
 20
13.11396544619062
 30
0.0
1001
PE_URL
1000

  0
LINE
  5
258
330
1F
100
AcDbEntity
  8
0
  6
Continuous
 62
     1
370
    15
100
AcDbLine
 10
113.5999999999994
 20
-14.18323769604565
 30
0.0
 11
113.5999999999994
 21
-8.567143908302553
 31
0.0
1001
PE_URL
1000

  0
SPLINE
  5
259
330
1F
100
AcDbEntity
  8
0
  6
Continuous
 62
     1
370
    15
100
AcDbSpline
210
0.0
220
0.0
230
1.0
 70
     8
 71
     3
 72
    12
 73
     8
 74
     0
 42
0.000000001
 43
0.00000001
 40
0.0078965336612292
 40
0.0078965336612292
 40
0.0078965336612292
 40
0.0078965336612292
 40
0.2325747808306873
 40
0.4652683422601045
 40
0.6979335976912834
 40
0.9304926609688442
 40
1.0
 40
1.0
 40
1.0
 40
1.0
 10
11.99999999999942
 20
-12.21895440037146
 30
0.0
 10
22.91746018132121
 20
-14.03213475070704
 30
0.0
 10
24.31233993691906
 20
-14.29721717766118
 30
0.0
 10
26.41764974363984
 20
-14.31423900500669
 30
0.0
 10
28.54674909647752
 20
-14.01533651159508
 30
0.0
 10
30.17753848704563
 20
-13.60459724174195
 30
0.0
 10
31.09872713283994
 20
-13.20574402674873
 30
0.0
 10
31.31069831210878
 20
-13.11396544619059
 30
0.0
1001
PE_URL
1000

  0
SPLINE
  5
25A
330
1F
100
AcDbEntity
  8
0
  6
Continuous
 62
     1
370
    15
100
AcDbSpline
210
0.0
220
0.0
230
1.0
 70
     8
 71
     3
 72
    26
 73
    22
 74
     0
 42
0.000000001
 43
0.00000001
 40
0.0
 40
0.0
 40
0.0
 40
0.0
 40
0.0371984260035301
 40
0.0906876201034111
 40
0.1441888046439761
 40
0.1976923504623193
 40
0.2511833183182287
 40
0.3046657126360986
 40
0.3581436804360314
 40
0.4116213792319868
 40
0.465102967175973
 40
0.5185925931989903
 40
0.5720943871989821
 40
0.6255973924155229
 40
0.6790879053185046
 40
0.7325700231330827
 40
0.7860478935345622
 40
0.8395256742679174
 40
0.893007523290806
 40
0.9464975889155013
 40
1.0
 40
1.0
 40
1.0
 40
1.0
 10
70.44070454051354
 20
14.24804294223212
 30
0.0
 10
70.9758147468722
 20
14.24631150017998
 30
0.0
 10
72.28038260958525
 20
14.2420903441816
 30
0.0
 10
74.35473935685002
 20
13.80617541999201
 30
0.0
 10
76.66397970814971
 20
13.01256967772672
 30
0.0
 10
78.97334215907681
 20
11.86627036147787
 30
0.0
 10
81.28204162119947
 20
10.41444041527137
 30
0.0
 10
83.59021954711372
 20
8.690466165511397
 30
0.0
 10
85.89810280923449
 20
6.740468238242573
 30
0.0
 10
88.20596937499944
 20
4.614842295600913
 30
0.0
 10
90.51409293884166
 20
2.368959273766485
 30
0.0
 10
92.82271523668564
 20
0.0611660072501632
 30
0.0
 10
95.13198941316047
 20
-2.248183339038535
 30
0.0
 10
97.44132405276402
 20
-4.498941131632766
 30
0.0
 10
99.74999770192683
 20
-6.632541394552374
 30
0.0
 10
102.0581570946375
 20
-8.593310462671043
 30
0.0
 10
104.3660342725476
 20
-10.32967356877756
 30
0.0
 10
106.6739058897658
 20
-11.7988911041837
 30
0.0
 10
108.9820471474447
 20
-12.9537295612737
 30
0.0
 10
111.2906949810012
 20
-13.79772546594703
 30
0.0
 10
112.8301724488268
 20
-14.05472373465795
 30
0.0
 10
113.5999999999994
 20
-14.18323769604565
 30
0.0
1001
PE_URL
1000

  0
SPLINE
  5
25C
330
1F
100
AcDbEntity
  8
0
  6
Continuous
 62
     1
370
    15
100
AcDbSpline
210
0.0
220
0.0
230
1.0
 70
     8
 71
     3
 72
    24
 73
    20
 74
     0
 42
0.000000001
 43
0.00000001
 40
0.0
 40
0.0
 40
0.0
 40
0.0
 40
0.0617316686068705
 40
0.1234490928868414
 40
0.185157036761546
 40
0.2468602865991754
 40
0.3085636398968691
 40
0.3702718939063726
 40
0.4319898342609352
 40
0.4937221883838708
 40
0.5554531449918705
 40
0.6171700620546045
 40
0.6788777046936091
 40
0.7405808599909675
 40
0.8022843256680651
 40
0.8639928987100992
 40
0.9257113639943381
 40
0.9874443418695613
 40
0.9999999999999999
 40
0.9999999999999999
 40
0.9999999999999999
 40
0.9999999999999999
 10
113.5999999999994
 20
-8.583704144043235
 30
0.0
 10
112.8301724488269
 20
-7.946881643211983
 30
0.0
 10
111.2906949810013
 20
-6.673383585704474
 30
0.0
 10
108.9820471474442
 20
-4.529233477845283
 30
0.0
 10
106.6739058897671
 20
-2.283337482787515
 30
0.0
 10
104.3660342725425
 20
0.0262500096197398
 30
0.0
 10
102.0581570946561
 20
2.334003859876775
 30
0.0
 10
99.7499977018576
 20
4.581358059602112
 30
0.0
 10
97.44132405302229
 20
6.709479347728498
 30
0.0
 10
95.13198941219619
 20
8.662747036590657
 30
0.0
 10
92.82271524028381
 20
10.39035016710064
 30
0.0
 10
90.51409292541726
 20
11.84732353907459
 30
0.0
 10
88.20596942509029
 20
12.99541031005086
 30
0.0
 10
85.89810262230657
 20
13.80554148567721
 30
0.0
 10
83.59022024476867
 20
14.25398871944268
 30
0.0
 10
81.282039017099
 20
14.33903383138949
 30
0.0
 10
78.97335188038565
 20
14.02119083402963
 30
0.0
 10
77.27720179462689
 20
13.59990551371131
 30
0.0
 10
76.35082106189995
 20
13.1865810933678
 30
0.0
 10
76.1942517613429
 20
13.11672437775388
 30
0.0
1001
PE_URL
1000

  0
SPLINE
  5
25D
330
1F
100
AcDbEntity
  8
0
  6
Continuous
 62
     1
370
    15
100
AcDbSpline
210
0.0
220
0.0
230
1.0
 70
     8
 71
     3
 72
    14
 73
    10
 74
     0
 42
0.000000001
 43
0.00000001
 40
0.0
 40
0.0
 40
0.0
 40
0.0
 40
0.1310571535716713
 40
0.28592233249694
 40
0.4286894904032554
 40
0.5714777600217442
 40
0.7143312302548576
 40
0.8572020800063241
 40
0.9934187569677645
 40
0.9934187569677645
 40
0.9934187569677645
 40
0.9934187569677645
 10
37.06349519707728
 20
-14.2632534808231
 30
0.0
 10
36.41237821840546
 20
-14.24732822634006
 30
0.0
 10
34.99186144235328
 20
-14.2125847134275
 30
0.0
 10
32.86211524350836
 20
-13.72351161576634
 30
0.0
 10
30.67471673980643
 20
-12.93157977908814
 30
0.0
 10
28.54674408276695
 20
-11.86665061058219
 30
0.0
 10
26.41765108109149
 20
-10.53825249110504
 30
0.0
 10
24.32095057876859
 20
-9.011215939639358
 30
0.0
 10
22.93467499626469
 20
-7.846976718653774
 30
0.0
 10
11.99999999999943
 20
0.6802124013700179
 30
0.0
1001
PE_URL
1000

  0
SPLINE
  5
25E
330
1F
100
AcDbEntity
  8
0
  6
Continuous
 62
     1
370
    15
100
AcDbSpline
210
0.0
220
0.0
230
1.0
 70
     8
 71
     3
 72
    30
 73
    26
 74
     0
 42
0.000000001
 43
0.00000001
 40
0.0
 40
0.0
 40
0.0
 40
0.0
 40
0.0080384679719603
 40
0.053637270117579
 40
0.0992390128665373
 40
0.1448300145250213
 40
0.1904135568547825
 40
0.2359931738068904
 40
0.2815724086378302
 40
0.3271548055104374
 40
0.3727439010902072
 40
0.4183432161798347
 40
0.4639445437977893
 40
0.509535151158293
 40
0.5551184512513809
 40
0.6006979786020914
 40
0.6462772766794271
 40
0.6918598894962031
 40
0.7374493532061246
 40
0.7830491877409321
 40
0.828650054601389
 40
0.8742402742033395
 40
0.9198233386313515
 40
0.9654027829688948
 40
1.0
 40
1.0
 40
1.0
 40
1.0
 10
55.47958663439181
 20
14.26044697351108
 30
0.0
 10
55.61527053159764
 20
14.26898963659914
 30
0.0
 10
56.52063133796281
 20
14.32599118579685
 30
0.0
 10
58.19598710849772
 20
14.07011518494997
 30
0.0
 10
60.50535496476678
 20
13.4771078497763
 30
0.0
 10
62.81408575504837
 20
12.49912498819575
 30
0.0
 10
65.12228113222784
 20
11.20469138779358
 30
0.0
 10
67.4301714054784
 20
9.616041846203188
 30
0.0
 10
69.7380332951424
 20
7.777590017442169
 30
0.0
 10
72.04613973867188
 20
5.736320382608036
 30
0.0
 10
74.35473682555855
 20
3.545494257656325
 30
0.0
 10
76.66398038650978
 20
1.262291680240558
 30
0.0
 10
78.97334197735623
 20
-1.053726343387094
 30
0.0
 10
81.28204166986953
 20
-3.342410832123826
 30
0.0
 10
83.59021953410632
 20
-5.543813545143535
 30
0.0
 10
85.89810281260159
 20
-7.600737045213172
 30
0.0
 10
88.20596937453793
 20
-9.459681505619304
 30
0.0
 10
90.51409293732002
 20
-11.07230890297107
 30
0.0
 10
92.82271524323554
 20
-12.39656710452445
 30
0.0
 10
95.13198938847674
 20
-13.39806278940464
 30
0.0
 10
97.44132414493986
 20
-14.04970309476744
 30
0.0
 10
99.74999735801774
 20
-14.33834681865959
 30
0.0
 10
102.0581583778707
 20
-14.24221797384073
 30
0.0
 10
104.1806774226023
 20
-13.85122150216796
 30
0.0
 10
105.5338788803241
 20
-13.33563771845821
 30
0.0
 10
106.1178019786475
 20
-13.11315696460507
 30
0.0
1001
PE_URL
1000

  0
SPLINE
  5
25F
330
1F
100
AcDbEntity
  8
0
  6
Continuous
 62
     1
370
    15
100
AcDbSpline
210
0.0
220
0.0
230
1.0
 70
     8
 71
     3
 72
    30
 73
    26
 74
     0
 42
0.000000001
 43
0.00000001
 40
0.0
 40
0.0
 40
0.0
 40
0.0
 40
0.0114795748025207
 40
0.0570699102497729
 40
0.1026532425717115
 40
0.1482331074332471
 40
0.193813048720186
 40
0.239396610137063
 40
0.2849873268058912
 40
0.3305886908493117
 40
0.376189022555828
 40
0.4217789833243854
 40
0.467362093125103
 40
0.5129418881502397
 40
0.5585219124512508
 40
0.6041057095357737
 40
0.6496968139673822
 40
0.6952986387733242
 40
0.7408984510289967
 40
0.7864880436633889
 40
0.8320709375175828
 40
0.8776506692956343
 40
0.9232307831990197
 40
0.9688148225228566
 40
1.0
 40
1.0
 40
1.0
 40
1.0
 10
111.8719523393756
 20
-14.28749999999991
 30
0.0
 10
111.6781586305635
 20
-14.26293033616718
 30
0.0
 10
110.7147266429563
 20
-14.31531147703496
 30
0.0
 10
108.9820579480453
 20
-14.03864673663624
 30
0.0
 10
106.6739029961873
 20
-13.41533800594605
 30
0.0
 10
104.3660350478538
 20
-12.41290105592323
 30
0.0
 10
102.0581568868772
 20
-11.09512169453122
 30
0.0
 10
99.7499977576084
 20
-9.48616223990615
 30
0.0
 10
97.44132403783465
 20
-7.630496599380376
 30
0.0
 10
95.13198941717806
 20
-5.575963104349213
 30
0.0
 10
92.8227152355461
 20
-3.376178532812505
 30
0.0
 10
90.51409293938313
 20
-1.088392423064177
 30
0.0
 10
88.20596937397293
 20
1.227548728406809
 30
0.0
 10
85.89810281279877
 20
3.511438044064298
 30
0.0
 10
83.59021953388235
 20
5.703873724484551
 30
0.0
 10
81.28204167056815
 20
7.747824961604753
 30
0.0
 10
78.97334197478467
 20
9.59011329232146
 30
0.0
 10
76.66398039609932
 20
11.18248808027936
 30
0.0
 10
74.35473678977793
 20
12.48351974713103
 30
0.0
 10
72.04613987216459
 20
13.45957518774646
 30
0.0
 10
69.73803279703338
 20
14.0840144259693
 30
0.0
 10
67.43017326431985
 20
14.34507052169887
 30
0.0
 10
65.12227419460123
 20
14.21953868574967
 30
0.0
 10
63.05726160952921
 20
13.81912386044984
 30
0.0
 10
61.76140041879884
 20
13.31302777168314
 30
0.0
 10
61.23499591836689
 20
13.10744150929372
 30
0.0
1001
PE_URL
1000

  0
LINE
  5
260
330
1F
100
AcDbEntity
  8
0
  6
Continuous
 62
     1
370
    15
100
AcDbLine
 10
113.5999999999994
 20
-5.599533552002168
 30
0.0
 11
113.5999999999994
 21
5.599533552002481
 31
0.0
1001
PE_URL
1000

  0
SPLINE
  5
261
330
1F
100
AcDbEntity
  8
0
  6
Continuous
 62
     1
370
    15
100
AcDbSpline
210
0.0
220
0.0
230
1.0
 70
     8
 71
     3
 72
    18
 73
    14
 74
     0
 42
0.000000001
 43
0.00000001
 40
0.0030655872861288
 40
0.0030655872861288
 40
0.0030655872861288
 40
0.0030655872861288
 40
0.0882693958126585
 40
0.1765838725736756
 40
0.2648876063239783
 40
0.3531510368341513
 40
0.4414014173077545
 40
0.5371300930248667
 40
0.6328721975743676
 40
0.7286351287057559
 40
0.8244060751291845
 40
0.9201545295335787
 40
1.0
 40
1.0
 40
1.0
 40
1.0
 10
11.99999999999942
 20
3.326334532788927
 30
0.0
 10
22.91856264148703
 20
-4.748523795941103
 30
0.0
 10
24.31289112103854
 20
-6.067805936791626
 30
0.0
 10
26.41765115528064
 20
-7.9043613351482
 30
0.0
 10
28.54674380465361
 20
-9.593934679226631
 30
0.0
 10
30.67471777750666
 20
-11.06935770617053
 30
0.0
 10
32.86211123255788
 20
-12.33456250281425
 30
0.0
 10
35.11026496322278
 20
-13.33454598204744
 30
0.0
 10
37.41877608442866
 20
-14.0132726006433
 30
0.0
 10
39.72796956770303
 20
-14.32951036758013
 30
0.0
 10
42.03737169336635
 20
-14.26277491417636
 30
0.0
 10
44.21844466069548
 20
-13.88276256730402
 30
0.0
 10
45.62964986195477
 20
-13.35896403669125
 30
0.0
 10
46.27134827664715
 20
-13.12078415582597
 30
0.0
1001
PE_URL
1000

  0
SPLINE
  5
262
330
1F
100
AcDbEntity
  8
0
  6
Continuous
 62
     1
370
    15
100
AcDbSpline
210
0.0
220
0.0
230
1.0
 70
     8
 71
     3
 72
    20
 73
    16
 74
     0
 42
0.000000001
 43
0.00000001
 40
0.0
 40
0.0
 40
0.0
 40
0.0
 40
0.0175237644289935
 40
0.0993809754567554
 40
0.1812441395232279
 40
0.2631196073115566
 40
0.3450137003713801
 40
0.4269096474154043
 40
0.5087864727326102
 40
0.5906504478610736
 40
0.6725079215618734
 40
0.7543652580095241
 40
0.83622882170409
 40
0.9181049623816441
 40
1.0
 40
1.0
 40
1.0
 40
1.0
 10
85.40405235673293
 20
14.25616202117197
 30
0.0
 10
85.56873699234337
 20
14.2658342074847
 30
0.0
 10
86.50269840206359
 20
14.32068722234077
 30
0.0
 10
88.20596706389233
 20
14.0547269895459
 30
0.0
 10
90.51409355821885
 20
13.44656465862153
 30
0.0
 10
92.82271507067152
 20
12.45634732602911
 30
0.0
 10
95.13198945764957
 20
11.15012444827862
 30
0.0
 10
97.44132404084613
 20
9.551167915667381
 30
0.0
 10
99.74999770511928
 20
7.703937312018826
 30
0.0
 10
102.0581570937822
 20
5.655972727910443
 30
0.0
 10
104.3660342727768
 20
3.461012666878214
 30
0.0
 10
106.6739058897043
 20
1.175145590663849
 30
0.0
 10
108.982047147461
 20
-1.138604314648406
 30
0.0
 10
111.2906949809971
 20
-3.433366278911517
 30
0.0
 10
112.8301724488255
 20
-4.877422252907951
 30
0.0
 10
113.5999999999994
 20
-5.599533552002168
 30
0.0
1001
PE_URL
1000

  0
SPLINE
  5
264
330
1F
100
AcDbEntity
  8
0
  6
Continuous
 62
     1
370
    15
100
AcDbSpline
210
0.0
220
0.0
230
1.0
 70
     8
 71
     3
 72
    17
 73
    13
 74
     0
 42
0.000000001
 43
0.00000001
 40
0.0
 40
0.0
 40
0.0
 40
0.0
 40
0.1028915870523125
 40
0.2057594322969877
 40
0.3086114760257513
 40
0.4114556959432481
 40
0.5143000883033576
 40
0.617152648950947
 40
0.7200213543656934
 40
0.8229140840055542
 40
0.9258044843299611
 40
1.0
 40
1.0
 40
1.0
 40
1.0
 10
113.5999999999994
 20
5.599533552002481
 30
0.0
 10
112.8301724486784
 20
6.293447397960062
 30
0.0
 10
111.2906949805561
 20
7.681114972128757
 30
0.0
 10
108.9820471492247
 20
9.523547789853922
 30
0.0
 10
106.673905883092
 20
11.12822343965361
 30
0.0
 10
104.3660342974613
 20
12.44012695609779
 30
0.0
 10
102.0581570016524
 20
13.42899893312319
 30
0.0
 10
99.74999804900641
 20
14.0670507416011
 30
0.0
 10
97.44132275709414
 20
14.34198137395737
 30
0.0
 10
95.13199424985105
 20
14.23115626336376
 30
0.0
 10
93.03721507677925
 20
13.83527521771008
 30
0.0
 10
91.7124947861164
 20
13.32417599537267
 30
0.0
 10
91.1574630404671
 20
13.11003547410688
 30
0.0
1001
PE_URL
1000

  0
SPLINE
  5
265
330
1F
100
AcDbEntity
  8
0
  6
Continuous
 62
     1
370
    15
100
AcDbSpline
210
0.0
220
0.0
230
1.0
 70
     8
 71
     3
 72
    21
 73
    17
 74
     0
 42
0.000000001
 43
0.00000001
 40
0.0
 40
0.0
 40
0.0
 40
0.0
 40
0.0252688992218382
 40
0.1025499138843264
 40
0.179831835601647
 40
0.2571206716963721
 40
0.334422413100724
 40
0.4117423132549979
 40
0.4890557423279739
 40
0.5663523572282583
 40
0.6436381304691637
 40
0.7148863624395057
 40
0.7861451302514815
 40
0.8574364365588891
 40
0.9287364161492376
 40
0.9999999999999999
 40
0.9999999999999999
 40
0.9999999999999999
 40
0.9999999999999999
 10
52.02468059038446
 20
-14.2464961600406
 30
0.0
 10
51.77313933685502
 20
-14.25790655413143
 30
0.0
 10
50.75229811772082
 20
-14.30421387132518
 30
0.0
 10
48.96224465704505
 20
-14.00485463374916
 30
0.0
 10
46.65434135138399
 20
-13.35184583130285
 30
0.0
 10
44.34612737193558
 20
-12.32484362101542
 30
0.0
 10
42.03737376916342
 20
-10.98366613040144
 30
0.0
 10
39.72796901147944
 20
-9.35456618461049
 30
0.0
 10
37.41877623345665
 20
-7.482175610407443
 30
0.0
 10
35.1102649231926
 20
-5.414778186820612
 30
0.0
 10
32.86211124235459
 20
-3.263906598657192
 30
0.0
 10
30.67471777497214
 20
-1.094647916744298
 30
0.0
 10
28.54674380533291
 20
1.040414684818062
 30
0.0
 10
26.41765115509948
 20
3.149279938097442
 30
0.0
 10
24.28824718309487
 20
5.199486786110244
 30
0.0
 10
22.86929497731447
 20
6.461904738367475
 30
0.0
 10
11.99999999999942
 20
14.28750000000009
 30
0.0
1001
PE_URL
1000

  0
SPLINE
  5
266
330
1F
100
AcDbEntity
  8
0
  6
Continuous
 62
     1
370
    15
100
AcDbSpline
210
0.0
220
0.0
230
1.0
 70
     8
 71
     3
 72
    30
 73
    26
 74
     0
 42
0.000000001
 43
0.00000001
 40
0.0
 40
0.0
 40
0.0
 40
0.0
 40
0.0300074465672343
 40
0.0755969340782615
 40
0.1211788105517966
 40
0.1667566092009958
 40
0.2123338729053904
 40
0.2579141458133345
 40
0.3035009649379858
 40
0.3490978517896653
 40
0.3946976791211698
 40
0.4402867658133597
 40
0.4858683934901422
 40
0.5314460959541497
 40
0.5770234163130394
 40
0.6226038985807809
 40
0.668191079274318
 40
0.7137884790484609
 40
0.7593878912663984
 40
0.8049765836771698
 40
0.8505579691274539
 40
0.8961355819938274
 40
0.9417129655964566
 40
0.9872936637992963
 40
1.0
 40
1.0
 40
1.0
 40
1.0
 10
40.51767188075436
 20
14.24555153437135
 30
0.0
 10
41.02428758396062
 20
14.24654503890226
 30
0.0
 10
42.30059057870182
 20
14.24904794751737
 30
0.0
 10
44.34612530817061
 20
13.82879475163154
 30
0.0
 10
46.65434310736079
 20
13.04917891637093
 30
0.0
 10
48.96223969701891
 20
11.91500112790072
 30
0.0
 10
51.27009772045565
 20
10.47443354397207
 30
0.0
 10
53.5781875008459
 20
8.759937464910113
 30
0.0
 10
55.88675973287139
 20
6.817387402485249
 30
0.0
 10
58.19597289709381
 20
4.697132191907623
 30
0.0
 10
60.50535877182922
 20
2.454620288154073
 30
0.0
 10
62.81408473522829
 20
0.148016011056135
 30
0.0
 10
65.12228140546219
 20
-2.162225353808278
 30
0.0
 10
67.43017133219652
 20
-4.416056828462128
 30
0.0
 10
69.73803331505044
 20
-6.554856483737242
 30
0.0
 10
72.04613973232568
 20
-8.522995426462385
 30
0.0
 10
74.35473683103305
 20
-10.26925301931461
 30
0.0
 10
76.66398037095581
 20
-11.74800157221982
 30
0.0
 10
78.97334203409304
 20
-12.9205291043615
 30
0.0
 10
81.28204145854521
 20
-13.75699747217107
 30
0.0
 10
83.59022032252321
 20
-14.23316278561816
 30
0.0
 10
85.89809987047478
 20
-14.34552641402901
 30
0.0
 10
88.20598035500896
 20
-14.05835564557404
 30
0.0
 10
89.95906388705258
 20
-13.63549633795567
 30
0.0
 10
90.9429745267323
 20
-13.20408203563151
 30
0.0
 10
91.15746304046701
 20
-13.11003547410684
 30
0.0
1001
PE_URL
1000

  0
SPLINE
  5
267
330
1F
100
AcDbEntity
  8
0
  6
Continuous
 62
     1
370
    15
100
AcDbSpline
210
0.0
220
0.0
230
1.0
 70
     8
 71
     3
 72
    30
 73
    26
 74
     0
 42
0.000000001
 43
0.00000001
 40
0.0
 40
0.0
 40
0.0
 40
0.0
 40
0.0351448538892448
 40
0.0807423203176807
 40
0.1263294164598114
 40
0.1719096620645799
 40
0.2174865931020501
 40
0.2630637534009884
 40
0.3086446862463771
 40
0.3542329259796972
 40
0.3998318854137407
 40
0.4454288324239722
 40
0.4910155604550693
 40
0.5365955901268832
 40
0.5821724579212424
 40
0.6277497078169247
 40
0.6733308828864064
 40
0.7189195168972305
 40
0.7645188914407189
 40
0.8101153255335805
 40
0.8557016919993818
 40
0.9012815123134773
 40
0.9468583234539034
 40
0.9924356695338223
 40
1.0
 40
1.0
 40
1.0
 40
1.0
 10
96.91198732748843
 20
-14.25457107282386
 30
0.0
 10
96.31865354637118
 20
-14.2464010865096
 30
0.0
 10
94.95551951937406
 20
-14.22763123604851
 30
0.0
 10
92.82271037965953
 20
-13.75911734072898
 30
0.0
 10
90.51409424017103
 20
-12.93767782482494
 30
0.0
 10
88.20596902549111
 20
-11.76742361511302
 30
0.0
 10
85.89810290612397
 20
-10.29389374988162
 30
0.0
 10
83.59021950905161
 20
-8.551391773955034
 30
0.0
 10
81.28204167655898
 20
-6.586310665379901
 30
0.0
 10
78.97334197565735
 20
-4.4493984165373
 30
0.0
 10
76.66398038661356
 20
-2.196697728270626
 30
0.0
 10
74.35473682684213
 20
0.1132989231099808
 30
0.0
 10
72.04613973343528
 20
2.420348239020735
 30
0.0
 10
69.73803331480191
 20
4.664162671845868
 30
0.0
 10
67.43017133208123
 20
6.78641857194334
 30
0.0
 10
65.12228140617177
 20
8.731927158937022
 30
0.0
 10
62.81408473250476
 20
10.45005849778972
 30
0.0
 10
60.50535878201617
 20
11.89614537834581
 30
0.0
 10
58.19597285906141
 20
13.03207251492843
 30
0.0
 10
55.88675987478691
 20
13.82913810842844
 30
0.0
 10
53.57818697137094
 20
14.26367140248609
 30
0.0
 10
51.27009969612689
 20
14.33498197280116
 30
0.0
 10
48.96223232417931
 20
14.00172153394405
 30
0.0
 10
47.29603384854146
 20
13.58188536752431
 30
0.0
 10
46.39903020914784
 20
13.17824011636936
 30
0.0
 10
46.27134827664704
 20
13.120784155826
 30
0.0
1001
PE_URL
1000

  0
LINE
  5
268
330
1F
100
AcDbEntity
  8
0
  6
Continuous
 62
     1
370
    15
100
AcDbLine
 10
113.5999999999994
 20
-14.28749999999991
 30
0.0
 11
113.5999999999994
 21
-14.18323769604565
 31
0.0
1001
PE_URL
1000

  0
LINE
  5
26B
330
1F
100
AcDbEntity
  8
0
  6
Continuous
 62
     1
370
    15
100
AcDbLine
 10
113.5999999999994
 20
5.599533552002481
 30
0.0
 11
113.5999999999994
 21
8.583704144043343
 31
0.0
1001
PE_URL
1000

  0
LINE
  5
26C
330
1F
100
AcDbEntity
  8
0
  6
Continuous
 62
     1
370
    15
100
AcDbLine
 10
113.5999999999994
 20
-8.583704144043235
 30
0.0
 11
113.5999999999994
 21
-5.599533552002168
 31
0.0
1001
PE_URL
1000

  0
LINE
  5
26E
330
1F
100
AcDbEntity
  8
0
  6
Continuous
 62
     1
370
    15
100
AcDbLine
 10
113.5999999999994
 20
14.18323769604568
 30
0.0
 11
113.5999999999994
 21
14.28749999999996
 31
0.0
1001
PE_URL
1000

  0
LINE
  5
27D
330
1F
100
AcDbEntity
  8
외형선
  6
Continuous
370
    15
100
AcDbLine
 10
-51.50000000000063
 20
0.0
 30
0.0
 11
-51.50000000000063
 21
10.795
 31
0.0
  0
LINE
  5
27E
330
1F
100
AcDbEntity
  8
외형선
  6
Continuous
370
    15
100
AcDbLine
 10
-51.50000000000063
 20
-9.525000000000016
 30
0.0
 11
-51.50000000000063
 21
0.0
 31
0.0
  0
LINE
  5
282
330
1F
100
AcDbEntity
  8
중심선
 62
     1
100
AcDbLine
 10
-58.50000000000063
 20
0.0
 30
0.0
 11
120.5999999999994
 21
0.0000000000000284
 31
0.0
  0
CIRCLE
  5
283
330
1F
100
AcDbEntity
  8
해칭선
100
AcDbCircle
 10
0.0
 20
0.0
 30
0.0
 40
3.000000000000001
  0
DIMENSION
  5
284
330
1F
100
AcDbEntity
  8
치수문자_일반주서
100
AcDbDimension
  2
*D11
 10
-66.50000000000054
 20
-12.70000000000007
 30
0.0
 11
-66.50000000000072
 21
40.85399999999989
 31
0.0
 70
   160
  1
%%c<>
 71
     2
 42
25.4
 52
-270.0
  3
SLDDIMSTYLE0
100
AcDbAlignedDimension
 13
-48.32500000000063
 23
12.7
 33
0.0
 14
-48.32500000000063
 24
-12.7
 34
0.0
 50
90.0000000000002
100
AcDbRotatedDimension
1001
ACAD
1000
DSTYLE
1002
{
1070
   171
1070
     8
1070
   273
1070
     7
1070
   178
1070
   256
1070
   140
1040
4.0
1002
}
1001
ACAD_DSTYLE_DIMFLIPARROW_SYMBOL
1070
   385
1070
     0
1001
ACAD_DSTYLE_DIMFLIPARROW_WHICH_SYMBOL
1070
   386
1070
     3
  0
DIMENSION
  5
285
330
1F
100
AcDbEntity
  8
치수문자_일반주서
100
AcDbDimension
  2
*D12
 10
11.99999999999942
 20
30.87500000000003
 30
0.0
 11
62.7999999999994
 21
30.87500000000003
 31
0.0
 70
   160
  1
<>
 71
     2
 42
101.6
  3
SLDDIMSTYLE0
100
AcDbAlignedDimension
 13
113.5999999999994
 23
15.87500000000014
 33
0.0
 14
11.99999999999942
 24
15.87486653488489
 34
0.0
 50
-0.0000000000000481
100
AcDbRotatedDimension
1001
PE_URL
1000

1001
ACAD
1000
DSTYLE
1002
{
1070
   171
1070
     8
1070
   273
1070
     7
1070
   178
1070
   256
1070
   140
1040
4.0
1002
}
  0
DIMENSION
  5
286
330
1F
100
AcDbEntity
  8
치수문자_일반주서
100
AcDbDimension
  2
*D13
 10
-51.50000000000064
 20
45.87500000000003
 30
0.0
 11
31.04999999999936
 21
45.87500000000003
 31
0.0
 70
   160
  1
<>
 71
     2
 42
165.1
  3
SLDDIMSTYLE0
100
AcDbAlignedDimension
 13
113.5999999999994
 23
15.87500000000014
 33
0.0
 14
-51.50000000000063
 24
13.97000000000001
 34
0.0
 50
0.0000000000000049
100
AcDbRotatedDimension
1001
PE_URL
1000

1001
ACAD
1000
DSTYLE
1002
{
1070
   171
1070
     8
1070
   273
1070
     7
1070
   178
1070
   256
1070
   140
1040
4.0
1002
}
  0
DIMENSION
  5
287
330
1F
100
AcDbEntity
  8
치수문자_일반주서
100
AcDbDimension
  2
*D14
 10
128.5999999999995
 20
-14.28749999999986
 30
0.0
 11
128.5999999999993
 21
43.66223769604574
 31
0.0
 70
   160
  1
%%c<>
 71
     2
 42
28.575
 52
-270.0
  3
SLDDIMSTYLE0
100
AcDbAlignedDimension
 13
113.5999999999994
 23
14.28750000000009
 33
0.0
 14
113.5999999999994
 24
-14.28749999999991
 34
0.0
 50
90.0000000000002
100
AcDbRotatedDimension
1001
PE_URL
1000

1001
ACAD
1000
DSTYLE
1002
{
1070
   171
1070
     8
1070
   273
1070
     7
1070
   178
1070
   256
1070
   140
1040
4.0
1002
}
1001
ACAD_DSTYLE_DIMFLIPARROW_SYMBOL
1070
   385
1070
     0
1001
ACAD_DSTYLE_DIMFLIPARROW_WHICH_SYMBOL
1070
   386
1070
     3
  0
INSERT
  5
288
330
1F
100
AcDbEntity
  8
해칭선
100
AcDbBlockReference
  2
SW_DOWELSYMBOL_0
 10
0.0
 20
0.0
 30
0.0
  0
LINE
  5
2C2
330
1F
100
AcDbEntity
  8
외형선
  6
Continuous
370
    15
100
AcDbLine
 10
11.99999999999942
 20
14.28750000000009
 30
0.0
 11
11.99999999999942
 21
-14.28749999999977
 31
0.0
  0
LINE
  5
2C3
330
1F
100
AcDbEntity
  8
외형선
  6
Continuous
370
    15
100
AcDbLine
 10
-48.32500000000063
 20
10.795
 30
0.0
 11
-48.32500000000063
 21
-12.7
 31
0.0
  0
LINE
  5
2C5
330
1F
100
AcDbEntity
  8
외형선
  6
Continuous
370
    15
100
AcDbLine
 10
-36.89500000000063
 20
12.7
 30
0.0
 11
-30.9863250000005
 21
12.7
 31
0.0
  0
LINE
  5
302
330
1F
100
AcDbEntity
  8
외형선
  6
Continuous
370
    15
100
AcDbLine
 10
-36.89500000000064
 20
12.7
 30
0.0
 11
-30.98632500000051
 21
12.7
 31
0.0
  0
LINE
  5
303
330
1F
100
AcDbEntity
  8
외형선
  6
Continuous
370
    15
100
AcDbLine
 10
-29.08132500000053
 20
10.795
 30
0.0
 11
-15.97492500000064
 21
10.795
 31
0.0
  0
LINE
  5
304
330
1F
100
AcDbEntity
  8
외형선
  6
Continuous
370
    15
100
AcDbLine
 10
-29.08132500000053
 20
10.79500000000001
 30
0.0
 11
-30.98632500000051
 21
12.7
 31
0.0
  0
LINE
  5
305
330
1F
100
AcDbEntity
  8
외형선
  6
Continuous
370
    15
100
AcDbLine
 10
-15.97492500000064
 20
10.79500000000001
 30
0.0
 11
-14.06992500000061
 21
12.7
 31
0.0
  0
LINE
  5
306
330
1F
100
AcDbEntity
  8
외형선
  6
Continuous
370
    15
100
AcDbLine
 10
-51.50000000000063
 20
10.795
 30
0.0
 11
-38.80000000000061
 21
10.795
 31
0.0
  0
LINE
  5
307
330
1F
100
AcDbEntity
  8
외형선
  6
Continuous
370
    15
100
AcDbLine
 10
-38.80000000000061
 20
10.79500000000001
 30
0.0
 11
-36.89500000000064
 21
12.69999999999999
 31
0.0
  0
LINE
  5
308
330
1F
100
AcDbEntity
  8
외형선
  6
Continuous
370
    15
100
AcDbLine
 10
-14.06992500000062
 20
12.7
 30
0.0
 11
11.99999999999942
 21
12.7
 31
0.0
  0
ENDSEC
  0
SECTION
  2
OBJECTS
  0
DICTIONARY
  5
C
330
0
100
AcDbDictionary
281
     1
  3
ACAD_GROUP
350
D
  3
ACAD_IMAGE_VARS
350
148
  3
ACAD_LAYOUT
350
1A
  3
ACAD_MLINESTYLE
350
17
  3
ACAD_PLOTSETTINGS
350
19
  3
ACAD_PLOTSTYLENAME
350
E
  3
ACAD_SCALELIST
350
47
  3
APPDATA
350
146
  3
DWGPROPS
350
331
  0
DICTIONARY
  5
204
330
2
100
AcDbDictionary
280
     1
281
     1
  3
ACAD_LAYERSTATES
360
205
  0
DICTIONARY
  5
D
102
{ACAD_REACTORS
330
C
102
}
330
C
100
AcDbDictionary
281
     1
  0
RASTERVARIABLES
  5
148
102
{ACAD_REACTORS
330
C
102
}
330
C
100
AcDbRasterVariables
 90
        0
 70
     1
 71
     1
 72
     1
  0
DICTIONARY
  5
1A
102
{ACAD_REACTORS
330
C
102
}
330
C
100
AcDbDictionary
281
     1
  3
Layout1
350
1E
  3
Layout2
350
26
  3
Model
350
22
  0
DICTIONARY
  5
17
102
{ACAD_REACTORS
330
C
102
}
330
C
100
AcDbDictionary
281
     1
  3
Standard
350
18
  0
DICTIONARY
  5
19
102
{ACAD_REACTORS
330
C
102
}
330
C
100
AcDbDictionary
281
     1
  0
ACDBDICTIONARYWDFLT
  5
E
102
{ACAD_REACTORS
330
C
102
}
330
C
100
AcDbDictionary
281
     1
  3
Normal
350
F
100
AcDbDictionaryWithDefault
340
F
  0
DICTIONARY
  5
47
102
{ACAD_REACTORS
330
C
102
}
330
C
100
AcDbDictionary
281
     1
  3
A0
350
48
  3
A1
350
49
  3
A2
350
4A
  3
A3
350
4B
  3
A4
350
4C
  3
A5
350
4D
  3
A6
350
4E
  3
A7
350
4F
  3
A8
350
50
  3
A9
350
51
  3
B0
350
52
  3
B1
350
53
  3
B2
350
54
  3
B3
350
55
  3
B4
350
56
  3
B5
350
57
  3
B6
350
58
  3
B7
350
59
  3
B8
350
5A
  3
B9
350
5B
  3
C0
350
5C
  3
C1
350
5D
  3
C2
350
5E
  3
C3
350
5F
  3
C4
350
60
  3
C5
350
61
  3
C6
350
62
  3
C7
350
63
  3
C8
350
64
  3
C9
350
65
  3
D0
350
66
  3
D1
350
67
  3
D2
350
68
  0
DICTIONARY
  5
146
102
{ACAD_REACTORS
330
C
102
}
330
C
100
AcDbDictionary
281
     1
  0
XRECORD
  5
331
102
{ACAD_REACTORS
330
C
102
}
330
C
100
AcDbXrecord
280
     1
  1
DWGPROPS COOKIE
  2

  3

  4

  6

  7

  8
12016016
  9

300
=
301
=
302
=
303
=
304
=
305
=
306
=
307
=
308
=
309
=
 40
0.0
 41
2458323.099183866
 42
2458330.224017986
  1

 90
        0
  0
DICTIONARY
  5
205
102
{ACAD_REACTORS
330
204
102
}
330
204
100
AcDbDictionary
281
     1
  0
LAYOUT
  5
1E
102
{ACAD_REACTORS
330
1A
102
}
330
1A
100
AcDbPlotSettings
  1

  2
none_device
  4

  6

 40
0.0
 41
0.0
 42
0.0
 43
0.0
 44
0.0
 45
0.0
 46
0.0
 47
0.0
 48
0.0
 49
0.0
140
0.0
141
0.0
142
1.0
143
1.0
 70
   688
 72
     1
 73
     0
 74
     5
  7

 75
    16
147
1.0
148
0.0
149
0.0
100
AcDbLayout
  1
Layout1
 70
     1
 71
     1
 10
0.0
 20
0.0
 11
420.0
 21
297.0
 12
0.0
 22
0.0
 32
0.0
 14
1.000000000000000E+20
 24
1.000000000000000E+20
 34
1.000000000000000E+20
 15
-1.000000000000000E+20
 25
-1.000000000000000E+20
 35
-1.000000000000000E+20
146
0.0
 13
0.0
 23
0.0
 33
0.0
 16
1.0
 26
0.0
 36
0.0
 17
0.0
 27
1.0
 37
0.0
 76
     0
330
1B
  0
LAYOUT
  5
26
102
{ACAD_REACTORS
330
1A
102
}
330
1A
100
AcDbPlotSettings
  1

  2
none_device
  4

  6

 40
0.0
 41
0.0
 42
0.0
 43
0.0
 44
0.0
 45
0.0
 46
0.0
 47
0.0
 48
0.0
 49
0.0
140
0.0
141
0.0
142
1.0
143
1.0
 70
   688
 72
     1
 73
     0
 74
     5
  7

 75
    16
147
1.0
148
0.0
149
0.0
100
AcDbLayout
  1
Layout2
 70
     1
 71
     2
 10
0.0
 20
0.0
 11
0.0
 21
0.0
 12
0.0
 22
0.0
 32
0.0
 14
0.0
 24
0.0
 34
0.0
 15
0.0
 25
0.0
 35
0.0
146
0.0
 13
0.0
 23
0.0
 33
0.0
 16
1.0
 26
0.0
 36
0.0
 17
0.0
 27
1.0
 37
0.0
 76
     0
330
23
  0
LAYOUT
  5
22
102
{ACAD_REACTORS
330
1A
102
}
330
1A
100
AcDbPlotSettings
  1

  2
none_device
  4
ANSI_A_(11.00_x_8.50_Inches)
  6

 40
6.35
 41
19.05
 42
6.35000508
 43
19.05000254
 44
279.4
 45
215.9
 46
96.39525648754174
 47
90.09827952143297
 48
0.0
 49
0.0
140
0.0
141
0.0
142
0.0605651527843098
143
1.0
 70
  1696
 72
     0
 73
     0
 74
     0
  7

 75
     0
147
0.0235690232323232
148
0.0
149
0.0
100
AcDbLayout
  1
Model
 70
     1
 71
     0
 10
0.0
 20
0.0
 11
420.0
 21
297.0
 12
0.0
 22
0.0
 32
0.0
 14
-71.37500000000075
 24
-49.97073246008785
 34
0.0
 15
129.1503333333328
 25
62.03723769604574
 35
0.0
146
0.0
 13
0.0
 23
0.0
 33
0.0
 16
1.0
 26
0.0
 36
0.0
 17
0.0
 27
1.0
 37
0.0
 76
     0
330
1F
331
29
  0
MLINESTYLE
  5
18
102
{ACAD_REACTORS
330
17
102
}
330
17
100
AcDbMlineStyle
  2
Standard
 70
     0
  3

 62
   256
 51
90.0
 52
90.0
 71
     2
 49
0.5
 62
   256
  6
BYLAYER
 49
-0.5
 62
   256
  6
BYLAYER
  0
ACDBPLACEHOLDER
  5
F
102
{ACAD_REACTORS
330
E
102
}
330
E
  0
SCALE
  5
48
102
{ACAD_REACTORS
330
47
102
}
330
47
100
AcDbScale
 70
     0
300
1:1
140
1.0
141
1.0
290
     1
  0
SCALE
  5
49
102
{ACAD_REACTORS
330
47
102
}
330
47
100
AcDbScale
 70
     0
300
1:2
140
1.0
141
2.0
290
     0
  0
SCALE
  5
4A
102
{ACAD_REACTORS
330
47
102
}
330
47
100
AcDbScale
 70
     0
300
1:4
140
1.0
141
4.0
290
     0
  0
SCALE
  5
4B
102
{ACAD_REACTORS
330
47
102
}
330
47
100
AcDbScale
 70
     0
300
1:5
140
1.0
141
5.0
290
     0
  0
SCALE
  5
4C
102
{ACAD_REACTORS
330
47
102
}
330
47
100
AcDbScale
 70
     0
300
1:8
140
1.0
141
8.0
290
     0
  0
SCALE
  5
4D
102
{ACAD_REACTORS
330
47
102
}
330
47
100
AcDbScale
 70
     0
300
1:10
140
1.0
141
10.0
290
     0
  0
SCALE
  5
4E
102
{ACAD_REACTORS
330
47
102
}
330
47
100
AcDbScale
 70
     0
300
1:16
140
1.0
141
16.0
290
     0
  0
SCALE
  5
4F
102
{ACAD_REACTORS
330
47
102
}
330
47
100
AcDbScale
 70
     0
300
1:20
140
1.0
141
20.0
290
     0
  0
SCALE
  5
50
102
{ACAD_REACTORS
330
47
102
}
330
47
100
AcDbScale
 70
     0
300
1:30
140
1.0
141
30.0
290
     0
  0
SCALE
  5
51
102
{ACAD_REACTORS
330
47
102
}
330
47
100
AcDbScale
 70
     0
300
1:40
140
1.0
141
40.0
290
     0
  0
SCALE
  5
52
102
{ACAD_REACTORS
330
47
102
}
330
47
100
AcDbScale
 70
     0
300
1:50
140
1.0
141
50.0
290
     0
  0
SCALE
  5
53
102
{ACAD_REACTORS
330
47
102
}
330
47
100
AcDbScale
 70
     0
300
1:100
140
1.0
141
100.0
290
     0
  0
SCALE
  5
54
102
{ACAD_REACTORS
330
47
102
}
330
47
100
AcDbScale
 70
     0
300
2:1
140
2.0
141
1.0
290
     0
  0
SCALE
  5
55
102
{ACAD_REACTORS
330
47
102
}
330
47
100
AcDbScale
 70
     0
300
4:1
140
4.0
141
1.0
290
     0
  0
SCALE
  5
56
102
{ACAD_REACTORS
330
47
102
}
330
47
100
AcDbScale
 70
     0
300
8:1
140
8.0
141
1.0
290
     0
  0
SCALE
  5
57
102
{ACAD_REACTORS
330
47
102
}
330
47
100
AcDbScale
 70
     0
300
10:1
140
10.0
141
1.0
290
     0
  0
SCALE
  5
58
102
{ACAD_REACTORS
330
47
102
}
330
47
100
AcDbScale
 70
     0
300
100:1
140
100.0
141
1.0
290
     0
  0
SCALE
  5
59
102
{ACAD_REACTORS
330
47
102
}
330
47
100
AcDbScale
 70
     0
300
1/128" = 1'-0"
140
0.0078125
141
12.0
290
     0
  0
SCALE
  5
5A
102
{ACAD_REACTORS
330
47
102
}
330
47
100
AcDbScale
 70
     0
300
1/64" = 1'-0"
140
0.015625
141
12.0
290
     0
  0
SCALE
  5
5B
102
{ACAD_REACTORS
330
47
102
}
330
47
100
AcDbScale
 70
     0
300
1/32" = 1'-0"
140
0.03125
141
12.0
290
     0
  0
SCALE
  5
5C
102
{ACAD_REACTORS
330
47
102
}
330
47
100
AcDbScale
 70
     0
300
1/16" = 1'-0"
140
0.0625
141
12.0
290
     0
  0
SCALE
  5
5D
102
{ACAD_REACTORS
330
47
102
}
330
47
100
AcDbScale
 70
     0
300
3/32" = 1'-0"
140
0.09375
141
12.0
290
     0
  0
SCALE
  5
5E
102
{ACAD_REACTORS
330
47
102
}
330
47
100
AcDbScale
 70
     0
300
1/8" = 1'-0"
140
0.125
141
12.0
290
     0
  0
SCALE
  5
5F
102
{ACAD_REACTORS
330
47
102
}
330
47
100
AcDbScale
 70
     0
300
3/16" = 1'-0"
140
0.1875
141
12.0
290
     0
  0
SCALE
  5
60
102
{ACAD_REACTORS
330
47
102
}
330
47
100
AcDbScale
 70
     0
300
1/4" = 1'-0"
140
0.25
141
12.0
290
     0
  0
SCALE
  5
61
102
{ACAD_REACTORS
330
47
102
}
330
47
100
AcDbScale
 70
     0
300
3/8" = 1'-0"
140
0.375
141
12.0
290
     0
  0
SCALE
  5
62
102
{ACAD_REACTORS
330
47
102
}
330
47
100
AcDbScale
 70
     0
300
1/2" = 1'-0"
140
0.5
141
12.0
290
     0
  0
SCALE
  5
63
102
{ACAD_REACTORS
330
47
102
}
330
47
100
AcDbScale
 70
     0
300
3/4" = 1'-0"
140
0.75
141
12.0
290
     0
  0
SCALE
  5
64
102
{ACAD_REACTORS
330
47
102
}
330
47
100
AcDbScale
 70
     0
300
1" = 1'-0"
140
1.0
141
12.0
290
     0
  0
SCALE
  5
65
102
{ACAD_REACTORS
330
47
102
}
330
47
100
AcDbScale
 70
     0
300
1-1/2" = 1'-0"
140
1.5
141
12.0
290
     0
  0
SCALE
  5
66
102
{ACAD_REACTORS
330
47
102
}
330
47
100
AcDbScale
 70
     0
300
3" = 1'-0"
140
3.0
141
12.0
290
     0
  0
SCALE
  5
67
102
{ACAD_REACTORS
330
47
102
}
330
47
100
AcDbScale
 70
     0
300
6" = 1'-0"
140
6.0
141
12.0
290
     0
  0
SCALE
  5
68
102
{ACAD_REACTORS
330
47
102
}
330
47
100
AcDbScale
 70
     0
300
1'-0" = 1'-0"
140
12.0
141
12.0
290
     0
  0
ENDSEC
  0
EOF
