  0
SECTION
  2
HEADER
  9
$ACADVER
  1
AC1015
  9
$ACADMAINTVER
 70
     6
  9
$DWGCODEPAGE
  3
ANSI_949
  9
$INSBASE
 10
0.0
 20
0.0
 30
0.0
  9
$EXTMIN
 10
-103.1249999999939
 20
-49.97180738881175
 30
0.0
  9
$EXTMAX
 10
129.1503333333397
 20
60.27499999999998
 30
0.0
  9
$LIMMIN
 10
0.0
 20
0.0
  9
$LIMMAX
 10
420.0
 20
297.0
  9
$ORTHOMODE
 70
     1
  9
$REGENMODE
 70
     1
  9
$FILLMODE
 70
     1
  9
$QTEXTMODE
 70
     0
  9
$MIRRTEXT
 70
     1
  9
$LTSCALE
 40
1.0
  9
$ATTMODE
 70
     1
  9
$TEXTSIZE
 40
3.5
  9
$TRACEWID
 40
1.0
  9
$TEXTSTYLE
  7
Standard
  9
$CLAYER
  8
0
  9
$CELTYPE
  6
ByLayer
  9
$CECOLOR
 62
   256
  9
$CELTSCALE
 40
1.0
  9
$DISPSILH
 70
     0
  9
$DIMSCALE
 40
1.0
  9
$DIMASZ
 40
3.302
  9
$DIMEXO
 40
1.0
  9
$DIMDLI
 40
3.75
  9
$DIMRND
 40
0.0
  9
$DIMDLE
 40
0.0
  9
$DIMEXE
 40
1.0
  9
$DIMTP
 40
0.0
  9
$DIMTM
 40
0.0
  9
$DIMTXT
 40
3.5
  9
$DIMCEN
 40
2.5
  9
$DIMTSZ
 40
0.0
  9
$DIMTOL
 70
     0
  9
$DIMLIM
 70
     0
  9
$DIMTIH
 70
     1
  9
$DIMTOH
 70
     1
  9
$DIMSE1
 70
     0
  9
$DIMSE2
 70
     0
  9
$DIMTAD
 70
     1
  9
$DIMZIN
 70
     0
  9
$DIMBLK
  1

  9
$DIMASO
 70
     1
  9
$DIMSHO
 70
     1
  9
$DIMPOST
  1

  9
$DIMAPOST
  1

  9
$DIMALT
 70
     0
  9
$DIMALTD
 70
     3
  9
$DIMALTF
 40
0.0393700787401575
  9
$DIMLFAC
 40
1.0
  9
$DIMTOFL
 70
     1
  9
$DIMTVP
 40
0.0
  9
$DIMTIX
 70
     0
  9
$DIMSOXD
 70
     0
  9
$DIMSAH
 70
     0
  9
$DIMBLK1
  1

  9
$DIMBLK2
  1

  9
$DIMSTYLE
  2
ISO-25
  9
$DIMCLRD
 70
     0
  9
$DIMCLRE
 70
     0
  9
$DIMCLRT
 70
     0
  9
$DIMTFAC
 40
1.0
  9
$DIMGAP
 40
1.524
  9
$DIMJUST
 70
     0
  9
$DIMSD1
 70
     0
  9
$DIMSD2
 70
     0
  9
$DIMTOLJ
 70
     0
  9
$DIMTZIN
 70
     0
  9
$DIMALTZ
 70
     0
  9
$DIMALTTZ
 70
     0
  9
$DIMUPT
 70
     0
  9
$DIMDEC
 70
     2
  9
$DIMTDEC
 70
     2
  9
$DIMALTU
 70
     2
  9
$DIMALTTD
 70
     3
  9
$DIMTXSTY
  7
Standard
  9
$DIMAUNIT
 70
     0
  9
$DIMADEC
 70
     2
  9
$DIMALTRND
 40
0.0
  9
$DIMAZIN
 70
     0
  9
$DIMDSEP
 70
    44
  9
$DIMATFIT
 70
     3
  9
$DIMFRAC
 70
     0
  9
$DIMLDRBLK
  1

  9
$DIMLUNIT
 70
     2
  9
$DIMLWD
 70
    -2
  9
$DIMLWE
 70
    -2
  9
$DIMTMOVE
 70
     0
  9
$LUNITS
 70
     2
  9
$LUPREC
 70
     2
  9
$SKETCHINC
 40
1.0
  9
$FILLETRAD
 40
10.0
  9
$AUNITS
 70
     0
  9
$AUPREC
 70
     2
  9
$MENU
  1
.
  9
$ELEVATION
 40
0.0
  9
$PELEVATION
 40
0.0
  9
$THICKNESS
 40
0.0
  9
$LIMCHECK
 70
     0
  9
$CHAMFERA
 40
0.0
  9
$CHAMFERB
 40
0.0
  9
$CHAMFERC
 40
0.0
  9
$CHAMFERD
 40
0.0
  9
$SKPOLY
 70
     0
  9
$TDCREATE
 40
2458323.436449873
  9
$TDUCREATE
 40
2458323.061449873
  9
$TDUPDATE
 40
2458330.599218218
  9
$TDUUPDATE
 40
2458330.224218218
  9
$TDINDWG
 40
0.0008229745
  9
$TDUSRTIMER
 40
2458330.224173611
  9
$USRTIMER
 70
     1
  9
$ANGBASE
 50
0.0
  9
$ANGDIR
 70
     0
  9
$PDMODE
 70
     0
  9
$PDSIZE
 40
-1.0
  9
$PLINEWID
 40
0.0
  9
$SPLFRAME
 70
     0
  9
$SPLINETYPE
 70
     6
  9
$SPLINESEGS
 70
     8
  9
$HANDSEED
  5
431
  9
$SURFTAB1
 70
     6
  9
$SURFTAB2
 70
     6
  9
$SURFTYPE
 70
     6
  9
$SURFU
 70
     6
  9
$SURFV
 70
     6
  9
$UCSBASE
  2

  9
$UCSNAME
  2

  9
$UCSORG
 10
0.0
 20
0.0
 30
0.0
  9
$UCSXDIR
 10
1.0
 20
0.0
 30
0.0
  9
$UCSYDIR
 10
0.0
 20
1.0
 30
0.0
  9
$UCSORTHOREF
  2

  9
$UCSORTHOVIEW
 70
     0
  9
$UCSORGTOP
 10
0.0
 20
0.0
 30
0.0
  9
$UCSORGBOTTOM
 10
0.0
 20
0.0
 30
0.0
  9
$UCSORGLEFT
 10
0.0
 20
0.0
 30
0.0
  9
$UCSORGRIGHT
 10
0.0
 20
0.0
 30
0.0
  9
$UCSORGFRONT
 10
0.0
 20
0.0
 30
0.0
  9
$UCSORGBACK
 10
0.0
 20
0.0
 30
0.0
  9
$PUCSBASE
  2

  9
$PUCSNAME
  2

  9
$PUCSORG
 10
0.0
 20
0.0
 30
0.0
  9
$PUCSXDIR
 10
1.0
 20
0.0
 30
0.0
  9
$PUCSYDIR
 10
0.0
 20
1.0
 30
0.0
  9
$PUCSORTHOREF
  2

  9
$PUCSORTHOVIEW
 70
     0
  9
$PUCSORGTOP
 10
0.0
 20
0.0
 30
0.0
  9
$PUCSORGBOTTOM
 10
0.0
 20
0.0
 30
0.0
  9
$PUCSORGLEFT
 10
0.0
 20
0.0
 30
0.0
  9
$PUCSORGRIGHT
 10
0.0
 20
0.0
 30
0.0
  9
$PUCSORGFRONT
 10
0.0
 20
0.0
 30
0.0
  9
$PUCSORGBACK
 10
0.0
 20
0.0
 30
0.0
  9
$USERI1
 70
     0
  9
$USERI2
 70
     0
  9
$USERI3
 70
     0
  9
$USERI4
 70
     0
  9
$USERI5
 70
     0
  9
$USERR1
 40
0.0
  9
$USERR2
 40
0.0
  9
$USERR3
 40
0.0
  9
$USERR4
 40
0.0
  9
$USERR5
 40
0.0
  9
$WORLDVIEW
 70
     1
  9
$SHADEDGE
 70
     3
  9
$SHADEDIF
 70
    70
  9
$TILEMODE
 70
     1
  9
$MAXACTVP
 70
    64
  9
$PINSBASE
 10
0.0
 20
0.0
 30
0.0
  9
$PLIMCHECK
 70
     0
  9
$PEXTMIN
 10
1.000000000000000E+20
 20
1.000000000000000E+20
 30
1.000000000000000E+20
  9
$PEXTMAX
 10
-1.000000000000000E+20
 20
-1.000000000000000E+20
 30
-1.000000000000000E+20
  9
$PLIMMIN
 10
0.0
 20
0.0
  9
$PLIMMAX
 10
0.0
 20
0.0
  9
$UNITMODE
 70
     0
  9
$VISRETAIN
 70
     1
  9
$PLINEGEN
 70
     0
  9
$PSLTSCALE
 70
     1
  9
$TREEDEPTH
 70
  3020
  9
$CMLSTYLE
  2
Standard
  9
$CMLJUST
 70
     0
  9
$CMLSCALE
 40
20.0
  9
$PROXYGRAPHICS
 70
     1
  9
$MEASUREMENT
 70
     1
  9
$CELWEIGHT
370
    -1
  9
$ENDCAPS
280
     0
  9
$JOINSTYLE
280
     0
  9
$LWDISPLAY
290
     1
  9
$INSUNITS
 70
     4
  9
$HYPERLINKBASE
  1

  9
$STYLESHEET
  1

  9
$XEDIT
290
     1
  9
$CEPSNTYPE
380
     0
  9
$PSTYLEMODE
290
     1
  9
$FINGERPRINTGUID
  2
{4A5F1E48-3FBD-4046-8A27-13C57F193BD4}
  9
$VERSIONGUID
  2
{FAEB1C32-E019-11D5-929B-00C0DF256EC4}
  9
$EXTNAMES
290
     1
  9
$PSVPSCALE
 40
0.0
  9
$OLESTARTUP
290
     0
  0
ENDSEC
  0
SECTION
  2
CLASSES
  0
CLASS
  1
ACDBDICTIONARYWDFLT
  2
AcDbDictionaryWithDefault
  3
ObjectDBX Classes
 90
        0
280
     0
281
     0
  0
CLASS
  1
VISUALSTYLE
  2
AcDbVisualStyle
  3
ObjectDBX Classes
 90
     4095
280
     0
281
     0
  0
CLASS
  1
MATERIAL
  2
AcDbMaterial
  3
ObjectDBX Classes
 90
     1153
280
     0
281
     0
  0
CLASS
  1
SCALE
  2
AcDbScale
  3
ObjectDBX Classes
 90
     1153
280
     0
281
     0
  0
CLASS
  1
SUN
  2
AcDbSun
  3
SCENEOE
 90
     1153
280
     0
281
     0
  0
CLASS
  1
ACDBPLACEHOLDER
  2
AcDbPlaceHolder
  3
ObjectDBX Classes
 90
        0
280
     0
281
     0
  0
CLASS
  1
LAYOUT
  2
AcDbLayout
  3
ObjectDBX Classes
 90
        0
280
     0
281
     0
  0
CLASS
  1
TABLESTYLE
  2
AcDbTableStyle
  3
ObjectDBX Classes
 90
     4095
280
     0
281
     0
  0
CLASS
  1
MLEADERSTYLE
  2
AcDbMLeaderStyle
  3
ACDB_MLEADERSTYLE_CLASS
 90
     4095
280
     0
281
     0
  0
CLASS
  1
DICTIONARYVAR
  2
AcDbDictionaryVar
  3
ObjectDBX Classes
 90
        0
280
     0
281
     0
  0
CLASS
  1
RASTERVARIABLES
  2
AcDbRasterVariables
  3
ISM
 90
        0
280
     0
281
     0
  0
ENDSEC
  0
SECTION
  2
TABLES
  0
TABLE
  2
VPORT
  5
8
330
0
100
AcDbSymbolTable
 70
     1
  0
VPORT
  5
29
330
8
100
AcDbSymbolTableRecord
100
AcDbViewportTableRecord
  2
*Active
 70
     0
 10
0.0
 20
0.0
 11
1.0
 21
1.0
 12
52.93381392796174
 22
-68.321073425417
 13
0.0
 23
0.0
 14
10.0
 24
10.0
 15
10.0
 25
10.0
 16
0.0
 26
0.0
 36
1.0
 17
0.0
 27
0.0
 37
0.0
 40
156.2347886224491
 41
1.516441005802708
 42
50.0
 43
0.0
 44
0.0
 50
0.0
 51
0.0
 71
    16
 72
  2000
 73
     1
 74
     3
 75
     0
 76
     0
 77
     0
 78
     0
281
     0
 65
     1
110
0.0
120
0.0
130
0.0
111
1.0
121
0.0
131
0.0
112
0.0
122
1.0
132
0.0
 79
     0
146
0.0
  0
ENDTAB
  0
TABLE
  2
LTYPE
  5
5
330
0
100
AcDbSymbolTable
 70
     6
  0
LTYPE
  5
14
330
5
100
AcDbSymbolTableRecord
100
AcDbLinetypeTableRecord
  2
ByBlock
 70
     0
  3

 72
    65
 73
     0
 40
0.0
  0
LTYPE
  5
15
330
5
100
AcDbSymbolTableRecord
100
AcDbLinetypeTableRecord
  2
ByLayer
 70
     0
  3

 72
    65
 73
     0
 40
0.0
  0
LTYPE
  5
16
330
5
100
AcDbSymbolTableRecord
100
AcDbLinetypeTableRecord
  2
Continuous
 70
     0
  3
Solid line
 72
    65
 73
     0
 40
0.0
  0
LTYPE
  5
6A
330
5
100
AcDbSymbolTableRecord
100
AcDbLinetypeTableRecord
  2
HIDDEN
 70
     0
  3
Hidden __ __ __ __ __ __ __ __ __ __ __ __ __ __
 72
    65
 73
     2
 40
1.905
 49
1.27
 74
     0
 49
-0.635
 74
     0
  0
LTYPE
  5
6B
330
5
100
AcDbSymbolTableRecord
100
AcDbLinetypeTableRecord
  2
PHANTOM
 70
     0
  3
Phantom ______  __  __  ______  __  __  ______
 72
    65
 73
     6
 40
12.7
 49
6.35
 74
     0
 49
-1.27
 74
     0
 49
1.27
 74
     0
 49
-1.27
 74
     0
 49
1.27
 74
     0
 49
-1.27
 74
     0
  0
LTYPE
  5
6C
330
5
100
AcDbSymbolTableRecord
100
AcDbLinetypeTableRecord
  2
CENTER
 70
     0
  3
Center ____ _ ____ _ ____ _ ____ _ ____ _ ____
 72
    65
 73
     4
 40
10.16
 49
6.35
 74
     0
 49
-1.27
 74
     0
 49
1.27
 74
     0
 49
-1.27
 74
     0
  0
LTYPE
  5
6D
330
5
100
AcDbSymbolTableRecord
100
AcDbLinetypeTableRecord
  2
CENTERX2
 70
     0
  3
Center (2x) ________  __  ________  __  _____
 72
    65
 73
     4
 40
20.32
 49
12.7
 74
     0
 49
-2.54
 74
     0
 49
2.54
 74
     0
 49
-2.54
 74
     0
  0
LTYPE
  5
6E
330
5
100
AcDbSymbolTableRecord
100
AcDbLinetypeTableRecord
  2
DOT2
 70
     0
  3
Dot (.5x) ........................................
 72
    65
 73
     2
 40
0.635
 49
0.0
 74
     0
 49
-0.635
 74
     0
  0
ENDTAB
  0
TABLE
  2
LAYER
  5
2
102
{ACAD_XDICTIONARY
360
195
102
}
330
0
100
AcDbSymbolTable
 70
    18
  0
LAYER
  5
10
330
2
100
AcDbSymbolTableRecord
100
AcDbLayerTableRecord
  2
0
 70
     0
 62
     7
  6
Continuous
370
    -3
390
F
  0
LAYER
  5
6F
330
2
100
AcDbSymbolTableRecord
100
AcDbLayerTableRecord
  2
FORMAT
 70
     0
 62
     2
  6
Continuous
370
    -3
390
F
  0
LAYER
  5
70
330
2
100
AcDbSymbolTableRecord
100
AcDbLayerTableRecord
  2
외형선
 70
     0
 62
     4
  6
Continuous
370
    30
390
F
  0
LAYER
  5
71
330
2
100
AcDbSymbolTableRecord
100
AcDbLayerTableRecord
  2
숨은선
 70
     0
 62
     2
  6
HIDDEN
370
    15
390
F
  0
LAYER
  5
72
330
2
100
AcDbSymbolTableRecord
100
AcDbLayerTableRecord
  2
중심선
 70
     0
 62
     1
  6
CENTERX2
370
    -3
390
F
  0
LAYER
  5
73
330
2
100
AcDbSymbolTableRecord
100
AcDbLayerTableRecord
  2
파단선
 70
     0
 62
     4
  6
Continuous
370
    -3
390
F
  0
LAYER
  5
74
330
2
100
AcDbSymbolTableRecord
100
AcDbLayerTableRecord
  2
해칭선
 70
     0
 62
   100
  6
Continuous
370
    -3
390
F
  0
LAYER
  5
75
330
2
100
AcDbSymbolTableRecord
100
AcDbLayerTableRecord
  2
가는실선
 70
     0
 62
     4
  6
Continuous
370
    -3
390
F
  0
LAYER
  5
76
330
2
100
AcDbSymbolTableRecord
100
AcDbLayerTableRecord
  2
치수_보조선
 70
     0
 62
     4
  6
Continuous
370
    -3
390
F
  0
LAYER
  5
77
330
2
100
AcDbSymbolTableRecord
100
AcDbLayerTableRecord
  2
치수문자_일반주서
 70
     0
 62
     7
  6
Continuous
370
    15
390
F
  0
LAYER
  5
78
330
2
100
AcDbSymbolTableRecord
100
AcDbLayerTableRecord
  2
개별주서
 70
     0
 62
   100
  6
Continuous
370
    30
390
F
  0
LAYER
  5
79
330
2
100
AcDbSymbolTableRecord
100
AcDbLayerTableRecord
  2
중간선
 70
     0
 62
     2
  6
Continuous
370
    15
390
F
  0
LAYER
  5
7A
330
2
100
AcDbSymbolTableRecord
100
AcDbLayerTableRecord
  2
윤곽선
 70
     0
 62
     3
  6
Continuous
370
    40
390
F
  0
LAYER
  5
7B
330
2
100
AcDbSymbolTableRecord
100
AcDbLayerTableRecord
  2
중심마크
 70
     0
 62
   100
  6
Continuous
370
    30
390
F
  0
LAYER
  5
7C
330
2
100
AcDbSymbolTableRecord
100
AcDbLayerTableRecord
  2
가상선
 70
     0
 62
     4
  6
PHANTOM
370
    -3
390
F
  0
LAYER
  5
7D
330
2
100
AcDbSymbolTableRecord
100
AcDbLayerTableRecord
  2
특수지정선
 70
     0
 62
     5
  6
CENTERX2
370
    60
390
F
  0
LAYER
  5
7E
330
2
100
AcDbSymbolTableRecord
100
AcDbLayerTableRecord
  2
참조1
 70
     0
 62
    -4
  6
Continuous
370
    -3
390
F
  0
LAYER
  5
162
330
2
100
AcDbSymbolTableRecord
100
AcDbLayerTableRecord
  2
Defpoints
 70
     0
 62
     7
  6
Continuous
290
     0
370
    -3
390
F
  0
ENDTAB
  0
TABLE
  2
STYLE
  5
3
330
0
100
AcDbSymbolTable
 70
     2
  0
STYLE
  5
11
330
3
100
AcDbSymbolTableRecord
100
AcDbTextStyleTableRecord
  2
Standard
 70
     0
 40
0.0
 41
1.0
 50
0.0
 71
     0
 42
3.5
  3
txt
  4

  0
STYLE
  5
94
330
3
100
AcDbSymbolTableRecord
100
AcDbTextStyleTableRecord
  2
SLDTEXTSTYLE0
 70
     0
 40
0.0
 41
0.75
 50
0.0
 71
     0
 42
3.5
  3
TXT
  4

  0
ENDTAB
  0
TABLE
  2
VIEW
  5
6
330
0
100
AcDbSymbolTable
 70
     0
  0
ENDTAB
  0
TABLE
  2
UCS
  5
7
330
0
100
AcDbSymbolTable
 70
     0
  0
ENDTAB
  0
TABLE
  2
APPID
  5
9
330
0
100
AcDbSymbolTable
 70
     4
  0
APPID
  5
12
330
9
100
AcDbSymbolTableRecord
100
AcDbRegAppTableRecord
  2
ACAD
 70
     0
  0
APPID
  5
1B4
330
9
100
AcDbSymbolTableRecord
100
AcDbRegAppTableRecord
  2
PE_URL
 70
     0
  0
APPID
  5
1FC
330
9
100
AcDbSymbolTableRecord
100
AcDbRegAppTableRecord
  2
ACAD_DSTYLE_DIMFLIPARROW_SYMBOL
 70
     0
  0
APPID
  5
1FD
330
9
100
AcDbSymbolTableRecord
100
AcDbRegAppTableRecord
  2
ACAD_DSTYLE_DIMFLIPARROW_WHICH_SYMBOL
 70
     0
  0
ENDTAB
  0
TABLE
  2
DIMSTYLE
  5
A
330
0
100
AcDbSymbolTable
 70
     4
100
AcDbDimStyleTable
  0
DIMSTYLE
105
27
330
A
100
AcDbSymbolTableRecord
100
AcDbDimStyleTableRecord
  2
ISO-25
 70
     0
 41
2.5
 42
0.625
 43
3.75
 44
1.25
 73
     0
 74
     0
 77
     1
 78
     8
140
2.5
141
2.5
143
0.03937007874016
147
0.625
171
     3
172
     1
178
     0
271
     2
272
     2
274
     3
278
    44
283
     0
284
     8
340
11
  0
DIMSTYLE
105
DE
102
{ACAD_REACTORS
330
DD
330
F0
330
117
330
103
102
}
330
A
100
AcDbSymbolTableRecord
100
AcDbDimStyleTableRecord
  2
SLDDIMSTYLE0
 70
     0
 41
3.302
 44
0.0
 45
0.000000001
 73
     0
 74
     0
 77
     1
 78
     4
 79
     1
140
3.5
143
0.0393700787401575
147
0.875
148
0.000000001
170
     1
173
     1
178
     0
271
     2
272
     2
276
     2
284
    12
340
94
  0
DIMSTYLE
105
104
102
{ACAD_REACTORS
102
}
330
A
100
AcDbSymbolTableRecord
100
AcDbDimStyleTableRecord
  2
SLDDIMSTYLE1
 70
     0
 41
3.302
 44
0.0
 45
0.000000001
 73
     0
 74
     0
 77
     1
 78
    12
 79
     3
140
3.5
143
0.0393700787401575
147
0.875
148
0.000000001
170
     1
173
     1
178
     0
271
     2
272
     2
276
     2
284
    12
340
94
  0
DIMSTYLE
105
167
330
A
100
AcDbSymbolTableRecord
100
AcDbDimStyleTableRecord
  2
SLDDIMSTYLE2
 70
     0
 41
3.302
 44
0.0
 45
0.000000001
 73
     0
 74
     0
 77
     1
 78
    12
 79
     3
140
3.5
147
0.875
172
     1
173
     1
178
     0
271
     2
272
     2
276
     2
284
    12
289
     0
340
94
  0
ENDTAB
  0
TABLE
  2
BLOCK_RECORD
  5
1
330
0
100
AcDbSymbolTable
 70
    18
  0
BLOCK_RECORD
  5
1F
330
1
100
AcDbSymbolTableRecord
100
AcDbBlockTableRecord
  2
*Model_Space
340
22
  0
BLOCK_RECORD
  5
1B
330
1
100
AcDbSymbolTableRecord
100
AcDbBlockTableRecord
  2
*Paper_Space
340
1E
  0
BLOCK_RECORD
  5
23
330
1
100
AcDbSymbolTableRecord
100
AcDbBlockTableRecord
  2
*Paper_Space0
340
26
  0
BLOCK_RECORD
  5
7F
330
1
100
AcDbSymbolTableRecord
100
AcDbBlockTableRecord
  2
블럭10
340
0
102
{BLKREFS
331
D6
102
}
  0
BLOCK_RECORD
  5
DF
330
1
100
AcDbSymbolTableRecord
100
AcDbBlockTableRecord
  2
_D
340
0
  0
BLOCK_RECORD
  5
F1
330
1
100
AcDbSymbolTableRecord
100
AcDbBlockTableRecord
  2
_D_1
340
0
  0
BLOCK_RECORD
  5
105
330
1
100
AcDbSymbolTableRecord
100
AcDbBlockTableRecord
  2
_D_2
340
0
  0
BLOCK_RECORD
  5
118
330
1
100
AcDbSymbolTableRecord
100
AcDbBlockTableRecord
  2
_D_3
340
0
  0
BLOCK_RECORD
  5
131
330
1
100
AcDbSymbolTableRecord
100
AcDbBlockTableRecord
  2
SW_DOWELSYMBOL_0
340
0
102
{BLKREFS
331
137
331
3E9
102
}
  0
BLOCK_RECORD
  5
199
330
1
100
AcDbSymbolTableRecord
100
AcDbBlockTableRecord
  2
*D7
340
0
  0
BLOCK_RECORD
  5
1A8
330
1
100
AcDbSymbolTableRecord
100
AcDbBlockTableRecord
  2
*D8
340
0
  0
BLOCK_RECORD
  5
316
330
1
100
AcDbSymbolTableRecord
100
AcDbBlockTableRecord
  2
*D9
340
0
  0
BLOCK_RECORD
  5
33A
330
1
100
AcDbSymbolTableRecord
100
AcDbBlockTableRecord
  2
*D10
340
0
  0
BLOCK_RECORD
  5
346
330
1
100
AcDbSymbolTableRecord
100
AcDbBlockTableRecord
  2
*D11
340
0
  0
BLOCK_RECORD
  5
352
330
1
100
AcDbSymbolTableRecord
100
AcDbBlockTableRecord
  2
*D12
340
0
  0
BLOCK_RECORD
  5
3AD
330
1
100
AcDbSymbolTableRecord
100
AcDbBlockTableRecord
  2
*D13
340
0
  0
BLOCK_RECORD
  5
3B9
330
1
100
AcDbSymbolTableRecord
100
AcDbBlockTableRecord
  2
*D14
340
0
  0
BLOCK_RECORD
  5
3C5
330
1
100
AcDbSymbolTableRecord
100
AcDbBlockTableRecord
  2
*D15
340
0
  0
BLOCK_RECORD
  5
3D1
330
1
100
AcDbSymbolTableRecord
100
AcDbBlockTableRecord
  2
*D16
340
0
  0
BLOCK_RECORD
  5
400
330
1
100
AcDbSymbolTableRecord
100
AcDbBlockTableRecord
  2
*D17
340
0
  0
ENDTAB
  0
ENDSEC
  0
SECTION
  2
BLOCKS
  0
BLOCK
  5
20
330
1F
100
AcDbEntity
  8
0
100
AcDbBlockBegin
  2
*Model_Space
 70
     0
 10
0.0
 20
0.0
 30
0.0
  3
*Model_Space
  1
*Model_Space
  0
ENDBLK
  5
21
330
1F
100
AcDbEntity
  8
0
100
AcDbBlockEnd
  0
BLOCK
  5
1C
330
1B
100
AcDbEntity
 67
     1
  8
0
100
AcDbBlockBegin
  2
*Paper_Space
 70
     0
 10
0.0
 20
0.0
 30
0.0
  3
*Paper_Space
  1
*Paper_Space
  0
ENDBLK
  5
1D
330
1B
100
AcDbEntity
 67
     1
  8
0
100
AcDbBlockEnd
  0
BLOCK
  5
24
330
23
100
AcDbEntity
  8
0
100
AcDbBlockBegin
  2
*Paper_Space0
 70
     0
 10
0.0
 20
0.0
 30
0.0
  3
*Paper_Space0
  1
*Paper_Space0
  0
ENDBLK
  5
25
330
23
100
AcDbEntity
  8
0
100
AcDbBlockEnd
  0
BLOCK
  5
80
330
7F
100
AcDbEntity
  8
0
100
AcDbBlockBegin
  2
블럭10
 70
     2
 10
0.0
 20
0.0
 30
0.0
  3
블럭10
  1
블럭10
  0
ELLIPSE
  5
82
330
7F
100
AcDbEntity
  8
중심선
100
AcDbEllipse
 10
20.54032771741204
 20
12.0471743016438
 30
0.0
 11
6.600054785286829
 21
-1.261213355974178E-13
 31
0.0
210
0.0
220
0.0
230
1.0
 40
0.636358354079598
 41
0.9219305317359503
 42
6.513795318482858
  0
ELLIPSE
  5
83
330
7F
100
AcDbEntity
  8
중심선
100
AcDbEllipse
 10
20.54032771746488
 20
12.04717430159265
 30
0.0
 11
3.960054785062283
 21
1.540847449632565E-10
 31
0.0
210
0.0
220
0.0
230
1.0
 40
0.3939339440162632
 41
1.131841032648279
 42
5.62031148352944
  0
LINE
  5
84
330
7F
100
AcDbEntity
  8
중심선
100
AcDbLine
 10
2.268634060543552
 20
16.24717430164393
 30
0.0
 11
5.714909304380834
 21
16.24717430164393
 31
0.0
  0
LINE
  5
85
330
7F
100
AcDbEntity
  8
중심선
100
AcDbLine
 10
5.245725140726316
 20
7.84717430164391
 30
0.0
 11
8.692000384563599
 21
7.84717430164391
 31
0.0
  0
LINE
  5
86
330
7F
100
AcDbEntity
  8
중심선
100
AcDbLine
 10
15.74043728645272
 20
16.24717430164393
 30
0.0
 11
8.692000384563599
 21
7.84717430164391
 31
0.0
  0
LINE
  5
87
330
7F
100
AcDbEntity
  8
중심선
100
AcDbLine
 10
0.1404042013395286
 20
13.71084872107135
 30
0.0
 11
3.58671253028996
 21
13.71088815037384
 31
0.0
  0
LINE
  5
88
330
7F
100
AcDbEntity
  8
중심선
100
AcDbLine
 10
2.750260043222114
 20
10.84717430164391
 30
0.0
 11
6.196535287059397
 21
10.84717430164391
 31
0.0
  0
LINE
  5
89
330
7F
100
AcDbEntity
  8
중심선
100
AcDbLine
 10
12.29416204261559
 20
16.24717430164393
 30
0.0
 11
5.245725140726316
 21
7.84717430164391
 31
0.0
  0
LINE
  5
8A
330
7F
100
AcDbEntity
  8
중심선
100
AcDbLine
 10
10.72767329541681
 20
16.24717430164393
 30
0.0
 11
6.196535287059397
 21
10.84717430164391
 31
0.0
  0
LINE
  5
8B
330
7F
100
AcDbEntity
  8
중심선
100
AcDbLine
 10
7.28139805157953
 20
16.24717430164393
 30
0.0
 11
2.750260043222114
 21
10.84717430164391
 31
0.0
  0
LINE
  5
8C
330
7F
100
AcDbEntity
  8
중심선
100
AcDbLine
 10
5.714909304380834
 20
16.24717430164393
 30
0.0
 11
3.58671253028996
 21
13.71088815037384
 31
0.0
  0
LINE
  5
8D
330
7F
100
AcDbEntity
  8
중심선
100
AcDbLine
 10
2.268634060543552
 20
16.24717430164393
 30
0.0
 11
0.1404042013395286
 21
13.71084872107135
 31
0.0
  0
LINE
  5
8E
330
7F
100
AcDbEntity
  8
중심선
100
AcDbLine
 10
7.28139805157953
 20
16.24717430164393
 30
0.0
 11
10.72767329541681
 21
16.24717430164393
 31
0.0
  0
LINE
  5
8F
330
7F
100
AcDbEntity
  8
중심선
100
AcDbLine
 10
12.29416204261559
 20
16.24717430164393
 30
0.0
 11
15.74043728645272
 21
16.24717430164393
 31
0.0
  0
LINE
  5
90
330
7F
100
AcDbEntity
  8
중심선
100
AcDbLine
 10
19.22036997980202
 20
11.08717430171403
 30
0.0
 11
23.66174974927406
 21
11.08717430171406
 31
0.0
  0
LINE
  5
91
330
7F
100
AcDbEntity
  8
중심선
100
AcDbLine
 10
19.22039502424796
 20
13.00717430171391
 30
0.0
 11
19.22036997980202
 21
11.08717430171403
 31
0.0
  0
LINE
  5
92
330
7F
100
AcDbEntity
  8
중심선
100
AcDbLine
 10
19.22039502424796
 20
13.00717430171391
 30
0.0
 11
26.96566020931264
 21
13.00717430171391
 31
0.0
  0
LINE
  5
93
330
7F
100
AcDbEntity
  8
중심선
100
AcDbLine
 10
22.22332737316547
 20
13.45928029700563
 30
0.0
 11
24.52862924686651
 21
15.39360700705356
 31
0.0
  0
ATTDEF
  5
95
330
7F
100
AcDbEntity
  8
FORMAT
 62
     2
100
AcDbText
 10
4.408487351596664
 20
2.075366912832191
 30
0.0
 40
4.233333333333333
  1
E1035164
 41
0.75
  7
SLDTEXTSTYLE0
 11
4.408487351596664
 21
-0.0412997538344756
 31
0.0
100
AcDbAttributeDefinition
  3

  2
AUTOATTR0
 70
     0
 74
     1
  0
ENDBLK
  5
81
330
7F
100
AcDbEntity
  8
0
100
AcDbBlockEnd
  0
BLOCK
  5
E0
330
DF
100
AcDbEntity
  8
0
100
AcDbBlockBegin
  2
_D
 70
     0
 10
0.0
 20
0.0
 30
0.0
  3
_D
  1
_D
  0
LINE
  5
E2
330
DF
100
AcDbEntity
  8
치수문자_일반주서
 62
     0
370
    -2
100
AcDbLine
 10
-68.7074999999937
 20
25.39999999999997
 30
0.0
 11
-98.2499999999937
 21
25.39999999999986
 31
0.0
  0
LINE
  5
E3
330
DF
100
AcDbEntity
  8
치수문자_일반주서
 62
     0
370
    -2
100
AcDbLine
 10
-78.23249999999368
 20
-25.40000000000002
 30
0.0
 11
-98.24999999999353
 21
-25.40000000000008
 31
0.0
  0
LINE
  5
E4
330
DF
100
AcDbEntity
  8
치수문자_일반주서
 62
     0
370
    -2
100
AcDbLine
 10
-98.2499999999937
 20
25.39999999999986
 30
0.0
 11
-98.2499999999938
 21
54.45199999999992
 31
0.0
  0
LINE
  5
E5
330
DF
100
AcDbEntity
  8
치수문자_일반주서
 62
     0
370
    -2
100
AcDbLine
 10
-98.2499999999937
 20
25.39999999999986
 30
0.0
 11
-98.24999999999353
 21
-25.40000000000008
 31
0.0
  0
LINE
  5
E6
330
DF
100
AcDbEntity
  8
치수문자_일반주서
 62
     0
370
    -2
100
AcDbLine
 10
-98.24999999999372
 20
28.70199999999986
 30
0.0
 11
-98.24999999999373
 21
32.00399999999986
 31
0.0
  0
LINE
  5
E7
330
DF
100
AcDbEntity
  8
치수문자_일반주서
 62
     0
370
    -2
100
AcDbLine
 10
-98.24999999999352
 20
-28.70200000000008
 30
0.0
 11
-98.2499999999935
 21
-32.00400000000008
 31
0.0
  0
SOLID
  5
E8
330
DF
100
AcDbEntity
  8
치수문자_일반주서
 62
     0
100
AcDbTrace
 10
-98.80033333332705
 20
28.70199999999985
 30
0.0
 11
-97.69966666666039
 21
28.70199999999986
 31
0.0
 12
-98.2499999999937
 22
25.39999999999986
 32
0.0
 13
-98.2499999999937
 23
25.39999999999986
 33
0.0
  0
SOLID
  5
E9
330
DF
100
AcDbEntity
  8
치수문자_일반주서
 62
     0
100
AcDbTrace
 10
-97.69966666666019
 20
-28.70200000000008
 30
0.0
 11
-98.80033333332685
 21
-28.70200000000009
 31
0.0
 12
-98.24999999999353
 22
-25.40000000000008
 32
0.0
 13
-98.24999999999353
 23
-25.40000000000008
 33
0.0
  0
MTEXT
  5
EA
330
DF
100
AcDbEntity
  8
치수문자_일반주서
 62
     0
100
AcDbMText
 10
-103.1249999999938
 20
41.57699999999991
 30
0.0
 40
4.0
 41
0.0
 71
     2
 72
     1
  1
\A1;%%c50.80 [2]
  7
SLDTEXTSTYLE0
 11
-3.356894814614650E-15
 21
1.0
 31
0.0
 73
     1
 44
1.0
  0
POINT
  5
1B9
330
DF
100
AcDbEntity
  8
Defpoints
 62
     0
100
AcDbPoint
 10
-68.6449999999937
 20
25.39999999999997
 30
0.0
  0
POINT
  5
1BA
330
DF
100
AcDbEntity
  8
Defpoints
 62
     0
100
AcDbPoint
 10
-78.16999999999368
 20
-25.40000000000002
 30
0.0
  0
POINT
  5
1BB
330
DF
100
AcDbEntity
  8
Defpoints
 62
     0
100
AcDbPoint
 10
-98.24999999999353
 20
-25.40000000000009
 30
0.0
  0
ENDBLK
  5
E1
330
DF
100
AcDbEntity
  8
0
100
AcDbBlockEnd
  0
BLOCK
  5
F2
330
F1
100
AcDbEntity
  8
0
100
AcDbBlockBegin
  2
_D_1
 70
     0
 10
0.0
 20
0.0
 30
0.0
  3
_D_1
  1
_D_1
  0
LINE
  5
F4
330
F1
100
AcDbEntity
  8
치수문자_일반주서
 62
     0
370
    -2
100
AcDbLine
 10
113.6000000000063
 20
25.46249999999999
 30
0.0
 11
113.6000000000063
 21
40.39999999999998
 31
0.0
  0
LINE
  5
F5
330
F1
100
AcDbEntity
  8
치수문자_일반주서
 62
     0
370
    -2
100
AcDbLine
 10
12.00000000000631
 20
25.40396750268844
 30
0.0
 11
12.00000000000631
 21
40.39999999999998
 31
0.0
  0
LINE
  5
F6
330
F1
100
AcDbEntity
  8
치수문자_일반주서
 62
     0
370
    -2
100
AcDbLine
 10
110.2980000000063
 20
40.39999999999998
 30
0.0
 11
15.30200000000631
 21
40.39999999999998
 31
0.0
  0
SOLID
  5
F7
330
F1
100
AcDbEntity
  8
치수문자_일반주서
 62
     0
100
AcDbTrace
 10
110.2980000000063
 20
39.84966666666665
 30
0.0
 11
110.2980000000063
 21
40.95033333333332
 31
0.0
 12
113.6000000000063
 22
40.39999999999998
 32
0.0
 13
113.6000000000063
 23
40.39999999999998
 33
0.0
  0
SOLID
  5
F8
330
F1
100
AcDbEntity
  8
치수문자_일반주서
 62
     0
100
AcDbTrace
 10
15.30200000000631
 20
40.95033333333332
 30
0.0
 11
15.30200000000631
 21
39.84966666666665
 31
0.0
 12
12.00000000000631
 22
40.39999999999998
 32
0.0
 13
12.00000000000631
 23
40.39999999999998
 33
0.0
  0
MTEXT
  5
F9
330
F1
100
AcDbEntity
  8
치수문자_일반주서
 62
     0
100
AcDbMText
 10
62.80000000000634
 20
45.27499999999998
 30
0.0
 40
4.0
 41
0.0
 71
     2
 72
     1
  1
\A1;101.60 [4]
  7
SLDTEXTSTYLE0
 73
     1
 44
1.0
  0
POINT
  5
FA
330
F1
100
AcDbEntity
  8
Defpoints
 62
     0
100
AcDbPoint
 10
113.6000000000063
 20
25.39999999999999
 30
0.0
  0
POINT
  5
FB
330
F1
100
AcDbEntity
  8
Defpoints
 62
     0
100
AcDbPoint
 10
12.00000000000631
 20
25.34146750268844
 30
0.0
  0
POINT
  5
FC
330
F1
100
AcDbEntity
  8
Defpoints
 62
     0
100
AcDbPoint
 10
12.00000000000631
 20
40.39999999999998
 30
0.0
  0
ENDBLK
  5
F3
330
F1
100
AcDbEntity
  8
0
100
AcDbBlockEnd
  0
BLOCK
  5
106
330
105
100
AcDbEntity
  8
0
100
AcDbBlockBegin
  2
_D_2
 70
     0
 10
0.0
 20
0.0
 30
0.0
  3
_D_2
  1
_D_2
  0
LINE
  5
108
330
105
100
AcDbEntity
  8
치수문자_일반주서
 62
     0
370
    -2
100
AcDbLine
 10
113.6000000000063
 20
25.46249999999999
 30
0.0
 11
113.6000000000063
 21
55.39999999999998
 31
0.0
  0
LINE
  5
109
330
105
100
AcDbEntity
  8
치수문자_일반주서
 62
     0
370
    -2
100
AcDbLine
 10
-83.24999999999369
 20
23.55749999999998
 30
0.0
 11
-83.24999999999369
 21
55.39999999999998
 31
0.0
  0
LINE
  5
10A
330
105
100
AcDbEntity
  8
치수문자_일반주서
 62
     0
370
    -2
100
AcDbLine
 10
110.2980000000063
 20
55.39999999999998
 30
0.0
 11
-79.9479999999937
 21
55.39999999999998
 31
0.0
  0
SOLID
  5
10B
330
105
100
AcDbEntity
  8
치수문자_일반주서
 62
     0
100
AcDbTrace
 10
110.2980000000063
 20
54.84966666666665
 30
0.0
 11
110.2980000000063
 21
55.95033333333332
 31
0.0
 12
113.6000000000063
 22
55.39999999999998
 32
0.0
 13
113.6000000000063
 23
55.39999999999998
 33
0.0
  0
SOLID
  5
10C
330
105
100
AcDbEntity
  8
치수문자_일반주서
 62
     0
100
AcDbTrace
 10
-79.9479999999937
 20
55.95033333333332
 30
0.0
 11
-79.9479999999937
 21
54.84966666666665
 31
0.0
 12
-83.24999999999369
 22
55.39999999999998
 32
0.0
 13
-83.24999999999369
 23
55.39999999999998
 33
0.0
  0
MTEXT
  5
10D
330
105
100
AcDbEntity
  8
치수문자_일반주서
 62
     0
100
AcDbMText
 10
15.17500000000632
 20
60.27499999999998
 30
0.0
 40
4.0
 41
0.0
 71
     2
 72
     1
  1
\A1;196.85 [7 3/4]
  7
SLDTEXTSTYLE0
 73
     1
 44
1.0
  0
POINT
  5
10E
330
105
100
AcDbEntity
  8
Defpoints
 62
     0
100
AcDbPoint
 10
113.6000000000063
 20
25.39999999999999
 30
0.0
  0
POINT
  5
10F
330
105
100
AcDbEntity
  8
Defpoints
 62
     0
100
AcDbPoint
 10
-83.24999999999369
 20
23.49499999999998
 30
0.0
  0
POINT
  5
110
330
105
100
AcDbEntity
  8
Defpoints
 62
     0
100
AcDbPoint
 10
-83.24999999999369
 20
55.39999999999998
 30
0.0
  0
ENDBLK
  5
107
330
105
100
AcDbEntity
  8
0
100
AcDbBlockEnd
  0
BLOCK
  5
119
330
118
100
AcDbEntity
  8
0
100
AcDbBlockBegin
  2
_D_3
 70
     0
 10
0.0
 20
0.0
 30
0.0
  3
_D_3
  1
_D_3
  0
LINE
  5
11B
330
118
100
AcDbEntity
  8
치수문자_일반주서
 62
     0
370
    -2
100
AcDbLine
 10
113.6625000000063
 20
25.39999999999999
 30
0.0
 11
128.6000000000062
 21
25.40000000000004
 31
0.0
  0
LINE
  5
11C
330
118
100
AcDbEntity
  8
치수문자_일반주서
 62
     0
370
    -2
100
AcDbLine
 10
113.6625000000063
 20
-25.40000000000001
 30
0.0
 11
128.6000000000064
 21
-25.39999999999995
 31
0.0
  0
LINE
  5
11D
330
118
100
AcDbEntity
  8
치수문자_일반주서
 62
     0
370
    -2
100
AcDbLine
 10
128.6000000000062
 20
25.40000000000004
 30
0.0
 11
128.6000000000061
 21
54.45200000000004
 31
0.0
  0
LINE
  5
11E
330
118
100
AcDbEntity
  8
치수문자_일반주서
 62
     0
370
    -2
100
AcDbLine
 10
128.6000000000062
 20
25.40000000000004
 30
0.0
 11
128.6000000000064
 21
-25.39999999999995
 31
0.0
  0
LINE
  5
11F
330
118
100
AcDbEntity
  8
치수문자_일반주서
 62
     0
370
    -2
100
AcDbLine
 10
128.6000000000062
 20
28.70200000000004
 30
0.0
 11
128.6000000000062
 21
32.00400000000005
 31
0.0
  0
LINE
  5
120
330
118
100
AcDbEntity
  8
치수문자_일반주서
 62
     0
370
    -2
100
AcDbLine
 10
128.6000000000064
 20
-28.70199999999995
 30
0.0
 11
128.6000000000064
 21
-32.00399999999995
 31
0.0
  0
SOLID
  5
121
330
118
100
AcDbEntity
  8
치수문자_일반주서
 62
     0
100
AcDbTrace
 10
128.0496666666729
 20
28.70200000000004
 30
0.0
 11
129.1503333333395
 21
28.70200000000005
 31
0.0
 12
128.6000000000062
 22
25.40000000000004
 32
0.0
 13
128.6000000000062
 23
25.40000000000004
 33
0.0
  0
SOLID
  5
122
330
118
100
AcDbEntity
  8
치수문자_일반주서
 62
     0
100
AcDbTrace
 10
129.1503333333397
 20
-28.70199999999994
 30
0.0
 11
128.049666666673
 21
-28.70199999999995
 31
0.0
 12
128.6000000000064
 22
-25.39999999999995
 32
0.0
 13
128.6000000000064
 23
-25.39999999999995
 33
0.0
  0
MTEXT
  5
123
330
118
100
AcDbEntity
  8
치수문자_일반주서
 62
     0
100
AcDbMText
 10
123.7250000000061
 20
41.57700000000003
 30
0.0
 40
4.0
 41
0.0
 71
     2
 72
     1
  1
\A1;%%c50.80 [2]
  7
SLDTEXTSTYLE0
 11
-3.356894814614647E-15
 21
1.0
 31
0.0
 73
     1
 44
1.0
  0
POINT
  5
124
330
118
100
AcDbEntity
  8
Defpoints
 62
     0
100
AcDbPoint
 10
113.6000000000063
 20
25.39999999999999
 30
0.0
  0
POINT
  5
1BC
330
118
100
AcDbEntity
  8
Defpoints
 62
     0
100
AcDbPoint
 10
113.6000000000063
 20
-25.40000000000001
 30
0.0
  0
POINT
  5
1BD
330
118
100
AcDbEntity
  8
Defpoints
 62
     0
100
AcDbPoint
 10
128.6000000000064
 20
-25.39999999999995
 30
0.0
  0
ENDBLK
  5
11A
330
118
100
AcDbEntity
  8
0
100
AcDbBlockEnd
  0
BLOCK
  5
132
330
131
100
AcDbEntity
  8
0
100
AcDbBlockBegin
  2
SW_DOWELSYMBOL_0
 70
     0
 10
0.0
 20
0.0
 30
0.0
  3
SW_DOWELSYMBOL_0
  1
SW_DOWELSYMBOL_0
  0
CIRCLE
  5
134
330
131
100
AcDbEntity
  8
해칭선
 62
     0
100
AcDbCircle
 10
0.0
 20
0.0
 30
0.0
 40
3.000000000000001
  0
HATCH
  5
135
330
131
100
AcDbEntity
  8
0
  6
Continuous
 62
     0
370
     0
100
AcDbHatch
 10
0.0
 20
0.0
 30
0.0
210
0.0
220
0.0
230
1.0
  2
SOLID
 70
     1
 71
     0
 91
        1
 92
        0
 93
        3
 72
     2
 10
0.0
 20
0.0
 40
3.000000000000001
 50
0.0
 51
90.0
 73
     1
 72
     1
 10
0.0
 20
3.000000000000001
 11
0.0
 21
0.0
 72
     1
 10
0.0
 20
0.0
 11
3.000000000000003
 21
0.0
 97
        0
 75
     0
 76
     1
 98
        1
 10
0.0
 20
0.0
  0
HATCH
  5
136
330
131
100
AcDbEntity
  8
0
  6
Continuous
 62
     0
370
     0
100
AcDbHatch
 10
0.0
 20
0.0
 30
0.0
210
0.0
220
0.0
230
1.0
  2
SOLID
 70
     1
 71
     0
 91
        1
 92
        0
 93
        3
 72
     2
 10
0.0
 20
0.0
 40
3.000000000000001
 50
180.0
 51
270.0000000000007
 73
     1
 72
     1
 10
0.0
 20
-3.000000000000001
 11
0.0
 21
0.0
 72
     1
 10
0.0
 20
0.0
 11
-3.000000000000003
 21
0.0
 97
        0
 75
     0
 76
     1
 98
        1
 10
0.0
 20
0.0
  0
ENDBLK
  5
133
330
131
100
AcDbEntity
  8
0
100
AcDbBlockEnd
  0
BLOCK
  5
19A
330
199
100
AcDbEntity
  8
0
100
AcDbBlockBegin
  2
*D7
 70
     1
 10
0.0
 20
0.0
 30
0.0
  3
*D7
  1
*D7
  0
LINE
  5
19C
330
199
100
AcDbEntity
  8
치수문자_일반주서
 62
     0
370
    -2
100
AcDbLine
 10
0.0
 20
0.0625000000000001
 30
0.0
 11
0.0
 21
31.64047088264928
 31
0.0
  0
LINE
  5
19D
330
199
100
AcDbEntity
  8
치수문자_일반주서
 62
     0
370
    -2
100
AcDbLine
 10
38.00011895067188
 20
10.47787127993619
 30
0.0
 11
38.00011895067188
 21
31.64047088264928
 31
0.0
  0
LINE
  5
19E
330
199
100
AcDbEntity
  8
치수문자_일반주서
 62
     0
370
    -2
100
AcDbLine
 10
4.0
 20
31.64047088264928
 30
0.0
 11
34.00011895067188
 21
31.64047088264928
 31
0.0
  0
SOLID
  5
19F
330
199
100
AcDbEntity
  8
치수문자_일반주서
 62
     0
100
AcDbTrace
 10
4.0
 20
32.30713754931594
 30
0.0
 11
4.0
 21
30.97380421598261
 31
0.0
 12
0.0
 22
31.64047088264928
 32
0.0
 13
0.0
 23
31.64047088264928
 33
0.0
  0
SOLID
  5
1A0
330
199
100
AcDbEntity
  8
치수문자_일반주서
 62
     0
100
AcDbTrace
 10
34.00011895067188
 20
30.97380421598261
 30
0.0
 11
34.00011895067188
 21
32.30713754931594
 31
0.0
 12
38.00011895067188
 22
31.64047088264928
 32
0.0
 13
38.00011895067188
 23
31.64047088264928
 33
0.0
  0
MTEXT
  5
1A1
330
199
100
AcDbEntity
  8
치수문자_일반주서
 62
     0
100
AcDbMText
 10
19.06814435762387
 20
36.51547088264928
 30
0.0
 40
4.0
 41
0.0
 71
     2
 72
     1
  1
\A1;38
  7
SLDTEXTSTYLE0
 73
     1
 44
1.0
  0
POINT
  5
1A2
330
199
100
AcDbEntity
  8
Defpoints
 62
     0
100
AcDbPoint
 10
0.0
 20
0.0000000000000001
 30
0.0
  0
POINT
  5
1A3
330
199
100
AcDbEntity
  8
Defpoints
 62
     0
100
AcDbPoint
 10
38.00011895067188
 20
10.41537127993619
 30
0.0
  0
POINT
  5
1A4
330
199
100
AcDbEntity
  8
Defpoints
 62
     0
100
AcDbPoint
 10
38.00011895067188
 20
31.64047088264928
 30
0.0
  0
ENDBLK
  5
19B
330
199
100
AcDbEntity
  8
0
100
AcDbBlockEnd
  0
BLOCK
  5
1A9
330
1A8
100
AcDbEntity
  8
0
100
AcDbBlockBegin
  2
*D8
 70
     1
 10
0.0
 20
0.0
 30
0.0
  3
*D8
  1
*D8
  0
LINE
  5
1AB
330
1A8
100
AcDbEntity
  8
치수문자_일반주서
 62
     0
370
    -2
100
AcDbLine
 10
169.9661884195736
 20
-100.1253495739607
 30
0.0
 11
169.9661884195736
 21
-68.54737869131142
 31
0.0
  0
LINE
  5
1AC
330
1A8
100
AcDbEntity
  8
치수문자_일반주서
 62
     0
370
    -2
100
AcDbLine
 10
207.9663073702455
 20
-89.70997829402452
 30
0.0
 11
207.9663073702455
 21
-68.54737869131142
 31
0.0
  0
LINE
  5
1AD
330
1A8
100
AcDbEntity
  8
치수문자_일반주서
 62
     0
370
    -2
100
AcDbLine
 10
173.9661884195736
 20
-68.54737869131142
 30
0.0
 11
203.9663073702455
 21
-68.54737869131142
 31
0.0
  0
SOLID
  5
1AE
330
1A8
100
AcDbEntity
  8
치수문자_일반주서
 62
     0
100
AcDbTrace
 10
173.9661884195736
 20
-67.88071202464475
 30
0.0
 11
173.9661884195736
 21
-69.2140453579781
 31
0.0
 12
169.9661884195736
 22
-68.54737869131142
 32
0.0
 13
169.9661884195736
 23
-68.54737869131142
 33
0.0
  0
SOLID
  5
1AF
330
1A8
100
AcDbEntity
  8
치수문자_일반주서
 62
     0
100
AcDbTrace
 10
203.9663073702455
 20
-69.2140453579781
 30
0.0
 11
203.9663073702455
 21
-67.88071202464475
 31
0.0
 12
207.9663073702455
 22
-68.54737869131142
 32
0.0
 13
207.9663073702455
 23
-68.54737869131142
 33
0.0
  0
MTEXT
  5
1B0
330
1A8
100
AcDbEntity
  8
치수문자_일반주서
 62
     0
100
AcDbMText
 10
189.0343327771975
 20
-63.67237869131142
 30
0.0
 40
4.0
 41
0.0
 71
     2
 72
     1
  1
\A1;38
  7
SLDTEXTSTYLE0
 73
     1
 44
1.0
  0
POINT
  5
1B1
330
1A8
100
AcDbEntity
  8
Defpoints
 62
     0
100
AcDbPoint
 10
169.9661884195736
 20
-100.1878495739607
 30
0.0
  0
POINT
  5
1B2
330
1A8
100
AcDbEntity
  8
Defpoints
 62
     0
100
AcDbPoint
 10
207.9663073702455
 20
-89.77247829402452
 30
0.0
  0
POINT
  5
1B3
330
1A8
100
AcDbEntity
  8
Defpoints
 62
     0
100
AcDbPoint
 10
207.9663073702455
 20
-68.54737869131142
 30
0.0
  0
ENDBLK
  5
1AA
330
1A8
100
AcDbEntity
  8
0
100
AcDbBlockEnd
  0
BLOCK
  5
317
330
316
100
AcDbEntity
  8
0
100
AcDbBlockBegin
  2
*D9
 70
     1
 10
0.0
 20
0.0
 30
0.0
  3
*D9
  1
*D7
  0
LINE
  5
318
330
316
100
AcDbEntity
  8
치수문자_일반주서
 62
     0
370
    -2
100
AcDbLine
 10
188.3875
 20
63.73632558057259
 30
0.0
 11
204.8014617075472
 21
63.73632558057259
 31
0.0
  0
LINE
  5
319
330
316
100
AcDbEntity
  8
치수문자_일반주서
 62
     0
370
    -2
100
AcDbLine
 10
188.3875
 20
12.93632558057259
 30
0.0
 11
204.8014617075472
 21
12.93632558057259
 31
0.0
  0
LINE
  5
31A
330
316
100
AcDbEntity
  8
치수문자_일반주서
 62
     0
370
    -2
100
AcDbLine
 10
204.8014617075472
 20
60.43432558057259
 30
0.0
 11
204.8014617075472
 21
16.23832558057259
 31
0.0
  0
SOLID
  5
31B
330
316
100
AcDbEntity
  8
치수문자_일반주서
 62
     0
100
AcDbTrace
 10
205.3517950408806
 20
60.43432558057259
 30
0.0
 11
204.2511283742139
 21
60.43432558057259
 31
0.0
 12
204.8014617075472
 22
63.73632558057259
 32
0.0
 13
204.8014617075472
 23
63.73632558057259
 33
0.0
  0
SOLID
  5
31C
330
316
100
AcDbEntity
  8
치수문자_일반주서
 62
     0
100
AcDbTrace
 10
204.2511283742139
 20
16.23832558057259
 30
0.0
 11
205.3517950408806
 21
16.23832558057259
 31
0.0
 12
204.8014617075472
 22
12.93632558057259
 32
0.0
 13
204.8014617075472
 23
12.93632558057259
 33
0.0
  0
MTEXT
  5
31D
330
316
100
AcDbEntity
  8
치수문자_일반주서
 62
     0
100
AcDbMText
 10
202.1764617075472
 20
38.33632558057259
 30
0.0
 40
3.5
 41
0.0
 71
     5
 72
     1
  1
\A1;{%%C50.80 [2]}
  7
SLDTEXTSTYLE0
 11
0.0
 21
1.0
 31
0.0
 73
     1
 44
1.0
  0
POINT
  5
31E
330
316
100
AcDbEntity
  8
Defpoints
 62
     0
100
AcDbPoint
 10
188.325
 20
63.73632558057259
 30
0.0
  0
POINT
  5
31F
330
316
100
AcDbEntity
  8
Defpoints
 62
     0
100
AcDbPoint
 10
188.325
 20
12.93632558057259
 30
0.0
  0
POINT
  5
320
330
316
100
AcDbEntity
  8
Defpoints
 62
     0
100
AcDbPoint
 10
204.8014617075472
 20
12.93632558057259
 30
0.0
  0
ENDBLK
  5
321
330
316
100
AcDbEntity
  8
0
100
AcDbBlockEnd
  0
BLOCK
  5
33B
330
33A
100
AcDbEntity
  8
0
100
AcDbBlockBegin
  2
*D10
 70
     1
 10
0.0
 20
0.0
 30
0.0
  3
*D10
  1
*D11
  0
LINE
  5
33D
330
33A
100
AcDbEntity
  8
치수문자_일반주서
 62
     0
370
    -2
100
AcDbLine
 10
17.81250000000004
 20
63.73632558057261
 30
0.0
 11
4.37499999999994
 21
63.73632558057255
 31
0.0
  0
LINE
  5
33E
330
33A
100
AcDbEntity
  8
치수문자_일반주서
 62
     0
370
    -2
100
AcDbLine
 10
17.81250000000004
 20
12.93632558057259
 30
0.0
 11
4.375000000000117
 21
12.93632558057253
 31
0.0
  0
LINE
  5
33F
330
33A
100
AcDbEntity
  8
치수문자_일반주서
 62
     0
370
    -2
100
AcDbLine
 10
4.374999999999951
 20
60.43432558057255
 30
0.0
 11
4.375000000000106
 21
16.23832558057253
 31
0.0
  0
SOLID
  5
340
330
33A
100
AcDbEntity
  8
치수문자_일반주서
 62
     0
100
AcDbTrace
 10
4.925333333333285
 20
60.43432558057255
 30
0.0
 11
3.824666666666618
 21
60.43432558057255
 31
0.0
 12
4.37499999999994
 22
63.73632558057255
 32
0.0
 13
4.37499999999994
 23
63.73632558057255
 33
0.0
  0
SOLID
  5
341
330
33A
100
AcDbEntity
  8
치수문자_일반주서
 62
     0
100
AcDbTrace
 10
3.824666666666772
 20
16.23832558057253
 30
0.0
 11
4.925333333333439
 21
16.23832558057254
 31
0.0
 12
4.375000000000117
 22
12.93632558057253
 32
0.0
 13
4.375000000000117
 23
12.93632558057253
 33
0.0
  0
MTEXT
  5
342
330
33A
100
AcDbEntity
  8
치수문자_일반주서
 62
     0
100
AcDbMText
 10
0.0000000000000284
 20
38.33632558057259
 30
0.0
 40
3.5
 41
0.0
 71
     2
 72
     1
  1
\A1;%%c50.80 [2]
  7
SLDTEXTSTYLE0
 11
-3.496765431890256E-15
 21
1.0
 31
0.0
 73
     1
 44
1.0
  0
POINT
  5
343
330
33A
100
AcDbEntity
  8
Defpoints
 62
     0
100
AcDbPoint
 10
17.87500000000004
 20
63.73632558057261
 30
0.0
  0
POINT
  5
344
330
33A
100
AcDbEntity
  8
Defpoints
 62
     0
100
AcDbPoint
 10
17.87500000000004
 20
12.93632558057259
 30
0.0
  0
POINT
  5
345
330
33A
100
AcDbEntity
  8
Defpoints
 62
     0
100
AcDbPoint
 10
4.375000000000114
 20
12.93632558057254
 30
0.0
  0
ENDBLK
  5
33C
330
33A
100
AcDbEntity
  8
0
100
AcDbBlockEnd
  0
BLOCK
  5
347
330
346
100
AcDbEntity
  8
0
100
AcDbBlockBegin
  2
*D11
 70
     1
 10
0.0
 20
0.0
 30
0.0
  3
*D11
  1
*D12
  0
LINE
  5
349
330
346
100
AcDbEntity
  8
치수문자_일반주서
 62
     0
370
    -2
100
AcDbLine
 10
188.325
 20
63.77735788740554
 30
0.0
 11
188.325
 21
76.89119961822846
 31
0.0
  0
LINE
  5
34A
330
346
100
AcDbEntity
  8
치수문자_일반주서
 62
     0
370
    -2
100
AcDbLine
 10
112.1250000000001
 20
58.4839855623085
 30
0.0
 11
112.1250000000001
 21
76.89119961822846
 31
0.0
  0
LINE
  5
34B
330
346
100
AcDbEntity
  8
치수문자_일반주서
 62
     0
370
    -2
100
AcDbLine
 10
185.0230000000001
 20
76.89119961822846
 30
0.0
 11
115.4270000000001
 21
76.89119961822846
 31
0.0
  0
SOLID
  5
34C
330
346
100
AcDbEntity
  8
치수문자_일반주서
 62
     0
100
AcDbTrace
 10
185.0230000000001
 20
76.34086628489513
 30
0.0
 11
185.0230000000001
 21
77.44153295156178
 31
0.0
 12
188.325
 22
76.89119961822846
 32
0.0
 13
188.325
 23
76.89119961822846
 33
0.0
  0
SOLID
  5
34D
330
346
100
AcDbEntity
  8
치수문자_일반주서
 62
     0
100
AcDbTrace
 10
115.4270000000001
 20
77.44153295156178
 30
0.0
 11
115.4270000000001
 21
76.34086628489513
 31
0.0
 12
112.1250000000001
 22
76.89119961822846
 32
0.0
 13
112.1250000000001
 23
76.89119961822846
 33
0.0
  0
MTEXT
  5
34E
330
346
100
AcDbEntity
  8
치수문자_일반주서
 62
     0
100
AcDbMText
 10
150.2250000000001
 20
81.26619961822846
 30
0.0
 40
3.5
 41
0.0
 71
     2
 72
     1
  1
\A1;76.20 [3]
  7
SLDTEXTSTYLE0
 73
     1
 44
1.0
  0
POINT
  5
34F
330
346
100
AcDbEntity
  8
Defpoints
 62
     0
100
AcDbPoint
 10
188.325
 20
63.71485788740554
 30
0.0
  0
POINT
  5
350
330
346
100
AcDbEntity
  8
Defpoints
 62
     0
100
AcDbPoint
 10
112.1250000000001
 20
58.4214855623085
 30
0.0
  0
POINT
  5
351
330
346
100
AcDbEntity
  8
Defpoints
 62
     0
100
AcDbPoint
 10
112.1250000000001
 20
76.89119961822846
 30
0.0
  0
ENDBLK
  5
348
330
346
100
AcDbEntity
  8
0
100
AcDbBlockEnd
  0
BLOCK
  5
353
330
352
100
AcDbEntity
  8
0
100
AcDbBlockBegin
  2
*D12
 70
     1
 10
0.0
 20
0.0
 30
0.0
  3
*D12
  1
*D13
  0
LINE
  5
355
330
352
100
AcDbEntity
  8
치수문자_일반주서
 62
     0
370
    -2
100
AcDbLine
 10
188.325
 20
62.50192365906285
 30
0.0
 11
188.325
 21
92.96495322444696
 31
0.0
  0
LINE
  5
356
330
352
100
AcDbEntity
  8
치수문자_일반주서
 62
     0
370
    -2
100
AcDbLine
 10
16.87500000000004
 20
62.79882558057259
 30
0.0
 11
16.87500000000004
 21
92.96495322444696
 31
0.0
  0
LINE
  5
357
330
352
100
AcDbEntity
  8
치수문자_일반주서
 62
     0
370
    -2
100
AcDbLine
 10
185.0230000000001
 20
92.96495322444696
 30
0.0
 11
20.17700000000004
 21
92.96495322444696
 31
0.0
  0
SOLID
  5
358
330
352
100
AcDbEntity
  8
치수문자_일반주서
 62
     0
100
AcDbTrace
 10
185.0230000000001
 20
92.41461989111363
 30
0.0
 11
185.0230000000001
 21
93.51528655778029
 31
0.0
 12
188.325
 22
92.96495322444696
 32
0.0
 13
188.325
 23
92.96495322444696
 33
0.0
  0
SOLID
  5
359
330
352
100
AcDbEntity
  8
치수문자_일반주서
 62
     0
100
AcDbTrace
 10
20.17700000000004
 20
93.51528655778029
 30
0.0
 11
20.17700000000004
 21
92.41461989111363
 31
0.0
 12
16.87500000000004
 22
92.96495322444696
 32
0.0
 13
16.87500000000004
 23
92.96495322444696
 33
0.0
  0
MTEXT
  5
35A
330
352
100
AcDbEntity
  8
치수문자_일반주서
 62
     0
100
AcDbMText
 10
102.6
 20
97.33995322444696
 30
0.0
 40
3.5
 41
0.0
 71
     2
 72
     1
  1
\A1;171.45 [6 3/4]
  7
SLDTEXTSTYLE0
 73
     1
 44
1.0
  0
POINT
  5
35B
330
352
100
AcDbEntity
  8
Defpoints
 62
     0
100
AcDbPoint
 10
188.325
 20
62.43942365906285
 30
0.0
  0
POINT
  5
35C
330
352
100
AcDbEntity
  8
Defpoints
 62
     0
100
AcDbPoint
 10
16.87500000000004
 20
62.73632558057259
 30
0.0
  0
POINT
  5
35D
330
352
100
AcDbEntity
  8
Defpoints
 62
     0
100
AcDbPoint
 10
16.87500000000004
 20
92.96495322444696
 30
0.0
  0
ENDBLK
  5
354
330
352
100
AcDbEntity
  8
0
100
AcDbBlockEnd
  0
BLOCK
  5
3AE
330
3AD
100
AcDbEntity
  8
0
100
AcDbBlockBegin
  2
*D13
 70
     1
 10
0.0
 20
0.0
 30
0.0
  3
*D13
  1
*D14
  0
LINE
  5
3B0
330
3AD
100
AcDbEntity
  8
치수문자_일반주서
 62
     0
370
    -2
100
AcDbLine
 10
-195.2417397117252
 20
-181.7305534232941
 30
0.0
 11
-208.6792397117254
 21
-181.7305534232942
 31
0.0
  0
LINE
  5
3B1
330
3AD
100
AcDbEntity
  8
치수문자_일반주서
 62
     0
370
    -2
100
AcDbLine
 10
-195.2417397117252
 20
-232.5305534232941
 30
0.0
 11
-208.6792397117252
 21
-232.5305534232942
 31
0.0
  0
LINE
  5
3B2
330
3AD
100
AcDbEntity
  8
치수문자_일반주서
 62
     0
370
    -2
100
AcDbLine
 10
-208.6792397117254
 20
-185.0325534232942
 30
0.0
 11
-208.6792397117252
 21
-229.2285534232942
 31
0.0
  0
SOLID
  5
3B3
330
3AD
100
AcDbEntity
  8
치수문자_일반주서
 62
     0
100
AcDbTrace
 10
-208.128906378392
 20
-185.0325534232942
 30
0.0
 11
-209.2295730450587
 21
-185.0325534232942
 31
0.0
 12
-208.6792397117254
 22
-181.7305534232942
 32
0.0
 13
-208.6792397117254
 23
-181.7305534232942
 33
0.0
  0
SOLID
  5
3B4
330
3AD
100
AcDbEntity
  8
치수문자_일반주서
 62
     0
100
AcDbTrace
 10
-209.2295730450585
 20
-229.2285534232942
 30
0.0
 11
-208.1289063783919
 21
-229.2285534232942
 31
0.0
 12
-208.6792397117252
 22
-232.5305534232942
 32
0.0
 13
-208.6792397117252
 23
-232.5305534232942
 33
0.0
  0
MTEXT
  5
3B5
330
3AD
100
AcDbEntity
  8
치수문자_일반주서
 62
     0
100
AcDbMText
 10
-213.0542397117253
 20
-207.1305534232941
 30
0.0
 40
3.5
 41
0.0
 71
     2
 72
     1
  1
\A1;%%c50.80 [2]
  7
SLDTEXTSTYLE0
 11
-3.356894814614646E-15
 21
1.0
 31
0.0
 73
     1
 44
1.0
  0
POINT
  5
3B6
330
3AD
100
AcDbEntity
  8
Defpoints
 62
     0
100
AcDbPoint
 10
-195.1792397117252
 20
-181.7305534232941
 30
0.0
  0
POINT
  5
3B7
330
3AD
100
AcDbEntity
  8
Defpoints
 62
     0
100
AcDbPoint
 10
-195.1792397117252
 20
-232.5305534232941
 30
0.0
  0
POINT
  5
3B8
330
3AD
100
AcDbEntity
  8
Defpoints
 62
     0
100
AcDbPoint
 10
-208.6792397117252
 20
-232.5305534232942
 30
0.0
  0
ENDBLK
  5
3AF
330
3AD
100
AcDbEntity
  8
0
100
AcDbBlockEnd
  0
BLOCK
  5
3BA
330
3B9
100
AcDbEntity
  8
0
100
AcDbBlockBegin
  2
*D14
 70
     1
 10
0.0
 20
0.0
 30
0.0
  3
*D14
  1
*D15
  0
LINE
  5
3BC
330
3B9
100
AcDbEntity
  8
치수문자_일반주서
 62
     0
370
    -2
100
AcDbLine
 10
-24.72923971172526
 20
-181.6895211164612
 30
0.0
 11
-24.72923971172526
 21
-168.5756793856383
 31
0.0
  0
LINE
  5
3BD
330
3B9
100
AcDbEntity
  8
치수문자_일반주서
 62
     0
370
    -2
100
AcDbLine
 10
-100.9292397117252
 20
-186.9828934415582
 30
0.0
 11
-100.9292397117252
 21
-168.5756793856383
 31
0.0
  0
LINE
  5
3BE
330
3B9
100
AcDbEntity
  8
치수문자_일반주서
 62
     0
370
    -2
100
AcDbLine
 10
-28.03123971172526
 20
-168.5756793856383
 30
0.0
 11
-97.62723971172524
 21
-168.5756793856383
 31
0.0
  0
SOLID
  5
3BF
330
3B9
100
AcDbEntity
  8
치수문자_일반주서
 62
     0
100
AcDbTrace
 10
-28.03123971172526
 20
-169.1260127189716
 30
0.0
 11
-28.03123971172526
 21
-168.0253460523049
 31
0.0
 12
-24.72923971172526
 22
-168.5756793856383
 32
0.0
 13
-24.72923971172526
 23
-168.5756793856383
 33
0.0
  0
SOLID
  5
3C0
330
3B9
100
AcDbEntity
  8
치수문자_일반주서
 62
     0
100
AcDbTrace
 10
-97.62723971172524
 20
-168.0253460523049
 30
0.0
 11
-97.62723971172524
 21
-169.1260127189716
 31
0.0
 12
-100.9292397117252
 22
-168.5756793856383
 32
0.0
 13
-100.9292397117252
 23
-168.5756793856383
 33
0.0
  0
MTEXT
  5
3C1
330
3B9
100
AcDbEntity
  8
치수문자_일반주서
 62
     0
100
AcDbMText
 10
-62.82923971172525
 20
-164.2006793856383
 30
0.0
 40
3.5
 41
0.0
 71
     2
 72
     1
  1
\A1;76.20 [3]
  7
SLDTEXTSTYLE0
 73
     1
 44
1.0
  0
POINT
  5
3C2
330
3B9
100
AcDbEntity
  8
Defpoints
 62
     0
100
AcDbPoint
 10
-24.72923971172526
 20
-181.7520211164612
 30
0.0
  0
POINT
  5
3C3
330
3B9
100
AcDbEntity
  8
Defpoints
 62
     0
100
AcDbPoint
 10
-100.9292397117252
 20
-187.0453934415582
 30
0.0
  0
POINT
  5
3C4
330
3B9
100
AcDbEntity
  8
Defpoints
 62
     0
100
AcDbPoint
 10
-100.9292397117252
 20
-168.5756793856383
 30
0.0
  0
ENDBLK
  5
3BB
330
3B9
100
AcDbEntity
  8
0
100
AcDbBlockEnd
  0
BLOCK
  5
3C6
330
3C5
100
AcDbEntity
  8
0
100
AcDbBlockBegin
  2
*D15
 70
     1
 10
0.0
 20
0.0
 30
0.0
  3
*D15
  1
*D16
  0
LINE
  5
3C8
330
3C5
100
AcDbEntity
  8
치수문자_일반주서
 62
     0
370
    -2
100
AcDbLine
 10
-24.72923971172526
 20
-182.9649553448039
 30
0.0
 11
-24.72923971172526
 21
-152.5019257794198
 31
0.0
  0
LINE
  5
3C9
330
3C5
100
AcDbEntity
  8
치수문자_일반주서
 62
     0
370
    -2
100
AcDbLine
 10
-196.1792397117252
 20
-182.6680534232941
 30
0.0
 11
-196.1792397117252
 21
-152.5019257794198
 31
0.0
  0
LINE
  5
3CA
330
3C5
100
AcDbEntity
  8
치수문자_일반주서
 62
     0
370
    -2
100
AcDbLine
 10
-28.03123971172526
 20
-152.5019257794198
 30
0.0
 11
-192.8772397117253
 21
-152.5019257794198
 31
0.0
  0
SOLID
  5
3CB
330
3C5
100
AcDbEntity
  8
치수문자_일반주서
 62
     0
100
AcDbTrace
 10
-28.03123971172526
 20
-153.0522591127531
 30
0.0
 11
-28.03123971172526
 21
-151.9515924460864
 31
0.0
 12
-24.72923971172526
 22
-152.5019257794198
 32
0.0
 13
-24.72923971172526
 23
-152.5019257794198
 33
0.0
  0
SOLID
  5
3CC
330
3C5
100
AcDbEntity
  8
치수문자_일반주서
 62
     0
100
AcDbTrace
 10
-192.8772397117253
 20
-151.9515924460864
 30
0.0
 11
-192.8772397117253
 21
-153.0522591127531
 31
0.0
 12
-196.1792397117252
 22
-152.5019257794198
 32
0.0
 13
-196.1792397117252
 23
-152.5019257794198
 33
0.0
  0
MTEXT
  5
3CD
330
3C5
100
AcDbEntity
  8
치수문자_일반주서
 62
     0
100
AcDbMText
 10
-110.4542397117253
 20
-148.1269257794198
 30
0.0
 40
3.5
 41
0.0
 71
     2
 72
     1
  1
\A1;171.45 [6 3/4]
  7
SLDTEXTSTYLE0
 73
     1
 44
1.0
  0
POINT
  5
3CE
330
3C5
100
AcDbEntity
  8
Defpoints
 62
     0
100
AcDbPoint
 10
-24.72923971172526
 20
-183.0274553448039
 30
0.0
  0
POINT
  5
3CF
330
3C5
100
AcDbEntity
  8
Defpoints
 62
     0
100
AcDbPoint
 10
-196.1792397117252
 20
-182.7305534232941
 30
0.0
  0
POINT
  5
3D0
330
3C5
100
AcDbEntity
  8
Defpoints
 62
     0
100
AcDbPoint
 10
-196.1792397117252
 20
-152.5019257794198
 30
0.0
  0
ENDBLK
  5
3C7
330
3C5
100
AcDbEntity
  8
0
100
AcDbBlockEnd
  0
BLOCK
  5
3D2
330
3D1
100
AcDbEntity
  8
0
100
AcDbBlockBegin
  2
*D16
 70
     1
 10
0.0
 20
0.0
 30
0.0
  3
*D16
  1
*D17
  0
LINE
  5
3D4
330
3D1
100
AcDbEntity
  8
치수문자_일반주서
 62
     0
370
    -2
100
AcDbLine
 10
-24.66673971172526
 20
-181.7305534232941
 30
0.0
 11
-8.252778004178051
 21
-181.7305534232941
 31
0.0
  0
LINE
  5
3D5
330
3D1
100
AcDbEntity
  8
치수문자_일반주서
 62
     0
370
    -2
100
AcDbLine
 10
-24.66673971172526
 20
-232.5305534232941
 30
0.0
 11
-8.252778004178055
 21
-232.5305534232941
 31
0.0
  0
LINE
  5
3D6
330
3D1
100
AcDbEntity
  8
치수문자_일반주서
 62
     0
370
    -2
100
AcDbLine
 10
-8.252778004178051
 20
-185.0325534232941
 30
0.0
 11
-8.252778004178055
 21
-229.2285534232941
 31
0.0
  0
SOLID
  5
3D7
330
3D1
100
AcDbEntity
  8
치수문자_일반주서
 62
     0
100
AcDbTrace
 10
-7.702444670844717
 20
-185.0325534232941
 30
0.0
 11
-8.803111337511384
 21
-185.0325534232941
 31
0.0
 12
-8.252778004178051
 22
-181.7305534232941
 32
0.0
 13
-8.252778004178051
 23
-181.7305534232941
 33
0.0
  0
SOLID
  5
3D8
330
3D1
100
AcDbEntity
  8
치수문자_일반주서
 62
     0
100
AcDbTrace
 10
-8.803111337511387
 20
-229.2285534232941
 30
0.0
 11
-7.702444670844721
 21
-229.2285534232941
 31
0.0
 12
-8.252778004178055
 22
-232.5305534232941
 32
0.0
 13
-8.252778004178055
 23
-232.5305534232941
 33
0.0
  0
MTEXT
  5
3D9
330
3D1
100
AcDbEntity
  8
치수문자_일반주서
 62
     0
100
AcDbMText
 10
-10.87777800417805
 20
-207.1305534232941
 30
0.0
 40
3.5
 41
0.0
 71
     5
 72
     1
  1
\A1;{%%C50.80 [2]}
  7
SLDTEXTSTYLE0
 11
6.993530863780516E-17
 21
1.0
 31
0.0
 73
     1
 44
1.0
  0
POINT
  5
3DA
330
3D1
100
AcDbEntity
  8
Defpoints
 62
     0
100
AcDbPoint
 10
-24.72923971172526
 20
-181.7305534232941
 30
0.0
  0
POINT
  5
3DB
330
3D1
100
AcDbEntity
  8
Defpoints
 62
     0
100
AcDbPoint
 10
-24.72923971172526
 20
-232.5305534232941
 30
0.0
  0
POINT
  5
3DC
330
3D1
100
AcDbEntity
  8
Defpoints
 62
     0
100
AcDbPoint
 10
-8.252778004178055
 20
-232.5305534232941
 30
0.0
  0
ENDBLK
  5
3D3
330
3D1
100
AcDbEntity
  8
0
100
AcDbBlockEnd
  0
BLOCK
  5
401
330
400
100
AcDbEntity
  8
0
100
AcDbBlockBegin
  2
*D17
 70
     1
 10
0.0
 20
0.0
 30
0.0
  3
*D17
  1
*D18
  0
LINE
  5
403
330
400
100
AcDbEntity
  8
치수문자_일반주서
 62
     0
370
    -2
100
AcDbLine
 10
-82.31249999999369
 20
25.40000000000003
 30
0.0
 11
-95.7499999999938
 21
25.39999999999998
 31
0.0
  0
LINE
  5
404
330
400
100
AcDbEntity
  8
치수문자_일반주서
 62
     0
370
    -2
100
AcDbLine
 10
-82.31249999999369
 20
-25.39999999999998
 30
0.0
 11
-95.74999999999363
 21
-25.40000000000003
 31
0.0
  0
LINE
  5
405
330
400
100
AcDbEntity
  8
치수문자_일반주서
 62
     0
370
    -2
100
AcDbLine
 10
-95.74999999999379
 20
22.09799999999998
 30
0.0
 11
-95.74999999999365
 21
-22.09800000000003
 31
0.0
  0
SOLID
  5
406
330
400
100
AcDbEntity
  8
치수문자_일반주서
 62
     0
100
AcDbTrace
 10
-95.19966666666046
 20
22.09799999999999
 30
0.0
 11
-96.30033333332712
 21
22.09799999999998
 31
0.0
 12
-95.7499999999938
 22
25.39999999999998
 32
0.0
 13
-95.7499999999938
 23
25.39999999999998
 33
0.0
  0
SOLID
  5
407
330
400
100
AcDbEntity
  8
치수문자_일반주서
 62
     0
100
AcDbTrace
 10
-96.30033333332698
 20
-22.09800000000003
 30
0.0
 11
-95.19966666666032
 21
-22.09800000000002
 31
0.0
 12
-95.74999999999363
 22
-25.40000000000003
 32
0.0
 13
-95.74999999999363
 23
-25.40000000000003
 33
0.0
  0
MTEXT
  5
408
330
400
100
AcDbEntity
  8
치수문자_일반주서
 62
     0
100
AcDbMText
 10
-100.1249999999937
 20
0.0000000000000139
 30
0.0
 40
3.5
 41
0.0
 71
     2
 72
     1
  1
\A1;%%c50.80 [2]
  7
SLDTEXTSTYLE0
 11
-3.356894814614646E-15
 21
1.0
 31
0.0
 73
     1
 44
1.0
  0
POINT
  5
409
330
400
100
AcDbEntity
  8
Defpoints
 62
     0
100
AcDbPoint
 10
-82.24999999999369
 20
25.40000000000003
 30
0.0
  0
POINT
  5
40A
330
400
100
AcDbEntity
  8
Defpoints
 62
     0
100
AcDbPoint
 10
-82.24999999999369
 20
-25.39999999999998
 30
0.0
  0
POINT
  5
40B
330
400
100
AcDbEntity
  8
Defpoints
 62
     0
100
AcDbPoint
 10
-95.74999999999363
 20
-25.40000000000003
 30
0.0
  0
ENDBLK
  5
402
330
400
100
AcDbEntity
  8
0
100
AcDbBlockEnd
  0
ENDSEC
  0
SECTION
  2
ENTITIES
  0
LINE
  5
96
330
1F
100
AcDbEntity
  8
0
  6
Continuous
 62
     1
370
    15
100
AcDbLine
 10
39.02235585636072
 20
4.977994613425329
 30
0.0
 11
38.91725590026778
 21
5.080055805172417
 31
0.0
1001
PE_URL
1000

  0
LINE
  5
97
330
1F
100
AcDbEntity
  8
0
  6
Continuous
 62
     1
370
    15
100
AcDbLine
 10
108.3772852126091
 20
-4.974378274564156
 30
0.0
 11
108.4863578898708
 21
-5.080121609855841
 31
0.0
1001
PE_URL
1000

  0
LINE
  5
98
330
1F
100
AcDbEntity
  8
0
  6
Continuous
 62
     1
370
    15
100
AcDbLine
 10
81.76242480962568
 20
-4.960016792265459
 30
0.0
 11
81.88630913466214
 21
-5.079977878798825
 31
0.0
1001
PE_URL
1000

  0
LINE
  5
99
330
1F
100
AcDbEntity
  8
0
  6
Continuous
 62
     1
370
    15
100
AcDbLine
 10
63.47167383169867
 20
25.39999999999999
 30
0.0
 11
57.33160962034427
 21
25.39999999999999
 31
0.0
1001
PE_URL
1000

  0
LINE
  5
9A
330
1F
100
AcDbEntity
  8
0
  6
Continuous
 62
     1
370
    15
100
AcDbLine
 10
57.33160962034407
 20
-25.40000000000001
 30
0.0
 11
63.47167383169852
 21
-25.40000000000001
 31
0.0
1001
PE_URL
1000

  0
LINE
  5
9B
330
1F
100
AcDbEntity
  8
0
  6
Continuous
 62
     1
370
    15
100
AcDbLine
 10
110.528558620104
 20
-25.40000000000001
 30
0.0
 11
113.6000000000063
 21
-25.40000000000001
 31
0.0
1001
PE_URL
1000

  0
LINE
  5
9C
330
1F
100
AcDbEntity
  8
0
  6
Continuous
 62
     1
370
    15
100
AcDbLine
 10
36.87435789369856
 20
25.39999999999999
 30
0.0
 11
30.73316622413101
 21
25.39999999999999
 31
0.0
1001
PE_URL
1000

  0
LINE
  5
9D
330
1F
100
AcDbEntity
  8
0
  6
Continuous
 62
     1
370
    15
100
AcDbLine
 10
83.93179095189983
 20
-25.40000000000001
 30
0.0
 11
90.07194925241967
 21
-25.40000000000001
 31
0.0
1001
PE_URL
1000

  0
LINE
  5
9E
330
1F
100
AcDbEntity
  8
0
  6
Continuous
 62
     1
370
    15
100
AcDbLine
 10
90.07194925241964
 20
25.39999999999999
 30
0.0
 11
83.93179095190004
 21
25.39999999999999
 31
0.0
1001
PE_URL
1000

  0
LINE
  5
9F
330
1F
100
AcDbEntity
  8
0
  6
Continuous
 62
     1
370
    15
100
AcDbLine
 10
30.73316622413101
 20
-25.40000000000001
 30
0.0
 11
36.8743578936984
 21
-25.40000000000001
 31
0.0
1001
PE_URL
1000

  0
LINE
  5
A0
330
1F
100
AcDbEntity
  8
0
  6
Continuous
 62
     1
370
    15
100
AcDbLine
 10
113.6000000000063
 20
25.39999999999999
 30
0.0
 11
110.528558620104
 21
25.39999999999999
 31
0.0
1001
PE_URL
1000

  0
SPLINE
  5
A5
330
1F
100
AcDbEntity
  8
0
  6
Continuous
 62
     1
370
    15
100
AcDbSpline
210
0.0
220
0.0
230
1.0
 70
     8
 71
     3
 72
    25
 73
    21
 74
     0
 42
0.000000001
 43
0.00000001
 40
0.0
 40
0.0
 40
0.0
 40
0.0
 40
0.0570658155180384
 40
0.1141334416576412
 40
0.1712054606406237
 40
0.22828444811829
 40
0.2853708427850415
 40
0.3424508322712861
 40
0.3995235468623539
 40
0.4589046005530538
 40
0.5182842495957846
 40
0.5776633623277226
 40
0.6370428074770996
 40
0.6964234535297529
 40
0.755806168096069
 40
0.8151918172793137
 40
0.8745812650463612
 40
0.9339750277525133
 40
0.9933666505255293
 40
0.9999999999999999
 40
0.9999999999999999
 40
0.9999999999999999
 40
0.9999999999999999
 10
12.00000000000629
 20
11.17824636190393
 30
0.0
 10
13.17360853577372
 20
10.10354914712914
 30
0.0
 10
15.52086284432882
 20
7.954120618882566
 30
0.0
 10
19.04190138386706
 20
4.519808431724554
 30
0.0
 10
22.56335383995765
 20
1.014033220897609
 30
0.0
 10
26.08538580724647
 20
-2.515525042995896
 30
0.0
 10
29.6079547656348
 20
-5.99548665964698
 30
0.0
 10
33.13007922957848
 20
-9.360880268486783
 30
0.0
 10
36.69910134398378
 20
-12.58939893603403
 30
0.0
 10
40.31557993176285
 20
-15.60863727185889
 30
0.0
 10
43.97938921930844
 20
-18.34320727685916
 30
0.0
 10
47.64316578087438
 20
-20.69670275140161
 30
0.0
 10
51.30696852179763
 20
-22.62031655432457
 30
0.0
 10
54.97088388088667
 20
-24.07378057619412
 30
0.0
 10
58.63498949638647
 20
-25.02807392606964
 30
0.0
 10
62.29937012772508
 20
-25.45892419512581
 30
0.0
 10
65.96408281225159
 20
-25.37384286638023
 30
0.0
 10
69.62910822979354
 20
-24.71297124026127
 30
0.0
 10
72.20890338037786
 20
-24.01400038089089
 30
0.0
 10
73.566934901019
 20
-23.4050783444333
 30
0.0
 10
73.70337263612306
 20
-23.34390160276972
 30
0.0
1001
PE_URL
1000

  0
SPLINE
  5
A6
330
1F
100
AcDbEntity
  8
외형선
  6
Continuous
370
    15
100
AcDbSpline
210
0.0
220
0.0
230
1.0
 70
    24
 71
     3
 72
    16
 73
    12
 74
     0
 42
0.000000001
 43
0.00000001
 40
0.0
 40
0.0
 40
0.0
 40
0.0
 40
0.107671619294072
 40
0.2179085259204825
 40
0.3361740907577431
 40
0.4578693649871626
 40
0.5761349298244252
 40
0.6978302040538471
 40
0.816095768891107
 40
0.9377910431205255
 40
0.9999999999999999
 40
0.9999999999999999
 40
0.9999999999999999
 40
0.9999999999999999
 10
12.00000000000634
 20
24.19184784444616
 30
0.0
 10
12.00000000000631
 20
23.73378617543559
 30
0.0
 10
12.00000000000623
 20
22.80674947134228
 30
0.0
 10
12.00000000000635
 20
21.25836097111059
 30
0.0
 10
12.00000000000644
 20
19.59953486975737
 30
0.0
 10
12.00000000000637
 20
17.88865971854928
 30
0.0
 10
12.00000000000629
 20
16.20170036378807
 30
0.0
 10
12.00000000000622
 20
14.61217909974913
 30
0.0
 10
12.00000000000639
 20
13.150818154194
 30
0.0
 10
12.00000000000626
 20
12.03889946136824
 30
0.0
 10
12.0000000000063
 20
11.50484926749713
 30
0.0
 10
12.00000000000632
 20
11.32419705910758
 30
0.0
  0
SPLINE
  5
A7
330
1F
100
AcDbEntity
  8
0
  6
Continuous
 62
     1
370
    15
100
AcDbSpline
210
0.0
220
0.0
230
1.0
 70
     8
 71
     3
 72
    27
 73
    23
 74
     0
 42
0.000000001
 43
0.00000001
 40
0.0
 40
0.0
 40
0.0
 40
0.0
 40
0.0460025253348315
 40
0.0969424473427738
 40
0.147885249948177
 40
0.1988316731722976
 40
0.2497799320414824
 40
0.3007244895348918
 40
0.3516657885846185
 40
0.4026045703056534
 40
0.4535415776455956
 40
0.504477554844859
 40
0.5554132468948251
 40
0.6063493989948004
 40
0.6572867560086436
 40
0.7062440085022905
 40
0.7552075014364458
 40
0.8041764887656302
 40
0.8531391221719472
 40
0.9020957779695916
 40
0.9510486655647936
 40
1.0
 40
1.0
 40
1.0
 40
1.0
 10
83.93179095189986
 20
-25.37690365740651
 30
0.0
 10
82.82879890239737
 20
-25.34474146318504
 30
0.0
 10
80.50443197036215
 20
-25.2769651444493
 30
0.0
 10
76.95853253345831
 20
-24.5258314021032
 30
0.0
 10
73.29399575552407
 20
-23.28768745717209
 30
0.0
 10
69.62911621172358
 20
-21.55289867085797
 30
0.0
 10
65.96408067363552
 20
-19.37376222282234
 30
0.0
 10
62.29937070070818
 20
-16.79112618143503
 30
0.0
 10
58.63498934286849
 20
-13.85996181975676
 30
0.0
 10
54.97088392201927
 20
-10.64085732095482
 30
0.0
 10
51.30696851077653
 20
-7.20076826768956
 30
0.0
 10
47.64316578382744
 20
-3.611121418174537
 30
0.0
 10
43.97938921851703
 20
0.053535078285887
 30
0.0
 10
40.31557993197517
 20
3.717080846783504
 30
0.0
 10
36.69910134392936
 20
7.256990594422565
 30
0.0
 10
33.13007922959284
 20
10.60540758517958
 30
0.0
 10
29.60795476563101
 20
13.70599134314994
 30
0.0
 10
26.08538580724741
 20
16.54270332937203
 30
0.0
 10
22.5633538399574
 20
19.06447702207544
 30
0.0
 10
19.04190138386712
 20
21.21128986270418
 30
0.0
 10
15.52086284432882
 20
22.98430843772396
 30
0.0
 10
13.17360853577378
 20
23.78933896589377
 30
0.0
 10
12.00000000000634
 20
24.19184784444601
 30
0.0
1001
PE_URL
1000

  0
LINE
  5
A8
330
1F
100
AcDbEntity
  8
0
  6
Continuous
 62
     1
370
    15
100
AcDbLine
 10
113.6000000000063
 20
-9.954726314670603
 30
0.0
 11
113.6000000000063
 21
9.954726314671065
 31
0.0
1001
PE_URL
1000

  0
SPLINE
  5
A9
330
1F
100
AcDbEntity
  8
0
  6
Continuous
 62
     1
370
    15
100
AcDbSpline
210
0.0
220
0.0
230
1.0
 70
     8
 71
     3
 72
    21
 73
    17
 74
     0
 42
0.000000001
 43
0.00000001
 40
0.0
 40
0.0
 40
0.0
 40
0.0
 40
0.049717666785699
 40
0.1228270783238437
 40
0.1959338557595981
 40
0.2690354377027149
 40
0.3421328860642355
 40
0.4152272657629
 40
0.4883196439524499
 40
0.5614110892453841
 40
0.6345026709343903
 40
0.7075954582126969
 40
0.7806905193945822
 40
0.853788921137284
 40
0.9268917276655411
 40
1.0
 40
1.0
 40
1.0
 40
1.0
 10
63.47167383169869
 20
25.3425255996245
 30
0.0
 10
64.30245065732922
 20
25.34171852564001
 30
0.0
 10
66.35487782916711
 20
25.33972465613814
 30
0.0
 10
69.62911960835709
 20
24.73079671858214
 30
0.0
 10
73.29399464117843
 20
23.61014103363802
 30
0.0
 10
76.95853359441382
 20
21.97890955835832
 30
0.0
 10
80.62276335547725
 20
19.89646532469897
 30
0.0
 10
84.28676193909405
 20
17.39928067289826
 30
0.0
 10
87.95061011801849
 20
14.5410536472833
 30
0.0
 10
91.61438812463788
 20
11.38068775104695
 30
0.0
 10
95.27817633675608
 20
7.983849122954644
 30
0.0
 10
98.94205543675565
 20
4.421403179607153
 30
0.0
 10
102.6061046926669
 20
0.7659834883546683
 30
0.0
 10
106.2704082786435
 20
-2.901453330019855
 30
0.0
 10
109.9350313146824
 20
-6.523577688187841
 30
0.0
 10
112.3783133258422
 20
-8.810981602516184
 30
0.0
 10
113.6000000000063
 20
-9.954726314670602
 30
0.0
1001
PE_URL
1000

  0
SPLINE
  5
AA
330
1F
100
AcDbEntity
  8
0
  6
Continuous
 62
     1
370
    15
100
AcDbSpline
210
0.0
220
0.0
230
1.0
 70
     8
 71
     3
 72
    18
 73
    14
 74
     0
 42
0.000000001
 43
0.00000001
 40
0.0
 40
0.0
 40
0.0
 40
0.0
 40
0.0918559907154012
 40
0.1837051139857394
 40
0.2755487029173755
 40
0.3673880946424097
 40
0.4592246293492247
 40
0.5510596493081721
 40
0.6428944978939517
 40
0.7347305186062241
 40
0.8265690540900363
 40
0.918411445157599
 40
1.0
 40
1.0
 40
1.0
 40
1.0
 10
113.6000000000063
 20
9.954726314671069
 30
0.0
 10
112.3783133258255
 20
11.05852741601391
 30
0.0
 10
109.9350313146325
 20
13.26604709503004
 30
0.0
 10
106.2704082788431
 20
16.24632986929191
 30
0.0
 10
102.6061046919185
 20
18.90381924459927
 30
0.0
 10
98.94205543954968
 20
21.16456045609716
 30
0.0
 10
95.27817632632875
 20
22.98658806866375
 30
0.0
 10
91.61438816355275
 20
24.33102713144272
 30
0.0
 10
87.95060997278597
 20
25.16921766223098
 30
0.0
 10
84.2867624811233
 20
25.48779150901824
 30
0.0
 10
80.62276133249964
 20
25.26469417248202
 30
0.0
 10
77.09497473557806
 20
24.58834084605379
 30
0.0
 10
74.78845010305655
 20
23.74203585975466
 30
0.0
 10
73.70337263612323
 20
23.34390160276969
 30
0.0
1001
PE_URL
1000

  0
SPLINE
  5
AB
330
1F
100
AcDbEntity
  8
0
  6
Continuous
 62
     1
370
    15
100
AcDbSpline
210
0.0
220
0.0
230
1.0
 70
     8
 71
     3
 72
    32
 73
    28
 74
     0
 42
0.000000001
 43
0.00000001
 40
0.0
 40
0.0
 40
0.0
 40
0.0
 40
0.0398766735065844
 40
0.0797546122463789
 40
0.1196356206344321
 40
0.1595214984944238
 40
0.1994125523789427
 40
0.2392991304264035
 40
0.2791806248941914
 40
0.3206751495760038
 40
0.3621686927124208
 40
0.4036618610834868
 40
0.4451552617425095
 40
0.486649501573415
 40
0.5281451868483791
 40
0.569642922786425
 40
0.6111433131137007
 40
0.652646718650981
 40
0.6941486288374243
 40
0.7356475896000744
 40
0.7771442037741019
 40
0.8186390759021153
 40
0.860132811795508
 40
0.9016260180937948
 40
0.9431193018226253
 40
0.9846132699511875
 40
0.9999999999999999
 40
0.9999999999999999
 40
0.9999999999999999
 40
0.9999999999999999
 10
12.00000000000632
 20
25.34146750268845
 30
0.0
 10
13.17360853577379
 20
25.21488614959905
 30
0.0
 10
15.52086284432888
 20
24.96171942716419
 30
0.0
 10
19.04190138386713
 20
23.97265383075249
 30
0.0
 10
22.56335383995743
 20
22.558413960013
 30
0.0
 10
26.08538580724746
 20
20.70176891990082
 30
0.0
 10
29.60795476563104
 20
18.45043920360083
 30
0.0
 10
33.13007922959289
 20
15.84418138387359
 30
0.0
 10
36.69910134392899
 20
12.89485049525743
 30
0.0
 10
40.31557993197671
 20
9.64606909245573
 30
0.0
 10
43.97938921851129
 20
6.154297316171138
 30
0.0
 10
47.64316578384913
 20
2.534679191873689
 30
0.0
 10
51.30696851069555
 20
-1.137600686322485
 30
0.0
 10
54.97088392232173
 20
-4.786285898813422
 30
0.0
 10
58.63498934173958
 20
-8.33560088604694
 30
0.0
 10
62.29937070492193
 20
-11.71182237904476
 30
0.0
 10
65.964080657908
 20
-14.84481868837157
 30
0.0
 10
69.62911627042307
 20
-17.66932110758428
 30
0.0
 10
73.29399553647046
 20
-20.12674601342549
 30
0.0
 10
76.95853335089402
 20
-22.16599906145093
 30
0.0
 10
80.62276343434078
 20
-23.74451244167616
 30
0.0
 10
84.28676186714662
 20
-24.83031134062475
 30
0.0
 10
87.95061032694139
 20
-25.39799593175078
 30
0.0
 10
91.61438736090093
 20
-25.44652691849365
 30
0.0
 10
95.2781791828105
 20
-24.9348416099448
 30
0.0
 10
98.17359837883095
 20
-24.2142971971201
 30
0.0
 10
99.8477926829269
 20
-23.5035603895378
 30
0.0
 10
100.3006769939818
 20
-23.31129982058484
 30
0.0
1001
PE_URL
1000

  0
SPLINE
  5
AC
330
1F
100
AcDbEntity
  8
0
  6
Continuous
 62
     1
370
    15
100
AcDbSpline
210
0.0
220
0.0
230
1.0
 70
     8
 71
     3
 72
    33
 73
    29
 74
     0
 42
0.000000001
 43
0.00000001
 40
0.0
 40
0.0
 40
0.0
 40
0.0
 40
0.0065931287245661
 40
0.0472984430211206
 40
0.0880013046323553
 40
0.1287023061429398
 40
0.1694020414920149
 40
0.2101011055413994
 40
0.2508000936423328
 40
0.2914996012014339
 40
0.3322002232465776
 40
0.37290255399337
 40
0.4136071864129168
 40
0.454314711801568
 40
0.495023703918663
 40
0.535729738539651
 40
0.5764331695788655
 40
0.6171345892065783
 40
0.6578345910573636
 40
0.6985337697987888
 40
0.7392327206984631
 40
0.7799320391901342
 40
0.8206323204395173
 40
0.8597504463593009
 40
0.8988735585543587
 40
0.9380010609148293
 40
0.9771234863246511
 40
1.0
 40
1.0
 40
1.0
 40
1.0
 10
110.528558620104
 20
-25.36415769641005
 30
0.0
 10
110.3306953014164
 20
-25.37556267883507
 30
0.0
 10
108.9112437335985
 20
-25.45738087682913
 30
0.0
 10
106.2704148572153
 20
-25.10020175913024
 30
0.0
 10
102.6061029300986
 20
-24.26660097584018
 30
0.0
 10
98.94205590892696
 20
-22.87970981681402
 30
0.0
 10
95.27817621054925
 20
-21.03070255052969
 30
0.0
 10
91.61438815730847
 20
-18.74128986556997
 30
0.0
 10
87.95061011354201
 20
-16.0634964428501
 30
0.0
 10
84.2867619243288
 20
-13.0517288394894
 30
0.0
 10
80.62276341901799
 20
-9.768843956484185
 30
0.0
 10
76.95853335500014
 20
-6.282921538108551
 30
0.0
 10
73.29399553536987
 20
-2.666365054368241
 30
0.0
 10
69.62911627071861
 20
1.00565090760762
 30
0.0
 10
65.96408065782647
 20
4.656701154477705
 30
0.0
 10
62.29937070495265
 20
8.21107514960598
 30
0.0
 10
58.63498934169857
 20
11.59472904559494
 30
0.0
 10
54.97088392245503
 20
14.7374182490235
 30
0.0
 10
51.30696851020326
 20
17.57389044490058
 30
0.0
 10
47.64316578568449
 20
20.04524549752534
 30
0.0
 10
43.97938921166195
 20
22.10020639019723
 30
0.0
 10
40.31557995753899
 20
23.6959569823986
 30
0.0
 10
36.69910125009433
 20
24.78555352205342
 30
0.0
 10
33.13007956468657
 20
25.36730136818027
 30
0.0
 10
29.60795351315299
 20
25.45989122535959
 30
0.0
 10
26.0853904823099
 20
25.0435357899203
 30
0.0
 10
23.0507125438543
 20
24.33594995853577
 30
0.0
 10
21.19032678837052
 20
23.5890763785794
 30
0.0
 10
20.50387729738353
 20
23.31349321671017
 30
0.0
1001
PE_URL
1000

  0
LINE
  5
AD
330
1F
100
AcDbEntity
  8
0
  6
Continuous
 62
     1
370
    15
100
AcDbLine
 10
113.6000000000063
 20
-25.21464479297016
 30
0.0
 11
113.6000000000063
 21
-15.21257520058865
 31
0.0
1001
PE_URL
1000

  0
SPLINE
  5
AE
330
1F
100
AcDbEntity
  8
0
  6
Continuous
 62
     1
370
    15
100
AcDbSpline
210
0.0
220
0.0
230
1.0
 70
     8
 71
     3
 72
    28
 73
    24
 74
     0
 42
0.000000001
 43
0.00000001
 40
0.0
 40
0.0
 40
0.0
 40
0.0
 40
0.0448522445940303
 40
0.0926060596612277
 40
0.1403594434209514
 40
0.1881130945147056
 40
0.2358677113890578
 40
0.2836239917865281
 40
0.3313826322375918
 40
0.3791443275546132
 40
0.4269094929966243
 40
0.4746729374791335
 40
0.5224329875482535
 40
0.5701903369909473
 40
0.6179456815592218
 40
0.6656997184652954
 40
0.7134531458744486
 40
0.761206662396355
 40
0.8089609665757075
 40
0.856716756382948
 40
0.9044747287059098
 40
0.9522355788431826
 40
1.0
 40
1.0
 40
1.0
 40
1.0
 10
36.87435789369856
 20
25.38493361875551
 30
0.0
 10
38.02143877115694
 20
25.34614081463514
 30
0.0
 10
40.38980720256203
 20
25.26604563176717
 30
0.0
 10
43.97939110303668
 20
24.49016419795989
 30
0.0
 10
47.64316527889135
 20
23.23335921761899
 30
0.0
 10
51.30696864600138
 20
21.48214716471069
 30
0.0
 10
54.97088388606639
 20
19.28779218187609
 30
0.0
 10
58.63498935144979
 20
16.69185171390047
 30
0.0
 10
62.29937070233863
 20
13.74928977428871
 30
0.0
 10
65.96408065853
 20
10.52089290729308
 30
0.0
 10
69.62911627051847
 20
7.07398896129182
 30
0.0
 10
73.29399553546702
 20
3.48003558650182
 30
0.0
 10
76.95853335481185
 20
-0.1861640479289159
 30
0.0
 10
80.62276341967393
 20
-3.848389786692876
 30
0.0
 10
84.28676192189342
 20
-7.43058540379959
 30
0.0
 10
87.95061012262724
 20
-10.8583806384669
 30
0.0
 10
91.61438812340293
 20
-14.06053106639754
 30
0.0
 10
95.27817633708696
 20
-16.97078674386687
 30
0.0
 10
98.94205543666698
 20
-19.52778978574423
 30
0.0
 10
102.6061046926906
 20
-21.68184878846662
 30
0.0
 10
106.2704082786372
 20
-23.37542742838582
 30
0.0
 10
109.935031314684
 20
-24.6210034790236
 30
0.0
 10
112.3783133258427
 20
-25.01675942347546
 30
0.0
 10
113.6000000000063
 20
-25.21464479297016
 30
0.0
1001
PE_URL
1000

  0
SPLINE
  5
AF
330
1F
100
AcDbEntity
  8
0
  6
Continuous
 62
     1
370
    15
100
AcDbSpline
210
0.0
220
0.0
230
1.0
 70
     8
 71
     3
 72
    26
 73
    22
 74
     0
 42
0.000000001
 43
0.00000001
 40
0.0
 40
0.0
 40
0.0
 40
0.0
 40
0.055110845754811
 40
0.1102175712480838
 40
0.1653209763037435
 40
0.2204218631610381
 40
0.2755210358928939
 40
0.330619299821356
 40
0.3857174609310455
 40
0.4408163252815563
 40
0.4959166984197396
 40
0.5510193847927998
 40
0.6061251871631408
 40
0.6612349060258867
 40
0.7163466105409518
 40
0.77145431120716
 40
0.826558487152614
 40
0.8816599400555519
 40
0.9367594735765784
 40
0.9918578927747616
 40
1.0
 40
1.0
 40
1.0
 40
1.0
 10
113.6000000000063
 20
-15.25991847829919
 30
0.0
 10
112.3783133258427
 20
-14.25282839748287
 30
0.0
 10
109.935031314684
 20
-12.23872352909729
 30
0.0
 10
106.2704082786372
 20
-8.878274208134576
 30
0.0
 10
102.6061046926906
 20
-5.356241029495648
 30
0.0
 10
98.94205543666706
 20
-1.716911591859612
 30
0.0
 10
95.27817633708699
 20
1.956394073883283
 30
0.0
 10
91.61438812340302
 20
5.589465222281996
 30
0.0
 10
87.95061012262741
 20
9.106300845755941
 30
0.0
 10
84.28676192189286
 20
12.43401615669774
 30
0.0
 10
80.62276341967612
 20
15.50345698934942
 30
0.0
 10
76.95853335480346
 20
18.25087956412113
 30
0.0
 10
73.29399553549847
 20
20.61917690475392
 30
0.0
 10
69.62911627040098
 20
22.55916110284864
 30
0.0
 10
65.96408065896837
 20
24.03016294277779
 30
0.0
 10
62.29937070070319
 20
25.00279151661057
 30
0.0
 10
58.63498935755274
 20
25.45263071101046
 30
0.0
 10
54.97088386329145
 20
25.38592553849183
 30
0.0
 10
51.30696873099456
 20
24.74612015300126
 30
0.0
 10
48.68394947335601
 20
24.04218325684256
 30
0.0
 10
47.28221920875271
 20
23.41780076104435
 30
0.0
 10
47.10174888757213
 20
23.33741260620336
 30
0.0
1001
PE_URL
1000

  0
SPLINE
  5
B0
330
1F
100
AcDbEntity
  8
0
  6
Continuous
 62
     1
370
    15
100
AcDbSpline
210
0.0
220
0.0
230
1.0
 70
     8
 71
     3
 72
    17
 73
    13
 74
     0
 42
0.000000001
 43
0.00000001
 40
0.0
 40
0.0
 40
0.0
 40
0.0
 40
0.1003110492632072
 40
0.2006252812610743
 40
0.3009472350574415
 40
0.4012814381664166
 40
0.5016286617308515
 40
0.6019646261838285
 40
0.7022878027293366
 40
0.8066686084357948
 40
0.9110469450333768
 40
1.0
 40
1.0
 40
1.0
 40
1.0
 10
12.0000000000063
 20
-14.16322114078459
 30
0.0
 10
13.17360853577159
 20
-15.11133724019045
 30
0.0
 10
15.52086284432233
 20
-17.00759952145066
 30
0.0
 10
19.04190138389308
 20
-19.45284254615515
 30
0.0
 10
22.56335383985995
 20
-21.54439143884865
 30
0.0
 10
26.08538580761126
 20
-23.21725400970992
 30
0.0
 10
29.60795476427317
 20
-24.44607498808409
 30
0.0
 10
33.13007923465916
 20
-25.20450521197713
 30
0.0
 10
36.69910132470088
 20
-25.486361301527
 30
0.0
 10
40.31558000697522
 20
-25.24646909586681
 30
0.0
 10
43.79891868370862
 20
-24.56358495955436
 30
0.0
 10
46.06096594582527
 20
-23.72380221458114
 30
0.0
 10
47.10174888757192
 20
-23.33741260620336
 30
0.0
1001
PE_URL
1000

  0
SPLINE
  5
B1
330
1F
100
AcDbEntity
  8
외형선
  6
Continuous
370
    15
100
AcDbSpline
210
0.0
220
0.0
230
1.0
 70
    24
 71
     3
 72
    36
 73
    32
 74
     0
 42
0.000000001
 43
0.00000001
 40
0.0
 40
0.0
 40
0.0
 40
0.0
 40
0.1249999999999974
 40
0.1249999999999974
 40
0.1562499999999972
 40
0.1562499999999972
 40
0.187499999999997
 40
0.187499999999997
 40
0.2499999999999972
 40
0.2499999999999972
 40
0.3749999999999974
 40
0.3749999999999974
 40
0.4374999999999977
 40
0.4374999999999977
 40
0.4999999999999978
 40
0.4999999999999978
 40
0.5624999999999981
 40
0.5624999999999981
 40
0.6249999999999984
 40
0.6249999999999984
 40
0.6874999999999987
 40
0.6874999999999987
 40
0.7499999999999989
 40
0.7499999999999989
 40
0.8124999999999992
 40
0.8124999999999992
 40
0.8749999999999994
 40
0.8749999999999994
 40
0.9374999999999998
 40
0.9374999999999998
 40
1.0
 40
1.0
 40
1.0
 40
1.0
 10
12.00000000000632
 20
5.392501408060565
 30
0.0
 10
12.00000000000631
 20
5.380379355438497
 30
0.0
 10
12.0000000000063
 20
5.23455265681203
 30
0.0
 10
12.00000000000629
 20
4.975047453590458
 30
0.0
 10
12.0000000000063
 20
4.919142432772297
 30
0.0
 10
12.0000000000063
 20
4.800991993997111
 30
0.0
 10
12.00000000000632
 20
4.737627497813855
 30
0.0
 10
12.00000000000635
 20
4.524332833766622
 30
0.0
 10
12.00000000000632
 20
4.354410132169575
 30
0.0
 10
12.00000000000632
 20
3.741423827407516
 30
0.0
 10
12.00000000000631
 20
3.193880250339825
 30
0.0
 10
12.0000000000063
 20
2.089089516336239
 30
0.0
 10
12.00000000000629
 20
1.673743284947325
 30
0.0
 10
12.0000000000063
 20
0.743616894482125
 30
0.0
 10
12.00000000000635
 20
0.2286785859768509
 30
0.0
 10
12.00000000000631
 20
-0.8956129056602473
 30
0.0
 10
12.00000000000634
 20
-1.505070312358388
 30
0.0
 10
12.00000000000634
 20
-2.798567646416925
 30
0.0
 10
12.00000000000634
 20
-3.482568026431157
 30
0.0
 10
12.00000000000634
 20
-4.88919095050628
 30
0.0
 10
12.00000000000631
 20
-5.611578709447941
 30
0.0
 10
12.00000000000634
 20
-7.046886487785249
 30
0.0
 10
12.00000000000635
 20
-7.759432661576577
 30
0.0
 10
12.00000000000634
 20
-9.124310305960353
 30
0.0
 10
12.00000000000637
 20
-9.776288460983237
 30
0.0
 10
12.00000000000634
 20
-10.97820787247879
 30
0.0
 10
12.00000000000634
 20
-11.52797313093861
 30
0.0
 10
12.00000000000629
 20
-12.50104063262452
 30
0.0
 10
12.00000000000632
 20
-12.92438711308373
 30
0.0
 10
12.00000000000632
 20
-13.63959636076382
 30
0.0
 10
12.00000000000632
 20
-13.9316470922195
 30
0.0
 10
12.00000000000632
 20
-14.16322114078437
 30
0.0
  0
SPLINE
  5
B2
330
1F
100
AcDbEntity
  8
0
  6
Continuous
 62
     1
370
    15
100
AcDbSpline
210
0.0
220
0.0
230
1.0
 70
     8
 71
     3
 72
    20
 73
    16
 74
     0
 42
0.000000001
 43
0.00000001
 40
0.0
 40
0.0
 40
0.0
 40
0.0
 40
0.0520768535180156
 40
0.1329016571070859
 40
0.213724826110177
 40
0.2945475426497813
 40
0.3753709891783187
 40
0.4561963476159334
 40
0.5338797554897347
 40
0.6115730654446504
 40
0.6892750936855876
 40
0.7669670397761472
 40
0.8446495008366253
 40
0.9223259826643567
 40
1.0
 40
1.0
 40
1.0
 40
1.0
 10
57.33160962034407
 20
-25.3394610705032
 30
0.0
 10
56.54468783714226
 20
-25.34216903155173
 30
0.0
 10
54.53644037332418
 20
-25.34907982754686
 30
0.0
 10
51.30697057006302
 20
-24.76129414379139
 30
0.0
 10
47.64316523204785
 20
-23.65995241742277
 30
0.0
 10
43.97938936638097
 20
-22.04569366491325
 30
0.0
 10
40.31557989230167
 20
-19.97920120631607
 30
0.0
 10
36.69910135410085
 20
-17.52824870644215
 30
0.0
 10
33.13007922691281
 20
-14.76279757884971
 30
0.0
 10
29.60795476634924
 20
-11.75058211110047
 30
0.0
 10
26.085385807055
 20
-8.513200392019497
 30
0.0
 10
22.56335384000892
 20
-5.111688547239329
 30
0.0
 10
19.04190138385336
 20
-1.614252203536277
 30
0.0
 10
15.52086284433224
 20
1.92146363749909
 30
0.0
 10
13.1736085357749
 20
4.235501054561692
 30
0.0
 10
12.00000000000634
 20
5.392501408060545
 30
0.0
1001
PE_URL
1000

  0
LINE
  5
B3
330
1F
100
AcDbEntity
  8
0
  6
Continuous
 62
     1
370
    15
100
AcDbLine
 10
113.6000000000063
 20
-15.25991847829919
 30
0.0
 11
113.6000000000063
 21
-9.954726314670603
 31
0.0
1001
PE_URL
1000

  0
LINE
  5
B4
330
1F
100
AcDbEntity
  8
외형선
  6
Continuous
370
    15
100
AcDbLine
 10
12.00000000000634
 20
5.392501408060565
 30
0.0
 11
12.0000000000063
 21
11.17824636190393
 31
0.0
  0
LINE
  5
B5
330
1F
100
AcDbEntity
  8
0
  6
Continuous
 62
     1
370
    15
100
AcDbLine
 10
113.6000000000063
 20
-25.40000000000001
 30
0.0
 11
113.6000000000063
 21
-25.21464479297016
 31
0.0
1001
PE_URL
1000

  0
LINE
  5
B6
330
1F
100
AcDbEntity
  8
외형선
  6
Continuous
370
    15
100
AcDbLine
 10
12.00000000000634
 20
24.19184784444616
 30
0.0
 11
12.00000000000632
 21
25.34146750268845
 31
0.0
  0
SPLINE
  5
B7
330
1F
100
AcDbEntity
  8
0
  6
Continuous
 62
     1
370
    15
100
AcDbSpline
210
0.0
220
0.0
230
1.0
 70
     8
 71
     3
 72
    10
 73
     6
 74
     0
 42
0.000000001
 43
0.00000001
 40
0.0
 40
0.0
 40
0.0
 40
0.0
 40
0.4140334549371117
 40
0.8280800465988098
 40
1.0
 40
1.0
 40
1.0
 40
1.0
 10
12.00000000000634
 20
-25.34146750268846
 30
0.0
 10
13.1736104772108
 20
-25.209830643802
 30
0.0
 10
15.52086866870147
 20
-24.94655274936859
 30
0.0
 10
18.35545812556474
 20
-24.21135832083169
 30
0.0
 10
20.01652711413864
 20
-23.51716609803734
 30
0.0
 10
20.50387729738355
 20
-23.31349321671019
 30
0.0
1001
PE_URL
1000

  0
SPLINE
  5
B8
330
1F
100
AcDbEntity
  8
0
  6
Continuous
 62
     1
370
    15
100
AcDbSpline
210
0.0
220
0.0
230
1.0
 70
     8
 71
     3
 72
    14
 73
    10
 74
     0
 42
0.000000001
 43
0.00000001
 40
0.0
 40
0.0
 40
0.0
 40
0.0
 40
0.0655601825405627
 40
0.2212861541201524
 40
0.3770146942796083
 40
0.5327480791261803
 40
0.6884885812366931
 40
0.844238468005389
 40
1.0
 40
1.0
 40
1.0
 40
1.0
 10
90.07194925241967
 20
25.33560870477908
 30
0.0
 10
90.5860950122098
 20
25.35102055889895
 30
0.0
 10
92.32149801800153
 20
25.40304039462678
 30
0.0
 10
95.278175998119
 20
24.93486383669554
 30
0.0
 10
98.94205552749455
 20
23.95449094570311
 30
0.0
 10
102.6061046683603
 20
22.44641308716995
 30
0.0
 10
106.2704082851258
 20
20.47435258076453
 30
0.0
 10
109.9350313130617
 20
18.09733115960622
 30
0.0
 10
112.3783133253019
 20
16.2057462764298
 30
0.0
 10
113.6000000000063
 20
15.2599184782993
 30
0.0
1001
PE_URL
1000

  0
LINE
  5
B9
330
1F
100
AcDbEntity
  8
0
  6
Continuous
 62
     1
370
    15
100
AcDbLine
 10
113.6000000000063
 20
9.954726314671065
 30
0.0
 11
113.6000000000063
 21
15.2599184782993
 31
0.0
1001
PE_URL
1000

  0
SPLINE
  5
BA
330
1F
100
AcDbEntity
  8
0
  6
Continuous
 62
     1
370
    15
100
AcDbSpline
210
0.0
220
0.0
230
1.0
 70
     8
 71
     3
 72
    11
 73
     7
 74
     0
 42
0.000000001
 43
0.00000001
 40
0.0
 40
0.0
 40
0.0
 40
0.0
 40
0.2755679081473942
 40
0.5511152139643841
 40
0.8266459167691238
 40
1.0
 40
1.0
 40
1.0
 40
1.0
 10
113.6000000000063
 20
25.21464479297017
 30
0.0
 10
112.3783131764305
 20
25.31241332421993
 30
0.0
 10
109.9350308664588
 20
25.50794307723412
 30
0.0
 10
106.2704100713366
 20
25.11191569040522
 30
0.0
 10
103.0589925281172
 20
24.40704331643494
 30
0.0
 10
101.0691363177222
 20
23.61657102519988
 30
0.0
 10
100.3006769939818
 20
23.31129982058483
 30
0.0
1001
PE_URL
1000

  0
SPLINE
  5
BB
330
1F
100
AcDbEntity
  8
0
  6
Continuous
 62
     1
370
    15
100
AcDbSpline
210
0.0
220
0.0
230
1.0
 70
     8
 71
     3
 72
    13
 73
     9
 74
     0
 42
0.000000001
 43
0.00000001
 40
0.0
 40
0.0
 40
0.0
 40
0.0
 40
0.0600580988495172
 40
0.2480867489008892
 40
0.4360910014794022
 40
0.6240723015373398
 40
0.8120391326414144
 40
1.0
 40
1.0
 40
1.0
 40
1.0
 10
30.73316622413101
 20
-25.34695197784502
 30
0.0
 10
30.35812565082087
 20
-25.36185255561403
 30
0.0
 10
28.80891583031743
 20
-25.42340355316932
 30
0.0
 10
26.08537214491581
 20
-25.03419597762465
 30
0.0
 10
22.56335749882206
 20
-24.18197904962636
 30
0.0
 10
19.04190040830298
 20
-22.82399201633982
 30
0.0
 10
15.52086308820304
 20
-21.06323228592806
 30
0.0
 10
13.17360861706431
 20
-19.55396707186712
 30
0.0
 10
12.00000000000634
 20
-18.7993464363855
 30
0.0
1001
PE_URL
1000

  0
LINE
  5
BC
330
1F
100
AcDbEntity
  8
0
  6
Continuous
 62
     1
370
    15
100
AcDbLine
 10
113.6000000000063
 20
25.21464479297017
 30
0.0
 11
113.6000000000063
 21
25.39999999999999
 31
0.0
1001
PE_URL
1000

  0
LINE
  5
BD
330
1F
100
AcDbEntity
  8
외형선
  6
Continuous
370
    15
100
AcDbLine
 10
12.00000000000634
 20
-18.79934643638562
 30
0.0
 11
12.0000000000063
 21
-14.16322114078458
 31
0.0
  0
LINE
  5
BE
330
1F
100
AcDbEntity
  8
0
  6
Continuous
 62
     1
370
    15
100
AcDbLine
 10
113.6000000000063
 20
15.25173229224731
 30
0.0
 11
113.6000000000063
 21
25.21464479297017
 31
0.0
1001
PE_URL
1000

  0
SPLINE
  5
BF
330
1F
100
AcDbEntity
  8
외형선
  6
Continuous
370
    15
100
AcDbSpline
210
0.0
220
0.0
230
1.0
 70
    24
 71
     3
 72
    12
 73
     8
 74
     0
 42
0.000000001
 43
0.00000001
 40
0.0
 40
0.0
 40
0.0
 40
0.0
 40
0.1190950934682417
 40
0.3765723749142366
 40
0.6340496563602346
 40
0.8915269378062328
 40
1.0
 40
1.0
 40
1.0
 40
1.0
 10
12.0000000000063
 20
-18.94530713358927
 30
0.0
 10
12.00000000000631
 20
-19.17057378788094
 30
0.0
 10
12.00000000000635
 20
-19.882855012281
 30
0.0
 10
12.00000000000635
 20
-21.22338202280318
 30
0.0
 10
12.00000000000632
 20
-22.90568289755978
 30
0.0
 10
12.00000000000625
 20
-24.29650909502537
 30
0.0
 10
12.0000000000063
 20
-25.10254624174184
 30
0.0
 10
12.00000000000634
 20
-25.34146750268846
 30
0.0
  0
LINE
  5
C0
330
1F
100
AcDbEntity
  8
외형선
  6
Continuous
370
    15
100
AcDbLine
 10
10.99968921091209
 20
25.38964615039068
 30
0.0
 11
10.99968921091209
 21
25.39999999999998
 31
0.0
  0
SPLINE
  5
C1
330
1F
100
AcDbEntity
  8
외형선
  6
Continuous
370
    15
100
AcDbSpline
210
0.0
220
0.0
230
1.0
 70
     8
 71
     3
 72
     8
 73
     4
 74
     0
 42
0.000000001
 43
0.00000001
 40
0.0
 40
0.0
 40
0.0
 40
0.0
 40
1.0
 40
1.0
 40
1.0
 40
1.0
 10
12.00000000000631
 20
25.34146750268844
 30
0.0
 10
11.66648836084819
 20
25.36407317159582
 30
0.0
 10
11.33292240335159
 20
25.3801372338408
 30
0.0
 10
10.99968921091212
 20
25.38964650911925
 30
0.0
  0
SPLINE
  5
C2
330
1F
100
AcDbEntity
  8
외형선
  6
Continuous
370
    15
100
AcDbSpline
210
0.0
220
0.0
230
1.0
 70
     8
 71
     3
 72
     8
 73
     4
 74
     0
 42
0.000000001
 43
0.00000001
 40
0.0
 40
0.0
 40
0.0
 40
0.0
 40
1.0
 40
1.0
 40
1.0
 40
1.0
 10
12.0000000000063
 20
24.19184784444602
 30
0.0
 10
11.66648836084818
 20
24.29337992503415
 30
0.0
 10
11.33292240335157
 20
24.38867148676042
 30
0.0
 10
10.9996892109121
 20
24.47761717004538
 30
0.0
  0
LINE
  5
C3
330
1F
100
AcDbEntity
  8
외형선
  6
Continuous
370
    15
100
AcDbLine
 10
10.99968921091209
 20
12.06680932656939
 30
0.0
 11
10.99968921091209
 21
24.47761765165286
 31
0.0
  0
SPLINE
  5
C4
330
1F
100
AcDbEntity
  8
외형선
  6
Continuous
370
    15
100
AcDbSpline
210
0.0
220
0.0
230
1.0
 70
     8
 71
     3
 72
     8
 73
     4
 74
     0
 42
0.000000001
 43
0.00000001
 40
0.0
 40
0.0
 40
0.0
 40
0.0
 40
1.0
 40
1.0
 40
1.0
 40
1.0
 10
12.00000000000631
 20
11.17824636190392
 30
0.0
 10
11.66648836084819
 20
11.4774213894726
 30
0.0
 10
11.33292240335159
 20
11.77372653299144
 30
0.0
 10
10.99968921091212
 20
12.06682038316819
 30
0.0
  0
SPLINE
  5
C5
330
1F
100
AcDbEntity
  8
외형선
  6
Continuous
370
    15
100
AcDbSpline
210
0.0
220
0.0
230
1.0
 70
     8
 71
     3
 72
     8
 73
     4
 74
     0
 42
0.000000001
 43
0.00000001
 40
0.0
 40
0.0
 40
0.0
 40
0.0
 40
1.0
 40
1.0
 40
1.0
 40
1.0
 10
12.0000000000063
 20
5.39250140806058
 30
0.0
 10
11.66648836084818
 20
5.718080274160645
 30
0.0
 10
11.33292240335157
 20
6.042284487548206
 30
0.0
 10
10.9996892109121
 20
6.364739019761715
 30
0.0
  0
SPLINE
  5
C6
330
1F
100
AcDbEntity
  8
외형선
  6
Continuous
370
    15
100
AcDbSpline
210
0.0
220
0.0
230
1.0
 70
     8
 71
     3
 72
     8
 73
     4
 74
     0
 42
0.000000001
 43
0.00000001
 40
0.0
 40
0.0
 40
0.0
 40
0.0
 40
1.0
 40
1.0
 40
1.0
 40
1.0
 10
12.00000000000631
 20
-14.16322114078458
 30
0.0
 10
11.66648836084819
 20
-13.88665178212329
 30
0.0
 10
11.33292240335159
 20
-13.60641070084941
 30
0.0
 10
10.99968921091212
 20
-13.32282612595112
 30
0.0
  0
SPLINE
  5
C7
330
1F
100
AcDbEntity
  8
외형선
  6
Continuous
370
    15
100
AcDbSpline
210
0.0
220
0.0
230
1.0
 70
     8
 71
     3
 72
     8
 73
     4
 74
     0
 42
0.000000001
 43
0.00000001
 40
0.0
 40
0.0
 40
0.0
 40
0.0
 40
1.0
 40
1.0
 40
1.0
 40
1.0
 10
12.0000000000063
 20
-18.79934643638547
 30
0.0
 10
11.66648836084818
 20
-18.57529965087353
 30
0.0
 10
11.33292240335157
 20
-18.34638699921224
 30
0.0
 10
10.9996892109121
 20
-18.11287815028369
 30
0.0
  0
LINE
  5
C8
330
1F
100
AcDbEntity
  8
외형선
  6
Continuous
370
    15
100
AcDbLine
 10
10.99968921091209
 20
-25.4
 30
0.0
 11
10.99968921091209
 21
-18.11287688592072
 31
0.0
  0
SPLINE
  5
C9
330
1F
100
AcDbEntity
  8
외형선
  6
Continuous
370
    15
100
AcDbSpline
210
0.0
220
0.0
230
1.0
 70
     8
 71
     3
 72
     8
 73
     4
 74
     0
 42
0.000000001
 43
0.00000001
 40
0.0
 40
0.0
 40
0.0
 40
0.0
 40
1.0
 40
1.0
 40
1.0
 40
1.0
 10
12.00000000000631
 20
-25.34146750268846
 30
0.0
 10
11.66648836084819
 20
-25.36407317159583
 30
0.0
 10
11.33292240335159
 20
-25.38013723384081
 30
0.0
 10
10.99968921091212
 20
-25.38964650911926
 30
0.0
  0
LINE
  5
CC
330
1F
100
AcDbEntity
  8
외형선
  6
Continuous
370
    15
100
AcDbLine
 10
10.99968921091209
 20
-13.32283682382135
 30
0.0
 11
10.99968921091209
 21
6.364740765732167
 31
0.0
  0
LINE
  5
CE
330
1F
100
AcDbEntity
  8
외형선
  6
Continuous
370
    15
100
AcDbLine
 10
-83.24999999999369
 20
-20.32000000000002
 30
0.0
 11
-83.24999999999369
 21
-0.0000000000000074
 31
0.0
  0
SPLINE
  5
CF
330
1F
100
AcDbEntity
  8
외형선
  6
Continuous
370
    15
100
AcDbSpline
210
0.0
220
0.0
230
1.0
 70
    24
 71
     3
 72
    36
 73
    32
 74
     0
 42
0.000000001
 43
0.00000001
 40
0.0
 40
0.0
 40
0.0
 40
0.0
 40
0.0624999999999998
 40
0.0624999999999998
 40
0.1249999999999996
 40
0.1249999999999996
 40
0.1874999999999994
 40
0.1874999999999994
 40
0.2499999999999992
 40
0.2499999999999992
 40
0.3124999999999989
 40
0.3124999999999989
 40
0.3749999999999988
 40
0.3749999999999988
 40
0.4374999999999986
 40
0.4374999999999986
 40
0.4999999999999983
 40
0.4999999999999983
 40
0.5624999999999982
 40
0.5624999999999982
 40
0.6249999999999981
 40
0.6249999999999981
 40
0.749999999999998
 40
0.749999999999998
 40
0.812499999999998
 40
0.812499999999998
 40
0.8437499999999982
 40
0.8437499999999982
 40
0.8749999999999984
 40
0.8749999999999984
 40
1.0
 40
1.0
 40
1.0
 40
1.0
 10
12.00000000000632
 20
-14.16322114078435
 30
0.0
 10
12.00000000000632
 20
-13.93164709221948
 30
0.0
 10
12.0000000000063
 20
-13.63959636076379
 30
0.0
 10
12.00000000000632
 20
-12.92438711308371
 30
0.0
 10
12.0000000000063
 20
-12.50104063262451
 30
0.0
 10
12.00000000000631
 20
-11.5279731309386
 30
0.0
 10
12.00000000000634
 20
-10.97820787247878
 30
0.0
 10
12.00000000000638
 20
-9.776288460983238
 30
0.0
 10
12.00000000000632
 20
-9.124310305960359
 30
0.0
 10
12.00000000000638
 20
-7.759432661576592
 30
0.0
 10
12.00000000000634
 20
-7.046886487785271
 30
0.0
 10
12.00000000000634
 20
-5.611578709447974
 30
0.0
 10
12.00000000000635
 20
-4.889190950506321
 30
0.0
 10
12.00000000000635
 20
-3.482568026431206
 30
0.0
 10
12.00000000000635
 20
-2.798567646416969
 30
0.0
 10
12.00000000000638
 20
-1.505070312358439
 30
0.0
 10
12.00000000000634
 20
-0.8956129056603008
 30
0.0
 10
12.00000000000631
 20
0.2286785859767925
 30
0.0
 10
12.00000000000631
 20
0.7436168944820692
 30
0.0
 10
12.00000000000631
 20
1.673743284947268
 30
0.0
 10
12.00000000000632
 20
2.089089516336183
 30
0.0
 10
12.00000000000635
 20
3.193880250339776
 30
0.0
 10
12.00000000000632
 20
3.741423827407468
 30
0.0
 10
12.00000000000634
 20
4.354410132169539
 30
0.0
 10
12.00000000000631
 20
4.524332833766587
 30
0.0
 10
12.00000000000634
 20
4.737627497813826
 30
0.0
 10
12.00000000000634
 20
4.800991993997082
 30
0.0
 10
12.00000000000631
 20
4.919142432772274
 30
0.0
 10
12.00000000000637
 20
4.975047453590436
 30
0.0
 10
12.00000000000638
 20
5.23455265681201
 30
0.0
 10
12.00000000000635
 20
5.380379355438484
 30
0.0
 10
12.00000000000631
 20
5.392501408060563
 30
0.0
  0
SPLINE
  5
D0
330
1F
100
AcDbEntity
  8
외형선
  6
Continuous
370
    15
100
AcDbSpline
210
0.0
220
0.0
230
1.0
 70
    24
 71
     3
 72
    16
 73
    12
 74
     0
 42
0.000000001
 43
0.00000001
 40
0.0
 40
0.0
 40
0.0
 40
0.0
 40
0.1044777327040043
 40
0.2246562577308702
 40
0.3448347827577329
 40
0.4650133077845958
 40
0.5851918328114624
 40
0.7053703578383291
 40
0.8255488828651926
 40
0.9457274078920566
 40
0.9999999999999999
 40
0.9999999999999999
 40
0.9999999999999999
 40
0.9999999999999999
 10
12.00000000000623
 20
11.32419705910758
 30
0.0
 10
12.00000000000622
 20
11.64756752816295
 30
0.0
 10
12.00000000000627
 20
12.34290420477779
 30
0.0
 10
12.0000000000063
 20
13.65567368785074
 30
0.0
 10
12.00000000000627
 20
15.16762695227384
 30
0.0
 10
12.00000000000631
 20
16.79822229039991
 30
0.0
 10
12.0000000000063
 20
18.49736053615582
 30
0.0
 10
12.00000000000642
 20
20.21758786657487
 30
0.0
 10
12.00000000000634
 20
21.90702860724749
 30
0.0
 10
12.00000000000627
 20
23.23234001101229
 30
0.0
 10
12.00000000000634
 20
23.96417150323621
 30
0.0
 10
12.00000000000637
 20
24.19184784444601
 30
0.0
  0
SPLINE
  5
D1
330
1F
100
AcDbEntity
  8
외형선
  6
Continuous
370
    15
100
AcDbSpline
210
0.0
220
0.0
230
1.0
 70
    24
 71
     3
 72
    12
 73
     8
 74
     0
 42
0.000000001
 43
0.00000001
 40
0.0
 40
0.0
 40
0.0
 40
0.0
 40
0.2303975469404308
 40
0.4607950938808609
 40
0.7188000507187781
 40
0.9768050075566949
 40
1.0
 40
1.0
 40
1.0
 40
1.0
 10
12.00000000000631
 20
-25.34146750268846
 30
0.0
 10
12.0000000000063
 20
-24.83323067419765
 30
0.0
 10
12.0000000000063
 20
-23.81675701721605
 30
0.0
 10
12.00000000000619
 20
-22.22303102074795
 30
0.0
 10
12.00000000000635
 20
-20.63073994089586
 30
0.0
 10
12.00000000000622
 20
-19.50244569855075
 30
0.0
 10
12.00000000000634
 20
-18.9877520334009
 30
0.0
 10
12.00000000000632
 20
-18.94529713358927
 30
0.0
  0
LINE
  5
D2
330
1F
100
AcDbEntity
  8
중심선
 62
     1
100
AcDbLine
 10
-90.24999999999369
 20
-0.0000000000000116
 30
0.0
 11
120.6000000000063
 21
0.0000000000000118
 31
0.0
  0
LINE
  5
D3
330
1F
100
AcDbEntity
  8
참조1
100
AcDbLine
 10
15.17500000000633
 20
-0.0000000000000131
 30
0.0
 11
15.17500000000633
 21
-40.00000000000001
 31
0.0
  0
LINE
  5
D4
330
1F
100
AcDbEntity
  8
참조1
100
AcDbLine
 10
15.17500000000633
 20
-40.00000000000001
 30
0.0
 11
-50.78385681430235
 21
-40.00000000000001
 31
0.0
  0
CIRCLE
  5
D5
330
1F
100
AcDbEntity
  8
해칭선
100
AcDbCircle
 10
0.0
 20
0.0
 30
0.0
 40
2.999999999999997
  0
INSERT
  5
D6
330
1F
100
AcDbEntity
  8
0
  6
Continuous
 62
     7
100
AcDbBlockReference
 66
     1
  2
블럭10
 10
1.234727067881117
 20
-52.04717430164394
 30
0.0
  0
ATTRIB
  5
D7
330
D6
100
AcDbEntity
  8
FORMAT
 62
     2
100
AcDbText
 10
-7.946568220860165
 20
-49.97180738881175
 30
0.0
 40
4.233333333333333
  1
E2035164 [ 6 FLUTE ]
 41
0.75
  7
SLDTEXTSTYLE0
 11
-7.946568220860165
 21
-52.08847405547842
 31
0.0
100
AcDbAttribute
  2
AUTOATTR0
 70
     0
 74
     1
  0
SEQEND
  5
D8
330
D6
100
AcDbEntity
  8
0
  6
Continuous
 62
     7
  0
HATCH
  5
D9
330
1F
100
AcDbEntity
  8
중심선
100
AcDbHatch
 10
0.0
 20
0.0
 30
0.0
210
0.0
220
0.0
230
1.0
  2
SOLID
 70
     1
 71
     0
 91
        1
 92
        0
 93
        4
 72
     1
 10
6.949636372261935
 20
-35.8
 11
3.503361128424679
 21
-35.8
 72
     1
 10
3.503361128424679
 20
-35.8
 11
1.37513126922066
 21
-38.33632558057261
 72
     1
 10
1.37513126922066
 20
-38.33632558057261
 11
4.821439598171089
 21
-38.33628615127012
 72
     1
 10
4.821439598171089
 20
-38.33628615127012
 11
6.949636372261935
 21
-35.8
 97
        0
 75
     0
 76
     1
 98
        1
 10
-41.27499999999372
 20
-0.0010749287239022
  0
HATCH
  5
DA
330
1F
100
AcDbEntity
  8
중심선
100
AcDbHatch
 10
0.0
 20
0.0
 30
0.0
210
0.0
220
0.0
230
1.0
  2
SOLID
 70
     1
 71
     0
 91
        1
 92
        0
 93
        4
 72
     1
 10
11.96240036329794
 20
-35.79999999999998
 11
8.51612511946066
 21
-35.79999999999998
 72
     1
 10
8.51612511946066
 20
-35.79999999999998
 11
3.984987111103244
 21
-41.20000000000002
 72
     1
 10
3.984987111103244
 20
-41.20000000000002
 11
7.431262354940522
 21
-41.20000000000002
 72
     1
 10
7.431262354940522
 20
-41.20000000000002
 11
11.96240036329794
 21
-35.79999999999998
 97
        0
 75
     0
 76
     1
 98
        1
 10
-41.27499999999372
 20
-0.0010749287239022
  0
HATCH
  5
DB
330
1F
100
AcDbEntity
  8
중심선
100
AcDbHatch
 10
0.0
 20
0.0
 30
0.0
210
0.0
220
0.0
230
1.0
  2
SOLID
 70
     1
 71
     0
 91
        1
 92
        0
 93
        4
 72
     1
 10
16.97516435433383
 20
-35.79999999999998
 11
13.52888911049672
 21
-35.8
 72
     1
 10
13.52888911049672
 20
-35.8
 11
6.480452208607446
 21
-44.20000000000002
 72
     1
 10
6.480452208607446
 20
-44.20000000000002
 11
9.926727452444723
 21
-44.20000000000002
 72
     1
 10
9.926727452444723
 20
-44.20000000000002
 11
16.97516435433383
 21
-35.79999999999998
 97
        0
 75
     0
 76
     1
 98
        1
 10
-41.27499999999372
 20
-0.0010749287239022
  0
HATCH
  5
DC
330
1F
100
AcDbEntity
  8
중심선
100
AcDbHatch
 10
0.0
 20
0.0
 30
0.0
210
0.0
220
0.0
230
1.0
  2
SOLID
 70
     1
 71
     0
 91
        1
 92
        0
 93
        6
 72
     3
 10
21.77505478534598
 20
-40.00000000005128
 11
3.96005478506229
 21
1.540882976769353E-10
 40
0.3939339440162621
 50
17.09539180608417
 51
320.0019657685079
 73
     0
 72
     1
 10
23.4580544410466
 20
-38.58789400463828
 11
25.76335631474764
 21
-36.65356729459039
 72
     3
 10
21.77505478529314
 20
-40.00000000000016
 11
6.600054785286829
 21
-1.278976924368180E-13
 40
0.636358354079598
 50
39.99873849337402
 51
368.4976242363724
 73
     1
 72
     1
 10
28.20038727719377
 20
-39.03999999993003
 11
20.45512209212908
 21
-39.03999999993
 72
     1
 10
20.45512209212908
 20
-39.03999999993
 11
20.45509704768313
 21
-40.95999999992992
 72
     1
 10
20.45509704768313
 20
-40.95999999992992
 11
24.89647681715519
 21
-40.95999999992989
 97
        0
 75
     0
 76
     1
 98
        1
 10
-41.27499999999372
 20
-0.0010749287239022
  0
DIMENSION
  5
DD
330
1F
100
AcDbEntity
  8
치수문자_일반주서
100
AcDbDimension
  2
_D
 10
-98.24999999999353
 20
-25.40000000000008
 30
0.0
 11
-98.24999999999376
 21
41.57699999999992
 31
0.0
 70
   160
  1
%%c<>
 71
     2
 42
50.79999999999995
 52
-270.0
  3
SLDDIMSTYLE0
100
AcDbAlignedDimension
 13
-68.6449999999937
 23
25.39999999999997
 33
0.0
 14
-78.16999999999368
 24
-25.40000000000002
 34
0.0
 50
90.0000000000002
100
AcDbRotatedDimension
1001
ACAD
1000
DSTYLE
1002
{
1070
   171
1070
     8
1070
   273
1070
     7
1070
   140
1040
4.0
1002
}
1001
ACAD_DSTYLE_DIMFLIPARROW_SYMBOL
1070
   385
1070
     0
1001
ACAD_DSTYLE_DIMFLIPARROW_WHICH_SYMBOL
1070
   386
1070
     3
  0
DIMENSION
  5
F0
330
1F
100
AcDbEntity
  8
치수문자_일반주서
100
AcDbDimension
  2
_D_1
 10
12.00000000000631
 20
40.39999999999998
 30
0.0
 11
62.80000000000634
 21
40.39999999999998
 31
0.0
 70
   160
  1
<>
 71
     2
 42
101.6
  3
SLDDIMSTYLE0
100
AcDbAlignedDimension
 13
113.6000000000063
 23
25.39999999999999
 33
0.0
 14
12.00000000000631
 24
25.34146750268844
 34
0.0
 50
0.000000000000008
100
AcDbRotatedDimension
1001
PE_URL
1000

1001
ACAD
1000
DSTYLE
1002
{
1070
   171
1070
     8
1070
   273
1070
     7
1070
   140
1040
4.0
1002
}
  0
DIMENSION
  5
103
330
1F
100
AcDbEntity
  8
치수문자_일반주서
100
AcDbDimension
  2
_D_2
 10
-83.24999999999369
 20
55.39999999999998
 30
0.0
 11
15.17500000000632
 21
55.39999999999998
 31
0.0
 70
   160
  1
<>
 71
     2
 42
196.85
  3
SLDDIMSTYLE0
100
AcDbAlignedDimension
 13
113.6000000000063
 23
25.39999999999999
 33
0.0
 14
-83.24999999999369
 24
23.49499999999998
 34
0.0
 50
0.0000000000000041
100
AcDbRotatedDimension
1001
PE_URL
1000

1001
ACAD
1000
DSTYLE
1002
{
1070
   171
1070
     8
1070
   273
1070
     7
1070
   140
1040
4.0
1002
}
  0
DIMENSION
  5
117
330
1F
100
AcDbEntity
  8
치수문자_일반주서
100
AcDbDimension
  2
_D_3
 10
128.6000000000064
 20
-25.39999999999995
 30
0.0
 11
128.6000000000061
 21
41.57700000000004
 31
0.0
 70
   160
  1
%%c<>
 71
     2
 42
50.8
 52
-270.0
  3
SLDDIMSTYLE0
100
AcDbAlignedDimension
 13
113.6000000000063
 23
25.39999999999999
 33
0.0
 14
113.6000000000063
 24
-25.40000000000001
 34
0.0
 50
90.0000000000002
100
AcDbRotatedDimension
1001
PE_URL
1000

1001
ACAD
1000
DSTYLE
1002
{
1070
   171
1070
     8
1070
   273
1070
     7
1070
   140
1040
4.0
1002
}
1001
ACAD_DSTYLE_DIMFLIPARROW_SYMBOL
1070
   385
1070
     0
1001
ACAD_DSTYLE_DIMFLIPARROW_WHICH_SYMBOL
1070
   386
1070
     3
  0
LINE
  5
12A
330
1F
100
AcDbEntity
  8
참조1
100
AcDbLine
 10
47.18848381535192
 20
7.439999999999993
 30
0.0
 11
47.18848381535192
 21
-7.440000000000011
 31
0.0
  0
LINE
  5
12B
330
1F
100
AcDbEntity
  8
참조1
100
AcDbLine
 10
59.88848381535192
 20
5.439999999999993
 30
0.0
 11
47.18848381535192
 21
5.439999999999993
 31
0.0
  0
SOLID
  5
12C
330
1F
100
AcDbEntity
  8
참조1
100
AcDbTrace
 10
47.18848381535192
 20
5.439999999999993
 30
0.0
 11
53.53848381535191
 21
4.423999999999993
 31
0.0
 12
53.53848381535191
 22
6.455999999999993
 32
0.0
 13
53.53848381535191
 23
6.455999999999993
 33
0.0
  0
LINE
  5
12D
330
1F
100
AcDbEntity
  8
참조1
100
AcDbLine
 10
59.88848381535192
 20
-5.440000000000011
 30
0.0
 11
47.18848381535192
 21
-5.440000000000011
 31
0.0
  0
SOLID
  5
12E
330
1F
100
AcDbEntity
  8
참조1
100
AcDbTrace
 10
47.18848381535192
 20
-5.440000000000011
 30
0.0
 11
53.53848381535191
 21
-6.456000000000011
 31
0.0
 12
53.53848381535191
 22
-4.424000000000011
 32
0.0
 13
53.53848381535191
 23
-4.424000000000011
 33
0.0
  0
MTEXT
  5
12F
330
1F
100
AcDbEntity
  8
참조1
100
AcDbMText
 10
56.58597390782218
 20
10.98821664464993
 30
0.0
 40
3.5
 41
0.0
 71
     1
 72
     1
  1
A
  7
SLDTEXTSTYLE0
 73
     1
 44
1.0
  0
MTEXT
  5
130
330
1F
100
AcDbEntity
  8
참조1
100
AcDbMText
 10
56.58597390782218
 20
0.1082166446499228
 30
0.0
 40
3.5
 41
0.0
 71
     1
 72
     1
  1
A
  7
SLDTEXTSTYLE0
 73
     1
 44
1.0
  0
INSERT
  5
137
330
1F
100
AcDbEntity
  8
해칭선
100
AcDbBlockReference
  2
SW_DOWELSYMBOL_0
 10
0.0
 20
0.0
 30
0.0
  0
LINE
  5
3DD
330
1F
100
AcDbEntity
  8
외형선
  6
Continuous
370
    15
100
AcDbLine
 10
10.99968921091209
 20
25.40000000000003
 30
0.0
 11
-28.18279999999368
 21
25.40000000000003
 31
0.0
  0
LINE
  5
3DE
330
1F
100
AcDbEntity
  8
외형선
  6
Continuous
370
    15
100
AcDbLine
 10
-82.24999999999369
 20
-25.39999999999998
 30
0.0
 11
-73.72499999999371
 21
-25.39999999999998
 31
0.0
  0
LINE
  5
3DF
330
1F
100
AcDbEntity
  8
외형선
  6
Continuous
370
    15
100
AcDbLine
 10
-83.24999999999369
 20
-24.39999999999998
 30
0.0
 11
-82.24999999999369
 21
-25.39999999999998
 31
0.0
  0
LINE
  5
3E3
330
1F
100
AcDbEntity
  8
외형선
  6
Continuous
370
    15
100
AcDbLine
 10
-82.24999999999369
 20
19.86280000000002
 30
0.0
 11
-82.24999999999369
 21
-25.39999999999998
 31
0.0
  0
LINE
  5
3E5
330
1F
100
AcDbEntity
  8
외형선
  6
Continuous
370
    15
100
AcDbLine
 10
-83.24999999999369
 20
19.86280000000002
 30
0.0
 11
-83.24999999999369
 21
-24.39999999999998
 31
0.0
  0
CIRCLE
  5
3E7
330
1F
100
AcDbEntity
  8
해칭선
100
AcDbCircle
 10
0.0000000000062954
 20
0.0000000000000284
 30
0.0
 40
2.999999999999995
  0
INSERT
  5
3E9
330
1F
100
AcDbEntity
  8
해칭선
100
AcDbBlockReference
  2
SW_DOWELSYMBOL_0
 10
0.0000000000062954
 20
0.0000000000000284
 30
0.0
  0
LINE
  5
3EA
330
1F
100
AcDbEntity
  8
외형선
  6
Continuous
370
    15
100
AcDbLine
 10
-47.68999999999369
 20
-14.82489881786719
 30
0.0
 11
-47.68999999999369
 21
14.82489881786719
 31
0.0
  0
LINE
  5
3EB
330
1F
100
AcDbEntity
  8
외형선
  6
Continuous
370
    15
100
AcDbLine
 10
-47.68999999999369
 20
14.82489881786719
 30
0.0
 11
-29.90999999999372
 21
14.82489881786719
 31
0.0
  0
LINE
  5
3EC
330
1F
100
AcDbEntity
  8
외형선
  6
Continuous
370
    15
100
AcDbLine
 10
-47.68999999999369
 20
-14.82489881786719
 30
0.0
 11
-29.90999999999372
 21
-14.82489881786717
 31
0.0
  0
LINE
  5
3ED
330
1F
100
AcDbEntity
  8
외형선
  6
Continuous
370
    15
100
AcDbLine
 10
-29.90999999999372
 20
14.82489881786719
 30
0.0
 11
-29.90999999999372
 21
-14.82489881786717
 31
0.0
  0
SPLINE
  5
3EE
330
1F
100
AcDbEntity
  8
외형선
  6
Continuous
370
    15
100
AcDbSpline
210
0.0
220
0.0
230
1.0
 70
  1064
 71
     3
 72
     9
 73
     5
 74
     3
 42
0.000000001
 43
0.0000000001
 44
0.0
 40
0.0
 40
0.0
 40
0.0
 40
0.0
 40
15.44052883416384
 40
30.88105766832773
 40
30.88105766832773
 40
30.88105766832773
 40
30.88105766832773
 10
-47.68999999999369
 20
14.82489881786719
 30
0.0
 10
-49.84825773012264
 20
9.883265878578134
 30
0.0
 10
-54.16477319038059
 20
0.0000000000000124
 30
0.0
 10
-49.84825773012265
 20
-9.883265878578115
 30
0.0
 10
-47.68999999999369
 20
-14.82489881786719
 30
0.0
 11
-47.68999999999369
 21
14.82489881786719
 31
0.0
 11
-52.00651546025162
 21
0.0000000000000284
 31
0.0
 11
-47.68999999999369
 21
-14.82489881786719
 31
0.0
  0
SPLINE
  5
3EF
330
1F
100
AcDbEntity
  8
외형선
  6
Continuous
370
    15
100
AcDbSpline
210
0.0
220
0.0
230
1.0
 70
  1064
 71
     3
 72
     9
 73
     5
 74
     3
 42
0.000000001
 43
0.0000000001
 44
0.0
 40
0.0
 40
0.0
 40
0.0
 40
0.0
 40
15.44052883416384
 40
30.88105766832773
 40
30.88105766832773
 40
30.88105766832773
 40
30.88105766832773
 10
-29.90999999999372
 20
14.82489881786719
 30
0.0
 10
-27.75174226986475
 20
9.883265878578138
 30
0.0
 10
-23.43522680960682
 20
0.0000000000000107
 30
0.0
 10
-27.75174226986474
 20
-9.883265878578115
 30
0.0
 10
-29.90999999999372
 20
-14.82489881786719
 30
0.0
 11
-29.90999999999372
 21
14.82489881786719
 31
0.0
 11
-25.59348453973578
 21
0.0000000000000284
 31
0.0
 11
-29.90999999999372
 21
-14.82489881786719
 31
0.0
  0
LINE
  5
3F0
330
1F
100
AcDbEntity
  8
외형선
  6
Continuous
370
    15
100
AcDbLine
 10
-61.02499999999372
 20
25.40000000000001
 30
0.0
 11
-61.02499999999372
 21
-25.39999999999998
 31
0.0
  0
LINE
  5
3F1
330
1F
100
AcDbEntity
  8
외형선
  6
Continuous
370
    15
100
AcDbLine
 10
-73.72499999999371
 20
19.86280000000002
 30
0.0
 11
-73.72499999999371
 21
-25.39999999999998
 31
0.0
  0
LINE
  5
3F2
330
1F
100
AcDbEntity
  8
외형선
  6
Continuous
370
    15
100
AcDbLine
 10
-61.02499999999372
 20
-25.39999999999998
 30
0.0
 11
10.99968921091205
 21
-25.39999999999998
 31
0.0
  0
LINE
  5
3F3
330
1F
100
AcDbEntity
  8
외형선
  6
Continuous
370
    15
100
AcDbLine
 10
-61.02499999999372
 20
25.01900000000001
 30
0.0
 11
-61.02499999999372
 21
-25.01900000000001
 31
0.0
  0
LINE
  5
3F4
330
1F
100
AcDbEntity
  8
외형선
  6
Continuous
370
    15
100
AcDbLine
 10
-61.02499999999372
 20
25.01900000000001
 30
0.0
 11
-61.59680376681112
 21
25.01900000000001
 31
0.0
  0
LINE
  5
3F5
330
1F
100
AcDbEntity
  8
외형선
  6
Continuous
370
    15
100
AcDbLine
 10
-61.02499999999372
 20
-25.01899999999998
 30
0.0
 11
-73.72499999999371
 21
-25.01899999999998
 31
0.0
  0
LINE
  5
3F6
330
1F
100
AcDbEntity
  8
외형선
  6
Continuous
370
    15
100
AcDbLine
 10
-48.45199999999369
 20
22.91079999999999
 30
0.0
 11
-30.67199999999369
 21
22.91079999999999
 31
0.0
  0
LINE
  5
3F7
330
1F
100
AcDbEntity
  8
외형선
  6
Continuous
370
    15
100
AcDbLine
 10
-48.45199999999369
 20
22.91079999999999
 30
0.0
 11
-50.9411999999937
 21
25.40000000000001
 31
0.0
  0
LINE
  5
3F8
330
1F
100
AcDbEntity
  8
외형선
  6
Continuous
370
    15
100
AcDbLine
 10
-30.67199999999369
 20
22.91079999999999
 30
0.0
 11
-28.18279999999368
 21
25.40000000000001
 31
0.0
  0
LINE
  5
3F9
330
1F
100
AcDbEntity
  8
외형선
  6
Continuous
370
    15
100
AcDbLine
 10
-50.94119999999367
 20
25.40000000000001
 30
0.0
 11
-61.02499999999372
 21
25.40000000000001
 31
0.0
  0
LINE
  5
3FA
330
1F
100
AcDbEntity
  8
외형선
  6
Continuous
370
    15
100
AcDbLine
 10
-62.0917999999937
 20
23.07205154696246
 30
0.0
 11
-62.0917999999937
 21
-6.942039972351381
 31
0.0
  0
LINE
  5
3FB
330
1F
100
AcDbEntity
  8
외형선
  6
Continuous
370
    15
100
AcDbLine
 10
-82.24999999999369
 20
19.86280000000002
 30
0.0
 11
-82.24999999999369
 21
-25.39999999999998
 31
0.0
  0
LINE
  5
3FC
330
1F
100
AcDbEntity
  8
외형선
  6
Continuous
370
    15
100
AcDbLine
 10
-67.92357134821077
 20
19.86280000000002
 30
0.0
 11
-83.24999999999369
 21
19.86280000000002
 31
0.0
  0
ARC
  5
3FD
330
1F
100
AcDbEntity
  8
외형선
  6
Continuous
370
    15
100
AcDbCircle
 10
-67.17179999999371
 20
25.40000000000001
 30
0.0
 40
5.588
100
AcDbArc
 50
262.2683738127861
 51
356.0904364753407
  0
LINE
  5
3FE
330
1F
100
AcDbEntity
  8
외형선
  6
Continuous
370
    15
100
AcDbLine
 10
-71.87515845851829
 20
19.86280000000002
 30
0.0
 11
-71.87515845851829
 21
-6.942039972351381
 31
0.0
  0
ARC
  5
3FF
330
1F
100
AcDbEntity
  8
외형선
  6
Continuous
370
    15
100
AcDbCircle
 10
-66.98347922925598
 20
-6.942039972351381
 30
0.0
 40
4.891679229262294
100
AcDbArc
 50
180.0
 51
0.0
  0
ENDSEC
  0
SECTION
  2
OBJECTS
  0
DICTIONARY
  5
C
330
0
100
AcDbDictionary
281
     1
  3
ACAD_DETAILVIEWSTYLE
350
15F
  3
ACAD_GROUP
350
D
  3
ACAD_IMAGE_VARS
350
220
  3
ACAD_LAYOUT
350
1A
  3
ACAD_MLINESTYLE
350
17
  3
ACAD_PLOTSETTINGS
350
19
  3
ACAD_PLOTSTYLENAME
350
E
  3
ACAD_SCALELIST
350
47
  3
ACAD_SECTIONVIEWSTYLE
350
160
  3
AcDbVariableDictionary
350
15A
  3
APPDATA
350
159
  3
DWGPROPS
350
430
  0
DICTIONARY
  5
195
330
2
100
AcDbDictionary
280
     1
281
     1
  3
ACAD_LAYERSTATES
360
196
  0
DICTIONARY
  5
15F
102
{ACAD_REACTORS
330
C
102
}
330
C
100
AcDbDictionary
281
     1
  0
DICTIONARY
  5
D
102
{ACAD_REACTORS
330
C
102
}
330
C
100
AcDbDictionary
281
     1
  0
RASTERVARIABLES
  5
220
102
{ACAD_REACTORS
330
C
102
}
330
C
100
AcDbRasterVariables
 90
        0
 70
     1
 71
     1
 72
     1
  0
DICTIONARY
  5
1A
102
{ACAD_REACTORS
330
C
102
}
330
C
100
AcDbDictionary
281
     1
  3
Layout1
350
1E
  3
Layout2
350
26
  3
Model
350
22
  0
DICTIONARY
  5
17
102
{ACAD_REACTORS
330
C
102
}
330
C
100
AcDbDictionary
281
     1
  3
Standard
350
18
  0
DICTIONARY
  5
19
102
{ACAD_REACTORS
330
C
102
}
330
C
100
AcDbDictionary
281
     1
  0
ACDBDICTIONARYWDFLT
  5
E
102
{ACAD_REACTORS
330
C
102
}
330
C
100
AcDbDictionary
281
     1
  3
Normal
350
F
100
AcDbDictionaryWithDefault
340
F
  0
DICTIONARY
  5
47
102
{ACAD_REACTORS
330
C
102
}
330
C
100
AcDbDictionary
281
     1
  3
A0
350
48
  3
A1
350
49
  3
A2
350
4A
  3
A3
350
4B
  3
A4
350
4C
  3
A5
350
4D
  3
A6
350
4E
  3
A7
350
4F
  3
A8
350
50
  3
A9
350
51
  3
B0
350
52
  3
B1
350
53
  3
B2
350
54
  3
B3
350
55
  3
B4
350
56
  3
B5
350
57
  3
B6
350
58
  3
B7
350
59
  3
B8
350
5A
  3
B9
350
5B
  3
C0
350
5C
  3
C1
350
5D
  3
C2
350
5E
  3
C3
350
5F
  3
C4
350
60
  3
C5
350
61
  3
C6
350
62
  3
C7
350
63
  3
C8
350
64
  3
C9
350
65
  3
D0
350
66
  3
D1
350
67
  3
D2
350
68
  0
DICTIONARY
  5
160
102
{ACAD_REACTORS
330
C
102
}
330
C
100
AcDbDictionary
281
     1
  0
DICTIONARY
  5
15A
102
{ACAD_REACTORS
330
C
102
}
330
C
100
AcDbDictionary
281
     1
  0
DICTIONARY
  5
159
102
{ACAD_REACTORS
330
C
102
}
330
C
100
AcDbDictionary
281
     1
  0
XRECORD
  5
430
102
{ACAD_REACTORS
330
C
102
}
330
C
100
AcDbXrecord
280
     1
  1
DWGPROPS COOKIE
  2

  3

  4

  6

  7

  8
12016016
  9

300
=
301
=
302
=
303
=
304
=
305
=
306
=
307
=
308
=
309
=
 40
0.0
 41
2458323.061449873
 42
2458330.224218218
  1

 90
        0
  0
DICTIONARY
  5
196
102
{ACAD_REACTORS
330
195
102
}
330
195
100
AcDbDictionary
281
     1
  0
LAYOUT
  5
1E
102
{ACAD_REACTORS
330
1A
102
}
330
1A
100
AcDbPlotSettings
  1

  2
none_device
  4

  6

 40
0.0
 41
0.0
 42
0.0
 43
0.0
 44
0.0
 45
0.0
 46
0.0
 47
0.0
 48
0.0
 49
0.0
140
0.0
141
0.0
142
1.0
143
1.0
 70
   688
 72
     1
 73
     0
 74
     5
  7

 75
    16
147
1.0
148
0.0
149
0.0
100
AcDbLayout
  1
Layout1
 70
     1
 71
     1
 10
0.0
 20
0.0
 11
420.0
 21
297.0
 12
0.0
 22
0.0
 32
0.0
 14
1.000000000000000E+20
 24
1.000000000000000E+20
 34
1.000000000000000E+20
 15
-1.000000000000000E+20
 25
-1.000000000000000E+20
 35
-1.000000000000000E+20
146
0.0
 13
0.0
 23
0.0
 33
0.0
 16
1.0
 26
0.0
 36
0.0
 17
0.0
 27
1.0
 37
0.0
 76
     0
330
1B
  0
LAYOUT
  5
26
102
{ACAD_REACTORS
330
1A
102
}
330
1A
100
AcDbPlotSettings
  1

  2
none_device
  4

  6

 40
0.0
 41
0.0
 42
0.0
 43
0.0
 44
0.0
 45
0.0
 46
0.0
 47
0.0
 48
0.0
 49
0.0
140
0.0
141
0.0
142
1.0
143
1.0
 70
   688
 72
     1
 73
     0
 74
     5
  7

 75
    16
147
1.0
148
0.0
149
0.0
100
AcDbLayout
  1
Layout2
 70
     1
 71
     2
 10
0.0
 20
0.0
 11
0.0
 21
0.0
 12
0.0
 22
0.0
 32
0.0
 14
0.0
 24
0.0
 34
0.0
 15
0.0
 25
0.0
 35
0.0
146
0.0
 13
0.0
 23
0.0
 33
0.0
 16
1.0
 26
0.0
 36
0.0
 17
0.0
 27
1.0
 37
0.0
 76
     0
330
23
  0
LAYOUT
  5
22
102
{ACAD_REACTORS
330
1A
102
}
330
1A
100
AcDbPlotSettings
  1

  2
none_device
  4
ANSI_A_(11.00_x_8.50_Inches)
  6

 40
6.35
 41
19.05
 42
6.35000508
 43
19.05000254
 44
279.4
 45
215.9
 46
73.29235002616569
 47
70.47805969150156
 48
0.0
 49
0.0
140
0.0
141
0.0
142
0.0494661872267216
143
1.0
 70
  1696
 72
     0
 73
     0
 74
     0
  7

 75
     0
147
0.0235690232323232
148
0.0
149
0.0
100
AcDbLayout
  1
Model
 70
     1
 71
     0
 10
0.0
 20
0.0
 11
420.0
 21
297.0
 12
0.0
 22
0.0
 32
0.0
 14
-103.1249999999939
 24
-49.97180738881175
 34
0.0
 15
129.1503333333397
 25
60.27499999999998
 35
0.0
146
0.0
 13
0.0
 23
0.0
 33
0.0
 16
1.0
 26
0.0
 36
0.0
 17
0.0
 27
1.0
 37
0.0
 76
     0
330
1F
331
29
  0
MLINESTYLE
  5
18
102
{ACAD_REACTORS
330
17
102
}
330
17
100
AcDbMlineStyle
  2
Standard
 70
     0
  3

 62
   256
 51
90.0
 52
90.0
 71
     2
 49
0.5
 62
   256
  6
BYLAYER
 49
-0.5
 62
   256
  6
BYLAYER
  0
ACDBPLACEHOLDER
  5
F
102
{ACAD_REACTORS
330
E
102
}
330
E
  0
SCALE
  5
48
102
{ACAD_REACTORS
330
47
102
}
330
47
100
AcDbScale
 70
     0
300
1:1
140
1.0
141
1.0
290
     1
  0
SCALE
  5
49
102
{ACAD_REACTORS
330
47
102
}
330
47
100
AcDbScale
 70
     0
300
1:2
140
1.0
141
2.0
290
     0
  0
SCALE
  5
4A
102
{ACAD_REACTORS
330
47
102
}
330
47
100
AcDbScale
 70
     0
300
1:4
140
1.0
141
4.0
290
     0
  0
SCALE
  5
4B
102
{ACAD_REACTORS
330
47
102
}
330
47
100
AcDbScale
 70
     0
300
1:5
140
1.0
141
5.0
290
     0
  0
SCALE
  5
4C
102
{ACAD_REACTORS
330
47
102
}
330
47
100
AcDbScale
 70
     0
300
1:8
140
1.0
141
8.0
290
     0
  0
SCALE
  5
4D
102
{ACAD_REACTORS
330
47
102
}
330
47
100
AcDbScale
 70
     0
300
1:10
140
1.0
141
10.0
290
     0
  0
SCALE
  5
4E
102
{ACAD_REACTORS
330
47
102
}
330
47
100
AcDbScale
 70
     0
300
1:16
140
1.0
141
16.0
290
     0
  0
SCALE
  5
4F
102
{ACAD_REACTORS
330
47
102
}
330
47
100
AcDbScale
 70
     0
300
1:20
140
1.0
141
20.0
290
     0
  0
SCALE
  5
50
102
{ACAD_REACTORS
330
47
102
}
330
47
100
AcDbScale
 70
     0
300
1:30
140
1.0
141
30.0
290
     0
  0
SCALE
  5
51
102
{ACAD_REACTORS
330
47
102
}
330
47
100
AcDbScale
 70
     0
300
1:40
140
1.0
141
40.0
290
     0
  0
SCALE
  5
52
102
{ACAD_REACTORS
330
47
102
}
330
47
100
AcDbScale
 70
     0
300
1:50
140
1.0
141
50.0
290
     0
  0
SCALE
  5
53
102
{ACAD_REACTORS
330
47
102
}
330
47
100
AcDbScale
 70
     0
300
1:100
140
1.0
141
100.0
290
     0
  0
SCALE
  5
54
102
{ACAD_REACTORS
330
47
102
}
330
47
100
AcDbScale
 70
     0
300
2:1
140
2.0
141
1.0
290
     0
  0
SCALE
  5
55
102
{ACAD_REACTORS
330
47
102
}
330
47
100
AcDbScale
 70
     0
300
4:1
140
4.0
141
1.0
290
     0
  0
SCALE
  5
56
102
{ACAD_REACTORS
330
47
102
}
330
47
100
AcDbScale
 70
     0
300
8:1
140
8.0
141
1.0
290
     0
  0
SCALE
  5
57
102
{ACAD_REACTORS
330
47
102
}
330
47
100
AcDbScale
 70
     0
300
10:1
140
10.0
141
1.0
290
     0
  0
SCALE
  5
58
102
{ACAD_REACTORS
330
47
102
}
330
47
100
AcDbScale
 70
     0
300
100:1
140
100.0
141
1.0
290
     0
  0
SCALE
  5
59
102
{ACAD_REACTORS
330
47
102
}
330
47
100
AcDbScale
 70
     0
300
1/128" = 1'-0"
140
0.0078125
141
12.0
290
     0
  0
SCALE
  5
5A
102
{ACAD_REACTORS
330
47
102
}
330
47
100
AcDbScale
 70
     0
300
1/64" = 1'-0"
140
0.015625
141
12.0
290
     0
  0
SCALE
  5
5B
102
{ACAD_REACTORS
330
47
102
}
330
47
100
AcDbScale
 70
     0
300
1/32" = 1'-0"
140
0.03125
141
12.0
290
     0
  0
SCALE
  5
5C
102
{ACAD_REACTORS
330
47
102
}
330
47
100
AcDbScale
 70
     0
300
1/16" = 1'-0"
140
0.0625
141
12.0
290
     0
  0
SCALE
  5
5D
102
{ACAD_REACTORS
330
47
102
}
330
47
100
AcDbScale
 70
     0
300
3/32" = 1'-0"
140
0.09375
141
12.0
290
     0
  0
SCALE
  5
5E
102
{ACAD_REACTORS
330
47
102
}
330
47
100
AcDbScale
 70
     0
300
1/8" = 1'-0"
140
0.125
141
12.0
290
     0
  0
SCALE
  5
5F
102
{ACAD_REACTORS
330
47
102
}
330
47
100
AcDbScale
 70
     0
300
3/16" = 1'-0"
140
0.1875
141
12.0
290
     0
  0
SCALE
  5
60
102
{ACAD_REACTORS
330
47
102
}
330
47
100
AcDbScale
 70
     0
300
1/4" = 1'-0"
140
0.25
141
12.0
290
     0
  0
SCALE
  5
61
102
{ACAD_REACTORS
330
47
102
}
330
47
100
AcDbScale
 70
     0
300
3/8" = 1'-0"
140
0.375
141
12.0
290
     0
  0
SCALE
  5
62
102
{ACAD_REACTORS
330
47
102
}
330
47
100
AcDbScale
 70
     0
300
1/2" = 1'-0"
140
0.5
141
12.0
290
     0
  0
SCALE
  5
63
102
{ACAD_REACTORS
330
47
102
}
330
47
100
AcDbScale
 70
     0
300
3/4" = 1'-0"
140
0.75
141
12.0
290
     0
  0
SCALE
  5
64
102
{ACAD_REACTORS
330
47
102
}
330
47
100
AcDbScale
 70
     0
300
1" = 1'-0"
140
1.0
141
12.0
290
     0
  0
SCALE
  5
65
102
{ACAD_REACTORS
330
47
102
}
330
47
100
AcDbScale
 70
     0
300
1-1/2" = 1'-0"
140
1.5
141
12.0
290
     0
  0
SCALE
  5
66
102
{ACAD_REACTORS
330
47
102
}
330
47
100
AcDbScale
 70
     0
300
3" = 1'-0"
140
3.0
141
12.0
290
     0
  0
SCALE
  5
67
102
{ACAD_REACTORS
330
47
102
}
330
47
100
AcDbScale
 70
     0
300
6" = 1'-0"
140
6.0
141
12.0
290
     0
  0
SCALE
  5
68
102
{ACAD_REACTORS
330
47
102
}
330
47
100
AcDbScale
 70
     0
300
1'-0" = 1'-0"
140
12.0
141
12.0
290
     0
  0
ENDSEC
  0
EOF
