  0
SECTION
  2
HEADER
  9
$ACADVER
  1
AC1015
  9
$ACADMAINTVER
 70
     6
  9
$DWGCODEPAGE
  3
ANSI_949
  9
$INSBASE
 10
0.0
 20
0.0
 30
0.0
  9
$EXTMIN
 10
-71.37500000000075
 20
-49.97073246008785
 30
0.0
  9
$EXTMAX
 10
134.2143989012861
 20
51.72899999999989
 30
0.0
  9
$LIMMIN
 10
0.0
 20
0.0
  9
$LIMMAX
 10
420.0
 20
297.0
  9
$ORTHOMODE
 70
     1
  9
$REGENMODE
 70
     1
  9
$FILLMODE
 70
     1
  9
$QTEXTMODE
 70
     0
  9
$MIRRTEXT
 70
     1
  9
$LTSCALE
 40
1.0
  9
$ATTMODE
 70
     1
  9
$TEXTSIZE
 40
3.5
  9
$TRACEWID
 40
1.0
  9
$TEXTSTYLE
  7
Standard
  9
$CLAYER
  8
0
  9
$CELTYPE
  6
ByLayer
  9
$CECOLOR
 62
   256
  9
$CELTSCALE
 40
1.0
  9
$DISPSILH
 70
     0
  9
$DIMSCALE
 40
1.0
  9
$DIMASZ
 40
3.302
  9
$DIMEXO
 40
1.0
  9
$DIMDLI
 40
3.75
  9
$DIMRND
 40
0.0
  9
$DIMDLE
 40
0.0
  9
$DIMEXE
 40
1.0
  9
$DIMTP
 40
0.0
  9
$DIMTM
 40
0.0
  9
$DIMTXT
 40
3.5
  9
$DIMCEN
 40
2.5
  9
$DIMTSZ
 40
0.0
  9
$DIMTOL
 70
     0
  9
$DIMLIM
 70
     0
  9
$DIMTIH
 70
     1
  9
$DIMTOH
 70
     1
  9
$DIMSE1
 70
     0
  9
$DIMSE2
 70
     0
  9
$DIMTAD
 70
     1
  9
$DIMZIN
 70
     0
  9
$DIMBLK
  1

  9
$DIMASO
 70
     1
  9
$DIMSHO
 70
     1
  9
$DIMPOST
  1

  9
$DIMAPOST
  1

  9
$DIMALT
 70
     0
  9
$DIMALTD
 70
     3
  9
$DIMALTF
 40
0.0393700787401575
  9
$DIMLFAC
 40
1.0
  9
$DIMTOFL
 70
     1
  9
$DIMTVP
 40
0.0
  9
$DIMTIX
 70
     0
  9
$DIMSOXD
 70
     0
  9
$DIMSAH
 70
     0
  9
$DIMBLK1
  1

  9
$DIMBLK2
  1

  9
$DIMSTYLE
  2
ISO-25
  9
$DIMCLRD
 70
     0
  9
$DIMCLRE
 70
     0
  9
$DIMCLRT
 70
     0
  9
$DIMTFAC
 40
1.0
  9
$DIMGAP
 40
1.524
  9
$DIMJUST
 70
     0
  9
$DIMSD1
 70
     0
  9
$DIMSD2
 70
     0
  9
$DIMTOLJ
 70
     0
  9
$DIMTZIN
 70
     0
  9
$DIMALTZ
 70
     0
  9
$DIMALTTZ
 70
     0
  9
$DIMUPT
 70
     0
  9
$DIMDEC
 70
     2
  9
$DIMTDEC
 70
     2
  9
$DIMALTU
 70
     2
  9
$DIMALTTD
 70
     3
  9
$DIMTXSTY
  7
Standard
  9
$DIMAUNIT
 70
     0
  9
$DIMADEC
 70
     2
  9
$DIMALTRND
 40
0.0
  9
$DIMAZIN
 70
     0
  9
$DIMDSEP
 70
    44
  9
$DIMATFIT
 70
     3
  9
$DIMFRAC
 70
     0
  9
$DIMLDRBLK
  1

  9
$DIMLUNIT
 70
     2
  9
$DIMLWD
 70
    -2
  9
$DIMLWE
 70
    -2
  9
$DIMTMOVE
 70
     0
  9
$LUNITS
 70
     2
  9
$LUPREC
 70
     2
  9
$SKETCHINC
 40
1.0
  9
$FILLETRAD
 40
10.0
  9
$AUNITS
 70
     0
  9
$AUPREC
 70
     2
  9
$MENU
  1
.
  9
$ELEVATION
 40
0.0
  9
$PELEVATION
 40
0.0
  9
$THICKNESS
 40
0.0
  9
$LIMCHECK
 70
     0
  9
$CHAMFERA
 40
0.0
  9
$CHAMFERB
 40
0.0
  9
$CHAMFERC
 40
0.0
  9
$CHAMFERD
 40
0.0
  9
$SKPOLY
 70
     0
  9
$TDCREATE
 40
2458323.475454456
  9
$TDUCREATE
 40
2458323.100454456
  9
$TDUPDATE
 40
2458330.599065081
  9
$TDUUPDATE
 40
2458330.224065081
  9
$TDINDWG
 40
0.0025940741
  9
$TDUSRTIMER
 40
2458330.224025
  9
$USRTIMER
 70
     1
  9
$ANGBASE
 50
0.0
  9
$ANGDIR
 70
     0
  9
$PDMODE
 70
     0
  9
$PDSIZE
 40
-1.0
  9
$PLINEWID
 40
0.0
  9
$SPLFRAME
 70
     0
  9
$SPLINETYPE
 70
     6
  9
$SPLINESEGS
 70
     8
  9
$HANDSEED
  5
2C1
  9
$SURFTAB1
 70
     6
  9
$SURFTAB2
 70
     6
  9
$SURFTYPE
 70
     6
  9
$SURFU
 70
     6
  9
$SURFV
 70
     6
  9
$UCSBASE
  2

  9
$UCSNAME
  2

  9
$UCSORG
 10
0.0
 20
0.0
 30
0.0
  9
$UCSXDIR
 10
1.0
 20
0.0
 30
0.0
  9
$UCSYDIR
 10
0.0
 20
1.0
 30
0.0
  9
$UCSORTHOREF
  2

  9
$UCSORTHOVIEW
 70
     0
  9
$UCSORGTOP
 10
0.0
 20
0.0
 30
0.0
  9
$UCSORGBOTTOM
 10
0.0
 20
0.0
 30
0.0
  9
$UCSORGLEFT
 10
0.0
 20
0.0
 30
0.0
  9
$UCSORGRIGHT
 10
0.0
 20
0.0
 30
0.0
  9
$UCSORGFRONT
 10
0.0
 20
0.0
 30
0.0
  9
$UCSORGBACK
 10
0.0
 20
0.0
 30
0.0
  9
$PUCSBASE
  2

  9
$PUCSNAME
  2

  9
$PUCSORG
 10
0.0
 20
0.0
 30
0.0
  9
$PUCSXDIR
 10
1.0
 20
0.0
 30
0.0
  9
$PUCSYDIR
 10
0.0
 20
1.0
 30
0.0
  9
$PUCSORTHOREF
  2

  9
$PUCSORTHOVIEW
 70
     0
  9
$PUCSORGTOP
 10
0.0
 20
0.0
 30
0.0
  9
$PUCSORGBOTTOM
 10
0.0
 20
0.0
 30
0.0
  9
$PUCSORGLEFT
 10
0.0
 20
0.0
 30
0.0
  9
$PUCSORGRIGHT
 10
0.0
 20
0.0
 30
0.0
  9
$PUCSORGFRONT
 10
0.0
 20
0.0
 30
0.0
  9
$PUCSORGBACK
 10
0.0
 20
0.0
 30
0.0
  9
$USERI1
 70
     0
  9
$USERI2
 70
     0
  9
$USERI3
 70
     0
  9
$USERI4
 70
     0
  9
$USERI5
 70
     0
  9
$USERR1
 40
0.0
  9
$USERR2
 40
0.0
  9
$USERR3
 40
0.0
  9
$USERR4
 40
0.0
  9
$USERR5
 40
0.0
  9
$WORLDVIEW
 70
     1
  9
$SHADEDGE
 70
     3
  9
$SHADEDIF
 70
    70
  9
$TILEMODE
 70
     1
  9
$MAXACTVP
 70
    64
  9
$PINSBASE
 10
0.0
 20
0.0
 30
0.0
  9
$PLIMCHECK
 70
     0
  9
$PEXTMIN
 10
1.000000000000000E+20
 20
1.000000000000000E+20
 30
1.000000000000000E+20
  9
$PEXTMAX
 10
-1.000000000000000E+20
 20
-1.000000000000000E+20
 30
-1.000000000000000E+20
  9
$PLIMMIN
 10
0.0
 20
0.0
  9
$PLIMMAX
 10
0.0
 20
0.0
  9
$UNITMODE
 70
     0
  9
$VISRETAIN
 70
     1
  9
$PLINEGEN
 70
     0
  9
$PSLTSCALE
 70
     1
  9
$TREEDEPTH
 70
  3020
  9
$CMLSTYLE
  2
Standard
  9
$CMLJUST
 70
     0
  9
$CMLSCALE
 40
20.0
  9
$PROXYGRAPHICS
 70
     1
  9
$MEASUREMENT
 70
     1
  9
$CELWEIGHT
370
    -1
  9
$ENDCAPS
280
     0
  9
$JOINSTYLE
280
     0
  9
$LWDISPLAY
290
     1
  9
$INSUNITS
 70
     4
  9
$HYPERLINKBASE
  1

  9
$STYLESHEET
  1

  9
$XEDIT
290
     1
  9
$CEPSNTYPE
380
     0
  9
$PSTYLEMODE
290
     1
  9
$FINGERPRINTGUID
  2
{2EF425C4-7BBB-4452-83B8-23F2E18EE7D8}
  9
$VERSIONGUID
  2
{FAEB1C32-E019-11D5-929B-00C0DF256EC4}
  9
$EXTNAMES
290
     1
  9
$PSVPSCALE
 40
0.0
  9
$OLESTARTUP
290
     0
  0
ENDSEC
  0
SECTION
  2
CLASSES
  0
CLASS
  1
ACDBDICTIONARYWDFLT
  2
AcDbDictionaryWithDefault
  3
ObjectDBX Classes
 90
        0
280
     0
281
     0
  0
CLASS
  1
VISUALSTYLE
  2
AcDbVisualStyle
  3
ObjectDBX Classes
 90
     4095
280
     0
281
     0
  0
CLASS
  1
MATERIAL
  2
AcDbMaterial
  3
ObjectDBX Classes
 90
     1153
280
     0
281
     0
  0
CLASS
  1
SCALE
  2
AcDbScale
  3
ObjectDBX Classes
 90
     1153
280
     0
281
     0
  0
CLASS
  1
SUN
  2
AcDbSun
  3
SCENEOE
 90
     1153
280
     0
281
     0
  0
CLASS
  1
ACDBPLACEHOLDER
  2
AcDbPlaceHolder
  3
ObjectDBX Classes
 90
        0
280
     0
281
     0
  0
CLASS
  1
LAYOUT
  2
AcDbLayout
  3
ObjectDBX Classes
 90
        0
280
     0
281
     0
  0
CLASS
  1
TABLESTYLE
  2
AcDbTableStyle
  3
ObjectDBX Classes
 90
     4095
280
     0
281
     0
  0
CLASS
  1
MLEADERSTYLE
  2
AcDbMLeaderStyle
  3
ACDB_MLEADERSTYLE_CLASS
 90
     4095
280
     0
281
     0
  0
CLASS
  1
RASTERVARIABLES
  2
AcDbRasterVariables
  3
ISM
 90
        0
280
     0
281
     0
  0
ENDSEC
  0
SECTION
  2
TABLES
  0
TABLE
  2
VPORT
  5
8
330
0
100
AcDbSymbolTable
 70
     1
  0
VPORT
  5
29
330
8
100
AcDbSymbolTableRecord
100
AcDbViewportTableRecord
  2
*Active
 70
     0
 10
0.0
 20
0.0
 11
1.0
 21
1.0
 12
10.08514783062387
 22
-38.76084517875017
 13
0.0
 23
0.0
 14
10.0
 24
10.0
 15
10.0
 25
10.0
 16
0.0
 26
0.0
 36
1.0
 17
0.0
 27
0.0
 37
0.0
 40
120.9427153052581
 41
1.516441005802708
 42
50.0
 43
0.0
 44
0.0
 50
0.0
 51
0.0
 71
    16
 72
  2000
 73
     1
 74
     3
 75
     0
 76
     0
 77
     0
 78
     0
281
     0
 65
     1
110
0.0
120
0.0
130
0.0
111
1.0
121
0.0
131
0.0
112
0.0
122
1.0
132
0.0
 79
     0
146
0.0
  0
ENDTAB
  0
TABLE
  2
LTYPE
  5
5
330
0
100
AcDbSymbolTable
 70
     6
  0
LTYPE
  5
14
330
5
100
AcDbSymbolTableRecord
100
AcDbLinetypeTableRecord
  2
ByBlock
 70
     0
  3

 72
    65
 73
     0
 40
0.0
  0
LTYPE
  5
15
330
5
100
AcDbSymbolTableRecord
100
AcDbLinetypeTableRecord
  2
ByLayer
 70
     0
  3

 72
    65
 73
     0
 40
0.0
  0
LTYPE
  5
16
330
5
100
AcDbSymbolTableRecord
100
AcDbLinetypeTableRecord
  2
Continuous
 70
     0
  3
Solid line
 72
    65
 73
     0
 40
0.0
  0
LTYPE
  5
6A
330
5
100
AcDbSymbolTableRecord
100
AcDbLinetypeTableRecord
  2
HIDDEN
 70
     0
  3
Hidden __ __ __ __ __ __ __ __ __ __ __ __ __ __
 72
    65
 73
     2
 40
1.905
 49
1.27
 74
     0
 49
-0.635
 74
     0
  0
LTYPE
  5
6B
330
5
100
AcDbSymbolTableRecord
100
AcDbLinetypeTableRecord
  2
PHANTOM
 70
     0
  3
Phantom ______  __  __  ______  __  __  ______
 72
    65
 73
     6
 40
12.7
 49
6.35
 74
     0
 49
-1.27
 74
     0
 49
1.27
 74
     0
 49
-1.27
 74
     0
 49
1.27
 74
     0
 49
-1.27
 74
     0
  0
LTYPE
  5
6C
330
5
100
AcDbSymbolTableRecord
100
AcDbLinetypeTableRecord
  2
CENTER
 70
     0
  3
Center ____ _ ____ _ ____ _ ____ _ ____ _ ____
 72
    65
 73
     4
 40
10.16
 49
6.35
 74
     0
 49
-1.27
 74
     0
 49
1.27
 74
     0
 49
-1.27
 74
     0
  0
LTYPE
  5
6D
330
5
100
AcDbSymbolTableRecord
100
AcDbLinetypeTableRecord
  2
CENTERX2
 70
     0
  3
Center (2x) ________  __  ________  __  _____
 72
    65
 73
     4
 40
20.32
 49
12.7
 74
     0
 49
-2.54
 74
     0
 49
2.54
 74
     0
 49
-2.54
 74
     0
  0
LTYPE
  5
6E
330
5
100
AcDbSymbolTableRecord
100
AcDbLinetypeTableRecord
  2
DOT2
 70
     0
  3
Dot (.5x) ........................................
 72
    65
 73
     2
 40
0.635
 49
0.0
 74
     0
 49
-0.635
 74
     0
  0
ENDTAB
  0
TABLE
  2
LAYER
  5
2
102
{ACAD_XDICTIONARY
360
1DF
102
}
330
0
100
AcDbSymbolTable
 70
    18
  0
LAYER
  5
10
330
2
100
AcDbSymbolTableRecord
100
AcDbLayerTableRecord
  2
0
 70
     0
 62
     7
  6
Continuous
370
    -3
390
F
  0
LAYER
  5
6F
330
2
100
AcDbSymbolTableRecord
100
AcDbLayerTableRecord
  2
FORMAT
 70
     0
 62
     2
  6
Continuous
370
    -3
390
F
  0
LAYER
  5
70
330
2
100
AcDbSymbolTableRecord
100
AcDbLayerTableRecord
  2
외형선
 70
     0
 62
     4
  6
Continuous
370
    30
390
F
  0
LAYER
  5
71
330
2
100
AcDbSymbolTableRecord
100
AcDbLayerTableRecord
  2
숨은선
 70
     0
 62
     2
  6
HIDDEN
370
    15
390
F
  0
LAYER
  5
72
330
2
100
AcDbSymbolTableRecord
100
AcDbLayerTableRecord
  2
중심선
 70
     0
 62
     1
  6
CENTERX2
370
    -3
390
F
  0
LAYER
  5
73
330
2
100
AcDbSymbolTableRecord
100
AcDbLayerTableRecord
  2
파단선
 70
     0
 62
     4
  6
Continuous
370
    -3
390
F
  0
LAYER
  5
74
330
2
100
AcDbSymbolTableRecord
100
AcDbLayerTableRecord
  2
해칭선
 70
     0
 62
   100
  6
Continuous
370
    -3
390
F
  0
LAYER
  5
75
330
2
100
AcDbSymbolTableRecord
100
AcDbLayerTableRecord
  2
가는실선
 70
     0
 62
     4
  6
Continuous
370
    -3
390
F
  0
LAYER
  5
76
330
2
100
AcDbSymbolTableRecord
100
AcDbLayerTableRecord
  2
치수_보조선
 70
     0
 62
     4
  6
Continuous
370
    -3
390
F
  0
LAYER
  5
77
330
2
100
AcDbSymbolTableRecord
100
AcDbLayerTableRecord
  2
치수문자_일반주서
 70
     0
 62
     7
  6
Continuous
370
    15
390
F
  0
LAYER
  5
78
330
2
100
AcDbSymbolTableRecord
100
AcDbLayerTableRecord
  2
개별주서
 70
     0
 62
   100
  6
Continuous
370
    30
390
F
  0
LAYER
  5
79
330
2
100
AcDbSymbolTableRecord
100
AcDbLayerTableRecord
  2
중간선
 70
     0
 62
     2
  6
Continuous
370
    15
390
F
  0
LAYER
  5
7A
330
2
100
AcDbSymbolTableRecord
100
AcDbLayerTableRecord
  2
윤곽선
 70
     0
 62
     3
  6
Continuous
370
    40
390
F
  0
LAYER
  5
7B
330
2
100
AcDbSymbolTableRecord
100
AcDbLayerTableRecord
  2
중심마크
 70
     0
 62
   100
  6
Continuous
370
    30
390
F
  0
LAYER
  5
7C
330
2
100
AcDbSymbolTableRecord
100
AcDbLayerTableRecord
  2
가상선
 70
     0
 62
     4
  6
PHANTOM
370
    -3
390
F
  0
LAYER
  5
7D
330
2
100
AcDbSymbolTableRecord
100
AcDbLayerTableRecord
  2
특수지정선
 70
     0
 62
     5
  6
CENTERX2
370
    60
390
F
  0
LAYER
  5
7E
330
2
100
AcDbSymbolTableRecord
100
AcDbLayerTableRecord
  2
참조1
 70
     0
 62
    -4
  6
Continuous
370
    -3
390
F
  0
LAYER
  5
141
330
2
100
AcDbSymbolTableRecord
100
AcDbLayerTableRecord
  2
Defpoints
 70
     0
 62
     7
  6
Continuous
290
     0
370
    -3
390
F
  0
ENDTAB
  0
TABLE
  2
STYLE
  5
3
330
0
100
AcDbSymbolTable
 70
     2
  0
STYLE
  5
11
330
3
100
AcDbSymbolTableRecord
100
AcDbTextStyleTableRecord
  2
Standard
 70
     0
 40
0.0
 41
1.0
 50
0.0
 71
     0
 42
3.5
  3
txt
  4

  0
STYLE
  5
94
330
3
100
AcDbSymbolTableRecord
100
AcDbTextStyleTableRecord
  2
SLDTEXTSTYLE0
 70
     0
 40
0.0
 41
0.75
 50
0.0
 71
     0
 42
3.5
  3
TXT
  4

  0
ENDTAB
  0
TABLE
  2
VIEW
  5
6
330
0
100
AcDbSymbolTable
 70
     0
  0
ENDTAB
  0
TABLE
  2
UCS
  5
7
330
0
100
AcDbSymbolTable
 70
     0
  0
ENDTAB
  0
TABLE
  2
APPID
  5
9
330
0
100
AcDbSymbolTable
 70
     4
  0
APPID
  5
12
330
9
100
AcDbSymbolTableRecord
100
AcDbRegAppTableRecord
  2
ACAD
 70
     0
  0
APPID
  5
14D
330
9
100
AcDbSymbolTableRecord
100
AcDbRegAppTableRecord
  2
PE_URL
 70
     0
  0
APPID
  5
29C
330
9
100
AcDbSymbolTableRecord
100
AcDbRegAppTableRecord
  2
ACAD_DSTYLE_DIMFLIPARROW_SYMBOL
 70
     0
  0
APPID
  5
29D
330
9
100
AcDbSymbolTableRecord
100
AcDbRegAppTableRecord
  2
ACAD_DSTYLE_DIMFLIPARROW_WHICH_SYMBOL
 70
     0
  0
ENDTAB
  0
TABLE
  2
DIMSTYLE
  5
A
330
0
100
AcDbSymbolTable
 70
     3
100
AcDbDimStyleTable
  0
DIMSTYLE
105
27
330
A
100
AcDbSymbolTableRecord
100
AcDbDimStyleTableRecord
  2
ISO-25
 70
     0
 41
2.5
 42
0.625
 43
3.75
 44
1.25
 73
     0
 74
     0
 77
     1
 78
     8
140
2.5
141
2.5
143
0.03937007874016
147
0.625
171
     3
172
     1
178
     0
271
     2
272
     2
274
     3
278
    44
283
     0
284
     8
340
11
  0
DIMSTYLE
105
C0
102
{ACAD_REACTORS
330
209
330
20A
330
20B
330
20C
102
}
330
A
100
AcDbSymbolTableRecord
100
AcDbDimStyleTableRecord
  2
SLDDIMSTYLE0
 70
     0
 41
3.302
 44
0.0
 45
0.000000001
 73
     0
 74
     0
 77
     1
 78
    12
 79
     3
140
3.5
143
0.0393700787401575
147
0.875
148
0.000000001
170
     1
172
     1
173
     1
178
     0
271
     2
272
     2
276
     2
284
    12
289
     0
340
94
  0
DIMSTYLE
105
E9
330
A
100
AcDbSymbolTableRecord
100
AcDbDimStyleTableRecord
  2
SLDDIMSTYLE1
 70
     0
 41
3.302
 44
0.0
 45
0.000000001
 73
     0
 74
     0
 77
     1
 78
    12
 79
     3
140
3.5
143
0.0393700787401575
147
0.875
148
0.000000001
170
     1
173
     1
178
     0
271
     2
272
     2
276
     2
284
    12
340
94
  0
ENDTAB
  0
TABLE
  2
BLOCK_RECORD
  5
1
330
0
100
AcDbSymbolTable
 70
    15
  0
BLOCK_RECORD
  5
1F
330
1
100
AcDbSymbolTableRecord
100
AcDbBlockTableRecord
  2
*Model_Space
340
22
  0
BLOCK_RECORD
  5
1B
330
1
100
AcDbSymbolTableRecord
100
AcDbBlockTableRecord
  2
*Paper_Space
340
1E
  0
BLOCK_RECORD
  5
23
330
1
100
AcDbSymbolTableRecord
100
AcDbBlockTableRecord
  2
*Paper_Space0
340
26
  0
BLOCK_RECORD
  5
7F
330
1
100
AcDbSymbolTableRecord
100
AcDbBlockTableRecord
  2
블럭10
340
0
102
{BLKREFS
331
B8
102
}
  0
BLOCK_RECORD
  5
C1
330
1
100
AcDbSymbolTableRecord
100
AcDbBlockTableRecord
  2
_D
340
0
  0
BLOCK_RECORD
  5
D5
330
1
100
AcDbSymbolTableRecord
100
AcDbBlockTableRecord
  2
_D_1
340
0
  0
BLOCK_RECORD
  5
EA
330
1
100
AcDbSymbolTableRecord
100
AcDbBlockTableRecord
  2
_D_2
340
0
  0
BLOCK_RECORD
  5
FD
330
1
100
AcDbSymbolTableRecord
100
AcDbBlockTableRecord
  2
_D_3
340
0
  0
BLOCK_RECORD
  5
116
330
1
100
AcDbSymbolTableRecord
100
AcDbBlockTableRecord
  2
SW_DOWELSYMBOL_0
340
0
102
{BLKREFS
331
20D
102
}
  0
BLOCK_RECORD
  5
192
330
1
100
AcDbSymbolTableRecord
100
AcDbBlockTableRecord
  2
*D7
340
0
  0
BLOCK_RECORD
  5
1A0
330
1
100
AcDbSymbolTableRecord
100
AcDbBlockTableRecord
  2
*D8
340
0
  0
BLOCK_RECORD
  5
1AD
330
1
100
AcDbSymbolTableRecord
100
AcDbBlockTableRecord
  2
*D9
340
0
  0
BLOCK_RECORD
  5
1BA
330
1
100
AcDbSymbolTableRecord
100
AcDbBlockTableRecord
  2
*D10
340
0
  0
BLOCK_RECORD
  5
21E
330
1
100
AcDbSymbolTableRecord
100
AcDbBlockTableRecord
  2
*D11
340
0
  0
BLOCK_RECORD
  5
22B
330
1
100
AcDbSymbolTableRecord
100
AcDbBlockTableRecord
  2
*D12
340
0
  0
BLOCK_RECORD
  5
237
330
1
100
AcDbSymbolTableRecord
100
AcDbBlockTableRecord
  2
*D13
340
0
  0
BLOCK_RECORD
  5
243
330
1
100
AcDbSymbolTableRecord
100
AcDbBlockTableRecord
  2
*D14
340
0
  0
ENDTAB
  0
ENDSEC
  0
SECTION
  2
BLOCKS
  0
BLOCK
  5
20
330
1F
100
AcDbEntity
  8
0
100
AcDbBlockBegin
  2
*Model_Space
 70
     0
 10
0.0
 20
0.0
 30
0.0
  3
*Model_Space
  1
*Model_Space
  0
ENDBLK
  5
21
330
1F
100
AcDbEntity
  8
0
100
AcDbBlockEnd
  0
BLOCK
  5
1C
330
1B
100
AcDbEntity
 67
     1
  8
0
100
AcDbBlockBegin
  2
*Paper_Space
 70
     0
 10
0.0
 20
0.0
 30
0.0
  3
*Paper_Space
  1
*Paper_Space
  0
ENDBLK
  5
1D
330
1B
100
AcDbEntity
 67
     1
  8
0
100
AcDbBlockEnd
  0
BLOCK
  5
24
330
23
100
AcDbEntity
  8
0
100
AcDbBlockBegin
  2
*Paper_Space0
 70
     0
 10
0.0
 20
0.0
 30
0.0
  3
*Paper_Space0
  1
*Paper_Space0
  0
ENDBLK
  5
25
330
23
100
AcDbEntity
  8
0
100
AcDbBlockEnd
  0
BLOCK
  5
80
330
7F
100
AcDbEntity
  8
0
100
AcDbBlockBegin
  2
블럭10
 70
     2
 10
0.0
 20
0.0
 30
0.0
  3
블럭10
  1
블럭10
  0
ELLIPSE
  5
82
330
7F
100
AcDbEntity
  8
중심선
100
AcDbEllipse
 10
20.54032771741204
 20
12.0471743016438
 30
0.0
 11
6.600054785286829
 21
-1.261213355974178E-13
 31
0.0
210
0.0
220
0.0
230
1.0
 40
0.636358354079598
 41
0.9219305317359503
 42
6.513795318482858
  0
ELLIPSE
  5
83
330
7F
100
AcDbEntity
  8
중심선
100
AcDbEllipse
 10
20.54032771746488
 20
12.04717430159265
 30
0.0
 11
3.960054785062283
 21
1.540847449632565E-10
 31
0.0
210
0.0
220
0.0
230
1.0
 40
0.3939339440162632
 41
1.131841032648279
 42
5.62031148352944
  0
LINE
  5
84
330
7F
100
AcDbEntity
  8
중심선
100
AcDbLine
 10
2.268634060543552
 20
16.24717430164393
 30
0.0
 11
5.714909304380834
 21
16.24717430164393
 31
0.0
  0
LINE
  5
85
330
7F
100
AcDbEntity
  8
중심선
100
AcDbLine
 10
5.245725140726316
 20
7.84717430164391
 30
0.0
 11
8.692000384563599
 21
7.84717430164391
 31
0.0
  0
LINE
  5
86
330
7F
100
AcDbEntity
  8
중심선
100
AcDbLine
 10
15.74043728645272
 20
16.24717430164393
 30
0.0
 11
8.692000384563599
 21
7.84717430164391
 31
0.0
  0
LINE
  5
87
330
7F
100
AcDbEntity
  8
중심선
100
AcDbLine
 10
0.1404042013395286
 20
13.71084872107135
 30
0.0
 11
3.58671253028996
 21
13.71088815037384
 31
0.0
  0
LINE
  5
88
330
7F
100
AcDbEntity
  8
중심선
100
AcDbLine
 10
2.750260043222114
 20
10.84717430164391
 30
0.0
 11
6.196535287059397
 21
10.84717430164391
 31
0.0
  0
LINE
  5
89
330
7F
100
AcDbEntity
  8
중심선
100
AcDbLine
 10
12.29416204261559
 20
16.24717430164393
 30
0.0
 11
5.245725140726316
 21
7.84717430164391
 31
0.0
  0
LINE
  5
8A
330
7F
100
AcDbEntity
  8
중심선
100
AcDbLine
 10
10.72767329541681
 20
16.24717430164393
 30
0.0
 11
6.196535287059397
 21
10.84717430164391
 31
0.0
  0
LINE
  5
8B
330
7F
100
AcDbEntity
  8
중심선
100
AcDbLine
 10
7.28139805157953
 20
16.24717430164393
 30
0.0
 11
2.750260043222114
 21
10.84717430164391
 31
0.0
  0
LINE
  5
8C
330
7F
100
AcDbEntity
  8
중심선
100
AcDbLine
 10
5.714909304380834
 20
16.24717430164393
 30
0.0
 11
3.58671253028996
 21
13.71088815037384
 31
0.0
  0
LINE
  5
8D
330
7F
100
AcDbEntity
  8
중심선
100
AcDbLine
 10
2.268634060543552
 20
16.24717430164393
 30
0.0
 11
0.1404042013395286
 21
13.71084872107135
 31
0.0
  0
LINE
  5
8E
330
7F
100
AcDbEntity
  8
중심선
100
AcDbLine
 10
7.28139805157953
 20
16.24717430164393
 30
0.0
 11
10.72767329541681
 21
16.24717430164393
 31
0.0
  0
LINE
  5
8F
330
7F
100
AcDbEntity
  8
중심선
100
AcDbLine
 10
12.29416204261559
 20
16.24717430164393
 30
0.0
 11
15.74043728645272
 21
16.24717430164393
 31
0.0
  0
LINE
  5
90
330
7F
100
AcDbEntity
  8
중심선
100
AcDbLine
 10
19.22036997980202
 20
11.08717430171403
 30
0.0
 11
23.66174974927406
 21
11.08717430171406
 31
0.0
  0
LINE
  5
91
330
7F
100
AcDbEntity
  8
중심선
100
AcDbLine
 10
19.22039502424796
 20
13.00717430171391
 30
0.0
 11
19.22036997980202
 21
11.08717430171403
 31
0.0
  0
LINE
  5
92
330
7F
100
AcDbEntity
  8
중심선
100
AcDbLine
 10
19.22039502424796
 20
13.00717430171391
 30
0.0
 11
26.96566020931264
 21
13.00717430171391
 31
0.0
  0
LINE
  5
93
330
7F
100
AcDbEntity
  8
중심선
100
AcDbLine
 10
22.22332737316547
 20
13.45928029700563
 30
0.0
 11
24.52862924686651
 21
15.39360700705356
 31
0.0
  0
ATTDEF
  5
95
330
7F
100
AcDbEntity
  8
FORMAT
 62
     2
100
AcDbText
 10
4.408487351596664
 20
2.075366912832191
 30
0.0
 40
4.233333333333333
  1
E1035902
 41
0.75
  7
SLDTEXTSTYLE0
 11
4.408487351596664
 21
-0.0412997538344756
 31
0.0
100
AcDbAttributeDefinition
  3

  2
AUTOATTR0
 70
     0
 74
     1
  0
ENDBLK
  5
81
330
7F
100
AcDbEntity
  8
0
100
AcDbBlockEnd
  0
BLOCK
  5
C2
330
C1
100
AcDbEntity
  8
0
100
AcDbBlockBegin
  2
_D
 70
     0
 10
0.0
 20
0.0
 30
0.0
  3
_D
  1
_D
  0
SOLID
  5
C4
330
C1
100
AcDbEntity
  8
치수문자_일반주서
100
AcDbTrace
 10
97.9119459855236
 20
12.5010749287239
 30
0.0
 11
98.4199459855236
 21
15.80307492872389
 31
0.0
 12
97.4039459855236
 22
15.80307492872389
 32
0.0
 13
97.4039459855236
 23
15.80307492872389
 33
0.0
  0
SOLID
  5
C5
330
C1
100
AcDbEntity
  8
치수문자_일반주서
100
AcDbTrace
 10
97.9119459855236
 20
-12.49892507127611
 30
0.0
 11
97.4039459855236
 21
-15.80092507127611
 31
0.0
 12
98.4199459855236
 22
-15.80092507127611
 32
0.0
 13
98.4199459855236
 23
-15.80092507127611
 33
0.0
  0
LINE
  5
C6
330
C1
100
AcDbEntity
  8
치수문자_일반주서
100
AcDbLine
 10
87.11906426948089
 20
-5.413291502344828
 30
0.0
 11
87.11906426948089
 21
-6.124228987909328
 31
0.0
  0
LINE
  5
C7
330
C1
100
AcDbEntity
  8
치수문자_일반주서
100
AcDbLine
 10
87.11906426948089
 20
-6.124228987909328
 30
0.0
 11
92.67531426054019
 21
-6.124228987909289
 31
0.0
  0
LINE
  5
C8
330
C1
100
AcDbEntity
  8
치수문자_일반주서
100
AcDbLine
 10
92.67531426054019
 20
-6.124228987909289
 30
0.0
 11
92.67531426054019
 21
-5.413291502344789
 31
0.0
  0
LINE
  5
C9
330
C1
100
AcDbEntity
  8
치수문자_일반주서
100
AcDbLine
 10
87.1190642694808
 20
5.41544135979243
 30
0.0
 11
87.1190642694808
 21
6.12637884535693
 31
0.0
  0
LINE
  5
CA
330
C1
100
AcDbEntity
  8
치수문자_일반주서
100
AcDbLine
 10
87.1190642694808
 20
6.12637884535693
 30
0.0
 11
92.6753142605401
 21
6.126378845356969
 31
0.0
  0
LINE
  5
CB
330
C1
100
AcDbEntity
  8
치수문자_일반주서
100
AcDbLine
 10
92.6753142605401
 20
6.126378845356969
 30
0.0
 11
92.6753142605401
 21
5.415441359792469
 31
0.0
  0
LINE
  5
CC
330
C1
100
AcDbEntity
  8
치수문자_일반주서
100
AcDbLine
 10
79.91194598552357
 20
12.5010749287239
 30
0.0
 11
98.9119459855236
 21
12.5010749287239
 31
0.0
  0
LINE
  5
CD
330
C1
100
AcDbEntity
  8
치수문자_일반주서
100
AcDbLine
 10
79.91194598552357
 20
-12.49892507127611
 30
0.0
 11
98.9119459855236
 21
-12.49892507127611
 31
0.0
  0
LINE
  5
CE
330
C1
100
AcDbEntity
  8
치수문자_일반주서
100
AcDbLine
 10
97.9119459855236
 20
12.5010749287239
 30
0.0
 11
97.9119459855236
 21
18.8510749287239
 31
0.0
  0
LINE
  5
CF
330
C1
100
AcDbEntity
  8
치수문자_일반주서
100
AcDbLine
 10
97.9119459855236
 20
12.5010749287239
 30
0.0
 11
97.9119459855236
 21
-12.49892507127611
 31
0.0
  0
LINE
  5
D0
330
C1
100
AcDbEntity
  8
치수문자_일반주서
100
AcDbLine
 10
97.9119459855236
 20
-12.49892507127611
 30
0.0
 11
97.9119459855236
 21
-18.84892507127611
 31
0.0
  0
MTEXT
  5
D1
330
C1
100
AcDbEntity
  8
치수문자_일반주서
100
AcDbMText
 10
88.16357734596129
 20
-4.52461960173345
 30
0.0
 40
3.5
 41
0.0
 71
     1
 72
     1
  1
0.98
  7
SLDTEXTSTYLE0
 11
-7.044195017643634E-15
 21
1.0
 31
0.0
 73
     1
 44
1.0
  0
MTEXT
  5
D2
330
C1
100
AcDbEntity
  8
치수문자_일반주서
100
AcDbMText
 10
93.40020889632177
 20
-5.22425519681665
 30
0.0
 40
3.5
 41
0.0
 71
     1
 72
     1
  1
%%c
  7
SLDTEXTSTYLE0
 11
-7.044195017643634E-15
 21
1.0
 31
0.0
 73
     1
 44
1.0
  0
MTEXT
  5
D3
330
C1
100
AcDbEntity
  8
치수문자_일반주서
100
AcDbMText
 10
93.40020889632173
 20
0.0541822015574309
 30
0.0
 40
3.5
 41
0.0
 71
     1
 72
     1
  1
25
  7
SLDTEXTSTYLE0
 11
-7.044195017643634E-15
 21
1.0
 31
0.0
 73
     1
 44
1.0
  0
ENDBLK
  5
C3
330
C1
100
AcDbEntity
  8
0
100
AcDbBlockEnd
  0
BLOCK
  5
D6
330
D5
100
AcDbEntity
  8
0
100
AcDbBlockBegin
  2
_D_1
 70
     0
 10
0.0
 20
0.0
 30
0.0
  3
_D_1
  1
_D_1
  0
SOLID
  5
D8
330
D5
100
AcDbEntity
  8
치수문자_일반주서
100
AcDbTrace
 10
-55.08805401447646
 20
7.938574928723906
 30
0.0
 11
-54.58005401447646
 21
11.24057492872391
 31
0.0
 12
-55.59605401447646
 22
11.24057492872391
 32
0.0
 13
-55.59605401447646
 23
11.24057492872391
 33
0.0
  0
SOLID
  5
D9
330
D5
100
AcDbEntity
  8
치수문자_일반주서
100
AcDbTrace
 10
-55.08805401447646
 20
-7.936425071276123
 30
0.0
 11
-55.59605401447646
 21
-11.23842507127612
 31
0.0
 12
-54.58005401447646
 22
-11.23842507127612
 32
0.0
 13
-54.58005401447646
 23
-11.23842507127612
 33
0.0
  0
LINE
  5
DA
330
D5
100
AcDbEntity
  8
치수문자_일반주서
100
AcDbLine
 10
-65.88093573051917
 20
-6.595745043212554
 30
0.0
 11
-65.88093573051917
 21
-7.306682528777054
 31
0.0
  0
LINE
  5
DB
330
D5
100
AcDbEntity
  8
치수문자_일반주서
100
AcDbLine
 10
-65.88093573051917
 20
-7.306682528777054
 30
0.0
 11
-60.32468573945987
 21
-7.306682528777015
 31
0.0
  0
LINE
  5
DC
330
D5
100
AcDbEntity
  8
치수문자_일반주서
100
AcDbLine
 10
-60.32468573945987
 20
-7.306682528777015
 30
0.0
 11
-60.32468573945987
 21
-6.595745043212514
 31
0.0
  0
LINE
  5
DD
330
D5
100
AcDbEntity
  8
치수문자_일반주서
100
AcDbLine
 10
-65.88093573051925
 20
4.232987818924705
 30
0.0
 11
-65.88093573051925
 21
4.943925304489205
 31
0.0
  0
LINE
  5
DE
330
D5
100
AcDbEntity
  8
치수문자_일반주서
100
AcDbLine
 10
-65.88093573051925
 20
4.943925304489205
 30
0.0
 11
-60.32468573945995
 21
4.943925304489244
 31
0.0
  0
LINE
  5
DF
330
D5
100
AcDbEntity
  8
치수문자_일반주서
100
AcDbLine
 10
-60.32468573945995
 20
4.943925304489244
 30
0.0
 11
-60.32468573945994
 21
4.232987818924744
 31
0.0
  0
LINE
  5
E0
330
D5
100
AcDbEntity
  8
치수문자_일반주서
100
AcDbLine
 10
-41.50055401447643
 20
7.938574928723908
 30
0.0
 11
-56.08805401447646
 21
7.938574928723906
 31
0.0
  0
LINE
  5
E1
330
D5
100
AcDbEntity
  8
치수문자_일반주서
100
AcDbLine
 10
-41.50055401447643
 20
-7.936425071276121
 30
0.0
 11
-56.08805401447646
 21
-7.936425071276123
 31
0.0
  0
LINE
  5
E2
330
D5
100
AcDbEntity
  8
치수문자_일반주서
100
AcDbLine
 10
-55.08805401447646
 20
7.938574928723906
 30
0.0
 11
-55.08805401447646
 21
14.28857492872391
 31
0.0
  0
LINE
  5
E3
330
D5
100
AcDbEntity
  8
치수문자_일반주서
100
AcDbLine
 10
-55.08805401447646
 20
7.938574928723906
 30
0.0
 11
-55.08805401447646
 21
-7.936425071276123
 31
0.0
  0
LINE
  5
E4
330
D5
100
AcDbEntity
  8
치수문자_일반주서
100
AcDbLine
 10
-55.08805401447646
 20
-7.936425071276123
 30
0.0
 11
-55.08805401447646
 21
-14.28642507127612
 31
0.0
  0
MTEXT
  5
E5
330
D5
100
AcDbEntity
  8
치수문자_일반주서
100
AcDbMText
 10
-64.83642265403878
 20
-5.707073142601175
 30
0.0
 40
3.5
 41
0.0
 71
     1
 72
     1
  1
0.63
  7
SLDTEXTSTYLE0
 11
-7.044195017643634E-15
 21
1.0
 31
0.0
 73
     1
 44
1.0
  0
MTEXT
  5
E6
330
D5
100
AcDbEntity
  8
치수문자_일반주서
100
AcDbMText
 10
-59.59979110367827
 20
-9.639347554964907
 30
0.0
 40
3.5
 41
0.0
 71
     1
 72
     1
  1
%%c
  7
SLDTEXTSTYLE0
 11
-7.044195017643634E-15
 21
1.0
 31
0.0
 73
     1
 44
1.0
  0
MTEXT
  5
E7
330
D5
100
AcDbEntity
  8
치수문자_일반주서
100
AcDbMText
 10
-59.59979110367831
 20
-4.360910156590827
 30
0.0
 40
3.5
 41
0.0
 71
     1
 72
     1
  1
15.88
  7
SLDTEXTSTYLE0
 11
-7.044195017643634E-15
 21
1.0
 31
0.0
 73
     1
 44
1.0
  0
ENDBLK
  5
D7
330
D5
100
AcDbEntity
  8
0
100
AcDbBlockEnd
  0
BLOCK
  5
EB
330
EA
100
AcDbEntity
  8
0
100
AcDbBlockBegin
  2
_D_2
 70
     0
 10
0.0
 20
0.0
 30
0.0
  3
_D_2
  1
_D_2
  0
SOLID
  5
ED
330
EA
100
AcDbEntity
  8
치수문자_일반주서
100
AcDbTrace
 10
78.9119459855236
 20
22.33656116902758
 30
0.0
 11
75.60994598552361
 21
22.84456116902758
 31
0.0
 12
75.60994598552361
 22
21.82856116902758
 32
0.0
 13
75.60994598552361
 23
21.82856116902758
 33
0.0
  0
SOLID
  5
EE
330
EA
100
AcDbEntity
  8
치수문자_일반주서
100
AcDbTrace
 10
33.9119459855236
 20
22.3365611690276
 30
0.0
 11
37.2139459855236
 21
21.8285611690276
 31
0.0
 12
37.2139459855236
 22
22.8445611690276
 32
0.0
 13
37.2139459855236
 23
22.8445611690276
 33
0.0
  0
LINE
  5
EF
330
EA
100
AcDbEntity
  8
치수문자_일반주서
100
AcDbLine
 10
50.99757990370091
 20
33.12944288507032
 30
0.0
 11
50.28664241813641
 21
33.12944288507033
 31
0.0
  0
LINE
  5
F0
330
EA
100
AcDbEntity
  8
치수문자_일반주서
100
AcDbLine
 10
50.28664241813641
 20
33.12944288507033
 30
0.0
 11
50.28664241813637
 21
27.57319289401102
 31
0.0
  0
LINE
  5
F1
330
EA
100
AcDbEntity
  8
치수문자_일반주서
100
AcDbLine
 10
50.28664241813637
 20
27.57319289401102
 30
0.0
 11
50.99757990370087
 21
27.57319289401102
 31
0.0
  0
LINE
  5
F2
330
EA
100
AcDbEntity
  8
치수문자_일반주서
100
AcDbLine
 10
61.82631276583817
 20
33.12944288507024
 30
0.0
 11
62.53725025140267
 21
33.12944288507023
 31
0.0
  0
LINE
  5
F3
330
EA
100
AcDbEntity
  8
치수문자_일반주서
100
AcDbLine
 10
62.53725025140267
 20
33.12944288507023
 30
0.0
 11
62.53725025140263
 21
27.57319289401093
 31
0.0
  0
LINE
  5
F4
330
EA
100
AcDbEntity
  8
치수문자_일반주서
100
AcDbLine
 10
62.53725025140263
 20
27.57319289401093
 30
0.0
 11
61.82631276583813
 21
27.57319289401094
 31
0.0
  0
LINE
  5
F5
330
EA
100
AcDbEntity
  8
치수문자_일반주서
100
AcDbLine
 10
78.9119459855236
 20
13.04623741649756
 30
0.0
 11
78.9119459855236
 21
23.33656116902758
 31
0.0
  0
LINE
  5
F6
330
EA
100
AcDbEntity
  8
치수문자_일반주서
100
AcDbLine
 10
33.91194598552359
 20
13.50102630229547
 30
0.0
 11
33.9119459855236
 21
23.3365611690276
 31
0.0
  0
LINE
  5
F7
330
EA
100
AcDbEntity
  8
치수문자_일반주서
100
AcDbLine
 10
78.9119459855236
 20
22.33656116902758
 30
0.0
 11
33.9119459855236
 21
22.3365611690276
 31
0.0
  0
MTEXT
  5
F8
330
EA
100
AcDbEntity
  8
치수문자_일반주서
100
AcDbMText
 10
49.77288369264966
 20
26.90177043488931
 30
0.0
 40
3.5
 41
0.0
 71
     1
 72
     1
  1

  7
SLDTEXTSTYLE0
 73
     1
 44
1.0
  0
MTEXT
  5
F9
330
EA
100
AcDbEntity
  8
치수문자_일반주서
100
AcDbMText
 10
51.88625180431227
 20
32.08492980858991
 30
0.0
 40
3.5
 41
0.0
 71
     1
 72
     1
  1
1.77
  7
SLDTEXTSTYLE0
 73
     1
 44
1.0
  0
MTEXT
  5
FA
330
EA
100
AcDbEntity
  8
치수문자_일반주서
100
AcDbMText
 10
53.82583514124668
 20
26.84829825822942
 30
0.0
 40
3.5
 41
0.0
 71
     1
 72
     1
  1
45
  7
SLDTEXTSTYLE0
 73
     1
 44
1.0
  0
MTEXT
  5
FB
330
EA
100
AcDbEntity
  8
치수문자_일반주서
100
AcDbMText
 10
64.38295349654321
 20
26.9017704348892
 30
0.0
 40
3.5
 41
0.0
 71
     1
 72
     1
  1

  7
SLDTEXTSTYLE0
 73
     1
 44
1.0
  0
ENDBLK
  5
EC
330
EA
100
AcDbEntity
  8
0
100
AcDbBlockEnd
  0
BLOCK
  5
FE
330
FD
100
AcDbEntity
  8
0
100
AcDbBlockBegin
  2
_D_3
 70
     0
 10
0.0
 20
0.0
 30
0.0
  3
_D_3
  1
_D_3
  0
SOLID
  5
100
330
FD
100
AcDbEntity
  8
치수문자_일반주서
100
AcDbTrace
 10
78.91194598552357
 20
38.36394344956528
 30
0.0
 11
75.60994598552358
 21
38.87194344956529
 31
0.0
 12
75.60994598552358
 22
37.85594344956528
 32
0.0
 13
75.60994598552358
 23
37.85594344956528
 33
0.0
  0
SOLID
  5
101
330
FD
100
AcDbEntity
  8
치수문자_일반주서
100
AcDbTrace
 10
-42.08805401447642
 20
38.36394344956528
 30
0.0
 11
-38.78605401447642
 21
37.85594344956527
 31
0.0
 12
-38.78605401447642
 22
38.87194344956528
 32
0.0
 13
-38.78605401447642
 23
38.87194344956528
 33
0.0
  0
LINE
  5
102
330
FD
100
AcDbEntity
  8
치수문자_일반주서
100
AcDbLine
 10
14.47912979228456
 20
49.15682516560803
 30
0.0
 11
13.76819230672006
 21
49.15682516560804
 31
0.0
  0
LINE
  5
103
330
FD
100
AcDbEntity
  8
치수문자_일반주서
100
AcDbLine
 10
13.76819230672006
 20
49.15682516560804
 30
0.0
 11
13.76819230672002
 21
43.60057517454874
 31
0.0
  0
LINE
  5
104
330
FD
100
AcDbEntity
  8
치수문자_일반주서
100
AcDbLine
 10
13.76819230672002
 20
43.60057517454874
 30
0.0
 11
14.47912979228452
 21
43.60057517454873
 31
0.0
  0
LINE
  5
105
330
FD
100
AcDbEntity
  8
치수문자_일반주서
100
AcDbLine
 10
25.30786265442182
 20
49.15682516560796
 30
0.0
 11
26.01880013998632
 21
49.15682516560796
 31
0.0
  0
LINE
  5
106
330
FD
100
AcDbEntity
  8
치수문자_일반주서
100
AcDbLine
 10
26.01880013998632
 20
49.15682516560796
 30
0.0
 11
26.01880013998629
 21
43.60057517454865
 31
0.0
  0
LINE
  5
107
330
FD
100
AcDbEntity
  8
치수문자_일반주서
100
AcDbLine
 10
26.01880013998629
 20
43.60057517454865
 30
0.0
 11
25.30786265442179
 21
43.60057517454866
 31
0.0
  0
LINE
  5
108
330
FD
100
AcDbEntity
  8
치수문자_일반주서
100
AcDbLine
 10
78.91194598552357
 20
13.21639659633511
 30
0.0
 11
78.91194598552357
 21
39.36394344956528
 31
0.0
  0
LINE
  5
109
330
FD
100
AcDbEntity
  8
치수문자_일반주서
100
AcDbLine
 10
-42.08805401447642
 20
7.351074928723897
 30
0.0
 11
-42.08805401447642
 21
39.36394344956528
 31
0.0
  0
LINE
  5
10A
330
FD
100
AcDbEntity
  8
치수문자_일반주서
100
AcDbLine
 10
78.91194598552357
 20
38.36394344956528
 30
0.0
 11
-42.08805401447642
 21
38.36394344956528
 31
0.0
  0
MTEXT
  5
10B
330
FD
100
AcDbEntity
  8
치수문자_일반주서
100
AcDbMText
 10
13.25443358123332
 20
42.92915271542702
 30
0.0
 40
3.5
 41
0.0
 71
     1
 72
     1
  1

  7
SLDTEXTSTYLE0
 73
     1
 44
1.0
  0
MTEXT
  5
10C
330
FD
100
AcDbEntity
  8
치수문자_일반주서
100
AcDbMText
 10
15.36780169289593
 20
48.11231208912763
 30
0.0
 40
3.5
 41
0.0
 71
     1
 72
     1
  1
4.76
  7
SLDTEXTSTYLE0
 73
     1
 44
1.0
  0
MTEXT
  5
10D
330
FD
100
AcDbEntity
  8
치수문자_일반주서
100
AcDbMText
 10
16.01432954948426
 20
42.87568053876715
 30
0.0
 40
3.5
 41
0.0
 71
     1
 72
     1
  1
121
  7
SLDTEXTSTYLE0
 73
     1
 44
1.0
  0
MTEXT
  5
10E
330
FD
100
AcDbEntity
  8
치수문자_일반주서
100
AcDbMText
 10
27.86450338512689
 20
42.92915271542692
 30
0.0
 40
3.5
 41
0.0
 71
     1
 72
     1
  1

  7
SLDTEXTSTYLE0
 73
     1
 44
1.0
  0
ENDBLK
  5
FF
330
FD
100
AcDbEntity
  8
0
100
AcDbBlockEnd
  0
BLOCK
  5
117
330
116
100
AcDbEntity
  8
0
100
AcDbBlockBegin
  2
SW_DOWELSYMBOL_0
 70
     0
 10
0.0
 20
0.0
 30
0.0
  3
SW_DOWELSYMBOL_0
  1
SW_DOWELSYMBOL_0
  0
CIRCLE
  5
119
330
116
100
AcDbEntity
  8
해칭선
 62
     0
100
AcDbCircle
 10
0.0
 20
0.0
 30
0.0
 40
3.000000000000001
  0
HATCH
  5
11A
330
116
100
AcDbEntity
  8
0
  6
Continuous
 62
     0
370
     0
100
AcDbHatch
 10
0.0
 20
0.0
 30
0.0
210
0.0
220
0.0
230
1.0
  2
SOLID
 70
     1
 71
     0
 91
        1
 92
        0
 93
        3
 72
     2
 10
0.0
 20
0.0
 40
3.000000000000001
 50
0.0
 51
90.0
 73
     1
 72
     1
 10
0.0
 20
3.000000000000001
 11
0.0
 21
0.0
 72
     1
 10
0.0
 20
0.0
 11
3.000000000000001
 21
0.0
 97
        0
 75
     0
 76
     1
 98
        1
 10
0.0
 20
0.0
  0
HATCH
  5
11B
330
116
100
AcDbEntity
  8
0
  6
Continuous
 62
     0
370
     0
100
AcDbHatch
 10
0.0
 20
0.0
 30
0.0
210
0.0
220
0.0
230
1.0
  2
SOLID
 70
     1
 71
     0
 91
        1
 92
        0
 93
        3
 72
     2
 10
0.0
 20
0.0
 40
3.000000000000001
 50
180.0
 51
270.0000000000007
 73
     1
 72
     1
 10
0.0
 20
-3.000000000000001
 11
0.0
 21
0.0
 72
     1
 10
0.0
 20
0.0
 11
-3.000000000000001
 21
0.0
 97
        0
 75
     0
 76
     1
 98
        1
 10
0.0
 20
0.0
  0
ENDBLK
  5
118
330
116
100
AcDbEntity
  8
0
100
AcDbBlockEnd
  0
BLOCK
  5
193
330
192
100
AcDbEntity
  8
0
100
AcDbBlockBegin
  2
*D7
 70
     1
 10
0.0
 20
0.0
 30
0.0
  3
*D7
  1
*D8
  0
LINE
  5
194
330
192
100
AcDbEntity
  8
치수문자_일반주서
 62
     0
370
    -2
100
AcDbLine
 10
34.41750000000014
 20
41.52899999999996
 30
0.0
 11
4.875000000000142
 21
41.52899999999985
 31
0.0
  0
LINE
  5
195
330
192
100
AcDbEntity
  8
치수문자_일반주서
 62
     0
370
    -2
100
AcDbLine
 10
22.98750000000017
 20
9.77899999999996
 30
0.0
 11
4.875000000000253
 21
9.778999999999897
 31
0.0
  0
LINE
  5
196
330
192
100
AcDbEntity
  8
치수문자_일반주서
 62
     0
370
    -2
100
AcDbLine
 10
4.875000000000142
 20
41.52899999999985
 30
0.0
 11
4.874999999999995
 21
83.88299999999985
 31
0.0
  0
LINE
  5
197
330
192
100
AcDbEntity
  8
치수문자_일반주서
 62
     0
370
    -2
100
AcDbLine
 10
4.875000000000154
 20
38.22699999999985
 30
0.0
 11
4.875000000000242
 21
13.0809999999999
 31
0.0
  0
SOLID
  5
198
330
192
100
AcDbEntity
  8
치수문자_일반주서
 62
     0
100
AcDbTrace
 10
5.425333333333487
 20
38.22699999999985
 30
0.0
 11
4.32466666666682
 21
38.22699999999985
 31
0.0
 12
4.875000000000142
 22
41.52899999999985
 32
0.0
 13
4.875000000000142
 23
41.52899999999985
 33
0.0
  0
SOLID
  5
199
330
192
100
AcDbEntity
  8
치수문자_일반주서
 62
     0
100
AcDbTrace
 10
4.324666666666908
 20
13.08099999999989
 30
0.0
 11
5.425333333333575
 21
13.0809999999999
 31
0.0
 12
4.875000000000253
 22
9.778999999999897
 32
0.0
 13
4.875000000000253
 23
9.778999999999897
 33
0.0
  0
MTEXT
  5
19A
330
192
100
AcDbEntity
  8
치수문자_일반주서
100
AcDbMText
 10
0.0000000000000568
 20
66.00799999999984
 30
0.0
 40
4.0
 41
0.0
 71
     2
 72
     1
  1
\A1;%%c31.75 [1 1/4]
  7
SLDTEXTSTYLE0
 11
-3.496765431890261E-15
 21
1.0
 31
0.0
 73
     1
 44
1.0
  0
POINT
  5
19B
330
192
100
AcDbEntity
  8
Defpoints
 62
     0
100
AcDbPoint
 10
34.48000000000014
 20
41.52899999999996
 30
0.0
  0
POINT
  5
19C
330
192
100
AcDbEntity
  8
Defpoints
 62
     0
100
AcDbPoint
 10
23.05000000000017
 20
9.77899999999996
 30
0.0
  0
POINT
  5
19D
330
192
100
AcDbEntity
  8
Defpoints
 62
     0
100
AcDbPoint
 10
4.875000000000256
 20
9.778999999999893
 30
0.0
  0
ENDBLK
  5
19E
330
192
100
AcDbEntity
  8
0
100
AcDbBlockEnd
  0
BLOCK
  5
1A1
330
1A0
100
AcDbEntity
  8
0
100
AcDbBlockBegin
  2
*D8
 70
     1
 10
0.0
 20
0.0
 30
0.0
  3
*D8
  1
*D9
  0
LINE
  5
1A2
330
1A0
100
AcDbEntity
  8
치수문자_일반주서
 62
     0
370
    -2
100
AcDbLine
 10
184.9750000000002
 20
41.59150000000011
 30
0.0
 11
184.9750000000002
 21
56.52899999999998
 31
0.0
  0
LINE
  5
1A3
330
1A0
100
AcDbEntity
  8
치수문자_일반주서
 62
     0
370
    -2
100
AcDbLine
 10
83.3750000000002
 20
41.59136653488484
 30
0.0
 11
83.3750000000002
 21
56.52899999999998
 31
0.0
  0
LINE
  5
1A4
330
1A0
100
AcDbEntity
  8
치수문자_일반주서
 62
     0
370
    -2
100
AcDbLine
 10
181.6730000000002
 20
56.52899999999998
 30
0.0
 11
86.67700000000019
 21
56.52899999999998
 31
0.0
  0
SOLID
  5
1A5
330
1A0
100
AcDbEntity
  8
치수문자_일반주서
 62
     0
100
AcDbTrace
 10
181.6730000000002
 20
55.97866666666665
 30
0.0
 11
181.6730000000002
 21
57.07933333333332
 31
0.0
 12
184.9750000000002
 22
56.52899999999998
 32
0.0
 13
184.9750000000002
 23
56.52899999999998
 33
0.0
  0
SOLID
  5
1A6
330
1A0
100
AcDbEntity
  8
치수문자_일반주서
 62
     0
100
AcDbTrace
 10
86.67700000000019
 20
57.07933333333332
 30
0.0
 11
86.67700000000019
 21
55.97866666666665
 31
0.0
 12
83.3750000000002
 22
56.52899999999998
 32
0.0
 13
83.3750000000002
 23
56.52899999999998
 33
0.0
  0
MTEXT
  5
1A7
330
1A0
100
AcDbEntity
  8
치수문자_일반주서
100
AcDbMText
 10
134.1750000000002
 20
61.40399999999998
 30
0.0
 40
4.0
 41
0.0
 71
     2
 72
     1
  1
\A1;101.6 [4]
  7
SLDTEXTSTYLE0
 73
     1
 44
1.0
  0
POINT
  5
1A8
330
1A0
100
AcDbEntity
  8
Defpoints
 62
     0
100
AcDbPoint
 10
184.9750000000002
 20
41.52900000000011
 30
0.0
  0
POINT
  5
1A9
330
1A0
100
AcDbEntity
  8
Defpoints
 62
     0
100
AcDbPoint
 10
83.3750000000002
 20
41.52886653488484
 30
0.0
  0
POINT
  5
1AA
330
1A0
100
AcDbEntity
  8
Defpoints
 62
     0
100
AcDbPoint
 10
83.3750000000002
 20
56.52899999999998
 30
0.0
  0
ENDBLK
  5
1AB
330
1A0
100
AcDbEntity
  8
0
100
AcDbBlockEnd
  0
BLOCK
  5
1AE
330
1AD
100
AcDbEntity
  8
0
100
AcDbBlockBegin
  2
*D9
 70
     1
 10
0.0
 20
0.0
 30
0.0
  3
*D9
  1
*D10
  0
LINE
  5
1AF
330
1AD
100
AcDbEntity
  8
치수문자_일반주서
 62
     0
370
    -2
100
AcDbLine
 10
184.9750000000002
 20
41.59150000000011
 30
0.0
 11
184.9750000000002
 21
71.529
 31
0.0
  0
LINE
  5
1B0
330
1AD
100
AcDbEntity
  8
치수문자_일반주서
 62
     0
370
    -2
100
AcDbLine
 10
19.87500000000015
 20
39.68649999999997
 30
0.0
 11
19.87500000000016
 21
71.529
 31
0.0
  0
LINE
  5
1B1
330
1AD
100
AcDbEntity
  8
치수문자_일반주서
 62
     0
370
    -2
100
AcDbLine
 10
181.6730000000002
 20
71.529
 30
0.0
 11
23.17700000000016
 21
71.529
 31
0.0
  0
SOLID
  5
1B2
330
1AD
100
AcDbEntity
  8
치수문자_일반주서
 62
     0
100
AcDbTrace
 10
181.6730000000002
 20
70.97866666666667
 30
0.0
 11
181.6730000000002
 21
72.07933333333332
 31
0.0
 12
184.9750000000002
 22
71.529
 32
0.0
 13
184.9750000000002
 23
71.529
 33
0.0
  0
SOLID
  5
1B3
330
1AD
100
AcDbEntity
  8
치수문자_일반주서
 62
     0
100
AcDbTrace
 10
23.17700000000016
 20
72.07933333333332
 30
0.0
 11
23.17700000000016
 21
70.97866666666667
 31
0.0
 12
19.87500000000016
 22
71.529
 32
0.0
 13
19.87500000000016
 23
71.529
 33
0.0
  0
MTEXT
  5
1B4
330
1AD
100
AcDbEntity
  8
치수문자_일반주서
100
AcDbMText
 10
102.4250000000001
 20
76.404
 30
0.0
 40
4.0
 41
0.0
 71
     2
 72
     1
  1
\A1;165.1 [6 1/2]
  7
SLDTEXTSTYLE0
 73
     1
 44
1.0
  0
POINT
  5
1B5
330
1AD
100
AcDbEntity
  8
Defpoints
 62
     0
100
AcDbPoint
 10
184.9750000000002
 20
41.52900000000011
 30
0.0
  0
POINT
  5
1B6
330
1AD
100
AcDbEntity
  8
Defpoints
 62
     0
100
AcDbPoint
 10
19.87500000000015
 20
39.62399999999997
 30
0.0
  0
POINT
  5
1B7
330
1AD
100
AcDbEntity
  8
Defpoints
 62
     0
100
AcDbPoint
 10
19.87500000000015
 20
71.529
 30
0.0
  0
ENDBLK
  5
1B8
330
1AD
100
AcDbEntity
  8
0
100
AcDbBlockEnd
  0
BLOCK
  5
1BB
330
1BA
100
AcDbEntity
  8
0
100
AcDbBlockBegin
  2
*D10
 70
     1
 10
0.0
 20
0.0
 30
0.0
  3
*D10
  1
*D11
  0
LINE
  5
1BC
330
1BA
100
AcDbEntity
  8
치수문자_일반주서
 62
     0
370
    -2
100
AcDbLine
 10
185.0375000000002
 20
44.70400000000011
 30
0.0
 11
205.0390655679534
 21
44.70400000000018
 31
0.0
  0
LINE
  5
1BD
330
1BA
100
AcDbEntity
  8
치수문자_일반주서
 62
     0
370
    -2
100
AcDbLine
 10
185.0375000000002
 20
6.603999999999921
 30
0.0
 11
205.0390655679536
 21
6.603999999999992
 31
0.0
  0
LINE
  5
1BE
330
1BA
100
AcDbEntity
  8
치수문자_일반주서
 62
     0
370
    -2
100
AcDbLine
 10
205.0390655679534
 20
44.70400000000018
 30
0.0
 11
205.0390655679536
 21
6.603999999999992
 31
0.0
  0
LINE
  5
1BF
330
1BA
100
AcDbEntity
  8
치수문자_일반주서
 62
     0
370
    -2
100
AcDbLine
 10
205.0390655679534
 20
48.00600000000018
 30
0.0
 11
205.0390655679534
 21
51.30800000000018
 31
0.0
  0
LINE
  5
1C0
330
1BA
100
AcDbEntity
  8
치수문자_일반주서
 62
     0
370
    -2
100
AcDbLine
 10
205.0390655679536
 20
3.301999999999992
 30
0.0
 11
205.0390655679536
 21
-0.0000000000000071
 31
0.0
  0
SOLID
  5
1C1
330
1BA
100
AcDbEntity
  8
치수문자_일반주서
 62
     0
100
AcDbTrace
 10
204.4887322346201
 20
48.00600000000018
 30
0.0
 11
205.5893989012868
 21
48.00600000000018
 31
0.0
 12
205.0390655679534
 22
44.70400000000018
 32
0.0
 13
205.0390655679534
 23
44.70400000000018
 33
0.0
  0
SOLID
  5
1C2
330
1BA
100
AcDbEntity
  8
치수문자_일반주서
 62
     0
100
AcDbTrace
 10
205.5893989012869
 20
3.301999999999995
 30
0.0
 11
204.4887322346202
 21
3.30199999999999
 31
0.0
 12
205.0390655679536
 22
6.603999999999992
 32
0.0
 13
205.0390655679536
 23
6.603999999999992
 33
0.0
  0
MTEXT
  5
1C3
330
1BA
100
AcDbEntity
  8
치수문자_일반주서
100
AcDbMText
 10
200.1640655679535
 20
25.65400000000006
 30
0.0
 40
4.0
 41
0.0
 71
     2
 72
     1
  1
\A1;%%c38.1 [1 1/2]
  7
SLDTEXTSTYLE0
 11
-3.729883127349590E-15
 21
1.0
 31
0.0
 73
     1
 44
1.0
  0
POINT
  5
1C4
330
1BA
100
AcDbEntity
  8
Defpoints
 62
     0
100
AcDbPoint
 10
184.9750000000002
 20
44.70400000000011
 30
0.0
  0
POINT
  5
1C5
330
1BA
100
AcDbEntity
  8
Defpoints
 62
     0
100
AcDbPoint
 10
184.9750000000002
 20
6.603999999999921
 30
0.0
  0
POINT
  5
1C6
330
1BA
100
AcDbEntity
  8
Defpoints
 62
     0
100
AcDbPoint
 10
205.0390655679536
 20
6.603999999999996
 30
0.0
  0
ENDBLK
  5
1C7
330
1BA
100
AcDbEntity
  8
0
100
AcDbBlockEnd
  0
BLOCK
  5
21F
330
21E
100
AcDbEntity
  8
0
100
AcDbBlockBegin
  2
*D11
 70
     1
 10
0.0
 20
0.0
 30
0.0
  3
*D11
  1
*D12
  0
LINE
  5
221
330
21E
100
AcDbEntity
  8
치수문자_일반주서
 62
     0
370
    -2
100
AcDbLine
 10
-48.38750000000063
 20
12.7
 30
0.0
 11
-66.50000000000063
 21
12.69999999999993
 31
0.0
  0
LINE
  5
222
330
21E
100
AcDbEntity
  8
치수문자_일반주서
 62
     0
370
    -2
100
AcDbLine
 10
-48.38750000000063
 20
-12.7
 30
0.0
 11
-66.50000000000054
 21
-12.70000000000007
 31
0.0
  0
LINE
  5
223
330
21E
100
AcDbEntity
  8
치수문자_일반주서
 62
     0
370
    -2
100
AcDbLine
 10
-66.50000000000063
 20
12.69999999999993
 30
0.0
 11
-66.50000000000077
 21
51.72899999999989
 31
0.0
  0
LINE
  5
224
330
21E
100
AcDbEntity
  8
치수문자_일반주서
 62
     0
370
    -2
100
AcDbLine
 10
-66.50000000000061
 20
9.397999999999932
 30
0.0
 11
-66.50000000000055
 21
-9.398000000000074
 31
0.0
  0
SOLID
  5
225
330
21E
100
AcDbEntity
  8
치수문자_일반주서
 62
     0
100
AcDbTrace
 10
-65.94966666666728
 20
9.397999999999934
 30
0.0
 11
-67.05033333333394
 21
9.39799999999993
 31
0.0
 12
-66.50000000000063
 22
12.69999999999993
 32
0.0
 13
-66.50000000000063
 23
12.69999999999993
 33
0.0
  0
SOLID
  5
226
330
21E
100
AcDbEntity
  8
치수문자_일반주서
 62
     0
100
AcDbTrace
 10
-67.05033333333388
 20
-9.398000000000076
 30
0.0
 11
-65.94966666666723
 21
-9.398000000000073
 31
0.0
 12
-66.50000000000054
 22
-12.70000000000007
 32
0.0
 13
-66.50000000000054
 23
-12.70000000000007
 33
0.0
  0
MTEXT
  5
227
330
21E
100
AcDbEntity
  8
치수문자_일반주서
100
AcDbMText
 10
-71.37500000000072
 20
40.35399999999988
 30
0.0
 40
4.0
 41
0.0
 71
     2
 72
     1
  1
\A1;%%c25.4 [1]
  7
SLDTEXTSTYLE0
 11
-3.356894814614646E-15
 21
1.0
 31
0.0
 73
     1
 44
1.0
  0
POINT
  5
228
330
21E
100
AcDbEntity
  8
Defpoints
 62
     0
100
AcDbPoint
 10
-48.32500000000063
 20
12.7
 30
0.0
  0
POINT
  5
229
330
21E
100
AcDbEntity
  8
Defpoints
 62
     0
100
AcDbPoint
 10
-48.32500000000063
 20
-12.7
 30
0.0
  0
POINT
  5
22A
330
21E
100
AcDbEntity
  8
Defpoints
 62
     0
100
AcDbPoint
 10
-66.50000000000054
 20
-12.70000000000007
 30
0.0
  0
ENDBLK
  5
220
330
21E
100
AcDbEntity
  8
0
100
AcDbBlockEnd
  0
BLOCK
  5
22C
330
22B
100
AcDbEntity
  8
0
100
AcDbBlockBegin
  2
*D12
 70
     1
 10
0.0
 20
0.0
 30
0.0
  3
*D12
  1
*D13
  0
LINE
  5
22E
330
22B
100
AcDbEntity
  8
치수문자_일반주서
 62
     0
370
    -2
100
AcDbLine
 10
113.5999999999994
 20
15.93750000000015
 30
0.0
 11
113.5999999999994
 21
30.87500000000002
 31
0.0
  0
LINE
  5
22F
330
22B
100
AcDbEntity
  8
치수문자_일반주서
 62
     0
370
    -2
100
AcDbLine
 10
11.99999999999942
 20
15.93736653488488
 30
0.0
 11
11.99999999999942
 21
30.87500000000002
 31
0.0
  0
LINE
  5
230
330
22B
100
AcDbEntity
  8
치수문자_일반주서
 62
     0
370
    -2
100
AcDbLine
 10
110.2979999999994
 20
30.87500000000002
 30
0.0
 11
15.30199999999942
 21
30.87500000000002
 31
0.0
  0
SOLID
  5
231
330
22B
100
AcDbEntity
  8
치수문자_일반주서
 62
     0
100
AcDbTrace
 10
110.2979999999994
 20
30.32466666666669
 30
0.0
 11
110.2979999999994
 21
31.42533333333336
 31
0.0
 12
113.5999999999994
 22
30.87500000000002
 32
0.0
 13
113.5999999999994
 23
30.87500000000002
 33
0.0
  0
SOLID
  5
232
330
22B
100
AcDbEntity
  8
치수문자_일반주서
 62
     0
100
AcDbTrace
 10
15.30199999999942
 20
31.42533333333336
 30
0.0
 11
15.30199999999942
 21
30.32466666666669
 31
0.0
 12
11.99999999999942
 22
30.87500000000002
 32
0.0
 13
11.99999999999942
 23
30.87500000000002
 33
0.0
  0
MTEXT
  5
233
330
22B
100
AcDbEntity
  8
치수문자_일반주서
100
AcDbMText
 10
62.7999999999994
 20
35.75000000000002
 30
0.0
 40
4.0
 41
0.0
 71
     2
 72
     1
  1
\A1;101.6 [4]
  7
SLDTEXTSTYLE0
 73
     1
 44
1.0
  0
POINT
  5
234
330
22B
100
AcDbEntity
  8
Defpoints
 62
     0
100
AcDbPoint
 10
113.5999999999994
 20
15.87500000000015
 30
0.0
  0
POINT
  5
235
330
22B
100
AcDbEntity
  8
Defpoints
 62
     0
100
AcDbPoint
 10
11.99999999999942
 20
15.87486653488488
 30
0.0
  0
POINT
  5
236
330
22B
100
AcDbEntity
  8
Defpoints
 62
     0
100
AcDbPoint
 10
11.99999999999942
 20
30.87500000000002
 30
0.0
  0
ENDBLK
  5
22D
330
22B
100
AcDbEntity
  8
0
100
AcDbBlockEnd
  0
BLOCK
  5
238
330
237
100
AcDbEntity
  8
0
100
AcDbBlockBegin
  2
*D13
 70
     1
 10
0.0
 20
0.0
 30
0.0
  3
*D13
  1
*D14
  0
LINE
  5
23A
330
237
100
AcDbEntity
  8
치수문자_일반주서
 62
     0
370
    -2
100
AcDbLine
 10
113.5999999999994
 20
15.93750000000015
 30
0.0
 11
113.5999999999994
 21
45.87500000000004
 31
0.0
  0
LINE
  5
23B
330
237
100
AcDbEntity
  8
치수문자_일반주서
 62
     0
370
    -2
100
AcDbLine
 10
-51.50000000000063
 20
14.03250000000001
 30
0.0
 11
-51.50000000000061
 21
45.87500000000004
 31
0.0
  0
LINE
  5
23C
330
237
100
AcDbEntity
  8
치수문자_일반주서
 62
     0
370
    -2
100
AcDbLine
 10
110.2979999999994
 20
45.87500000000004
 30
0.0
 11
-48.19800000000061
 21
45.87500000000004
 31
0.0
  0
SOLID
  5
23D
330
237
100
AcDbEntity
  8
치수문자_일반주서
 62
     0
100
AcDbTrace
 10
110.2979999999994
 20
45.3246666666667
 30
0.0
 11
110.2979999999994
 21
46.42533333333337
 31
0.0
 12
113.5999999999994
 22
45.87500000000004
 32
0.0
 13
113.5999999999994
 23
45.87500000000004
 33
0.0
  0
SOLID
  5
23E
330
237
100
AcDbEntity
  8
치수문자_일반주서
 62
     0
100
AcDbTrace
 10
-48.19800000000061
 20
46.42533333333337
 30
0.0
 11
-48.19800000000061
 21
45.3246666666667
 31
0.0
 12
-51.50000000000061
 22
45.87500000000004
 32
0.0
 13
-51.50000000000061
 23
45.87500000000004
 33
0.0
  0
MTEXT
  5
23F
330
237
100
AcDbEntity
  8
치수문자_일반주서
100
AcDbMText
 10
31.04999999999936
 20
50.75000000000004
 30
0.0
 40
4.0
 41
0.0
 71
     2
 72
     1
  1
\A1;165.1 [6 1/2]
  7
SLDTEXTSTYLE0
 73
     1
 44
1.0
  0
POINT
  5
240
330
237
100
AcDbEntity
  8
Defpoints
 62
     0
100
AcDbPoint
 10
113.5999999999994
 20
15.87500000000015
 30
0.0
  0
POINT
  5
241
330
237
100
AcDbEntity
  8
Defpoints
 62
     0
100
AcDbPoint
 10
-51.50000000000063
 20
13.97000000000001
 30
0.0
  0
POINT
  5
242
330
237
100
AcDbEntity
  8
Defpoints
 62
     0
100
AcDbPoint
 10
-51.50000000000063
 20
45.87500000000004
 30
0.0
  0
ENDBLK
  5
239
330
237
100
AcDbEntity
  8
0
100
AcDbBlockEnd
  0
BLOCK
  5
244
330
243
100
AcDbEntity
  8
0
100
AcDbBlockBegin
  2
*D14
 70
     1
 10
0.0
 20
0.0
 30
0.0
  3
*D14
  1
*D15
  0
LINE
  5
246
330
243
100
AcDbEntity
  8
치수문자_일반주서
 62
     0
370
    -2
100
AcDbLine
 10
113.6624999999994
 20
19.05000000000015
 30
0.0
 11
133.6640655679526
 21
19.05000000000022
 31
0.0
  0
LINE
  5
247
330
243
100
AcDbEntity
  8
치수문자_일반주서
 62
     0
370
    -2
100
AcDbLine
 10
113.6624999999994
 20
-19.05000000000004
 30
0.0
 11
133.6640655679528
 21
-19.04999999999997
 31
0.0
  0
LINE
  5
248
330
243
100
AcDbEntity
  8
치수문자_일반주서
 62
     0
370
    -2
100
AcDbLine
 10
133.6640655679526
 20
19.05000000000022
 30
0.0
 11
133.6640655679528
 21
-19.04999999999997
 31
0.0
  0
LINE
  5
249
330
243
100
AcDbEntity
  8
치수문자_일반주서
 62
     0
370
    -2
100
AcDbLine
 10
133.6640655679526
 20
22.35200000000022
 30
0.0
 11
133.6640655679526
 21
25.65400000000022
 31
0.0
  0
LINE
  5
24A
330
243
100
AcDbEntity
  8
치수문자_일반주서
 62
     0
370
    -2
100
AcDbLine
 10
133.6640655679528
 20
-22.35199999999996
 30
0.0
 11
133.6640655679528
 21
-25.65399999999996
 31
0.0
  0
SOLID
  5
24B
330
243
100
AcDbEntity
  8
치수문자_일반주서
 62
     0
100
AcDbTrace
 10
133.1137322346193
 20
22.35200000000022
 30
0.0
 11
134.214398901286
 21
22.35200000000022
 31
0.0
 12
133.6640655679526
 22
19.05000000000022
 32
0.0
 13
133.6640655679526
 23
19.05000000000022
 33
0.0
  0
SOLID
  5
24C
330
243
100
AcDbEntity
  8
치수문자_일반주서
 62
     0
100
AcDbTrace
 10
134.2143989012861
 20
-22.35199999999996
 30
0.0
 11
133.1137322346194
 21
-22.35199999999997
 31
0.0
 12
133.6640655679528
 22
-19.04999999999997
 32
0.0
 13
133.6640655679528
 23
-19.04999999999997
 33
0.0
  0
MTEXT
  5
24D
330
243
100
AcDbEntity
  8
치수문자_일반주서
100
AcDbMText
 10
128.7890655679527
 20
0.0000000000000955
 30
0.0
 40
4.0
 41
0.0
 71
     2
 72
     1
  1
\A1;%%c38.1 [1 1/2]
  7
SLDTEXTSTYLE0
 11
-3.729883127349589E-15
 21
1.0
 31
0.0
 73
     1
 44
1.0
  0
POINT
  5
24E
330
243
100
AcDbEntity
  8
Defpoints
 62
     0
100
AcDbPoint
 10
113.5999999999994
 20
19.05000000000015
 30
0.0
  0
POINT
  5
24F
330
243
100
AcDbEntity
  8
Defpoints
 62
     0
100
AcDbPoint
 10
113.5999999999994
 20
-19.05000000000004
 30
0.0
  0
POINT
  5
250
330
243
100
AcDbEntity
  8
Defpoints
 62
     0
100
AcDbPoint
 10
133.6640655679528
 20
-19.04999999999997
 30
0.0
  0
ENDBLK
  5
245
330
243
100
AcDbEntity
  8
0
100
AcDbBlockEnd
  0
ENDSEC
  0
SECTION
  2
ENTITIES
  0
LINE
  5
B5
330
1F
100
AcDbEntity
  8
참조1
100
AcDbLine
 10
18.41194598552359
 20
0.0010749287238892
 30
0.0
 11
18.4119459855236
 21
-39.99892507127611
 31
0.0
  0
LINE
  5
B6
330
1F
100
AcDbEntity
  8
참조1
100
AcDbLine
 10
18.4119459855236
 20
-39.99892507127611
 30
0.0
 11
3.253089171214916
 21
-39.9989250712761
 31
0.0
  0
INSERT
  5
B8
330
1F
100
AcDbEntity
  8
0
  6
Continuous
 62
     7
100
AcDbBlockReference
 66
     1
  2
블럭10
 10
4.471673053398387
 20
-52.04609937292004
 30
0.0
  0
ATTRIB
  5
B9
330
B8
100
AcDbEntity
  8
FORMAT
 62
     2
100
AcDbText
 10
-4.709622235342893
 20
-49.97073246008785
 30
0.0
 40
4.233333333333333
  1
E2035902 [ 6 FLUTE ]
 41
0.75
  7
SLDTEXTSTYLE0
 11
-4.709622235342893
 21
-52.08739912675452
 31
0.0
100
AcDbAttribute
  2
AUTOATTR0
 70
     0
 74
     1
  0
SEQEND
  5
BA
330
B8
100
AcDbEntity
  8
0
  6
Continuous
 62
     7
  0
HATCH
  5
BB
330
1F
100
AcDbEntity
  8
중심선
100
AcDbHatch
 10
0.0
 20
0.0
 30
0.0
210
0.0
220
0.0
230
1.0
  2
SOLID
 70
     1
 71
     0
 91
        1
 92
        0
 93
        4
 72
     1
 10
10.18658235777922
 20
-35.7989250712761
 11
6.74030711394194
 21
-35.7989250712761
 72
     1
 10
6.74030711394194
 20
-35.7989250712761
 11
4.612077254737917
 21
-38.3352506518487
 72
     1
 10
4.612077254737917
 20
-38.3352506518487
 11
8.058385583688349
 21
-38.33521122254621
 72
     1
 10
8.058385583688349
 20
-38.33521122254621
 11
10.18658235777922
 21
-35.7989250712761
 97
        0
 75
     0
 76
     1
 98
        1
 10
0.0
 20
0.0
  0
HATCH
  5
BC
330
1F
100
AcDbEntity
  8
중심선
100
AcDbHatch
 10
0.0
 20
0.0
 30
0.0
210
0.0
220
0.0
230
1.0
  2
SOLID
 70
     1
 71
     0
 91
        1
 92
        0
 93
        4
 72
     1
 10
15.1993463488152
 20
-35.7989250712761
 11
11.75307110497792
 21
-35.7989250712761
 72
     1
 10
11.75307110497792
 20
-35.7989250712761
 11
7.221933096620504
 21
-41.19892507127612
 72
     1
 10
7.221933096620504
 20
-41.19892507127612
 11
10.66820834045778
 21
-41.19892507127612
 72
     1
 10
10.66820834045778
 20
-41.19892507127612
 11
15.1993463488152
 21
-35.7989250712761
 97
        0
 75
     0
 76
     1
 98
        1
 10
0.0
 20
0.0
  0
HATCH
  5
BD
330
1F
100
AcDbEntity
  8
중심선
100
AcDbHatch
 10
0.0
 20
0.0
 30
0.0
210
0.0
220
0.0
230
1.0
  2
SOLID
 70
     1
 71
     0
 91
        1
 92
        0
 93
        4
 72
     1
 10
20.21211033985107
 20
-35.7989250712761
 11
16.76583509601396
 21
-35.7989250712761
 72
     1
 10
16.76583509601396
 20
-35.7989250712761
 11
9.717398194124705
 21
-44.19892507127612
 72
     1
 10
9.717398194124705
 20
-44.19892507127612
 11
13.16367343796199
 21
-44.19892507127612
 72
     1
 10
13.16367343796199
 20
-44.19892507127612
 11
20.21211033985107
 21
-35.7989250712761
 97
        0
 75
     0
 76
     1
 98
        1
 10
0.0
 20
0.0
  0
HATCH
  5
BE
330
1F
100
AcDbEntity
  8
중심선
100
AcDbHatch
 10
0.0
 20
0.0
 30
0.0
210
0.0
220
0.0
230
1.0
  2
SOLID
 70
     1
 71
     0
 91
        1
 92
        0
 93
        6
 72
     3
 10
25.01200077086327
 20
-39.99892507132738
 11
3.960054785062284
 21
1.540850780301639E-10
 40
0.3939339440162633
 50
17.09539180608432
 51
320.0019657685075
 73
     0
 72
     1
 10
26.69500042656387
 20
-38.58681907591438
 11
29.0003023002649
 21
-36.65249236586649
 72
     3
 10
25.01200077081042
 20
-39.99892507127625
 11
6.600054785286829
 21
-1.249000902703301E-13
 40
0.6363583540795982
 50
39.99873849337406
 51
368.4976242363724
 73
     1
 72
     1
 10
31.43733326271103
 20
-39.03892507120613
 11
23.69206807764634
 21
-39.0389250712061
 72
     1
 10
23.69206807764634
 20
-39.0389250712061
 11
23.69204303320041
 21
-40.95892507120602
 72
     1
 10
23.69204303320041
 20
-40.95892507120602
 11
28.13342280267245
 21
-40.95892507120599
 97
        0
 75
     0
 76
     1
 98
        1
 10
0.0
 20
0.0
  0
LINE
  5
10F
330
1F
100
AcDbEntity
  8
참조1
100
AcDbLine
 10
101.2254298008692
 20
7.441074928723896
 30
0.0
 11
101.2254298008692
 21
-7.438925071276109
 31
0.0
  0
LINE
  5
110
330
1F
100
AcDbEntity
  8
참조1
100
AcDbLine
 10
113.9254298008692
 20
5.441074928723896
 30
0.0
 11
101.2254298008692
 21
5.441074928723896
 31
0.0
  0
SOLID
  5
111
330
1F
100
AcDbEntity
  8
참조1
100
AcDbTrace
 10
101.2254298008692
 20
5.441074928723896
 30
0.0
 11
107.5754298008692
 21
4.425074928723896
 31
0.0
 12
107.5754298008692
 22
6.457074928723896
 32
0.0
 13
107.5754298008692
 23
6.457074928723896
 33
0.0
  0
LINE
  5
112
330
1F
100
AcDbEntity
  8
참조1
100
AcDbLine
 10
113.9254298008692
 20
-5.438925071276109
 30
0.0
 11
101.2254298008692
 21
-5.438925071276109
 31
0.0
  0
SOLID
  5
113
330
1F
100
AcDbEntity
  8
참조1
100
AcDbTrace
 10
101.2254298008692
 20
-5.438925071276109
 30
0.0
 11
107.5754298008692
 21
-6.454925071276109
 31
0.0
 12
107.5754298008692
 22
-4.422925071276109
 32
0.0
 13
107.5754298008692
 23
-4.422925071276109
 33
0.0
  0
MTEXT
  5
114
330
1F
100
AcDbEntity
  8
참조1
100
AcDbMText
 10
110.6229198933395
 20
10.98929157337383
 30
0.0
 40
3.5
 41
0.0
 71
     1
 72
     1
  1
A
  7
SLDTEXTSTYLE0
 73
     1
 44
1.0
  0
MTEXT
  5
115
330
1F
100
AcDbEntity
  8
참조1
100
AcDbMText
 10
110.6229198933395
 20
0.1092915733738259
 30
0.0
 40
3.5
 41
0.0
 71
     1
 72
     1
  1
A
  7
SLDTEXTSTYLE0
 73
     1
 44
1.0
  0
LINE
  5
1E4
330
1F
100
AcDbEntity
  8
0
  6
Continuous
 62
     1
370
    15
100
AcDbLine
 10
17.96428732087726
 20
3.544322098538437
 30
0.0
 11
17.6916026201353
 21
3.80965362429572
 31
0.0
1001
PE_URL
1000

  0
LINE
  5
1E5
330
1F
100
AcDbEntity
  8
0
  6
Continuous
 62
     1
370
    15
100
AcDbLine
 10
111.295936452501
 20
-19.05000000000004
 30
0.0
 11
113.5999999999994
 21
-19.05000000000004
 31
0.0
1001
PE_URL
1000

  0
LINE
  5
1E6
330
1F
100
AcDbEntity
  8
0
  6
Continuous
 62
     1
370
    15
100
AcDbLine
 10
56.05427272068465
 20
19.04999999999999
 30
0.0
 11
51.45065847777508
 21
19.04999999999999
 31
0.0
1001
PE_URL
1000

  0
LINE
  5
1E7
330
1F
100
AcDbEntity
  8
0
  6
Continuous
 62
     1
370
    15
100
AcDbLine
 10
31.49957412051241
 20
-19.05000000000004
 30
0.0
 11
36.10611551252227
 21
-19.05000000000004
 31
0.0
1001
PE_URL
1000

  0
LINE
  5
1E8
330
1F
100
AcDbEntity
  8
0
  6
Continuous
 62
     1
370
    15
100
AcDbLine
 10
95.9539488249611
 20
19.04999999999999
 30
0.0
 11
91.34931643665148
 21
19.04999999999999
 31
0.0
1001
PE_URL
1000

  0
LINE
  5
1E9
330
1F
100
AcDbEntity
  8
0
  6
Continuous
 62
     1
370
    15
100
AcDbLine
 10
76.00540314231056
 20
19.04999999999999
 30
0.0
 11
71.39922895296083
 21
19.04999999999999
 31
0.0
1001
PE_URL
1000

  0
LINE
  5
1EA
330
1F
100
AcDbEntity
  8
0
  6
Continuous
 62
     1
370
    15
100
AcDbLine
 10
51.45065847777515
 20
-19.05000000000004
 30
0.0
 11
56.05427272068451
 21
-19.05000000000004
 31
0.0
1001
PE_URL
1000

  0
LINE
  5
1EB
330
1F
100
AcDbEntity
  8
0
  6
Continuous
 62
     1
370
    15
100
AcDbLine
 10
113.5999999999994
 20
19.04999999999999
 30
0.0
 11
111.295936452501
 21
19.04999999999999
 31
0.0
1001
PE_URL
1000

  0
LINE
  5
1EC
330
1F
100
AcDbEntity
  8
0
  6
Continuous
 62
     1
370
    15
100
AcDbLine
 10
91.34931643665136
 20
-19.05000000000004
 30
0.0
 11
95.9539488249611
 21
-19.05000000000004
 31
0.0
1001
PE_URL
1000

  0
LINE
  5
1ED
330
1F
100
AcDbEntity
  8
0
  6
Continuous
 62
     1
370
    15
100
AcDbLine
 10
36.10611551252227
 20
19.04999999999999
 30
0.0
 11
31.49957412051226
 21
19.04999999999999
 31
0.0
1001
PE_URL
1000

  0
LINE
  5
1EE
330
1F
100
AcDbEntity
  8
0
  6
Continuous
 62
     1
370
    15
100
AcDbLine
 10
71.39922895296071
 20
-19.05000000000004
 30
0.0
 11
76.00540314231047
 21
-19.05000000000004
 31
0.0
1001
PE_URL
1000

  0
LINE
  5
1EF
330
1F
100
AcDbEntity
  8
외형선
  6
Continuous
370
    15
100
AcDbLine
 10
-48.32500000000063
 20
-12.7
 30
0.0
 11
11.99999999999942
 21
-12.7
 31
0.0
  0
LINE
  5
1F1
330
1F
100
AcDbEntity
  8
외형선
  6
Continuous
370
    15
100
AcDbLine
 10
-51.50000000000063
 20
-9.525000000000013
 30
0.0
 11
-48.32500000000063
 21
-12.70000000000001
 31
0.0
  0
LINE
  5
1F2
330
1F
100
AcDbEntity
  8
0
  6
Continuous
 62
     1
370
    15
100
AcDbLine
 10
113.5999999999994
 20
11.41867595029672
 30
0.0
 11
113.5999999999994
 21
19.05000000000015
 31
0.0
1001
PE_URL
1000

  0
SPLINE
  5
1F3
330
1F
100
AcDbEntity
  8
0
  6
Continuous
 62
     1
370
    15
100
AcDbSpline
210
0.0
220
0.0
230
1.0
 70
     8
 71
     3
 72
    13
 73
     9
 74
     0
 42
0.000000001
 43
0.00000001
 40
0.0
 40
0.0
 40
0.0
 40
0.0
 40
0.1279072623673748
 40
0.3022993142516614
 40
0.4766910737269934
 40
0.6510960999490012
 40
0.8255279206195878
 40
1.0
 40
1.0
 40
1.0
 40
1.0
 10
95.9539488249611
 20
19.00142812108505
 30
0.0
 10
96.70628424930113
 20
18.9950358341519
 30
0.0
 10
98.48437314476983
 20
18.97992813877462
 30
0.0
 10
101.2880418727056
 20
18.37694427849441
 30
0.0
 10
104.3652088773938
 20
17.30156511159441
 30
0.0
 10
107.4427292567068
 20
15.75274030831617
 30
0.0
 10
110.5209267096628
 20
13.81933565117084
 30
0.0
 10
112.5735632878803
 20
12.23646533669228
 30
0.0
 10
113.5999999999994
 20
11.44493885872446
 30
0.0
1001
PE_URL
1000

  0
SPLINE
  5
1F4
330
1F
100
AcDbEntity
  8
0
  6
Continuous
 62
     1
370
    15
100
AcDbSpline
210
0.0
220
0.0
230
1.0
 70
     8
 71
     3
 72
    11
 73
     7
 74
     0
 42
0.000000001
 43
0.00000001
 40
0.0
 40
0.0
 40
0.0
 40
0.0
 40
0.3086210507870028
 40
0.6171708885445392
 40
0.9256733300028794
 40
0.9999999999999999
 40
0.9999999999999999
 40
0.9999999999999999
 40
0.9999999999999999
 10
113.5999999999994
 20
19.05000000000015
 30
0.0
 10
112.5735629498754
 20
18.98902909877429
 30
0.0
 10
110.5209256957261
 20
19.1451020981908
 30
0.0
 10
107.4427333111024
 20
18.71396663005988
 30
0.0
 10
105.1437875854272
 20
18.15716886212422
 30
0.0
 10
103.8708735540972
 20
17.5936224147823
 30
0.0
 10
103.6237359715302
 20
17.48420928614015
 30
0.0
1001
PE_URL
1000

  0
LINE
  5
1F5
330
1F
100
AcDbEntity
  8
0
  6
Continuous
 62
     1
370
    15
100
AcDbLine
 10
113.5999999999994
 20
-18.91098359472766
 30
0.0
 11
113.5999999999994
 21
-11.42285854440351
 31
0.0
1001
PE_URL
1000

  0
SPLINE
  5
1F6
330
1F
100
AcDbEntity
  8
0
  6
Continuous
 62
     1
370
    15
100
AcDbSpline
210
0.0
220
0.0
230
1.0
 70
     8
 71
     3
 72
    26
 73
    22
 74
     0
 42
0.000000001
 43
0.00000001
 40
0.0
 40
0.0
 40
0.0
 40
0.0
 40
0.0371984260035301
 40
0.0906876201034111
 40
0.1441888046439761
 40
0.1976923504623193
 40
0.2511833183182287
 40
0.3046657126360986
 40
0.3581436804360314
 40
0.4116213792319868
 40
0.465102967175973
 40
0.5185925931989903
 40
0.5720943871989821
 40
0.6255973924155229
 40
0.6790879053185046
 40
0.7325700231330827
 40
0.7860478935345622
 40
0.8395256742679174
 40
0.893007523290806
 40
0.9464975889155013
 40
1.0
 40
1.0
 40
1.0
 40
1.0
 10
56.05427272068465
 20
18.99739058964287
 30
0.0
 10
56.76775299582955
 20
18.99508200024002
 30
0.0
 10
58.50717681278026
 20
18.98945379224218
 30
0.0
 10
61.27298580913329
 20
18.40823389332272
 30
0.0
 10
64.35197294419957
 20
17.35009290363565
 30
0.0
 10
67.43112287876905
 20
15.82169381530386
 30
0.0
 10
70.50938882826593
 20
13.88592055369518
 30
0.0
 10
73.58695939615164
 20
11.58728822068186
 30
0.0
 10
76.66413707897932
 20
8.987290984323408
 30
0.0
 10
79.74129249999929
 20
6.153123060801192
 30
0.0
 10
82.81879058512227
 20
3.158612365021938
 30
0.0
 10
85.89695364891425
 20
0.0815546763335178
 30
0.0
 10
88.97598588421404
 20
-2.997577785384792
 30
0.0
 10
92.05509873701878
 20
-5.998588175510449
 30
0.0
 10
95.13333026923591
 20
-8.843388526069923
 30
0.0
 10
98.21087612618346
 20
-11.45774728356151
 30
0.0
 10
101.2880456967303
 20
-13.77289809170353
 30
0.0
 10
104.3652078530213
 20
-15.7318548055784
 30
0.0
 10
107.4427295299264
 20
-17.27163941503174
 30
0.0
 10
110.5209266413351
 20
-18.3969672879295
 30
0.0
 10
112.5735632651026
 20
-18.73963164621076
 30
0.0
 10
113.5999999999994
 20
-18.91098359472767
 30
0.0
1001
PE_URL
1000

  0
SPLINE
  5
1F7
330
1F
100
AcDbEntity
  8
0
  6
Continuous
 62
     1
370
    15
100
AcDbSpline
210
0.0
220
0.0
230
1.0
 70
     8
 71
     3
 72
    24
 73
    20
 74
     0
 42
0.000000001
 43
0.00000001
 40
0.0
 40
0.0
 40
0.0
 40
0.0
 40
0.0617316686068705
 40
0.1234490928868414
 40
0.185157036761546
 40
0.2468602865991754
 40
0.3085636398968691
 40
0.3702718939063726
 40
0.4319898342609352
 40
0.4937221883838708
 40
0.5554531449918705
 40
0.6171700620546045
 40
0.6788777046936091
 40
0.7405808599909675
 40
0.8022843256680651
 40
0.8639928987100992
 40
0.9257113639943381
 40
0.9874443418695613
 40
0.9999999999999999
 40
0.9999999999999999
 40
0.9999999999999999
 40
0.9999999999999999
 10
113.5999999999994
 20
-11.44493885872443
 30
0.0
 10
112.5735632651027
 20
-10.59584219094943
 30
0.0
 10
110.5209266413352
 20
-8.897844780939383
 30
0.0
 10
107.4427295299258
 20
-6.038977970460476
 30
0.0
 10
104.3652078530229
 20
-3.044449977050078
 30
0.0
 10
101.2880456967234
 20
0.0350000128262877
 30
0.0
 10
98.2108761262083
 20
3.112005146502341
 30
0.0
 10
95.13333026914357
 20
6.108477412802781
 30
0.0
 10
92.05509873736317
 20
8.945972463637993
 30
0.0
 10
88.97598588292836
 20
11.55032938212089
 30
0.0
 10
85.89695365371183
 20
13.85380022280086
 30
0.0
 10
82.81879056722308
 20
15.79643138543281
 30
0.0
 10
79.7412925667871
 20
17.3272137467345
 30
0.0
 10
76.6641368297421
 20
18.40738864756965
 30
0.0
 10
73.58696032635824
 20
19.00531829259028
 30
0.0
 10
70.509385356132
 20
19.11871177518603
 30
0.0
 10
67.43113584051419
 20
18.69492111203956
 30
0.0
 10
65.16960239283581
 20
18.13320735161512
 30
0.0
 10
63.93442808253322
 20
17.58210812449045
 30
0.0
 10
63.72566901512381
 20
17.4889658370052
 30
0.0
1001
PE_URL
1000

  0
SPLINE
  5
1F8
330
1F
100
AcDbEntity
  8
0
  6
Continuous
 62
     1
370
    15
100
AcDbSpline
210
0.0
220
0.0
230
1.0
 70
     8
 71
     3
 72
    30
 73
    26
 74
     0
 42
0.000000001
 43
0.00000001
 40
0.0
 40
0.0
 40
0.0
 40
0.0
 40
0.0080384679719603
 40
0.053637270117579
 40
0.0992390128665373
 40
0.1448300145250213
 40
0.1904135568547825
 40
0.2359931738068904
 40
0.2815724086378302
 40
0.3271548055104374
 40
0.3727439010902072
 40
0.4183432161798347
 40
0.4639445437977893
 40
0.509535151158293
 40
0.5551184512513809
 40
0.6006979786020914
 40
0.6462772766794271
 40
0.6918598894962031
 40
0.7374493532061246
 40
0.7830491877409321
 40
0.828650054601389
 40
0.8742402742033395
 40
0.9198233386313515
 40
0.9654027829688948
 40
1.0
 40
1.0
 40
1.0
 40
1.0
 10
36.10611551252224
 20
19.01392929801482
 30
0.0
 10
36.28702737546335
 20
19.02531951546556
 30
0.0
 10
37.49417511728358
 20
19.10132158106252
 30
0.0
 10
39.72798281133014
 20
18.76015357993333
 30
0.0
 10
42.80713995302224
 20
17.96947713303512
 30
0.0
 10
45.88544767339771
 20
16.66549998426104
 30
0.0
 10
48.96304150963702
 20
14.93958851705813
 30
0.0
 10
52.0402285406378
 20
12.82138912827093
 30
0.0
 10
55.11737772685646
 20
10.37012002325623
 30
0.0
 10
58.19485298489577
 20
7.648427176810692
 30
0.0
 10
61.272982434078
 20
4.727325676875083
 30
0.0
 10
64.35197384867969
 20
1.683055573654052
 30
0.0
 10
67.43112263647494
 20
-1.404968457849517
 30
0.0
 10
70.50938889315934
 20
-4.456547776165174
 30
0.0
 10
73.58695937880846
 20
-7.39175139352481
 30
0.0
 10
76.66413708346882
 20
-10.13431606028433
 30
0.0
 10
79.74129249938393
 20
-12.61290867415917
 30
0.0
 10
82.81879058309342
 20
-14.76307853729488
 30
0.0
 10
85.89695365764744
 20
-16.52875613936604
 30
0.0
 10
88.97598585130241
 20
-17.86408371920632
 30
0.0
 10
92.05509885991991
 20
-18.73293745969006
 30
0.0
 10
95.13332981069046
 20
-19.11779575821294
 30
0.0
 10
98.210877837161
 20
-18.98962396512113
 30
0.0
 10
101.0409032301365
 20
-18.4682953362241
 30
0.0
 10
102.8451718404322
 20
-17.78085029127774
 30
0.0
 10
103.6237359715302
 20
-17.48420928614021
 30
0.0
1001
PE_URL
1000

  0
SPLINE
  5
1F9
330
1F
100
AcDbEntity
  8
0
  6
Continuous
 62
     1
370
    15
100
AcDbSpline
210
0.0
220
0.0
230
1.0
 70
     8
 71
     3
 72
    30
 73
    26
 74
     0
 42
0.000000001
 43
0.00000001
 40
0.0
 40
0.0
 40
0.0
 40
0.0
 40
0.0114795748025207
 40
0.0570699102497729
 40
0.1026532425717115
 40
0.1482331074332471
 40
0.193813048720186
 40
0.239396610137063
 40
0.2849873268058912
 40
0.3305886908493117
 40
0.376189022555828
 40
0.4217789833243854
 40
0.467362093125103
 40
0.5129418881502397
 40
0.5585219124512508
 40
0.6041057095357737
 40
0.6496968139673822
 40
0.6952986387733242
 40
0.7408984510289967
 40
0.7864880436633889
 40
0.8320709375175828
 40
0.8776506692956343
 40
0.9232307831990197
 40
0.9688148225228566
 40
1.0
 40
1.0
 40
1.0
 40
1.0
 10
111.295936452501
 20
-19.05000000000004
 30
0.0
 10
111.0375448407516
 20
-19.01724044822304
 30
0.0
 10
109.7529688572752
 20
-19.08708196938009
 30
0.0
 10
107.4427439307272
 20
-18.71819564884846
 30
0.0
 10
104.3652039949165
 20
-17.88711734126153
 30
0.0
 10
101.2880467304719
 20
-16.5505347412311
 30
0.0
 10
98.21087584916974
 20
-14.79349559270843
 30
0.0
 10
95.13333034347797
 20
-12.64821631987498
 30
0.0
 10
92.05509871711295
 20
-10.17399546584062
 30
0.0
 10
88.97598588957085
 20
-7.434617472465696
 30
0.0
 10
85.89695364739488
 20
-4.501571377083415
 30
0.0
 10
82.81879058584424
 20
-1.451189897418953
 30
0.0
 10
79.74129249863061
 20
1.636731637875716
 30
0.0
 10
76.66413708373172
 20
4.681917392085701
 30
0.0
 10
73.5869593785098
 20
7.605164965979391
 30
0.0
 10
70.50938889409086
 20
10.33043328213967
 30
0.0
 10
67.4311226330462
 20
12.78681772309529
 30
0.0
 10
64.35197386146571
 20
14.90998410703917
 30
0.0
 10
61.27298238637054
 20
16.64469299617475
 30
0.0
 10
58.19485316288605
 20
17.94610025032865
 30
0.0
 10
55.11737706271109
 20
18.77868590129244
 30
0.0
 10
52.04023101909303
 20
19.12676069559855
 30
0.0
 10
48.96303225946821
 20
18.95938491433294
 30
0.0
 10
46.20968214603883
 20
18.42549848059982
 30
0.0
 10
44.481867225065
 20
17.75070369557756
 30
0.0
 10
43.77999455782239
 20
17.47658867905832
 30
0.0
1001
PE_URL
1000

  0
LINE
  5
1FA
330
1F
100
AcDbEntity
  8
0
  6
Continuous
 62
     1
370
    15
100
AcDbLine
 10
113.5999999999994
 20
-7.466044736002981
 30
0.0
 11
113.5999999999994
 21
7.466044736003276
 31
0.0
1001
PE_URL
1000

  0
SPLINE
  5
1FB
330
1F
100
AcDbEntity
  8
0
  6
Continuous
 62
     1
370
    15
100
AcDbSpline
210
0.0
220
0.0
230
1.0
 70
     8
 71
     3
 72
    20
 73
    16
 74
     0
 42
0.000000001
 43
0.00000001
 40
0.0
 40
0.0
 40
0.0
 40
0.0
 40
0.0175237644289935
 40
0.0993809754567554
 40
0.1812441395232279
 40
0.2631196073115566
 40
0.3450137003713801
 40
0.4269096474154043
 40
0.5087864727326102
 40
0.5906504478610736
 40
0.6725079215618734
 40
0.7543652580095241
 40
0.83622882170409
 40
0.9181049623816441
 40
1.0
 40
1.0
 40
1.0
 40
1.0
 10
76.00540314231058
 20
19.00821602822933
 30
0.0
 10
76.22498265645784
 20
19.02111227664631
 30
0.0
 10
77.47026453608483
 20
19.09424962978772
 30
0.0
 10
79.74128941852315
 20
18.73963598606124
 30
0.0
 10
82.81879141095853
 20
17.92875287816208
 30
0.0
 10
85.89695342756211
 20
16.60846310137217
 30
0.0
 10
88.97598594353285
 20
14.86683259770485
 30
0.0
 10
92.05509872112826
 20
12.73489055422318
 30
0.0
 10
95.13333027349252
 20
10.2719164160251
 30
0.0
 10
98.2108761250431
 20
7.541296970547229
 30
0.0
 10
101.2880456970359
 20
4.614683555837594
 30
0.0
 10
104.3652078529393
 20
1.566860787551775
 30
0.0
 10
107.4427295299482
 20
-1.518139086197944
 30
0.0
 10
110.5209266413297
 20
-4.57782170521542
 30
0.0
 10
112.5735632651008
 20
-6.503229670544023
 30
0.0
 10
113.5999999999994
 20
-7.466044736002985
 30
0.0
1001
PE_URL
1000

  0
SPLINE
  5
1FC
330
1F
100
AcDbEntity
  8
0
  6
Continuous
 62
     1
370
    15
100
AcDbSpline
210
0.0
220
0.0
230
1.0
 70
     8
 71
     3
 72
    17
 73
    13
 74
     0
 42
0.000000001
 43
0.00000001
 40
0.0
 40
0.0
 40
0.0
 40
0.0
 40
0.1028915870523125
 40
0.2057594322969877
 40
0.3086114760257513
 40
0.4114556959432481
 40
0.5143000883033576
 40
0.617152648950947
 40
0.7200213543656934
 40
0.8229140840055542
 40
0.9258044843299611
 40
1.0
 40
1.0
 40
1.0
 40
1.0
 10
113.5999999999994
 20
7.466044736003276
 30
0.0
 10
112.5735632649048
 20
8.391263197280061
 30
0.0
 10
110.5209266407417
 20
10.24148662950501
 30
0.0
 10
107.4427295322998
 20
12.69806371980525
 30
0.0
 10
104.3652078441228
 20
14.8376312528715
 30
0.0
 10
101.2880457299485
 20
16.58683594146374
 30
0.0
 10
98.21087600220334
 20
17.90533191083097
 30
0.0
 10
95.13333073200864
 20
18.75606765546817
 30
0.0
 10
92.05509700945895
 20
19.1226418319432
 30
0.0
 10
88.97599233313481
 20
18.9748750178184
 30
0.0
 10
86.18295343570573
 20
18.44703362361349
 30
0.0
 10
84.4166597148219
 20
17.76556799383025
 30
0.0
 10
83.67661738728954
 20
17.4800472988092
 30
0.0
1001
PE_URL
1000

  0
SPLINE
  5
1FD
330
1F
100
AcDbEntity
  8
0
  6
Continuous
 62
     1
370
    15
100
AcDbSpline
210
0.0
220
0.0
230
1.0
 70
     8
 71
     3
 72
    30
 73
    26
 74
     0
 42
0.000000001
 43
0.00000001
 40
0.0
 40
0.0
 40
0.0
 40
0.0
 40
0.0300074465672343
 40
0.0755969340782615
 40
0.1211788105517966
 40
0.1667566092009958
 40
0.2123338729053904
 40
0.2579141458133345
 40
0.3035009649379858
 40
0.3490978517896653
 40
0.3946976791211698
 40
0.4402867658133597
 40
0.4858683934901422
 40
0.5314460959541497
 40
0.5770234163130394
 40
0.6226038985807809
 40
0.668191079274318
 40
0.7137884790484609
 40
0.7593878912663984
 40
0.8049765836771698
 40
0.8505579691274539
 40
0.8961355819938274
 40
0.9417129655964566
 40
0.9872936637992963
 40
1.0
 40
1.0
 40
1.0
 40
1.0
 10
16.15689584100555
 20
18.99406871249517
 30
0.0
 10
16.83238344528057
 20
18.99539338520305
 30
0.0
 10
18.53412077160216
 20
18.99873059668987
 30
0.0
 10
21.2615004108939
 20
18.43839300217544
 30
0.0
 10
24.33912414314749
 20
17.39890522182795
 30
0.0
 10
27.41631959602499
 20
15.88666817053431
 30
0.0
 10
30.49346362727398
 20
13.96591139196278
 30
0.0
 10
33.57091666779435
 20
11.67991661988015
 30
0.0
 10
36.64901297716169
 20
9.08984986998032
 30
0.0
 10
39.7279638627916
 20
6.262842922543481
 30
0.0
 10
42.8071450291055
 20
3.272827050872081
 30
0.0
 10
45.8854463136376
 20
0.1973546814081431
 30
0.0
 10
48.96304187394948
 20
-2.88296713841109
 30
0.0
 10
52.04022844292859
 20
-5.888075771282931
 30
0.0
 10
55.11737775340052
 20
-8.739808644983096
 30
0.0
 10
58.19485297643418
 20
-11.36399390194996
 30
0.0
 10
61.27298244137735
 20
-13.69233735908626
 30
0.0
 10
64.35197382794105
 20
-15.66400209629323
 30
0.0
 10
67.43112271212404
 20
-17.22737213914878
 30
0.0
 10
70.50938861139362
 20
-18.34266329622823
 30
0.0
 10
73.58696043003097
 20
-18.97755038082436
 30
0.0
 10
76.66413316063306
 20
-19.12736855203883
 30
0.0
 10
79.74130714001201
 20
-18.74447419409887
 30
0.0
 10
82.0787518494035
 20
-18.18066178394103
 30
0.0
 10
83.39063270230979
 20
-17.60544271417547
 30
0.0
 10
83.6766173872894
 20
-17.48004729880925
 30
0.0
1001
PE_URL
1000

  0
SPLINE
  5
1FE
330
1F
100
AcDbEntity
  8
0
  6
Continuous
 62
     1
370
    15
100
AcDbSpline
210
0.0
220
0.0
230
1.0
 70
     8
 71
     3
 72
    30
 73
    26
 74
     0
 42
0.000000001
 43
0.00000001
 40
0.0
 40
0.0
 40
0.0
 40
0.0
 40
0.0351448538892448
 40
0.0807423203176807
 40
0.1263294164598114
 40
0.1719096620645799
 40
0.2174865931020501
 40
0.2630637534009884
 40
0.3086446862463771
 40
0.3542329259796972
 40
0.3998318854137407
 40
0.4454288324239722
 40
0.4910155604550693
 40
0.5365955901268832
 40
0.5821724579212424
 40
0.6277497078169247
 40
0.6733308828864064
 40
0.7189195168972305
 40
0.7645188914407189
 40
0.8101153255335805
 40
0.8557016919993818
 40
0.9012815123134773
 40
0.9468583234539034
 40
0.9924356695338223
 40
1.0
 40
1.0
 40
1.0
 40
1.0
 10
91.34931643665136
 20
-19.0060947637653
 30
0.0
 10
90.558204728495
 20
-18.9952014486796
 30
0.0
 10
88.74069269249885
 20
-18.97017498139813
 30
0.0
 10
85.89694717287945
 20
-18.3454897876388
 30
0.0
 10
82.8187923202281
 20
-17.25023709976672
 30
0.0
 10
79.74129203398819
 20
-15.68989815348415
 30
0.0
 10
76.66413720816531
 20
-13.72519166650893
 30
0.0
 10
73.58695934540215
 20
-11.40185569860681
 30
0.0
 10
70.50938890207864
 20
-8.78174755383995
 30
0.0
 10
67.43112263420979
 20
-5.932531222049814
 30
0.0
 10
64.35197384881805
 20
-2.928930304360886
 30
0.0
 10
61.27298243578944
 20
0.1510652308132592
 30
0.0
 10
58.19485297791364
 20
3.227130985360944
 30
0.0
 10
55.11737775306914
 20
6.218883562461137
 30
0.0
 10
52.04022844277488
 20
9.048558095924427
 30
0.0
 10
48.96304187489558
 20
11.64256954524937
 30
0.0
 10
45.88544631000623
 20
13.93341133038631
 30
0.0
 10
42.80714504268809
 20
15.86152717112777
 30
0.0
 10
39.72796381208174
 20
17.37609668657128
 30
0.0
 10
36.64901316638237
 20
18.43885081123796
 30
0.0
 10
33.57091596182774
 20
19.01822853664817
 30
0.0
 10
30.49346626150232
 20
19.11330929706828
 30
0.0
 10
27.41630976557219
 20
18.66896204525877
 30
0.0
 10
25.19471179805505
 20
18.10918049003245
 30
0.0
 10
23.99870694553022
 20
17.57098682182583
 30
0.0
 10
23.8284643688625
 20
17.49437887443471
 30
0.0
1001
PE_URL
1000

  0
LINE
  5
1FF
330
1F
100
AcDbEntity
  8
0
  6
Continuous
 62
     1
370
    15
100
AcDbLine
 10
113.5999999999994
 20
-19.05000000000004
 30
0.0
 11
113.5999999999994
 21
-18.91098359472766
 31
0.0
1001
PE_URL
1000

  0
LINE
  5
200
330
1F
100
AcDbEntity
  8
0
  6
Continuous
 62
     1
370
    15
100
AcDbLine
 10
113.5999999999994
 20
7.466044736003276
 30
0.0
 11
113.5999999999994
 21
11.44493885872447
 31
0.0
1001
PE_URL
1000

  0
LINE
  5
201
330
1F
100
AcDbEntity
  8
0
  6
Continuous
 62
     1
370
    15
100
AcDbLine
 10
113.5999999999994
 20
-11.44493885872443
 30
0.0
 11
113.5999999999994
 21
-7.466044736002981
 31
0.0
1001
PE_URL
1000

  0
LINE
  5
202
330
1F
100
AcDbEntity
  8
0
  6
Continuous
 62
     1
370
    15
100
AcDbLine
 10
113.5999999999994
 20
18.91098359472762
 30
0.0
 11
113.5999999999994
 21
19.04999999999999
 31
0.0
1001
PE_URL
1000

  0
LINE
  5
205
330
1F
100
AcDbEntity
  8
외형선
  6
Continuous
370
    15
100
AcDbLine
 10
-51.50000000000063
 20
0.0
 30
0.0
 11
-51.50000000000063
 21
10.795
 31
0.0
  0
LINE
  5
206
330
1F
100
AcDbEntity
  8
외형선
  6
Continuous
370
    15
100
AcDbLine
 10
-51.50000000000063
 20
-9.525000000000013
 30
0.0
 11
-51.50000000000063
 21
0.0
 31
0.0
  0
LINE
  5
207
330
1F
100
AcDbEntity
  8
중심선
 62
     1
100
AcDbLine
 10
-58.50000000000063
 20
-0.0000000000000071
 30
0.0
 11
120.5999999999994
 21
0.0000000000000178
 31
0.0
  0
CIRCLE
  5
208
330
1F
100
AcDbEntity
  8
해칭선
100
AcDbCircle
 10
0.0
 20
0.0
 30
0.0
 40
3.000000000000001
  0
DIMENSION
  5
209
330
1F
100
AcDbEntity
  8
치수문자_일반주서
100
AcDbDimension
  2
*D11
 10
-66.50000000000054
 20
-12.70000000000007
 30
0.0
 11
-66.50000000000072
 21
40.35399999999989
 31
0.0
 70
   160
  1
%%c<>
 71
     2
 42
25.4
 52
-270.0
  3
SLDDIMSTYLE0
100
AcDbAlignedDimension
 13
-48.32500000000063
 23
12.7
 33
0.0
 14
-48.32500000000063
 24
-12.7
 34
0.0
 50
90.0000000000002
100
AcDbRotatedDimension
1001
ACAD
1000
DSTYLE
1002
{
1070
   171
1070
     8
1070
   273
1070
     7
1070
   178
1070
   256
1070
   140
1040
4.0
1002
}
1001
ACAD_DSTYLE_DIMFLIPARROW_SYMBOL
1070
   385
1070
     0
1001
ACAD_DSTYLE_DIMFLIPARROW_WHICH_SYMBOL
1070
   386
1070
     3
  0
DIMENSION
  5
20A
330
1F
100
AcDbEntity
  8
치수문자_일반주서
100
AcDbDimension
  2
*D12
 10
11.99999999999942
 20
30.87500000000002
 30
0.0
 11
62.7999999999994
 21
30.87500000000002
 31
0.0
 70
   160
  1
<>
 71
     2
 42
101.6
  3
SLDDIMSTYLE0
100
AcDbAlignedDimension
 13
113.5999999999994
 23
15.87500000000015
 33
0.0
 14
11.99999999999942
 24
15.87486653488488
 34
0.0
 50
-0.0000000000000481
100
AcDbRotatedDimension
1001
PE_URL
1000

1001
ACAD
1000
DSTYLE
1002
{
1070
   171
1070
     8
1070
   273
1070
     7
1070
   178
1070
   256
1070
   140
1040
4.0
1002
}
  0
DIMENSION
  5
20B
330
1F
100
AcDbEntity
  8
치수문자_일반주서
100
AcDbDimension
  2
*D13
 10
-51.50000000000061
 20
45.87500000000004
 30
0.0
 11
31.04999999999936
 21
45.87500000000004
 31
0.0
 70
   160
  1
<>
 71
     2
 42
165.1000000000001
  3
SLDDIMSTYLE0
100
AcDbAlignedDimension
 13
113.5999999999994
 23
15.87500000000015
 33
0.0
 14
-51.50000000000063
 24
13.97000000000001
 34
0.0
 50
0.0000000000000049
100
AcDbRotatedDimension
1001
PE_URL
1000

1001
ACAD
1000
DSTYLE
1002
{
1070
   171
1070
     8
1070
   273
1070
     7
1070
   178
1070
   256
1070
   140
1040
4.0
1002
}
  0
DIMENSION
  5
20C
330
1F
100
AcDbEntity
  8
치수문자_일반주서
100
AcDbDimension
  2
*D14
 10
133.6640655679528
 20
-19.04999999999997
 30
0.0
 11
133.6640655679527
 21
0.0000000000001137
 31
0.0
 70
   160
  1
%%c<>
 71
     2
 42
38.10000000000019
 52
-270.0
  3
SLDDIMSTYLE0
100
AcDbAlignedDimension
 13
113.5999999999994
 23
19.05000000000015
 33
0.0
 14
113.5999999999994
 24
-19.05000000000004
 34
0.0
 50
90.0000000000002
100
AcDbRotatedDimension
1001
PE_URL
1000

1001
ACAD
1000
DSTYLE
1002
{
1070
   171
1070
     8
1070
   273
1070
     7
1070
   178
1070
   256
1070
   140
1040
4.0
1002
}
1001
ACAD_DSTYLE_DIMFLIPARROW_SYMBOL
1070
   385
1070
     0
1001
ACAD_DSTYLE_DIMFLIPARROW_WHICH_SYMBOL
1070
   386
1070
     3
  0
INSERT
  5
20D
330
1F
100
AcDbEntity
  8
해칭선
100
AcDbBlockReference
  2
SW_DOWELSYMBOL_0
 10
0.0
 20
0.0
 30
0.0
  0
LINE
  5
214
330
1F
100
AcDbEntity
  8
외형선
  6
Continuous
370
    15
100
AcDbLine
 10
11.99999999999942
 20
19.05000000000015
 30
0.0
 11
11.99999999999942
 21
-19.04999999999985
 31
0.0
  0
SPLINE
  5
215
330
1F
100
AcDbEntity
  8
0
  6
Continuous
 62
     1
370
    15
100
AcDbSpline
210
0.0
220
0.0
230
1.0
 70
     8
 71
     3
 72
     8
 73
     4
 74
     0
 42
0.000000001
 43
0.00000001
 40
0.9992115239657907
 40
0.9992115239657907
 40
0.9992115239657907
 40
0.9992115239657907
 40
0.9999999999999999
 40
0.9999999999999999
 40
0.9999999999999999
 40
0.9999999999999999
 10
3.934152485486408
 20
17.50596037955338
 30
0.0
 10
3.916412017023433
 20
17.49906996311378
 30
0.0
 10
3.898671549917339
 20
17.49217861235066
 30
0.0
 10
3.880931082811244
 20
17.48528726158754
 30
0.0
  0
SPLINE
  5
216
330
1F
100
AcDbEntity
  8
0
  6
Continuous
 62
     1
370
    15
100
AcDbSpline
210
0.0
220
0.0
230
1.0
 70
     8
 71
     3
 72
    28
 73
    24
 74
     0
 42
0.000000001
 43
0.00000001
 40
0.0
 40
0.0
 40
0.0
 40
0.0
 40
0.0131780503533012
 40
0.0587681728014143
 40
0.1043690153929555
 40
0.1499678454775754
 40
0.1955564561610348
 40
0.2411383682085804
 40
0.2867171182480913
 40
0.3322962504047055
 40
0.3778793078972218
 40
0.4234698246391216
 40
0.4690710823572513
 40
0.5146693995033185
 40
0.5602576486065503
 40
0.6058393512877314
 40
0.6514180446709694
 40
0.6969972730157925
 40
0.7425805793128659
 40
0.7881714968861767
 40
0.8337731241027101
 40
0.8793709348135774
 40
0.8797395246625787
 40
0.8797395246625787
 40
0.8797395246625787
 40
0.8797395246625787
 10
71.39922895296071
 20
-18.99894244056016
 30
0.0
 10
71.10266083644758
 20
-19.01375556113516
 30
0.0
 10
69.7801005296213
 20
-19.07981541113875
 30
0.0
 10
67.43111432246779
 20
-18.6960940896999
 30
0.0
 10
64.35197607607314
 20
-17.84513204515452
 30
0.0
 10
61.27298183915055
 20
-16.49201386627934
 30
0.0
 10
58.19485313775938
 20
-14.71920881496951
 30
0.0
 10
55.11737771017846
 20
-12.56045750083825
 30
0.0
 10
52.04022845451367
 20
-10.07534262233054
 30
0.0
 10
48.96304187082973
 20
-7.327600688521841
 30
0.0
 10
45.88544631453043
 20
-4.388935577997088
 30
0.0
 10
42.80714502865419
 20
-1.335637495598547
 30
0.0
 10
39.72796386370381
 20
1.752265698824033
 30
0.0
 10
36.64901297396443
 20
4.794646447838549
 30
0.0
 10
33.57091667966749
 20
7.712086577249735
 30
0.0
 10
30.49346358298568
 20
10.42840985916062
 30
0.0
 10
27.41631976129661
 20
12.87302169474718
 30
0.0
 10
24.33912352631349
 20
14.98237804137494
 30
0.0
 10
21.26150271334056
 20
16.70148692003973
 30
0.0
 10
18.18316509769646
 20
17.98594845400884
 30
0.0
 10
15.10395884282416
 20
18.80061768137441
 30
0.0
 10
13.0428684818152
 20
19.02099322965208
 30
0.0
 10
12.00829590131741
 20
19.04448154517193
 30
0.0
 10
11.99999999999935
 20
19.04466429459874
 30
0.0
1001
PE_URL
1000

  0
SPLINE
  5
217
330
1F
100
AcDbEntity
  8
0
  6
Continuous
 62
     1
370
    15
100
AcDbSpline
210
0.0
220
0.0
230
1.0
 70
     8
 71
     3
 72
    25
 73
    21
 74
     0
 42
0.000000001
 43
0.00000001
 40
0.2339066212762866
 40
0.2339066212762866
 40
0.2339066212762866
 40
0.2339066212762866
 40
0.2342752097386359
 40
0.2798728697587037
 40
0.3254743462718247
 40
0.3710651131771154
 40
0.4166482688313229
 40
0.4622273465467568
 40
0.5078058893023738
 40
0.5533874413459888
 40
0.5989755397900198
 40
0.6445737062436132
 40
0.6901748132595514
 40
0.7357651793347566
 40
0.7813480861852292
 40
0.8269270677127722
 40
0.8725056671244743
 40
0.9180874285337619
 40
0.9636758885568254
 40
1.0
 40
1.0
 40
1.0
 40
1.0
 10
11.99999999999942
 20
12.87021371712353
 30
0.0
 10
12.0082959013685
 20
12.86409764703018
 30
0.0
 10
13.04286895122726
 20
12.10091320873973
 30
0.0
 10
15.10395862798045
 20
10.46740458952578
 30
0.0
 10
18.18316515525093
 20
7.754508152035143
 30
0.0
 10
21.26150269792377
 20
4.839435269538967
 30
0.0
 10
24.33912353044188
 20
1.798559903690649
 30
0.0
 10
27.41631976019727
 20
-1.289031936652911
 30
0.0
 10
30.49346358325467
 20
-4.34303096247298
 30
0.0
 10
33.57091667969102
 20
-7.284003886506003
 30
0.0
 10
36.64901297360124
 20
-10.03545611272085
 30
0.0
 10
39.72796386513357
 20
-12.52547601410425
 30
0.0
 10
42.8071450232987
 20
-14.68911607236464
 30
0.0
 10
45.88544633451586
 20
-16.4701218956511
 30
0.0
 10
48.96304179625753
 20
-17.8221812482251
 30
0.0
 10
52.04022873279551
 20
-18.70898631091361
 30
0.0
 10
55.11737667159204
 20
-19.1122174709815
 30
0.0
 10
58.19485701435919
 20
-19.00374324797384
 30
0.0
 10
61.06423465551468
 20
-18.48950199154871
 30
0.0
 10
62.90803580774424
 20
-17.7963457963061
 30
0.0
 10
63.7256690151237
 20
-17.48896583700525
 30
0.0
  0
SPLINE
  5
218
330
1F
100
AcDbEntity
  8
0
  6
Continuous
 62
     1
370
    15
100
AcDbSpline
210
0.0
220
0.0
230
1.0
 70
     8
 71
     3
 72
    21
 73
    17
 74
     0
 42
0.000000001
 43
0.00000001
 40
0.0
 40
0.0
 40
0.0
 40
0.0
 40
0.0416216539204289
 40
0.0931125215817198
 40
0.1446118152513567
 40
0.1961232419856894
 40
0.2476313470339563
 40
0.2991280791667198
 40
0.3506174164258174
 40
0.4021033543657236
 40
0.4535898966011222
 40
0.5050810453133832
 40
0.556580791764344
 40
0.6080926358860671
 40
0.6596001688624
 40
0.6600165297723296
 40
0.6600165297723296
 40
0.6600165297723296
 40
0.6600165297723296
 10
51.45065847777508
 20
-19.01153682728183
 30
0.0
 10
50.62148033625343
 20
-18.99569357898919
 30
0.0
 10
48.76651158020324
 20
-18.96025037431996
 30
0.0
 10
45.88544542358163
 20
-18.31318465179244
 30
0.0
 10
42.80714526746419
 20
-17.19958717869399
 30
0.0
 10
39.72796379970787
 20
-15.62330626599175
 30
0.0
 10
36.64901299112536
 20
-13.64388069885103
 30
0.0
 10
33.57091667500372
 20
-11.30796062869498
 30
0.0
 10
30.49346358448385
 20
-8.677949570865259
 30
0.0
 10
27.41631975996707
 20
-5.821919836872674
 30
0.0
 10
24.33912353013376
 20
-2.814253445442752
 30
0.0
 10
21.26150269938684
 20
0.2668474426713239
 30
0.0
 10
18.18316514970512
 20
3.341288082025869
 30
0.0
 10
15.10395864870442
 20
6.328466877487529
 30
0.0
 10
13.04286890594328
 20
8.217886512635936
 30
0.0
 10
12.00829590136358
 20
9.12602189769946
 30
0.0
 10
11.99999999999943
 20
9.133301341989771
 30
0.0
1001
PE_URL
1000

  0
LINE
  5
219
330
1F
100
AcDbEntity
  8
0
  6
Continuous
 62
     1
370
    15
100
AcDbLine
 10
16.15689584100555
 20
19.04999999999999
 30
0.0
 11
11.99999999999942
 21
19.04999999999999
 31
0.0
1001
PE_URL
1000

  0
SPLINE
  5
21A
330
1F
100
AcDbEntity
  8
0
  6
Continuous
 62
     1
370
    15
100
AcDbSpline
210
0.0
220
0.0
230
1.0
 70
     8
 71
     3
 72
    19
 73
    15
 74
     0
 42
0.000000001
 43
0.00000001
 40
0.3900408027441217
 40
0.3900408027441217
 40
0.3900408027441217
 40
0.3900408027441217
 40
0.3905184663888956
 40
0.449609690724028
 40
0.5087058609543462
 40
0.5677881523181051
 40
0.6268605800584885
 40
0.6859277230892009
 40
0.7449941728512117
 40
0.8040645224298382
 40
0.863143355663446
 40
0.9222352362992978
 40
0.9813309276883572
 40
1.0
 40
1.0
 40
1.0
 40
1.0
 10
11.99999999999942
 20
-5.728162336308877
 30
0.0
 10
12.0082959013636
 20
-5.73607344033347
 30
0.0
 10
13.0428689058715
 20
-6.722454129684778
 30
0.0
 10
15.10395864823344
 20
-8.636478629513999
 30
0.0
 10
18.18316515146294
 20
-11.27057133666803
 30
0.0
 10
21.26150269282898
 20
-13.61120674316499
 30
0.0
 10
24.33912355460272
 20
-15.5970897775604
 30
0.0
 10
27.41631966865656
 20
-17.17647530356778
 30
0.0
 10
30.49346392526529
 20
-18.30909692893234
 30
0.0
 10
33.57091540301882
 20
-18.96252677327116
 30
0.0
 10
36.64901773942962
 20
-19.13072769061404
 30
0.0
 10
39.72794607404286
 20
-18.76802074205993
 30
0.0
 10
42.1052207491291
 20
-18.2042014802679
 30
0.0
 10
43.45576735051584
 20
-17.61745060638975
 30
0.0
 10
43.77999455782239
 20
-17.47658867905838
 30
0.0
  0
SPLINE
  5
21B
330
1F
100
AcDbEntity
  8
0
  6
Continuous
 62
     1
370
    15
100
AcDbSpline
210
0.0
220
0.0
230
1.0
 70
     8
 71
     3
 72
    15
 73
    11
 74
     0
 42
0.000000001
 43
0.00000001
 40
0.0
 40
0.0
 40
0.0
 40
0.0
 40
0.0252688992218382
 40
0.1025499138843264
 40
0.179831835601647
 40
0.2571206716963721
 40
0.334422413100724
 40
0.4117423132549979
 40
0.4890557423279739
 40
0.4896807050792343
 40
0.4896807050792343
 40
0.4896807050792343
 40
0.4896807050792343
 10
31.49957412051241
 20
-18.99532821338762
 30
0.0
 10
31.16418578247315
 20
-19.0105420721754
 30
0.0
 10
29.80306415696089
 20
-19.07228516176706
 30
0.0
 10
27.41632620939318
 20
-18.67313951166569
 30
0.0
 10
24.3391218018451
 20
-17.80246110840394
 30
0.0
 10
21.26150316258052
 20
-16.43312482802071
 30
0.0
 10
18.18316502555096
 20
-14.6448881738687
 30
0.0
 10
15.10395868197232
 20
-12.4727549128141
 30
0.0
 10
13.04286891101523
 20
-10.8015366860575
 30
0.0
 10
12.008295901363
 20
-9.918485061332678
 30
0.0
 10
11.99999999999942
 20
-9.911401325883647
 30
0.0
1001
PE_URL
1000

  0
SPLINE
  5
21C
330
1F
100
AcDbEntity
  8
0
  6
Continuous
 62
     1
370
    15
100
AcDbSpline
210
0.0
220
0.0
230
1.0
 70
     8
 71
     3
 72
    12
 73
     8
 74
     0
 42
0.000000001
 43
0.00000001
 40
0.6320980984426708
 40
0.6320980984426708
 40
0.6320980984426708
 40
0.6320980984426708
 40
0.6328721975743676
 40
0.7286351287057559
 40
0.8244060751291845
 40
0.9201545295335787
 40
1.0
 40
1.0
 40
1.0
 40
1.0
 10
11.99999999999942
 20
-18.59836662286369
 30
0.0
 10
12.00829590135011
 20
-18.60016476929574
 30
0.0
 10
13.04286902408255
 20
-18.82375309902701
 30
0.0
 10
15.10395942360377
 20
-19.1060138234403
 30
0.0
 10
18.18316225782154
 20
-19.01703321890194
 30
0.0
 10
21.09125954759372
 20
-18.51035008973882
 30
0.0
 10
22.97286648260612
 20
-17.81195204892179
 30
0.0
 10
23.82846436886263
 20
-17.49437887443477
 30
0.0
  0
LINE
  5
21D
330
1F
100
AcDbEntity
  8
0
  6
Continuous
 62
     1
370
    15
100
AcDbLine
 10
11.99999999999942
 20
-19.05000000000004
 30
0.0
 11
16.15689584100568
 21
-19.05000000000004
 31
0.0
1001
PE_URL
1000

  0
LINE
  5
251
330
1F
100
AcDbEntity
  8
외형선
  6
Continuous
370
    15
100
AcDbLine
 10
-48.32500000000063
 20
10.795
 30
0.0
 11
-48.32500000000063
 21
-12.7
 31
0.0
  0
LINE
  5
254
330
1F
100
AcDbEntity
  8
외형선
  6
Continuous
370
    15
100
AcDbLine
 10
-36.89500000000064
 20
12.7
 30
0.0
 11
-30.98632500000051
 21
12.7
 31
0.0
  0
LINE
  5
291
330
1F
100
AcDbEntity
  8
외형선
  6
Continuous
370
    15
100
AcDbLine
 10
-36.89500000000065
 20
12.7
 30
0.0
 11
-30.98632500000052
 21
12.7
 31
0.0
  0
LINE
  5
292
330
1F
100
AcDbEntity
  8
외형선
  6
Continuous
370
    15
100
AcDbLine
 10
-29.08132500000055
 20
10.795
 30
0.0
 11
-15.97492500000065
 21
10.795
 31
0.0
  0
LINE
  5
293
330
1F
100
AcDbEntity
  8
외형선
  6
Continuous
370
    15
100
AcDbLine
 10
-29.08132500000055
 20
10.79500000000001
 30
0.0
 11
-30.98632500000052
 21
12.7
 31
0.0
  0
LINE
  5
294
330
1F
100
AcDbEntity
  8
외형선
  6
Continuous
370
    15
100
AcDbLine
 10
-15.97492500000065
 20
10.79500000000001
 30
0.0
 11
-14.06992500000062
 21
12.7
 31
0.0
  0
LINE
  5
295
330
1F
100
AcDbEntity
  8
외형선
  6
Continuous
370
    15
100
AcDbLine
 10
-51.50000000000064
 20
10.795
 30
0.0
 11
-38.80000000000062
 21
10.795
 31
0.0
  0
LINE
  5
296
330
1F
100
AcDbEntity
  8
외형선
  6
Continuous
370
    15
100
AcDbLine
 10
-38.80000000000062
 20
10.79500000000001
 30
0.0
 11
-36.89500000000065
 21
12.7
 31
0.0
  0
LINE
  5
297
330
1F
100
AcDbEntity
  8
외형선
  6
Continuous
370
    15
100
AcDbLine
 10
-14.06992500000064
 20
12.7
 30
0.0
 11
11.99999999999942
 21
12.7
 31
0.0
  0
ENDSEC
  0
SECTION
  2
OBJECTS
  0
DICTIONARY
  5
C
330
0
100
AcDbDictionary
281
     1
  3
ACAD_GROUP
350
D
  3
ACAD_IMAGE_VARS
350
140
  3
ACAD_LAYOUT
350
1A
  3
ACAD_MLINESTYLE
350
17
  3
ACAD_PLOTSETTINGS
350
19
  3
ACAD_PLOTSTYLENAME
350
E
  3
ACAD_SCALELIST
350
47
  3
APPDATA
350
13E
  3
DWGPROPS
350
2C0
  0
DICTIONARY
  5
1DF
330
2
100
AcDbDictionary
280
     1
281
     1
  3
ACAD_LAYERSTATES
360
1E0
  0
DICTIONARY
  5
D
102
{ACAD_REACTORS
330
C
102
}
330
C
100
AcDbDictionary
281
     1
  0
RASTERVARIABLES
  5
140
102
{ACAD_REACTORS
330
C
102
}
330
C
100
AcDbRasterVariables
 90
        0
 70
     1
 71
     1
 72
     1
  0
DICTIONARY
  5
1A
102
{ACAD_REACTORS
330
C
102
}
330
C
100
AcDbDictionary
281
     1
  3
Layout1
350
1E
  3
Layout2
350
26
  3
Model
350
22
  0
DICTIONARY
  5
17
102
{ACAD_REACTORS
330
C
102
}
330
C
100
AcDbDictionary
281
     1
  3
Standard
350
18
  0
DICTIONARY
  5
19
102
{ACAD_REACTORS
330
C
102
}
330
C
100
AcDbDictionary
281
     1
  0
ACDBDICTIONARYWDFLT
  5
E
102
{ACAD_REACTORS
330
C
102
}
330
C
100
AcDbDictionary
281
     1
  3
Normal
350
F
100
AcDbDictionaryWithDefault
340
F
  0
DICTIONARY
  5
47
102
{ACAD_REACTORS
330
C
102
}
330
C
100
AcDbDictionary
281
     1
  3
A0
350
48
  3
A1
350
49
  3
A2
350
4A
  3
A3
350
4B
  3
A4
350
4C
  3
A5
350
4D
  3
A6
350
4E
  3
A7
350
4F
  3
A8
350
50
  3
A9
350
51
  3
B0
350
52
  3
B1
350
53
  3
B2
350
54
  3
B3
350
55
  3
B4
350
56
  3
B5
350
57
  3
B6
350
58
  3
B7
350
59
  3
B8
350
5A
  3
B9
350
5B
  3
C0
350
5C
  3
C1
350
5D
  3
C2
350
5E
  3
C3
350
5F
  3
C4
350
60
  3
C5
350
61
  3
C6
350
62
  3
C7
350
63
  3
C8
350
64
  3
C9
350
65
  3
D0
350
66
  3
D1
350
67
  3
D2
350
68
  0
DICTIONARY
  5
13E
102
{ACAD_REACTORS
330
C
102
}
330
C
100
AcDbDictionary
281
     1
  0
XRECORD
  5
2C0
102
{ACAD_REACTORS
330
C
102
}
330
C
100
AcDbXrecord
280
     1
  1
DWGPROPS COOKIE
  2

  3

  4

  6

  7

  8
12016016
  9

300
=
301
=
302
=
303
=
304
=
305
=
306
=
307
=
308
=
309
=
 40
0.0
 41
2458323.100454456
 42
2458330.224065081
  1

 90
        0
  0
DICTIONARY
  5
1E0
102
{ACAD_REACTORS
330
1DF
102
}
330
1DF
100
AcDbDictionary
281
     1
  0
LAYOUT
  5
1E
102
{ACAD_REACTORS
330
1A
102
}
330
1A
100
AcDbPlotSettings
  1

  2
none_device
  4

  6

 40
0.0
 41
0.0
 42
0.0
 43
0.0
 44
0.0
 45
0.0
 46
0.0
 47
0.0
 48
0.0
 49
0.0
140
0.0
141
0.0
142
1.0
143
1.0
 70
   688
 72
     1
 73
     0
 74
     5
  7

 75
    16
147
1.0
148
0.0
149
0.0
100
AcDbLayout
  1
Layout1
 70
     1
 71
     1
 10
0.0
 20
0.0
 11
420.0
 21
297.0
 12
0.0
 22
0.0
 32
0.0
 14
1.000000000000000E+20
 24
1.000000000000000E+20
 34
1.000000000000000E+20
 15
-1.000000000000000E+20
 25
-1.000000000000000E+20
 35
-1.000000000000000E+20
146
0.0
 13
0.0
 23
0.0
 33
0.0
 16
1.0
 26
0.0
 36
0.0
 17
0.0
 27
1.0
 37
0.0
 76
     0
330
1B
  0
LAYOUT
  5
26
102
{ACAD_REACTORS
330
1A
102
}
330
1A
100
AcDbPlotSettings
  1

  2
none_device
  4

  6

 40
0.0
 41
0.0
 42
0.0
 43
0.0
 44
0.0
 45
0.0
 46
0.0
 47
0.0
 48
0.0
 49
0.0
140
0.0
141
0.0
142
1.0
143
1.0
 70
   688
 72
     1
 73
     0
 74
     5
  7

 75
    16
147
1.0
148
0.0
149
0.0
100
AcDbLayout
  1
Layout2
 70
     1
 71
     2
 10
0.0
 20
0.0
 11
0.0
 21
0.0
 12
0.0
 22
0.0
 32
0.0
 14
0.0
 24
0.0
 34
0.0
 15
0.0
 25
0.0
 35
0.0
146
0.0
 13
0.0
 23
0.0
 33
0.0
 16
1.0
 26
0.0
 36
0.0
 17
0.0
 27
1.0
 37
0.0
 76
     0
330
23
  0
LAYOUT
  5
22
102
{ACAD_REACTORS
330
1A
102
}
330
1A
100
AcDbPlotSettings
  1

  2
none_device
  4
ANSI_A_(11.00_x_8.50_Inches)
  6

 40
6.35
 41
19.05
 42
6.35000508
 43
19.05000254
 44
279.4
 45
215.9
 46
96.39525648754174
 47
90.09827952143297
 48
0.0
 49
0.0
140
0.0
141
0.0
142
0.0605651527843098
143
1.0
 70
  1696
 72
     0
 73
     0
 74
     0
  7

 75
     0
147
0.0235690232323232
148
0.0
149
0.0
100
AcDbLayout
  1
Model
 70
     1
 71
     0
 10
0.0
 20
0.0
 11
420.0
 21
297.0
 12
0.0
 22
0.0
 32
0.0
 14
-71.37500000000075
 24
-49.97073246008785
 34
0.0
 15
134.2143989012861
 25
51.72899999999989
 35
0.0
146
0.0
 13
0.0
 23
0.0
 33
0.0
 16
1.0
 26
0.0
 36
0.0
 17
0.0
 27
1.0
 37
0.0
 76
     0
330
1F
331
29
  0
MLINESTYLE
  5
18
102
{ACAD_REACTORS
330
17
102
}
330
17
100
AcDbMlineStyle
  2
Standard
 70
     0
  3

 62
   256
 51
90.0
 52
90.0
 71
     2
 49
0.5
 62
   256
  6
BYLAYER
 49
-0.5
 62
   256
  6
BYLAYER
  0
ACDBPLACEHOLDER
  5
F
102
{ACAD_REACTORS
330
E
102
}
330
E
  0
SCALE
  5
48
102
{ACAD_REACTORS
330
47
102
}
330
47
100
AcDbScale
 70
     0
300
1:1
140
1.0
141
1.0
290
     1
  0
SCALE
  5
49
102
{ACAD_REACTORS
330
47
102
}
330
47
100
AcDbScale
 70
     0
300
1:2
140
1.0
141
2.0
290
     0
  0
SCALE
  5
4A
102
{ACAD_REACTORS
330
47
102
}
330
47
100
AcDbScale
 70
     0
300
1:4
140
1.0
141
4.0
290
     0
  0
SCALE
  5
4B
102
{ACAD_REACTORS
330
47
102
}
330
47
100
AcDbScale
 70
     0
300
1:5
140
1.0
141
5.0
290
     0
  0
SCALE
  5
4C
102
{ACAD_REACTORS
330
47
102
}
330
47
100
AcDbScale
 70
     0
300
1:8
140
1.0
141
8.0
290
     0
  0
SCALE
  5
4D
102
{ACAD_REACTORS
330
47
102
}
330
47
100
AcDbScale
 70
     0
300
1:10
140
1.0
141
10.0
290
     0
  0
SCALE
  5
4E
102
{ACAD_REACTORS
330
47
102
}
330
47
100
AcDbScale
 70
     0
300
1:16
140
1.0
141
16.0
290
     0
  0
SCALE
  5
4F
102
{ACAD_REACTORS
330
47
102
}
330
47
100
AcDbScale
 70
     0
300
1:20
140
1.0
141
20.0
290
     0
  0
SCALE
  5
50
102
{ACAD_REACTORS
330
47
102
}
330
47
100
AcDbScale
 70
     0
300
1:30
140
1.0
141
30.0
290
     0
  0
SCALE
  5
51
102
{ACAD_REACTORS
330
47
102
}
330
47
100
AcDbScale
 70
     0
300
1:40
140
1.0
141
40.0
290
     0
  0
SCALE
  5
52
102
{ACAD_REACTORS
330
47
102
}
330
47
100
AcDbScale
 70
     0
300
1:50
140
1.0
141
50.0
290
     0
  0
SCALE
  5
53
102
{ACAD_REACTORS
330
47
102
}
330
47
100
AcDbScale
 70
     0
300
1:100
140
1.0
141
100.0
290
     0
  0
SCALE
  5
54
102
{ACAD_REACTORS
330
47
102
}
330
47
100
AcDbScale
 70
     0
300
2:1
140
2.0
141
1.0
290
     0
  0
SCALE
  5
55
102
{ACAD_REACTORS
330
47
102
}
330
47
100
AcDbScale
 70
     0
300
4:1
140
4.0
141
1.0
290
     0
  0
SCALE
  5
56
102
{ACAD_REACTORS
330
47
102
}
330
47
100
AcDbScale
 70
     0
300
8:1
140
8.0
141
1.0
290
     0
  0
SCALE
  5
57
102
{ACAD_REACTORS
330
47
102
}
330
47
100
AcDbScale
 70
     0
300
10:1
140
10.0
141
1.0
290
     0
  0
SCALE
  5
58
102
{ACAD_REACTORS
330
47
102
}
330
47
100
AcDbScale
 70
     0
300
100:1
140
100.0
141
1.0
290
     0
  0
SCALE
  5
59
102
{ACAD_REACTORS
330
47
102
}
330
47
100
AcDbScale
 70
     0
300
1/128" = 1'-0"
140
0.0078125
141
12.0
290
     0
  0
SCALE
  5
5A
102
{ACAD_REACTORS
330
47
102
}
330
47
100
AcDbScale
 70
     0
300
1/64" = 1'-0"
140
0.015625
141
12.0
290
     0
  0
SCALE
  5
5B
102
{ACAD_REACTORS
330
47
102
}
330
47
100
AcDbScale
 70
     0
300
1/32" = 1'-0"
140
0.03125
141
12.0
290
     0
  0
SCALE
  5
5C
102
{ACAD_REACTORS
330
47
102
}
330
47
100
AcDbScale
 70
     0
300
1/16" = 1'-0"
140
0.0625
141
12.0
290
     0
  0
SCALE
  5
5D
102
{ACAD_REACTORS
330
47
102
}
330
47
100
AcDbScale
 70
     0
300
3/32" = 1'-0"
140
0.09375
141
12.0
290
     0
  0
SCALE
  5
5E
102
{ACAD_REACTORS
330
47
102
}
330
47
100
AcDbScale
 70
     0
300
1/8" = 1'-0"
140
0.125
141
12.0
290
     0
  0
SCALE
  5
5F
102
{ACAD_REACTORS
330
47
102
}
330
47
100
AcDbScale
 70
     0
300
3/16" = 1'-0"
140
0.1875
141
12.0
290
     0
  0
SCALE
  5
60
102
{ACAD_REACTORS
330
47
102
}
330
47
100
AcDbScale
 70
     0
300
1/4" = 1'-0"
140
0.25
141
12.0
290
     0
  0
SCALE
  5
61
102
{ACAD_REACTORS
330
47
102
}
330
47
100
AcDbScale
 70
     0
300
3/8" = 1'-0"
140
0.375
141
12.0
290
     0
  0
SCALE
  5
62
102
{ACAD_REACTORS
330
47
102
}
330
47
100
AcDbScale
 70
     0
300
1/2" = 1'-0"
140
0.5
141
12.0
290
     0
  0
SCALE
  5
63
102
{ACAD_REACTORS
330
47
102
}
330
47
100
AcDbScale
 70
     0
300
3/4" = 1'-0"
140
0.75
141
12.0
290
     0
  0
SCALE
  5
64
102
{ACAD_REACTORS
330
47
102
}
330
47
100
AcDbScale
 70
     0
300
1" = 1'-0"
140
1.0
141
12.0
290
     0
  0
SCALE
  5
65
102
{ACAD_REACTORS
330
47
102
}
330
47
100
AcDbScale
 70
     0
300
1-1/2" = 1'-0"
140
1.5
141
12.0
290
     0
  0
SCALE
  5
66
102
{ACAD_REACTORS
330
47
102
}
330
47
100
AcDbScale
 70
     0
300
3" = 1'-0"
140
3.0
141
12.0
290
     0
  0
SCALE
  5
67
102
{ACAD_REACTORS
330
47
102
}
330
47
100
AcDbScale
 70
     0
300
6" = 1'-0"
140
6.0
141
12.0
290
     0
  0
SCALE
  5
68
102
{ACAD_REACTORS
330
47
102
}
330
47
100
AcDbScale
 70
     0
300
1'-0" = 1'-0"
140
12.0
141
12.0
290
     0
  0
ENDSEC
  0
EOF
