  0
SECTION
  2
HEADER
  9
$ACADVER
  1
AC1015
  9
$ACADMAINTVER
 70
     6
  9
$DWGCODEPAGE
  3
ANSI_949
  9
$INSBASE
 10
0.0
 20
0.0
 30
0.0
  9
$EXTMIN
 10
1.000000000000000E+20
 20
1.000000000000000E+20
 30
1.000000000000000E+20
  9
$EXTMAX
 10
-1.000000000000000E+20
 20
-1.000000000000000E+20
 30
-1.000000000000000E+20
  9
$LIMMIN
 10
0.0
 20
0.0
  9
$LIMMAX
 10
420.0
 20
297.0
  9
$ORTHOMODE
 70
     1
  9
$REGENMODE
 70
     1
  9
$FILLMODE
 70
     1
  9
$QTEXTMODE
 70
     0
  9
$MIRRTEXT
 70
     1
  9
$LTSCALE
 40
1.0
  9
$ATTMODE
 70
     1
  9
$TEXTSIZE
 40
3.5
  9
$TRACEWID
 40
1.0
  9
$TEXTSTYLE
  7
Standard
  9
$CLAYER
  8
0
  9
$CELTYPE
  6
ByLayer
  9
$CECOLOR
 62
   256
  9
$CELTSCALE
 40
1.0
  9
$DISPSILH
 70
     0
  9
$DIMSCALE
 40
1.0
  9
$DIMASZ
 40
3.302
  9
$DIMEXO
 40
1.0
  9
$DIMDLI
 40
3.75
  9
$DIMRND
 40
0.0
  9
$DIMDLE
 40
0.0
  9
$DIMEXE
 40
1.0
  9
$DIMTP
 40
0.0
  9
$DIMTM
 40
0.0
  9
$DIMTXT
 40
3.5
  9
$DIMCEN
 40
2.5
  9
$DIMTSZ
 40
0.0
  9
$DIMTOL
 70
     0
  9
$DIMLIM
 70
     0
  9
$DIMTIH
 70
     1
  9
$DIMTOH
 70
     1
  9
$DIMSE1
 70
     0
  9
$DIMSE2
 70
     0
  9
$DIMTAD
 70
     1
  9
$DIMZIN
 70
     0
  9
$DIMBLK
  1

  9
$DIMASO
 70
     1
  9
$DIMSHO
 70
     1
  9
$DIMPOST
  1

  9
$DIMAPOST
  1

  9
$DIMALT
 70
     0
  9
$DIMALTD
 70
     3
  9
$DIMALTF
 40
0.0393700787401575
  9
$DIMLFAC
 40
1.0
  9
$DIMTOFL
 70
     1
  9
$DIMTVP
 40
0.0
  9
$DIMTIX
 70
     0
  9
$DIMSOXD
 70
     0
  9
$DIMSAH
 70
     0
  9
$DIMBLK1
  1

  9
$DIMBLK2
  1

  9
$DIMSTYLE
  2
ISO-25
  9
$DIMCLRD
 70
     0
  9
$DIMCLRE
 70
     0
  9
$DIMCLRT
 70
     0
  9
$DIMTFAC
 40
1.0
  9
$DIMGAP
 40
1.524
  9
$DIMJUST
 70
     0
  9
$DIMSD1
 70
     0
  9
$DIMSD2
 70
     0
  9
$DIMTOLJ
 70
     0
  9
$DIMTZIN
 70
     0
  9
$DIMALTZ
 70
     0
  9
$DIMALTTZ
 70
     0
  9
$DIMUPT
 70
     0
  9
$DIMDEC
 70
     2
  9
$DIMTDEC
 70
     2
  9
$DIMALTU
 70
     2
  9
$DIMALTTD
 70
     3
  9
$DIMTXSTY
  7
Standard
  9
$DIMAUNIT
 70
     0
  9
$DIMADEC
 70
     2
  9
$DIMALTRND
 40
0.0
  9
$DIMAZIN
 70
     0
  9
$DIMDSEP
 70
    44
  9
$DIMATFIT
 70
     3
  9
$DIMFRAC
 70
     0
  9
$DIMLDRBLK
  1

  9
$DIMLUNIT
 70
     2
  9
$DIMLWD
 70
    -2
  9
$DIMLWE
 70
    -2
  9
$DIMTMOVE
 70
     0
  9
$LUNITS
 70
     2
  9
$LUPREC
 70
     2
  9
$SKETCHINC
 40
1.0
  9
$FILLETRAD
 40
10.0
  9
$AUNITS
 70
     0
  9
$AUPREC
 70
     2
  9
$MENU
  1
.
  9
$ELEVATION
 40
0.0
  9
$PELEVATION
 40
0.0
  9
$THICKNESS
 40
0.0
  9
$LIMCHECK
 70
     0
  9
$CHAMFERA
 40
0.0
  9
$CHAMFERB
 40
0.0
  9
$CHAMFERC
 40
0.0
  9
$CHAMFERD
 40
0.0
  9
$SKPOLY
 70
     0
  9
$TDCREATE
 40
2458312.676951319
  9
$TDUCREATE
 40
2458312.301951319
  9
$TDUPDATE
 40
2458319.511980752
  9
$TDUUPDATE
 40
2458319.136980752
  9
$TDINDWG
 40
0.001476088
  9
$TDUSRTIMER
 40
2458319.135504884
  9
$USRTIMER
 70
     1
  9
$ANGBASE
 50
0.0
  9
$ANGDIR
 70
     0
  9
$PDMODE
 70
     0
  9
$PDSIZE
 40
-1.0
  9
$PLINEWID
 40
0.0
  9
$SPLFRAME
 70
     0
  9
$SPLINETYPE
 70
     6
  9
$SPLINESEGS
 70
     8
  9
$HANDSEED
  5
1A9
  9
$SURFTAB1
 70
     6
  9
$SURFTAB2
 70
     6
  9
$SURFTYPE
 70
     6
  9
$SURFU
 70
     6
  9
$SURFV
 70
     6
  9
$UCSBASE
  2

  9
$UCSNAME
  2

  9
$UCSORG
 10
0.0
 20
0.0
 30
0.0
  9
$UCSXDIR
 10
1.0
 20
0.0
 30
0.0
  9
$UCSYDIR
 10
0.0
 20
1.0
 30
0.0
  9
$UCSORTHOREF
  2

  9
$UCSORTHOVIEW
 70
     0
  9
$UCSORGTOP
 10
0.0
 20
0.0
 30
0.0
  9
$UCSORGBOTTOM
 10
0.0
 20
0.0
 30
0.0
  9
$UCSORGLEFT
 10
0.0
 20
0.0
 30
0.0
  9
$UCSORGRIGHT
 10
0.0
 20
0.0
 30
0.0
  9
$UCSORGFRONT
 10
0.0
 20
0.0
 30
0.0
  9
$UCSORGBACK
 10
0.0
 20
0.0
 30
0.0
  9
$PUCSBASE
  2

  9
$PUCSNAME
  2

  9
$PUCSORG
 10
0.0
 20
0.0
 30
0.0
  9
$PUCSXDIR
 10
1.0
 20
0.0
 30
0.0
  9
$PUCSYDIR
 10
0.0
 20
1.0
 30
0.0
  9
$PUCSORTHOREF
  2

  9
$PUCSORTHOVIEW
 70
     0
  9
$PUCSORGTOP
 10
0.0
 20
0.0
 30
0.0
  9
$PUCSORGBOTTOM
 10
0.0
 20
0.0
 30
0.0
  9
$PUCSORGLEFT
 10
0.0
 20
0.0
 30
0.0
  9
$PUCSORGRIGHT
 10
0.0
 20
0.0
 30
0.0
  9
$PUCSORGFRONT
 10
0.0
 20
0.0
 30
0.0
  9
$PUCSORGBACK
 10
0.0
 20
0.0
 30
0.0
  9
$USERI1
 70
     0
  9
$USERI2
 70
     0
  9
$USERI3
 70
     0
  9
$USERI4
 70
     0
  9
$USERI5
 70
     0
  9
$USERR1
 40
0.0
  9
$USERR2
 40
0.0
  9
$USERR3
 40
0.0
  9
$USERR4
 40
0.0
  9
$USERR5
 40
0.0
  9
$WORLDVIEW
 70
     1
  9
$SHADEDGE
 70
     3
  9
$SHADEDIF
 70
    70
  9
$TILEMODE
 70
     1
  9
$MAXACTVP
 70
    64
  9
$PINSBASE
 10
0.0
 20
0.0
 30
0.0
  9
$PLIMCHECK
 70
     0
  9
$PEXTMIN
 10
1.000000000000000E+20
 20
1.000000000000000E+20
 30
1.000000000000000E+20
  9
$PEXTMAX
 10
-1.000000000000000E+20
 20
-1.000000000000000E+20
 30
-1.000000000000000E+20
  9
$PLIMMIN
 10
0.0
 20
0.0
  9
$PLIMMAX
 10
0.0
 20
0.0
  9
$UNITMODE
 70
     0
  9
$VISRETAIN
 70
     1
  9
$PLINEGEN
 70
     0
  9
$PSLTSCALE
 70
     1
  9
$TREEDEPTH
 70
  3020
  9
$CMLSTYLE
  2
Standard
  9
$CMLJUST
 70
     0
  9
$CMLSCALE
 40
20.0
  9
$PROXYGRAPHICS
 70
     1
  9
$MEASUREMENT
 70
     1
  9
$CELWEIGHT
370
    -1
  9
$ENDCAPS
280
     0
  9
$JOINSTYLE
280
     0
  9
$LWDISPLAY
290
     1
  9
$INSUNITS
 70
     4
  9
$HYPERLINKBASE
  1

  9
$STYLESHEET
  1

  9
$XEDIT
290
     1
  9
$CEPSNTYPE
380
     0
  9
$PSTYLEMODE
290
     1
  9
$FINGERPRINTGUID
  2
{547AD513-9134-4F1C-B51A-3FF4B549F0A2}
  9
$VERSIONGUID
  2
{FAEB1C32-E019-11D5-929B-00C0DF256EC4}
  9
$EXTNAMES
290
     1
  9
$PSVPSCALE
 40
0.0
  9
$OLESTARTUP
290
     0
  0
ENDSEC
  0
SECTION
  2
CLASSES
  0
CLASS
  1
ACDBDICTIONARYWDFLT
  2
AcDbDictionaryWithDefault
  3
ObjectDBX Classes
 90
        0
280
     0
281
     0
  0
CLASS
  1
VISUALSTYLE
  2
AcDbVisualStyle
  3
ObjectDBX Classes
 90
     4095
280
     0
281
     0
  0
CLASS
  1
MATERIAL
  2
AcDbMaterial
  3
ObjectDBX Classes
 90
     1153
280
     0
281
     0
  0
CLASS
  1
SCALE
  2
AcDbScale
  3
ObjectDBX Classes
 90
     1153
280
     0
281
     0
  0
CLASS
  1
SUN
  2
AcDbSun
  3
SCENEOE
 90
     1153
280
     0
281
     0
  0
CLASS
  1
ACDBPLACEHOLDER
  2
AcDbPlaceHolder
  3
ObjectDBX Classes
 90
        0
280
     0
281
     0
  0
CLASS
  1
LAYOUT
  2
AcDbLayout
  3
ObjectDBX Classes
 90
        0
280
     0
281
     0
  0
CLASS
  1
TABLESTYLE
  2
AcDbTableStyle
  3
ObjectDBX Classes
 90
     4095
280
     0
281
     0
  0
CLASS
  1
MLEADERSTYLE
  2
AcDbMLeaderStyle
  3
ACDB_MLEADERSTYLE_CLASS
 90
     4095
280
     0
281
     0
  0
CLASS
  1
RASTERVARIABLES
  2
AcDbRasterVariables
  3
ISM
 90
        0
280
     0
281
     0
  0
CLASS
  1
DIMASSOC
  2
AcDbDimAssoc
  3
"AcDbDimAssoc|Product Desc:     AcDim ARX App For Dimension|Company:          Autodesk, Inc.|WEB Address:      www.autodesk.com"
 90
        0
280
     0
281
     0
  0
ENDSEC
  0
SECTION
  2
TABLES
  0
TABLE
  2
VPORT
  5
8
330
0
100
AcDbSymbolTable
 70
     1
  0
VPORT
  5
29
330
8
100
AcDbSymbolTableRecord
100
AcDbViewportTableRecord
  2
*Active
 70
     0
 10
0.0
 20
0.0
 11
1.0
 21
1.0
 12
2.277079068638695
 22
3.437619434878865
 13
0.0
 23
0.0
 14
10.0
 24
10.0
 15
10.0
 25
10.0
 16
0.0
 26
0.0
 36
1.0
 17
0.0
 27
0.0
 37
0.0
 40
45.18609261882351
 41
1.67311411992263
 42
50.0
 43
0.0
 44
0.0
 50
0.0
 51
0.0
 71
    16
 72
  2000
 73
     1
 74
     3
 75
     0
 76
     0
 77
     0
 78
     0
281
     0
 65
     1
110
0.0
120
0.0
130
0.0
111
1.0
121
0.0
131
0.0
112
0.0
122
1.0
132
0.0
 79
     0
146
0.0
  0
ENDTAB
  0
TABLE
  2
LTYPE
  5
5
330
0
100
AcDbSymbolTable
 70
     6
  0
LTYPE
  5
14
330
5
100
AcDbSymbolTableRecord
100
AcDbLinetypeTableRecord
  2
ByBlock
 70
     0
  3

 72
    65
 73
     0
 40
0.0
  0
LTYPE
  5
15
330
5
100
AcDbSymbolTableRecord
100
AcDbLinetypeTableRecord
  2
ByLayer
 70
     0
  3

 72
    65
 73
     0
 40
0.0
  0
LTYPE
  5
16
330
5
100
AcDbSymbolTableRecord
100
AcDbLinetypeTableRecord
  2
Continuous
 70
     0
  3
Solid line
 72
    65
 73
     0
 40
0.0
  0
LTYPE
  5
6A
330
5
100
AcDbSymbolTableRecord
100
AcDbLinetypeTableRecord
  2
HIDDEN
 70
     0
  3
Hidden __ __ __ __ __ __ __ __ __ __ __ __ __ __
 72
    65
 73
     2
 40
1.905
 49
1.27
 74
     0
 49
-0.635
 74
     0
  0
LTYPE
  5
6B
330
5
100
AcDbSymbolTableRecord
100
AcDbLinetypeTableRecord
  2
PHANTOM
 70
     0
  3
Phantom ______  __  __  ______  __  __  ______
 72
    65
 73
     6
 40
12.7
 49
6.35
 74
     0
 49
-1.27
 74
     0
 49
1.27
 74
     0
 49
-1.27
 74
     0
 49
1.27
 74
     0
 49
-1.27
 74
     0
  0
LTYPE
  5
6C
330
5
100
AcDbSymbolTableRecord
100
AcDbLinetypeTableRecord
  2
CENTER
 70
     0
  3
Center ____ _ ____ _ ____ _ ____ _ ____ _ ____
 72
    65
 73
     4
 40
10.16
 49
6.35
 74
     0
 49
-1.27
 74
     0
 49
1.27
 74
     0
 49
-1.27
 74
     0
  0
LTYPE
  5
6D
330
5
100
AcDbSymbolTableRecord
100
AcDbLinetypeTableRecord
  2
CENTERX2
 70
     0
  3
Center (2x) ________  __  ________  __  _____
 72
    65
 73
     4
 40
20.32
 49
12.7
 74
     0
 49
-2.54
 74
     0
 49
2.54
 74
     0
 49
-2.54
 74
     0
  0
LTYPE
  5
6E
330
5
100
AcDbSymbolTableRecord
100
AcDbLinetypeTableRecord
  2
DOT2
 70
     0
  3
Dot (.5x) ........................................
 72
    65
 73
     2
 40
0.635
 49
0.0
 74
     0
 49
-0.635
 74
     0
  0
ENDTAB
  0
TABLE
  2
LAYER
  5
2
102
{ACAD_XDICTIONARY
360
180
102
}
330
0
100
AcDbSymbolTable
 70
    18
  0
LAYER
  5
10
330
2
100
AcDbSymbolTableRecord
100
AcDbLayerTableRecord
  2
0
 70
     0
 62
     7
  6
Continuous
370
    -3
390
F
  0
LAYER
  5
6F
330
2
100
AcDbSymbolTableRecord
100
AcDbLayerTableRecord
  2
FORMAT
 70
     0
 62
     2
  6
Continuous
370
    -3
390
F
  0
LAYER
  5
70
330
2
100
AcDbSymbolTableRecord
100
AcDbLayerTableRecord
  2
외형선
 70
     0
 62
     4
  6
Continuous
370
    30
390
F
  0
LAYER
  5
71
330
2
100
AcDbSymbolTableRecord
100
AcDbLayerTableRecord
  2
숨은선
 70
     0
 62
     2
  6
HIDDEN
370
    15
390
F
  0
LAYER
  5
72
330
2
100
AcDbSymbolTableRecord
100
AcDbLayerTableRecord
  2
중심선
 70
     0
 62
     1
  6
CENTERX2
370
    -3
390
F
  0
LAYER
  5
73
330
2
100
AcDbSymbolTableRecord
100
AcDbLayerTableRecord
  2
파단선
 70
     0
 62
     4
  6
Continuous
370
    -3
390
F
  0
LAYER
  5
74
330
2
100
AcDbSymbolTableRecord
100
AcDbLayerTableRecord
  2
해칭선
 70
     0
 62
   100
  6
Continuous
370
    -3
390
F
  0
LAYER
  5
75
330
2
100
AcDbSymbolTableRecord
100
AcDbLayerTableRecord
  2
가는실선
 70
     0
 62
     4
  6
Continuous
370
    -3
390
F
  0
LAYER
  5
76
330
2
100
AcDbSymbolTableRecord
100
AcDbLayerTableRecord
  2
치수_보조선
 70
     0
 62
     4
  6
Continuous
370
    -3
390
F
  0
LAYER
  5
77
330
2
100
AcDbSymbolTableRecord
100
AcDbLayerTableRecord
  2
치수문자_일반주서
 70
     0
 62
     7
  6
Continuous
370
    15
390
F
  0
LAYER
  5
78
330
2
100
AcDbSymbolTableRecord
100
AcDbLayerTableRecord
  2
개별주서
 70
     0
 62
   100
  6
Continuous
370
    30
390
F
  0
LAYER
  5
79
330
2
100
AcDbSymbolTableRecord
100
AcDbLayerTableRecord
  2
중간선
 70
     0
 62
     2
  6
Continuous
370
    15
390
F
  0
LAYER
  5
7A
330
2
100
AcDbSymbolTableRecord
100
AcDbLayerTableRecord
  2
윤곽선
 70
     0
 62
     3
  6
Continuous
370
    40
390
F
  0
LAYER
  5
7B
330
2
100
AcDbSymbolTableRecord
100
AcDbLayerTableRecord
  2
중심마크
 70
     0
 62
   100
  6
Continuous
370
    30
390
F
  0
LAYER
  5
7C
330
2
100
AcDbSymbolTableRecord
100
AcDbLayerTableRecord
  2
가상선
 70
     0
 62
     4
  6
PHANTOM
370
    -3
390
F
  0
LAYER
  5
7D
330
2
100
AcDbSymbolTableRecord
100
AcDbLayerTableRecord
  2
특수지정선
 70
     0
 62
     5
  6
CENTERX2
370
    60
390
F
  0
LAYER
  5
7E
330
2
100
AcDbSymbolTableRecord
100
AcDbLayerTableRecord
  2
참조1
 70
     0
 62
    -4
  6
Continuous
370
    -3
390
F
  0
LAYER
  5
153
330
2
100
AcDbSymbolTableRecord
100
AcDbLayerTableRecord
  2
Defpoints
 70
     0
 62
     7
  6
Continuous
290
     0
370
    -3
390
F
  0
ENDTAB
  0
TABLE
  2
STYLE
  5
3
330
0
100
AcDbSymbolTable
 70
     2
  0
STYLE
  5
11
330
3
100
AcDbSymbolTableRecord
100
AcDbTextStyleTableRecord
  2
Standard
 70
     0
 40
0.0
 41
1.0
 50
0.0
 71
     0
 42
3.5
  3
txt
  4

  0
STYLE
  5
94
330
3
100
AcDbSymbolTableRecord
100
AcDbTextStyleTableRecord
  2
SLDTEXTSTYLE0
 70
     0
 40
0.0
 41
0.75
 50
0.0
 71
     0
 42
3.5
  3
TXT
  4

  0
ENDTAB
  0
TABLE
  2
VIEW
  5
6
330
0
100
AcDbSymbolTable
 70
     0
  0
ENDTAB
  0
TABLE
  2
UCS
  5
7
330
0
100
AcDbSymbolTable
 70
     0
  0
ENDTAB
  0
TABLE
  2
APPID
  5
9
330
0
100
AcDbSymbolTable
 70
     2
  0
APPID
  5
12
330
9
100
AcDbSymbolTableRecord
100
AcDbRegAppTableRecord
  2
ACAD
 70
     0
  0
APPID
  5
1A7
330
9
100
AcDbSymbolTableRecord
100
AcDbRegAppTableRecord
  2
PE_DIMMEASUREMENT
 70
     0
  0
ENDTAB
  0
TABLE
  2
DIMSTYLE
  5
A
330
0
100
AcDbSymbolTable
 70
     3
100
AcDbDimStyleTable
  0
DIMSTYLE
105
27
330
A
100
AcDbSymbolTableRecord
100
AcDbDimStyleTableRecord
  2
ISO-25
 70
     0
 41
2.5
 42
0.625
 43
3.75
 44
1.25
 73
     0
 74
     0
 77
     1
 78
     8
140
2.5
141
2.5
143
0.03937007874016
147
0.625
171
     3
172
     1
178
     0
271
     2
272
     2
274
     3
278
    44
283
     0
284
     8
340
11
  0
DIMSTYLE
105
D1
102
{ACAD_REACTORS
330
D0
330
E5
330
194
102
}
330
A
100
AcDbSymbolTableRecord
100
AcDbDimStyleTableRecord
  2
SLDDIMSTYLE0
 70
     0
 41
3.302
 44
0.0
 45
0.000000001
 73
     0
 74
     0
 77
     1
 78
    12
 79
     3
140
3.5
143
0.0393700787401575
147
0.875
148
0.000000001
170
     1
173
     1
178
     0
271
     2
272
     2
276
     2
284
    12
340
94
  0
DIMSTYLE
105
F9
102
{ACAD_REACTORS
330
F8
102
}
330
A
100
AcDbSymbolTableRecord
100
AcDbDimStyleTableRecord
  2
SLDDIMSTYLE1
 70
     0
 41
3.302
 44
0.0
 45
0.000000001
 73
     0
 74
     0
 77
     1
 78
    12
 79
     3
140
3.5
143
0.0393700787401575
147
0.875
148
0.000000001
170
     1
172
     1
173
     1
178
     0
271
     2
272
     2
276
     2
284
    12
289
     0
340
94
  0
ENDTAB
  0
TABLE
  2
BLOCK_RECORD
  5
1
330
0
100
AcDbSymbolTable
 70
     9
  0
BLOCK_RECORD
  5
1F
330
1
100
AcDbSymbolTableRecord
100
AcDbBlockTableRecord
  2
*Model_Space
340
22
  0
BLOCK_RECORD
  5
1B
330
1
100
AcDbSymbolTableRecord
100
AcDbBlockTableRecord
  2
*Paper_Space
340
1E
  0
BLOCK_RECORD
  5
23
330
1
100
AcDbSymbolTableRecord
100
AcDbBlockTableRecord
  2
*Paper_Space0
340
26
  0
BLOCK_RECORD
  5
7F
330
1
100
AcDbSymbolTableRecord
100
AcDbBlockTableRecord
  2
블럭10
340
0
102
{BLKREFS
331
C9
102
}
  0
BLOCK_RECORD
  5
D2
330
1
100
AcDbSymbolTableRecord
100
AcDbBlockTableRecord
  2
_D
340
0
  0
BLOCK_RECORD
  5
E6
330
1
100
AcDbSymbolTableRecord
100
AcDbBlockTableRecord
  2
_D_1
340
0
  0
BLOCK_RECORD
  5
FA
330
1
100
AcDbSymbolTableRecord
100
AcDbBlockTableRecord
  2
_D_2
340
0
  0
BLOCK_RECORD
  5
10E
330
1
100
AcDbSymbolTableRecord
100
AcDbBlockTableRecord
  2
_D_3
340
0
  0
BLOCK_RECORD
  5
128
330
1
100
AcDbSymbolTableRecord
100
AcDbBlockTableRecord
  2
SW_DOWELSYMBOL_0
340
0
102
{BLKREFS
331
12E
102
}
  0
BLOCK_RECORD
  5
197
330
1
100
AcDbSymbolTableRecord
100
AcDbBlockTableRecord
  2
*D8
340
0
  0
ENDTAB
  0
ENDSEC
  0
SECTION
  2
BLOCKS
  0
BLOCK
  5
20
330
1F
100
AcDbEntity
  8
0
100
AcDbBlockBegin
  2
*Model_Space
 70
     0
 10
0.0
 20
0.0
 30
0.0
  3
*Model_Space
  1
*Model_Space
  0
ENDBLK
  5
21
330
1F
100
AcDbEntity
  8
0
100
AcDbBlockEnd
  0
BLOCK
  5
1C
330
1B
100
AcDbEntity
 67
     1
  8
0
100
AcDbBlockBegin
  2
*Paper_Space
 70
     0
 10
0.0
 20
0.0
 30
0.0
  3
*Paper_Space
  1
*Paper_Space
  0
ENDBLK
  5
1D
330
1B
100
AcDbEntity
 67
     1
  8
0
100
AcDbBlockEnd
  0
BLOCK
  5
24
330
23
100
AcDbEntity
  8
0
100
AcDbBlockBegin
  2
*Paper_Space0
 70
     0
 10
0.0
 20
0.0
 30
0.0
  3
*Paper_Space0
  1
*Paper_Space0
  0
ENDBLK
  5
25
330
23
100
AcDbEntity
  8
0
100
AcDbBlockEnd
  0
BLOCK
  5
80
330
7F
100
AcDbEntity
  8
0
100
AcDbBlockBegin
  2
블럭10
 70
     2
 10
0.0
 20
0.0
 30
0.0
  3
블럭10
  1
블럭10
  0
ELLIPSE
  5
82
330
7F
100
AcDbEntity
  8
중심선
100
AcDbEllipse
 10
20.54032771741204
 20
12.0471743016438
 30
0.0
 11
6.600054785286829
 21
-1.261213355974178E-13
 31
0.0
210
0.0
220
0.0
230
1.0
 40
0.636358354079598
 41
0.9219305317359503
 42
6.513795318482858
  0
ELLIPSE
  5
83
330
7F
100
AcDbEntity
  8
중심선
100
AcDbEllipse
 10
20.54032771746488
 20
12.04717430159265
 30
0.0
 11
3.960054785062283
 21
1.540847449632565E-10
 31
0.0
210
0.0
220
0.0
230
1.0
 40
0.3939339440162632
 41
1.131841032648279
 42
5.62031148352944
  0
LINE
  5
84
330
7F
100
AcDbEntity
  8
중심선
100
AcDbLine
 10
2.268634060543552
 20
16.24717430164393
 30
0.0
 11
5.714909304380834
 21
16.24717430164393
 31
0.0
  0
LINE
  5
85
330
7F
100
AcDbEntity
  8
중심선
100
AcDbLine
 10
5.245725140726316
 20
7.84717430164391
 30
0.0
 11
8.692000384563599
 21
7.84717430164391
 31
0.0
  0
LINE
  5
86
330
7F
100
AcDbEntity
  8
중심선
100
AcDbLine
 10
15.74043728645272
 20
16.24717430164393
 30
0.0
 11
8.692000384563599
 21
7.84717430164391
 31
0.0
  0
LINE
  5
87
330
7F
100
AcDbEntity
  8
중심선
100
AcDbLine
 10
0.1404042013395286
 20
13.71084872107135
 30
0.0
 11
3.58671253028996
 21
13.71088815037384
 31
0.0
  0
LINE
  5
88
330
7F
100
AcDbEntity
  8
중심선
100
AcDbLine
 10
2.750260043222114
 20
10.84717430164391
 30
0.0
 11
6.196535287059397
 21
10.84717430164391
 31
0.0
  0
LINE
  5
89
330
7F
100
AcDbEntity
  8
중심선
100
AcDbLine
 10
12.29416204261559
 20
16.24717430164393
 30
0.0
 11
5.245725140726316
 21
7.84717430164391
 31
0.0
  0
LINE
  5
8A
330
7F
100
AcDbEntity
  8
중심선
100
AcDbLine
 10
10.72767329541681
 20
16.24717430164393
 30
0.0
 11
6.196535287059397
 21
10.84717430164391
 31
0.0
  0
LINE
  5
8B
330
7F
100
AcDbEntity
  8
중심선
100
AcDbLine
 10
7.28139805157953
 20
16.24717430164393
 30
0.0
 11
2.750260043222114
 21
10.84717430164391
 31
0.0
  0
LINE
  5
8C
330
7F
100
AcDbEntity
  8
중심선
100
AcDbLine
 10
5.714909304380834
 20
16.24717430164393
 30
0.0
 11
3.58671253028996
 21
13.71088815037384
 31
0.0
  0
LINE
  5
8D
330
7F
100
AcDbEntity
  8
중심선
100
AcDbLine
 10
2.268634060543552
 20
16.24717430164393
 30
0.0
 11
0.1404042013395286
 21
13.71084872107135
 31
0.0
  0
LINE
  5
8E
330
7F
100
AcDbEntity
  8
중심선
100
AcDbLine
 10
7.28139805157953
 20
16.24717430164393
 30
0.0
 11
10.72767329541681
 21
16.24717430164393
 31
0.0
  0
LINE
  5
8F
330
7F
100
AcDbEntity
  8
중심선
100
AcDbLine
 10
12.29416204261559
 20
16.24717430164393
 30
0.0
 11
15.74043728645272
 21
16.24717430164393
 31
0.0
  0
LINE
  5
90
330
7F
100
AcDbEntity
  8
중심선
100
AcDbLine
 10
19.22036997980202
 20
11.08717430171403
 30
0.0
 11
23.66174974927406
 21
11.08717430171406
 31
0.0
  0
LINE
  5
91
330
7F
100
AcDbEntity
  8
중심선
100
AcDbLine
 10
19.22039502424796
 20
13.00717430171391
 30
0.0
 11
19.22036997980202
 21
11.08717430171403
 31
0.0
  0
LINE
  5
92
330
7F
100
AcDbEntity
  8
중심선
100
AcDbLine
 10
19.22039502424796
 20
13.00717430171391
 30
0.0
 11
26.96566020931264
 21
13.00717430171391
 31
0.0
  0
LINE
  5
93
330
7F
100
AcDbEntity
  8
중심선
100
AcDbLine
 10
22.22332737316547
 20
13.45928029700563
 30
0.0
 11
24.52862924686651
 21
15.39360700705356
 31
0.0
  0
ATTDEF
  5
95
330
7F
100
AcDbEntity
  8
FORMAT
 62
     2
100
AcDbText
 10
4.408487351596664
 20
2.075366912832191
 30
0.0
 40
4.233333333333333
  1
E2039008
 41
0.75
  7
SLDTEXTSTYLE0
 11
4.408487351596664
 21
-0.0412997538344756
 31
0.0
100
AcDbAttributeDefinition
  3

  2
AUTOATTR0
 70
     0
 74
     1
  0
ENDBLK
  5
81
330
7F
100
AcDbEntity
  8
0
100
AcDbBlockEnd
  0
BLOCK
  5
D3
330
D2
100
AcDbEntity
  8
0
100
AcDbBlockBegin
  2
_D
 70
     0
 10
0.0
 20
0.0
 30
0.0
  3
_D
  1
_D
  0
LINE
  5
D5
330
D2
100
AcDbEntity
  8
치수문자_일반주서
 62
     0
370
    -2
100
AcDbLine
 10
24.37426131403117
 20
1.645237042775108
 30
0.0
 11
24.37426131403117
 21
17.04271204708915
 31
0.0
  0
LINE
  5
D6
330
D2
100
AcDbEntity
  8
치수문자_일반주서
 62
     0
370
    -2
100
AcDbLine
 10
14.84926131403118
 20
1.520540468499441
 30
0.0
 11
14.84926131403118
 21
17.04271204708915
 31
0.0
  0
LINE
  5
D7
330
D2
100
AcDbEntity
  8
치수문자_일반주서
 62
     0
370
    -2
100
AcDbLine
 10
14.84926131403118
 20
17.04271204708915
 30
0.0
 11
-12.07773868596882
 21
17.04271204708915
 31
0.0
  0
LINE
  5
D8
330
D2
100
AcDbEntity
  8
치수문자_일반주서
 62
     0
370
    -2
100
AcDbLine
 10
21.07226131403117
 20
17.04271204708915
 30
0.0
 11
18.15126131403118
 21
17.04271204708915
 31
0.0
  0
SOLID
  5
D9
330
D2
100
AcDbEntity
  8
치수문자_일반주서
 62
     0
100
AcDbTrace
 10
21.07226131403117
 20
16.49237871375582
 30
0.0
 11
21.07226131403117
 21
17.59304538042249
 31
0.0
 12
24.37426131403117
 22
17.04271204708915
 32
0.0
 13
24.37426131403117
 23
17.04271204708915
 33
0.0
  0
SOLID
  5
DA
330
D2
100
AcDbEntity
  8
치수문자_일반주서
 62
     0
100
AcDbTrace
 10
18.15126131403118
 20
17.59304538042249
 30
0.0
 11
18.15126131403118
 21
16.49237871375582
 31
0.0
 12
14.84926131403118
 22
17.04271204708915
 32
0.0
 13
14.84926131403118
 23
17.04271204708915
 33
0.0
  0
MTEXT
  5
DB
330
D2
100
AcDbEntity
  8
치수문자_일반주서
 62
     0
100
AcDbMText
 10
-0.2652386859688221
 20
21.41771204708915
 30
0.0
 40
3.5
 41
0.0
 71
     2
 72
     1
  1
\A1;9.53 [3/8]
  7
SLDTEXTSTYLE0
 73
     1
 44
1.0
  0
POINT
  5
DC
330
D2
100
AcDbEntity
  8
Defpoints
 62
     0
100
AcDbPoint
 10
24.37426131403117
 20
1.582737042775108
 30
0.0
  0
POINT
  5
DD
330
D2
100
AcDbEntity
  8
Defpoints
 62
     0
100
AcDbPoint
 10
14.84926131403118
 20
1.458040468499441
 30
0.0
  0
POINT
  5
DE
330
D2
100
AcDbEntity
  8
Defpoints
 62
     0
100
AcDbPoint
 10
14.84926131403118
 20
17.04271204708915
 30
0.0
  0
ENDBLK
  5
D4
330
D2
100
AcDbEntity
  8
0
100
AcDbBlockEnd
  0
BLOCK
  5
E7
330
E6
100
AcDbEntity
  8
0
100
AcDbBlockBegin
  2
_D_1
 70
     0
 10
0.0
 20
0.0
 30
0.0
  3
_D_1
  1
_D_1
  0
LINE
  5
E9
330
E6
100
AcDbEntity
  8
치수문자_일반주서
 62
     0
370
    -2
100
AcDbLine
 10
24.37426131403117
 20
1.645237042775108
 30
0.0
 11
24.37426131403117
 21
30.48478012652668
 31
0.0
  0
LINE
  5
EA
330
E6
100
AcDbEntity
  8
치수문자_일반주서
 62
     0
370
    -2
100
AcDbLine
 10
-34.36323868596882
 20
3.873574928723895
 30
0.0
 11
-34.36323868596882
 21
30.48478012652668
 31
0.0
  0
LINE
  5
EB
330
E6
100
AcDbEntity
  8
치수문자_일반주서
 62
     0
370
    -2
100
AcDbLine
 10
21.07226131403117
 20
30.48478012652668
 30
0.0
 11
-31.06123868596882
 21
30.48478012652668
 31
0.0
  0
SOLID
  5
EC
330
E6
100
AcDbEntity
  8
치수문자_일반주서
 62
     0
100
AcDbTrace
 10
21.07226131403117
 20
29.93444679319335
 30
0.0
 11
21.07226131403117
 21
31.03511345986002
 31
0.0
 12
24.37426131403117
 22
30.48478012652668
 32
0.0
 13
24.37426131403117
 23
30.48478012652668
 33
0.0
  0
SOLID
  5
ED
330
E6
100
AcDbEntity
  8
치수문자_일반주서
 62
     0
100
AcDbTrace
 10
-31.06123868596882
 20
31.03511345986002
 30
0.0
 11
-31.06123868596882
 21
29.93444679319335
 31
0.0
 12
-34.36323868596882
 22
30.48478012652668
 32
0.0
 13
-34.36323868596882
 23
30.48478012652668
 33
0.0
  0
MTEXT
  5
EE
330
E6
100
AcDbEntity
  8
치수문자_일반주서
 62
     0
100
AcDbMText
 10
-4.994488685968827
 20
34.85978012652669
 30
0.0
 40
3.5
 41
0.0
 71
     2
 72
     1
  1
\A1;58.74 [2 5/16]
  7
SLDTEXTSTYLE0
 73
     1
 44
1.0
  0
POINT
  5
EF
330
E6
100
AcDbEntity
  8
Defpoints
 62
     0
100
AcDbPoint
 10
24.37426131403117
 20
1.582737042775108
 30
0.0
  0
POINT
  5
F0
330
E6
100
AcDbEntity
  8
Defpoints
 62
     0
100
AcDbPoint
 10
-34.36323868596882
 20
3.811074928723895
 30
0.0
  0
POINT
  5
F1
330
E6
100
AcDbEntity
  8
Defpoints
 62
     0
100
AcDbPoint
 10
-34.36323868596882
 20
30.48478012652668
 30
0.0
  0
ENDBLK
  5
E8
330
E6
100
AcDbEntity
  8
0
100
AcDbBlockEnd
  0
BLOCK
  5
FB
330
FA
100
AcDbEntity
  8
0
100
AcDbBlockBegin
  2
_D_2
 70
     0
 10
0.0
 20
0.0
 30
0.0
  3
_D_2
  1
_D_2
  0
LINE
  5
FD
330
FA
100
AcDbEntity
  8
치수문자_일반주서
 62
     0
370
    -2
100
AcDbLine
 10
-33.47323868596882
 20
4.763574928723896
 30
0.0
 11
-45.66401152379603
 21
4.76357492872385
 31
0.0
  0
LINE
  5
FE
330
FA
100
AcDbEntity
  8
치수문자_일반주서
 62
     0
370
    -2
100
AcDbLine
 10
-33.47323868596882
 20
-4.761425071276109
 30
0.0
 11
-45.664011523796
 21
-4.761425071276156
 31
0.0
  0
LINE
  5
FF
330
FA
100
AcDbEntity
  8
치수문자_일반주서
 62
     0
370
    -2
100
AcDbLine
 10
-45.66401152379602
 20
1.46157492872385
 30
0.0
 11
-45.66401152379601
 21
-1.459425071276156
 31
0.0
  0
SOLID
  5
100
330
FA
100
AcDbEntity
  8
치수문자_일반주서
 62
     0
100
AcDbTrace
 10
-45.11367819046269
 20
1.461574928723852
 30
0.0
 11
-46.21434485712935
 21
1.461574928723848
 31
0.0
 12
-45.66401152379603
 22
4.76357492872385
 32
0.0
 13
-45.66401152379603
 23
4.76357492872385
 33
0.0
  0
SOLID
  5
101
330
FA
100
AcDbEntity
  8
치수문자_일반주서
 62
     0
100
AcDbTrace
 10
-46.21434485712935
 20
-1.459425071276158
 30
0.0
 11
-45.11367819046268
 21
-1.459425071276154
 31
0.0
 12
-45.664011523796
 22
-4.761425071276156
 32
0.0
 13
-45.664011523796
 23
-4.761425071276156
 33
0.0
  0
MTEXT
  5
102
330
FA
100
AcDbEntity
  8
치수문자_일반주서
 62
     0
100
AcDbMText
 10
-50.03901152379602
 20
0.0010749287238796
 30
0.0
 40
3.5
 41
0.0
 71
     2
 72
     1
  1
\A1;%%c9.53 [3/8]
  7
SLDTEXTSTYLE0
 11
-3.729883127349605E-15
 21
1.0
 31
0.0
 73
     1
 44
1.0
  0
POINT
  5
103
330
FA
100
AcDbEntity
  8
Defpoints
 62
     0
100
AcDbPoint
 10
-33.41073868596882
 20
4.763574928723896
 30
0.0
  0
POINT
  5
104
330
FA
100
AcDbEntity
  8
Defpoints
 62
     0
100
AcDbPoint
 10
-33.41073868596882
 20
-4.761425071276109
 30
0.0
  0
POINT
  5
105
330
FA
100
AcDbEntity
  8
Defpoints
 62
     0
100
AcDbPoint
 10
-45.664011523796
 20
-4.761425071276156
 30
0.0
  0
ENDBLK
  5
FC
330
FA
100
AcDbEntity
  8
0
100
AcDbBlockEnd
  0
BLOCK
  5
10F
330
10E
100
AcDbEntity
  8
0
100
AcDbBlockBegin
  2
_D_3
 70
     0
 10
0.0
 20
0.0
 30
0.0
  3
_D_3
  1
_D_3
  0
LINE
  5
111
330
10E
100
AcDbEntity
  8
치수문자_일반주서
 62
     0
370
    -2
100
AcDbLine
 10
19.83995400560931
 20
1.588574928723894
 30
0.0
 11
34.75283841285349
 21
1.588574928723947
 31
0.0
  0
LINE
  5
112
330
10E
100
AcDbEntity
  8
치수문자_일반주서
 62
     0
370
    -2
100
AcDbLine
 10
19.83995400560931
 20
-1.586425071276107
 30
0.0
 11
34.75283841285351
 21
-1.586425071276054
 31
0.0
  0
LINE
  5
113
330
10E
100
AcDbEntity
  8
치수문자_일반주서
 62
     0
370
    -2
100
AcDbLine
 10
34.75283841285349
 20
1.588574928723947
 30
0.0
 11
34.75283841285335
 21
32.69257492872394
 31
0.0
  0
LINE
  5
114
330
10E
100
AcDbEntity
  8
치수문자_일반주서
 62
     0
370
    -2
100
AcDbLine
 10
34.75283841285349
 20
1.588574928723947
 30
0.0
 11
34.75283841285351
 21
-1.586425071276054
 31
0.0
  0
LINE
  5
115
330
10E
100
AcDbEntity
  8
치수문자_일반주서
 62
     0
370
    -2
100
AcDbLine
 10
34.75283841285348
 20
4.890574928723947
 30
0.0
 11
34.75283841285346
 21
8.192574928723946
 31
0.0
  0
LINE
  5
116
330
10E
100
AcDbEntity
  8
치수문자_일반주서
 62
     0
370
    -2
100
AcDbLine
 10
34.75283841285352
 20
-4.888425071276053
 30
0.0
 11
34.75283841285354
 21
-8.190425071276053
 31
0.0
  0
SOLID
  5
117
330
10E
100
AcDbEntity
  8
치수문자_일반주서
 62
     0
100
AcDbTrace
 10
34.20250507952014
 20
4.890574928723944
 30
0.0
 11
35.30317174618681
 21
4.890574928723949
 31
0.0
 12
34.75283841285349
 22
1.588574928723947
 32
0.0
 13
34.75283841285349
 23
1.588574928723947
 33
0.0
  0
SOLID
  5
118
330
10E
100
AcDbEntity
  8
치수문자_일반주서
 62
     0
100
AcDbTrace
 10
35.30317174618686
 20
-4.888425071276051
 30
0.0
 11
34.20250507952019
 21
-4.888425071276056
 31
0.0
 12
34.75283841285351
 22
-1.586425071276054
 32
0.0
 13
34.75283841285351
 23
-1.586425071276054
 33
0.0
  0
MTEXT
  5
119
330
10E
100
AcDbEntity
  8
치수문자_일반주서
 62
     0
100
AcDbMText
 10
30.37783841285341
 20
20.44257492872393
 30
0.0
 40
3.5
 41
0.0
 71
     2
 72
     1
  1
\A1;%%c3.18 [1/8]
  7
SLDTEXTSTYLE0
 11
-4.475859752819528E-15
 21
1.0
 31
0.0
 73
     1
 44
1.0
  0
POINT
  5
11A
330
10E
100
AcDbEntity
  8
Defpoints
 62
     0
100
AcDbPoint
 10
19.77745400560931
 20
1.588574928723893
 30
0.0
  0
POINT
  5
11B
330
10E
100
AcDbEntity
  8
Defpoints
 62
     0
100
AcDbPoint
 10
19.77745400560931
 20
-1.586425071276107
 30
0.0
  0
POINT
  5
11C
330
10E
100
AcDbEntity
  8
Defpoints
 62
     0
100
AcDbPoint
 10
34.75283841285351
 20
-1.586425071276055
 30
0.0
  0
ENDBLK
  5
110
330
10E
100
AcDbEntity
  8
0
100
AcDbBlockEnd
  0
BLOCK
  5
129
330
128
100
AcDbEntity
  8
0
100
AcDbBlockBegin
  2
SW_DOWELSYMBOL_0
 70
     0
 10
0.0
 20
0.0
 30
0.0
  3
SW_DOWELSYMBOL_0
  1
SW_DOWELSYMBOL_0
  0
CIRCLE
  5
12B
330
128
100
AcDbEntity
  8
해칭선
 62
     0
100
AcDbCircle
 10
0.0
 20
0.0
 30
0.0
 40
3.000000000000001
  0
HATCH
  5
12C
330
128
100
AcDbEntity
  8
0
  6
Continuous
 62
     0
370
     0
100
AcDbHatch
 10
0.0
 20
0.0
 30
0.0
210
0.0
220
0.0
230
1.0
  2
SOLID
 70
     1
 71
     0
 91
        1
 92
        0
 93
        3
 72
     2
 10
0.0
 20
0.0
 40
3.000000000000001
 50
0.0
 51
90.0
 73
     1
 72
     1
 10
0.0
 20
3.000000000000001
 11
0.0
 21
0.0
 72
     1
 10
0.0
 20
0.0
 11
3.000000000000001
 21
0.0
 97
        0
 75
     0
 76
     1
 98
        1
 10
0.0
 20
0.0
  0
HATCH
  5
12D
330
128
100
AcDbEntity
  8
0
  6
Continuous
 62
     0
370
     0
100
AcDbHatch
 10
0.0
 20
0.0
 30
0.0
210
0.0
220
0.0
230
1.0
  2
SOLID
 70
     1
 71
     0
 91
        1
 92
        0
 93
        3
 72
     2
 10
0.0
 20
0.0
 40
3.000000000000001
 50
180.0
 51
270.0000000000008
 73
     1
 72
     1
 10
0.0
 20
-3.000000000000001
 11
0.0
 21
0.0
 72
     1
 10
0.0
 20
0.0
 11
-3.000000000000001
 21
0.0
 97
        0
 75
     0
 76
     1
 98
        1
 10
0.0
 20
0.0
  0
ENDBLK
  5
12A
330
128
100
AcDbEntity
  8
0
100
AcDbBlockEnd
  0
BLOCK
  5
198
330
197
100
AcDbEntity
  8
0
100
AcDbBlockBegin
  2
*D8
 70
     1
 10
0.0
 20
0.0
 30
0.0
  3
*D8
  1
*D8
  0
LINE
  5
19A
330
197
100
AcDbEntity
  8
치수문자_일반주서
 62
     0
370
    -2
100
AcDbLine
 10
24.43676131403116
 20
1.588574928723897
 30
0.0
 11
38.16401578991142
 21
1.588574928723897
 31
0.0
  0
LINE
  5
19B
330
197
100
AcDbEntity
  8
치수문자_일반주서
 62
     0
370
    -2
100
AcDbLine
 10
24.43676131403116
 20
-1.586425071276103
 30
0.0
 11
38.16401578991142
 21
-1.586425071276103
 31
0.0
  0
LINE
  5
19C
330
197
100
AcDbEntity
  8
치수문자_일반주서
 62
     0
370
    -2
100
AcDbLine
 10
38.16401578991142
 20
1.588574928723897
 30
0.0
 11
38.16401578991142
 21
32.6925749287239
 31
0.0
  0
LINE
  5
19D
330
197
100
AcDbEntity
  8
치수문자_일반주서
 62
     0
370
    -2
100
AcDbLine
 10
38.16401578991142
 20
4.890574928723897
 30
0.0
 11
38.16401578991142
 21
8.192574928723896
 31
0.0
  0
LINE
  5
19E
330
197
100
AcDbEntity
  8
치수문자_일반주서
 62
     0
370
    -2
100
AcDbLine
 10
38.16401578991142
 20
-4.888425071276103
 30
0.0
 11
38.16401578991142
 21
-8.190425071276103
 31
0.0
  0
SOLID
  5
19F
330
197
100
AcDbEntity
  8
치수문자_일반주서
 62
     0
100
AcDbTrace
 10
37.61368245657809
 20
4.890574928723897
 30
0.0
 11
38.71434912324476
 21
4.890574928723897
 31
0.0
 12
38.16401578991142
 22
1.588574928723897
 32
0.0
 13
38.16401578991142
 23
1.588574928723897
 33
0.0
  0
SOLID
  5
1A0
330
197
100
AcDbEntity
  8
치수문자_일반주서
 62
     0
100
AcDbTrace
 10
38.71434912324476
 20
-4.888425071276103
 30
0.0
 11
37.61368245657809
 21
-4.888425071276103
 31
0.0
 12
38.16401578991142
 22
-1.586425071276103
 32
0.0
 13
38.16401578991142
 23
-1.586425071276103
 33
0.0
  0
MTEXT
  5
1A1
330
197
100
AcDbEntity
  8
치수문자_일반주서
 62
     0
100
AcDbMText
 10
35.53901578991142
 20
20.4425749287239
 30
0.0
 40
3.5
 41
0.0
 71
     5
 72
     1
  1
\A1;{%%C3.18 [1/8]}
  7
SLDTEXTSTYLE0
 11
0.0
 21
1.0
 31
0.0
 73
     1
 44
1.0
  0
POINT
  5
1A2
330
197
100
AcDbEntity
  8
Defpoints
 62
     0
100
AcDbPoint
 10
24.37426131403116
 20
1.588574928723897
 30
0.0
  0
POINT
  5
1A3
330
197
100
AcDbEntity
  8
Defpoints
 62
     0
100
AcDbPoint
 10
24.37426131403116
 20
-1.586425071276103
 30
0.0
  0
POINT
  5
1A6
330
197
100
AcDbEntity
  8
Defpoints
 62
     0
100
AcDbPoint
 10
38.16401578991142
 20
-1.586425071276104
 30
0.0
  0
ENDBLK
  5
199
330
197
100
AcDbEntity
  8
0
100
AcDbBlockEnd
  0
ENDSEC
  0
SECTION
  2
ENTITIES
  0
LINE
  5
96
330
1F
100
AcDbEntity
  8
외형선
  6
Continuous
370
    15
100
AcDbLine
 10
1.999999999999996
 20
-4.761425071276111
 30
0.0
 11
13.84926131403117
 21
-1.586425071276107
 31
0.0
  0
LINE
  5
97
330
1F
100
AcDbEntity
  8
외형선
  6
Continuous
370
    15
100
AcDbLine
 10
13.84926131403117
 20
1.588574928723893
 30
0.0
 11
1.999999999999996
 21
4.763574928723898
 31
0.0
  0
LINE
  5
98
330
1F
100
AcDbEntity
  8
외형선
  6
Continuous
370
    15
100
AcDbLine
 10
-33.41073868596882
 20
-4.761425071276109
 30
0.0
 11
1.999999999999996
 21
-4.761425071276109
 31
0.0
  0
LINE
  5
99
330
1F
100
AcDbEntity
  8
외형선
  6
Continuous
370
    15
100
AcDbLine
 10
1.999999999999996
 20
4.763574928723895
 30
0.0
 11
-9.680788685968711
 21
4.763574928723895
 31
0.0
  0
LINE
  5
9A
330
1F
100
AcDbEntity
  8
외형선
  6
Continuous
370
    15
100
AcDbLine
 10
-33.41073868596882
 20
4.763574928723893
 30
0.0
 11
-34.36323868596882
 21
3.811074928723895
 31
0.0
  0
LINE
  5
9B
330
1F
100
AcDbEntity
  8
외형선
  6
Continuous
370
    15
100
AcDbLine
 10
-34.36323868596882
 20
-3.808925071276108
 30
0.0
 11
-33.41073868596882
 21
-4.761425071276106
 31
0.0
  0
LINE
  5
9C
330
1F
100
AcDbEntity
  8
외형선
  6
Continuous
370
    15
100
AcDbLine
 10
13.84926131403117
 20
-1.586425071276107
 30
0.0
 11
14.34918920399928
 21
-1.586425071276107
 31
0.0
  0
LINE
  5
9D
330
1F
100
AcDbEntity
  8
외형선
  6
Continuous
370
    15
100
AcDbLine
 10
14.34918920399928
 20
1.588574928723893
 30
0.0
 11
13.84926131403117
 21
1.588574928723893
 31
0.0
  0
LINE
  5
9E
330
1F
100
AcDbEntity
  8
외형선
  6
Continuous
 62
     1
370
    15
100
AcDbLine
 10
16.9407845191052
 20
1.588574928723893
 30
0.0
 11
15.97183317798071
 21
1.588574928723893
 31
0.0
  0
LINE
  5
9F
330
1F
100
AcDbEntity
  8
외형선
  6
Continuous
 62
     1
370
    15
100
AcDbLine
 10
20.2917674785871
 20
-1.586425071276107
 30
0.0
 11
21.25786125968535
 21
-1.586425071276107
 31
0.0
  0
LINE
  5
A0
330
1F
100
AcDbEntity
  8
외형선
  6
Continuous
 62
     1
370
    15
100
AcDbLine
 10
21.25786125968535
 20
1.588574928723893
 30
0.0
 11
20.29176747858713
 21
1.588574928723893
 31
0.0
  0
LINE
  5
A1
330
1F
100
AcDbEntity
  8
외형선
  6
Continuous
 62
     1
370
    15
100
AcDbLine
 10
15.97183317798071
 20
-1.586425071276107
 30
0.0
 11
16.94078451910518
 21
-1.586425071276107
 31
0.0
  0
LINE
  5
A2
330
1F
100
AcDbEntity
  8
외형선
  6
Continuous
370
    15
100
AcDbLine
 10
13.84926131403117
 20
0.0010749287238931
 30
0.0
 11
13.84926131403117
 21
1.588574928723893
 31
0.0
  0
LINE
  5
A3
330
1F
100
AcDbEntity
  8
외형선
  6
Continuous
370
    15
100
AcDbLine
 10
13.84926131403117
 20
-1.586425071276107
 30
0.0
 11
13.84926131403117
 21
0.0010749287238931
 31
0.0
  0
LINE
  5
A4
330
1F
100
AcDbEntity
  8
외형선
  6
Continuous
370
    15
100
AcDbLine
 10
1.999999999999996
 20
0.0010749287238931
 30
0.0
 11
1.999999999999996
 21
4.763574928723898
 31
0.0
  0
LINE
  5
A5
330
1F
100
AcDbEntity
  8
외형선
  6
Continuous
370
    15
100
AcDbLine
 10
1.999999999999996
 20
-4.761425071276111
 30
0.0
 11
1.999999999999996
 21
0.0010749287238931
 31
0.0
  0
LINE
  5
A6
330
1F
100
AcDbEntity
  8
외형선
  6
Continuous
370
    15
100
AcDbLine
 10
-33.41073868596882
 20
0.0010749287238931
 30
0.0
 11
-33.41073868596882
 21
4.763574928723895
 31
0.0
  0
LINE
  5
A7
330
1F
100
AcDbEntity
  8
외형선
  6
Continuous
370
    15
100
AcDbLine
 10
-33.41073868596882
 20
-4.761425071276109
 30
0.0
 11
-33.41073868596882
 21
0.0010749287238931
 31
0.0
  0
LINE
  5
A8
330
1F
100
AcDbEntity
  8
외형선
  6
Continuous
370
    15
100
AcDbLine
 10
-34.36323868596882
 20
0.0010749287238931
 30
0.0
 11
-34.36323868596882
 21
3.811074928723894
 31
0.0
  0
LINE
  5
A9
330
1F
100
AcDbEntity
  8
외형선
  6
Continuous
370
    15
100
AcDbLine
 10
-34.36323868596882
 20
-3.808925071276105
 30
0.0
 11
-34.36323868596882
 21
0.0010749287238931
 31
0.0
  0
SPLINE
  5
AA
330
1F
100
AcDbEntity
  8
외형선
  6
Continuous
370
    15
100
AcDbSpline
210
0.0
220
0.0
230
1.0
 70
     8
 71
     3
 72
     8
 73
     4
 74
     0
 42
0.000000001
 43
0.00000001
 40
0.0
 40
0.0
 40
0.0
 40
0.0
 40
1.0
 40
1.0
 40
1.0
 40
1.0
 10
14.84926131403106
 20
1.458040468499413
 30
0.0
 10
14.68456681557572
 20
1.42001693253134
 30
0.0
 10
14.51650736993302
 20
1.373719342270065
 30
0.0
 10
14.3491892039993
 20
1.320163043127247
 30
0.0
  0
LINE
  5
AB
330
1F
100
AcDbEntity
  8
외형선
  6
Continuous
370
    15
100
AcDbLine
 10
14.34918920399928
 20
1.28498922213991
 30
0.0
 11
14.34918920399928
 21
1.588574928723893
 31
0.0
  0
SPLINE
  5
AC
330
1F
100
AcDbEntity
  8
외형선
  6
Continuous
370
    15
100
AcDbSpline
210
0.0
220
0.0
230
1.0
 70
     8
 71
     3
 72
     8
 73
     4
 74
     0
 42
0.000000001
 43
0.00000001
 40
0.0
 40
0.0
 40
0.0
 40
0.0
 40
1.0
 40
1.0
 40
1.0
 40
1.0
 10
14.84926131403102
 20
1.095180717221712
 30
0.0
 10
14.6845668155757
 20
1.164559851019942
 30
0.0
 10
14.51650736993301
 20
1.22838847229958
 30
0.0
 10
14.3491892039993
 20
1.284999369600914
 30
0.0
  0
LINE
  5
AD
330
1F
100
AcDbEntity
  8
외형선
  6
Continuous
370
    15
100
AcDbLine
 10
14.84926131403117
 20
0.631477709417827
 30
0.0
 11
14.84926131403118
 21
1.095180717221643
 31
0.0
  0
SPLINE
  5
AE
330
1F
100
AcDbEntity
  8
외형선
  6
Continuous
370
    15
100
AcDbSpline
210
0.0
220
0.0
230
1.0
 70
     8
 71
     3
 72
     8
 73
     4
 74
     0
 42
0.000000001
 43
0.00000001
 40
0.0
 40
0.0
 40
0.0
 40
0.0
 40
1.0
 40
1.0
 40
1.0
 40
1.0
 10
14.84926131403106
 20
0.6314777094178191
 30
0.0
 10
14.68456681557572
 20
0.7193564169719276
 30
0.0
 10
14.51650736993302
 20
0.8043612701847214
 30
0.0
 10
14.3491892039993
 20
0.884343175883165
 30
0.0
  0
LINE
  5
AF
330
1F
100
AcDbEntity
  8
외형선
  6
Continuous
370
    15
100
AcDbLine
 10
14.34918920399928
 20
-0.932584718664834
 30
0.0
 11
14.34918920399928
 21
0.8843547015277298
 31
0.0
  0
SPLINE
  5
B0
330
1F
100
AcDbEntity
  8
외형선
  6
Continuous
370
    15
100
AcDbSpline
210
0.0
220
0.0
230
1.0
 70
     8
 71
     3
 72
     8
 73
     4
 74
     0
 42
0.000000001
 43
0.00000001
 40
0.0
 40
0.0
 40
0.0
 40
0.0
 40
1.0
 40
1.0
 40
1.0
 40
1.0
 10
14.84926131403102
 20
-1.149181031302205
 30
0.0
 10
14.6845668155757
 20
-1.083188665665702
 30
0.0
 10
14.51650736993301
 20
-1.010420547377069
 30
0.0
 10
14.3491892039993
 20
-0.932570764308866
 30
0.0
  0
LINE
  5
B1
330
1F
100
AcDbEntity
  8
외형선
  6
Continuous
370
    15
100
AcDbLine
 10
14.84926131403117
 20
-1.455890611052354
 30
0.0
 11
14.84926131403118
 21
-1.14918103130227
 31
0.0
  0
SPLINE
  5
B2
330
1F
100
AcDbEntity
  8
외형선
  6
Continuous
370
    15
100
AcDbSpline
210
0.0
220
0.0
230
1.0
 70
     8
 71
     3
 72
     8
 73
     4
 74
     0
 42
0.000000001
 43
0.00000001
 40
0.0
 40
0.0
 40
0.0
 40
0.0
 40
1.0
 40
1.0
 40
1.0
 40
1.0
 10
14.84926131403106
 20
-1.455890611051627
 30
0.0
 10
14.68456681557572
 20
-1.417867075083554
 30
0.0
 10
14.51650736993302
 20
-1.371569484822279
 30
0.0
 10
14.3491892039993
 20
-1.31801318567946
 30
0.0
  0
LINE
  5
B3
330
1F
100
AcDbEntity
  8
외형선
  6
Continuous
370
    15
100
AcDbLine
 10
14.34918920399928
 20
-1.586425071276107
 30
0.0
 11
14.34918920399928
 21
-1.318005467975114
 31
0.0
  0
SPLINE
  5
B4
330
1F
100
AcDbEntity
  8
외형선
  6
Continuous
370
    15
100
AcDbSpline
210
0.0
220
0.0
230
1.0
 70
    24
 71
     3
 72
    22
 73
    18
 74
     0
 42
0.000000001
 43
0.00000001
 40
0.0
 40
0.0
 40
0.0
 40
0.0
 40
0.125
 40
0.125
 40
0.2500000000000001
 40
0.2500000000000001
 40
0.3750000000000001
 40
0.3750000000000001
 40
0.5
 40
0.5
 40
0.625
 40
0.625
 40
0.75
 40
0.75
 40
0.8750000000000001
 40
0.8750000000000001
 40
1.0
 40
1.0
 40
1.0
 40
1.0
 10
14.84926131403118
 20
-1.149181031302273
 30
0.0
 10
14.84926131403118
 20
-1.096177946081187
 30
0.0
 10
14.84926131403118
 20
-1.02238146306271
 30
0.0
 10
14.84926131403119
 20
-0.8363966503605487
 30
0.0
 10
14.84926131403117
 20
-0.7243019312488965
 30
0.0
 10
14.84926131403119
 20
-0.4841485892492377
 30
0.0
 10
14.84926131403119
 20
-0.3567850520316008
 30
0.0
 10
14.84926131403119
 20
-0.1158943235385152
 30
0.0
 10
14.84926131403118
 20
-0.0027837724412693
 30
0.0
 10
14.84926131403119
 20
0.1926124686325719
 30
0.0
 10
14.84926131403118
 20
0.2750673402982475
 30
0.0
 10
14.84926131403119
 20
0.4087414916031207
 30
0.0
 10
14.8492613140312
 20
0.4602506202340471
 30
0.0
 10
14.84926131403119
 20
0.539476908808041
 30
0.0
 10
14.84926131403119
 20
0.5673435892296954
 30
0.0
 10
14.84926131403119
 20
0.6073473538472146
 30
0.0
 10
14.84926131403116
 20
0.6235430209735103
 30
0.0
 10
14.84926131403117
 20
0.6314777094178217
 30
0.0
  0
SPLINE
  5
B5
330
1F
100
AcDbEntity
  8
외형선
  6
Continuous
370
    15
100
AcDbSpline
210
0.0
220
0.0
230
1.0
 70
    24
 71
     3
 72
    10
 73
     6
 74
     0
 42
0.000000001
 43
0.00000001
 40
0.0
 40
0.0
 40
0.0
 40
0.0
 40
0.4505246260444836
 40
0.9343887233965259
 40
1.0
 40
1.0
 40
1.0
 40
1.0
 10
14.84926131403115
 20
1.136309738981691
 30
0.0
 10
14.84926131403113
 20
1.182624203763926
 30
0.0
 10
14.84926131403112
 20
1.278680470438219
 30
0.0
 10
14.84926131403122
 20
1.389510623218489
 30
0.0
 10
14.84926131403117
 20
1.45073039173245
 30
0.0
 10
14.84926131403118
 20
1.458040468500141
 30
0.0
  0
LINE
  5
B6
330
1F
100
AcDbEntity
  8
외형선
  6
Continuous
 62
     1
370
    15
100
AcDbLine
 10
24.37426131403117
 20
-1.436694213219604
 30
0.0
 11
24.37426131403117
 21
0.1370940706674088
 31
0.0
  0
SPLINE
  5
B7
330
1F
100
AcDbEntity
  8
외형선
  6
Continuous
 62
     1
370
    15
100
AcDbSpline
210
0.0
220
0.0
230
1.0
 70
     8
 71
     3
 72
    17
 73
    13
 74
     0
 42
0.000000001
 43
0.00000001
 40
0.0
 40
0.0
 40
0.0
 40
0.0
 40
0.0262207104203282
 40
0.1286742662552353
 40
0.2311274763644468
 40
0.3336040090177138
 40
0.4361273807010278
 40
0.5488915883109227
 40
0.6616605920851353
 40
0.7744347550574893
 40
0.8872144381440173
 40
1.0
 40
1.0
 40
1.0
 40
1.0
 10
16.9407845191052
 20
1.577003071381283
 30
0.0
 10
17.00574469525282
 20
1.580459841398126
 30
0.0
 10
17.3245271716851
 20
1.597423430042371
 30
0.0
 10
17.89708845903031
 20
1.506549643839986
 30
0.0
 10
18.65856714420145
 20
1.306466615330652
 30
0.0
 10
19.42025633415505
 20
0.9972114145137532
 30
0.0
 10
20.20753735351148
 20
0.6018138771961556
 30
0.0
 10
21.02053970308208
 20
0.1404565921037532
 30
0.0
 10
21.85889079200019
 20
-0.3486067385651679
 30
0.0
 10
22.69730472154658
 20
-0.8029409963271581
 30
0.0
 10
23.53576275219648
 20
-1.192632207488098
 30
0.0
 10
24.09475693717807
 20
-1.355338797801547
 30
0.0
 10
24.37426131403118
 20
-1.436694213219604
 30
0.0
  0
SPLINE
  5
B8
330
1F
100
AcDbEntity
  8
외형선
  6
Continuous
 62
     1
370
    15
100
AcDbSpline
210
0.0
220
0.0
230
1.0
 70
     8
 71
     3
 72
    15
 73
    11
 74
     0
 42
0.000000001
 43
0.00000001
 40
0.0
 40
0.0
 40
0.0
 40
0.0
 40
0.1329218162733438
 40
0.2657452420644595
 40
0.3985002133754825
 40
0.5312171095280386
 40
0.6639265574660299
 40
0.7966592326600771
 40
0.9294456593444422
 40
0.9999999999999999
 40
0.9999999999999999
 40
0.9999999999999999
 40
0.9999999999999999
 10
24.37426131403117
 20
0.1370940706674088
 30
0.0
 10
24.11996345560445
 20
0.282230975578929
 30
0.0
 10
23.61155597338115
 20
0.5723973531499609
 30
0.0
 10
22.84932144920444
 20
0.961350036954317
 30
0.0
 10
22.08754733192074
 20
1.277773365550758
 30
0.0
 10
21.32603679508084
 20
1.496153871156984
 30
0.0
 10
20.56458050071321
 20
1.602048335136556
 30
0.0
 10
19.80295060114409
 20
1.580110581906309
 30
0.0
 10
19.16018732654358
 20
1.47784553946263
 30
0.0
 10
18.77116994601498
 20
1.34159073512153
 30
0.0
 10
18.63619030004529
 20
1.294313605172631
 30
0.0
  0
SPLINE
  5
B9
330
1F
100
AcDbEntity
  8
외형선
  6
Continuous
 62
     1
370
    15
100
AcDbSpline
210
0.0
220
0.0
230
1.0
 70
     8
 71
     3
 72
    18
 73
    14
 74
     0
 42
0.000000001
 43
0.00000001
 40
0.0
 40
0.0
 40
0.0
 40
0.0
 40
0.0944494678371938
 40
0.1888338281115798
 40
0.2831744402010675
 40
0.3774929471355739
 40
0.4718111357958051
 40
0.5661507951362411
 40
0.6605335743795862
 40
0.7643440435306667
 40
0.8681589280195436
 40
0.9719785620543157
 40
1.0
 40
1.0
 40
1.0
 40
1.0
 10
14.84926131403102
 20
1.095180717221714
 30
0.0
 10
15.10350117586396
 20
0.9807646546177706
 30
0.0
 10
15.61180564245162
 20
0.7520114006957974
 30
0.0
 10
16.37391497443329
 20
0.3290906964787279
 30
0.0
 10
17.13561090414735
 20
-0.1127768193544112
 30
0.0
 10
17.89709079537687
 20
-0.5475343222501842
 30
0.0
 10
18.6585665195366
 20
-0.9399685546397788
 30
0.0
 10
19.42025649601338
 20
-1.260905226369333
 30
0.0
 10
20.20753732498831
 20
-1.492402555885587
 30
0.0
 10
21.02053962843912
 20
-1.606711764009375
 30
0.0
 10
21.85889111767905
 20
-1.567246937514242
 30
0.0
 10
22.49324980259263
 20
-1.453323780012598
 30
0.0
 10
22.84815358399096
 20
-1.320822169567099
 30
0.0
 10
22.92358466277206
 20
-1.292660341094162
 30
0.0
  0
SPLINE
  5
BA
330
1F
100
AcDbEntity
  8
외형선
  6
Continuous
370
    15
100
AcDbSpline
210
0.0
220
0.0
230
1.0
 70
    24
 71
     3
 72
    10
 73
     6
 74
     0
 42
0.000000001
 43
0.00000001
 40
0.0
 40
0.0
 40
0.0
 40
0.0
 40
0.2979227073907236
 40
0.599222341331762
 40
1.0
 40
1.0
 40
1.0
 40
1.0
 10
14.84926131403117
 20
1.458040468499441
 30
0.0
 10
14.84926131403119
 20
1.42486797000531
 30
0.0
 10
14.84926131403123
 20
1.358146965790587
 30
0.0
 10
14.84926131403117
 20
1.249034870446057
 30
0.0
 10
14.84926131403118
 20
1.177274069067914
 30
0.0
 10
14.84926131403118
 20
1.136309738981691
 30
0.0
  0
SPLINE
  5
BB
330
1F
100
AcDbEntity
  8
외형선
  6
Continuous
 62
     1
370
    15
100
AcDbSpline
210
0.0
220
0.0
230
1.0
 70
     8
 71
     3
 72
    38
 73
    34
 74
     0
 42
0.000000001
 43
0.00000001
 40
0.0
 40
0.0
 40
0.0
 40
0.0
 40
0.0625
 40
0.0625
 40
0.125
 40
0.125
 40
0.1875
 40
0.1875
 40
0.25
 40
0.25
 40
0.3125
 40
0.3125
 40
0.375
 40
0.375
 40
0.4375
 40
0.4375
 40
0.5
 40
0.5
 40
0.5625
 40
0.5625
 40
0.625
 40
0.625
 40
0.6875
 40
0.6875
 40
0.75
 40
0.75
 40
0.8125
 40
0.8125
 40
0.875
 40
0.875
 40
0.9375
 40
0.9375
 40
1.0
 40
1.0
 40
1.0
 40
1.0
 10
24.37426131403117
 20
-1.580587185327321
 30
0.0
 10
24.17826148845269
 20
-1.570810897222263
 30
0.0
 10
23.97720758599444
 20
-1.54855078597685
 30
0.0
 10
23.57892404924467
 20
-1.480228534385507
 30
0.0
 10
23.38366814962876
 20
-1.434481803564797
 30
0.0
 10
22.984762794761
 20
-1.320684350939521
 30
0.0
 10
22.78577245740295
 20
-1.252966469029321
 30
0.0
 10
22.3919368042406
 20
-1.099657155762697
 30
0.0
 10
22.19063231241465
 20
-1.013180764368493
 30
0.0
 10
21.79323895451046
 20
-0.8264524524239507
 30
0.0
 10
21.59753124506658
 20
-0.7263804955402623
 30
0.0
 10
21.19827383459386
 20
-0.5151294591956406
 30
0.0
 10
21.00090362059748
 20
-0.4050272478166877
 30
0.0
 10
20.60549037708168
 20
-0.1801171344209167
 30
0.0
 10
20.40407432330254
 20
-0.0646545848665728
 30
0.0
 10
20.00783750286275
 20
0.1642554527400812
 30
0.0
 10
19.81122718920481
 20
0.2780430999392833
 30
0.0
 10
19.41188828047605
 20
0.5006824287718643
 30
0.0
 10
19.21569112474814
 20
0.6083132142612508
 30
0.0
 10
18.81896221565044
 20
0.8132551941736967
 30
0.0
 10
18.61757388696535
 20
0.9106270877123718
 30
0.0
 10
18.22275736961238
 20
1.08846222196642
 30
0.0
 10
18.0247956834576
 20
1.169668222271245
 30
0.0
 10
17.62564601794232
 20
1.312972526115698
 30
0.0
 10
17.43017222518518
 20
1.374449441243674
 30
0.0
 10
17.0323925182774
 20
1.475795776212347
 30
0.0
 10
16.83117113719342
 20
1.51538812468675
 30
0.0
 10
16.43803551683212
 20
1.569928174340174
 30
0.0
 10
16.23827671713967
 20
1.585280519880635
 30
0.0
 10
15.83958660884005
 20
1.590912929220546
 30
0.0
 10
15.64438485904433
 20
1.581338317962476
 30
0.0
 10
15.24582158121335
 20
1.5375997021142
 30
0.0
 10
15.04564188245827
 20
1.503379466930193
 30
0.0
 10
14.84926131403101
 20
1.458040468499404
 30
0.0
  0
LINE
  5
BC
330
1F
100
AcDbEntity
  8
외형선
  6
Continuous
 62
     1
370
    15
100
AcDbLine
 10
24.37426131403117
 20
-1.580587185327321
 30
0.0
 11
24.37426131403117
 21
-1.436694213219604
 31
0.0
  0
SPLINE
  5
BD
330
1F
100
AcDbEntity
  8
외형선
  6
Continuous
 62
     1
370
    15
100
AcDbSpline
210
0.0
220
0.0
230
1.0
 70
     8
 71
     3
 72
    14
 73
    10
 74
     0
 42
0.000000001
 43
0.00000001
 40
0.0
 40
0.0
 40
0.0
 40
0.0
 40
0.0898175587307691
 40
0.2298370769622382
 40
0.3838564698251629
 40
0.5378819616150059
 40
0.6919140506535841
 40
0.8459532325493927
 40
0.9999999999999999
 40
0.9999999999999999
 40
0.9999999999999999
 40
0.9999999999999999
 10
20.2917674785871
 20
-1.57244202873367
 30
0.0
 10
20.12886333324858
 20
-1.573106695726164
 30
0.0
 10
19.7120026089233
 20
-1.574807533745664
 30
0.0
 10
19.01575865519553
 20
-1.435391747239223
 30
0.0
 10
18.2028092749534
 20
-1.168925841860774
 30
0.0
 10
17.36449855758422
 20
-0.7802806858021024
 30
0.0
 10
16.52612610882885
 20
-0.322200378367166
 30
0.0
 10
15.68771292767837
 20
0.1702828789547553
 30
0.0
 10
15.1287497727606
 20
0.4777435758767747
 30
0.0
 10
14.84926131403101
 20
0.6314777094178405
 30
0.0
  0
SPLINE
  5
BE
330
1F
100
AcDbEntity
  8
외형선
  6
Continuous
 62
     1
370
    15
100
AcDbSpline
210
0.0
220
0.0
230
1.0
 70
     8
 71
     3
 72
    12
 73
     8
 74
     0
 42
0.000000001
 43
0.00000001
 40
0.0
 40
0.0
 40
0.0
 40
0.0
 40
0.2013651795368994
 40
0.4025915504984415
 40
0.6037246508327524
 40
0.8048106232307901
 40
1.0
 40
1.0
 40
1.0
 40
1.0
 10
14.84926131403101
 20
-1.149181031302203
 30
0.0
 10
15.10350118700993
 20
-1.24168552879684
 30
0.0
 10
15.61180567588188
 20
-1.426630756964359
 30
0.0
 10
16.37391484084562
 20
-1.572135750639091
 30
0.0
 10
17.13561140480391
 20
-1.601806889280973
 30
0.0
 10
17.88964722967375
 20
-1.516004501681744
 30
0.0
 10
18.38982349193769
 20
-1.366033473753258
 30
0.0
 10
18.63619030004526
 20
-1.292163747724843
 30
0.0
  0
SPLINE
  5
BF
330
1F
100
AcDbEntity
  8
외형선
  6
Continuous
370
    15
100
AcDbSpline
210
0.0
220
0.0
230
1.0
 70
    24
 71
     3
 72
    22
 73
    18
 74
     0
 42
0.000000001
 43
0.00000001
 40
0.0
 40
0.0
 40
0.0
 40
0.0
 40
0.125
 40
0.125
 40
0.25
 40
0.25
 40
0.375
 40
0.375
 40
0.5
 40
0.5
 40
0.625
 40
0.625
 40
0.75
 40
0.75
 40
0.875
 40
0.875
 40
1.0
 40
1.0
 40
1.0
 40
1.0
 10
14.84926131403134
 20
0.6314777094176631
 30
0.0
 10
14.84926131403135
 20
0.6235430209733058
 30
0.0
 10
14.84926131403135
 20
0.6073473538470089
 30
0.0
 10
14.84926131403135
 20
0.5673435892294245
 30
0.0
 10
14.84926131403133
 20
0.5394769088077331
 30
0.0
 10
14.84926131403134
 20
0.4602506202336645
 30
0.0
 10
14.84926131403133
 20
0.4087414916027003
 30
0.0
 10
14.84926131403133
 20
0.2750673402977647
 30
0.0
 10
14.84926131403133
 20
0.1926124686320646
 30
0.0
 10
14.84926131403134
 20
-0.0027837724417911
 30
0.0
 10
14.84926131403133
 20
-0.1158943235390267
 30
0.0
 10
14.84926131403133
 20
-0.3567850520320508
 30
0.0
 10
14.84926131403133
 20
-0.4841485892496377
 30
0.0
 10
14.84926131403133
 20
-0.7243019312491831
 30
0.0
 10
14.84926131403133
 20
-0.8363966503607728
 30
0.0
 10
14.84926131403134
 20
-1.022381463062837
 30
0.0
 10
14.84926131403133
 20
-1.096177946081279
 30
0.0
 10
14.84926131403133
 20
-1.149181031302347
 30
0.0
  0
SPLINE
  5
C0
330
1F
100
AcDbEntity
  8
외형선
  6
Continuous
 62
     1
370
    15
100
AcDbSpline
210
0.0
220
0.0
230
1.0
 70
     8
 71
     3
 72
    11
 73
     7
 74
     0
 42
0.000000001
 43
0.00000001
 40
0.0
 40
0.0
 40
0.0
 40
0.0
 40
0.1928603749860186
 40
0.4618934627180705
 40
0.7309397191877416
 40
0.9999999999999999
 40
0.9999999999999999
 40
0.9999999999999999
 40
0.9999999999999999
 10
21.25786125968535
 20
1.573647237723045
 30
0.0
 10
21.45820120909316
 20
1.572317586887803
 30
0.0
 10
21.93800797582504
 20
1.569133122331305
 30
0.0
 10
22.69730414194154
 20
1.393660367105182
 30
0.0
 10
23.53576289710951
 20
1.095041703094884
 30
0.0
 10
24.09475698548326
 20
0.8144229745135461
 30
0.0
 10
24.37426131403118
 20
0.674109953425465
 30
0.0
  0
LINE
  5
C1
330
1F
100
AcDbEntity
  8
외형선
  6
Continuous
 62
     1
370
    15
100
AcDbLine
 10
24.37426131403117
 20
0.1370940706674088
 30
0.0
 11
24.37426131403117
 21
0.6741099534254649
 31
0.0
  0
SPLINE
  5
C2
330
1F
100
AcDbEntity
  8
외형선
  6
Continuous
 62
     1
370
    15
100
AcDbSpline
210
0.0
220
0.0
230
1.0
 70
     8
 71
     3
 72
     9
 73
     5
 74
     0
 42
0.000000001
 43
0.00000001
 40
0.0
 40
0.0
 40
0.0
 40
0.0
 40
0.5258338593678015
 40
1.0
 40
1.0
 40
1.0
 40
1.0
 10
24.37426131403117
 20
1.582737042775108
 30
0.0
 10
24.1199620220552
 20
1.560135103766519
 30
0.0
 10
23.63635054012869
 20
1.517152061488179
 30
0.0
 10
23.1528460980507
 20
1.366326549479825
 30
0.0
 10
22.92358466277206
 20
1.294810198541948
 30
0.0
  0
SPLINE
  5
C3
330
1F
100
AcDbEntity
  8
외형선
  6
Continuous
 62
     1
370
    15
100
AcDbSpline
210
0.0
220
0.0
230
1.0
 70
     8
 71
     3
 72
     9
 73
     5
 74
     0
 42
0.000000001
 43
0.00000001
 40
0.0
 40
0.0
 40
0.0
 40
0.0
 40
0.2530889514999922
 40
1.0
 40
1.0
 40
1.0
 40
1.0
 10
15.97183317798071
 20
-1.569938264783499
 30
0.0
 10
15.87713047725428
 20
-1.574684750597442
 30
0.0
 10
15.50294306146567
 20
-1.593438970352244
 30
0.0
 10
15.12875014076949
 20
-1.514700926180658
 30
0.0
 10
14.84926131403101
 20
-1.455890611051618
 30
0.0
  0
LINE
  5
C4
330
1F
100
AcDbEntity
  8
외형선
  6
Continuous
 62
     1
370
    15
100
AcDbLine
 10
24.37426131403117
 20
0.6741099534254649
 30
0.0
 11
24.37426131403117
 21
1.582737042775108
 31
0.0
  0
LINE
  5
C5
330
1F
100
AcDbEntity
  8
중심선
 62
     1
100
AcDbLine
 10
-37.36323868596882
 20
0.0010749287238892
 30
0.0
 11
27.37426131403118
 21
0.001074928723898
 31
0.0
  0
LINE
  5
C6
330
1F
100
AcDbEntity
  8
참조1
100
AcDbLine
 10
-4.994488685968824
 20
0.0010749287238892
 30
0.0
 11
-4.994488685968824
 21
-39.99892507127612
 31
0.0
  0
LINE
  5
C7
330
1F
100
AcDbEntity
  8
참조1
100
AcDbLine
 10
-4.994488685968824
 20
-39.99892507127612
 30
0.0
 11
-20.1533455002775
 21
-39.9989250712761
 31
0.0
  0
CIRCLE
  5
C8
330
1F
100
AcDbEntity
  8
해칭선
100
AcDbCircle
 10
0.0
 20
0.0
 30
0.0
 40
3.000000000000001
  0
INSERT
  5
C9
330
1F
100
AcDbEntity
  8
0
  6
Continuous
 62
     7
100
AcDbBlockReference
 66
     1
  2
블럭10
 10
-18.93476161809404
 20
-52.04609937292005
 30
0.0
  0
ATTRIB
  5
CA
330
C9
100
AcDbEntity
  8
FORMAT
 62
     2
100
AcDbText
 10
-28.11605690683532
 20
-49.97073246008786
 30
0.0
 40
4.233333333333333
  1
E2039008 [ 4 FLUTE ]
 41
0.75
  7
SLDTEXTSTYLE0
 11
-28.11605690683532
 21
-52.08739912675453
 31
0.0
100
AcDbAttribute
  2
AUTOATTR0
 70
     0
 74
     1
  0
SEQEND
  5
CB
330
C9
100
AcDbEntity
  8
0
  6
Continuous
 62
     7
  0
HATCH
  5
CC
330
1F
100
AcDbEntity
  8
중심선
100
AcDbHatch
 10
0.0
 20
0.0
 30
0.0
210
0.0
220
0.0
230
1.0
  2
SOLID
 70
     1
 71
     0
 91
        1
 92
        0
 93
        4
 72
     1
 10
-13.21985231371319
 20
-35.7989250712761
 11
-16.66612755755047
 21
-35.7989250712761
 72
     1
 10
-16.66612755755048
 20
-35.7989250712761
 11
-18.7943574167545
 21
-38.3352506518487
 72
     1
 10
-18.7943574167545
 20
-38.3352506518487
 11
-15.34804908780407
 21
-38.33521122254621
 72
     1
 10
-15.34804908780407
 20
-38.33521122254621
 11
-13.21985231371319
 21
-35.7989250712761
 97
        0
 75
     0
 76
     1
 98
        1
 10
1.48115766425389
 20
0.0
  0
HATCH
  5
CD
330
1F
100
AcDbEntity
  8
중심선
100
AcDbHatch
 10
0.0
 20
0.0
 30
0.0
210
0.0
220
0.0
230
1.0
  2
SOLID
 70
     1
 71
     0
 91
        1
 92
        0
 93
        4
 72
     1
 10
-8.207088322677214
 20
-35.7989250712761
 11
-11.6533635665145
 21
-35.7989250712761
 72
     1
 10
-11.6533635665145
 20
-35.7989250712761
 11
-16.18450157487191
 21
-41.19892507127612
 72
     1
 10
-16.18450157487191
 20
-41.19892507127612
 11
-12.73822633103463
 21
-41.19892507127612
 72
     1
 10
-12.73822633103463
 20
-41.19892507127612
 11
-8.207088322677214
 21
-35.7989250712761
 97
        0
 75
     0
 76
     1
 98
        1
 10
1.48115766425389
 20
0.0
  0
HATCH
  5
CE
330
1F
100
AcDbEntity
  8
중심선
100
AcDbHatch
 10
0.0
 20
0.0
 30
0.0
210
0.0
220
0.0
230
1.0
  2
SOLID
 70
     1
 71
     0
 91
        1
 92
        0
 93
        4
 72
     1
 10
-3.194324331641346
 20
-35.7989250712761
 11
-6.640599575478462
 21
-35.7989250712761
 72
     1
 10
-6.640599575478462
 20
-35.7989250712761
 11
-13.68903647736771
 21
-44.19892507127612
 72
     1
 10
-13.68903647736771
 20
-44.19892507127612
 11
-10.24276123353043
 21
-44.19892507127612
 72
     1
 10
-10.24276123353043
 20
-44.19892507127612
 11
-3.194324331641345
 21
-35.7989250712761
 97
        0
 75
     0
 76
     1
 98
        1
 10
1.48115766425389
 20
0.0
  0
HATCH
  5
CF
330
1F
100
AcDbEntity
  8
중심선
100
AcDbHatch
 10
0.0
 20
0.0
 30
0.0
210
0.0
220
0.0
230
1.0
  2
SOLID
 70
     1
 71
     0
 91
        1
 92
        0
 93
        6
 72
     3
 10
1.605566099370853
 20
-39.99892507132738
 11
3.960054785062284
 21
1.540882976769353E-10
 40
0.3939339440162627
 50
17.09539180608437
 51
320.0019657685075
 73
     0
 72
     1
 10
3.288565755071448
 20
-38.58681907591438
 11
5.593867628772486
 21
-36.65249236586649
 72
     3
 10
1.605566099318006
 20
-39.99892507127625
 11
6.600054785286829
 21
-1.278976924368180E-13
 40
0.636358354079598
 50
39.99873849337411
 51
368.4976242363725
 73
     1
 72
     1
 10
8.030898591218616
 20
-39.03892507120613
 11
0.285633406153929
 21
-39.0389250712061
 72
     1
 10
0.2856334061539285
 20
-39.0389250712061
 11
0.2856083617079948
 21
-40.95892507120602
 72
     1
 10
0.2856083617079948
 20
-40.95892507120602
 11
4.726988131180033
 21
-40.95892507120599
 97
        0
 75
     0
 76
     1
 98
        1
 10
1.48115766425389
 20
0.0
  0
DIMENSION
  5
D0
330
1F
100
AcDbEntity
  8
치수문자_일반주서
100
AcDbDimension
  2
_D
 10
14.84926131403118
 20
17.04271204708915
 30
0.0
 11
-0.2652386859688221
 21
17.04271204708915
 31
0.0
 70
   160
  1
<>
 71
     2
 42
9.524999999999995
  3
SLDDIMSTYLE0
100
AcDbAlignedDimension
 13
24.37426131403117
 23
1.582737042775108
 33
0.0
 14
14.84926131403118
 24
1.458040468499441
 34
0.0
100
AcDbRotatedDimension
1001
ACAD
1000
DSTYLE
1002
{
1070
   171
1070
     6
1070
   273
1070
     7
1002
}
  0
DIMENSION
  5
E5
330
1F
100
AcDbEntity
  8
치수문자_일반주서
100
AcDbDimension
  2
_D_1
 10
-34.36323868596882
 20
30.48478012652668
 30
0.0
 11
-4.994488685968827
 21
30.48478012652668
 31
0.0
 70
   160
  1
<>
 71
     2
 42
58.73749999999999
  3
SLDDIMSTYLE0
100
AcDbAlignedDimension
 13
24.37426131403117
 23
1.582737042775108
 33
0.0
 14
-34.36323868596882
 24
3.811074928723895
 34
0.0
 50
0.0000000000000069
100
AcDbRotatedDimension
1001
ACAD
1000
DSTYLE
1002
{
1070
   171
1070
     6
1070
   273
1070
     7
1002
}
  0
DIMENSION
  5
F8
330
1F
100
AcDbEntity
  8
치수문자_일반주서
100
AcDbDimension
  2
_D_2
 10
-45.664011523796
 20
-4.761425071276156
 30
0.0
 11
-45.66401152379602
 21
0.0010749287238959
 31
0.0
 70
   160
  1
%%c<>
 71
     2
 42
9.525000000000006
 52
-270.0
  3
SLDDIMSTYLE1
100
AcDbAlignedDimension
 13
-33.41073868596882
 23
4.763574928723896
 33
0.0
 14
-33.41073868596882
 24
-4.761425071276109
 34
0.0
 50
90.0000000000002
100
AcDbRotatedDimension
1001
ACAD
1000
DSTYLE
1002
{
1070
   171
1070
     6
1070
   273
1070
     7
1002
}
  0
LINE
  5
121
330
1F
100
AcDbEntity
  8
참조1
100
AcDbLine
 10
77.81899512937676
 20
7.441074928723896
 30
0.0
 11
77.81899512937676
 21
-7.438925071276109
 31
0.0
  0
LINE
  5
122
330
1F
100
AcDbEntity
  8
참조1
100
AcDbLine
 10
90.51899512937676
 20
5.441074928723896
 30
0.0
 11
77.81899512937676
 21
5.441074928723896
 31
0.0
  0
SOLID
  5
123
330
1F
100
AcDbEntity
  8
참조1
100
AcDbTrace
 10
77.81899512937676
 20
5.441074928723896
 30
0.0
 11
84.16899512937675
 21
4.425074928723896
 31
0.0
 12
84.16899512937675
 22
6.457074928723896
 32
0.0
 13
84.16899512937675
 23
6.457074928723896
 33
0.0
  0
LINE
  5
124
330
1F
100
AcDbEntity
  8
참조1
100
AcDbLine
 10
90.51899512937676
 20
-5.438925071276109
 30
0.0
 11
77.81899512937676
 21
-5.438925071276109
 31
0.0
  0
SOLID
  5
125
330
1F
100
AcDbEntity
  8
참조1
100
AcDbTrace
 10
77.81899512937676
 20
-5.438925071276109
 30
0.0
 11
84.16899512937675
 21
-6.454925071276109
 31
0.0
 12
84.16899512937675
 22
-4.422925071276109
 32
0.0
 13
84.16899512937675
 23
-4.422925071276109
 33
0.0
  0
MTEXT
  5
126
330
1F
100
AcDbEntity
  8
참조1
100
AcDbMText
 10
87.20334526200276
 20
11.01136670591222
 30
0.0
 40
3.5
 41
0.0
 71
     1
 72
     1
  1
A
  7
SLDTEXTSTYLE0
 73
     1
 44
1.0
  0
MTEXT
  5
127
330
1F
100
AcDbEntity
  8
참조1
100
AcDbMText
 10
87.20334526200276
 20
0.1313667059122201
 30
0.0
 40
3.5
 41
0.0
 71
     1
 72
     1
  1
A
  7
SLDTEXTSTYLE0
 73
     1
 44
1.0
  0
INSERT
  5
12E
330
1F
100
AcDbEntity
  8
해칭선
100
AcDbBlockReference
  2
SW_DOWELSYMBOL_0
 10
0.0
 20
0.0
 30
0.0
  0
LINE
  5
18F
330
1F
100
AcDbEntity
  8
외형선
  6
Continuous
370
    15
100
AcDbLine
 10
-18.08818868596894
 20
3.493574928723902
 30
0.0
 11
-10.95078868596881
 21
3.493574928723902
 31
0.0
  0
LINE
  5
190
330
1F
100
AcDbEntity
  8
외형선
  6
Continuous
370
    15
100
AcDbLine
 10
-18.08818868596894
 20
3.493574928723902
 30
0.0
 11
-19.35818868596892
 21
4.763574928723884
 31
0.0
  0
LINE
  5
191
330
1F
100
AcDbEntity
  8
외형선
  6
Continuous
370
    15
100
AcDbLine
 10
-10.95078868596881
 20
3.493574928723902
 30
0.0
 11
-9.680788685968716
 21
4.763574928723884
 31
0.0
  0
LINE
  5
192
330
1F
100
AcDbEntity
  8
외형선
  6
Continuous
370
    15
100
AcDbLine
 10
-19.35818868596893
 20
4.763574928723895
 30
0.0
 11
-33.41073868596882
 21
4.763574928723895
 31
0.0
  0
LINE
  5
193
102
{ACAD_REACTORS
102
}
330
1F
100
AcDbEntity
  8
외형선
  6
Continuous
 62
     1
370
    15
100
AcDbLine
 10
24.37426131403116
 20
1.588574928723897
 30
0.0
 11
24.37426131403116
 21
-1.586425071276103
 31
0.0
  0
DIMENSION
  5
194
102
{ACAD_REACTORS
102
}
102
{ACAD_XDICTIONARY
360
195
102
}
330
1F
100
AcDbEntity
  8
치수문자_일반주서
100
AcDbDimension
  2
*D8
 10
38.16401578991142
 20
-1.586425071276103
 30
0.0
 11
38.16401578991142
 21
20.4425749287239
 31
0.0
 70
   160
  1
{%%C<>[]}
 71
     5
 42
3.175000000000001
  3
SLDDIMSTYLE0
100
AcDbAlignedDimension
 13
24.37426131403116
 23
1.588574928723897
 33
0.0
 14
24.37426131403116
 24
-1.586425071276103
 34
0.0
 50
90.0
100
AcDbRotatedDimension
1001
ACAD
1000
DSTYLE
1002
{
1070
   283
1070
     1
1070
   170
1070
     1
1070
   171
1070
     6
1070
   273
1070
     7
1002
}
  0
ENDSEC
  0
SECTION
  2
OBJECTS
  0
DICTIONARY
  5
C
330
0
100
AcDbDictionary
281
     1
  3
ACAD_GROUP
350
D
  3
ACAD_IMAGE_VARS
350
152
  3
ACAD_LAYOUT
350
1A
  3
ACAD_MLINESTYLE
350
17
  3
ACAD_PLOTSETTINGS
350
19
  3
ACAD_PLOTSTYLENAME
350
E
  3
ACAD_SCALELIST
350
47
  3
APPDATA
350
150
  3
DWGPROPS
350
1A8
  0
DICTIONARY
  5
180
330
2
100
AcDbDictionary
280
     1
281
     1
  3
ACAD_LAYERSTATES
360
181
  0
DICTIONARY
  5
195
330
194
100
AcDbDictionary
280
     1
281
     1
  0
DICTIONARY
  5
D
102
{ACAD_REACTORS
330
C
102
}
330
C
100
AcDbDictionary
281
     1
  0
RASTERVARIABLES
  5
152
102
{ACAD_REACTORS
330
C
102
}
330
C
100
AcDbRasterVariables
 90
        0
 70
     1
 71
     1
 72
     1
  0
DICTIONARY
  5
1A
102
{ACAD_REACTORS
330
C
102
}
330
C
100
AcDbDictionary
281
     1
  3
Layout1
350
1E
  3
Layout2
350
26
  3
Model
350
22
  0
DICTIONARY
  5
17
102
{ACAD_REACTORS
330
C
102
}
330
C
100
AcDbDictionary
281
     1
  3
Standard
350
18
  0
DICTIONARY
  5
19
102
{ACAD_REACTORS
330
C
102
}
330
C
100
AcDbDictionary
281
     1
  0
ACDBDICTIONARYWDFLT
  5
E
102
{ACAD_REACTORS
330
C
102
}
330
C
100
AcDbDictionary
281
     1
  3
Normal
350
F
100
AcDbDictionaryWithDefault
340
F
  0
DICTIONARY
  5
47
102
{ACAD_REACTORS
330
C
102
}
330
C
100
AcDbDictionary
281
     1
  3
A0
350
48
  3
A1
350
49
  3
A2
350
4A
  3
A3
350
4B
  3
A4
350
4C
  3
A5
350
4D
  3
A6
350
4E
  3
A7
350
4F
  3
A8
350
50
  3
A9
350
51
  3
B0
350
52
  3
B1
350
53
  3
B2
350
54
  3
B3
350
55
  3
B4
350
56
  3
B5
350
57
  3
B6
350
58
  3
B7
350
59
  3
B8
350
5A
  3
B9
350
5B
  3
C0
350
5C
  3
C1
350
5D
  3
C2
350
5E
  3
C3
350
5F
  3
C4
350
60
  3
C5
350
61
  3
C6
350
62
  3
C7
350
63
  3
C8
350
64
  3
C9
350
65
  3
D0
350
66
  3
D1
350
67
  3
D2
350
68
  0
DICTIONARY
  5
150
102
{ACAD_REACTORS
330
C
102
}
330
C
100
AcDbDictionary
281
     1
  0
XRECORD
  5
1A8
102
{ACAD_REACTORS
330
C
102
}
330
C
100
AcDbXrecord
280
     1
  1
DWGPROPS COOKIE
  2

  3

  4

  6

  7

  8
12016016
  9

300
=
301
=
302
=
303
=
304
=
305
=
306
=
307
=
308
=
309
=
 40
0.0
 41
2458312.301951319
 42
2458319.136980752
  1

 90
        0
  0
DICTIONARY
  5
181
102
{ACAD_REACTORS
330
180
102
}
330
180
100
AcDbDictionary
281
     1
  0
LAYOUT
  5
1E
102
{ACAD_REACTORS
330
1A
102
}
330
1A
100
AcDbPlotSettings
  1

  2
none_device
  4

  6

 40
0.0
 41
0.0
 42
0.0
 43
0.0
 44
0.0
 45
0.0
 46
0.0
 47
0.0
 48
0.0
 49
0.0
140
0.0
141
0.0
142
1.0
143
1.0
 70
   688
 72
     1
 73
     0
 74
     5
  7

 75
    16
147
1.0
148
0.0
149
0.0
100
AcDbLayout
  1
Layout1
 70
     1
 71
     1
 10
0.0
 20
0.0
 11
420.0
 21
297.0
 12
0.0
 22
0.0
 32
0.0
 14
1.000000000000000E+20
 24
1.000000000000000E+20
 34
1.000000000000000E+20
 15
-1.000000000000000E+20
 25
-1.000000000000000E+20
 35
-1.000000000000000E+20
146
0.0
 13
0.0
 23
0.0
 33
0.0
 16
1.0
 26
0.0
 36
0.0
 17
0.0
 27
1.0
 37
0.0
 76
     0
330
1B
  0
LAYOUT
  5
26
102
{ACAD_REACTORS
330
1A
102
}
330
1A
100
AcDbPlotSettings
  1

  2
none_device
  4

  6

 40
0.0
 41
0.0
 42
0.0
 43
0.0
 44
0.0
 45
0.0
 46
0.0
 47
0.0
 48
0.0
 49
0.0
140
0.0
141
0.0
142
1.0
143
1.0
 70
   688
 72
     1
 73
     0
 74
     5
  7

 75
    16
147
1.0
148
0.0
149
0.0
100
AcDbLayout
  1
Layout2
 70
     1
 71
     2
 10
0.0
 20
0.0
 11
0.0
 21
0.0
 12
0.0
 22
0.0
 32
0.0
 14
0.0
 24
0.0
 34
0.0
 15
0.0
 25
0.0
 35
0.0
146
0.0
 13
0.0
 23
0.0
 33
0.0
 16
1.0
 26
0.0
 36
0.0
 17
0.0
 27
1.0
 37
0.0
 76
     0
330
23
  0
LAYOUT
  5
22
102
{ACAD_REACTORS
330
1A
102
}
330
1A
100
AcDbPlotSettings
  1

  2
none_device
  4
ANSI_A_(11.00_x_8.50_Inches)
  6

 40
6.35
 41
19.05
 42
6.35000508
 43
19.05000254
 44
279.4
 45
215.9
 46
104.0853757014623
 47
97.78016576652205
 48
0.0
 49
0.0
140
0.0
141
0.0
142
0.0740937858640012
143
1.0
 70
  1696
 72
     0
 73
     0
 74
     0
  7

 75
     0
147
0.0235690232323232
148
0.0
149
0.0
100
AcDbLayout
  1
Model
 70
     1
 71
     0
 10
0.0
 20
0.0
 11
420.0
 21
297.0
 12
0.0
 22
0.0
 32
0.0
 14
1.000000000000000E+20
 24
1.000000000000000E+20
 34
1.000000000000000E+20
 15
-1.000000000000000E+20
 25
-1.000000000000000E+20
 35
-1.000000000000000E+20
146
0.0
 13
0.0
 23
0.0
 33
0.0
 16
1.0
 26
0.0
 36
0.0
 17
0.0
 27
1.0
 37
0.0
 76
     0
330
1F
331
29
  0
MLINESTYLE
  5
18
102
{ACAD_REACTORS
330
17
102
}
330
17
100
AcDbMlineStyle
  2
Standard
 70
     0
  3

 62
   256
 51
90.0
 52
90.0
 71
     2
 49
0.5
 62
   256
  6
BYLAYER
 49
-0.5
 62
   256
  6
BYLAYER
  0
ACDBPLACEHOLDER
  5
F
102
{ACAD_REACTORS
330
E
102
}
330
E
  0
SCALE
  5
48
102
{ACAD_REACTORS
330
47
102
}
330
47
100
AcDbScale
 70
     0
300
1:1
140
1.0
141
1.0
290
     1
  0
SCALE
  5
49
102
{ACAD_REACTORS
330
47
102
}
330
47
100
AcDbScale
 70
     0
300
1:2
140
1.0
141
2.0
290
     0
  0
SCALE
  5
4A
102
{ACAD_REACTORS
330
47
102
}
330
47
100
AcDbScale
 70
     0
300
1:4
140
1.0
141
4.0
290
     0
  0
SCALE
  5
4B
102
{ACAD_REACTORS
330
47
102
}
330
47
100
AcDbScale
 70
     0
300
1:5
140
1.0
141
5.0
290
     0
  0
SCALE
  5
4C
102
{ACAD_REACTORS
330
47
102
}
330
47
100
AcDbScale
 70
     0
300
1:8
140
1.0
141
8.0
290
     0
  0
SCALE
  5
4D
102
{ACAD_REACTORS
330
47
102
}
330
47
100
AcDbScale
 70
     0
300
1:10
140
1.0
141
10.0
290
     0
  0
SCALE
  5
4E
102
{ACAD_REACTORS
330
47
102
}
330
47
100
AcDbScale
 70
     0
300
1:16
140
1.0
141
16.0
290
     0
  0
SCALE
  5
4F
102
{ACAD_REACTORS
330
47
102
}
330
47
100
AcDbScale
 70
     0
300
1:20
140
1.0
141
20.0
290
     0
  0
SCALE
  5
50
102
{ACAD_REACTORS
330
47
102
}
330
47
100
AcDbScale
 70
     0
300
1:30
140
1.0
141
30.0
290
     0
  0
SCALE
  5
51
102
{ACAD_REACTORS
330
47
102
}
330
47
100
AcDbScale
 70
     0
300
1:40
140
1.0
141
40.0
290
     0
  0
SCALE
  5
52
102
{ACAD_REACTORS
330
47
102
}
330
47
100
AcDbScale
 70
     0
300
1:50
140
1.0
141
50.0
290
     0
  0
SCALE
  5
53
102
{ACAD_REACTORS
330
47
102
}
330
47
100
AcDbScale
 70
     0
300
1:100
140
1.0
141
100.0
290
     0
  0
SCALE
  5
54
102
{ACAD_REACTORS
330
47
102
}
330
47
100
AcDbScale
 70
     0
300
2:1
140
2.0
141
1.0
290
     0
  0
SCALE
  5
55
102
{ACAD_REACTORS
330
47
102
}
330
47
100
AcDbScale
 70
     0
300
4:1
140
4.0
141
1.0
290
     0
  0
SCALE
  5
56
102
{ACAD_REACTORS
330
47
102
}
330
47
100
AcDbScale
 70
     0
300
8:1
140
8.0
141
1.0
290
     0
  0
SCALE
  5
57
102
{ACAD_REACTORS
330
47
102
}
330
47
100
AcDbScale
 70
     0
300
10:1
140
10.0
141
1.0
290
     0
  0
SCALE
  5
58
102
{ACAD_REACTORS
330
47
102
}
330
47
100
AcDbScale
 70
     0
300
100:1
140
100.0
141
1.0
290
     0
  0
SCALE
  5
59
102
{ACAD_REACTORS
330
47
102
}
330
47
100
AcDbScale
 70
     0
300
1/128" = 1'-0"
140
0.0078125
141
12.0
290
     0
  0
SCALE
  5
5A
102
{ACAD_REACTORS
330
47
102
}
330
47
100
AcDbScale
 70
     0
300
1/64" = 1'-0"
140
0.015625
141
12.0
290
     0
  0
SCALE
  5
5B
102
{ACAD_REACTORS
330
47
102
}
330
47
100
AcDbScale
 70
     0
300
1/32" = 1'-0"
140
0.03125
141
12.0
290
     0
  0
SCALE
  5
5C
102
{ACAD_REACTORS
330
47
102
}
330
47
100
AcDbScale
 70
     0
300
1/16" = 1'-0"
140
0.0625
141
12.0
290
     0
  0
SCALE
  5
5D
102
{ACAD_REACTORS
330
47
102
}
330
47
100
AcDbScale
 70
     0
300
3/32" = 1'-0"
140
0.09375
141
12.0
290
     0
  0
SCALE
  5
5E
102
{ACAD_REACTORS
330
47
102
}
330
47
100
AcDbScale
 70
     0
300
1/8" = 1'-0"
140
0.125
141
12.0
290
     0
  0
SCALE
  5
5F
102
{ACAD_REACTORS
330
47
102
}
330
47
100
AcDbScale
 70
     0
300
3/16" = 1'-0"
140
0.1875
141
12.0
290
     0
  0
SCALE
  5
60
102
{ACAD_REACTORS
330
47
102
}
330
47
100
AcDbScale
 70
     0
300
1/4" = 1'-0"
140
0.25
141
12.0
290
     0
  0
SCALE
  5
61
102
{ACAD_REACTORS
330
47
102
}
330
47
100
AcDbScale
 70
     0
300
3/8" = 1'-0"
140
0.375
141
12.0
290
     0
  0
SCALE
  5
62
102
{ACAD_REACTORS
330
47
102
}
330
47
100
AcDbScale
 70
     0
300
1/2" = 1'-0"
140
0.5
141
12.0
290
     0
  0
SCALE
  5
63
102
{ACAD_REACTORS
330
47
102
}
330
47
100
AcDbScale
 70
     0
300
3/4" = 1'-0"
140
0.75
141
12.0
290
     0
  0
SCALE
  5
64
102
{ACAD_REACTORS
330
47
102
}
330
47
100
AcDbScale
 70
     0
300
1" = 1'-0"
140
1.0
141
12.0
290
     0
  0
SCALE
  5
65
102
{ACAD_REACTORS
330
47
102
}
330
47
100
AcDbScale
 70
     0
300
1-1/2" = 1'-0"
140
1.5
141
12.0
290
     0
  0
SCALE
  5
66
102
{ACAD_REACTORS
330
47
102
}
330
47
100
AcDbScale
 70
     0
300
3" = 1'-0"
140
3.0
141
12.0
290
     0
  0
SCALE
  5
67
102
{ACAD_REACTORS
330
47
102
}
330
47
100
AcDbScale
 70
     0
300
6" = 1'-0"
140
6.0
141
12.0
290
     0
  0
SCALE
  5
68
102
{ACAD_REACTORS
330
47
102
}
330
47
100
AcDbScale
 70
     0
300
1'-0" = 1'-0"
140
12.0
141
12.0
290
     0
  0
ENDSEC
  0
EOF
