  0
SECTION
  2
HEADER
  9
$ACADVER
  1
AC1015
  9
$ACADMAINTVER
 70
     6
  9
$DWGCODEPAGE
  3
ANSI_949
  9
$INSBASE
 10
0.0
 20
0.0
 30
0.0
  9
$EXTMIN
 10
1.000000000000000E+20
 20
1.000000000000000E+20
 30
1.000000000000000E+20
  9
$EXTMAX
 10
-1.000000000000000E+20
 20
-1.000000000000000E+20
 30
-1.000000000000000E+20
  9
$LIMMIN
 10
0.0
 20
0.0
  9
$LIMMAX
 10
420.0
 20
297.0
  9
$ORTHOMODE
 70
     1
  9
$REGENMODE
 70
     1
  9
$FILLMODE
 70
     1
  9
$QTEXTMODE
 70
     0
  9
$MIRRTEXT
 70
     1
  9
$LTSCALE
 40
1.0
  9
$ATTMODE
 70
     1
  9
$TEXTSIZE
 40
3.5
  9
$TRACEWID
 40
1.0
  9
$TEXTSTYLE
  7
Standard
  9
$CLAYER
  8
0
  9
$CELTYPE
  6
ByLayer
  9
$CECOLOR
 62
   256
  9
$CELTSCALE
 40
1.0
  9
$DISPSILH
 70
     0
  9
$DIMSCALE
 40
1.0
  9
$DIMASZ
 40
3.302
  9
$DIMEXO
 40
1.0
  9
$DIMDLI
 40
3.75
  9
$DIMRND
 40
0.0
  9
$DIMDLE
 40
0.0
  9
$DIMEXE
 40
1.0
  9
$DIMTP
 40
0.0
  9
$DIMTM
 40
0.0
  9
$DIMTXT
 40
3.5
  9
$DIMCEN
 40
2.5
  9
$DIMTSZ
 40
0.0
  9
$DIMTOL
 70
     0
  9
$DIMLIM
 70
     0
  9
$DIMTIH
 70
     1
  9
$DIMTOH
 70
     1
  9
$DIMSE1
 70
     0
  9
$DIMSE2
 70
     0
  9
$DIMTAD
 70
     1
  9
$DIMZIN
 70
     0
  9
$DIMBLK
  1

  9
$DIMASO
 70
     1
  9
$DIMSHO
 70
     1
  9
$DIMPOST
  1

  9
$DIMAPOST
  1

  9
$DIMALT
 70
     0
  9
$DIMALTD
 70
     3
  9
$DIMALTF
 40
0.0393700787401575
  9
$DIMLFAC
 40
1.0
  9
$DIMTOFL
 70
     1
  9
$DIMTVP
 40
0.0
  9
$DIMTIX
 70
     0
  9
$DIMSOXD
 70
     0
  9
$DIMSAH
 70
     0
  9
$DIMBLK1
  1

  9
$DIMBLK2
  1

  9
$DIMSTYLE
  2
ISO-25
  9
$DIMCLRD
 70
     0
  9
$DIMCLRE
 70
     0
  9
$DIMCLRT
 70
     0
  9
$DIMTFAC
 40
1.0
  9
$DIMGAP
 40
1.524
  9
$DIMJUST
 70
     0
  9
$DIMSD1
 70
     0
  9
$DIMSD2
 70
     0
  9
$DIMTOLJ
 70
     0
  9
$DIMTZIN
 70
     0
  9
$DIMALTZ
 70
     0
  9
$DIMALTTZ
 70
     0
  9
$DIMUPT
 70
     0
  9
$DIMDEC
 70
     2
  9
$DIMTDEC
 70
     2
  9
$DIMALTU
 70
     2
  9
$DIMALTTD
 70
     3
  9
$DIMTXSTY
  7
Standard
  9
$DIMAUNIT
 70
     0
  9
$DIMADEC
 70
     2
  9
$DIMALTRND
 40
0.0
  9
$DIMAZIN
 70
     0
  9
$DIMDSEP
 70
    44
  9
$DIMATFIT
 70
     3
  9
$DIMFRAC
 70
     0
  9
$DIMLDRBLK
  1

  9
$DIMLUNIT
 70
     2
  9
$DIMLWD
 70
    -2
  9
$DIMLWE
 70
    -2
  9
$DIMTMOVE
 70
     0
  9
$LUNITS
 70
     2
  9
$LUPREC
 70
     2
  9
$SKETCHINC
 40
1.0
  9
$FILLETRAD
 40
10.0
  9
$AUNITS
 70
     0
  9
$AUPREC
 70
     2
  9
$MENU
  1
.
  9
$ELEVATION
 40
0.0
  9
$PELEVATION
 40
0.0
  9
$THICKNESS
 40
0.0
  9
$LIMCHECK
 70
     0
  9
$CHAMFERA
 40
0.0
  9
$CHAMFERB
 40
0.0
  9
$CHAMFERC
 40
0.0
  9
$CHAMFERD
 40
0.0
  9
$SKPOLY
 70
     0
  9
$TDCREATE
 40
2458312.677162928
  9
$TDUCREATE
 40
2458312.302162928
  9
$TDUPDATE
 40
2458319.568355023
  9
$TDUUPDATE
 40
2458319.193355023
  9
$TDINDWG
 40
0.0006802431
  9
$TDUSRTIMER
 40
2458319.192674965
  9
$USRTIMER
 70
     1
  9
$ANGBASE
 50
0.0
  9
$ANGDIR
 70
     0
  9
$PDMODE
 70
     0
  9
$PDSIZE
 40
-1.0
  9
$PLINEWID
 40
0.0
  9
$SPLFRAME
 70
     0
  9
$SPLINETYPE
 70
     6
  9
$SPLINESEGS
 70
     8
  9
$HANDSEED
  5
1A9
  9
$SURFTAB1
 70
     6
  9
$SURFTAB2
 70
     6
  9
$SURFTYPE
 70
     6
  9
$SURFU
 70
     6
  9
$SURFV
 70
     6
  9
$UCSBASE
  2

  9
$UCSNAME
  2

  9
$UCSORG
 10
0.0
 20
0.0
 30
0.0
  9
$UCSXDIR
 10
1.0
 20
0.0
 30
0.0
  9
$UCSYDIR
 10
0.0
 20
1.0
 30
0.0
  9
$UCSORTHOREF
  2

  9
$UCSORTHOVIEW
 70
     0
  9
$UCSORGTOP
 10
0.0
 20
0.0
 30
0.0
  9
$UCSORGBOTTOM
 10
0.0
 20
0.0
 30
0.0
  9
$UCSORGLEFT
 10
0.0
 20
0.0
 30
0.0
  9
$UCSORGRIGHT
 10
0.0
 20
0.0
 30
0.0
  9
$UCSORGFRONT
 10
0.0
 20
0.0
 30
0.0
  9
$UCSORGBACK
 10
0.0
 20
0.0
 30
0.0
  9
$PUCSBASE
  2

  9
$PUCSNAME
  2

  9
$PUCSORG
 10
0.0
 20
0.0
 30
0.0
  9
$PUCSXDIR
 10
1.0
 20
0.0
 30
0.0
  9
$PUCSYDIR
 10
0.0
 20
1.0
 30
0.0
  9
$PUCSORTHOREF
  2

  9
$PUCSORTHOVIEW
 70
     0
  9
$PUCSORGTOP
 10
0.0
 20
0.0
 30
0.0
  9
$PUCSORGBOTTOM
 10
0.0
 20
0.0
 30
0.0
  9
$PUCSORGLEFT
 10
0.0
 20
0.0
 30
0.0
  9
$PUCSORGRIGHT
 10
0.0
 20
0.0
 30
0.0
  9
$PUCSORGFRONT
 10
0.0
 20
0.0
 30
0.0
  9
$PUCSORGBACK
 10
0.0
 20
0.0
 30
0.0
  9
$USERI1
 70
     0
  9
$USERI2
 70
     0
  9
$USERI3
 70
     0
  9
$USERI4
 70
     0
  9
$USERI5
 70
     0
  9
$USERR1
 40
0.0
  9
$USERR2
 40
0.0
  9
$USERR3
 40
0.0
  9
$USERR4
 40
0.0
  9
$USERR5
 40
0.0
  9
$WORLDVIEW
 70
     1
  9
$SHADEDGE
 70
     3
  9
$SHADEDIF
 70
    70
  9
$TILEMODE
 70
     1
  9
$MAXACTVP
 70
    64
  9
$PINSBASE
 10
0.0
 20
0.0
 30
0.0
  9
$PLIMCHECK
 70
     0
  9
$PEXTMIN
 10
1.000000000000000E+20
 20
1.000000000000000E+20
 30
1.000000000000000E+20
  9
$PEXTMAX
 10
-1.000000000000000E+20
 20
-1.000000000000000E+20
 30
-1.000000000000000E+20
  9
$PLIMMIN
 10
0.0
 20
0.0
  9
$PLIMMAX
 10
0.0
 20
0.0
  9
$UNITMODE
 70
     0
  9
$VISRETAIN
 70
     1
  9
$PLINEGEN
 70
     0
  9
$PSLTSCALE
 70
     1
  9
$TREEDEPTH
 70
  3020
  9
$CMLSTYLE
  2
Standard
  9
$CMLJUST
 70
     0
  9
$CMLSCALE
 40
20.0
  9
$PROXYGRAPHICS
 70
     1
  9
$MEASUREMENT
 70
     1
  9
$CELWEIGHT
370
    -1
  9
$ENDCAPS
280
     0
  9
$JOINSTYLE
280
     0
  9
$LWDISPLAY
290
     1
  9
$INSUNITS
 70
     4
  9
$HYPERLINKBASE
  1

  9
$STYLESHEET
  1

  9
$XEDIT
290
     1
  9
$CEPSNTYPE
380
     0
  9
$PSTYLEMODE
290
     1
  9
$FINGERPRINTGUID
  2
{D9DAE17A-90E9-4E1C-A3A8-60E27419FFC9}
  9
$VERSIONGUID
  2
{FAEB1C32-E019-11D5-929B-00C0DF256EC4}
  9
$EXTNAMES
290
     1
  9
$PSVPSCALE
 40
0.0
  9
$OLESTARTUP
290
     0
  0
ENDSEC
  0
SECTION
  2
CLASSES
  0
CLASS
  1
ACDBDICTIONARYWDFLT
  2
AcDbDictionaryWithDefault
  3
ObjectDBX Classes
 90
        0
280
     0
281
     0
  0
CLASS
  1
VISUALSTYLE
  2
AcDbVisualStyle
  3
ObjectDBX Classes
 90
     4095
280
     0
281
     0
  0
CLASS
  1
MATERIAL
  2
AcDbMaterial
  3
ObjectDBX Classes
 90
     1153
280
     0
281
     0
  0
CLASS
  1
SCALE
  2
AcDbScale
  3
ObjectDBX Classes
 90
     1153
280
     0
281
     0
  0
CLASS
  1
SUN
  2
AcDbSun
  3
SCENEOE
 90
     1153
280
     0
281
     0
  0
CLASS
  1
ACDBPLACEHOLDER
  2
AcDbPlaceHolder
  3
ObjectDBX Classes
 90
        0
280
     0
281
     0
  0
CLASS
  1
LAYOUT
  2
AcDbLayout
  3
ObjectDBX Classes
 90
        0
280
     0
281
     0
  0
CLASS
  1
TABLESTYLE
  2
AcDbTableStyle
  3
ObjectDBX Classes
 90
     4095
280
     0
281
     0
  0
CLASS
  1
MLEADERSTYLE
  2
AcDbMLeaderStyle
  3
ACDB_MLEADERSTYLE_CLASS
 90
     4095
280
     0
281
     0
  0
CLASS
  1
RASTERVARIABLES
  2
AcDbRasterVariables
  3
ISM
 90
        0
280
     0
281
     0
  0
CLASS
  1
DIMASSOC
  2
AcDbDimAssoc
  3
"AcDbDimAssoc|Product Desc:     AcDim ARX App For Dimension|Company:          Autodesk, Inc.|WEB Address:      www.autodesk.com"
 90
        0
280
     0
281
     0
  0
ENDSEC
  0
SECTION
  2
TABLES
  0
TABLE
  2
VPORT
  5
8
330
0
100
AcDbSymbolTable
 70
     1
  0
VPORT
  5
29
330
8
100
AcDbSymbolTableRecord
100
AcDbViewportTableRecord
  2
*Active
 70
     0
 10
0.0
 20
0.0
 11
1.0
 21
1.0
 12
-74.61240962421402
 22
-15.7505310393071
 13
0.0
 23
0.0
 14
10.0
 24
10.0
 15
10.0
 25
10.0
 16
0.0
 26
0.0
 36
1.0
 17
0.0
 27
0.0
 37
0.0
 40
119.5446075347418
 41
1.67311411992263
 42
50.0
 43
0.0
 44
0.0
 50
0.0
 51
0.0
 71
    16
 72
  2000
 73
     1
 74
     3
 75
     0
 76
     0
 77
     0
 78
     0
281
     0
 65
     1
110
0.0
120
0.0
130
0.0
111
1.0
121
0.0
131
0.0
112
0.0
122
1.0
132
0.0
 79
     0
146
0.0
  0
ENDTAB
  0
TABLE
  2
LTYPE
  5
5
330
0
100
AcDbSymbolTable
 70
     6
  0
LTYPE
  5
14
330
5
100
AcDbSymbolTableRecord
100
AcDbLinetypeTableRecord
  2
ByBlock
 70
     0
  3

 72
    65
 73
     0
 40
0.0
  0
LTYPE
  5
15
330
5
100
AcDbSymbolTableRecord
100
AcDbLinetypeTableRecord
  2
ByLayer
 70
     0
  3

 72
    65
 73
     0
 40
0.0
  0
LTYPE
  5
16
330
5
100
AcDbSymbolTableRecord
100
AcDbLinetypeTableRecord
  2
Continuous
 70
     0
  3
Solid line
 72
    65
 73
     0
 40
0.0
  0
LTYPE
  5
6A
330
5
100
AcDbSymbolTableRecord
100
AcDbLinetypeTableRecord
  2
HIDDEN
 70
     0
  3
Hidden __ __ __ __ __ __ __ __ __ __ __ __ __ __
 72
    65
 73
     2
 40
1.905
 49
1.27
 74
     0
 49
-0.635
 74
     0
  0
LTYPE
  5
6B
330
5
100
AcDbSymbolTableRecord
100
AcDbLinetypeTableRecord
  2
PHANTOM
 70
     0
  3
Phantom ______  __  __  ______  __  __  ______
 72
    65
 73
     6
 40
12.7
 49
6.35
 74
     0
 49
-1.27
 74
     0
 49
1.27
 74
     0
 49
-1.27
 74
     0
 49
1.27
 74
     0
 49
-1.27
 74
     0
  0
LTYPE
  5
6C
330
5
100
AcDbSymbolTableRecord
100
AcDbLinetypeTableRecord
  2
CENTER
 70
     0
  3
Center ____ _ ____ _ ____ _ ____ _ ____ _ ____
 72
    65
 73
     4
 40
10.16
 49
6.35
 74
     0
 49
-1.27
 74
     0
 49
1.27
 74
     0
 49
-1.27
 74
     0
  0
LTYPE
  5
6D
330
5
100
AcDbSymbolTableRecord
100
AcDbLinetypeTableRecord
  2
CENTERX2
 70
     0
  3
Center (2x) ________  __  ________  __  _____
 72
    65
 73
     4
 40
20.32
 49
12.7
 74
     0
 49
-2.54
 74
     0
 49
2.54
 74
     0
 49
-2.54
 74
     0
  0
LTYPE
  5
6E
330
5
100
AcDbSymbolTableRecord
100
AcDbLinetypeTableRecord
  2
DOT2
 70
     0
  3
Dot (.5x) ........................................
 72
    65
 73
     2
 40
0.635
 49
0.0
 74
     0
 49
-0.635
 74
     0
  0
ENDTAB
  0
TABLE
  2
LAYER
  5
2
102
{ACAD_XDICTIONARY
360
195
102
}
330
0
100
AcDbSymbolTable
 70
    18
  0
LAYER
  5
10
330
2
100
AcDbSymbolTableRecord
100
AcDbLayerTableRecord
  2
0
 70
     0
 62
     7
  6
Continuous
370
    -3
390
F
  0
LAYER
  5
6F
330
2
100
AcDbSymbolTableRecord
100
AcDbLayerTableRecord
  2
FORMAT
 70
     0
 62
     2
  6
Continuous
370
    -3
390
F
  0
LAYER
  5
70
330
2
100
AcDbSymbolTableRecord
100
AcDbLayerTableRecord
  2
외형선
 70
     0
 62
     4
  6
Continuous
370
    30
390
F
  0
LAYER
  5
71
330
2
100
AcDbSymbolTableRecord
100
AcDbLayerTableRecord
  2
숨은선
 70
     0
 62
     2
  6
HIDDEN
370
    15
390
F
  0
LAYER
  5
72
330
2
100
AcDbSymbolTableRecord
100
AcDbLayerTableRecord
  2
중심선
 70
     0
 62
     1
  6
CENTERX2
370
    -3
390
F
  0
LAYER
  5
73
330
2
100
AcDbSymbolTableRecord
100
AcDbLayerTableRecord
  2
파단선
 70
     0
 62
     4
  6
Continuous
370
    -3
390
F
  0
LAYER
  5
74
330
2
100
AcDbSymbolTableRecord
100
AcDbLayerTableRecord
  2
해칭선
 70
     0
 62
   100
  6
Continuous
370
    -3
390
F
  0
LAYER
  5
75
330
2
100
AcDbSymbolTableRecord
100
AcDbLayerTableRecord
  2
가는실선
 70
     0
 62
     4
  6
Continuous
370
    -3
390
F
  0
LAYER
  5
76
330
2
100
AcDbSymbolTableRecord
100
AcDbLayerTableRecord
  2
치수_보조선
 70
     0
 62
     4
  6
Continuous
370
    -3
390
F
  0
LAYER
  5
77
330
2
100
AcDbSymbolTableRecord
100
AcDbLayerTableRecord
  2
치수문자_일반주서
 70
     0
 62
     7
  6
Continuous
370
    15
390
F
  0
LAYER
  5
78
330
2
100
AcDbSymbolTableRecord
100
AcDbLayerTableRecord
  2
개별주서
 70
     0
 62
   100
  6
Continuous
370
    30
390
F
  0
LAYER
  5
79
330
2
100
AcDbSymbolTableRecord
100
AcDbLayerTableRecord
  2
중간선
 70
     0
 62
     2
  6
Continuous
370
    15
390
F
  0
LAYER
  5
7A
330
2
100
AcDbSymbolTableRecord
100
AcDbLayerTableRecord
  2
윤곽선
 70
     0
 62
     3
  6
Continuous
370
    40
390
F
  0
LAYER
  5
7B
330
2
100
AcDbSymbolTableRecord
100
AcDbLayerTableRecord
  2
중심마크
 70
     0
 62
   100
  6
Continuous
370
    30
390
F
  0
LAYER
  5
7C
330
2
100
AcDbSymbolTableRecord
100
AcDbLayerTableRecord
  2
가상선
 70
     0
 62
     4
  6
PHANTOM
370
    -3
390
F
  0
LAYER
  5
7D
330
2
100
AcDbSymbolTableRecord
100
AcDbLayerTableRecord
  2
특수지정선
 70
     0
 62
     5
  6
CENTERX2
370
    60
390
F
  0
LAYER
  5
7E
330
2
100
AcDbSymbolTableRecord
100
AcDbLayerTableRecord
  2
참조1
 70
     0
 62
    -4
  6
Continuous
370
    -3
390
F
  0
LAYER
  5
153
330
2
100
AcDbSymbolTableRecord
100
AcDbLayerTableRecord
  2
Defpoints
 70
     0
 62
     7
  6
Continuous
290
     0
370
    -3
390
F
  0
ENDTAB
  0
TABLE
  2
STYLE
  5
3
330
0
100
AcDbSymbolTable
 70
     2
  0
STYLE
  5
11
330
3
100
AcDbSymbolTableRecord
100
AcDbTextStyleTableRecord
  2
Standard
 70
     0
 40
0.0
 41
1.0
 50
0.0
 71
     0
 42
3.5
  3
txt
  4

  0
STYLE
  5
94
330
3
100
AcDbSymbolTableRecord
100
AcDbTextStyleTableRecord
  2
SLDTEXTSTYLE0
 70
     0
 40
0.0
 41
0.75
 50
0.0
 71
     0
 42
3.5
  3
TXT
  4

  0
ENDTAB
  0
TABLE
  2
VIEW
  5
6
330
0
100
AcDbSymbolTable
 70
     0
  0
ENDTAB
  0
TABLE
  2
UCS
  5
7
330
0
100
AcDbSymbolTable
 70
     0
  0
ENDTAB
  0
TABLE
  2
APPID
  5
9
330
0
100
AcDbSymbolTable
 70
     2
  0
APPID
  5
12
330
9
100
AcDbSymbolTableRecord
100
AcDbRegAppTableRecord
  2
ACAD
 70
     0
  0
APPID
  5
167
330
9
100
AcDbSymbolTableRecord
100
AcDbRegAppTableRecord
  2
PE_DIMMEASUREMENT
 70
     0
  0
ENDTAB
  0
TABLE
  2
DIMSTYLE
  5
A
330
0
100
AcDbSymbolTable
 70
     3
100
AcDbDimStyleTable
  0
DIMSTYLE
105
27
330
A
100
AcDbSymbolTableRecord
100
AcDbDimStyleTableRecord
  2
ISO-25
 70
     0
 41
2.5
 42
0.625
 43
3.75
 44
1.25
 73
     0
 74
     0
 77
     1
 78
     8
140
2.5
141
2.5
143
0.03937007874016
147
0.625
171
     3
172
     1
178
     0
271
     2
272
     2
274
     3
278
    44
283
     0
284
     8
340
11
  0
DIMSTYLE
105
D1
102
{ACAD_REACTORS
330
D0
330
E5
330
155
102
}
330
A
100
AcDbSymbolTableRecord
100
AcDbDimStyleTableRecord
  2
SLDDIMSTYLE0
 70
     0
 41
3.302
 44
0.0
 45
0.000000001
 73
     0
 74
     0
 77
     1
 78
    12
 79
     3
140
3.5
143
0.0393700787401575
147
0.875
148
0.000000001
170
     1
173
     1
178
     0
271
     2
272
     2
276
     2
284
    12
340
94
  0
DIMSTYLE
105
F9
102
{ACAD_REACTORS
330
F8
102
}
330
A
100
AcDbSymbolTableRecord
100
AcDbDimStyleTableRecord
  2
SLDDIMSTYLE1
 70
     0
 41
3.302
 44
0.0
 45
0.000000001
 73
     0
 74
     0
 77
     1
 78
    12
 79
     3
140
3.5
143
0.0393700787401575
147
0.875
148
0.000000001
170
     1
172
     1
173
     1
178
     0
271
     2
272
     2
276
     2
284
    12
289
     0
340
94
  0
ENDTAB
  0
TABLE
  2
BLOCK_RECORD
  5
1
330
0
100
AcDbSymbolTable
 70
     9
  0
BLOCK_RECORD
  5
1F
330
1
100
AcDbSymbolTableRecord
100
AcDbBlockTableRecord
  2
*Model_Space
340
22
  0
BLOCK_RECORD
  5
1B
330
1
100
AcDbSymbolTableRecord
100
AcDbBlockTableRecord
  2
*Paper_Space
340
1E
  0
BLOCK_RECORD
  5
23
330
1
100
AcDbSymbolTableRecord
100
AcDbBlockTableRecord
  2
*Paper_Space0
340
26
  0
BLOCK_RECORD
  5
7F
330
1
100
AcDbSymbolTableRecord
100
AcDbBlockTableRecord
  2
블럭10
340
0
102
{BLKREFS
331
C9
102
}
  0
BLOCK_RECORD
  5
D2
330
1
100
AcDbSymbolTableRecord
100
AcDbBlockTableRecord
  2
_D
340
0
  0
BLOCK_RECORD
  5
E6
330
1
100
AcDbSymbolTableRecord
100
AcDbBlockTableRecord
  2
_D_1
340
0
  0
BLOCK_RECORD
  5
FA
330
1
100
AcDbSymbolTableRecord
100
AcDbBlockTableRecord
  2
_D_2
340
0
  0
BLOCK_RECORD
  5
10E
330
1
100
AcDbSymbolTableRecord
100
AcDbBlockTableRecord
  2
_D_3
340
0
  0
BLOCK_RECORD
  5
128
330
1
100
AcDbSymbolTableRecord
100
AcDbBlockTableRecord
  2
SW_DOWELSYMBOL_0
340
0
102
{BLKREFS
331
12E
102
}
  0
BLOCK_RECORD
  5
158
330
1
100
AcDbSymbolTableRecord
100
AcDbBlockTableRecord
  2
*D7
340
0
  0
ENDTAB
  0
ENDSEC
  0
SECTION
  2
BLOCKS
  0
BLOCK
  5
20
330
1F
100
AcDbEntity
  8
0
100
AcDbBlockBegin
  2
*Model_Space
 70
     0
 10
0.0
 20
0.0
 30
0.0
  3
*Model_Space
  1
*Model_Space
  0
ENDBLK
  5
21
330
1F
100
AcDbEntity
  8
0
100
AcDbBlockEnd
  0
BLOCK
  5
1C
330
1B
100
AcDbEntity
 67
     1
  8
0
100
AcDbBlockBegin
  2
*Paper_Space
 70
     0
 10
0.0
 20
0.0
 30
0.0
  3
*Paper_Space
  1
*Paper_Space
  0
ENDBLK
  5
1D
330
1B
100
AcDbEntity
 67
     1
  8
0
100
AcDbBlockEnd
  0
BLOCK
  5
24
330
23
100
AcDbEntity
  8
0
100
AcDbBlockBegin
  2
*Paper_Space0
 70
     0
 10
0.0
 20
0.0
 30
0.0
  3
*Paper_Space0
  1
*Paper_Space0
  0
ENDBLK
  5
25
330
23
100
AcDbEntity
  8
0
100
AcDbBlockEnd
  0
BLOCK
  5
80
330
7F
100
AcDbEntity
  8
0
100
AcDbBlockBegin
  2
블럭10
 70
     2
 10
0.0
 20
0.0
 30
0.0
  3
블럭10
  1
블럭10
  0
ELLIPSE
  5
82
330
7F
100
AcDbEntity
  8
중심선
100
AcDbEllipse
 10
20.54032771741204
 20
12.0471743016438
 30
0.0
 11
6.600054785286829
 21
-1.261213355974178E-13
 31
0.0
210
0.0
220
0.0
230
1.0
 40
0.636358354079598
 41
0.9219305317359503
 42
6.513795318482858
  0
ELLIPSE
  5
83
330
7F
100
AcDbEntity
  8
중심선
100
AcDbEllipse
 10
20.54032771746488
 20
12.04717430159265
 30
0.0
 11
3.960054785062283
 21
1.540847449632565E-10
 31
0.0
210
0.0
220
0.0
230
1.0
 40
0.3939339440162632
 41
1.131841032648279
 42
5.62031148352944
  0
LINE
  5
84
330
7F
100
AcDbEntity
  8
중심선
100
AcDbLine
 10
2.268634060543552
 20
16.24717430164393
 30
0.0
 11
5.714909304380834
 21
16.24717430164393
 31
0.0
  0
LINE
  5
85
330
7F
100
AcDbEntity
  8
중심선
100
AcDbLine
 10
5.245725140726316
 20
7.84717430164391
 30
0.0
 11
8.692000384563599
 21
7.84717430164391
 31
0.0
  0
LINE
  5
86
330
7F
100
AcDbEntity
  8
중심선
100
AcDbLine
 10
15.74043728645272
 20
16.24717430164393
 30
0.0
 11
8.692000384563599
 21
7.84717430164391
 31
0.0
  0
LINE
  5
87
330
7F
100
AcDbEntity
  8
중심선
100
AcDbLine
 10
0.1404042013395286
 20
13.71084872107135
 30
0.0
 11
3.58671253028996
 21
13.71088815037384
 31
0.0
  0
LINE
  5
88
330
7F
100
AcDbEntity
  8
중심선
100
AcDbLine
 10
2.750260043222114
 20
10.84717430164391
 30
0.0
 11
6.196535287059397
 21
10.84717430164391
 31
0.0
  0
LINE
  5
89
330
7F
100
AcDbEntity
  8
중심선
100
AcDbLine
 10
12.29416204261559
 20
16.24717430164393
 30
0.0
 11
5.245725140726316
 21
7.84717430164391
 31
0.0
  0
LINE
  5
8A
330
7F
100
AcDbEntity
  8
중심선
100
AcDbLine
 10
10.72767329541681
 20
16.24717430164393
 30
0.0
 11
6.196535287059397
 21
10.84717430164391
 31
0.0
  0
LINE
  5
8B
330
7F
100
AcDbEntity
  8
중심선
100
AcDbLine
 10
7.28139805157953
 20
16.24717430164393
 30
0.0
 11
2.750260043222114
 21
10.84717430164391
 31
0.0
  0
LINE
  5
8C
330
7F
100
AcDbEntity
  8
중심선
100
AcDbLine
 10
5.714909304380834
 20
16.24717430164393
 30
0.0
 11
3.58671253028996
 21
13.71088815037384
 31
0.0
  0
LINE
  5
8D
330
7F
100
AcDbEntity
  8
중심선
100
AcDbLine
 10
2.268634060543552
 20
16.24717430164393
 30
0.0
 11
0.1404042013395286
 21
13.71084872107135
 31
0.0
  0
LINE
  5
8E
330
7F
100
AcDbEntity
  8
중심선
100
AcDbLine
 10
7.28139805157953
 20
16.24717430164393
 30
0.0
 11
10.72767329541681
 21
16.24717430164393
 31
0.0
  0
LINE
  5
8F
330
7F
100
AcDbEntity
  8
중심선
100
AcDbLine
 10
12.29416204261559
 20
16.24717430164393
 30
0.0
 11
15.74043728645272
 21
16.24717430164393
 31
0.0
  0
LINE
  5
90
330
7F
100
AcDbEntity
  8
중심선
100
AcDbLine
 10
19.22036997980202
 20
11.08717430171403
 30
0.0
 11
23.66174974927406
 21
11.08717430171406
 31
0.0
  0
LINE
  5
91
330
7F
100
AcDbEntity
  8
중심선
100
AcDbLine
 10
19.22039502424796
 20
13.00717430171391
 30
0.0
 11
19.22036997980202
 21
11.08717430171403
 31
0.0
  0
LINE
  5
92
330
7F
100
AcDbEntity
  8
중심선
100
AcDbLine
 10
19.22039502424796
 20
13.00717430171391
 30
0.0
 11
26.96566020931264
 21
13.00717430171391
 31
0.0
  0
LINE
  5
93
330
7F
100
AcDbEntity
  8
중심선
100
AcDbLine
 10
22.22332737316547
 20
13.45928029700563
 30
0.0
 11
24.52862924686651
 21
15.39360700705356
 31
0.0
  0
ATTDEF
  5
95
330
7F
100
AcDbEntity
  8
FORMAT
 62
     2
100
AcDbText
 10
4.408487351596664
 20
2.075366912832191
 30
0.0
 40
4.233333333333333
  1
E2039010
 41
0.75
  7
SLDTEXTSTYLE0
 11
4.408487351596664
 21
-0.0412997538344756
 31
0.0
100
AcDbAttributeDefinition
  3

  2
AUTOATTR0
 70
     0
 74
     1
  0
ENDBLK
  5
81
330
7F
100
AcDbEntity
  8
0
100
AcDbBlockEnd
  0
BLOCK
  5
D3
330
D2
100
AcDbEntity
  8
0
100
AcDbBlockBegin
  2
_D
 70
     0
 10
0.0
 20
0.0
 30
0.0
  3
_D
  1
_D
  0
LINE
  5
D5
330
D2
100
AcDbEntity
  8
치수문자_일반주서
 62
     0
370
    -2
100
AcDbLine
 10
24.48060364977729
 20
2.040652571287911
 30
0.0
 11
24.48060364977729
 21
15.41833040281951
 31
0.0
  0
LINE
  5
D6
330
D2
100
AcDbEntity
  8
치수문자_일반주서
 62
     0
370
    -2
100
AcDbLine
 10
13.36810364977728
 20
2.016744444132984
 30
0.0
 11
13.36810364977728
 21
15.41833040281951
 31
0.0
  0
LINE
  5
D7
330
D2
100
AcDbEntity
  8
치수문자_일반주서
 62
     0
370
    -2
100
AcDbLine
 10
13.36810364977728
 20
15.41833040281951
 30
0.0
 11
-14.43389635022272
 21
15.41833040281951
 31
0.0
  0
LINE
  5
D8
330
D2
100
AcDbEntity
  8
치수문자_일반주서
 62
     0
370
    -2
100
AcDbLine
 10
21.17860364977729
 20
15.41833040281951
 30
0.0
 11
16.67010364977728
 21
15.41833040281951
 31
0.0
  0
SOLID
  5
D9
330
D2
100
AcDbEntity
  8
치수문자_일반주서
 62
     0
100
AcDbTrace
 10
21.17860364977729
 20
14.86799706948618
 30
0.0
 11
21.17860364977729
 21
15.96866373615285
 31
0.0
 12
24.48060364977729
 22
15.41833040281951
 32
0.0
 13
24.48060364977729
 23
15.41833040281951
 33
0.0
  0
SOLID
  5
DA
330
D2
100
AcDbEntity
  8
치수문자_일반주서
 62
     0
100
AcDbTrace
 10
16.67010364977728
 20
15.96866373615285
 30
0.0
 11
16.67010364977728
 21
14.86799706948618
 31
0.0
 12
13.36810364977728
 22
15.41833040281951
 32
0.0
 13
13.36810364977728
 23
15.41833040281951
 33
0.0
  0
MTEXT
  5
DB
330
D2
100
AcDbEntity
  8
치수문자_일반주서
 62
     0
100
AcDbMText
 10
-2.183896350222719
 20
19.79333040281951
 30
0.0
 40
3.5
 41
0.0
 71
     2
 72
     1
  1
\A1;11.11 [7/16]
  7
SLDTEXTSTYLE0
 73
     1
 44
1.0
  0
POINT
  5
DC
330
D2
100
AcDbEntity
  8
Defpoints
 62
     0
100
AcDbPoint
 10
24.48060364977729
 20
1.978152571287911
 30
0.0
  0
POINT
  5
DD
330
D2
100
AcDbEntity
  8
Defpoints
 62
     0
100
AcDbPoint
 10
13.36810364977728
 20
1.954244444132984
 30
0.0
  0
POINT
  5
DE
330
D2
100
AcDbEntity
  8
Defpoints
 62
     0
100
AcDbPoint
 10
13.36810364977728
 20
15.41833040281951
 30
0.0
  0
ENDBLK
  5
D4
330
D2
100
AcDbEntity
  8
0
100
AcDbBlockEnd
  0
BLOCK
  5
E7
330
E6
100
AcDbEntity
  8
0
100
AcDbBlockBegin
  2
_D_1
 70
     0
 10
0.0
 20
0.0
 30
0.0
  3
_D_1
  1
_D_1
  0
LINE
  5
E9
330
E6
100
AcDbEntity
  8
치수문자_일반주서
 62
     0
370
    -2
100
AcDbLine
 10
24.48060364977729
 20
2.040652571287911
 30
0.0
 11
24.48060364977729
 21
30.88019565503949
 31
0.0
  0
LINE
  5
EA
330
E6
100
AcDbEntity
  8
치수문자_일반주서
 62
     0
370
    -2
100
AcDbLine
 10
-35.84439635022271
 20
3.873574928723895
 30
0.0
 11
-35.8443963502227
 21
30.88019565503949
 31
0.0
  0
LINE
  5
EB
330
E6
100
AcDbEntity
  8
치수문자_일반주서
 62
     0
370
    -2
100
AcDbLine
 10
21.17860364977729
 20
30.88019565503949
 30
0.0
 11
-32.5423963502227
 21
30.88019565503949
 31
0.0
  0
SOLID
  5
EC
330
E6
100
AcDbEntity
  8
치수문자_일반주서
 62
     0
100
AcDbTrace
 10
21.17860364977729
 20
30.32986232170615
 30
0.0
 11
21.17860364977729
 21
31.43052898837282
 31
0.0
 12
24.48060364977729
 22
30.88019565503949
 32
0.0
 13
24.48060364977729
 23
30.88019565503949
 33
0.0
  0
SOLID
  5
ED
330
E6
100
AcDbEntity
  8
치수문자_일반주서
 62
     0
100
AcDbTrace
 10
-32.5423963502227
 20
31.43052898837282
 30
0.0
 11
-32.5423963502227
 21
30.32986232170615
 31
0.0
 12
-35.8443963502227
 22
30.88019565503949
 32
0.0
 13
-35.8443963502227
 23
30.88019565503949
 33
0.0
  0
MTEXT
  5
EE
330
E6
100
AcDbEntity
  8
치수문자_일반주서
 62
     0
100
AcDbMText
 10
-5.681896350222714
 20
35.25519565503949
 30
0.0
 40
3.5
 41
0.0
 71
     2
 72
     1
  1
\A1;60.33 [2 3/8]
  7
SLDTEXTSTYLE0
 73
     1
 44
1.0
  0
POINT
  5
EF
330
E6
100
AcDbEntity
  8
Defpoints
 62
     0
100
AcDbPoint
 10
24.48060364977729
 20
1.978152571287911
 30
0.0
  0
POINT
  5
F0
330
E6
100
AcDbEntity
  8
Defpoints
 62
     0
100
AcDbPoint
 10
-35.84439635022271
 20
3.811074928723895
 30
0.0
  0
POINT
  5
F1
330
E6
100
AcDbEntity
  8
Defpoints
 62
     0
100
AcDbPoint
 10
-35.84439635022271
 20
30.88019565503949
 30
0.0
  0
ENDBLK
  5
E8
330
E6
100
AcDbEntity
  8
0
100
AcDbBlockEnd
  0
BLOCK
  5
FB
330
FA
100
AcDbEntity
  8
0
100
AcDbBlockBegin
  2
_D_2
 70
     0
 10
0.0
 20
0.0
 30
0.0
  3
_D_2
  1
_D_2
  0
LINE
  5
FD
330
FA
100
AcDbEntity
  8
치수문자_일반주서
 62
     0
370
    -2
100
AcDbLine
 10
-34.95439635022272
 20
4.763574928723896
 30
0.0
 11
-47.14516918804993
 21
4.763574928723854
 31
0.0
  0
LINE
  5
FE
330
FA
100
AcDbEntity
  8
치수문자_일반주서
 62
     0
370
    -2
100
AcDbLine
 10
-34.95439635022272
 20
-4.761425071276109
 30
0.0
 11
-47.14516918804989
 21
-4.761425071276152
 31
0.0
  0
LINE
  5
FF
330
FA
100
AcDbEntity
  8
치수문자_일반주서
 62
     0
370
    -2
100
AcDbLine
 10
-47.14516918804991
 20
1.461574928723854
 30
0.0
 11
-47.14516918804991
 21
-1.459425071276153
 31
0.0
  0
SOLID
  5
100
330
FA
100
AcDbEntity
  8
치수문자_일반주서
 62
     0
100
AcDbTrace
 10
-46.59483585471658
 20
1.461574928723856
 30
0.0
 11
-47.69550252138325
 21
1.461574928723852
 31
0.0
 12
-47.14516918804993
 22
4.763574928723854
 32
0.0
 13
-47.14516918804993
 23
4.763574928723854
 33
0.0
  0
SOLID
  5
101
330
FA
100
AcDbEntity
  8
치수문자_일반주서
 62
     0
100
AcDbTrace
 10
-47.69550252138324
 20
-1.459425071276155
 30
0.0
 11
-46.59483585471657
 21
-1.459425071276151
 31
0.0
 12
-47.14516918804989
 22
-4.761425071276152
 32
0.0
 13
-47.14516918804989
 23
-4.761425071276152
 33
0.0
  0
MTEXT
  5
102
330
FA
100
AcDbEntity
  8
치수문자_일반주서
 62
     0
100
AcDbMText
 10
-51.52016918804991
 20
0.0010749287238796
 30
0.0
 40
3.5
 41
0.0
 71
     2
 72
     1
  1
\A1;%%c9.53 [3/8]
  7
SLDTEXTSTYLE0
 11
-3.729883127349605E-15
 21
1.0
 31
0.0
 73
     1
 44
1.0
  0
POINT
  5
103
330
FA
100
AcDbEntity
  8
Defpoints
 62
     0
100
AcDbPoint
 10
-34.89189635022272
 20
4.763574928723896
 30
0.0
  0
POINT
  5
104
330
FA
100
AcDbEntity
  8
Defpoints
 62
     0
100
AcDbPoint
 10
-34.89189635022272
 20
-4.761425071276109
 30
0.0
  0
POINT
  5
105
330
FA
100
AcDbEntity
  8
Defpoints
 62
     0
100
AcDbPoint
 10
-47.14516918804989
 20
-4.761425071276152
 30
0.0
  0
ENDBLK
  5
FC
330
FA
100
AcDbEntity
  8
0
100
AcDbBlockEnd
  0
BLOCK
  5
10F
330
10E
100
AcDbEntity
  8
0
100
AcDbBlockBegin
  2
_D_3
 70
     0
 10
0.0
 20
0.0
 30
0.0
  3
_D_3
  1
_D_3
  0
LINE
  5
111
330
10E
100
AcDbEntity
  8
치수문자_일반주서
 62
     0
370
    -2
100
AcDbLine
 10
20.64854159456732
 20
1.985449928723894
 30
0.0
 11
63.3772068570061
 21
1.985449928724044
 31
0.0
  0
LINE
  5
112
330
10E
100
AcDbEntity
  8
치수문자_일반주서
 62
     0
370
    -2
100
AcDbLine
 10
20.64854159456732
 20
-1.983300071276108
 30
0.0
 11
63.37720685700612
 21
-1.983300071275959
 31
0.0
  0
LINE
  5
113
330
10E
100
AcDbEntity
  8
치수문자_일반주서
 62
     0
370
    -2
100
AcDbLine
 10
63.3772068570061
 20
1.985449928724044
 30
0.0
 11
63.37720685700597
 21
37.46444992872404
 31
0.0
  0
LINE
  5
114
330
10E
100
AcDbEntity
  8
치수문자_일반주서
 62
     0
370
    -2
100
AcDbLine
 10
63.3772068570061
 20
1.985449928724044
 30
0.0
 11
63.37720685700612
 21
-1.983300071275959
 31
0.0
  0
LINE
  5
115
330
10E
100
AcDbEntity
  8
치수문자_일반주서
 62
     0
370
    -2
100
AcDbLine
 10
63.37720685700609
 20
5.287449928724044
 30
0.0
 11
63.37720685700607
 21
8.589449928724044
 31
0.0
  0
LINE
  5
116
330
10E
100
AcDbEntity
  8
치수문자_일반주서
 62
     0
370
    -2
100
AcDbLine
 10
63.37720685700613
 20
-5.285300071275959
 30
0.0
 11
63.37720685700614
 21
-8.587300071275958
 31
0.0
  0
SOLID
  5
117
330
10E
100
AcDbEntity
  8
치수문자_일반주서
 62
     0
100
AcDbTrace
 10
62.82687352367275
 20
5.287449928724042
 30
0.0
 11
63.92754019033942
 21
5.287449928724046
 31
0.0
 12
63.3772068570061
 22
1.985449928724044
 32
0.0
 13
63.3772068570061
 23
1.985449928724044
 33
0.0
  0
SOLID
  5
118
330
10E
100
AcDbEntity
  8
치수문자_일반주서
 62
     0
100
AcDbTrace
 10
63.92754019033946
 20
-5.285300071275957
 30
0.0
 11
62.82687352367279
 21
-5.285300071275961
 31
0.0
 12
63.37720685700612
 22
-1.983300071275959
 32
0.0
 13
63.37720685700612
 23
-1.983300071275959
 33
0.0
  0
MTEXT
  5
119
330
10E
100
AcDbEntity
  8
치수문자_일반주서
 62
     0
100
AcDbMText
 10
59.00220685700602
 20
23.02694992872403
 30
0.0
 40
3.5
 41
0.0
 71
     2
 72
     1
  1
\A1;%%c3.97 [5/32]
  7
SLDTEXTSTYLE0
 11
-3.580687802255621E-15
 21
1.0
 31
0.0
 73
     1
 44
1.0
  0
POINT
  5
11A
330
10E
100
AcDbEntity
  8
Defpoints
 62
     0
100
AcDbPoint
 10
20.58604159456732
 20
1.985449928723894
 30
0.0
  0
POINT
  5
11B
330
10E
100
AcDbEntity
  8
Defpoints
 62
     0
100
AcDbPoint
 10
20.58604159456732
 20
-1.983300071276108
 30
0.0
  0
POINT
  5
11C
330
10E
100
AcDbEntity
  8
Defpoints
 62
     0
100
AcDbPoint
 10
63.37720685700611
 20
-1.983300071275958
 30
0.0
  0
ENDBLK
  5
110
330
10E
100
AcDbEntity
  8
0
100
AcDbBlockEnd
  0
BLOCK
  5
129
330
128
100
AcDbEntity
  8
0
100
AcDbBlockBegin
  2
SW_DOWELSYMBOL_0
 70
     0
 10
0.0
 20
0.0
 30
0.0
  3
SW_DOWELSYMBOL_0
  1
SW_DOWELSYMBOL_0
  0
CIRCLE
  5
12B
330
128
100
AcDbEntity
  8
해칭선
 62
     0
100
AcDbCircle
 10
0.0
 20
0.0
 30
0.0
 40
3.000000000000001
  0
HATCH
  5
12C
330
128
100
AcDbEntity
  8
0
  6
Continuous
 62
     0
370
     0
100
AcDbHatch
 10
0.0
 20
0.0
 30
0.0
210
0.0
220
0.0
230
1.0
  2
SOLID
 70
     1
 71
     0
 91
        1
 92
        0
 93
        3
 72
     2
 10
0.0000000000000017
 20
0.0
 40
3.000000000000001
 50
0.0
 51
90.0
 73
     1
 72
     1
 10
0.0000000000000017
 20
3.000000000000001
 11
0.0000000000000017
 21
0.0
 72
     1
 10
0.0000000000000017
 20
0.0
 11
3.000000000000003
 21
0.0
 97
        0
 75
     0
 76
     1
 98
        1
 10
0.0
 20
0.0
  0
HATCH
  5
12D
330
128
100
AcDbEntity
  8
0
  6
Continuous
 62
     0
370
     0
100
AcDbHatch
 10
0.0
 20
0.0
 30
0.0
210
0.0
220
0.0
230
1.0
  2
SOLID
 70
     1
 71
     0
 91
        1
 92
        0
 93
        3
 72
     2
 10
0.0000000000000017
 20
0.0
 40
3.000000000000001
 50
180.0
 51
270.0000000000008
 73
     1
 72
     1
 10
0.0000000000000017
 20
-3.000000000000001
 11
0.0000000000000017
 21
0.0
 72
     1
 10
0.0000000000000017
 20
0.0
 11
-3.0
 21
0.0
 97
        0
 75
     0
 76
     1
 98
        1
 10
0.0
 20
0.0
  0
ENDBLK
  5
12A
330
128
100
AcDbEntity
  8
0
100
AcDbBlockEnd
  0
BLOCK
  5
159
330
158
100
AcDbEntity
  8
0
100
AcDbBlockBegin
  2
*D7
 70
     1
 10
0.0
 20
0.0
 30
0.0
  3
*D7
  1
*D7
  0
LINE
  5
15B
330
158
100
AcDbEntity
  8
치수문자_일반주서
 62
     0
370
    -2
100
AcDbLine
 10
24.54310364977729
 20
1.985449928723897
 30
0.0
 11
37.27245649376507
 21
1.985449928723895
 31
0.0
  0
LINE
  5
15C
330
158
100
AcDbEntity
  8
치수문자_일반주서
 62
     0
370
    -2
100
AcDbLine
 10
24.54310364977729
 20
-1.983300071276103
 30
0.0
 11
37.27245649376507
 21
-1.983300071276105
 31
0.0
  0
LINE
  5
15D
330
158
100
AcDbEntity
  8
치수문자_일반주서
 62
     0
370
    -2
100
AcDbLine
 10
37.27245649376507
 20
1.985449928723895
 30
0.0
 11
37.27245649376507
 21
37.46444992872389
 31
0.0
  0
LINE
  5
15E
330
158
100
AcDbEntity
  8
치수문자_일반주서
 62
     0
370
    -2
100
AcDbLine
 10
37.27245649376507
 20
5.287449928723895
 30
0.0
 11
37.27245649376507
 21
8.589449928723894
 31
0.0
  0
LINE
  5
15F
330
158
100
AcDbEntity
  8
치수문자_일반주서
 62
     0
370
    -2
100
AcDbLine
 10
37.27245649376507
 20
-5.285300071276104
 30
0.0
 11
37.27245649376507
 21
-8.587300071276104
 31
0.0
  0
SOLID
  5
160
330
158
100
AcDbEntity
  8
치수문자_일반주서
 62
     0
100
AcDbTrace
 10
36.72212316043174
 20
5.287449928723895
 30
0.0
 11
37.8227898270984
 21
5.287449928723895
 31
0.0
 12
37.27245649376507
 22
1.985449928723895
 32
0.0
 13
37.27245649376507
 23
1.985449928723895
 33
0.0
  0
SOLID
  5
161
330
158
100
AcDbEntity
  8
치수문자_일반주서
 62
     0
100
AcDbTrace
 10
37.8227898270984
 20
-5.285300071276104
 30
0.0
 11
36.72212316043174
 21
-5.285300071276104
 31
0.0
 12
37.27245649376507
 22
-1.983300071276105
 32
0.0
 13
37.27245649376507
 23
-1.983300071276105
 33
0.0
  0
MTEXT
  5
162
330
158
100
AcDbEntity
  8
치수문자_일반주서
 62
     0
100
AcDbMText
 10
34.64745649376507
 20
23.02694992872389
 30
0.0
 40
3.5
 41
0.0
 71
     5
 72
     1
  1
\A1;{%%C3.97 [5/32]}
  7
SLDTEXTSTYLE0
 11
0.0
 21
1.0
 31
0.0
 73
     1
 44
1.0
  0
POINT
  5
163
330
158
100
AcDbEntity
  8
Defpoints
 62
     0
100
AcDbPoint
 10
24.48060364977729
 20
1.985449928723897
 30
0.0
  0
POINT
  5
164
330
158
100
AcDbEntity
  8
Defpoints
 62
     0
100
AcDbPoint
 10
24.48060364977729
 20
-1.983300071276103
 30
0.0
  0
POINT
  5
168
330
158
100
AcDbEntity
  8
Defpoints
 62
     0
100
AcDbPoint
 10
37.27245649376507
 20
-1.983300071276104
 30
0.0
  0
ENDBLK
  5
15A
330
158
100
AcDbEntity
  8
0
100
AcDbBlockEnd
  0
ENDSEC
  0
SECTION
  2
ENTITIES
  0
LINE
  5
96
330
1F
100
AcDbEntity
  8
외형선
  6
Continuous
370
    15
100
AcDbLine
 10
1.999999999999998
 20
-4.761425071276111
 30
0.0
 11
12.36810364977728
 21
-1.983300071276107
 31
0.0
  0
LINE
  5
97
330
1F
100
AcDbEntity
  8
외형선
  6
Continuous
370
    15
100
AcDbLine
 10
12.36810364977728
 20
1.985449928723893
 30
0.0
 11
1.999999999999998
 21
4.763574928723898
 31
0.0
  0
LINE
  5
98
330
1F
100
AcDbEntity
  8
외형선
  6
Continuous
370
    15
100
AcDbLine
 10
-34.89189635022272
 20
-4.761425071276109
 30
0.0
 11
1.999999999999998
 21
-4.761425071276109
 31
0.0
  0
LINE
  5
99
330
1F
100
AcDbEntity
  8
외형선
  6
Continuous
370
    15
100
AcDbLine
 10
1.999999999999998
 20
4.763574928723895
 30
0.0
 11
-11.16194635022259
 21
4.763574928723895
 31
0.0
  0
LINE
  5
9A
330
1F
100
AcDbEntity
  8
외형선
  6
Continuous
370
    15
100
AcDbLine
 10
-34.89189635022272
 20
4.763574928723893
 30
0.0
 11
-35.84439635022271
 21
3.811074928723895
 31
0.0
  0
LINE
  5
9B
330
1F
100
AcDbEntity
  8
외형선
  6
Continuous
370
    15
100
AcDbLine
 10
-35.84439635022271
 20
-3.808925071276108
 30
0.0
 11
-34.89189635022272
 21
-4.761425071276106
 31
0.0
  0
LINE
  5
9C
330
1F
100
AcDbEntity
  8
외형선
  6
Continuous
370
    15
100
AcDbLine
 10
12.36810364977728
 20
-1.983300071276107
 30
0.0
 11
12.8679342186689
 21
-1.983300071276107
 31
0.0
  0
LINE
  5
9D
330
1F
100
AcDbEntity
  8
외형선
  6
Continuous
370
    15
100
AcDbLine
 10
12.8679342186689
 20
1.985449928723893
 30
0.0
 11
12.36810364977728
 21
1.985449928723893
 31
0.0
  0
LINE
  5
9E
330
1F
100
AcDbEntity
  8
외형선
  6
Continuous
 62
     1
370
    15
100
AcDbLine
 10
15.18679507528105
 20
1.985449928723894
 30
0.0
 11
13.97865262531268
 21
1.985449928723894
 31
0.0
  0
LINE
  5
9F
330
1F
100
AcDbEntity
  8
외형선
  6
Continuous
 62
     1
370
    15
100
AcDbLine
 10
19.37596545079829
 20
-1.983300071276108
 30
0.0
 11
20.58549739603479
 21
-1.983300071276108
 31
0.0
  0
LINE
  5
A0
330
1F
100
AcDbEntity
  8
외형선
  6
Continuous
 62
     1
370
    15
100
AcDbLine
 10
20.58549739603479
 20
1.985449928723894
 30
0.0
 11
19.3759654507983
 21
1.985449928723894
 31
0.0
  0
LINE
  5
A1
330
1F
100
AcDbEntity
  8
외형선
  6
Continuous
 62
     1
370
    15
100
AcDbLine
 10
13.97865262531268
 20
-1.983300071276108
 30
0.0
 11
15.18679507528102
 21
-1.983300071276108
 31
0.0
  0
LINE
  5
A2
330
1F
100
AcDbEntity
  8
외형선
  6
Continuous
370
    15
100
AcDbLine
 10
12.36810364977728
 20
0.0010749287238931
 30
0.0
 11
12.36810364977728
 21
1.985449928723893
 31
0.0
  0
LINE
  5
A3
330
1F
100
AcDbEntity
  8
외형선
  6
Continuous
370
    15
100
AcDbLine
 10
12.36810364977728
 20
-1.983300071276107
 30
0.0
 11
12.36810364977728
 21
0.0010749287238931
 31
0.0
  0
LINE
  5
A4
330
1F
100
AcDbEntity
  8
외형선
  6
Continuous
370
    15
100
AcDbLine
 10
1.999999999999998
 20
0.0010749287238931
 30
0.0
 11
1.999999999999998
 21
4.763574928723898
 31
0.0
  0
LINE
  5
A5
330
1F
100
AcDbEntity
  8
외형선
  6
Continuous
370
    15
100
AcDbLine
 10
1.999999999999998
 20
-4.761425071276111
 30
0.0
 11
1.999999999999998
 21
0.0010749287238931
 31
0.0
  0
LINE
  5
A6
330
1F
100
AcDbEntity
  8
외형선
  6
Continuous
370
    15
100
AcDbLine
 10
-34.89189635022272
 20
0.0010749287238931
 30
0.0
 11
-34.89189635022272
 21
4.763574928723895
 31
0.0
  0
LINE
  5
A7
330
1F
100
AcDbEntity
  8
외형선
  6
Continuous
370
    15
100
AcDbLine
 10
-34.89189635022272
 20
-4.761425071276109
 30
0.0
 11
-34.89189635022272
 21
0.0010749287238931
 31
0.0
  0
LINE
  5
A8
330
1F
100
AcDbEntity
  8
외형선
  6
Continuous
370
    15
100
AcDbLine
 10
-35.84439635022271
 20
0.0010749287238931
 30
0.0
 11
-35.84439635022271
 21
3.811074928723895
 31
0.0
  0
LINE
  5
A9
330
1F
100
AcDbEntity
  8
외형선
  6
Continuous
370
    15
100
AcDbLine
 10
-35.84439635022271
 20
-3.808925071276108
 30
0.0
 11
-35.84439635022271
 21
0.0010749287238931
 31
0.0
  0
SPLINE
  5
AA
330
1F
100
AcDbEntity
  8
외형선
  6
Continuous
370
    15
100
AcDbSpline
210
0.0
220
0.0
230
1.0
 70
     8
 71
     3
 72
     8
 73
     4
 74
     0
 42
0.000000001
 43
0.00000001
 40
0.0
 40
0.0
 40
0.0
 40
0.0
 40
1.0
 40
1.0
 40
1.0
 40
1.0
 10
13.36810364977711
 20
1.954244444130178
 30
0.0
 10
13.20168764277465
 20
1.937305834982769
 30
0.0
 10
13.0340879178845
 20
1.913450326396936
 30
0.0
 10
12.8679342186689
 20
1.883062798086989
 30
0.0
  0
LINE
  5
AB
330
1F
100
AcDbEntity
  8
외형선
  6
Continuous
370
    15
100
AcDbLine
 10
12.86793421866889
 20
1.240580387513068
 30
0.0
 11
12.8679342186689
 21
1.985449928723893
 31
0.0
  0
SPLINE
  5
AC
330
1F
100
AcDbEntity
  8
외형선
  6
Continuous
370
    15
100
AcDbSpline
210
0.0
220
0.0
230
1.0
 70
     8
 71
     3
 72
     8
 73
     4
 74
     0
 42
0.000000001
 43
0.00000001
 40
0.0
 40
0.0
 40
0.0
 40
0.0
 40
1.0
 40
1.0
 40
1.0
 40
1.0
 10
13.36810364977685
 20
1.003564218268664
 30
0.0
 10
13.20168764277447
 20
1.086317982582182
 30
0.0
 10
13.0340879178844
 20
1.165736374453399
 30
0.0
 10
12.8679342186689
 20
1.240579373973959
 30
0.0
  0
SPLINE
  5
AD
330
1F
100
AcDbEntity
  8
외형선
  6
Continuous
370
    15
100
AcDbSpline
210
0.0
220
0.0
230
1.0
 70
     8
 71
     3
 72
     8
 73
     4
 74
     0
 42
0.000000001
 43
0.00000001
 40
0.0
 40
0.0
 40
0.0
 40
0.0
 40
1.0
 40
1.0
 40
1.0
 40
1.0
 10
13.36810364977711
 20
0.3516073590532197
 30
0.0
 10
13.20168764277465
 20
0.445989425183363
 30
0.0
 10
13.0340879178845
 20
0.5393589743858752
 30
0.0
 10
12.8679342186689
 20
0.630253599846149
 30
0.0
  0
LINE
  5
AE
330
1F
100
AcDbEntity
  8
외형선
  6
Continuous
370
    15
100
AcDbLine
 10
12.86793421866889
 20
-1.548560627868954
 30
0.0
 11
12.8679342186689
 21
0.6302598077654624
 31
0.0
  0
SPLINE
  5
AF
330
1F
100
AcDbEntity
  8
외형선
  6
Continuous
370
    15
100
AcDbSpline
210
0.0
220
0.0
230
1.0
 70
     8
 71
     3
 72
     8
 73
     4
 74
     0
 42
0.000000001
 43
0.00000001
 40
0.0
 40
0.0
 40
0.0
 40
0.0
 40
1.0
 40
1.0
 40
1.0
 40
1.0
 10
13.36810364977685
 20
-1.711455177572931
 30
0.0
 10
13.20168764277447
 20
-1.663012372340614
 30
0.0
 10
13.0340879178844
 20
-1.608425954242807
 30
0.0
 10
12.8679342186689
 20
-1.548561438566935
 30
0.0
  0
SPLINE
  5
B0
330
1F
100
AcDbEntity
  8
외형선
  6
Continuous
370
    15
100
AcDbSpline
210
0.0
220
0.0
230
1.0
 70
     8
 71
     3
 72
     8
 73
     4
 74
     0
 42
0.000000001
 43
0.00000001
 40
0.0
 40
0.0
 40
0.0
 40
0.0
 40
1.0
 40
1.0
 40
1.0
 40
1.0
 10
13.36810364977711
 20
-1.952094586682392
 30
0.0
 10
13.20168764277465
 20
-1.935155977534983
 30
0.0
 10
13.0340879178845
 20
-1.91130046894915
 30
0.0
 10
12.8679342186689
 20
-1.880912940639202
 30
0.0
  0
LINE
  5
B1
330
1F
100
AcDbEntity
  8
외형선
  6
Continuous
370
    15
100
AcDbLine
 10
12.8679342186689
 20
-1.983300071276107
 30
0.0
 11
12.8679342186689
 21
-1.880910865221017
 31
0.0
  0
LINE
  5
B2
330
1F
100
AcDbEntity
  8
외형선
  6
Continuous
370
    15
100
AcDbLine
 10
13.36810364977728
 20
-1.952094586661006
 30
0.0
 11
13.36810364977728
 21
-1.711455177573057
 31
0.0
  0
LINE
  5
B3
330
1F
100
AcDbEntity
  8
외형선
  6
Continuous
370
    15
100
AcDbLine
 10
13.36810364977728
 20
0.3516073590558664
 30
0.0
 11
13.36810364977728
 21
1.003564218268447
 31
0.0
  0
SPLINE
  5
B4
330
1F
100
AcDbEntity
  8
외형선
  6
Continuous
370
    15
100
AcDbSpline
210
0.0
220
0.0
230
1.0
 70
    24
 71
     3
 72
    15
 73
    11
 74
     0
 42
0.000000001
 43
0.00000001
 40
0.0
 40
0.0
 40
0.0
 40
0.0
 40
0.052113555856426
 40
0.2008260876210557
 40
0.3495386193856723
 40
0.498251151150313
 40
0.6469636829149419
 40
0.7956762146795708
 40
0.9443887464441575
 40
1.0
 40
1.0
 40
1.0
 40
1.0
 10
13.36810364977728
 20
-1.711455177573057
 30
0.0
 10
13.36810364977726
 20
-1.678835460705634
 30
0.0
 10
13.36810364977724
 20
-1.553131313096921
 30
0.0
 10
13.36810364977727
 20
-1.27785856217671
 30
0.0
 10
13.36810364977732
 20
-0.8802472633180913
 30
0.0
 10
13.3681036497773
 20
-0.4763250808257706
 30
0.0
 10
13.36810364977726
 20
-0.1102336193876056
 30
0.0
 10
13.3681036497773
 20
0.166288105151267
 30
0.0
 10
13.36810364977729
 20
0.3215750896069197
 30
0.0
 10
13.36810364977729
 20
0.3316002161461303
 30
0.0
 10
13.36810364977729
 20
0.3343287768617961
 30
0.0
  0
SPLINE
  5
B5
330
1F
100
AcDbEntity
  8
외형선
  6
Continuous
370
    15
100
AcDbSpline
210
0.0
220
0.0
230
1.0
 70
    24
 71
     3
 72
    13
 73
     9
 74
     0
 42
0.000000001
 43
0.00000001
 40
0.0
 40
0.0
 40
0.0
 40
0.0
 40
0.1123666507156737
 40
0.315187595493745
 40
0.5238903614104437
 40
0.72671130618862
 40
0.9354140721054339
 40
0.9999999999999999
 40
0.9999999999999999
 40
0.9999999999999999
 40
0.9999999999999999
 10
13.36810364977728
 20
1.045759989220931
 30
0.0
 10
13.36810364977729
 20
1.073448777535716
 30
0.0
 10
13.36810364977732
 20
1.151115616900314
 30
0.0
 10
13.36810364977726
 20
1.302394976994572
 30
0.0
 10
13.36810364977733
 20
1.490124597951248
 30
0.0
 10
13.36810364977726
 20
1.689493218314394
 30
0.0
 10
13.3681036497773
 20
1.84510105577897
 30
0.0
 10
13.36810364977728
 20
1.933381299746996
 30
0.0
 10
13.36810364977728
 20
1.954244444108792
 30
0.0
  0
LINE
  5
B6
330
1F
100
AcDbEntity
  8
외형선
  6
Continuous
 62
     1
370
    15
100
AcDbLine
 10
24.48060364977729
 20
-1.796136498705478
 30
0.0
 11
24.48060364977729
 21
0.171098856153288
 31
0.0
  0
SPLINE
  5
B7
330
1F
100
AcDbEntity
  8
외형선
  6
Continuous
 62
     1
370
    15
100
AcDbSpline
210
0.0
220
0.0
230
1.0
 70
     8
 71
     3
 72
    18
 73
    14
 74
     0
 42
0.000000001
 43
0.00000001
 40
0.0
 40
0.0
 40
0.0
 40
0.0
 40
0.0910500811784542
 40
0.1868224260839524
 40
0.2825969968723025
 40
0.3782264421417471
 40
0.4737893134650525
 40
0.5613906196446454
 40
0.6492258652541378
 40
0.7370130351405306
 40
0.8245964210564531
 40
0.9121881199790356
 40
1.0
 40
1.0
 40
1.0
 40
1.0
 10
15.18679507528105
 20
1.982438984813202
 30
0.0
 10
15.46883445506122
 20
1.972022764412393
 30
0.0
 10
16.04754103609624
 20
1.950650091914821
 30
0.0
 10
16.92331498656048
 20
1.755420359535627
 30
0.0
 10
17.81328677816184
 20
1.451029373634961
 30
0.0
 10
18.70219977253616
 20
1.047065472788571
 30
0.0
 10
19.56581281269006
 20
0.5876434367159836
 30
0.0
 10
20.40491331043847
 20
0.1060340829174044
 30
0.0
 10
21.22072509369718
 20
-0.3661974815946064
 30
0.0
 10
22.0362805199453
 20
-0.8187148598604335
 30
0.0
 10
22.85056387965785
 20
-1.223837194571263
 30
0.0
 10
23.66492312447495
 20
-1.567532567037608
 30
0.0
 10
24.20848270101135
 20
-1.719871445357505
 30
0.0
 10
24.48060364977729
 20
-1.796136498705478
 30
0.0
  0
SPLINE
  5
B8
330
1F
100
AcDbEntity
  8
외형선
  6
Continuous
 62
     1
370
    15
100
AcDbSpline
210
0.0
220
0.0
230
1.0
 70
     8
 71
     3
 72
    16
 73
    12
 74
     0
 42
0.000000001
 43
0.00000001
 40
0.0
 40
0.0
 40
0.0
 40
0.0
 40
0.1233505023894886
 40
0.2465146909524057
 40
0.3695937579972726
 40
0.4926901266086244
 40
0.6159059692717065
 40
0.7393092777130095
 40
0.8625857439773025
 40
0.9980611177041411
 40
1.0
 40
1.0
 40
1.0
 40
1.0
 10
24.48060364977729
 20
0.171098856153288
 30
0.0
 10
24.18380041351757
 20
0.3405152497201929
 30
0.0
 10
23.59064224518505
 20
0.6790921431530613
 30
0.0
 10
22.70171182422275
 20
1.139203834618197
 30
0.0
 10
21.81348999033741
 20
1.524151990213559
 30
0.0
 10
20.92511514523935
 20
1.807829379096186
 30
0.0
 10
20.03582795872482
 20
1.97044599054157
 30
0.0
 10
19.14563038711678
 20
2.005344194208313
 30
0.0
 10
18.2263666060422
 20
1.890501446007026
 30
0.0
 10
17.59919036203456
 20
1.75379027201152
 30
0.0
 10
17.26862890572166
 20
1.623451349143046
 30
0.0
 10
17.26396476261244
 20
1.621612298106236
 30
0.0
  0
LINE
  5
B9
330
1F
100
AcDbEntity
  8
외형선
  6
Continuous
 62
     1
370
    15
100
AcDbLine
 10
24.48060364977729
 20
-1.976002713840125
 30
0.0
 11
24.48060364977729
 21
-1.796136498705478
 31
0.0
  0
SPLINE
  5
BA
330
1F
100
AcDbEntity
  8
외형선
  6
Continuous
 62
     1
370
    15
100
AcDbSpline
210
0.0
220
0.0
230
1.0
 70
     8
 71
     3
 72
    42
 73
    38
 74
     0
 42
0.000000001
 43
0.00000001
 40
0.0
 40
0.0
 40
0.0
 40
0.0
 40
0.0625000000000007
 40
0.0625000000000007
 40
0.1250000000000013
 40
0.1250000000000013
 40
0.187500000000002
 40
0.187500000000002
 40
0.2500000000000027
 40
0.2500000000000027
 40
0.3125000000000033
 40
0.3125000000000033
 40
0.375000000000004
 40
0.375000000000004
 40
0.4062500000000043
 40
0.4062500000000043
 40
0.4375000000000047
 40
0.4375000000000047
 40
0.468750000000005
 40
0.468750000000005
 40
0.5000000000000053
 40
0.5000000000000053
 40
0.5625000000000047
 40
0.5625000000000047
 40
0.625000000000004
 40
0.625000000000004
 40
0.6875000000000033
 40
0.6875000000000033
 40
0.7500000000000027
 40
0.7500000000000027
 40
0.812500000000002
 40
0.812500000000002
 40
0.8750000000000013
 40
0.8750000000000013
 40
0.9375000000000007
 40
0.9375000000000007
 40
1.0
 40
1.0
 40
1.0
 40
1.0
 10
24.48060364977729
 20
-1.976002713840125
 30
0.0
 10
24.25191989999048
 20
-1.964596182144178
 30
0.0
 10
24.01773477184032
 20
-1.939614226574625
 30
0.0
 10
23.55250829711097
 20
-1.863567739133461
 30
0.0
 10
23.32474487261898
 20
-1.812888311730559
 30
0.0
 10
22.8603826502957
 20
-1.68698088575895
 30
0.0
 10
22.62584127377173
 20
-1.611757273901453
 30
0.0
 10
22.16625487848931
 20
-1.441563970840391
 30
0.0
 10
21.93458903405505
 20
-1.345846954615028
 30
0.0
 10
21.46883735302515
 20
-1.136986589856951
 30
0.0
 10
21.24045330867391
 20
-1.024774181828078
 30
0.0
 10
20.77729228465866
 20
-0.78696223585119
 30
0.0
 10
20.54256883996014
 20
-0.6612909357115165
 30
0.0
 10
20.19645894146243
 20
-0.4683866053852813
 30
0.0
 10
20.08255551870247
 20
-0.4034553248076537
 30
0.0
 10
19.85133804442103
 20
-0.2718002534412081
 30
0.0
 10
19.73484708099526
 20
-0.2052282202612121
 30
0.0
 10
19.50187879969556
 20
-0.0716076758618477
 30
0.0
 10
19.38540452724554
 20
-0.0045609115998524
 30
0.0
 10
19.15425297092585
 20
0.1289787868723183
 30
0.0
 10
19.04036442997599
 20
0.1953207016057535
 30
0.0
 10
18.69414508681063
 20
0.3938950083738038
 30
0.0
 10
18.45941420946131
 20
0.5252298251360393
 30
0.0
 10
17.99637085146215
 20
0.7778081951899687
 30
0.0
 10
17.76790539292482
 20
0.8991346688408317
 30
0.0
 10
17.30212472400443
 20
1.129457662765075
 30
0.0
 10
17.0706450863482
 20
1.237429465982163
 30
0.0
 10
16.61088485622438
 20
1.434761100014126
 30
0.0
 10
16.37632120034532
 20
1.524953227700141
 30
0.0
 10
15.91204809916511
 20
1.682722595445554
 30
0.0
 10
15.68425601563596
 20
1.750246626320782
 30
0.0
 10
15.21897163574863
 20
1.861552776723353
 30
0.0
 10
14.98502450023249
 20
1.904862143115322
 30
0.0
 10
14.5274556739428
 20
1.964664612193538
 30
0.0
 10
14.29323347542675
 20
1.981608210781887
 30
0.0
 10
13.82806736066737
 20
1.988118385982641
 30
0.0
 10
13.60032810170922
 20
1.977881348395584
 30
0.0
 10
13.36810364977721
 20
1.954244444130187
 30
0.0
  0
SPLINE
  5
BB
330
1F
100
AcDbEntity
  8
외형선
  6
Continuous
 62
     1
370
    15
100
AcDbSpline
210
0.0
220
0.0
230
1.0
 70
     8
 71
     3
 72
    14
 73
    10
 74
     0
 42
0.000000001
 43
0.00000001
 40
0.0
 40
0.0
 40
0.0
 40
0.0
 40
0.0383688177539643
 40
0.1864540358460128
 40
0.3491931284918863
 40
0.5118985673566983
 40
0.6745890328520314
 40
0.837283267985926
 40
1.0
 40
1.0
 40
1.0
 40
1.0
 10
19.37596545079828
 20
-1.970577198643692
 30
0.0
 10
19.29910712559681
 20
-1.974366861268304
 30
0.0
 10
18.92561255992963
 20
-1.992782802447015
 30
0.0
 10
18.22636557850711
 20
-1.889467873360855
 30
0.0
 10
17.27800873217862
 20
-1.649115381472795
 30
0.0
 10
16.30049654741895
 20
-1.256607133170655
 30
0.0
 10
15.32307669645128
 20
-0.766725647343907
 30
0.0
 10
14.3456371269929
 20
-0.2122332767144144
 30
0.0
 10
13.69396315973731
 20
0.163651818348682
 30
0.0
 10
13.36810364977722
 20
0.3516073590531693
 30
0.0
  0
SPLINE
  5
BC
330
1F
100
AcDbEntity
  8
외형선
  6
Continuous
 62
     1
370
    15
100
AcDbSpline
210
0.0
220
0.0
230
1.0
 70
     8
 71
     3
 72
    18
 73
    14
 74
     0
 42
0.000000001
 43
0.00000001
 40
0.0
 40
0.0
 40
0.0
 40
0.0
 40
0.0954813499133204
 40
0.1909487950695236
 40
0.2864817833439852
 40
0.3821588148959607
 40
0.4778380701155728
 40
0.5733723442462806
 40
0.668840110685738
 40
0.7563542353906245
 40
0.8441020667071414
 40
0.9318018701458777
 40
1.0
 40
1.0
 40
1.0
 40
1.0
 10
13.36810364977684
 20
1.003564218268672
 30
0.0
 10
13.66415730453839
 20
0.8494745553641747
 30
0.0
 10
14.25622150036269
 20
0.5413176693231446
 30
0.0
 10
15.14443376799476
 20
0.025083944881223
 30
0.0
 10
16.033360030329
 20
-0.4881268851277374
 30
0.0
 10
16.92331323486047
 20
-0.96981672237979
 30
0.0
 10
17.81328722991639
 20
-1.386567406677319
 30
0.0
 10
18.70219971436017
 20
-1.711325911468688
 30
0.0
 10
19.56581259888567
 20
-1.915887358085808
 30
0.0
 10
20.40491413162285
 20
-1.999718724121869
 30
0.0
 10
21.22072198398393
 20
-1.966166412048325
 30
0.0
 10
21.97643543024449
 20
-1.843227330093869
 30
0.0
 10
22.45967245408911
 20
-1.688861402863807
 30
0.0
 10
22.671066284696
 20
-1.62133345475104
 30
0.0
  0
SPLINE
  5
BD
330
1F
100
AcDbEntity
  8
외형선
  6
Continuous
370
    15
100
AcDbSpline
210
0.0
220
0.0
230
1.0
 70
    24
 71
     3
 72
    12
 73
     8
 74
     0
 42
0.000000001
 43
0.00000001
 40
0.0
 40
0.0
 40
0.0
 40
0.0
 40
0.1948145632544954
 40
0.394788068606914
 40
0.5982182225756825
 40
0.8075478647908818
 40
1.0
 40
1.0
 40
1.0
 40
1.0
 10
13.36810364977728
 20
1.954244444132984
 30
0.0
 10
13.36810364977728
 20
1.891204770644505
 30
0.0
 10
13.36810364977728
 20
1.763456051419572
 30
0.0
 10
13.36810364977733
 20
1.569707968059106
 30
0.0
 10
13.36810364977729
 20
1.378386304373418
 30
0.0
 10
13.36810364977726
 20
1.199346193989767
 30
0.0
 10
13.36810364977729
 20
1.095494571176512
 30
0.0
 10
13.36810364977732
 20
1.045749989220931
 30
0.0
  0
SPLINE
  5
BE
330
1F
100
AcDbEntity
  8
외형선
  6
Continuous
 62
     1
370
    15
100
AcDbSpline
210
0.0
220
0.0
230
1.0
 70
     8
 71
     3
 72
    12
 73
     8
 74
     0
 42
0.000000001
 43
0.00000001
 40
0.0
 40
0.0
 40
0.0
 40
0.0
 40
0.2280063662526782
 40
0.4559795283964199
 40
0.6841092053803952
 40
0.9125828530384225
 40
1.0
 40
1.0
 40
1.0
 40
1.0
 10
13.36810364977685
 20
-1.711455177572927
 30
0.0
 10
13.66415714913507
 20
-1.78668703375899
 30
0.0
 10
14.2562210341753
 20
-1.937139790267078
 30
0.0
 10
15.14443563296083
 20
-2.005168393672036
 30
0.0
 10
16.03335302685439
 20
-1.941033150562173
 30
0.0
 10
16.74008684901185
 20
-1.806041986149062
 30
0.0
 10
17.15041402918624
 20
-1.659903626825606
 30
0.0
 10
17.26396476261241
 20
-1.61946244065845
 30
0.0
  0
SPLINE
  5
BF
330
1F
100
AcDbEntity
  8
외형선
  6
Continuous
370
    15
100
AcDbSpline
210
0.0
220
0.0
230
1.0
 70
    24
 71
     3
 72
    21
 73
    17
 74
     0
 42
0.000000001
 43
0.00000001
 40
0.0
 40
0.0
 40
0.0
 40
0.0
 40
0.0242203970694603
 40
0.0976511511508975
 40
0.173211402075249
 40
0.2466421561566875
 40
0.3222024070810399
 40
0.3956331611625795
 40
0.471193412086835
 40
0.5446241661681728
 40
0.6201844170924159
 40
0.6936151711739541
 40
0.769175422098415
 40
0.8426061761797305
 40
0.9181664271042088
 40
1.0
 40
1.0
 40
1.0
 40
1.0
 10
13.36810364977729
 20
0.3459324458426014
 30
0.0
 10
13.36810364977729
 20
0.3438474559154999
 30
0.0
 10
13.3681036497773
 20
0.335441249116512
 30
0.0
 10
13.36810364977733
 20
0.2873124164212854
 30
0.0
 10
13.36810364977726
 20
0.2023378988626283
 30
0.0
 10
13.36810364977728
 20
0.0848658771437544
 30
0.0
 10
13.36810364977733
 20
-0.0567783867623461
 30
0.0
 10
13.3681036497773
 20
-0.221909540612238
 30
0.0
 10
13.36810364977728
 20
-0.4026752002149072
 30
0.0
 10
13.36810364977732
 20
-0.5972646205985209
 30
0.0
 10
13.36810364977725
 20
-0.7966649871712929
 30
0.0
 10
13.3681036497773
 20
-0.9987796781689318
 30
0.0
 10
13.36810364977728
 20
-1.194418399745901
 30
0.0
 10
13.36810364977729
 20
-1.380931848906683
 30
0.0
 10
13.36810364977733
 20
-1.558506804509517
 30
0.0
 10
13.36810364977728
 20
-1.659135451621084
 30
0.0
 10
13.36810364977728
 20
-1.711455177573054
 30
0.0
  0
SPLINE
  5
C0
330
1F
100
AcDbEntity
  8
외형선
  6
Continuous
 62
     1
370
    15
100
AcDbSpline
210
0.0
220
0.0
230
1.0
 70
     8
 71
     3
 72
    12
 73
     8
 74
     0
 42
0.000000001
 43
0.00000001
 40
0.0
 40
0.0
 40
0.0
 40
0.0
 40
0.1630691999858565
 40
0.3725253116151447
 40
0.5814952041520264
 40
0.7904849311368484
 40
0.9999999999999999
 40
0.9999999999999999
 40
0.9999999999999999
 40
0.9999999999999999
 10
20.58549739603479
 20
1.975827619097599
 30
0.0
 10
20.7972780583925
 20
1.973155345830251
 30
0.0
 10
21.28108283112523
 20
1.967050640393993
 30
0.0
 10
22.03628999146035
 20
1.826814005834015
 30
0.0
 10
22.85056135634302
 20
1.585046504434422
 30
0.0
 10
23.66492375717901
 20
1.254391192903442
 30
0.0
 10
24.20848291208911
 20
0.979824423684066
 30
0.0
 10
24.48060364977729
 20
0.8423687096008576
 30
0.0
  0
LINE
  5
C1
330
1F
100
AcDbEntity
  8
외형선
  6
Continuous
 62
     1
370
    15
100
AcDbLine
 10
24.48060364977729
 20
0.1710988561532879
 30
0.0
 11
24.48060364977729
 21
0.8423687096008576
 31
0.0
  0
SPLINE
  5
C2
330
1F
100
AcDbEntity
  8
외형선
  6
Continuous
 62
     1
370
    15
100
AcDbSpline
210
0.0
220
0.0
230
1.0
 70
     8
 71
     3
 72
    10
 73
     6
 74
     0
 42
0.000000001
 43
0.00000001
 40
0.0
 40
0.0
 40
0.0
 40
0.0
 40
0.4919534389372707
 40
0.9831638105507133
 40
1.0
 40
1.0
 40
1.0
 40
1.0
 10
24.48060364977729
 20
1.978152571287911
 30
0.0
 10
24.18380163241076
 20
1.948519002006404
 30
0.0
 10
23.59064590002355
 20
1.889296623242344
 30
0.0
 10
22.98757416244757
 20
1.745969296045376
 30
0.0
 10
22.68121862174045
 20
1.62741218436487
 30
0.0
 10
22.671066284696
 20
1.623483312198827
 30
0.0
  0
LINE
  5
C3
330
1F
100
AcDbEntity
  8
외형선
  6
Continuous
 62
     1
370
    15
100
AcDbLine
 10
13.97865262531268
 20
-1.964505802571042
 30
0.0
 11
13.36810364977721
 21
-1.952094586682401
 31
0.0
  0
LINE
  5
C4
330
1F
100
AcDbEntity
  8
외형선
  6
Continuous
 62
     1
370
    15
100
AcDbLine
 10
24.48060364977729
 20
0.8375112517373473
 30
0.0
 11
24.48060364977729
 21
1.978152571287911
 31
0.0
  0
LINE
  5
C5
330
1F
100
AcDbEntity
  8
중심선
 62
     1
100
AcDbLine
 10
-38.84439635022272
 20
0.0010749287238892
 30
0.0
 11
27.48060364977729
 21
0.0010749287238974
 31
0.0
  0
LINE
  5
C6
330
1F
100
AcDbEntity
  8
참조1
100
AcDbLine
 10
-5.68189635022271
 20
0.0010749287238892
 30
0.0
 11
-5.681896350222705
 21
-39.99892507127611
 31
0.0
  0
LINE
  5
C7
330
1F
100
AcDbEntity
  8
참조1
100
AcDbLine
 10
-5.681896350222705
 20
-39.99892507127611
 30
0.0
 11
-21.63450316453139
 21
-39.9989250712761
 31
0.0
  0
CIRCLE
  5
C8
330
1F
100
AcDbEntity
  8
해칭선
100
AcDbCircle
 10
0.0000000000000017
 20
0.0
 30
0.0
 40
3.000000000000001
  0
INSERT
  5
C9
330
1F
100
AcDbEntity
  8
0
  6
Continuous
 62
     7
100
AcDbBlockReference
 66
     1
  2
블럭10
 10
-19.62216928234792
 20
-52.04609937292004
 30
0.0
  0
ATTRIB
  5
CA
330
C9
100
AcDbEntity
  8
FORMAT
 62
     2
100
AcDbText
 10
-28.8034645710892
 20
-49.97073246008785
 30
0.0
 40
4.233333333333333
  1
E2039010 [ 4 FLUTE ]
 41
0.75
  7
SLDTEXTSTYLE0
 11
-28.8034645710892
 21
-52.08739912675452
 31
0.0
100
AcDbAttribute
  2
AUTOATTR0
 70
     0
 74
     1
  0
SEQEND
  5
CB
330
C9
100
AcDbEntity
  8
0
  6
Continuous
 62
     7
  0
HATCH
  5
CC
330
1F
100
AcDbEntity
  8
중심선
100
AcDbHatch
 10
0.0
 20
0.0
 30
0.0
210
0.0
220
0.0
230
1.0
  2
SOLID
 70
     1
 71
     0
 91
        1
 92
        0
 93
        4
 72
     1
 10
-13.90725997796707
 20
-35.7989250712761
 11
-17.35353522180436
 21
-35.7989250712761
 72
     1
 10
-17.35353522180436
 20
-35.7989250712761
 11
-19.48176508100838
 21
-38.3352506518487
 72
     1
 10
-19.48176508100838
 20
-38.3352506518487
 11
-16.03545675205795
 21
-38.33521122254621
 72
     1
 10
-16.03545675205795
 20
-38.33521122254621
 11
-13.90725997796707
 21
-35.7989250712761
 97
        0
 75
     0
 76
     1
 98
        1
 10
0.0
 20
0.0
  0
HATCH
  5
CD
330
1F
100
AcDbEntity
  8
중심선
100
AcDbHatch
 10
0.0
 20
0.0
 30
0.0
210
0.0
220
0.0
230
1.0
  2
SOLID
 70
     1
 71
     0
 91
        1
 92
        0
 93
        4
 72
     1
 10
-8.894495986931123
 20
-35.7989250712761
 11
-12.34077123076841
 21
-35.7989250712761
 72
     1
 10
-12.34077123076841
 20
-35.7989250712761
 11
-16.87190923912579
 21
-41.19892507127612
 72
     1
 10
-16.87190923912579
 20
-41.19892507127612
 11
-13.42563399528851
 21
-41.19892507127612
 72
     1
 10
-13.42563399528851
 20
-41.19892507127612
 11
-8.894495986931123
 21
-35.7989250712761
 97
        0
 75
     0
 76
     1
 98
        1
 10
0.0
 20
0.0
  0
HATCH
  5
CE
330
1F
100
AcDbEntity
  8
중심선
100
AcDbHatch
 10
0.0
 20
0.0
 30
0.0
210
0.0
220
0.0
230
1.0
  2
SOLID
 70
     1
 71
     0
 91
        1
 92
        0
 93
        4
 72
     1
 10
-3.881731995895227
 20
-35.79892507127613
 11
-7.328007239732315
 21
-35.79892507127608
 72
     1
 10
-7.328007239732315
 20
-35.79892507127608
 11
-14.37644414162159
 21
-44.19892507127612
 72
     1
 10
-14.37644414162159
 20
-44.19892507127612
 11
-10.93016889778431
 21
-44.19892507127612
 72
     1
 10
-10.93016889778431
 20
-44.19892507127612
 11
-3.881731995895227
 21
-35.79892507127613
 97
        0
 75
     0
 76
     1
 98
        1
 10
0.0
 20
0.0
  0
HATCH
  5
CF
330
1F
100
AcDbEntity
  8
중심선
100
AcDbHatch
 10
0.0
 20
0.0
 30
0.0
210
0.0
220
0.0
230
1.0
  2
SOLID
 70
     1
 71
     0
 91
        1
 92
        0
 93
        6
 72
     3
 10
0.9181584351169725
 20
-39.99892507132738
 11
3.960054785062284
 21
1.540850780301639E-10
 40
0.3939339440162633
 50
17.09539180608433
 51
320.0019657685075
 73
     0
 72
     1
 10
2.60115809081754
 20
-38.58681907591441
 11
4.906459964518605
 21
-36.65249236586649
 72
     3
 10
0.9181584350641259
 20
-39.99892507127625
 11
6.600054785286829
 21
-1.249000902703301E-13
 40
0.6363583540795982
 50
39.99873849337408
 51
368.4976242363725
 73
     1
 72
     1
 10
7.343490926964735
 20
-39.03892507120613
 11
-0.4017742580999517
 21
-39.0389250712061
 72
     1
 10
-0.4017742580999517
 20
-39.0389250712061
 11
-0.4017993025458855
 21
-40.95892507120602
 72
     1
 10
-0.4017993025458855
 20
-40.95892507120602
 11
4.039580466926152
 21
-40.95892507120599
 97
        0
 75
     0
 76
     1
 98
        1
 10
0.0
 20
0.0
  0
DIMENSION
  5
D0
330
1F
100
AcDbEntity
  8
치수문자_일반주서
100
AcDbDimension
  2
_D
 10
13.36810364977728
 20
15.41833040281951
 30
0.0
 11
-2.183896350222719
 21
15.41833040281951
 31
0.0
 70
   160
  1
<>
 71
     2
 42
11.11250000000001
  3
SLDDIMSTYLE0
100
AcDbAlignedDimension
 13
24.48060364977729
 23
1.978152571287911
 33
0.0
 14
13.36810364977728
 24
1.954244444132984
 34
0.0
100
AcDbRotatedDimension
1001
ACAD
1000
DSTYLE
1002
{
1070
   171
1070
     6
1070
   273
1070
     7
1002
}
  0
DIMENSION
  5
E5
330
1F
100
AcDbEntity
  8
치수문자_일반주서
100
AcDbDimension
  2
_D_1
 10
-35.8443963502227
 20
30.88019565503949
 30
0.0
 11
-5.681896350222714
 21
30.88019565503949
 31
0.0
 70
   160
  1
<>
 71
     2
 42
60.325
  3
SLDDIMSTYLE0
100
AcDbAlignedDimension
 13
24.48060364977729
 23
1.978152571287911
 33
0.0
 14
-35.84439635022271
 24
3.811074928723895
 34
0.0
 50
0.0000000000000067
100
AcDbRotatedDimension
1001
ACAD
1000
DSTYLE
1002
{
1070
   171
1070
     6
1070
   273
1070
     7
1002
}
  0
DIMENSION
  5
F8
330
1F
100
AcDbEntity
  8
치수문자_일반주서
100
AcDbDimension
  2
_D_2
 10
-47.14516918804989
 20
-4.761425071276152
 30
0.0
 11
-47.14516918804991
 21
0.0010749287238959
 31
0.0
 70
   160
  1
%%c<>
 71
     2
 42
9.525000000000006
  3
SLDDIMSTYLE1
100
AcDbAlignedDimension
 13
-34.89189635022272
 23
4.763574928723896
 33
0.0
 14
-34.89189635022272
 24
-4.761425071276109
 34
0.0
 50
90.0000000000002
100
AcDbRotatedDimension
1001
ACAD
1000
DSTYLE
1002
{
1070
   171
1070
     6
1070
   273
1070
     7
1002
}
  0
LINE
  5
121
330
1F
100
AcDbEntity
  8
참조1
100
AcDbLine
 10
76.33783746512287
 20
7.441074928723896
 30
0.0
 11
76.33783746512287
 21
-7.438925071276109
 31
0.0
  0
LINE
  5
122
330
1F
100
AcDbEntity
  8
참조1
100
AcDbLine
 10
89.03783746512288
 20
5.441074928723896
 30
0.0
 11
76.33783746512287
 21
5.441074928723896
 31
0.0
  0
SOLID
  5
123
330
1F
100
AcDbEntity
  8
참조1
100
AcDbTrace
 10
76.33783746512287
 20
5.441074928723896
 30
0.0
 11
82.68783746512287
 21
4.425074928723896
 31
0.0
 12
82.68783746512287
 22
6.457074928723896
 32
0.0
 13
82.68783746512287
 23
6.457074928723896
 33
0.0
  0
LINE
  5
124
330
1F
100
AcDbEntity
  8
참조1
100
AcDbLine
 10
89.03783746512288
 20
-5.438925071276109
 30
0.0
 11
76.33783746512287
 21
-5.438925071276109
 31
0.0
  0
SOLID
  5
125
330
1F
100
AcDbEntity
  8
참조1
100
AcDbTrace
 10
76.33783746512287
 20
-5.438925071276109
 30
0.0
 11
82.68783746512287
 21
-6.454925071276109
 31
0.0
 12
82.68783746512287
 22
-4.422925071276109
 32
0.0
 13
82.68783746512287
 23
-4.422925071276109
 33
0.0
  0
MTEXT
  5
126
330
1F
100
AcDbEntity
  8
참조1
100
AcDbMText
 10
85.72218759774887
 20
11.01136670591222
 30
0.0
 40
3.5
 41
0.0
 71
     1
 72
     1
  1
A
  7
SLDTEXTSTYLE0
 73
     1
 44
1.0
  0
MTEXT
  5
127
330
1F
100
AcDbEntity
  8
참조1
100
AcDbMText
 10
85.72218759774887
 20
0.1313667059122201
 30
0.0
 40
3.5
 41
0.0
 71
     1
 72
     1
  1
A
  7
SLDTEXTSTYLE0
 73
     1
 44
1.0
  0
INSERT
  5
12E
330
1F
100
AcDbEntity
  8
해칭선
100
AcDbBlockReference
  2
SW_DOWELSYMBOL_0
 10
0.0000000000000017
 20
0.0
 30
0.0
  0
LINE
  5
154
102
{ACAD_REACTORS
102
}
330
1F
100
AcDbEntity
  8
0
 62
     1
100
AcDbLine
 10
24.48060364977729
 20
1.985449928723897
 30
0.0
 11
24.48060364977729
 21
-1.983300071276103
 31
0.0
  0
DIMENSION
  5
155
102
{ACAD_REACTORS
102
}
102
{ACAD_XDICTIONARY
360
156
102
}
330
1F
100
AcDbEntity
  8
치수문자_일반주서
100
AcDbDimension
  2
*D7
 10
37.27245649376507
 20
-1.983300071276105
 30
0.0
 11
37.27245649376507
 21
23.02694992872389
 31
0.0
 70
   160
  1
{%%C<>[]}
 71
     5
 42
3.96875
  3
SLDDIMSTYLE0
100
AcDbAlignedDimension
 13
24.48060364977729
 23
1.985449928723897
 33
0.0
 14
24.48060364977729
 24
-1.983300071276103
 34
0.0
 50
90.0
100
AcDbRotatedDimension
1001
ACAD
1000
DSTYLE
1002
{
1070
   283
1070
     1
1070
   170
1070
     1
1070
   171
1070
     6
1070
   273
1070
     7
1002
}
  0
LINE
  5
1A4
330
1F
100
AcDbEntity
  8
외형선
  6
Continuous
370
    15
100
AcDbLine
 10
-19.56934635022283
 20
3.493574928723898
 30
0.0
 11
-12.4319463502227
 21
3.493574928723898
 31
0.0
  0
LINE
  5
1A5
330
1F
100
AcDbEntity
  8
외형선
  6
Continuous
370
    15
100
AcDbLine
 10
-19.56934635022283
 20
3.493574928723898
 30
0.0
 11
-20.83934635022281
 21
4.76357492872388
 31
0.0
  0
LINE
  5
1A6
330
1F
100
AcDbEntity
  8
외형선
  6
Continuous
370
    15
100
AcDbLine
 10
-12.4319463502227
 20
3.493574928723898
 30
0.0
 11
-11.16194635022261
 21
4.76357492872388
 31
0.0
  0
LINE
  5
1A7
330
1F
100
AcDbEntity
  8
외형선
  6
Continuous
370
    15
100
AcDbLine
 10
-20.83934635022283
 20
4.763574928723895
 30
0.0
 11
-34.89189635022272
 21
4.763574928723895
 31
0.0
  0
ENDSEC
  0
SECTION
  2
OBJECTS
  0
DICTIONARY
  5
C
330
0
100
AcDbDictionary
281
     1
  3
ACAD_GROUP
350
D
  3
ACAD_IMAGE_VARS
350
152
  3
ACAD_LAYOUT
350
1A
  3
ACAD_MLINESTYLE
350
17
  3
ACAD_PLOTSETTINGS
350
19
  3
ACAD_PLOTSTYLENAME
350
E
  3
ACAD_SCALELIST
350
47
  3
APPDATA
350
150
  3
DWGPROPS
350
1A8
  0
DICTIONARY
  5
195
330
2
100
AcDbDictionary
280
     1
281
     1
  3
ACAD_LAYERSTATES
360
196
  0
DICTIONARY
  5
156
330
155
100
AcDbDictionary
280
     1
281
     1
  0
DICTIONARY
  5
D
102
{ACAD_REACTORS
330
C
102
}
330
C
100
AcDbDictionary
281
     1
  0
RASTERVARIABLES
  5
152
102
{ACAD_REACTORS
330
C
102
}
330
C
100
AcDbRasterVariables
 90
        0
 70
     1
 71
     1
 72
     1
  0
DICTIONARY
  5
1A
102
{ACAD_REACTORS
330
C
102
}
330
C
100
AcDbDictionary
281
     1
  3
Layout1
350
1E
  3
Layout2
350
26
  3
Model
350
22
  0
DICTIONARY
  5
17
102
{ACAD_REACTORS
330
C
102
}
330
C
100
AcDbDictionary
281
     1
  3
Standard
350
18
  0
DICTIONARY
  5
19
102
{ACAD_REACTORS
330
C
102
}
330
C
100
AcDbDictionary
281
     1
  0
ACDBDICTIONARYWDFLT
  5
E
102
{ACAD_REACTORS
330
C
102
}
330
C
100
AcDbDictionary
281
     1
  3
Normal
350
F
100
AcDbDictionaryWithDefault
340
F
  0
DICTIONARY
  5
47
102
{ACAD_REACTORS
330
C
102
}
330
C
100
AcDbDictionary
281
     1
  3
A0
350
48
  3
A1
350
49
  3
A2
350
4A
  3
A3
350
4B
  3
A4
350
4C
  3
A5
350
4D
  3
A6
350
4E
  3
A7
350
4F
  3
A8
350
50
  3
A9
350
51
  3
B0
350
52
  3
B1
350
53
  3
B2
350
54
  3
B3
350
55
  3
B4
350
56
  3
B5
350
57
  3
B6
350
58
  3
B7
350
59
  3
B8
350
5A
  3
B9
350
5B
  3
C0
350
5C
  3
C1
350
5D
  3
C2
350
5E
  3
C3
350
5F
  3
C4
350
60
  3
C5
350
61
  3
C6
350
62
  3
C7
350
63
  3
C8
350
64
  3
C9
350
65
  3
D0
350
66
  3
D1
350
67
  3
D2
350
68
  0
DICTIONARY
  5
150
102
{ACAD_REACTORS
330
C
102
}
330
C
100
AcDbDictionary
281
     1
  0
XRECORD
  5
1A8
102
{ACAD_REACTORS
330
C
102
}
330
C
100
AcDbXrecord
280
     1
  1
DWGPROPS COOKIE
  2

  3

  4

  6

  7

  8
12016016
  9

300
=
301
=
302
=
303
=
304
=
305
=
306
=
307
=
308
=
309
=
 40
0.0
 41
2458312.302162928
 42
2458319.193355023
  1

 90
        0
  0
DICTIONARY
  5
196
102
{ACAD_REACTORS
330
195
102
}
330
195
100
AcDbDictionary
281
     1
  0
LAYOUT
  5
1E
102
{ACAD_REACTORS
330
1A
102
}
330
1A
100
AcDbPlotSettings
  1

  2
none_device
  4

  6

 40
0.0
 41
0.0
 42
0.0
 43
0.0
 44
0.0
 45
0.0
 46
0.0
 47
0.0
 48
0.0
 49
0.0
140
0.0
141
0.0
142
1.0
143
1.0
 70
   688
 72
     1
 73
     0
 74
     5
  7

 75
    16
147
1.0
148
0.0
149
0.0
100
AcDbLayout
  1
Layout1
 70
     1
 71
     1
 10
0.0
 20
0.0
 11
420.0
 21
297.0
 12
0.0
 22
0.0
 32
0.0
 14
1.000000000000000E+20
 24
1.000000000000000E+20
 34
1.000000000000000E+20
 15
-1.000000000000000E+20
 25
-1.000000000000000E+20
 35
-1.000000000000000E+20
146
0.0
 13
0.0
 23
0.0
 33
0.0
 16
1.0
 26
0.0
 36
0.0
 17
0.0
 27
1.0
 37
0.0
 76
     0
330
1B
  0
LAYOUT
  5
26
102
{ACAD_REACTORS
330
1A
102
}
330
1A
100
AcDbPlotSettings
  1

  2
none_device
  4

  6

 40
0.0
 41
0.0
 42
0.0
 43
0.0
 44
0.0
 45
0.0
 46
0.0
 47
0.0
 48
0.0
 49
0.0
140
0.0
141
0.0
142
1.0
143
1.0
 70
   688
 72
     1
 73
     0
 74
     5
  7

 75
    16
147
1.0
148
0.0
149
0.0
100
AcDbLayout
  1
Layout2
 70
     1
 71
     2
 10
0.0
 20
0.0
 11
0.0
 21
0.0
 12
0.0
 22
0.0
 32
0.0
 14
0.0
 24
0.0
 34
0.0
 15
0.0
 25
0.0
 35
0.0
146
0.0
 13
0.0
 23
0.0
 33
0.0
 16
1.0
 26
0.0
 36
0.0
 17
0.0
 27
1.0
 37
0.0
 76
     0
330
23
  0
LAYOUT
  5
22
102
{ACAD_REACTORS
330
1A
102
}
330
1A
100
AcDbPlotSettings
  1

  2
none_device
  4
ANSI_A_(11.00_x_8.50_Inches)
  6

 40
6.35
 41
19.05
 42
6.35000508
 43
19.05000254
 44
279.4
 45
215.9
 46
104.0853757014623
 47
97.40808328111103
 48
0.0
 49
0.0
140
0.0
141
0.0
142
0.0740937858640012
143
1.0
 70
  1696
 72
     0
 73
     0
 74
     0
  7

 75
     0
147
0.0235690232323232
148
0.0
149
0.0
100
AcDbLayout
  1
Model
 70
     1
 71
     0
 10
0.0
 20
0.0
 11
420.0
 21
297.0
 12
0.0
 22
0.0
 32
0.0
 14
1.000000000000000E+20
 24
1.000000000000000E+20
 34
1.000000000000000E+20
 15
-1.000000000000000E+20
 25
-1.000000000000000E+20
 35
-1.000000000000000E+20
146
0.0
 13
0.0
 23
0.0
 33
0.0
 16
1.0
 26
0.0
 36
0.0
 17
0.0
 27
1.0
 37
0.0
 76
     0
330
1F
331
29
  0
MLINESTYLE
  5
18
102
{ACAD_REACTORS
330
17
102
}
330
17
100
AcDbMlineStyle
  2
Standard
 70
     0
  3

 62
   256
 51
90.0
 52
90.0
 71
     2
 49
0.5
 62
   256
  6
BYLAYER
 49
-0.5
 62
   256
  6
BYLAYER
  0
ACDBPLACEHOLDER
  5
F
102
{ACAD_REACTORS
330
E
102
}
330
E
  0
SCALE
  5
48
102
{ACAD_REACTORS
330
47
102
}
330
47
100
AcDbScale
 70
     0
300
1:1
140
1.0
141
1.0
290
     1
  0
SCALE
  5
49
102
{ACAD_REACTORS
330
47
102
}
330
47
100
AcDbScale
 70
     0
300
1:2
140
1.0
141
2.0
290
     0
  0
SCALE
  5
4A
102
{ACAD_REACTORS
330
47
102
}
330
47
100
AcDbScale
 70
     0
300
1:4
140
1.0
141
4.0
290
     0
  0
SCALE
  5
4B
102
{ACAD_REACTORS
330
47
102
}
330
47
100
AcDbScale
 70
     0
300
1:5
140
1.0
141
5.0
290
     0
  0
SCALE
  5
4C
102
{ACAD_REACTORS
330
47
102
}
330
47
100
AcDbScale
 70
     0
300
1:8
140
1.0
141
8.0
290
     0
  0
SCALE
  5
4D
102
{ACAD_REACTORS
330
47
102
}
330
47
100
AcDbScale
 70
     0
300
1:10
140
1.0
141
10.0
290
     0
  0
SCALE
  5
4E
102
{ACAD_REACTORS
330
47
102
}
330
47
100
AcDbScale
 70
     0
300
1:16
140
1.0
141
16.0
290
     0
  0
SCALE
  5
4F
102
{ACAD_REACTORS
330
47
102
}
330
47
100
AcDbScale
 70
     0
300
1:20
140
1.0
141
20.0
290
     0
  0
SCALE
  5
50
102
{ACAD_REACTORS
330
47
102
}
330
47
100
AcDbScale
 70
     0
300
1:30
140
1.0
141
30.0
290
     0
  0
SCALE
  5
51
102
{ACAD_REACTORS
330
47
102
}
330
47
100
AcDbScale
 70
     0
300
1:40
140
1.0
141
40.0
290
     0
  0
SCALE
  5
52
102
{ACAD_REACTORS
330
47
102
}
330
47
100
AcDbScale
 70
     0
300
1:50
140
1.0
141
50.0
290
     0
  0
SCALE
  5
53
102
{ACAD_REACTORS
330
47
102
}
330
47
100
AcDbScale
 70
     0
300
1:100
140
1.0
141
100.0
290
     0
  0
SCALE
  5
54
102
{ACAD_REACTORS
330
47
102
}
330
47
100
AcDbScale
 70
     0
300
2:1
140
2.0
141
1.0
290
     0
  0
SCALE
  5
55
102
{ACAD_REACTORS
330
47
102
}
330
47
100
AcDbScale
 70
     0
300
4:1
140
4.0
141
1.0
290
     0
  0
SCALE
  5
56
102
{ACAD_REACTORS
330
47
102
}
330
47
100
AcDbScale
 70
     0
300
8:1
140
8.0
141
1.0
290
     0
  0
SCALE
  5
57
102
{ACAD_REACTORS
330
47
102
}
330
47
100
AcDbScale
 70
     0
300
10:1
140
10.0
141
1.0
290
     0
  0
SCALE
  5
58
102
{ACAD_REACTORS
330
47
102
}
330
47
100
AcDbScale
 70
     0
300
100:1
140
100.0
141
1.0
290
     0
  0
SCALE
  5
59
102
{ACAD_REACTORS
330
47
102
}
330
47
100
AcDbScale
 70
     0
300
1/128" = 1'-0"
140
0.0078125
141
12.0
290
     0
  0
SCALE
  5
5A
102
{ACAD_REACTORS
330
47
102
}
330
47
100
AcDbScale
 70
     0
300
1/64" = 1'-0"
140
0.015625
141
12.0
290
     0
  0
SCALE
  5
5B
102
{ACAD_REACTORS
330
47
102
}
330
47
100
AcDbScale
 70
     0
300
1/32" = 1'-0"
140
0.03125
141
12.0
290
     0
  0
SCALE
  5
5C
102
{ACAD_REACTORS
330
47
102
}
330
47
100
AcDbScale
 70
     0
300
1/16" = 1'-0"
140
0.0625
141
12.0
290
     0
  0
SCALE
  5
5D
102
{ACAD_REACTORS
330
47
102
}
330
47
100
AcDbScale
 70
     0
300
3/32" = 1'-0"
140
0.09375
141
12.0
290
     0
  0
SCALE
  5
5E
102
{ACAD_REACTORS
330
47
102
}
330
47
100
AcDbScale
 70
     0
300
1/8" = 1'-0"
140
0.125
141
12.0
290
     0
  0
SCALE
  5
5F
102
{ACAD_REACTORS
330
47
102
}
330
47
100
AcDbScale
 70
     0
300
3/16" = 1'-0"
140
0.1875
141
12.0
290
     0
  0
SCALE
  5
60
102
{ACAD_REACTORS
330
47
102
}
330
47
100
AcDbScale
 70
     0
300
1/4" = 1'-0"
140
0.25
141
12.0
290
     0
  0
SCALE
  5
61
102
{ACAD_REACTORS
330
47
102
}
330
47
100
AcDbScale
 70
     0
300
3/8" = 1'-0"
140
0.375
141
12.0
290
     0
  0
SCALE
  5
62
102
{ACAD_REACTORS
330
47
102
}
330
47
100
AcDbScale
 70
     0
300
1/2" = 1'-0"
140
0.5
141
12.0
290
     0
  0
SCALE
  5
63
102
{ACAD_REACTORS
330
47
102
}
330
47
100
AcDbScale
 70
     0
300
3/4" = 1'-0"
140
0.75
141
12.0
290
     0
  0
SCALE
  5
64
102
{ACAD_REACTORS
330
47
102
}
330
47
100
AcDbScale
 70
     0
300
1" = 1'-0"
140
1.0
141
12.0
290
     0
  0
SCALE
  5
65
102
{ACAD_REACTORS
330
47
102
}
330
47
100
AcDbScale
 70
     0
300
1-1/2" = 1'-0"
140
1.5
141
12.0
290
     0
  0
SCALE
  5
66
102
{ACAD_REACTORS
330
47
102
}
330
47
100
AcDbScale
 70
     0
300
3" = 1'-0"
140
3.0
141
12.0
290
     0
  0
SCALE
  5
67
102
{ACAD_REACTORS
330
47
102
}
330
47
100
AcDbScale
 70
     0
300
6" = 1'-0"
140
6.0
141
12.0
290
     0
  0
SCALE
  5
68
102
{ACAD_REACTORS
330
47
102
}
330
47
100
AcDbScale
 70
     0
300
1'-0" = 1'-0"
140
12.0
141
12.0
290
     0
  0
ENDSEC
  0
EOF
