  0
SECTION
  2
HEADER
  9
$ACADVER
  1
AC1015
  9
$ACADMAINTVER
 70
     6
  9
$DWGCODEPAGE
  3
ANSI_949
  9
$INSBASE
 10
0.0
 20
0.0
 30
0.0
  9
$EXTMIN
 10
1.000000000000000E+20
 20
1.000000000000000E+20
 30
1.000000000000000E+20
  9
$EXTMAX
 10
-1.000000000000000E+20
 20
-1.000000000000000E+20
 30
-1.000000000000000E+20
  9
$LIMMIN
 10
0.0
 20
0.0
  9
$LIMMAX
 10
420.0
 20
297.0
  9
$ORTHOMODE
 70
     1
  9
$REGENMODE
 70
     1
  9
$FILLMODE
 70
     1
  9
$QTEXTMODE
 70
     0
  9
$MIRRTEXT
 70
     1
  9
$LTSCALE
 40
1.0
  9
$ATTMODE
 70
     1
  9
$TEXTSIZE
 40
3.5
  9
$TRACEWID
 40
1.0
  9
$TEXTSTYLE
  7
Standard
  9
$CLAYER
  8
0
  9
$CELTYPE
  6
ByLayer
  9
$CECOLOR
 62
   256
  9
$CELTSCALE
 40
1.0
  9
$DISPSILH
 70
     0
  9
$DIMSCALE
 40
1.0
  9
$DIMASZ
 40
3.302
  9
$DIMEXO
 40
1.0
  9
$DIMDLI
 40
3.75
  9
$DIMRND
 40
0.0
  9
$DIMDLE
 40
0.0
  9
$DIMEXE
 40
1.0
  9
$DIMTP
 40
0.0
  9
$DIMTM
 40
0.0
  9
$DIMTXT
 40
3.5
  9
$DIMCEN
 40
2.5
  9
$DIMTSZ
 40
0.0
  9
$DIMTOL
 70
     0
  9
$DIMLIM
 70
     0
  9
$DIMTIH
 70
     1
  9
$DIMTOH
 70
     1
  9
$DIMSE1
 70
     0
  9
$DIMSE2
 70
     0
  9
$DIMTAD
 70
     1
  9
$DIMZIN
 70
     0
  9
$DIMBLK
  1

  9
$DIMASO
 70
     1
  9
$DIMSHO
 70
     1
  9
$DIMPOST
  1

  9
$DIMAPOST
  1

  9
$DIMALT
 70
     0
  9
$DIMALTD
 70
     3
  9
$DIMALTF
 40
0.0393700787401575
  9
$DIMLFAC
 40
1.0
  9
$DIMTOFL
 70
     1
  9
$DIMTVP
 40
0.0
  9
$DIMTIX
 70
     0
  9
$DIMSOXD
 70
     0
  9
$DIMSAH
 70
     0
  9
$DIMBLK1
  1

  9
$DIMBLK2
  1

  9
$DIMSTYLE
  2
ISO-25
  9
$DIMCLRD
 70
     0
  9
$DIMCLRE
 70
     0
  9
$DIMCLRT
 70
     0
  9
$DIMTFAC
 40
1.0
  9
$DIMGAP
 40
1.524
  9
$DIMJUST
 70
     0
  9
$DIMSD1
 70
     0
  9
$DIMSD2
 70
     0
  9
$DIMTOLJ
 70
     0
  9
$DIMTZIN
 70
     0
  9
$DIMALTZ
 70
     0
  9
$DIMALTTZ
 70
     0
  9
$DIMUPT
 70
     0
  9
$DIMDEC
 70
     2
  9
$DIMTDEC
 70
     2
  9
$DIMALTU
 70
     2
  9
$DIMALTTD
 70
     3
  9
$DIMTXSTY
  7
Standard
  9
$DIMAUNIT
 70
     0
  9
$DIMADEC
 70
     2
  9
$DIMALTRND
 40
0.0
  9
$DIMAZIN
 70
     0
  9
$DIMDSEP
 70
    44
  9
$DIMATFIT
 70
     3
  9
$DIMFRAC
 70
     0
  9
$DIMLDRBLK
  1

  9
$DIMLUNIT
 70
     2
  9
$DIMLWD
 70
    -2
  9
$DIMLWE
 70
    -2
  9
$DIMTMOVE
 70
     0
  9
$LUNITS
 70
     2
  9
$LUPREC
 70
     2
  9
$SKETCHINC
 40
1.0
  9
$FILLETRAD
 40
10.0
  9
$AUNITS
 70
     0
  9
$AUPREC
 70
     2
  9
$MENU
  1
.
  9
$ELEVATION
 40
0.0
  9
$PELEVATION
 40
0.0
  9
$THICKNESS
 40
0.0
  9
$LIMCHECK
 70
     0
  9
$CHAMFERA
 40
0.0
  9
$CHAMFERB
 40
0.0
  9
$CHAMFERC
 40
0.0
  9
$CHAMFERD
 40
0.0
  9
$SKPOLY
 70
     0
  9
$TDCREATE
 40
2458312.67758669
  9
$TDUCREATE
 40
2458312.30258669
  9
$TDUPDATE
 40
2458319.566798299
  9
$TDUUPDATE
 40
2458319.191798299
  9
$TDINDWG
 40
0.0008415162
  9
$TDUSRTIMER
 40
2458319.190956979
  9
$USRTIMER
 70
     1
  9
$ANGBASE
 50
0.0
  9
$ANGDIR
 70
     0
  9
$PDMODE
 70
     0
  9
$PDSIZE
 40
-1.0
  9
$PLINEWID
 40
0.0
  9
$SPLFRAME
 70
     0
  9
$SPLINETYPE
 70
     6
  9
$SPLINESEGS
 70
     8
  9
$HANDSEED
  5
1AD
  9
$SURFTAB1
 70
     6
  9
$SURFTAB2
 70
     6
  9
$SURFTYPE
 70
     6
  9
$SURFU
 70
     6
  9
$SURFV
 70
     6
  9
$UCSBASE
  2

  9
$UCSNAME
  2

  9
$UCSORG
 10
0.0
 20
0.0
 30
0.0
  9
$UCSXDIR
 10
1.0
 20
0.0
 30
0.0
  9
$UCSYDIR
 10
0.0
 20
1.0
 30
0.0
  9
$UCSORTHOREF
  2

  9
$UCSORTHOVIEW
 70
     0
  9
$UCSORGTOP
 10
0.0
 20
0.0
 30
0.0
  9
$UCSORGBOTTOM
 10
0.0
 20
0.0
 30
0.0
  9
$UCSORGLEFT
 10
0.0
 20
0.0
 30
0.0
  9
$UCSORGRIGHT
 10
0.0
 20
0.0
 30
0.0
  9
$UCSORGFRONT
 10
0.0
 20
0.0
 30
0.0
  9
$UCSORGBACK
 10
0.0
 20
0.0
 30
0.0
  9
$PUCSBASE
  2

  9
$PUCSNAME
  2

  9
$PUCSORG
 10
0.0
 20
0.0
 30
0.0
  9
$PUCSXDIR
 10
1.0
 20
0.0
 30
0.0
  9
$PUCSYDIR
 10
0.0
 20
1.0
 30
0.0
  9
$PUCSORTHOREF
  2

  9
$PUCSORTHOVIEW
 70
     0
  9
$PUCSORGTOP
 10
0.0
 20
0.0
 30
0.0
  9
$PUCSORGBOTTOM
 10
0.0
 20
0.0
 30
0.0
  9
$PUCSORGLEFT
 10
0.0
 20
0.0
 30
0.0
  9
$PUCSORGRIGHT
 10
0.0
 20
0.0
 30
0.0
  9
$PUCSORGFRONT
 10
0.0
 20
0.0
 30
0.0
  9
$PUCSORGBACK
 10
0.0
 20
0.0
 30
0.0
  9
$USERI1
 70
     0
  9
$USERI2
 70
     0
  9
$USERI3
 70
     0
  9
$USERI4
 70
     0
  9
$USERI5
 70
     0
  9
$USERR1
 40
0.0
  9
$USERR2
 40
0.0
  9
$USERR3
 40
0.0
  9
$USERR4
 40
0.0
  9
$USERR5
 40
0.0
  9
$WORLDVIEW
 70
     1
  9
$SHADEDGE
 70
     3
  9
$SHADEDIF
 70
    70
  9
$TILEMODE
 70
     1
  9
$MAXACTVP
 70
    64
  9
$PINSBASE
 10
0.0
 20
0.0
 30
0.0
  9
$PLIMCHECK
 70
     0
  9
$PEXTMIN
 10
1.000000000000000E+20
 20
1.000000000000000E+20
 30
1.000000000000000E+20
  9
$PEXTMAX
 10
-1.000000000000000E+20
 20
-1.000000000000000E+20
 30
-1.000000000000000E+20
  9
$PLIMMIN
 10
0.0
 20
0.0
  9
$PLIMMAX
 10
0.0
 20
0.0
  9
$UNITMODE
 70
     0
  9
$VISRETAIN
 70
     1
  9
$PLINEGEN
 70
     0
  9
$PSLTSCALE
 70
     1
  9
$TREEDEPTH
 70
  3020
  9
$CMLSTYLE
  2
Standard
  9
$CMLJUST
 70
     0
  9
$CMLSCALE
 40
20.0
  9
$PROXYGRAPHICS
 70
     1
  9
$MEASUREMENT
 70
     1
  9
$CELWEIGHT
370
    -1
  9
$ENDCAPS
280
     0
  9
$JOINSTYLE
280
     0
  9
$LWDISPLAY
290
     1
  9
$INSUNITS
 70
     4
  9
$HYPERLINKBASE
  1

  9
$STYLESHEET
  1

  9
$XEDIT
290
     1
  9
$CEPSNTYPE
380
     0
  9
$PSTYLEMODE
290
     1
  9
$FINGERPRINTGUID
  2
{E3FD15F2-A5B7-4F15-9370-611431428A8D}
  9
$VERSIONGUID
  2
{FAEB1C32-E019-11D5-929B-00C0DF256EC4}
  9
$EXTNAMES
290
     1
  9
$PSVPSCALE
 40
0.0
  9
$OLESTARTUP
290
     0
  0
ENDSEC
  0
SECTION
  2
CLASSES
  0
CLASS
  1
ACDBDICTIONARYWDFLT
  2
AcDbDictionaryWithDefault
  3
ObjectDBX Classes
 90
        0
280
     0
281
     0
  0
CLASS
  1
VISUALSTYLE
  2
AcDbVisualStyle
  3
ObjectDBX Classes
 90
     4095
280
     0
281
     0
  0
CLASS
  1
MATERIAL
  2
AcDbMaterial
  3
ObjectDBX Classes
 90
     1153
280
     0
281
     0
  0
CLASS
  1
SCALE
  2
AcDbScale
  3
ObjectDBX Classes
 90
     1153
280
     0
281
     0
  0
CLASS
  1
SUN
  2
AcDbSun
  3
SCENEOE
 90
     1153
280
     0
281
     0
  0
CLASS
  1
ACDBPLACEHOLDER
  2
AcDbPlaceHolder
  3
ObjectDBX Classes
 90
        0
280
     0
281
     0
  0
CLASS
  1
LAYOUT
  2
AcDbLayout
  3
ObjectDBX Classes
 90
        0
280
     0
281
     0
  0
CLASS
  1
TABLESTYLE
  2
AcDbTableStyle
  3
ObjectDBX Classes
 90
     4095
280
     0
281
     0
  0
CLASS
  1
MLEADERSTYLE
  2
AcDbMLeaderStyle
  3
ACDB_MLEADERSTYLE_CLASS
 90
     4095
280
     0
281
     0
  0
CLASS
  1
RASTERVARIABLES
  2
AcDbRasterVariables
  3
ISM
 90
        0
280
     0
281
     0
  0
CLASS
  1
DIMASSOC
  2
AcDbDimAssoc
  3
"AcDbDimAssoc|Product Desc:     AcDim ARX App For Dimension|Company:          Autodesk, Inc.|WEB Address:      www.autodesk.com"
 90
        0
280
     0
281
     0
  0
ENDSEC
  0
SECTION
  2
TABLES
  0
TABLE
  2
VPORT
  5
8
330
0
100
AcDbSymbolTable
 70
     1
  0
VPORT
  5
29
330
8
100
AcDbSymbolTableRecord
100
AcDbViewportTableRecord
  2
*Active
 70
     0
 10
0.0
 20
0.0
 11
1.0
 21
1.0
 12
-46.11416714267538
 22
1.265687286986834
 13
0.0
 23
0.0
 14
10.0
 24
10.0
 15
10.0
 25
10.0
 16
0.0
 26
0.0
 36
1.0
 17
0.0
 27
0.0
 37
0.0
 40
120.5529171324495
 41
1.67311411992263
 42
50.0
 43
0.0
 44
0.0
 50
0.0
 51
0.0
 71
    16
 72
  2000
 73
     1
 74
     3
 75
     0
 76
     0
 77
     0
 78
     0
281
     0
 65
     1
110
0.0
120
0.0
130
0.0
111
1.0
121
0.0
131
0.0
112
0.0
122
1.0
132
0.0
 79
     0
146
0.0
  0
ENDTAB
  0
TABLE
  2
LTYPE
  5
5
330
0
100
AcDbSymbolTable
 70
     6
  0
LTYPE
  5
14
330
5
100
AcDbSymbolTableRecord
100
AcDbLinetypeTableRecord
  2
ByBlock
 70
     0
  3

 72
    65
 73
     0
 40
0.0
  0
LTYPE
  5
15
330
5
100
AcDbSymbolTableRecord
100
AcDbLinetypeTableRecord
  2
ByLayer
 70
     0
  3

 72
    65
 73
     0
 40
0.0
  0
LTYPE
  5
16
330
5
100
AcDbSymbolTableRecord
100
AcDbLinetypeTableRecord
  2
Continuous
 70
     0
  3
Solid line
 72
    65
 73
     0
 40
0.0
  0
LTYPE
  5
6A
330
5
100
AcDbSymbolTableRecord
100
AcDbLinetypeTableRecord
  2
HIDDEN
 70
     0
  3
Hidden __ __ __ __ __ __ __ __ __ __ __ __ __ __
 72
    65
 73
     2
 40
1.905
 49
1.27
 74
     0
 49
-0.635
 74
     0
  0
LTYPE
  5
6B
330
5
100
AcDbSymbolTableRecord
100
AcDbLinetypeTableRecord
  2
PHANTOM
 70
     0
  3
Phantom ______  __  __  ______  __  __  ______
 72
    65
 73
     6
 40
12.7
 49
6.35
 74
     0
 49
-1.27
 74
     0
 49
1.27
 74
     0
 49
-1.27
 74
     0
 49
1.27
 74
     0
 49
-1.27
 74
     0
  0
LTYPE
  5
6C
330
5
100
AcDbSymbolTableRecord
100
AcDbLinetypeTableRecord
  2
CENTER
 70
     0
  3
Center ____ _ ____ _ ____ _ ____ _ ____ _ ____
 72
    65
 73
     4
 40
10.16
 49
6.35
 74
     0
 49
-1.27
 74
     0
 49
1.27
 74
     0
 49
-1.27
 74
     0
  0
LTYPE
  5
6D
330
5
100
AcDbSymbolTableRecord
100
AcDbLinetypeTableRecord
  2
CENTERX2
 70
     0
  3
Center (2x) ________  __  ________  __  _____
 72
    65
 73
     4
 40
20.32
 49
12.7
 74
     0
 49
-2.54
 74
     0
 49
2.54
 74
     0
 49
-2.54
 74
     0
  0
LTYPE
  5
6E
330
5
100
AcDbSymbolTableRecord
100
AcDbLinetypeTableRecord
  2
DOT2
 70
     0
  3
Dot (.5x) ........................................
 72
    65
 73
     2
 40
0.635
 49
0.0
 74
     0
 49
-0.635
 74
     0
  0
ENDTAB
  0
TABLE
  2
LAYER
  5
2
102
{ACAD_XDICTIONARY
360
199
102
}
330
0
100
AcDbSymbolTable
 70
    18
  0
LAYER
  5
10
330
2
100
AcDbSymbolTableRecord
100
AcDbLayerTableRecord
  2
0
 70
     0
 62
     7
  6
Continuous
370
    -3
390
F
  0
LAYER
  5
6F
330
2
100
AcDbSymbolTableRecord
100
AcDbLayerTableRecord
  2
FORMAT
 70
     0
 62
     2
  6
Continuous
370
    -3
390
F
  0
LAYER
  5
70
330
2
100
AcDbSymbolTableRecord
100
AcDbLayerTableRecord
  2
외형선
 70
     0
 62
     4
  6
Continuous
370
    30
390
F
  0
LAYER
  5
71
330
2
100
AcDbSymbolTableRecord
100
AcDbLayerTableRecord
  2
숨은선
 70
     0
 62
     2
  6
HIDDEN
370
    15
390
F
  0
LAYER
  5
72
330
2
100
AcDbSymbolTableRecord
100
AcDbLayerTableRecord
  2
중심선
 70
     0
 62
     1
  6
CENTERX2
370
    -3
390
F
  0
LAYER
  5
73
330
2
100
AcDbSymbolTableRecord
100
AcDbLayerTableRecord
  2
파단선
 70
     0
 62
     4
  6
Continuous
370
    -3
390
F
  0
LAYER
  5
74
330
2
100
AcDbSymbolTableRecord
100
AcDbLayerTableRecord
  2
해칭선
 70
     0
 62
   100
  6
Continuous
370
    -3
390
F
  0
LAYER
  5
75
330
2
100
AcDbSymbolTableRecord
100
AcDbLayerTableRecord
  2
가는실선
 70
     0
 62
     4
  6
Continuous
370
    -3
390
F
  0
LAYER
  5
76
330
2
100
AcDbSymbolTableRecord
100
AcDbLayerTableRecord
  2
치수_보조선
 70
     0
 62
     4
  6
Continuous
370
    -3
390
F
  0
LAYER
  5
77
330
2
100
AcDbSymbolTableRecord
100
AcDbLayerTableRecord
  2
치수문자_일반주서
 70
     0
 62
     7
  6
Continuous
370
    15
390
F
  0
LAYER
  5
78
330
2
100
AcDbSymbolTableRecord
100
AcDbLayerTableRecord
  2
개별주서
 70
     0
 62
   100
  6
Continuous
370
    30
390
F
  0
LAYER
  5
79
330
2
100
AcDbSymbolTableRecord
100
AcDbLayerTableRecord
  2
중간선
 70
     0
 62
     2
  6
Continuous
370
    15
390
F
  0
LAYER
  5
7A
330
2
100
AcDbSymbolTableRecord
100
AcDbLayerTableRecord
  2
윤곽선
 70
     0
 62
     3
  6
Continuous
370
    40
390
F
  0
LAYER
  5
7B
330
2
100
AcDbSymbolTableRecord
100
AcDbLayerTableRecord
  2
중심마크
 70
     0
 62
   100
  6
Continuous
370
    30
390
F
  0
LAYER
  5
7C
330
2
100
AcDbSymbolTableRecord
100
AcDbLayerTableRecord
  2
가상선
 70
     0
 62
     4
  6
PHANTOM
370
    -3
390
F
  0
LAYER
  5
7D
330
2
100
AcDbSymbolTableRecord
100
AcDbLayerTableRecord
  2
특수지정선
 70
     0
 62
     5
  6
CENTERX2
370
    60
390
F
  0
LAYER
  5
7E
330
2
100
AcDbSymbolTableRecord
100
AcDbLayerTableRecord
  2
참조1
 70
     0
 62
    -4
  6
Continuous
370
    -3
390
F
  0
LAYER
  5
157
330
2
100
AcDbSymbolTableRecord
100
AcDbLayerTableRecord
  2
Defpoints
 70
     0
 62
     7
  6
Continuous
290
     0
370
    -3
390
F
  0
ENDTAB
  0
TABLE
  2
STYLE
  5
3
330
0
100
AcDbSymbolTable
 70
     2
  0
STYLE
  5
11
330
3
100
AcDbSymbolTableRecord
100
AcDbTextStyleTableRecord
  2
Standard
 70
     0
 40
0.0
 41
1.0
 50
0.0
 71
     0
 42
3.5
  3
txt
  4

  0
STYLE
  5
94
330
3
100
AcDbSymbolTableRecord
100
AcDbTextStyleTableRecord
  2
SLDTEXTSTYLE0
 70
     0
 40
0.0
 41
0.75
 50
0.0
 71
     0
 42
3.5
  3
TXT
  4

  0
ENDTAB
  0
TABLE
  2
VIEW
  5
6
330
0
100
AcDbSymbolTable
 70
     0
  0
ENDTAB
  0
TABLE
  2
UCS
  5
7
330
0
100
AcDbSymbolTable
 70
     0
  0
ENDTAB
  0
TABLE
  2
APPID
  5
9
330
0
100
AcDbSymbolTable
 70
     2
  0
APPID
  5
12
330
9
100
AcDbSymbolTableRecord
100
AcDbRegAppTableRecord
  2
ACAD
 70
     0
  0
APPID
  5
16C
330
9
100
AcDbSymbolTableRecord
100
AcDbRegAppTableRecord
  2
PE_DIMMEASUREMENT
 70
     0
  0
ENDTAB
  0
TABLE
  2
DIMSTYLE
  5
A
330
0
100
AcDbSymbolTable
 70
     3
100
AcDbDimStyleTable
  0
DIMSTYLE
105
27
330
A
100
AcDbSymbolTableRecord
100
AcDbDimStyleTableRecord
  2
ISO-25
 70
     0
 41
2.5
 42
0.625
 43
3.75
 44
1.25
 73
     0
 74
     0
 77
     1
 78
     8
140
2.5
141
2.5
143
0.03937007874016
147
0.625
171
     3
172
     1
178
     0
271
     2
272
     2
274
     3
278
    44
283
     0
284
     8
340
11
  0
DIMSTYLE
105
D5
102
{ACAD_REACTORS
330
D4
330
E9
330
159
102
}
330
A
100
AcDbSymbolTableRecord
100
AcDbDimStyleTableRecord
  2
SLDDIMSTYLE0
 70
     0
 41
3.302
 44
0.0
 45
0.000000001
 73
     0
 74
     0
 77
     1
 78
    12
 79
     3
140
3.5
143
0.0393700787401575
147
0.875
148
0.000000001
170
     1
173
     1
178
     0
271
     2
272
     2
276
     2
284
    12
340
94
  0
DIMSTYLE
105
FD
102
{ACAD_REACTORS
330
FC
102
}
330
A
100
AcDbSymbolTableRecord
100
AcDbDimStyleTableRecord
  2
SLDDIMSTYLE1
 70
     0
 41
3.302
 44
0.0
 45
0.000000001
 73
     0
 74
     0
 77
     1
 78
    12
 79
     3
140
3.5
143
0.0393700787401575
147
0.875
148
0.000000001
170
     1
172
     1
173
     1
178
     0
271
     2
272
     2
276
     2
284
    12
289
     0
340
94
  0
ENDTAB
  0
TABLE
  2
BLOCK_RECORD
  5
1
330
0
100
AcDbSymbolTable
 70
     9
  0
BLOCK_RECORD
  5
1F
330
1
100
AcDbSymbolTableRecord
100
AcDbBlockTableRecord
  2
*Model_Space
340
22
  0
BLOCK_RECORD
  5
1B
330
1
100
AcDbSymbolTableRecord
100
AcDbBlockTableRecord
  2
*Paper_Space
340
1E
  0
BLOCK_RECORD
  5
23
330
1
100
AcDbSymbolTableRecord
100
AcDbBlockTableRecord
  2
*Paper_Space0
340
26
  0
BLOCK_RECORD
  5
7F
330
1
100
AcDbSymbolTableRecord
100
AcDbBlockTableRecord
  2
블럭10
340
0
102
{BLKREFS
331
CD
102
}
  0
BLOCK_RECORD
  5
D6
330
1
100
AcDbSymbolTableRecord
100
AcDbBlockTableRecord
  2
_D
340
0
  0
BLOCK_RECORD
  5
EA
330
1
100
AcDbSymbolTableRecord
100
AcDbBlockTableRecord
  2
_D_1
340
0
  0
BLOCK_RECORD
  5
FE
330
1
100
AcDbSymbolTableRecord
100
AcDbBlockTableRecord
  2
_D_2
340
0
  0
BLOCK_RECORD
  5
112
330
1
100
AcDbSymbolTableRecord
100
AcDbBlockTableRecord
  2
_D_3
340
0
  0
BLOCK_RECORD
  5
12C
330
1
100
AcDbSymbolTableRecord
100
AcDbBlockTableRecord
  2
SW_DOWELSYMBOL_0
340
0
102
{BLKREFS
331
132
102
}
  0
BLOCK_RECORD
  5
15C
330
1
100
AcDbSymbolTableRecord
100
AcDbBlockTableRecord
  2
*D7
340
0
  0
ENDTAB
  0
ENDSEC
  0
SECTION
  2
BLOCKS
  0
BLOCK
  5
20
330
1F
100
AcDbEntity
  8
0
100
AcDbBlockBegin
  2
*Model_Space
 70
     0
 10
0.0
 20
0.0
 30
0.0
  3
*Model_Space
  1
*Model_Space
  0
ENDBLK
  5
21
330
1F
100
AcDbEntity
  8
0
100
AcDbBlockEnd
  0
BLOCK
  5
1C
330
1B
100
AcDbEntity
 67
     1
  8
0
100
AcDbBlockBegin
  2
*Paper_Space
 70
     0
 10
0.0
 20
0.0
 30
0.0
  3
*Paper_Space
  1
*Paper_Space
  0
ENDBLK
  5
1D
330
1B
100
AcDbEntity
 67
     1
  8
0
100
AcDbBlockEnd
  0
BLOCK
  5
24
330
23
100
AcDbEntity
  8
0
100
AcDbBlockBegin
  2
*Paper_Space0
 70
     0
 10
0.0
 20
0.0
 30
0.0
  3
*Paper_Space0
  1
*Paper_Space0
  0
ENDBLK
  5
25
330
23
100
AcDbEntity
  8
0
100
AcDbBlockEnd
  0
BLOCK
  5
80
330
7F
100
AcDbEntity
  8
0
100
AcDbBlockBegin
  2
블럭10
 70
     2
 10
0.0
 20
0.0
 30
0.0
  3
블럭10
  1
블럭10
  0
ELLIPSE
  5
82
330
7F
100
AcDbEntity
  8
중심선
100
AcDbEllipse
 10
20.54032771741204
 20
12.0471743016438
 30
0.0
 11
6.600054785286829
 21
-1.261213355974178E-13
 31
0.0
210
0.0
220
0.0
230
1.0
 40
0.636358354079598
 41
0.9219305317359503
 42
6.513795318482858
  0
ELLIPSE
  5
83
330
7F
100
AcDbEntity
  8
중심선
100
AcDbEllipse
 10
20.54032771746488
 20
12.04717430159265
 30
0.0
 11
3.960054785062283
 21
1.540847449632565E-10
 31
0.0
210
0.0
220
0.0
230
1.0
 40
0.3939339440162632
 41
1.131841032648279
 42
5.62031148352944
  0
LINE
  5
84
330
7F
100
AcDbEntity
  8
중심선
100
AcDbLine
 10
2.268634060543552
 20
16.24717430164393
 30
0.0
 11
5.714909304380834
 21
16.24717430164393
 31
0.0
  0
LINE
  5
85
330
7F
100
AcDbEntity
  8
중심선
100
AcDbLine
 10
5.245725140726316
 20
7.84717430164391
 30
0.0
 11
8.692000384563599
 21
7.84717430164391
 31
0.0
  0
LINE
  5
86
330
7F
100
AcDbEntity
  8
중심선
100
AcDbLine
 10
15.74043728645272
 20
16.24717430164393
 30
0.0
 11
8.692000384563599
 21
7.84717430164391
 31
0.0
  0
LINE
  5
87
330
7F
100
AcDbEntity
  8
중심선
100
AcDbLine
 10
0.1404042013395286
 20
13.71084872107135
 30
0.0
 11
3.58671253028996
 21
13.71088815037384
 31
0.0
  0
LINE
  5
88
330
7F
100
AcDbEntity
  8
중심선
100
AcDbLine
 10
2.750260043222114
 20
10.84717430164391
 30
0.0
 11
6.196535287059397
 21
10.84717430164391
 31
0.0
  0
LINE
  5
89
330
7F
100
AcDbEntity
  8
중심선
100
AcDbLine
 10
12.29416204261559
 20
16.24717430164393
 30
0.0
 11
5.245725140726316
 21
7.84717430164391
 31
0.0
  0
LINE
  5
8A
330
7F
100
AcDbEntity
  8
중심선
100
AcDbLine
 10
10.72767329541681
 20
16.24717430164393
 30
0.0
 11
6.196535287059397
 21
10.84717430164391
 31
0.0
  0
LINE
  5
8B
330
7F
100
AcDbEntity
  8
중심선
100
AcDbLine
 10
7.28139805157953
 20
16.24717430164393
 30
0.0
 11
2.750260043222114
 21
10.84717430164391
 31
0.0
  0
LINE
  5
8C
330
7F
100
AcDbEntity
  8
중심선
100
AcDbLine
 10
5.714909304380834
 20
16.24717430164393
 30
0.0
 11
3.58671253028996
 21
13.71088815037384
 31
0.0
  0
LINE
  5
8D
330
7F
100
AcDbEntity
  8
중심선
100
AcDbLine
 10
2.268634060543552
 20
16.24717430164393
 30
0.0
 11
0.1404042013395286
 21
13.71084872107135
 31
0.0
  0
LINE
  5
8E
330
7F
100
AcDbEntity
  8
중심선
100
AcDbLine
 10
7.28139805157953
 20
16.24717430164393
 30
0.0
 11
10.72767329541681
 21
16.24717430164393
 31
0.0
  0
LINE
  5
8F
330
7F
100
AcDbEntity
  8
중심선
100
AcDbLine
 10
12.29416204261559
 20
16.24717430164393
 30
0.0
 11
15.74043728645272
 21
16.24717430164393
 31
0.0
  0
LINE
  5
90
330
7F
100
AcDbEntity
  8
중심선
100
AcDbLine
 10
19.22036997980202
 20
11.08717430171403
 30
0.0
 11
23.66174974927406
 21
11.08717430171406
 31
0.0
  0
LINE
  5
91
330
7F
100
AcDbEntity
  8
중심선
100
AcDbLine
 10
19.22039502424796
 20
13.00717430171391
 30
0.0
 11
19.22036997980202
 21
11.08717430171403
 31
0.0
  0
LINE
  5
92
330
7F
100
AcDbEntity
  8
중심선
100
AcDbLine
 10
19.22039502424796
 20
13.00717430171391
 30
0.0
 11
26.96566020931264
 21
13.00717430171391
 31
0.0
  0
LINE
  5
93
330
7F
100
AcDbEntity
  8
중심선
100
AcDbLine
 10
22.22332737316547
 20
13.45928029700563
 30
0.0
 11
24.52862924686651
 21
15.39360700705356
 31
0.0
  0
ATTDEF
  5
95
330
7F
100
AcDbEntity
  8
FORMAT
 62
     2
100
AcDbText
 10
4.408487351596664
 20
2.075366912832191
 30
0.0
 40
4.233333333333333
  1
E2039014
 41
0.75
  7
SLDTEXTSTYLE0
 11
4.408487351596664
 21
-0.0412997538344756
 31
0.0
100
AcDbAttributeDefinition
  3

  2
AUTOATTR0
 70
     0
 74
     1
  0
ENDBLK
  5
81
330
7F
100
AcDbEntity
  8
0
100
AcDbBlockEnd
  0
BLOCK
  5
D7
330
D6
100
AcDbEntity
  8
0
100
AcDbBlockBegin
  2
_D
 70
     0
 10
0.0
 20
0.0
 30
0.0
  3
_D
  1
_D
  0
LINE
  5
D9
330
D6
100
AcDbEntity
  8
치수문자_일반주서
 62
     0
370
    -2
100
AcDbLine
 10
24.69328832126949
 20
2.831483628313518
 30
0.0
 11
24.69328832126949
 21
15.61462900425996
 31
0.0
  0
LINE
  5
DA
330
D6
100
AcDbEntity
  8
치수문자_일반주서
 62
     0
370
    -2
100
AcDbLine
 10
10.40578832126948
 20
2.831317880298341
 30
0.0
 11
10.40578832126948
 21
15.61462900425996
 31
0.0
  0
LINE
  5
DB
330
D6
100
AcDbEntity
  8
치수문자_일반주서
 62
     0
370
    -2
100
AcDbLine
 10
10.40578832126948
 20
15.61462900425996
 30
0.0
 11
-20.02121167873052
 21
15.61462900425996
 31
0.0
  0
LINE
  5
DC
330
D6
100
AcDbEntity
  8
치수문자_일반주서
 62
     0
370
    -2
100
AcDbLine
 10
21.39128832126949
 20
15.61462900425996
 30
0.0
 11
13.70778832126948
 21
15.61462900425996
 31
0.0
  0
SOLID
  5
DD
330
D6
100
AcDbEntity
  8
치수문자_일반주서
 62
     0
100
AcDbTrace
 10
21.39128832126949
 20
15.06429567092662
 30
0.0
 11
21.39128832126949
 21
16.16496233759329
 31
0.0
 12
24.69328832126949
 22
15.61462900425996
 32
0.0
 13
24.69328832126949
 23
15.61462900425996
 33
0.0
  0
SOLID
  5
DE
330
D6
100
AcDbEntity
  8
치수문자_일반주서
 62
     0
100
AcDbTrace
 10
13.70778832126948
 20
16.16496233759329
 30
0.0
 11
13.70778832126948
 21
15.06429567092662
 31
0.0
 12
10.40578832126948
 22
15.61462900425996
 32
0.0
 13
10.40578832126948
 23
15.61462900425996
 33
0.0
  0
MTEXT
  5
DF
330
D6
100
AcDbEntity
  8
치수문자_일반주서
 62
     0
100
AcDbMText
 10
-6.458711678730518
 20
19.98962900425996
 30
0.0
 40
3.5
 41
0.0
 71
     2
 72
     1
  1
\A1;14.29 [9/16]
  7
SLDTEXTSTYLE0
 73
     1
 44
1.0
  0
POINT
  5
E0
330
D6
100
AcDbEntity
  8
Defpoints
 62
     0
100
AcDbPoint
 10
24.69328832126949
 20
2.768983628313518
 30
0.0
  0
POINT
  5
E1
330
D6
100
AcDbEntity
  8
Defpoints
 62
     0
100
AcDbPoint
 10
10.40578832126948
 20
2.768817880298341
 30
0.0
  0
POINT
  5
E2
330
D6
100
AcDbEntity
  8
Defpoints
 62
     0
100
AcDbPoint
 10
10.40578832126948
 20
15.61462900425996
 30
0.0
  0
ENDBLK
  5
D8
330
D6
100
AcDbEntity
  8
0
100
AcDbBlockEnd
  0
BLOCK
  5
EB
330
EA
100
AcDbEntity
  8
0
100
AcDbBlockBegin
  2
_D_1
 70
     0
 10
0.0
 20
0.0
 30
0.0
  3
_D_1
  1
_D_1
  0
LINE
  5
ED
330
EA
100
AcDbEntity
  8
치수문자_일반주서
 62
     0
370
    -2
100
AcDbLine
 10
24.69328832126949
 20
2.831483628313518
 30
0.0
 11
24.69328832126949
 21
31.67102671206509
 31
0.0
  0
LINE
  5
EE
330
EA
100
AcDbEntity
  8
치수문자_일반주서
 62
     0
370
    -2
100
AcDbLine
 10
-37.2192116787305
 20
3.873574928723895
 30
0.0
 11
-37.2192116787305
 21
31.67102671206509
 31
0.0
  0
LINE
  5
EF
330
EA
100
AcDbEntity
  8
치수문자_일반주서
 62
     0
370
    -2
100
AcDbLine
 10
21.39128832126949
 20
31.67102671206509
 30
0.0
 11
-33.9172116787305
 21
31.67102671206509
 31
0.0
  0
SOLID
  5
F0
330
EA
100
AcDbEntity
  8
치수문자_일반주서
 62
     0
100
AcDbTrace
 10
21.39128832126949
 20
31.12069337873176
 30
0.0
 11
21.39128832126949
 21
32.22136004539843
 31
0.0
 12
24.69328832126949
 22
31.67102671206509
 32
0.0
 13
24.69328832126949
 23
31.67102671206509
 33
0.0
  0
SOLID
  5
F1
330
EA
100
AcDbEntity
  8
치수문자_일반주서
 62
     0
100
AcDbTrace
 10
-33.9172116787305
 20
32.22136004539843
 30
0.0
 11
-33.9172116787305
 21
31.12069337873176
 31
0.0
 12
-37.2192116787305
 22
31.67102671206509
 32
0.0
 13
-37.2192116787305
 23
31.67102671206509
 33
0.0
  0
MTEXT
  5
F2
330
EA
100
AcDbEntity
  8
치수문자_일반주서
 62
     0
100
AcDbMText
 10
-6.262961678730512
 20
36.04602671206509
 30
0.0
 40
3.5
 41
0.0
 71
     2
 72
     1
  1
\A1;61.91 [2 7/16]
  7
SLDTEXTSTYLE0
 73
     1
 44
1.0
  0
POINT
  5
F3
330
EA
100
AcDbEntity
  8
Defpoints
 62
     0
100
AcDbPoint
 10
24.69328832126949
 20
2.768983628313518
 30
0.0
  0
POINT
  5
F4
330
EA
100
AcDbEntity
  8
Defpoints
 62
     0
100
AcDbPoint
 10
-37.2192116787305
 20
3.811074928723895
 30
0.0
  0
POINT
  5
F5
330
EA
100
AcDbEntity
  8
Defpoints
 62
     0
100
AcDbPoint
 10
-37.2192116787305
 20
31.67102671206509
 30
0.0
  0
ENDBLK
  5
EC
330
EA
100
AcDbEntity
  8
0
100
AcDbBlockEnd
  0
BLOCK
  5
FF
330
FE
100
AcDbEntity
  8
0
100
AcDbBlockBegin
  2
_D_2
 70
     0
 10
0.0
 20
0.0
 30
0.0
  3
_D_2
  1
_D_2
  0
LINE
  5
101
330
FE
100
AcDbEntity
  8
치수문자_일반주서
 62
     0
370
    -2
100
AcDbLine
 10
-36.32921167873051
 20
4.763574928723896
 30
0.0
 11
-48.51998451655772
 21
4.76357492872385
 31
0.0
  0
LINE
  5
102
330
FE
100
AcDbEntity
  8
치수문자_일반주서
 62
     0
370
    -2
100
AcDbLine
 10
-36.32921167873051
 20
-4.761425071276109
 30
0.0
 11
-48.51998451655768
 21
-4.761425071276156
 31
0.0
  0
LINE
  5
103
330
FE
100
AcDbEntity
  8
치수문자_일반주서
 62
     0
370
    -2
100
AcDbLine
 10
-48.51998451655771
 20
1.46157492872385
 30
0.0
 11
-48.5199845165577
 21
-1.459425071276156
 31
0.0
  0
SOLID
  5
104
330
FE
100
AcDbEntity
  8
치수문자_일반주서
 62
     0
100
AcDbTrace
 10
-47.96965118322437
 20
1.461574928723852
 30
0.0
 11
-49.07031784989104
 21
1.461574928723848
 31
0.0
 12
-48.51998451655772
 22
4.76357492872385
 32
0.0
 13
-48.51998451655772
 23
4.76357492872385
 33
0.0
  0
SOLID
  5
105
330
FE
100
AcDbEntity
  8
치수문자_일반주서
 62
     0
100
AcDbTrace
 10
-49.07031784989103
 20
-1.459425071276158
 30
0.0
 11
-47.96965118322436
 21
-1.459425071276154
 31
0.0
 12
-48.51998451655768
 22
-4.761425071276156
 32
0.0
 13
-48.51998451655768
 23
-4.761425071276156
 33
0.0
  0
MTEXT
  5
106
330
FE
100
AcDbEntity
  8
치수문자_일반주서
 62
     0
100
AcDbMText
 10
-52.89498451655771
 20
0.0010749287238796
 30
0.0
 40
3.5
 41
0.0
 71
     2
 72
     1
  1
\A1;%%c9.53 [3/8]
  7
SLDTEXTSTYLE0
 11
-3.729883127349605E-15
 21
1.0
 31
0.0
 73
     1
 44
1.0
  0
POINT
  5
107
330
FE
100
AcDbEntity
  8
Defpoints
 62
     0
100
AcDbPoint
 10
-36.26671167873051
 20
4.763574928723896
 30
0.0
  0
POINT
  5
108
330
FE
100
AcDbEntity
  8
Defpoints
 62
     0
100
AcDbPoint
 10
-36.26671167873051
 20
-4.761425071276109
 30
0.0
  0
POINT
  5
109
330
FE
100
AcDbEntity
  8
Defpoints
 62
     0
100
AcDbPoint
 10
-48.51998451655768
 20
-4.761425071276156
 30
0.0
  0
ENDBLK
  5
100
330
FE
100
AcDbEntity
  8
0
100
AcDbBlockEnd
  0
BLOCK
  5
113
330
112
100
AcDbEntity
  8
0
100
AcDbBlockBegin
  2
_D_3
 70
     0
 10
0.0
 20
0.0
 30
0.0
  3
_D_3
  1
_D_3
  0
LINE
  5
115
330
112
100
AcDbEntity
  8
치수문자_일반주서
 62
     0
370
    -2
100
AcDbLine
 10
20.67857152850161
 20
2.779199928723894
 30
0.0
 11
63.37720685700612
 21
2.779199928724044
 31
0.0
  0
LINE
  5
116
330
112
100
AcDbEntity
  8
치수문자_일반주서
 62
     0
370
    -2
100
AcDbLine
 10
20.67857152850161
 20
-2.777050071276108
 30
0.0
 11
63.37720685700614
 21
-2.777050071275958
 31
0.0
  0
LINE
  5
117
330
112
100
AcDbEntity
  8
치수문자_일반주서
 62
     0
370
    -2
100
AcDbLine
 10
63.37720685700612
 20
2.779199928724044
 30
0.0
 11
63.37720685700599
 21
38.25819992872404
 31
0.0
  0
LINE
  5
118
330
112
100
AcDbEntity
  8
치수문자_일반주서
 62
     0
370
    -2
100
AcDbLine
 10
63.37720685700612
 20
2.779199928724044
 30
0.0
 11
63.37720685700614
 21
-2.777050071275958
 31
0.0
  0
LINE
  5
119
330
112
100
AcDbEntity
  8
치수문자_일반주서
 62
     0
370
    -2
100
AcDbLine
 10
63.37720685700611
 20
6.081199928724043
 30
0.0
 11
63.37720685700609
 21
9.383199928724043
 31
0.0
  0
LINE
  5
11A
330
112
100
AcDbEntity
  8
치수문자_일반주서
 62
     0
370
    -2
100
AcDbLine
 10
63.37720685700616
 20
-6.079050071275958
 30
0.0
 11
63.37720685700617
 21
-9.381050071275958
 31
0.0
  0
SOLID
  5
11B
330
112
100
AcDbEntity
  8
치수문자_일반주서
 62
     0
100
AcDbTrace
 10
62.82687352367277
 20
6.081199928724041
 30
0.0
 11
63.92754019033944
 21
6.081199928724045
 31
0.0
 12
63.37720685700612
 22
2.779199928724044
 32
0.0
 13
63.37720685700612
 23
2.779199928724044
 33
0.0
  0
SOLID
  5
11C
330
112
100
AcDbEntity
  8
치수문자_일반주서
 62
     0
100
AcDbTrace
 10
63.92754019033949
 20
-6.079050071275956
 30
0.0
 11
62.82687352367282
 21
-6.07905007127596
 31
0.0
 12
63.37720685700614
 22
-2.777050071275958
 32
0.0
 13
63.37720685700614
 23
-2.777050071275958
 33
0.0
  0
MTEXT
  5
11D
330
112
100
AcDbEntity
  8
치수문자_일반주서
 62
     0
100
AcDbMText
 10
59.00220685700604
 20
23.82069992872403
 30
0.0
 40
3.5
 41
0.0
 71
     2
 72
     1
  1
\A1;%%c5.56 [7/32]
  7
SLDTEXTSTYLE0
 11
-3.836451216702452E-15
 21
1.0
 31
0.0
 73
     1
 44
1.0
  0
POINT
  5
11E
330
112
100
AcDbEntity
  8
Defpoints
 62
     0
100
AcDbPoint
 10
20.61607152850161
 20
2.779199928723894
 30
0.0
  0
POINT
  5
11F
330
112
100
AcDbEntity
  8
Defpoints
 62
     0
100
AcDbPoint
 10
20.61607152850161
 20
-2.777050071276108
 30
0.0
  0
POINT
  5
120
330
112
100
AcDbEntity
  8
Defpoints
 62
     0
100
AcDbPoint
 10
63.37720685700614
 20
-2.777050071275959
 30
0.0
  0
ENDBLK
  5
114
330
112
100
AcDbEntity
  8
0
100
AcDbBlockEnd
  0
BLOCK
  5
12D
330
12C
100
AcDbEntity
  8
0
100
AcDbBlockBegin
  2
SW_DOWELSYMBOL_0
 70
     0
 10
0.0
 20
0.0
 30
0.0
  3
SW_DOWELSYMBOL_0
  1
SW_DOWELSYMBOL_0
  0
CIRCLE
  5
12F
330
12C
100
AcDbEntity
  8
해칭선
 62
     0
100
AcDbCircle
 10
0.0
 20
0.0
 30
0.0
 40
3.000000000000001
  0
HATCH
  5
130
330
12C
100
AcDbEntity
  8
0
  6
Continuous
 62
     0
370
     0
100
AcDbHatch
 10
0.0
 20
0.0
 30
0.0
210
0.0
220
0.0
230
1.0
  2
SOLID
 70
     1
 71
     0
 91
        1
 92
        0
 93
        3
 72
     2
 10
0.0
 20
0.0
 40
3.000000000000001
 50
0.0
 51
90.0
 73
     1
 72
     1
 10
0.0
 20
3.000000000000001
 11
0.0
 21
0.0
 72
     1
 10
0.0
 20
0.0
 11
3.000000000000001
 21
0.0
 97
        0
 75
     0
 76
     1
 98
        1
 10
0.0
 20
0.0
  0
HATCH
  5
131
330
12C
100
AcDbEntity
  8
0
  6
Continuous
 62
     0
370
     0
100
AcDbHatch
 10
0.0
 20
0.0
 30
0.0
210
0.0
220
0.0
230
1.0
  2
SOLID
 70
     1
 71
     0
 91
        1
 92
        0
 93
        3
 72
     2
 10
0.0
 20
0.0
 40
3.000000000000001
 50
180.0
 51
270.0000000000008
 73
     1
 72
     1
 10
0.0
 20
-3.000000000000001
 11
0.0
 21
0.0
 72
     1
 10
0.0
 20
0.0
 11
-3.000000000000001
 21
0.0
 97
        0
 75
     0
 76
     1
 98
        1
 10
0.0
 20
0.0
  0
ENDBLK
  5
12E
330
12C
100
AcDbEntity
  8
0
100
AcDbBlockEnd
  0
BLOCK
  5
15D
330
15C
100
AcDbEntity
  8
0
100
AcDbBlockBegin
  2
*D7
 70
     1
 10
0.0
 20
0.0
 30
0.0
  3
*D7
  1
*D7
  0
LINE
  5
15F
330
15C
100
AcDbEntity
  8
치수문자_일반주서
 62
     0
370
    -2
100
AcDbLine
 10
24.75578832126949
 20
2.779199928723898
 30
0.0
 11
36.04203928506041
 21
2.779199928723898
 31
0.0
  0
LINE
  5
160
330
15C
100
AcDbEntity
  8
치수문자_일반주서
 62
     0
370
    -2
100
AcDbLine
 10
24.75578832126949
 20
-2.777050071276102
 30
0.0
 11
36.04203928506041
 21
-2.777050071276101
 31
0.0
  0
LINE
  5
161
330
15C
100
AcDbEntity
  8
치수문자_일반주서
 62
     0
370
    -2
100
AcDbLine
 10
36.04203928506041
 20
2.779199928723898
 30
0.0
 11
36.04203928506041
 21
38.2581999287239
 31
0.0
  0
LINE
  5
162
330
15C
100
AcDbEntity
  8
치수문자_일반주서
 62
     0
370
    -2
100
AcDbLine
 10
36.04203928506041
 20
6.081199928723898
 30
0.0
 11
36.04203928506041
 21
9.383199928723897
 31
0.0
  0
LINE
  5
163
330
15C
100
AcDbEntity
  8
치수문자_일반주서
 62
     0
370
    -2
100
AcDbLine
 10
36.04203928506041
 20
-6.0790500712761
 30
0.0
 11
36.04203928506041
 21
-9.3810500712761
 31
0.0
  0
SOLID
  5
164
330
15C
100
AcDbEntity
  8
치수문자_일반주서
 62
     0
100
AcDbTrace
 10
35.49170595172708
 20
6.081199928723898
 30
0.0
 11
36.59237261839375
 21
6.081199928723898
 31
0.0
 12
36.04203928506041
 22
2.779199928723898
 32
0.0
 13
36.04203928506041
 23
2.779199928723898
 33
0.0
  0
SOLID
  5
165
330
15C
100
AcDbEntity
  8
치수문자_일반주서
 62
     0
100
AcDbTrace
 10
36.59237261839375
 20
-6.0790500712761
 30
0.0
 11
35.49170595172708
 21
-6.0790500712761
 31
0.0
 12
36.04203928506041
 22
-2.777050071276101
 32
0.0
 13
36.04203928506041
 23
-2.777050071276101
 33
0.0
  0
MTEXT
  5
166
330
15C
100
AcDbEntity
  8
치수문자_일반주서
 62
     0
100
AcDbMText
 10
33.41703928506041
 20
23.8206999287239
 30
0.0
 40
3.5
 41
0.0
 71
     5
 72
     1
  1
\A1;{%%C5.56 [7/32]}
  7
SLDTEXTSTYLE0
 11
0.0
 21
1.0
 31
0.0
 73
     1
 44
1.0
  0
POINT
  5
167
330
15C
100
AcDbEntity
  8
Defpoints
 62
     0
100
AcDbPoint
 10
24.69328832126949
 20
2.779199928723898
 30
0.0
  0
POINT
  5
168
330
15C
100
AcDbEntity
  8
Defpoints
 62
     0
100
AcDbPoint
 10
24.69328832126949
 20
-2.777050071276102
 30
0.0
  0
POINT
  5
16B
330
15C
100
AcDbEntity
  8
Defpoints
 62
     0
100
AcDbPoint
 10
36.04203928506041
 20
-2.777050071276103
 30
0.0
  0
ENDBLK
  5
15E
330
15C
100
AcDbEntity
  8
0
100
AcDbBlockEnd
  0
ENDSEC
  0
SECTION
  2
ENTITIES
  0
LINE
  5
96
330
1F
100
AcDbEntity
  8
외형선
  6
Continuous
370
    15
100
AcDbLine
 10
1.999999999999997
 20
-4.761425071276111
 30
0.0
 11
9.40578832126949
 21
-2.777050071276107
 31
0.0
  0
LINE
  5
97
330
1F
100
AcDbEntity
  8
외형선
  6
Continuous
370
    15
100
AcDbLine
 10
9.40578832126949
 20
2.779199928723894
 30
0.0
 11
1.999999999999997
 21
4.763574928723898
 31
0.0
  0
LINE
  5
98
330
1F
100
AcDbEntity
  8
외형선
  6
Continuous
370
    15
100
AcDbLine
 10
-36.26671167873051
 20
-4.761425071276109
 30
0.0
 11
1.999999999999997
 21
-4.761425071276109
 31
0.0
  0
LINE
  5
99
330
1F
100
AcDbEntity
  8
외형선
  6
Continuous
370
    15
100
AcDbLine
 10
1.999999999999997
 20
4.763574928723895
 30
0.0
 11
-12.53676167873038
 21
4.763574928723895
 31
0.0
  0
LINE
  5
9A
330
1F
100
AcDbEntity
  8
외형선
  6
Continuous
370
    15
100
AcDbLine
 10
-36.26671167873051
 20
4.763574928723893
 30
0.0
 11
-37.2192116787305
 21
3.811074928723895
 31
0.0
  0
LINE
  5
9B
330
1F
100
AcDbEntity
  8
외형선
  6
Continuous
370
    15
100
AcDbLine
 10
-37.2192116787305
 20
-3.808925071276108
 30
0.0
 11
-36.26671167873051
 21
-4.761425071276106
 31
0.0
  0
LINE
  5
9C
330
1F
100
AcDbEntity
  8
외형선
  6
Continuous
370
    15
100
AcDbLine
 10
9.988471552568555
 20
-2.777050071276107
 30
0.0
 11
10.40578832126949
 21
-2.777050071276107
 31
0.0
  0
LINE
  5
9D
330
1F
100
AcDbEntity
  8
외형선
  6
Continuous
370
    15
100
AcDbLine
 10
9.40578832126949
 20
-2.777050071276107
 30
0.0
 11
9.905608987084316
 21
-2.777050071276107
 31
0.0
  0
LINE
  5
9E
330
1F
100
AcDbEntity
  8
외형선
  6
Continuous
370
    15
100
AcDbLine
 10
9.905608987084316
 20
2.779199928723894
 30
0.0
 11
9.40578832126949
 21
2.779199928723894
 31
0.0
  0
LINE
  5
9F
330
1F
100
AcDbEntity
  8
외형선
  6
Continuous
370
    15
100
AcDbLine
 10
10.40578832126949
 20
2.779199928723894
 30
0.0
 11
9.988471552568555
 21
2.779199928723894
 31
0.0
  0
LINE
  5
A0
330
1F
100
AcDbEntity
  8
외형선
  6
Continuous
 62
     1
370
    15
100
AcDbLine
 10
13.10357179105716
 20
-0.807753846575128
 30
0.0
 11
13.14990195487707
 21
-0.832485654634266
 31
0.0
  0
LINE
  5
A1
330
1F
100
AcDbEntity
  8
외형선
  6
Continuous
 62
     1
370
    15
100
AcDbLine
 10
16.11958630640417
 20
0.8144178001829304
 30
0.0
 11
16.08240823801739
 21
0.8344840656284295
 31
0.0
  0
LINE
  5
A2
330
1F
100
AcDbEntity
  8
외형선
  6
Continuous
 62
     1
370
    15
100
AcDbLine
 10
17.54785776404952
 20
-2.777050071276108
 30
0.0
 11
19.24115260781962
 21
-2.777050071276108
 31
0.0
  0
LINE
  5
A3
330
1F
100
AcDbEntity
  8
외형선
  6
Continuous
 62
     1
370
    15
100
AcDbLine
 10
11.68229862223489
 20
2.779199928723894
 30
0.0
 11
10.40578832126949
 21
2.779199928723894
 31
0.0
  0
LINE
  5
A4
330
1F
100
AcDbEntity
  8
외형선
  6
Continuous
 62
     1
370
    15
100
AcDbLine
 10
19.24115260781961
 20
2.779199928723894
 30
0.0
 11
17.54785776404955
 21
2.779199928723894
 31
0.0
  0
LINE
  5
A5
330
1F
100
AcDbEntity
  8
외형선
  6
Continuous
 62
     1
370
    15
100
AcDbLine
 10
10.40578832126949
 20
-2.777050071276108
 30
0.0
 11
11.68229862223484
 21
-2.777050071276108
 31
0.0
  0
LINE
  5
A6
330
1F
100
AcDbEntity
  8
외형선
  6
Continuous
370
    15
100
AcDbLine
 10
9.40578832126949
 20
0.0010749287238931
 30
0.0
 11
9.40578832126949
 21
2.779199928723894
 31
0.0
  0
LINE
  5
A7
330
1F
100
AcDbEntity
  8
외형선
  6
Continuous
370
    15
100
AcDbLine
 10
9.40578832126949
 20
-2.777050071276107
 30
0.0
 11
9.40578832126949
 21
0.0010749287238931
 31
0.0
  0
LINE
  5
A8
330
1F
100
AcDbEntity
  8
외형선
  6
Continuous
370
    15
100
AcDbLine
 10
1.999999999999997
 20
0.0010749287238931
 30
0.0
 11
1.999999999999997
 21
4.763574928723898
 31
0.0
  0
LINE
  5
A9
330
1F
100
AcDbEntity
  8
외형선
  6
Continuous
370
    15
100
AcDbLine
 10
1.999999999999997
 20
-4.761425071276111
 30
0.0
 11
1.999999999999997
 21
0.0010749287238931
 31
0.0
  0
LINE
  5
AA
330
1F
100
AcDbEntity
  8
외형선
  6
Continuous
370
    15
100
AcDbLine
 10
-36.26671167873051
 20
0.0010749287238931
 30
0.0
 11
-36.26671167873051
 21
4.763574928723895
 31
0.0
  0
LINE
  5
AB
330
1F
100
AcDbEntity
  8
외형선
  6
Continuous
370
    15
100
AcDbLine
 10
-36.26671167873051
 20
-4.761425071276109
 30
0.0
 11
-36.26671167873051
 21
0.0010749287238931
 31
0.0
  0
LINE
  5
AC
330
1F
100
AcDbEntity
  8
외형선
  6
Continuous
370
    15
100
AcDbLine
 10
-37.2192116787305
 20
0.0010749287238931
 30
0.0
 11
-37.2192116787305
 21
3.811074928723895
 31
0.0
  0
LINE
  5
AD
330
1F
100
AcDbEntity
  8
외형선
  6
Continuous
370
    15
100
AcDbLine
 10
-37.2192116787305
 20
-3.808925071276108
 30
0.0
 11
-37.2192116787305
 21
0.0010749287238931
 31
0.0
  0
SPLINE
  5
AE
330
1F
100
AcDbEntity
  8
외형선
  6
Continuous
370
    15
100
AcDbSpline
210
0.0
220
0.0
230
1.0
 70
     8
 71
     3
 72
     8
 73
     4
 74
     0
 42
0.000000001
 43
0.00000001
 40
0.0
 40
0.0
 40
0.0
 40
0.0
 40
1.0
 40
1.0
 40
1.0
 40
1.0
 10
10.4057883212695
 20
-2.679675250319624
 30
0.0
 10
10.23899588060417
 20
-2.654478157275651
 30
0.0
 10
10.07182187255045
 20
-2.624446306630304
 30
0.0
 10
9.905608987084308
 20
-2.589837413078222
 30
0.0
  0
SPLINE
  5
AF
330
1F
100
AcDbEntity
  8
외형선
  6
Continuous
370
    15
100
AcDbSpline
210
0.0
220
0.0
230
1.0
 70
     8
 71
     3
 72
     8
 73
     4
 74
     0
 42
0.000000001
 43
0.00000001
 40
0.0
 40
0.0
 40
0.0
 40
0.0
 40
1.0
 40
1.0
 40
1.0
 40
1.0
 10
10.4057883212695
 20
-0.2388781284308042
 30
0.0
 10
10.23899588060417
 20
-0.1432245382584185
 30
0.0
 10
10.07182187255045
 20
-0.0470676218179921
 30
0.0
 10
9.905608987084323
 20
0.0488193351051683
 30
0.0
  0
SPLINE
  5
B0
330
1F
100
AcDbEntity
  8
외형선
  6
Continuous
370
    15
100
AcDbSpline
210
0.0
220
0.0
230
1.0
 70
    24
 71
     3
 72
    19
 73
    15
 74
     0
 42
0.000000001
 43
0.00000001
 40
0.0
 40
0.0
 40
0.0
 40
0.0
 40
0.1282954222696974
 40
0.2075751554364233
 40
0.286854888603149
 40
0.3661346217698734
 40
0.4454143549365976
 40
0.5246940881033222
 40
0.6039738212700466
 40
0.6832535544367708
 40
0.7625332876034949
 40
0.8418130207702184
 40
0.9210927539369418
 40
1.0
 40
1.0
 40
1.0
 40
1.0
 10
10.4057883212695
 20
-2.679675250319625
 30
0.0
 10
10.40578832126949
 20
-2.545377723839509
 30
0.0
 10
10.40578832126946
 20
-2.328091483686408
 30
0.0
 10
10.40578832126946
 20
-1.99335313409282
 30
0.0
 10
10.4057883212695
 20
-1.711913212860795
 30
0.0
 10
10.40578832126948
 20
-1.431895934116233
 30
0.0
 10
10.40578832126947
 20
-1.161697337417656
 30
0.0
 10
10.40578832126949
 20
-0.9093728892746032
 30
0.0
 10
10.40578832126953
 20
-0.6812425924271731
 30
0.0
 10
10.4057883212695
 20
-0.4850025051480268
 30
0.0
 10
10.40578832126947
 20
-0.3245208841508755
 30
0.0
 10
10.4057883212695
 20
-0.2071042138548312
 30
0.0
 10
10.4057883212695
 20
-0.1301667220139238
 30
0.0
 10
10.40578832126949
 20
-0.1189674734762313
 30
0.0
 10
10.40578832126949
 20
-0.1133810347921637
 30
0.0
  0
SPLINE
  5
B1
330
1F
100
AcDbEntity
  8
외형선
  6
Continuous
370
    15
100
AcDbSpline
210
0.0
220
0.0
230
1.0
 70
     8
 71
     3
 72
     8
 73
     4
 74
     0
 42
0.000000001
 43
0.00000001
 40
0.0
 40
0.0
 40
0.0
 40
0.0
 40
1.0
 40
1.0
 40
1.0
 40
1.0
 10
10.4057883212695
 20
2.768817880297813
 30
0.0
 10
10.23899588060417
 20
2.777110692091132
 30
0.0
 10
10.07182187255045
 20
2.780437775732084
 30
0.0
 10
9.905608987084323
 20
2.778789634607906
 30
0.0
  0
LINE
  5
B2
330
1F
100
AcDbEntity
  8
외형선
  6
Continuous
370
    15
100
AcDbLine
 10
9.905608987084323
 20
1.003625765185062
 30
0.0
 11
9.905608987084316
 21
2.779199928723894
 31
0.0
  0
SPLINE
  5
B3
330
1F
100
AcDbEntity
  8
외형선
  6
Continuous
370
    15
100
AcDbSpline
210
0.0
220
0.0
230
1.0
 70
     8
 71
     3
 72
     8
 73
     4
 74
     0
 42
0.000000001
 43
0.00000001
 40
0.0
 40
0.0
 40
0.0
 40
0.0
 40
1.0
 40
1.0
 40
1.0
 40
1.0
 10
10.4057883212695
 20
0.7301544807503776
 30
0.0
 10
10.23899588060417
 20
0.822801588327677
 30
0.0
 10
10.07182187255045
 20
0.914208973213696
 30
0.0
 10
9.905608987084308
 20
1.003647496033844
 30
0.0
  0
LINE
  5
B4
330
1F
100
AcDbEntity
  8
외형선
  6
Continuous
370
    15
100
AcDbLine
 10
9.905608987084323
 20
-2.589845821885047
 30
0.0
 11
9.905608987084316
 21
0.0488373282753471
 31
0.0
  0
LINE
  5
B5
330
1F
100
AcDbEntity
  8
외형선
  6
Continuous
370
    15
100
AcDbLine
 10
9.988471552568555
 20
-2.776371858581854
 30
0.0
 11
9.905608987084323
 21
-2.776639777160119
 31
0.0
  0
LINE
  5
B6
330
1F
100
AcDbEntity
  8
외형선
  6
Continuous
370
    15
100
AcDbLine
 10
9.905608987084316
 20
-2.777050071276107
 30
0.0
 11
9.905608987084316
 21
-2.77663946782844
 31
0.0
  0
LINE
  5
B7
330
1F
100
AcDbEntity
  8
외형선
  6
Continuous
370
    15
100
AcDbLine
 10
10.40578832126949
 20
-2.777050071276107
 30
0.0
 11
10.4057883212695
 21
-2.679675250319625
 31
0.0
  0
LINE
  5
B8
330
1F
100
AcDbEntity
  8
외형선
  6
Continuous
370
    15
100
AcDbLine
 10
10.40578832126949
 20
-0.2388781284308181
 30
0.0
 11
10.4057883212695
 21
0.7301544807503737
 31
0.0
  0
LINE
  5
B9
330
1F
100
AcDbEntity
  8
외형선
  6
Continuous
370
    15
100
AcDbLine
 10
10.40578832126949
 20
2.768817880297854
 30
0.0
 11
10.40578832126949
 21
2.779199928723894
 31
0.0
  0
SPLINE
  5
BA
330
1F
100
AcDbEntity
  8
외형선
  6
Continuous
370
    15
100
AcDbSpline
210
0.0
220
0.0
230
1.0
 70
    24
 71
     3
 72
    15
 73
    11
 74
     0
 42
0.000000001
 43
0.00000001
 40
0.0
 40
0.0
 40
0.0
 40
0.0
 40
0.0767083345325565
 40
0.201667978611539
 40
0.3266276226905213
 40
0.4515872667695026
 40
0.5765469108484839
 40
0.7015065549272886
 40
0.8264661990060974
 40
1.0
 40
1.0
 40
1.0
 40
1.0
 10
10.4057883212695
 20
0.7734083233159568
 30
0.0
 10
10.40578832126951
 20
0.8060340568101374
 30
0.0
 10
10.40578832126953
 20
0.8918078617634662
 30
0.0
 10
10.4057883212695
 20
1.072648647455231
 30
0.0
 10
10.40578832126946
 20
1.30356666929456
 30
0.0
 10
10.4057883212695
 20
1.560139871310054
 30
0.0
 10
10.40578832126949
 20
1.832304636388444
 30
0.0
 10
10.40578832126949
 20
2.11294467202827
 30
0.0
 10
10.40578832126946
 20
2.4320797871515
 30
0.0
 10
10.40578832126948
 20
2.645021125491715
 30
0.0
 10
10.40578832126949
 20
2.768817880297854
 30
0.0
  0
SPLINE
  5
BB
330
1F
100
AcDbEntity
  8
외형선
  6
Continuous
 62
     1
370
    15
100
AcDbSpline
210
0.0
220
0.0
230
1.0
 70
     8
 71
     3
 72
    18
 73
    14
 74
     0
 42
0.000000001
 43
0.00000001
 40
0.0
 40
0.0
 40
0.0
 40
0.0
 40
0.0970862348616283
 40
0.1941946191970992
 40
0.2913820230852394
 40
0.3886755459307968
 40
0.4858817992784245
 40
0.5829995239945376
 40
0.6800854886741307
 40
0.7691055104692457
 40
0.8583208186956757
 40
0.947443585161052
 40
1.0
 40
1.0
 40
1.0
 40
1.0
 10
10.40578832126949
 20
0.7301544807503814
 30
0.0
 10
10.78642341959699
 20
0.5139799237231728
 30
0.0
 10
11.54778045520675
 20
0.0815814911149659
 30
0.0
 10
12.69020644039579
 20
-0.5826487522298911
 30
0.0
 10
13.83360974442992
 20
-1.211312135016969
 30
0.0
 10
14.97781740384413
 20
-1.772247021736639
 30
0.0
 10
16.12139800385513
 20
-2.233727055020759
 30
0.0
 10
17.26393203126161
 20
-2.569728096467517
 30
0.0
 10
18.37440446646785
 20
-2.7556100752808
 30
0.0
 10
19.45356906320992
 20
-2.797145234082023
 30
0.0
 10
20.50238771791937
 20
-2.700560723712559
 30
0.0
 10
21.40780443885707
 20
-2.522525055652715
 30
0.0
 10
21.96316375158871
 20
-2.335004511660797
 30
0.0
 10
22.1691763368951
 20
-2.265443074263053
 30
0.0
  0
SPLINE
  5
BC
330
1F
100
AcDbEntity
  8
외형선
  6
Continuous
 62
     1
370
    15
100
AcDbSpline
210
0.0
220
0.0
230
1.0
 70
     8
 71
     3
 72
    50
 73
    46
 74
     0
 42
0.000000001
 43
0.00000001
 40
0.0
 40
0.0
 40
0.0
 40
0.0
 40
0.0625000000000007
 40
0.0625000000000007
 40
0.1250000000000014
 40
0.1250000000000014
 40
0.1875000000000021
 40
0.1875000000000021
 40
0.2500000000000028
 40
0.2500000000000028
 40
0.3125000000000034
 40
0.3125000000000034
 40
0.3750000000000042
 40
0.3750000000000042
 40
0.4062500000000045
 40
0.4062500000000045
 40
0.4375000000000049
 40
0.4375000000000049
 40
0.4687500000000052
 40
0.4687500000000052
 40
0.5000000000000056
 40
0.5000000000000056
 40
0.5625000000000051
 40
0.5625000000000051
 40
0.5937500000000049
 40
0.5937500000000049
 40
0.6250000000000047
 40
0.6250000000000047
 40
0.6562500000000046
 40
0.6562500000000046
 40
0.6875000000000043
 40
0.6875000000000043
 40
0.7500000000000039
 40
0.7500000000000039
 40
0.7812500000000037
 40
0.7812500000000037
 40
0.8125000000000034
 40
0.8125000000000034
 40
0.8437500000000032
 40
0.8437500000000032
 40
0.875000000000003
 40
0.875000000000003
 40
0.9375000000000016
 40
0.9375000000000016
 40
1.0
 40
1.0
 40
1.0
 40
1.0
 10
24.69328832126949
 20
-2.766833770865731
 30
0.0
 10
24.39864748724899
 20
-2.752158546864766
 30
0.0
 10
24.09809957920535
 20
-2.721468280908466
 30
0.0
 10
23.50053658885937
 20
-2.629196163050491
 30
0.0
 10
23.20690256148399
 20
-2.567993497351203
 30
0.0
 10
22.60998858052803
 20
-2.416228657390468
 30
0.0
 10
22.30915694057489
 20
-2.325690499227741
 30
0.0
 10
21.71813882510061
 20
-2.120208427217844
 30
0.0
 10
21.4195824716404
 20
-2.004349063858716
 30
0.0
 10
20.82155741703861
 20
-1.750750292875742
 30
0.0
 10
20.52758530501363
 20
-1.613890945174463
 30
0.0
 10
19.93150660125821
 20
-1.322036035262067
 30
0.0
 10
19.63048682835391
 20
-1.167119143982719
 30
0.0
 10
19.18605602313212
 20
-0.9272788631602698
 30
0.0
 10
19.03895474465754
 20
-0.8460812205629251
 30
0.0
 10
18.74115900504176
 20
-0.6808335072769182
 30
0.0
 10
18.59143972491549
 20
-0.5969580984908086
 30
0.0
 10
18.29228987943938
 20
-0.427779079584927
 30
0.0
 10
18.14286209100133
 20
-0.3424770487219684
 30
0.0
 10
17.84621984840039
 20
-0.1715567699919779
 30
0.0
 10
17.69930251996038
 20
-0.0859973710860648
 30
0.0
 10
17.25300899810686
 20
0.1717525292173383
 30
0.0
 10
16.95189689231147
 20
0.3442722879077495
 30
0.0
 10
16.506435190002
 20
0.5974501515335909
 30
0.0
 10
16.35960629591485
 20
0.680798869237396
 30
0.0
 10
16.06236704985032
 20
0.8459828803434747
 30
0.0
 10
15.91277741538697
 20
0.9276590155698071
 30
0.0
 10
15.61358410926837
 20
1.088109004044882
 30
0.0
 10
15.46398321734206
 20
1.166881365970575
 30
0.0
 10
15.16669942309364
 20
1.320524961185956
 30
0.0
 10
15.01986342484103
 20
1.395262039634511
 30
0.0
 10
14.57447366084171
 20
1.61399281144046
 30
0.0
 10
14.27336512097049
 20
1.752009915861501
 30
0.0
 10
13.8270099102153
 20
1.941991025417044
 30
0.0
 10
13.68007127111352
 20
2.002373127215252
 30
0.0
 10
13.38348038564656
 20
2.117616381391744
 30
0.0
 10
13.23406733938786
 20
2.172428574528984
 30
0.0
 10
12.93492447561865
 20
2.275675086646382
 30
0.0
 10
12.78519743456741
 20
2.324108408617637
 30
0.0
 10
12.4873640019511
 20
2.413998560069084
 30
0.0
 10
12.34022721182126
 20
2.455376458658889
 30
0.0
 10
11.89587851975426
 20
2.56910080833899
 30
0.0
 10
11.59486944080778
 20
2.63093736293374
 30
0.0
 10
10.99872223652582
 20
2.723298416038057
 30
0.0
 10
10.70478689245874
 20
2.75395186558244
 30
0.0
 10
10.40578832126954
 20
2.768817880297811
 30
0.0
  0
SPLINE
  5
BD
330
1F
100
AcDbEntity
  8
외형선
  6
Continuous
370
    15
100
AcDbSpline
210
0.0
220
0.0
230
1.0
 70
    24
 71
     3
 72
    15
 73
    11
 74
     0
 42
0.000000001
 43
0.00000001
 40
0.0
 40
0.0
 40
0.0
 40
0.0
 40
0.1267394719437092
 40
0.2534789438874187
 40
0.3787906614647056
 40
0.5041023790419921
 40
0.6294140966192835
 40
0.7547258141965748
 40
0.880037531773865
 40
1.0
 40
1.0
 40
1.0
 40
1.0
 10
10.40578832126948
 20
2.768817880298341
 30
0.0
 10
10.40578832126948
 20
2.679378997840815
 30
0.0
 10
10.4057883212695
 20
2.500501232925763
 30
0.0
 10
10.40578832126949
 20
2.217761194143811
 30
0.0
 10
10.40578832126949
 20
1.934983261806771
 30
0.0
 10
10.4057883212695
 20
1.658489487284269
 30
0.0
 10
10.40578832126949
 20
1.395623568258023
 30
0.0
 10
10.40578832126946
 20
1.154076238708547
 30
0.0
 10
10.40578832126949
 20
0.9408643361219876
 30
0.0
 10
10.4057883212695
 20
0.8284027595316467
 30
0.0
 10
10.4057883212695
 20
0.7733983233159566
 30
0.0
  0
SPLINE
  5
BE
330
1F
100
AcDbEntity
  8
외형선
  6
Continuous
 62
     1
370
    15
100
AcDbSpline
210
0.0
220
0.0
230
1.0
 70
     8
 71
     3
 72
    14
 73
    10
 74
     0
 42
0.000000001
 43
0.00000001
 40
0.0
 40
0.0
 40
0.0
 40
0.0
 40
0.1199984395844163
 40
0.2666178566075481
 40
0.4131428747042203
 40
0.5598378827643402
 40
0.7068044880578012
 40
0.8534771139943186
 40
1.0
 40
1.0
 40
1.0
 40
1.0
 10
17.54785776404952
 20
-2.762341814804159
 30
0.0
 10
17.26207425592436
 20
-2.759844439581496
 30
0.0
 10
16.62710777924351
 20
-2.754295660519727
 30
0.0
 10
15.64372951794122
 20
-2.580001654130331
 30
0.0
 10
14.59690182403061
 20
-2.289393455011791
 30
0.0
 10
13.54903955562379
 20
-1.885959017033062
 30
0.0
 10
12.50010349769042
 20
-1.395247415285036
 30
0.0
 10
11.45235407239995
 20
-0.8381951498084222
 30
0.0
 10
10.75452477388553
 20
-0.4385824392224457
 30
0.0
 10
10.40578832126954
 20
-0.2388781284308345
 30
0.0
  0
LINE
  5
BF
330
1F
100
AcDbEntity
  8
외형선
  6
Continuous
 62
     1
370
    15
100
AcDbLine
 10
24.69328832126949
 20
-2.766833770865731
 30
0.0
 11
24.69328832126949
 21
-2.515021069677227
 31
0.0
  0
SPLINE
  5
C0
330
1F
100
AcDbEntity
  8
외형선
  6
Continuous
 62
     1
370
    15
100
AcDbSpline
210
0.0
220
0.0
230
1.0
 70
     8
 71
     3
 72
    19
 73
    15
 74
     0
 42
0.000000001
 43
0.00000001
 40
0.0
 40
0.0
 40
0.0
 40
0.0
 40
0.0774506000572524
 40
0.1653185093524225
 40
0.2532823616458778
 40
0.341167312888155
 40
0.4289722246865031
 40
0.5167484219817722
 40
0.5972321357925673
 40
0.6778924096280856
 40
0.758469015717157
 40
0.8389159178574479
 40
0.9193780449354123
 40
1.0
 40
1.0
 40
1.0
 40
1.0
 10
11.68229862223488
 20
2.771081784599805
 30
0.0
 10
12.01816571056727
 20
2.762604685317475
 30
0.0
 10
12.73507489322828
 20
2.744510294622614
 30
0.0
 10
13.83361071893601
 20
2.527295879738632
 30
0.0
 10
14.97781713566097
 20
2.174294564142101
 30
0.0
 10
16.12139810243502
 20
1.695042513123746
 30
0.0
 10
17.26393190488961
 20
1.121732272592141
 30
0.0
 10
18.37440485856115
 20
0.5030470212099813
 30
0.0
 10
19.45356774757879
 20
-0.1231345496194802
 30
0.0
 10
20.50239264793697
 20
-0.723801369716301
 30
0.0
 10
21.55061275699103
 20
-1.291494220863853
 30
0.0
 10
22.59757758943843
 20
-1.79601276566996
 30
0.0
 10
23.64474212072558
 20
-2.224158650631547
 30
0.0
 10
24.34354180421848
 20
-2.418002819122808
 30
0.0
 10
24.69328832126949
 20
-2.515021069677227
 30
0.0
  0
LINE
  5
C1
330
1F
100
AcDbEntity
  8
외형선
  6
Continuous
 62
     1
370
    15
100
AcDbLine
 10
24.69328832126949
 20
-2.515021069677227
 30
0.0
 11
24.69328832126949
 21
0.2391084271250465
 31
0.0
  0
SPLINE
  5
C2
330
1F
100
AcDbEntity
  8
외형선
  6
Continuous
 62
     1
370
    15
100
AcDbSpline
210
0.0
220
0.0
230
1.0
 70
     8
 71
     3
 72
    17
 73
    13
 74
     0
 42
0.000000001
 43
0.00000001
 40
0.0
 40
0.0
 40
0.0
 40
0.0
 40
0.1132837943542479
 40
0.2264372692720243
 40
0.3395261678016189
 40
0.4526169342813746
 40
0.5657759927260413
 40
0.6790684118454552
 40
0.7923431704953895
 40
0.896036524020824
 40
0.9996631159845736
 40
1.0
 40
1.0
 40
1.0
 40
1.0
 10
24.69328832126949
 20
0.239108427125046
 30
0.0
 10
24.31181521302357
 20
0.4570279096092345
 30
0.0
 10
23.54930783565058
 20
0.8926161843150242
 30
0.0
 10
22.406351295399
 20
1.492697459606981
 30
0.0
 10
21.26414946110793
 20
2.00979869108349
 30
0.0
 10
20.12192514888477
 20
2.41378638459328
 30
0.0
 10
18.97890284868038
 20
2.682674379163613
 30
0.0
 10
17.83488750748842
 20
2.799813496204355
 30
0.0
 10
16.72274247480016
 20
2.764626308108868
 30
0.0
 10
15.6436963767221
 20
2.577233093695829
 30
0.0
 10
14.9449684974682
 20
2.405415158841917
 30
0.0
 10
14.59500370703409
 20
2.272062687662149
 30
0.0
 10
14.59386967854235
 20
2.27163057132961
 30
0.0
  0
SPLINE
  5
C3
330
1F
100
AcDbEntity
  8
외형선
  6
Continuous
 62
     1
370
    15
100
AcDbSpline
210
0.0
220
0.0
230
1.0
 70
     8
 71
     3
 72
    13
 73
     9
 74
     0
 42
0.000000001
 43
0.00000001
 40
0.0
 40
0.0
 40
0.0
 40
0.0
 40
0.0388527519686095
 40
0.2313368280629707
 40
0.4236212431828797
 40
0.6155961385905445
 40
0.8076073661097014
 40
0.9999999999999999
 40
0.9999999999999999
 40
0.9999999999999999
 40
0.9999999999999999
 10
19.24115260781961
 20
2.768598444186981
 30
0.0
 10
19.31174786127314
 20
2.771892686121722
 30
0.0
 10
19.73208570564093
 20
2.791507242142643
 30
0.0
 10
20.50241547196486
 20
2.698568631816454
 30
0.0
 10
21.5506066571137
 20
2.487356430752769
 30
0.0
 10
22.59757921520188
 20
2.146131149900827
 30
0.0
 10
23.64474171331056
 20
1.710448566393874
 30
0.0
 10
24.3435416683237
 20
1.35619083520349
 30
0.0
 10
24.69328832126949
 20
1.178886221951644
 30
0.0
  0
LINE
  5
C4
330
1F
100
AcDbEntity
  8
외형선
  6
Continuous
 62
     1
370
    15
100
AcDbLine
 10
24.69328832126949
 20
0.2391084271250465
 30
0.0
 11
24.69328832126949
 21
1.178886221951644
 31
0.0
  0
SPLINE
  5
C5
330
1F
100
AcDbEntity
  8
외형선
  6
Continuous
 62
     1
370
    15
100
AcDbSpline
210
0.0
220
0.0
230
1.0
 70
     8
 71
     3
 72
    11
 73
     7
 74
     0
 42
0.000000001
 43
0.00000001
 40
0.0
 40
0.0
 40
0.0
 40
0.0
 40
0.2726974250973525
 40
0.5454570640038339
 40
0.8184386543391237
 40
0.9999999999999999
 40
0.9999999999999999
 40
0.9999999999999999
 40
0.9999999999999999
 10
10.40578832126949
 20
-2.679675250319626
 30
0.0
 10
10.78642350587122
 20
-2.723034300903201
 30
0.0
 10
11.5477807140491
 20
-2.809762294102504
 30
0.0
 10
12.69020540439955
 20
-2.737002825251049
 30
0.0
 10
13.70556870219397
 20
-2.56207724442605
 30
0.0
 10
14.34032458339292
 20
-2.352995667881074
 30
0.0
 10
14.59386967854232
 20
-2.269480713881824
 30
0.0
  0
SPLINE
  5
C6
330
1F
100
AcDbEntity
  8
외형선
  6
Continuous
370
    15
100
AcDbSpline
210
0.0
220
0.0
230
1.0
 70
    24
 71
     3
 72
    20
 73
    16
 74
     0
 42
0.000000001
 43
0.00000001
 40
0.0
 40
0.0
 40
0.0
 40
0.0
 40
0.0480980153596209
 40
0.1285370433701037
 40
0.2067090771064853
 40
0.2871481051169711
 40
0.3653201388534271
 40
0.4457591668638369
 40
0.5239312006001624
 40
0.6043702286105878
 40
0.6825422623470242
 40
0.7629812903575709
 40
0.8411533240937791
 40
0.921592352104436
 40
0.9999999999999999
 40
0.9999999999999999
 40
0.9999999999999999
 40
0.9999999999999999
 10
10.4057883212695
 20
-0.1185791296424777
 30
0.0
 10
10.4057883212695
 20
-0.1189285525392797
 30
0.0
 10
10.4057883212695
 20
-0.1198623496139599
 30
0.0
 10
10.4057883212695
 20
-0.1742286315332705
 30
0.0
 10
10.40578832126949
 20
-0.2753031627831968
 30
0.0
 10
10.40578832126946
 20
-0.4199627890092748
 30
0.0
 10
10.40578832126951
 20
-0.6041749493847989
 30
0.0
 10
10.40578832126951
 20
-0.8200904488833426
 30
0.0
 10
10.4057883212695
 20
-1.065298289984062
 30
0.0
 10
10.40578832126944
 20
-1.32850525093718
 30
0.0
 10
10.40578832126953
 20
-1.606940991045197
 30
0.0
 10
10.40578832126943
 20
-1.887882140828225
 30
0.0
 10
10.40578832126949
 20
-2.16781297873739
 30
0.0
 10
10.4057883212695
 20
-2.436345558297183
 30
0.0
 10
10.40578832126949
 20
-2.599259818858104
 30
0.0
 10
10.40578832126949
 20
-2.679675250319624
 30
0.0
  0
SPLINE
  5
C7
330
1F
100
AcDbEntity
  8
외형선
  6
Continuous
 62
     1
370
    15
100
AcDbSpline
210
0.0
220
0.0
230
1.0
 70
     8
 71
     3
 72
    10
 73
     6
 74
     0
 42
0.000000001
 43
0.00000001
 40
0.0
 40
0.0
 40
0.0
 40
0.0
 40
0.4533087230087785
 40
0.9060959686282545
 40
1.0
 40
1.0
 40
1.0
 40
1.0
 10
24.69328832126949
 20
2.768983628313518
 30
0.0
 10
24.31181625804565
 20
2.733061961898246
 30
0.0
 10
23.54931096951466
 20
2.66125995264228
 30
0.0
 10
22.70803957394112
 20
2.467109994928353
 30
0.0
 10
22.24816759651884
 20
2.296839877979386
 30
0.0
 10
22.1691763368951
 20
2.267592931710839
 30
0.0
  0
LINE
  5
C8
330
1F
100
AcDbEntity
  8
외형선
  6
Continuous
 62
     1
370
    15
100
AcDbLine
 10
24.69328832126949
 20
1.178886221951644
 30
0.0
 11
24.69328832126949
 21
2.768983628313518
 31
0.0
  0
LINE
  5
C9
330
1F
100
AcDbEntity
  8
중심선
 62
     1
100
AcDbLine
 10
-40.21921167873051
 20
0.0010749287238892
 30
0.0
 11
27.69328832126951
 21
0.0010749287238976
 31
0.0
  0
LINE
  5
CA
330
1F
100
AcDbEntity
  8
참조1
100
AcDbLine
 10
-6.262961678730501
 20
0.0010749287238892
 30
0.0
 11
-6.262961678730496
 21
-39.99892507127611
 31
0.0
  0
LINE
  5
CB
330
1F
100
AcDbEntity
  8
참조1
100
AcDbLine
 10
-6.262961678730496
 20
-39.99892507127611
 30
0.0
 11
-23.00931849303918
 21
-39.9989250712761
 31
0.0
  0
CIRCLE
  5
CC
330
1F
100
AcDbEntity
  8
해칭선
100
AcDbCircle
 10
0.0
 20
0.0
 30
0.0
 40
3.000000000000002
  0
INSERT
  5
CD
330
1F
100
AcDbEntity
  8
0
  6
Continuous
 62
     7
100
AcDbBlockReference
 66
     1
  2
블럭10
 10
-20.20323461085571
 20
-52.04609937292004
 30
0.0
  0
ATTRIB
  5
CE
330
CD
100
AcDbEntity
  8
FORMAT
 62
     2
100
AcDbText
 10
-29.38452989959699
 20
-49.97073246008785
 30
0.0
 40
4.233333333333333
  1
E2039014 [ 4 FLUTE ]
 41
0.75
  7
SLDTEXTSTYLE0
 11
-29.38452989959699
 21
-52.08739912675452
 31
0.0
100
AcDbAttribute
  2
AUTOATTR0
 70
     0
 74
     1
  0
SEQEND
  5
CF
330
CD
100
AcDbEntity
  8
0
  6
Continuous
 62
     7
  0
HATCH
  5
D0
330
1F
100
AcDbEntity
  8
중심선
100
AcDbHatch
 10
0.0
 20
0.0
 30
0.0
210
0.0
220
0.0
230
1.0
  2
SOLID
 70
     1
 71
     0
 91
        1
 92
        0
 93
        4
 72
     1
 10
-14.48832530647486
 20
-35.7989250712761
 11
-17.93460055031214
 21
-35.7989250712761
 72
     1
 10
-17.93460055031214
 20
-35.7989250712761
 11
-20.06283040951616
 21
-38.3352506518487
 72
     1
 10
-20.06283040951616
 20
-38.3352506518487
 11
-16.61652208056573
 21
-38.33521122254621
 72
     1
 10
-16.61652208056573
 20
-38.33521122254621
 11
-14.48832530647486
 21
-35.7989250712761
 97
        0
 75
     0
 76
     1
 98
        1
 10
-1.374815328507794
 20
0.0
  0
HATCH
  5
D1
330
1F
100
AcDbEntity
  8
중심선
100
AcDbHatch
 10
0.0
 20
0.0
 30
0.0
210
0.0
220
0.0
230
1.0
  2
SOLID
 70
     1
 71
     0
 91
        1
 92
        0
 93
        4
 72
     1
 10
-9.475561315438878
 20
-35.7989250712761
 11
-12.92183655927616
 21
-35.7989250712761
 72
     1
 10
-12.92183655927616
 20
-35.7989250712761
 11
-17.45297456763358
 21
-41.19892507127612
 72
     1
 10
-17.45297456763358
 20
-41.19892507127612
 11
-14.00669932379629
 21
-41.19892507127612
 72
     1
 10
-14.00669932379629
 20
-41.19892507127612
 11
-9.475561315438878
 21
-35.7989250712761
 97
        0
 75
     0
 76
     1
 98
        1
 10
-1.374815328507794
 20
0.0
  0
HATCH
  5
D2
330
1F
100
AcDbEntity
  8
중심선
100
AcDbHatch
 10
0.0
 20
0.0
 30
0.0
210
0.0
220
0.0
230
1.0
  2
SOLID
 70
     1
 71
     0
 91
        1
 92
        0
 93
        4
 72
     1
 10
-4.462797324403038
 20
-35.79892507127613
 11
-7.909072568240126
 21
-35.79892507127608
 72
     1
 10
-7.909072568240126
 20
-35.79892507127608
 11
-14.95750947012938
 21
-44.19892507127612
 72
     1
 10
-14.95750947012938
 20
-44.19892507127612
 11
-11.51123422629209
 21
-44.19892507127612
 72
     1
 10
-11.51123422629209
 20
-44.19892507127612
 11
-4.462797324403038
 21
-35.79892507127613
 97
        0
 75
     0
 76
     1
 98
        1
 10
-1.374815328507794
 20
0.0
  0
HATCH
  5
D3
330
1F
100
AcDbEntity
  8
중심선
100
AcDbHatch
 10
0.0
 20
0.0
 30
0.0
210
0.0
220
0.0
230
1.0
  2
SOLID
 70
     1
 71
     0
 91
        1
 92
        0
 93
        6
 72
     3
 10
0.3370931066091887
 20
-39.99892507132738
 11
3.960054785062284
 21
1.540882976769353E-10
 40
0.3939339440162627
 50
17.09539180608439
 51
320.0019657685082
 73
     0
 72
     1
 10
2.020092762309784
 20
-38.58681907591441
 11
4.32539463601085
 21
-36.65249236586646
 72
     3
 10
0.3370931065563421
 20
-39.99892507127625
 11
6.600054785286829
 21
-1.278976924368180E-13
 40
0.636358354079598
 50
39.99873849337413
 51
368.4976242363725
 73
     1
 72
     1
 10
6.762425598456952
 20
-39.03892507120613
 11
-0.9828395866077075
 21
-39.03892507120613
 72
     1
 10
-0.9828395866077078
 20
-39.03892507120613
 11
-0.9828646310536693
 21
-40.95892507120602
 72
     1
 10
-0.9828646310536693
 20
-40.95892507120602
 11
3.458515138418368
 21
-40.95892507120599
 97
        0
 75
     0
 76
     1
 98
        1
 10
-1.374815328507794
 20
0.0
  0
DIMENSION
  5
D4
330
1F
100
AcDbEntity
  8
치수문자_일반주서
100
AcDbDimension
  2
_D
 10
10.40578832126948
 20
15.61462900425996
 30
0.0
 11
-6.458711678730518
 21
15.61462900425996
 31
0.0
 70
   160
  1
<>
 71
     2
 42
14.28750000000001
  3
SLDDIMSTYLE0
100
AcDbAlignedDimension
 13
24.69328832126949
 23
2.768983628313518
 33
0.0
 14
10.40578832126948
 24
2.768817880298341
 34
0.0
100
AcDbRotatedDimension
1001
ACAD
1000
DSTYLE
1002
{
1070
   171
1070
     6
1070
   273
1070
     7
1002
}
  0
DIMENSION
  5
E9
330
1F
100
AcDbEntity
  8
치수문자_일반주서
100
AcDbDimension
  2
_D_1
 10
-37.2192116787305
 20
31.67102671206509
 30
0.0
 11
-6.262961678730512
 21
31.67102671206509
 31
0.0
 70
   160
  1
<>
 71
     2
 42
61.91249999999999
  3
SLDDIMSTYLE0
100
AcDbAlignedDimension
 13
24.69328832126949
 23
2.768983628313518
 33
0.0
 14
-37.2192116787305
 24
3.811074928723895
 34
0.0
 50
0.0000000000000066
100
AcDbRotatedDimension
1001
ACAD
1000
DSTYLE
1002
{
1070
   171
1070
     6
1070
   273
1070
     7
1002
}
  0
DIMENSION
  5
FC
330
1F
100
AcDbEntity
  8
치수문자_일반주서
100
AcDbDimension
  2
_D_2
 10
-48.51998451655768
 20
-4.761425071276156
 30
0.0
 11
-48.51998451655771
 21
0.0010749287238959
 31
0.0
 70
   160
  1
%%c<>
 71
     2
 42
9.525000000000006
 52
-270.0
  3
SLDDIMSTYLE1
100
AcDbAlignedDimension
 13
-36.26671167873051
 23
4.763574928723896
 33
0.0
 14
-36.26671167873051
 24
-4.761425071276109
 34
0.0
 50
90.0000000000002
100
AcDbRotatedDimension
1001
ACAD
1000
DSTYLE
1002
{
1070
   171
1070
     6
1070
   273
1070
     7
1002
}
  0
LINE
  5
125
330
1F
100
AcDbEntity
  8
참조1
100
AcDbLine
 10
74.96302213661508
 20
7.441074928723896
 30
0.0
 11
74.96302213661508
 21
-7.438925071276109
 31
0.0
  0
LINE
  5
126
330
1F
100
AcDbEntity
  8
참조1
100
AcDbLine
 10
87.66302213661508
 20
5.441074928723896
 30
0.0
 11
74.96302213661508
 21
5.441074928723896
 31
0.0
  0
SOLID
  5
127
330
1F
100
AcDbEntity
  8
참조1
100
AcDbTrace
 10
74.96302213661508
 20
5.441074928723896
 30
0.0
 11
81.31302213661507
 21
4.425074928723896
 31
0.0
 12
81.31302213661507
 22
6.457074928723896
 32
0.0
 13
81.31302213661507
 23
6.457074928723896
 33
0.0
  0
LINE
  5
128
330
1F
100
AcDbEntity
  8
참조1
100
AcDbLine
 10
87.66302213661508
 20
-5.438925071276109
 30
0.0
 11
74.96302213661508
 21
-5.438925071276109
 31
0.0
  0
SOLID
  5
129
330
1F
100
AcDbEntity
  8
참조1
100
AcDbTrace
 10
74.96302213661508
 20
-5.438925071276109
 30
0.0
 11
81.31302213661507
 21
-6.454925071276109
 31
0.0
 12
81.31302213661507
 22
-4.422925071276109
 32
0.0
 13
81.31302213661507
 23
-4.422925071276109
 33
0.0
  0
MTEXT
  5
12A
330
1F
100
AcDbEntity
  8
참조1
100
AcDbMText
 10
84.34737226924108
 20
11.01136670591222
 30
0.0
 40
3.5
 41
0.0
 71
     1
 72
     1
  1
A
  7
SLDTEXTSTYLE0
 73
     1
 44
1.0
  0
MTEXT
  5
12B
330
1F
100
AcDbEntity
  8
참조1
100
AcDbMText
 10
84.34737226924108
 20
0.1313667059122201
 30
0.0
 40
3.5
 41
0.0
 71
     1
 72
     1
  1
A
  7
SLDTEXTSTYLE0
 73
     1
 44
1.0
  0
INSERT
  5
132
330
1F
100
AcDbEntity
  8
해칭선
100
AcDbBlockReference
  2
SW_DOWELSYMBOL_0
 10
0.0
 20
0.0
 30
0.0
  0
LINE
  5
158
102
{ACAD_REACTORS
102
}
330
1F
100
AcDbEntity
  8
0
 62
     1
100
AcDbLine
 10
24.69328832126949
 20
2.779199928723898
 30
0.0
 11
24.69328832126949
 21
-2.777050071276102
 31
0.0
  0
DIMENSION
  5
159
102
{ACAD_REACTORS
102
}
102
{ACAD_XDICTIONARY
360
15A
102
}
330
1F
100
AcDbEntity
  8
치수문자_일반주서
100
AcDbDimension
  2
*D7
 10
36.04203928506041
 20
-2.777050071276101
 30
0.0
 11
36.04203928506041
 21
23.8206999287239
 31
0.0
 70
   160
  1
{%%C<>[]}
 71
     5
 42
5.55625
  3
SLDDIMSTYLE0
100
AcDbAlignedDimension
 13
24.69328832126949
 23
2.779199928723898
 33
0.0
 14
24.69328832126949
 24
-2.777050071276102
 34
0.0
 50
90.0
100
AcDbRotatedDimension
1001
ACAD
1000
DSTYLE
1002
{
1070
   283
1070
     1
1070
   170
1070
     1
1070
   171
1070
     6
1070
   273
1070
     7
1002
}
  0
LINE
  5
1A8
330
1F
100
AcDbEntity
  8
외형선
  6
Continuous
370
    15
100
AcDbLine
 10
-20.94416167873062
 20
3.493574928723898
 30
0.0
 11
-13.8067616787305
 21
3.493574928723898
 31
0.0
  0
LINE
  5
1A9
330
1F
100
AcDbEntity
  8
외형선
  6
Continuous
370
    15
100
AcDbLine
 10
-20.94416167873062
 20
3.493574928723898
 30
0.0
 11
-22.2141616787306
 21
4.76357492872388
 31
0.0
  0
LINE
  5
1AA
330
1F
100
AcDbEntity
  8
외형선
  6
Continuous
370
    15
100
AcDbLine
 10
-13.8067616787305
 20
3.493574928723898
 30
0.0
 11
-12.5367616787304
 21
4.76357492872388
 31
0.0
  0
LINE
  5
1AB
330
1F
100
AcDbEntity
  8
외형선
  6
Continuous
370
    15
100
AcDbLine
 10
-22.21416167873062
 20
4.763574928723895
 30
0.0
 11
-36.26671167873051
 21
4.763574928723895
 31
0.0
  0
ENDSEC
  0
SECTION
  2
OBJECTS
  0
DICTIONARY
  5
C
330
0
100
AcDbDictionary
281
     1
  3
ACAD_GROUP
350
D
  3
ACAD_IMAGE_VARS
350
156
  3
ACAD_LAYOUT
350
1A
  3
ACAD_MLINESTYLE
350
17
  3
ACAD_PLOTSETTINGS
350
19
  3
ACAD_PLOTSTYLENAME
350
E
  3
ACAD_SCALELIST
350
47
  3
APPDATA
350
154
  3
DWGPROPS
350
1AC
  0
DICTIONARY
  5
199
330
2
100
AcDbDictionary
280
     1
281
     1
  3
ACAD_LAYERSTATES
360
19A
  0
DICTIONARY
  5
15A
330
159
100
AcDbDictionary
280
     1
281
     1
  0
DICTIONARY
  5
D
102
{ACAD_REACTORS
330
C
102
}
330
C
100
AcDbDictionary
281
     1
  0
RASTERVARIABLES
  5
156
102
{ACAD_REACTORS
330
C
102
}
330
C
100
AcDbRasterVariables
 90
        0
 70
     1
 71
     1
 72
     1
  0
DICTIONARY
  5
1A
102
{ACAD_REACTORS
330
C
102
}
330
C
100
AcDbDictionary
281
     1
  3
Layout1
350
1E
  3
Layout2
350
26
  3
Model
350
22
  0
DICTIONARY
  5
17
102
{ACAD_REACTORS
330
C
102
}
330
C
100
AcDbDictionary
281
     1
  3
Standard
350
18
  0
DICTIONARY
  5
19
102
{ACAD_REACTORS
330
C
102
}
330
C
100
AcDbDictionary
281
     1
  0
ACDBDICTIONARYWDFLT
  5
E
102
{ACAD_REACTORS
330
C
102
}
330
C
100
AcDbDictionary
281
     1
  3
Normal
350
F
100
AcDbDictionaryWithDefault
340
F
  0
DICTIONARY
  5
47
102
{ACAD_REACTORS
330
C
102
}
330
C
100
AcDbDictionary
281
     1
  3
A0
350
48
  3
A1
350
49
  3
A2
350
4A
  3
A3
350
4B
  3
A4
350
4C
  3
A5
350
4D
  3
A6
350
4E
  3
A7
350
4F
  3
A8
350
50
  3
A9
350
51
  3
B0
350
52
  3
B1
350
53
  3
B2
350
54
  3
B3
350
55
  3
B4
350
56
  3
B5
350
57
  3
B6
350
58
  3
B7
350
59
  3
B8
350
5A
  3
B9
350
5B
  3
C0
350
5C
  3
C1
350
5D
  3
C2
350
5E
  3
C3
350
5F
  3
C4
350
60
  3
C5
350
61
  3
C6
350
62
  3
C7
350
63
  3
C8
350
64
  3
C9
350
65
  3
D0
350
66
  3
D1
350
67
  3
D2
350
68
  0
DICTIONARY
  5
154
102
{ACAD_REACTORS
330
C
102
}
330
C
100
AcDbDictionary
281
     1
  0
XRECORD
  5
1AC
102
{ACAD_REACTORS
330
C
102
}
330
C
100
AcDbXrecord
280
     1
  1
DWGPROPS COOKIE
  2

  3

  4

  6

  7

  8
12016016
  9

300
=
301
=
302
=
303
=
304
=
305
=
306
=
307
=
308
=
309
=
 40
0.0
 41
2458312.30258669
 42
2458319.191798299
  1

 90
        0
  0
DICTIONARY
  5
19A
102
{ACAD_REACTORS
330
199
102
}
330
199
100
AcDbDictionary
281
     1
  0
LAYOUT
  5
1E
102
{ACAD_REACTORS
330
1A
102
}
330
1A
100
AcDbPlotSettings
  1

  2
none_device
  4

  6

 40
0.0
 41
0.0
 42
0.0
 43
0.0
 44
0.0
 45
0.0
 46
0.0
 47
0.0
 48
0.0
 49
0.0
140
0.0
141
0.0
142
1.0
143
1.0
 70
   688
 72
     1
 73
     0
 74
     5
  7

 75
    16
147
1.0
148
0.0
149
0.0
100
AcDbLayout
  1
Layout1
 70
     1
 71
     1
 10
0.0
 20
0.0
 11
420.0
 21
297.0
 12
0.0
 22
0.0
 32
0.0
 14
1.000000000000000E+20
 24
1.000000000000000E+20
 34
1.000000000000000E+20
 15
-1.000000000000000E+20
 25
-1.000000000000000E+20
 35
-1.000000000000000E+20
146
0.0
 13
0.0
 23
0.0
 33
0.0
 16
1.0
 26
0.0
 36
0.0
 17
0.0
 27
1.0
 37
0.0
 76
     0
330
1B
  0
LAYOUT
  5
26
102
{ACAD_REACTORS
330
1A
102
}
330
1A
100
AcDbPlotSettings
  1

  2
none_device
  4

  6

 40
0.0
 41
0.0
 42
0.0
 43
0.0
 44
0.0
 45
0.0
 46
0.0
 47
0.0
 48
0.0
 49
0.0
140
0.0
141
0.0
142
1.0
143
1.0
 70
   688
 72
     1
 73
     0
 74
     5
  7

 75
    16
147
1.0
148
0.0
149
0.0
100
AcDbLayout
  1
Layout2
 70
     1
 71
     2
 10
0.0
 20
0.0
 11
0.0
 21
0.0
 12
0.0
 22
0.0
 32
0.0
 14
0.0
 24
0.0
 34
0.0
 15
0.0
 25
0.0
 35
0.0
146
0.0
 13
0.0
 23
0.0
 33
0.0
 16
1.0
 26
0.0
 36
0.0
 17
0.0
 27
1.0
 37
0.0
 76
     0
330
23
  0
LAYOUT
  5
22
102
{ACAD_REACTORS
330
1A
102
}
330
1A
100
AcDbPlotSettings
  1

  2
none_device
  4
ANSI_A_(11.00_x_8.50_Inches)
  6

 40
6.35
 41
19.05
 42
6.35000508
 43
19.05000254
 44
279.4
 45
215.9
 46
104.0853757014623
 47
96.66391831028906
 48
0.0
 49
0.0
140
0.0
141
0.0
142
0.0740937858640012
143
1.0
 70
  1696
 72
     0
 73
     0
 74
     0
  7

 75
     0
147
0.0235690232323232
148
0.0
149
0.0
100
AcDbLayout
  1
Model
 70
     1
 71
     0
 10
0.0
 20
0.0
 11
420.0
 21
297.0
 12
0.0
 22
0.0
 32
0.0
 14
1.000000000000000E+20
 24
1.000000000000000E+20
 34
1.000000000000000E+20
 15
-1.000000000000000E+20
 25
-1.000000000000000E+20
 35
-1.000000000000000E+20
146
0.0
 13
0.0
 23
0.0
 33
0.0
 16
1.0
 26
0.0
 36
0.0
 17
0.0
 27
1.0
 37
0.0
 76
     0
330
1F
331
29
  0
MLINESTYLE
  5
18
102
{ACAD_REACTORS
330
17
102
}
330
17
100
AcDbMlineStyle
  2
Standard
 70
     0
  3

 62
   256
 51
90.0
 52
90.0
 71
     2
 49
0.5
 62
   256
  6
BYLAYER
 49
-0.5
 62
   256
  6
BYLAYER
  0
ACDBPLACEHOLDER
  5
F
102
{ACAD_REACTORS
330
E
102
}
330
E
  0
SCALE
  5
48
102
{ACAD_REACTORS
330
47
102
}
330
47
100
AcDbScale
 70
     0
300
1:1
140
1.0
141
1.0
290
     1
  0
SCALE
  5
49
102
{ACAD_REACTORS
330
47
102
}
330
47
100
AcDbScale
 70
     0
300
1:2
140
1.0
141
2.0
290
     0
  0
SCALE
  5
4A
102
{ACAD_REACTORS
330
47
102
}
330
47
100
AcDbScale
 70
     0
300
1:4
140
1.0
141
4.0
290
     0
  0
SCALE
  5
4B
102
{ACAD_REACTORS
330
47
102
}
330
47
100
AcDbScale
 70
     0
300
1:5
140
1.0
141
5.0
290
     0
  0
SCALE
  5
4C
102
{ACAD_REACTORS
330
47
102
}
330
47
100
AcDbScale
 70
     0
300
1:8
140
1.0
141
8.0
290
     0
  0
SCALE
  5
4D
102
{ACAD_REACTORS
330
47
102
}
330
47
100
AcDbScale
 70
     0
300
1:10
140
1.0
141
10.0
290
     0
  0
SCALE
  5
4E
102
{ACAD_REACTORS
330
47
102
}
330
47
100
AcDbScale
 70
     0
300
1:16
140
1.0
141
16.0
290
     0
  0
SCALE
  5
4F
102
{ACAD_REACTORS
330
47
102
}
330
47
100
AcDbScale
 70
     0
300
1:20
140
1.0
141
20.0
290
     0
  0
SCALE
  5
50
102
{ACAD_REACTORS
330
47
102
}
330
47
100
AcDbScale
 70
     0
300
1:30
140
1.0
141
30.0
290
     0
  0
SCALE
  5
51
102
{ACAD_REACTORS
330
47
102
}
330
47
100
AcDbScale
 70
     0
300
1:40
140
1.0
141
40.0
290
     0
  0
SCALE
  5
52
102
{ACAD_REACTORS
330
47
102
}
330
47
100
AcDbScale
 70
     0
300
1:50
140
1.0
141
50.0
290
     0
  0
SCALE
  5
53
102
{ACAD_REACTORS
330
47
102
}
330
47
100
AcDbScale
 70
     0
300
1:100
140
1.0
141
100.0
290
     0
  0
SCALE
  5
54
102
{ACAD_REACTORS
330
47
102
}
330
47
100
AcDbScale
 70
     0
300
2:1
140
2.0
141
1.0
290
     0
  0
SCALE
  5
55
102
{ACAD_REACTORS
330
47
102
}
330
47
100
AcDbScale
 70
     0
300
4:1
140
4.0
141
1.0
290
     0
  0
SCALE
  5
56
102
{ACAD_REACTORS
330
47
102
}
330
47
100
AcDbScale
 70
     0
300
8:1
140
8.0
141
1.0
290
     0
  0
SCALE
  5
57
102
{ACAD_REACTORS
330
47
102
}
330
47
100
AcDbScale
 70
     0
300
10:1
140
10.0
141
1.0
290
     0
  0
SCALE
  5
58
102
{ACAD_REACTORS
330
47
102
}
330
47
100
AcDbScale
 70
     0
300
100:1
140
100.0
141
1.0
290
     0
  0
SCALE
  5
59
102
{ACAD_REACTORS
330
47
102
}
330
47
100
AcDbScale
 70
     0
300
1/128" = 1'-0"
140
0.0078125
141
12.0
290
     0
  0
SCALE
  5
5A
102
{ACAD_REACTORS
330
47
102
}
330
47
100
AcDbScale
 70
     0
300
1/64" = 1'-0"
140
0.015625
141
12.0
290
     0
  0
SCALE
  5
5B
102
{ACAD_REACTORS
330
47
102
}
330
47
100
AcDbScale
 70
     0
300
1/32" = 1'-0"
140
0.03125
141
12.0
290
     0
  0
SCALE
  5
5C
102
{ACAD_REACTORS
330
47
102
}
330
47
100
AcDbScale
 70
     0
300
1/16" = 1'-0"
140
0.0625
141
12.0
290
     0
  0
SCALE
  5
5D
102
{ACAD_REACTORS
330
47
102
}
330
47
100
AcDbScale
 70
     0
300
3/32" = 1'-0"
140
0.09375
141
12.0
290
     0
  0
SCALE
  5
5E
102
{ACAD_REACTORS
330
47
102
}
330
47
100
AcDbScale
 70
     0
300
1/8" = 1'-0"
140
0.125
141
12.0
290
     0
  0
SCALE
  5
5F
102
{ACAD_REACTORS
330
47
102
}
330
47
100
AcDbScale
 70
     0
300
3/16" = 1'-0"
140
0.1875
141
12.0
290
     0
  0
SCALE
  5
60
102
{ACAD_REACTORS
330
47
102
}
330
47
100
AcDbScale
 70
     0
300
1/4" = 1'-0"
140
0.25
141
12.0
290
     0
  0
SCALE
  5
61
102
{ACAD_REACTORS
330
47
102
}
330
47
100
AcDbScale
 70
     0
300
3/8" = 1'-0"
140
0.375
141
12.0
290
     0
  0
SCALE
  5
62
102
{ACAD_REACTORS
330
47
102
}
330
47
100
AcDbScale
 70
     0
300
1/2" = 1'-0"
140
0.5
141
12.0
290
     0
  0
SCALE
  5
63
102
{ACAD_REACTORS
330
47
102
}
330
47
100
AcDbScale
 70
     0
300
3/4" = 1'-0"
140
0.75
141
12.0
290
     0
  0
SCALE
  5
64
102
{ACAD_REACTORS
330
47
102
}
330
47
100
AcDbScale
 70
     0
300
1" = 1'-0"
140
1.0
141
12.0
290
     0
  0
SCALE
  5
65
102
{ACAD_REACTORS
330
47
102
}
330
47
100
AcDbScale
 70
     0
300
1-1/2" = 1'-0"
140
1.5
141
12.0
290
     0
  0
SCALE
  5
66
102
{ACAD_REACTORS
330
47
102
}
330
47
100
AcDbScale
 70
     0
300
3" = 1'-0"
140
3.0
141
12.0
290
     0
  0
SCALE
  5
67
102
{ACAD_REACTORS
330
47
102
}
330
47
100
AcDbScale
 70
     0
300
6" = 1'-0"
140
6.0
141
12.0
290
     0
  0
SCALE
  5
68
102
{ACAD_REACTORS
330
47
102
}
330
47
100
AcDbScale
 70
     0
300
1'-0" = 1'-0"
140
12.0
141
12.0
290
     0
  0
ENDSEC
  0
EOF
