  0
SECTION
  2
HEADER
  9
$ACADVER
  1
AC1015
  9
$ACADMAINTVER
 70
     6
  9
$DWGCODEPAGE
  3
ANSI_949
  9
$INSBASE
 10
0.0
 20
0.0
 30
0.0
  9
$EXTMIN
 10
1.000000000000000E+20
 20
1.000000000000000E+20
 30
1.000000000000000E+20
  9
$EXTMAX
 10
-1.000000000000000E+20
 20
-1.000000000000000E+20
 30
-1.000000000000000E+20
  9
$LIMMIN
 10
0.0
 20
0.0
  9
$LIMMAX
 10
420.0
 20
297.0
  9
$ORTHOMODE
 70
     1
  9
$REGENMODE
 70
     1
  9
$FILLMODE
 70
     1
  9
$QTEXTMODE
 70
     0
  9
$MIRRTEXT
 70
     1
  9
$LTSCALE
 40
1.0
  9
$ATTMODE
 70
     1
  9
$TEXTSIZE
 40
3.5
  9
$TRACEWID
 40
1.0
  9
$TEXTSTYLE
  7
Standard
  9
$CLAYER
  8
0
  9
$CELTYPE
  6
ByLayer
  9
$CECOLOR
 62
   256
  9
$CELTSCALE
 40
1.0
  9
$DISPSILH
 70
     0
  9
$DIMSCALE
 40
1.0
  9
$DIMASZ
 40
3.302
  9
$DIMEXO
 40
1.0
  9
$DIMDLI
 40
3.75
  9
$DIMRND
 40
0.0
  9
$DIMDLE
 40
0.0
  9
$DIMEXE
 40
1.0
  9
$DIMTP
 40
0.0
  9
$DIMTM
 40
0.0
  9
$DIMTXT
 40
3.5
  9
$DIMCEN
 40
2.5
  9
$DIMTSZ
 40
0.0
  9
$DIMTOL
 70
     0
  9
$DIMLIM
 70
     0
  9
$DIMTIH
 70
     1
  9
$DIMTOH
 70
     1
  9
$DIMSE1
 70
     0
  9
$DIMSE2
 70
     0
  9
$DIMTAD
 70
     1
  9
$DIMZIN
 70
     0
  9
$DIMBLK
  1

  9
$DIMASO
 70
     1
  9
$DIMSHO
 70
     1
  9
$DIMPOST
  1

  9
$DIMAPOST
  1

  9
$DIMALT
 70
     0
  9
$DIMALTD
 70
     3
  9
$DIMALTF
 40
0.0393700787401575
  9
$DIMLFAC
 40
1.0
  9
$DIMTOFL
 70
     1
  9
$DIMTVP
 40
0.0
  9
$DIMTIX
 70
     0
  9
$DIMSOXD
 70
     0
  9
$DIMSAH
 70
     0
  9
$DIMBLK1
  1

  9
$DIMBLK2
  1

  9
$DIMSTYLE
  2
ISO-25
  9
$DIMCLRD
 70
     0
  9
$DIMCLRE
 70
     0
  9
$DIMCLRT
 70
     0
  9
$DIMTFAC
 40
1.0
  9
$DIMGAP
 40
1.524
  9
$DIMJUST
 70
     0
  9
$DIMSD1
 70
     0
  9
$DIMSD2
 70
     0
  9
$DIMTOLJ
 70
     0
  9
$DIMTZIN
 70
     0
  9
$DIMALTZ
 70
     0
  9
$DIMALTTZ
 70
     0
  9
$DIMUPT
 70
     0
  9
$DIMDEC
 70
     2
  9
$DIMTDEC
 70
     2
  9
$DIMALTU
 70
     2
  9
$DIMALTTD
 70
     3
  9
$DIMTXSTY
  7
Standard
  9
$DIMAUNIT
 70
     0
  9
$DIMADEC
 70
     2
  9
$DIMALTRND
 40
0.0
  9
$DIMAZIN
 70
     0
  9
$DIMDSEP
 70
    44
  9
$DIMATFIT
 70
     3
  9
$DIMFRAC
 70
     0
  9
$DIMLDRBLK
  1

  9
$DIMLUNIT
 70
     2
  9
$DIMLWD
 70
    -2
  9
$DIMLWE
 70
    -2
  9
$DIMTMOVE
 70
     0
  9
$LUNITS
 70
     2
  9
$LUPREC
 70
     2
  9
$SKETCHINC
 40
1.0
  9
$FILLETRAD
 40
10.0
  9
$AUNITS
 70
     0
  9
$AUPREC
 70
     2
  9
$MENU
  1
.
  9
$ELEVATION
 40
0.0
  9
$PELEVATION
 40
0.0
  9
$THICKNESS
 40
0.0
  9
$LIMCHECK
 70
     0
  9
$CHAMFERA
 40
0.0
  9
$CHAMFERB
 40
0.0
  9
$CHAMFERC
 40
0.0
  9
$CHAMFERD
 40
0.0
  9
$SKPOLY
 70
     0
  9
$TDCREATE
 40
2458312.678433866
  9
$TDUCREATE
 40
2458312.303433866
  9
$TDUPDATE
 40
2458319.584091331
  9
$TDUUPDATE
 40
2458319.209091331
  9
$TDINDWG
 40
0.0008814352
  9
$TDUSRTIMER
 40
2458319.208210069
  9
$USRTIMER
 70
     1
  9
$ANGBASE
 50
0.0
  9
$ANGDIR
 70
     0
  9
$PDMODE
 70
     0
  9
$PDSIZE
 40
-1.0
  9
$PLINEWID
 40
0.0
  9
$SPLFRAME
 70
     0
  9
$SPLINETYPE
 70
     6
  9
$SPLINESEGS
 70
     8
  9
$HANDSEED
  5
1A8
  9
$SURFTAB1
 70
     6
  9
$SURFTAB2
 70
     6
  9
$SURFTYPE
 70
     6
  9
$SURFU
 70
     6
  9
$SURFV
 70
     6
  9
$UCSBASE
  2

  9
$UCSNAME
  2

  9
$UCSORG
 10
0.0
 20
0.0
 30
0.0
  9
$UCSXDIR
 10
1.0
 20
0.0
 30
0.0
  9
$UCSYDIR
 10
0.0
 20
1.0
 30
0.0
  9
$UCSORTHOREF
  2

  9
$UCSORTHOVIEW
 70
     0
  9
$UCSORGTOP
 10
0.0
 20
0.0
 30
0.0
  9
$UCSORGBOTTOM
 10
0.0
 20
0.0
 30
0.0
  9
$UCSORGLEFT
 10
0.0
 20
0.0
 30
0.0
  9
$UCSORGRIGHT
 10
0.0
 20
0.0
 30
0.0
  9
$UCSORGFRONT
 10
0.0
 20
0.0
 30
0.0
  9
$UCSORGBACK
 10
0.0
 20
0.0
 30
0.0
  9
$PUCSBASE
  2

  9
$PUCSNAME
  2

  9
$PUCSORG
 10
0.0
 20
0.0
 30
0.0
  9
$PUCSXDIR
 10
1.0
 20
0.0
 30
0.0
  9
$PUCSYDIR
 10
0.0
 20
1.0
 30
0.0
  9
$PUCSORTHOREF
  2

  9
$PUCSORTHOVIEW
 70
     0
  9
$PUCSORGTOP
 10
0.0
 20
0.0
 30
0.0
  9
$PUCSORGBOTTOM
 10
0.0
 20
0.0
 30
0.0
  9
$PUCSORGLEFT
 10
0.0
 20
0.0
 30
0.0
  9
$PUCSORGRIGHT
 10
0.0
 20
0.0
 30
0.0
  9
$PUCSORGFRONT
 10
0.0
 20
0.0
 30
0.0
  9
$PUCSORGBACK
 10
0.0
 20
0.0
 30
0.0
  9
$USERI1
 70
     0
  9
$USERI2
 70
     0
  9
$USERI3
 70
     0
  9
$USERI4
 70
     0
  9
$USERI5
 70
     0
  9
$USERR1
 40
0.0
  9
$USERR2
 40
0.0
  9
$USERR3
 40
0.0
  9
$USERR4
 40
0.0
  9
$USERR5
 40
0.0
  9
$WORLDVIEW
 70
     1
  9
$SHADEDGE
 70
     3
  9
$SHADEDIF
 70
    70
  9
$TILEMODE
 70
     1
  9
$MAXACTVP
 70
    64
  9
$PINSBASE
 10
0.0
 20
0.0
 30
0.0
  9
$PLIMCHECK
 70
     0
  9
$PEXTMIN
 10
1.000000000000000E+20
 20
1.000000000000000E+20
 30
1.000000000000000E+20
  9
$PEXTMAX
 10
-1.000000000000000E+20
 20
-1.000000000000000E+20
 30
-1.000000000000000E+20
  9
$PLIMMIN
 10
0.0
 20
0.0
  9
$PLIMMAX
 10
0.0
 20
0.0
  9
$UNITMODE
 70
     0
  9
$VISRETAIN
 70
     1
  9
$PLINEGEN
 70
     0
  9
$PSLTSCALE
 70
     1
  9
$TREEDEPTH
 70
  3020
  9
$CMLSTYLE
  2
Standard
  9
$CMLJUST
 70
     0
  9
$CMLSCALE
 40
20.0
  9
$PROXYGRAPHICS
 70
     1
  9
$MEASUREMENT
 70
     1
  9
$CELWEIGHT
370
    -1
  9
$ENDCAPS
280
     0
  9
$JOINSTYLE
280
     0
  9
$LWDISPLAY
290
     1
  9
$INSUNITS
 70
     4
  9
$HYPERLINKBASE
  1

  9
$STYLESHEET
  1

  9
$XEDIT
290
     1
  9
$CEPSNTYPE
380
     0
  9
$PSTYLEMODE
290
     1
  9
$FINGERPRINTGUID
  2
{5A201AB1-1763-4390-B762-88D133468588}
  9
$VERSIONGUID
  2
{FAEB1C32-E019-11D5-929B-00C0DF256EC4}
  9
$EXTNAMES
290
     1
  9
$PSVPSCALE
 40
0.0
  9
$OLESTARTUP
290
     0
  0
ENDSEC
  0
SECTION
  2
CLASSES
  0
CLASS
  1
ACDBDICTIONARYWDFLT
  2
AcDbDictionaryWithDefault
  3
ObjectDBX Classes
 90
        0
280
     0
281
     0
  0
CLASS
  1
VISUALSTYLE
  2
AcDbVisualStyle
  3
ObjectDBX Classes
 90
     4095
280
     0
281
     0
  0
CLASS
  1
MATERIAL
  2
AcDbMaterial
  3
ObjectDBX Classes
 90
     1153
280
     0
281
     0
  0
CLASS
  1
SCALE
  2
AcDbScale
  3
ObjectDBX Classes
 90
     1153
280
     0
281
     0
  0
CLASS
  1
SUN
  2
AcDbSun
  3
SCENEOE
 90
     1153
280
     0
281
     0
  0
CLASS
  1
ACDBPLACEHOLDER
  2
AcDbPlaceHolder
  3
ObjectDBX Classes
 90
        0
280
     0
281
     0
  0
CLASS
  1
LAYOUT
  2
AcDbLayout
  3
ObjectDBX Classes
 90
        0
280
     0
281
     0
  0
CLASS
  1
TABLESTYLE
  2
AcDbTableStyle
  3
ObjectDBX Classes
 90
     4095
280
     0
281
     0
  0
CLASS
  1
MLEADERSTYLE
  2
AcDbMLeaderStyle
  3
ACDB_MLEADERSTYLE_CLASS
 90
     4095
280
     0
281
     0
  0
CLASS
  1
RASTERVARIABLES
  2
AcDbRasterVariables
  3
ISM
 90
        0
280
     0
281
     0
  0
CLASS
  1
DIMASSOC
  2
AcDbDimAssoc
  3
"AcDbDimAssoc|Product Desc:     AcDim ARX App For Dimension|Company:          Autodesk, Inc.|WEB Address:      www.autodesk.com"
 90
        0
280
     0
281
     0
  0
ENDSEC
  0
SECTION
  2
TABLES
  0
TABLE
  2
VPORT
  5
8
330
0
100
AcDbSymbolTable
 70
     1
  0
VPORT
  5
29
330
8
100
AcDbSymbolTableRecord
100
AcDbViewportTableRecord
  2
*Active
 70
     0
 10
0.0
 20
0.0
 11
1.0
 21
1.0
 12
16.98177170577205
 22
-13.62010571194144
 13
0.0
 23
0.0
 14
10.0
 24
10.0
 15
10.0
 25
10.0
 16
0.0
 26
0.0
 36
1.0
 17
0.0
 27
0.0
 37
0.0
 40
153.211920409831
 41
1.67311411992263
 42
50.0
 43
0.0
 44
0.0
 50
0.0
 51
0.0
 71
    16
 72
  2000
 73
     1
 74
     3
 75
     0
 76
     0
 77
     0
 78
     0
281
     0
 65
     1
110
0.0
120
0.0
130
0.0
111
1.0
121
0.0
131
0.0
112
0.0
122
1.0
132
0.0
 79
     0
146
0.0
  0
ENDTAB
  0
TABLE
  2
LTYPE
  5
5
330
0
100
AcDbSymbolTable
 70
     6
  0
LTYPE
  5
14
330
5
100
AcDbSymbolTableRecord
100
AcDbLinetypeTableRecord
  2
ByBlock
 70
     0
  3

 72
    65
 73
     0
 40
0.0
  0
LTYPE
  5
15
330
5
100
AcDbSymbolTableRecord
100
AcDbLinetypeTableRecord
  2
ByLayer
 70
     0
  3

 72
    65
 73
     0
 40
0.0
  0
LTYPE
  5
16
330
5
100
AcDbSymbolTableRecord
100
AcDbLinetypeTableRecord
  2
Continuous
 70
     0
  3
Solid line
 72
    65
 73
     0
 40
0.0
  0
LTYPE
  5
6A
330
5
100
AcDbSymbolTableRecord
100
AcDbLinetypeTableRecord
  2
HIDDEN
 70
     0
  3
Hidden __ __ __ __ __ __ __ __ __ __ __ __ __ __
 72
    65
 73
     2
 40
1.905
 49
1.27
 74
     0
 49
-0.635
 74
     0
  0
LTYPE
  5
6B
330
5
100
AcDbSymbolTableRecord
100
AcDbLinetypeTableRecord
  2
PHANTOM
 70
     0
  3
Phantom ______  __  __  ______  __  __  ______
 72
    65
 73
     6
 40
12.7
 49
6.35
 74
     0
 49
-1.27
 74
     0
 49
1.27
 74
     0
 49
-1.27
 74
     0
 49
1.27
 74
     0
 49
-1.27
 74
     0
  0
LTYPE
  5
6C
330
5
100
AcDbSymbolTableRecord
100
AcDbLinetypeTableRecord
  2
CENTER
 70
     0
  3
Center ____ _ ____ _ ____ _ ____ _ ____ _ ____
 72
    65
 73
     4
 40
10.16
 49
6.35
 74
     0
 49
-1.27
 74
     0
 49
1.27
 74
     0
 49
-1.27
 74
     0
  0
LTYPE
  5
6D
330
5
100
AcDbSymbolTableRecord
100
AcDbLinetypeTableRecord
  2
CENTERX2
 70
     0
  3
Center (2x) ________  __  ________  __  _____
 72
    65
 73
     4
 40
20.32
 49
12.7
 74
     0
 49
-2.54
 74
     0
 49
2.54
 74
     0
 49
-2.54
 74
     0
  0
LTYPE
  5
6E
330
5
100
AcDbSymbolTableRecord
100
AcDbLinetypeTableRecord
  2
DOT2
 70
     0
  3
Dot (.5x) ........................................
 72
    65
 73
     2
 40
0.635
 49
0.0
 74
     0
 49
-0.635
 74
     0
  0
ENDTAB
  0
TABLE
  2
LAYER
  5
2
102
{ACAD_XDICTIONARY
360
193
102
}
330
0
100
AcDbSymbolTable
 70
    18
  0
LAYER
  5
10
330
2
100
AcDbSymbolTableRecord
100
AcDbLayerTableRecord
  2
0
 70
     0
 62
     7
  6
Continuous
370
    -3
390
F
  0
LAYER
  5
6F
330
2
100
AcDbSymbolTableRecord
100
AcDbLayerTableRecord
  2
FORMAT
 70
     0
 62
     2
  6
Continuous
370
    -3
390
F
  0
LAYER
  5
70
330
2
100
AcDbSymbolTableRecord
100
AcDbLayerTableRecord
  2
외형선
 70
     0
 62
     4
  6
Continuous
370
    30
390
F
  0
LAYER
  5
71
330
2
100
AcDbSymbolTableRecord
100
AcDbLayerTableRecord
  2
숨은선
 70
     0
 62
     2
  6
HIDDEN
370
    15
390
F
  0
LAYER
  5
72
330
2
100
AcDbSymbolTableRecord
100
AcDbLayerTableRecord
  2
중심선
 70
     0
 62
     1
  6
CENTERX2
370
    -3
390
F
  0
LAYER
  5
73
330
2
100
AcDbSymbolTableRecord
100
AcDbLayerTableRecord
  2
파단선
 70
     0
 62
     4
  6
Continuous
370
    -3
390
F
  0
LAYER
  5
74
330
2
100
AcDbSymbolTableRecord
100
AcDbLayerTableRecord
  2
해칭선
 70
     0
 62
   100
  6
Continuous
370
    -3
390
F
  0
LAYER
  5
75
330
2
100
AcDbSymbolTableRecord
100
AcDbLayerTableRecord
  2
가는실선
 70
     0
 62
     4
  6
Continuous
370
    -3
390
F
  0
LAYER
  5
76
330
2
100
AcDbSymbolTableRecord
100
AcDbLayerTableRecord
  2
치수_보조선
 70
     0
 62
     4
  6
Continuous
370
    -3
390
F
  0
LAYER
  5
77
330
2
100
AcDbSymbolTableRecord
100
AcDbLayerTableRecord
  2
치수문자_일반주서
 70
     0
 62
     7
  6
Continuous
370
    15
390
F
  0
LAYER
  5
78
330
2
100
AcDbSymbolTableRecord
100
AcDbLayerTableRecord
  2
개별주서
 70
     0
 62
   100
  6
Continuous
370
    30
390
F
  0
LAYER
  5
79
330
2
100
AcDbSymbolTableRecord
100
AcDbLayerTableRecord
  2
중간선
 70
     0
 62
     2
  6
Continuous
370
    15
390
F
  0
LAYER
  5
7A
330
2
100
AcDbSymbolTableRecord
100
AcDbLayerTableRecord
  2
윤곽선
 70
     0
 62
     3
  6
Continuous
370
    40
390
F
  0
LAYER
  5
7B
330
2
100
AcDbSymbolTableRecord
100
AcDbLayerTableRecord
  2
중심마크
 70
     0
 62
   100
  6
Continuous
370
    30
390
F
  0
LAYER
  5
7C
330
2
100
AcDbSymbolTableRecord
100
AcDbLayerTableRecord
  2
가상선
 70
     0
 62
     4
  6
PHANTOM
370
    -3
390
F
  0
LAYER
  5
7D
330
2
100
AcDbSymbolTableRecord
100
AcDbLayerTableRecord
  2
특수지정선
 70
     0
 62
     5
  6
CENTERX2
370
    60
390
F
  0
LAYER
  5
7E
330
2
100
AcDbSymbolTableRecord
100
AcDbLayerTableRecord
  2
참조1
 70
     0
 62
    -4
  6
Continuous
370
    -3
390
F
  0
LAYER
  5
152
330
2
100
AcDbSymbolTableRecord
100
AcDbLayerTableRecord
  2
Defpoints
 70
     0
 62
     7
  6
Continuous
290
     0
370
    -3
390
F
  0
ENDTAB
  0
TABLE
  2
STYLE
  5
3
330
0
100
AcDbSymbolTable
 70
     2
  0
STYLE
  5
11
330
3
100
AcDbSymbolTableRecord
100
AcDbTextStyleTableRecord
  2
Standard
 70
     0
 40
0.0
 41
1.0
 50
0.0
 71
     0
 42
3.5
  3
txt
  4

  0
STYLE
  5
94
330
3
100
AcDbSymbolTableRecord
100
AcDbTextStyleTableRecord
  2
SLDTEXTSTYLE0
 70
     0
 40
0.0
 41
0.75
 50
0.0
 71
     0
 42
3.5
  3
TXT
  4

  0
ENDTAB
  0
TABLE
  2
VIEW
  5
6
330
0
100
AcDbSymbolTable
 70
     0
  0
ENDTAB
  0
TABLE
  2
UCS
  5
7
330
0
100
AcDbSymbolTable
 70
     0
  0
ENDTAB
  0
TABLE
  2
APPID
  5
9
330
0
100
AcDbSymbolTable
 70
     2
  0
APPID
  5
12
330
9
100
AcDbSymbolTableRecord
100
AcDbRegAppTableRecord
  2
ACAD
 70
     0
  0
APPID
  5
166
330
9
100
AcDbSymbolTableRecord
100
AcDbRegAppTableRecord
  2
PE_DIMMEASUREMENT
 70
     0
  0
ENDTAB
  0
TABLE
  2
DIMSTYLE
  5
A
330
0
100
AcDbSymbolTable
 70
     4
100
AcDbDimStyleTable
  0
DIMSTYLE
105
27
330
A
100
AcDbSymbolTableRecord
100
AcDbDimStyleTableRecord
  2
ISO-25
 70
     0
 41
2.5
 42
0.625
 43
3.75
 44
1.25
 73
     0
 74
     0
 77
     1
 78
     8
140
2.5
141
2.5
143
0.03937007874016
147
0.625
171
     3
172
     1
178
     0
271
     2
272
     2
274
     3
278
    44
283
     0
284
     8
340
11
  0
DIMSTYLE
105
D0
102
{ACAD_REACTORS
330
CF
330
154
102
}
330
A
100
AcDbSymbolTableRecord
100
AcDbDimStyleTableRecord
  2
SLDDIMSTYLE0
 70
     0
 41
3.302
 44
0.0
 45
0.000000001
 73
     0
 74
     0
 77
     1
 78
    12
 79
     3
140
3.5
143
0.0393700787401575
147
0.875
148
0.000000001
170
     1
173
     1
178
     0
271
     2
272
     2
276
     2
284
    12
340
94
  0
DIMSTYLE
105
E5
102
{ACAD_REACTORS
330
E4
102
}
330
A
100
AcDbSymbolTableRecord
100
AcDbDimStyleTableRecord
  2
SLDDIMSTYLE1
 70
     0
 41
3.302
 44
0.0
 45
0.000000001
 73
     0
 74
     0
 77
     1
 78
     4
 79
     1
140
3.5
143
0.0393700787401575
147
0.875
148
0.000000001
170
     1
173
     1
178
     0
271
     2
272
     2
276
     2
284
    12
340
94
  0
DIMSTYLE
105
F9
102
{ACAD_REACTORS
330
F8
102
}
330
A
100
AcDbSymbolTableRecord
100
AcDbDimStyleTableRecord
  2
SLDDIMSTYLE2
 70
     0
 41
3.302
 44
0.0
 45
0.000000001
 73
     0
 74
     0
 77
     1
 78
    12
 79
     3
140
3.5
143
0.0393700787401575
147
0.875
148
0.000000001
170
     1
172
     1
173
     1
178
     0
271
     2
272
     2
276
     2
284
    12
289
     0
340
94
  0
ENDTAB
  0
TABLE
  2
BLOCK_RECORD
  5
1
330
0
100
AcDbSymbolTable
 70
     9
  0
BLOCK_RECORD
  5
1F
330
1
100
AcDbSymbolTableRecord
100
AcDbBlockTableRecord
  2
*Model_Space
340
22
  0
BLOCK_RECORD
  5
1B
330
1
100
AcDbSymbolTableRecord
100
AcDbBlockTableRecord
  2
*Paper_Space
340
1E
  0
BLOCK_RECORD
  5
23
330
1
100
AcDbSymbolTableRecord
100
AcDbBlockTableRecord
  2
*Paper_Space0
340
26
  0
BLOCK_RECORD
  5
7F
330
1
100
AcDbSymbolTableRecord
100
AcDbBlockTableRecord
  2
블럭10
340
0
102
{BLKREFS
331
C8
102
}
  0
BLOCK_RECORD
  5
D1
330
1
100
AcDbSymbolTableRecord
100
AcDbBlockTableRecord
  2
_D
340
0
  0
BLOCK_RECORD
  5
E6
330
1
100
AcDbSymbolTableRecord
100
AcDbBlockTableRecord
  2
_D_1
340
0
  0
BLOCK_RECORD
  5
FA
330
1
100
AcDbSymbolTableRecord
100
AcDbBlockTableRecord
  2
_D_2
340
0
  0
BLOCK_RECORD
  5
10E
330
1
100
AcDbSymbolTableRecord
100
AcDbBlockTableRecord
  2
_D_3
340
0
  0
BLOCK_RECORD
  5
127
330
1
100
AcDbSymbolTableRecord
100
AcDbBlockTableRecord
  2
SW_DOWELSYMBOL_0
340
0
102
{BLKREFS
331
12D
102
}
  0
BLOCK_RECORD
  5
157
330
1
100
AcDbSymbolTableRecord
100
AcDbBlockTableRecord
  2
*D7
340
0
  0
ENDTAB
  0
ENDSEC
  0
SECTION
  2
BLOCKS
  0
BLOCK
  5
20
330
1F
100
AcDbEntity
  8
0
100
AcDbBlockBegin
  2
*Model_Space
 70
     0
 10
0.0
 20
0.0
 30
0.0
  3
*Model_Space
  1
*Model_Space
  0
ENDBLK
  5
21
330
1F
100
AcDbEntity
  8
0
100
AcDbBlockEnd
  0
BLOCK
  5
1C
330
1B
100
AcDbEntity
 67
     1
  8
0
100
AcDbBlockBegin
  2
*Paper_Space
 70
     0
 10
0.0
 20
0.0
 30
0.0
  3
*Paper_Space
  1
*Paper_Space
  0
ENDBLK
  5
1D
330
1B
100
AcDbEntity
 67
     1
  8
0
100
AcDbBlockEnd
  0
BLOCK
  5
24
330
23
100
AcDbEntity
  8
0
100
AcDbBlockBegin
  2
*Paper_Space0
 70
     0
 10
0.0
 20
0.0
 30
0.0
  3
*Paper_Space0
  1
*Paper_Space0
  0
ENDBLK
  5
25
330
23
100
AcDbEntity
  8
0
100
AcDbBlockEnd
  0
BLOCK
  5
80
330
7F
100
AcDbEntity
  8
0
100
AcDbBlockBegin
  2
블럭10
 70
     2
 10
0.0
 20
0.0
 30
0.0
  3
블럭10
  1
블럭10
  0
ELLIPSE
  5
82
330
7F
100
AcDbEntity
  8
중심선
100
AcDbEllipse
 10
20.54032771741204
 20
12.0471743016438
 30
0.0
 11
6.600054785286829
 21
-1.261213355974178E-13
 31
0.0
210
0.0
220
0.0
230
1.0
 40
0.636358354079598
 41
0.9219305317359503
 42
6.513795318482858
  0
ELLIPSE
  5
83
330
7F
100
AcDbEntity
  8
중심선
100
AcDbEllipse
 10
20.54032771746488
 20
12.04717430159265
 30
0.0
 11
3.960054785062283
 21
1.540847449632565E-10
 31
0.0
210
0.0
220
0.0
230
1.0
 40
0.3939339440162632
 41
1.131841032648279
 42
5.62031148352944
  0
LINE
  5
84
330
7F
100
AcDbEntity
  8
중심선
100
AcDbLine
 10
2.268634060543552
 20
16.24717430164393
 30
0.0
 11
5.714909304380834
 21
16.24717430164393
 31
0.0
  0
LINE
  5
85
330
7F
100
AcDbEntity
  8
중심선
100
AcDbLine
 10
5.245725140726316
 20
7.84717430164391
 30
0.0
 11
8.692000384563599
 21
7.84717430164391
 31
0.0
  0
LINE
  5
86
330
7F
100
AcDbEntity
  8
중심선
100
AcDbLine
 10
15.74043728645272
 20
16.24717430164393
 30
0.0
 11
8.692000384563599
 21
7.84717430164391
 31
0.0
  0
LINE
  5
87
330
7F
100
AcDbEntity
  8
중심선
100
AcDbLine
 10
0.1404042013395286
 20
13.71084872107135
 30
0.0
 11
3.58671253028996
 21
13.71088815037384
 31
0.0
  0
LINE
  5
88
330
7F
100
AcDbEntity
  8
중심선
100
AcDbLine
 10
2.750260043222114
 20
10.84717430164391
 30
0.0
 11
6.196535287059397
 21
10.84717430164391
 31
0.0
  0
LINE
  5
89
330
7F
100
AcDbEntity
  8
중심선
100
AcDbLine
 10
12.29416204261559
 20
16.24717430164393
 30
0.0
 11
5.245725140726316
 21
7.84717430164391
 31
0.0
  0
LINE
  5
8A
330
7F
100
AcDbEntity
  8
중심선
100
AcDbLine
 10
10.72767329541681
 20
16.24717430164393
 30
0.0
 11
6.196535287059397
 21
10.84717430164391
 31
0.0
  0
LINE
  5
8B
330
7F
100
AcDbEntity
  8
중심선
100
AcDbLine
 10
7.28139805157953
 20
16.24717430164393
 30
0.0
 11
2.750260043222114
 21
10.84717430164391
 31
0.0
  0
LINE
  5
8C
330
7F
100
AcDbEntity
  8
중심선
100
AcDbLine
 10
5.714909304380834
 20
16.24717430164393
 30
0.0
 11
3.58671253028996
 21
13.71088815037384
 31
0.0
  0
LINE
  5
8D
330
7F
100
AcDbEntity
  8
중심선
100
AcDbLine
 10
2.268634060543552
 20
16.24717430164393
 30
0.0
 11
0.1404042013395286
 21
13.71084872107135
 31
0.0
  0
LINE
  5
8E
330
7F
100
AcDbEntity
  8
중심선
100
AcDbLine
 10
7.28139805157953
 20
16.24717430164393
 30
0.0
 11
10.72767329541681
 21
16.24717430164393
 31
0.0
  0
LINE
  5
8F
330
7F
100
AcDbEntity
  8
중심선
100
AcDbLine
 10
12.29416204261559
 20
16.24717430164393
 30
0.0
 11
15.74043728645272
 21
16.24717430164393
 31
0.0
  0
LINE
  5
90
330
7F
100
AcDbEntity
  8
중심선
100
AcDbLine
 10
19.22036997980202
 20
11.08717430171403
 30
0.0
 11
23.66174974927406
 21
11.08717430171406
 31
0.0
  0
LINE
  5
91
330
7F
100
AcDbEntity
  8
중심선
100
AcDbLine
 10
19.22039502424796
 20
13.00717430171391
 30
0.0
 11
19.22036997980202
 21
11.08717430171403
 31
0.0
  0
LINE
  5
92
330
7F
100
AcDbEntity
  8
중심선
100
AcDbLine
 10
19.22039502424796
 20
13.00717430171391
 30
0.0
 11
26.96566020931264
 21
13.00717430171391
 31
0.0
  0
LINE
  5
93
330
7F
100
AcDbEntity
  8
중심선
100
AcDbLine
 10
22.22332737316547
 20
13.45928029700563
 30
0.0
 11
24.52862924686651
 21
15.39360700705356
 31
0.0
  0
ATTDEF
  5
95
330
7F
100
AcDbEntity
  8
FORMAT
 62
     2
100
AcDbText
 10
4.408487351596664
 20
2.075366912832191
 30
0.0
 40
4.233333333333333
  1
E2039022
 41
0.75
  7
SLDTEXTSTYLE0
 11
4.408487351596664
 21
-0.0412997538344756
 31
0.0
100
AcDbAttributeDefinition
  3

  2
AUTOATTR0
 70
     0
 74
     1
  0
ENDBLK
  5
81
330
7F
100
AcDbEntity
  8
0
100
AcDbBlockEnd
  0
BLOCK
  5
D2
330
D1
100
AcDbEntity
  8
0
100
AcDbBlockBegin
  2
_D
 70
     0
 10
0.0
 20
0.0
 30
0.0
  3
_D
  1
_D
  0
LINE
  5
D4
330
D1
100
AcDbEntity
  8
치수문자_일반주서
 62
     0
370
    -2
100
AcDbLine
 10
23.53115766425391
 20
4.413145742364732
 30
0.0
 11
23.53115766425391
 21
17.53148362831354
 31
0.0
  0
LINE
  5
D5
330
D1
100
AcDbEntity
  8
치수문자_일반주서
 62
     0
370
    -2
100
AcDbLine
 10
4.481157664253913
 20
4.355194441883849
 30
0.0
 11
4.481157664253914
 21
17.53148362831354
 31
0.0
  0
LINE
  5
D6
330
D1
100
AcDbEntity
  8
치수문자_일반주서
 62
     0
370
    -2
100
AcDbLine
 10
20.22915766425391
 20
17.53148362831354
 30
0.0
 11
7.783157664253913
 21
17.53148362831354
 31
0.0
  0
SOLID
  5
D7
330
D1
100
AcDbEntity
  8
치수문자_일반주서
 62
     0
100
AcDbTrace
 10
20.22915766425391
 20
16.9811502949802
 30
0.0
 11
20.22915766425391
 21
18.08181696164687
 31
0.0
 12
23.53115766425391
 22
17.53148362831354
 32
0.0
 13
23.53115766425391
 23
17.53148362831354
 33
0.0
  0
SOLID
  5
D8
330
D1
100
AcDbEntity
  8
치수문자_일반주서
 62
     0
100
AcDbTrace
 10
7.783157664253913
 20
18.08181696164687
 30
0.0
 11
7.783157664253913
 21
16.9811502949802
 31
0.0
 12
4.481157664253914
 22
17.53148362831354
 32
0.0
 13
4.481157664253914
 23
17.53148362831354
 33
0.0
  0
MTEXT
  5
D9
330
D1
100
AcDbEntity
  8
치수문자_일반주서
 62
     0
100
AcDbMText
 10
14.00615766425391
 20
21.90648362831354
 30
0.0
 40
3.5
 41
0.0
 71
     2
 72
     1
  1
\A1;19.05 [3/4]
  7
SLDTEXTSTYLE0
 73
     1
 44
1.0
  0
POINT
  5
DA
330
D1
100
AcDbEntity
  8
Defpoints
 62
     0
100
AcDbPoint
 10
23.53115766425391
 20
4.350645742364732
 30
0.0
  0
POINT
  5
DB
330
D1
100
AcDbEntity
  8
Defpoints
 62
     0
100
AcDbPoint
 10
4.481157664253913
 20
4.292694441883849
 30
0.0
  0
POINT
  5
DC
330
D1
100
AcDbEntity
  8
Defpoints
 62
     0
100
AcDbPoint
 10
4.481157664253913
 20
17.53148362831354
 30
0.0
  0
ENDBLK
  5
D3
330
D1
100
AcDbEntity
  8
0
100
AcDbBlockEnd
  0
BLOCK
  5
E7
330
E6
100
AcDbEntity
  8
0
100
AcDbBlockBegin
  2
_D_1
 70
     0
 10
0.0
 20
0.0
 30
0.0
  3
_D_1
  1
_D_1
  0
LINE
  5
E9
330
E6
100
AcDbEntity
  8
치수문자_일반주서
 62
     0
370
    -2
100
AcDbLine
 10
23.53115766425391
 20
4.413145742364732
 30
0.0
 11
23.53115766425391
 21
33.25268882611631
 31
0.0
  0
LINE
  5
EA
330
E6
100
AcDbEntity
  8
치수문자_일반주서
 62
     0
370
    -2
100
AcDbLine
 10
-39.96884233574609
 20
3.873574928723895
 30
0.0
 11
-39.96884233574609
 21
33.25268882611631
 31
0.0
  0
LINE
  5
EB
330
E6
100
AcDbEntity
  8
치수문자_일반주서
 62
     0
370
    -2
100
AcDbLine
 10
20.22915766425391
 20
33.25268882611631
 30
0.0
 11
-36.66684233574609
 21
33.25268882611631
 31
0.0
  0
SOLID
  5
EC
330
E6
100
AcDbEntity
  8
치수문자_일반주서
 62
     0
100
AcDbTrace
 10
20.22915766425391
 20
32.70235549278298
 30
0.0
 11
20.22915766425391
 21
33.80302215944965
 31
0.0
 12
23.53115766425391
 22
33.25268882611631
 32
0.0
 13
23.53115766425391
 23
33.25268882611631
 33
0.0
  0
SOLID
  5
ED
330
E6
100
AcDbEntity
  8
치수문자_일반주서
 62
     0
100
AcDbTrace
 10
-36.66684233574609
 20
33.80302215944965
 30
0.0
 11
-36.66684233574609
 21
32.70235549278298
 31
0.0
 12
-39.96884233574609
 22
33.25268882611631
 32
0.0
 13
-39.96884233574609
 23
33.25268882611631
 33
0.0
  0
MTEXT
  5
EE
330
E6
100
AcDbEntity
  8
치수문자_일반주서
 62
     0
100
AcDbMText
 10
-8.21884233574609
 20
37.62768882611631
 30
0.0
 40
3.5
 41
0.0
 71
     2
 72
     1
  1
\A1;63.50 [2 1/2]
  7
SLDTEXTSTYLE0
 73
     1
 44
1.0
  0
POINT
  5
EF
330
E6
100
AcDbEntity
  8
Defpoints
 62
     0
100
AcDbPoint
 10
23.53115766425391
 20
4.350645742364732
 30
0.0
  0
POINT
  5
F0
330
E6
100
AcDbEntity
  8
Defpoints
 62
     0
100
AcDbPoint
 10
-39.96884233574609
 20
3.811074928723895
 30
0.0
  0
POINT
  5
F1
330
E6
100
AcDbEntity
  8
Defpoints
 62
     0
100
AcDbPoint
 10
-39.96884233574609
 20
33.25268882611631
 30
0.0
  0
ENDBLK
  5
E8
330
E6
100
AcDbEntity
  8
0
100
AcDbBlockEnd
  0
BLOCK
  5
FB
330
FA
100
AcDbEntity
  8
0
100
AcDbBlockBegin
  2
_D_2
 70
     0
 10
0.0
 20
0.0
 30
0.0
  3
_D_2
  1
_D_2
  0
LINE
  5
FD
330
FA
100
AcDbEntity
  8
치수문자_일반주서
 62
     0
370
    -2
100
AcDbLine
 10
-39.0788423357461
 20
4.763574928723896
 30
0.0
 11
-51.26961517357331
 21
4.76357492872385
 31
0.0
  0
LINE
  5
FE
330
FA
100
AcDbEntity
  8
치수문자_일반주서
 62
     0
370
    -2
100
AcDbLine
 10
-39.0788423357461
 20
-4.761425071276109
 30
0.0
 11
-51.26961517357327
 21
-4.761425071276156
 31
0.0
  0
LINE
  5
FF
330
FA
100
AcDbEntity
  8
치수문자_일반주서
 62
     0
370
    -2
100
AcDbLine
 10
-51.26961517357329
 20
1.46157492872385
 30
0.0
 11
-51.26961517357329
 21
-1.459425071276156
 31
0.0
  0
SOLID
  5
100
330
FA
100
AcDbEntity
  8
치수문자_일반주서
 62
     0
100
AcDbTrace
 10
-50.71928184023996
 20
1.461574928723852
 30
0.0
 11
-51.81994850690663
 21
1.461574928723848
 31
0.0
 12
-51.26961517357331
 22
4.76357492872385
 32
0.0
 13
-51.26961517357331
 23
4.76357492872385
 33
0.0
  0
SOLID
  5
101
330
FA
100
AcDbEntity
  8
치수문자_일반주서
 62
     0
100
AcDbTrace
 10
-51.81994850690662
 20
-1.459425071276158
 30
0.0
 11
-50.71928184023995
 21
-1.459425071276154
 31
0.0
 12
-51.26961517357327
 22
-4.761425071276156
 32
0.0
 13
-51.26961517357327
 23
-4.761425071276156
 33
0.0
  0
MTEXT
  5
102
330
FA
100
AcDbEntity
  8
치수문자_일반주서
 62
     0
100
AcDbMText
 10
-55.64461517357329
 20
0.0010749287238796
 30
0.0
 40
3.5
 41
0.0
 71
     2
 72
     1
  1
\A1;%%c9.53 [3/8]
  7
SLDTEXTSTYLE0
 11
-3.729883127349605E-15
 21
1.0
 31
0.0
 73
     1
 44
1.0
  0
POINT
  5
103
330
FA
100
AcDbEntity
  8
Defpoints
 62
     0
100
AcDbPoint
 10
-39.0163423357461
 20
4.763574928723896
 30
0.0
  0
POINT
  5
104
330
FA
100
AcDbEntity
  8
Defpoints
 62
     0
100
AcDbPoint
 10
-39.0163423357461
 20
-4.761425071276109
 30
0.0
  0
POINT
  5
105
330
FA
100
AcDbEntity
  8
Defpoints
 62
     0
100
AcDbPoint
 10
-51.26961517357327
 20
-4.761425071276156
 30
0.0
  0
ENDBLK
  5
FC
330
FA
100
AcDbEntity
  8
0
100
AcDbBlockEnd
  0
BLOCK
  5
10F
330
10E
100
AcDbEntity
  8
0
100
AcDbBlockBegin
  2
_D_3
 70
     0
 10
0.0
 20
0.0
 30
0.0
  3
_D_3
  1
_D_3
  0
LINE
  5
111
330
10E
100
AcDbEntity
  8
치수문자_일반주서
 62
     0
370
    -2
100
AcDbLine
 10
15.0258965702013
 20
4.366699928723894
 30
0.0
 11
59.25276087148277
 21
4.366699928724056
 31
0.0
  0
LINE
  5
112
330
10E
100
AcDbEntity
  8
치수문자_일반주서
 62
     0
370
    -2
100
AcDbLine
 10
15.0258965702013
 20
-4.364550071276107
 30
0.0
 11
59.2527608714828
 21
-4.364550071275943
 31
0.0
  0
LINE
  5
113
330
10E
100
AcDbEntity
  8
치수문자_일반주서
 62
     0
370
    -2
100
AcDbLine
 10
59.25276087148277
 20
4.366699928724056
 30
0.0
 11
59.25276087148261
 21
50.96218603983503
 31
0.0
  0
LINE
  5
114
330
10E
100
AcDbEntity
  8
치수문자_일반주서
 62
     0
370
    -2
100
AcDbLine
 10
59.25276087148278
 20
1.064699928724057
 30
0.0
 11
59.25276087148278
 21
-1.062550071275943
 31
0.0
  0
SOLID
  5
115
330
10E
100
AcDbEntity
  8
치수문자_일반주서
 62
     0
100
AcDbTrace
 10
59.80309420481612
 20
1.064699928724059
 30
0.0
 11
58.70242753814945
 21
1.064699928724055
 31
0.0
 12
59.25276087148277
 22
4.366699928724056
 32
0.0
 13
59.25276087148277
 23
4.366699928724056
 33
0.0
  0
SOLID
  5
116
330
10E
100
AcDbEntity
  8
치수문자_일반주서
 62
     0
100
AcDbTrace
 10
58.70242753814945
 20
-1.062550071275945
 30
0.0
 11
59.80309420481612
 21
-1.062550071275941
 31
0.0
 12
59.2527608714828
 22
-4.364550071275943
 32
0.0
 13
59.2527608714828
 23
-4.364550071275943
 33
0.0
  0
MTEXT
  5
117
330
10E
100
AcDbEntity
  8
치수문자_일반주서
 62
     0
100
AcDbMText
 10
54.87776087148266
 20
36.08718603983501
 30
0.0
 40
3.5
 41
0.0
 71
     2
 72
     1
  1
\A1;%%c8.73 [11/32]
  7
SLDTEXTSTYLE0
 11
-3.255170729323293E-15
 21
1.0
 31
0.0
 73
     1
 44
1.0
  0
POINT
  5
118
330
10E
100
AcDbEntity
  8
Defpoints
 62
     0
100
AcDbPoint
 10
14.9633965702013
 20
4.366699928723894
 30
0.0
  0
POINT
  5
119
330
10E
100
AcDbEntity
  8
Defpoints
 62
     0
100
AcDbPoint
 10
14.9633965702013
 20
-4.364550071276107
 30
0.0
  0
POINT
  5
11A
330
10E
100
AcDbEntity
  8
Defpoints
 62
     0
100
AcDbPoint
 10
59.2527608714828
 20
-4.364550071275942
 30
0.0
  0
ENDBLK
  5
110
330
10E
100
AcDbEntity
  8
0
100
AcDbBlockEnd
  0
BLOCK
  5
128
330
127
100
AcDbEntity
  8
0
100
AcDbBlockBegin
  2
SW_DOWELSYMBOL_0
 70
     0
 10
0.0
 20
0.0
 30
0.0
  3
SW_DOWELSYMBOL_0
  1
SW_DOWELSYMBOL_0
  0
CIRCLE
  5
12A
330
127
100
AcDbEntity
  8
해칭선
 62
     0
100
AcDbCircle
 10
0.0
 20
0.0
 30
0.0
 40
3.000000000000001
  0
HATCH
  5
12B
330
127
100
AcDbEntity
  8
0
  6
Continuous
 62
     0
370
     0
100
AcDbHatch
 10
0.0
 20
0.0
 30
0.0
210
0.0
220
0.0
230
1.0
  2
SOLID
 70
     1
 71
     0
 91
        1
 92
        0
 93
        3
 72
     2
 10
0.0
 20
0.0
 40
3.000000000000001
 50
0.0
 51
90.0
 73
     1
 72
     1
 10
0.0
 20
3.000000000000001
 11
0.0
 21
0.0
 72
     1
 10
0.0
 20
0.0
 11
3.000000000000001
 21
0.0
 97
        0
 75
     0
 76
     1
 98
        1
 10
0.0
 20
0.0
  0
HATCH
  5
12C
330
127
100
AcDbEntity
  8
0
  6
Continuous
 62
     0
370
     0
100
AcDbHatch
 10
0.0
 20
0.0
 30
0.0
210
0.0
220
0.0
230
1.0
  2
SOLID
 70
     1
 71
     0
 91
        1
 92
        0
 93
        3
 72
     2
 10
0.0
 20
0.0
 40
3.000000000000001
 50
180.0
 51
270.0000000000008
 73
     1
 72
     1
 10
0.0
 20
-3.000000000000001
 11
0.0
 21
0.0
 72
     1
 10
0.0
 20
0.0
 11
-3.000000000000001
 21
0.0
 97
        0
 75
     0
 76
     1
 98
        1
 10
0.0
 20
0.0
  0
ENDBLK
  5
129
330
127
100
AcDbEntity
  8
0
100
AcDbBlockEnd
  0
BLOCK
  5
158
330
157
100
AcDbEntity
  8
0
100
AcDbBlockBegin
  2
*D7
 70
     1
 10
0.0
 20
0.0
 30
0.0
  3
*D7
  1
*D7
  0
LINE
  5
15A
330
157
100
AcDbEntity
  8
치수문자_일반주서
 62
     0
370
    -2
100
AcDbLine
 10
23.59365766425391
 20
4.366699928723897
 30
0.0
 11
35.91906720114881
 21
4.366699928723897
 31
0.0
  0
LINE
  5
15B
330
157
100
AcDbEntity
  8
치수문자_일반주서
 62
     0
370
    -2
100
AcDbLine
 10
23.59365766425391
 20
-4.364550071276103
 30
0.0
 11
35.91906720114881
 21
-4.364550071276103
 31
0.0
  0
LINE
  5
15C
330
157
100
AcDbEntity
  8
치수문자_일반주서
 62
     0
370
    -2
100
AcDbLine
 10
35.91906720114881
 20
4.366699928723897
 30
0.0
 11
35.91906720114881
 21
37.4186999287239
 31
0.0
  0
LINE
  5
15D
330
157
100
AcDbEntity
  8
치수문자_일반주서
 62
     0
370
    -2
100
AcDbLine
 10
35.91906720114881
 20
1.064699928723897
 30
0.0
 11
35.91906720114881
 21
-1.062550071276103
 31
0.0
  0
SOLID
  5
15E
330
157
100
AcDbEntity
  8
치수문자_일반주서
 62
     0
100
AcDbTrace
 10
36.46940053448215
 20
1.064699928723897
 30
0.0
 11
35.36873386781548
 21
1.064699928723897
 31
0.0
 12
35.91906720114881
 22
4.366699928723897
 32
0.0
 13
35.91906720114881
 23
4.366699928723897
 33
0.0
  0
SOLID
  5
15F
330
157
100
AcDbEntity
  8
치수문자_일반주서
 62
     0
100
AcDbTrace
 10
35.36873386781548
 20
-1.062550071276103
 30
0.0
 11
36.46940053448215
 21
-1.062550071276103
 31
0.0
 12
35.91906720114881
 22
-4.364550071276103
 32
0.0
 13
35.91906720114881
 23
-4.364550071276103
 33
0.0
  0
MTEXT
  5
160
330
157
100
AcDbEntity
  8
치수문자_일반주서
 62
     0
100
AcDbMText
 10
33.29406720114881
 20
22.5436999287239
 30
0.0
 40
3.5
 41
0.0
 71
     5
 72
     1
  1
\A1;{%%C8.73 [11/32]}
  7
SLDTEXTSTYLE0
 11
0.0
 21
1.0
 31
0.0
 73
     1
 44
1.0
  0
POINT
  5
161
330
157
100
AcDbEntity
  8
Defpoints
 62
     0
100
AcDbPoint
 10
23.53115766425391
 20
4.366699928723897
 30
0.0
  0
POINT
  5
162
330
157
100
AcDbEntity
  8
Defpoints
 62
     0
100
AcDbPoint
 10
23.53115766425391
 20
-4.364550071276103
 30
0.0
  0
POINT
  5
163
330
157
100
AcDbEntity
  8
Defpoints
 62
     0
100
AcDbPoint
 10
35.91906720114881
 20
-4.364550071276104
 30
0.0
  0
ENDBLK
  5
159
330
157
100
AcDbEntity
  8
0
100
AcDbBlockEnd
  0
ENDSEC
  0
SECTION
  2
ENTITIES
  0
LINE
  5
96
330
1F
100
AcDbEntity
  8
외형선
  6
Continuous
370
    15
100
AcDbLine
 10
1.999999999999996
 20
-4.761425071276113
 30
0.0
 11
3.481157664253909
 21
-4.364550071276106
 31
0.0
  0
LINE
  5
97
330
1F
100
AcDbEntity
  8
외형선
  6
Continuous
370
    15
100
AcDbLine
 10
3.481157664253909
 20
4.366699928723893
 30
0.0
 11
1.999999999999996
 21
4.7635749287239
 31
0.0
  0
LINE
  5
98
330
1F
100
AcDbEntity
  8
외형선
  6
Continuous
370
    15
100
AcDbLine
 10
-39.0163423357461
 20
-4.761425071276109
 30
0.0
 11
1.999999999999996
 21
-4.761425071276109
 31
0.0
  0
LINE
  5
99
330
1F
100
AcDbEntity
  8
외형선
  6
Continuous
370
    15
100
AcDbLine
 10
1.999999999999996
 20
4.763574928723896
 30
0.0
 11
-15.28639233574597
 21
4.763574928723896
 31
0.0
  0
LINE
  5
9A
330
1F
100
AcDbEntity
  8
외형선
  6
Continuous
370
    15
100
AcDbLine
 10
-39.0163423357461
 20
4.763574928723893
 30
0.0
 11
-39.96884233574609
 21
3.811074928723895
 31
0.0
  0
LINE
  5
9B
330
1F
100
AcDbEntity
  8
외형선
  6
Continuous
370
    15
100
AcDbLine
 10
-39.96884233574609
 20
-3.808925071276108
 30
0.0
 11
-39.0163423357461
 21
-4.761425071276106
 31
0.0
  0
LINE
  5
9C
330
1F
100
AcDbEntity
  8
외형선
  6
Continuous
370
    15
100
AcDbLine
 10
3.481157664253909
 20
-4.364550071276106
 30
0.0
 11
3.981007327935079
 21
-4.364550071276106
 31
0.0
  0
LINE
  5
9D
330
1F
100
AcDbEntity
  8
외형선
  6
Continuous
370
    15
100
AcDbLine
 10
3.981007327935079
 20
4.366699928723893
 30
0.0
 11
3.481157664253909
 21
4.366699928723893
 31
0.0
  0
LINE
  5
9E
330
1F
100
AcDbEntity
  8
외형선
  6
Continuous
 62
     1
370
    15
100
AcDbLine
 10
17.2293192320093
 20
-1.287488690310749
 30
0.0
 11
17.2683561862068
 21
-1.308609832967081
 31
0.0
  0
LINE
  5
9F
330
1F
100
AcDbEntity
  8
외형선
  6
Continuous
 62
     1
370
    15
100
AcDbLine
 10
21.90397769233483
 20
1.295279312186766
 30
0.0
 11
21.87514976670699
 21
1.310837659087565
 31
0.0
  0
LINE
  5
A0
330
1F
100
AcDbEntity
  8
외형선
  6
Continuous
 62
     1
370
    15
100
AcDbLine
 10
14.96418726050161
 20
4.366699928723894
 30
0.0
 11
12.3018033741799
 21
4.366699928723894
 31
0.0
  0
LINE
  5
A1
330
1F
100
AcDbEntity
  8
외형선
  6
Continuous
 62
     1
370
    15
100
AcDbLine
 10
12.30180337417984
 20
-4.364550071276107
 30
0.0
 11
14.96418726050161
 21
-4.364550071276107
 31
0.0
  0
LINE
  5
A2
330
1F
100
AcDbEntity
  8
외형선
  6
Continuous
370
    15
100
AcDbLine
 10
3.481157664253909
 20
0.0010749287238931
 30
0.0
 11
3.481157664253909
 21
4.366699928723893
 31
0.0
  0
LINE
  5
A3
330
1F
100
AcDbEntity
  8
외형선
  6
Continuous
370
    15
100
AcDbLine
 10
3.481157664253909
 20
-4.364550071276106
 30
0.0
 11
3.481157664253909
 21
0.0010749287238931
 31
0.0
  0
LINE
  5
A4
330
1F
100
AcDbEntity
  8
외형선
  6
Continuous
370
    15
100
AcDbLine
 10
1.999999999999996
 20
0.0010749287238931
 30
0.0
 11
1.999999999999996
 21
4.7635749287239
 31
0.0
  0
LINE
  5
A5
330
1F
100
AcDbEntity
  8
외형선
  6
Continuous
370
    15
100
AcDbLine
 10
1.999999999999996
 20
-4.761425071276113
 30
0.0
 11
1.999999999999996
 21
0.0010749287238931
 31
0.0
  0
LINE
  5
A6
330
1F
100
AcDbEntity
  8
외형선
  6
Continuous
370
    15
100
AcDbLine
 10
-39.0163423357461
 20
0.0010749287238931
 30
0.0
 11
-39.0163423357461
 21
4.763574928723896
 31
0.0
  0
LINE
  5
A7
330
1F
100
AcDbEntity
  8
외형선
  6
Continuous
370
    15
100
AcDbLine
 10
-39.0163423357461
 20
-4.761425071276109
 30
0.0
 11
-39.0163423357461
 21
0.0010749287238931
 31
0.0
  0
LINE
  5
A8
330
1F
100
AcDbEntity
  8
외형선
  6
Continuous
370
    15
100
AcDbLine
 10
-39.96884233574609
 20
0.0010749287238931
 30
0.0
 11
-39.96884233574609
 21
3.811074928723895
 31
0.0
  0
LINE
  5
A9
330
1F
100
AcDbEntity
  8
외형선
  6
Continuous
370
    15
100
AcDbLine
 10
-39.96884233574609
 20
-3.808925071276108
 30
0.0
 11
-39.96884233574609
 21
0.0010749287238931
 31
0.0
  0
LINE
  5
AA
330
1F
100
AcDbEntity
  8
외형선
  6
Continuous
370
    15
100
AcDbLine
 10
3.981007327935079
 20
4.336142515231876
 30
0.0
 11
3.981007327935079
 21
4.366699928723893
 31
0.0
  0
SPLINE
  5
AB
330
1F
100
AcDbEntity
  8
외형선
  6
Continuous
370
    15
100
AcDbSpline
210
0.0
220
0.0
230
1.0
 70
     8
 71
     3
 72
     8
 73
     4
 74
     0
 42
0.000000001
 43
0.00000001
 40
0.0
 40
0.0
 40
0.0
 40
0.0
 40
1.0
 40
1.0
 40
1.0
 40
1.0
 10
4.481157664253916
 20
4.292694441883847
 30
0.0
 10
4.314408276334873
 20
4.310305783935982
 30
0.0
 10
4.147509993767417
 20
4.324802552534768
 30
0.0
 10
3.981007327935072
 20
4.336142072886519
 30
0.0
  0
SPLINE
  5
AC
330
1F
100
AcDbEntity
  8
외형선
  6
Continuous
370
    15
100
AcDbSpline
210
0.0
220
0.0
230
1.0
 70
     8
 71
     3
 72
     8
 73
     4
 74
     0
 42
0.000000001
 43
0.00000001
 40
0.0
 40
0.0
 40
0.0
 40
0.0
 40
1.0
 40
1.0
 40
1.0
 40
1.0
 10
4.481157664253904
 20
3.753528639051956
 30
0.0
 10
4.314408276334865
 20
3.802618091176422
 30
0.0
 10
4.147509993767412
 20
3.848994249214534
 30
0.0
 10
3.981007327935072
 20
3.892509879837215
 30
0.0
  0
LINE
  5
AD
330
1F
100
AcDbEntity
  8
외형선
  6
Continuous
370
    15
100
AcDbLine
 10
3.981007327935079
 20
-0.5145515456089277
 30
0.0
 11
3.981007327935072
 21
3.892512733837249
 31
0.0
  0
SPLINE
  5
AE
330
1F
100
AcDbEntity
  8
외형선
  6
Continuous
370
    15
100
AcDbSpline
210
0.0
220
0.0
230
1.0
 70
     8
 71
     3
 72
     8
 73
     4
 74
     0
 42
0.000000001
 43
0.00000001
 40
0.0
 40
0.0
 40
0.0
 40
0.0
 40
1.0
 40
1.0
 40
1.0
 40
1.0
 10
4.481157664253916
 20
-0.7993522040557206
 30
0.0
 10
4.314408276334873
 20
-0.7049261456318753
 30
0.0
 10
4.147509993767417
 20
-0.6098902211782067
 30
0.0
 10
3.981007327935072
 20
-0.5145552645607441
 30
0.0
  0
SPLINE
  5
AF
330
1F
100
AcDbEntity
  8
외형선
  6
Continuous
370
    15
100
AcDbSpline
210
0.0
220
0.0
230
1.0
 70
     8
 71
     3
 72
     8
 73
     4
 74
     0
 42
0.000000001
 43
0.00000001
 40
0.0
 40
0.0
 40
0.0
 40
0.0
 40
1.0
 40
1.0
 40
1.0
 40
1.0
 10
4.481157664253904
 20
-2.230017358132497
 30
0.0
 10
4.314408276334865
 20
-2.147454257606535
 30
0.0
 10
4.147509993767412
 20
-2.063244785442213
 30
0.0
 10
3.981007327935072
 20
-1.977665999714842
 30
0.0
  0
LINE
  5
B0
330
1F
100
AcDbEntity
  8
외형선
  6
Continuous
370
    15
100
AcDbLine
 10
3.981007327935079
 20
-4.364550071276106
 30
0.0
 11
3.981007327935072
 21
-1.977660386966281
 31
0.0
  0
SPLINE
  5
B1
330
1F
100
AcDbEntity
  8
외형선
  6
Continuous
370
    15
100
AcDbSpline
210
0.0
220
0.0
230
1.0
 70
     8
 71
     3
 72
     8
 73
     4
 74
     0
 42
0.000000001
 43
0.00000001
 40
0.0
 40
0.0
 40
0.0
 40
0.0
 40
1.0
 40
1.0
 40
1.0
 40
1.0
 10
4.481157664253916
 20
-4.290544584436056
 30
0.0
 10
4.314408276334873
 20
-4.308155926488191
 30
0.0
 10
4.147509993767417
 20
-4.322652695086977
 30
0.0
 10
3.981007327935072
 20
-4.333992215438729
 30
0.0
  0
LINE
  5
B2
330
1F
100
AcDbEntity
  8
외형선
  6
Continuous
370
    15
100
AcDbLine
 10
4.481157664253909
 20
-2.230017358132573
 30
0.0
 11
4.481157664253916
 21
-0.7993522040557193
 31
0.0
  0
LINE
  5
B3
330
1F
100
AcDbEntity
  8
외형선
  6
Continuous
370
    15
100
AcDbLine
 10
4.481157664253909
 20
3.753528639052023
 30
0.0
 11
4.481157664253916
 21
4.292694441883849
 31
0.0
  0
SPLINE
  5
B4
330
1F
100
AcDbEntity
  8
외형선
  6
Continuous
370
    15
100
AcDbSpline
210
0.0
220
0.0
230
1.0
 70
    24
 71
     3
 72
    21
 73
    17
 74
     0
 42
0.000000001
 43
0.00000001
 40
0.0
 40
0.0
 40
0.0
 40
0.0
 40
0.0400431881799692
 40
0.113292925164211
 40
0.1865426621484526
 40
0.2597923991327543
 40
0.3330421361170558
 40
0.4062918731013272
 40
0.4795416100855986
 40
0.5527913470698708
 40
0.6260410840541429
 40
0.6992908210384106
 40
0.7725405580226782
 40
0.8457902950069541
 40
0.91904003199123
 40
1.0
 40
1.0
 40
1.0
 40
1.0
 10
4.481157664253916
 20
-0.7943944596918877
 30
0.0
 10
4.481157664253916
 20
-0.7867482297390024
 30
0.0
 10
4.481157664253904
 20
-0.7651149932957085
 30
0.0
 10
4.481157664253904
 20
-0.650186137330869
 30
0.0
 10
4.481157664253916
 20
-0.4589408864358451
 30
0.0
 10
4.481157664253938
 20
-0.1989254331945512
 30
0.0
 10
4.481157664253966
 20
0.1158125129476982
 30
0.0
 10
4.481157664253938
 20
0.4796118605416422
 30
0.0
 10
4.481157664253897
 20
0.8800894344555038
 30
0.0
 10
4.481157664253916
 20
1.307261458136921
 30
0.0
 10
4.481157664253909
 20
1.748179008937294
 30
0.0
 10
4.481157664253938
 20
2.190554274390303
 30
0.0
 10
4.481157664253909
 20
2.622386651552089
 30
0.0
 10
4.481157664253916
 20
3.0293598978867
 30
0.0
 10
4.481157664253945
 20
3.419380121090704
 30
0.0
 10
4.481157664253916
 20
3.638494021794561
 30
0.0
 10
4.481157664253909
 20
3.753528639052023
 30
0.0
  0
SPLINE
  5
B5
330
1F
100
AcDbEntity
  8
외형선
  6
Continuous
370
    15
100
AcDbSpline
210
0.0
220
0.0
230
1.0
 70
    24
 71
     3
 72
    13
 73
     9
 74
     0
 42
0.000000001
 43
0.00000001
 40
0.0
 40
0.0
 40
0.0
 40
0.0
 40
0.1917092127737013
 40
0.3884588968604947
 40
0.5893321494649534
 40
0.7960307400030577
 40
0.9969039926076759
 40
1.0
 40
1.0
 40
1.0
 40
1.0
 10
4.481157664253916
 20
-4.290544584436057
 30
0.0
 10
4.481157664253909
 20
-4.152226652441909
 30
0.0
 10
4.481157664253909
 20
-3.871954095369253
 30
0.0
 10
4.481157664253909
 20
-3.447572594131353
 30
0.0
 10
4.481157664253847
 20
-3.025728985782657
 30
0.0
 10
4.481157664254069
 20
-2.633862337256286
 30
0.0
 10
4.481157664253653
 20
-2.37937790741104
 30
0.0
 10
4.481157664253931
 20
-2.275901152339086
 30
0.0
 10
4.481157664253923
 20
-2.27433049998372
 30
0.0
  0
LINE
  5
B6
330
1F
100
AcDbEntity
  8
외형선
  6
Continuous
 62
     1
370
    15
100
AcDbLine
 10
23.53115766425391
 20
-3.952790211620722
 30
0.0
 11
23.53115766425391
 21
0.3751275690685621
 31
0.0
  0
SPLINE
  5
B7
330
1F
100
AcDbEntity
  8
외형선
  6
Continuous
 62
     1
370
    15
100
AcDbSpline
210
0.0
220
0.0
230
1.0
 70
     8
 71
     3
 72
    46
 73
    42
 74
     0
 42
0.000000001
 43
0.00000001
 40
0.0
 40
0.0
 40
0.0
 40
0.0
 40
0.0625000000000001
 40
0.0625000000000001
 40
0.1250000000000002
 40
0.1250000000000002
 40
0.1875000000000004
 40
0.1875000000000004
 40
0.2500000000000005
 40
0.2500000000000005
 40
0.3125000000000006
 40
0.3125000000000006
 40
0.3750000000000008
 40
0.3750000000000008
 40
0.4375000000000009
 40
0.4375000000000009
 40
0.500000000000001
 40
0.500000000000001
 40
0.5625000000000011
 40
0.5625000000000011
 40
0.5937500000000012
 40
0.5937500000000012
 40
0.6250000000000012
 40
0.6250000000000012
 40
0.6562500000000013
 40
0.6562500000000013
 40
0.6875000000000013
 40
0.6875000000000013
 40
0.7500000000000016
 40
0.7500000000000016
 40
0.7812500000000011
 40
0.7812500000000011
 40
0.8125000000000008
 40
0.8125000000000008
 40
0.8437500000000003
 40
0.8437500000000003
 40
0.875
 40
0.875
 40
0.9375
 40
0.9375
 40
1.0
 40
1.0
 40
1.0
 40
1.0
 10
23.5311576642539
 20
-3.952790211620721
 30
0.0
 10
23.13716624431249
 20
-3.855879704616975
 30
0.0
 10
22.73751780169252
 20
-3.742146753892444
 30
0.0
 10
21.94164648607717
 20
-3.484928306135364
 30
0.0
 10
21.54861852745754
 20
-3.341933140251407
 30
0.0
 10
20.7532977163359
 20
-3.028444588908692
 30
0.0
 10
20.35340598530577
 20
-2.858147250304055
 30
0.0
 10
19.56392903317795
 20
-2.496919871239353
 30
0.0
 10
19.16599655272258
 20
-2.304749675651491
 30
0.0
 10
18.36971741652154
 20
-1.902828739179008
 30
0.0
 10
17.97643228867165
 20
-1.693994831495881
 30
0.0
 10
17.18180433675765
 20
-1.262672125201683
 30
0.0
 10
16.78174182351828
 20
-1.040364874722157
 30
0.0
 10
15.99090963648211
 20
-0.5907256039868558
 30
0.0
 10
15.59443887039193
 20
-0.3623335465234784
 30
0.0
 10
14.79789484156368
 20
0.0962667413156695
 30
0.0
 10
14.40409552874158
 20
0.3252603264174004
 30
0.0
 10
13.61030237682503
 20
0.7798771144841394
 30
0.0
 10
13.21014169149468
 20
1.005508434505206
 30
0.0
 10
12.61610588576506
 20
1.335191785079885
 30
0.0
 10
12.41953549682202
 20
1.443561026615012
 30
0.0
 10
12.02287415856403
 20
1.657742245459149
 30
0.0
 10
11.82366332286263
 20
1.763388336015544
 30
0.0
 10
11.4253304054144
 20
1.970794789699117
 30
0.0
 10
11.22621024008818
 20
2.072554158561301
 30
0.0
 10
10.82990878575248
 20
2.271261187593137
 30
0.0
 10
10.63338951262257
 20
2.368109007292514
 30
0.0
 10
10.03877683067353
 20
2.651856900043033
 30
0.0
 10
9.638590643131003
 20
2.831390224676536
 30
0.0
 10
9.043748474359251
 20
3.081254398711939
 30
0.0
 10
8.847207471250279
 20
3.161214282083333
 30
0.0
 10
8.451069508506542
 20
3.314869618890475
 30
0.0
 10
8.251993223595811
 20
3.388482244902839
 30
0.0
 10
7.853670982868656
 20
3.528555731668728
 30
0.0
 10
7.65442694311406
 20
3.595015906151503
 30
0.0
 10
7.257623136798856
 20
3.720193415713027
 30
0.0
 10
7.060987561143333
 20
3.778830305956972
 30
0.0
 10
6.467212706879841
 20
3.943273873243878
 30
0.0
 10
6.067073702531027
 20
4.037387353554925
 30
0.0
 10
5.273016703276771
 20
4.191004694057578
 30
0.0
 10
4.879397654899811
 20
4.250634073437348
 30
0.0
 10
4.481157664253897
 20
4.292694441883849
 30
0.0
  0
SPLINE
  5
B8
330
1F
100
AcDbEntity
  8
외형선
  6
Continuous
 62
     1
370
    15
100
AcDbSpline
210
0.0
220
0.0
230
1.0
 70
     8
 71
     3
 72
    19
 73
    15
 74
     0
 42
0.000000001
 43
0.00000001
 40
0.0
 40
0.0
 40
0.0
 40
0.0
 40
0.0842674317274472
 40
0.1683932871310517
 40
0.2525441199059281
 40
0.3368585919697673
 40
0.4210662802968319
 40
0.5051821050363874
 40
0.5893728176578257
 40
0.6736941387016144
 40
0.7618749420212741
 40
0.8500075618564142
 40
0.9382023995848838
 40
1.0
 40
1.0
 40
1.0
 40
1.0
 10
23.53115766425391
 20
0.3751275690685619
 30
0.0
 10
23.08620439745983
 20
0.62971232661705
 30
0.0
 10
22.19704542252516
 20
1.13845411805684
 30
0.0
 10
20.86423615310845
 20
1.864199103876875
 30
0.0
 10
19.53111890286816
 20
2.532915549708299
 30
0.0
 10
18.19664485015953
 20
3.121829409612723
 30
0.0
 10
16.86300881848248
 20
3.614817718594639
 30
0.0
 10
15.53036295316394
 20
3.995694617567863
 30
0.0
 10
14.19686482576138
 20
4.252567234924193
 30
0.0
 10
12.84114468325037
 20
4.379082517014298
 30
0.0
 10
11.46543709120538
 20
4.365544143951588
 30
0.0
 10
10.06933296568853
 20
4.198639811957999
 30
0.0
 10
8.81235433922944
 20
3.934897588311451
 30
0.0
 10
8.02027669356194
 20
3.674876290824577
 30
0.0
 10
7.69393692303399
 20
3.567746275202512
 30
0.0
  0
LINE
  5
B9
330
1F
100
AcDbEntity
  8
외형선
  6
Continuous
 62
     1
370
    15
100
AcDbLine
 10
23.53115766425391
 20
-4.348495884916945
 30
0.0
 11
23.53115766425391
 21
-3.952790211620722
 31
0.0
  0
SPLINE
  5
BA
330
1F
100
AcDbEntity
  8
외형선
  6
Continuous
 62
     1
370
    15
100
AcDbSpline
210
0.0
220
0.0
230
1.0
 70
     8
 71
     3
 72
    46
 73
    42
 74
     0
 42
0.000000001
 43
0.00000001
 40
0.0
 40
0.0
 40
0.0
 40
0.0
 40
0.0624999999999998
 40
0.0624999999999998
 40
0.1249999999999997
 40
0.1249999999999997
 40
0.1874999999999996
 40
0.1874999999999996
 40
0.2499999999999994
 40
0.2499999999999994
 40
0.3124999999999992
 40
0.3124999999999992
 40
0.3749999999999991
 40
0.3749999999999991
 40
0.4374999999999989
 40
0.4374999999999989
 40
0.4999999999999988
 40
0.4999999999999988
 40
0.5624999999999987
 40
0.5624999999999987
 40
0.5937499999999986
 40
0.5937499999999986
 40
0.6249999999999984
 40
0.6249999999999984
 40
0.6562499999999984
 40
0.6562499999999984
 40
0.6874999999999983
 40
0.6874999999999983
 40
0.7499999999999989
 40
0.7499999999999989
 40
0.7812499999999989
 40
0.7812499999999989
 40
0.8124999999999988
 40
0.8124999999999988
 40
0.8437499999999987
 40
0.8437499999999987
 40
0.8749999999999987
 40
0.8749999999999987
 40
0.9374999999999992
 40
0.9374999999999992
 40
1.0
 40
1.0
 40
1.0
 40
1.0
 10
23.53115766425391
 20
-4.348495884916945
 30
0.0
 10
23.13716624431251
 20
-4.328910449502491
 30
0.0
 10
22.73751780169252
 20
-4.291233411542975
 30
0.0
 10
21.94164648607717
 20
-4.180736806126425
 30
0.0
 10
21.54861852745754
 20
-4.108232614321881
 30
0.0
 10
20.75329771633588
 20
-3.929372007320821
 30
0.0
 10
20.35340598530579
 20
-3.823041448384107
 30
0.0
 10
19.56392903317793
 20
-3.580744800533915
 30
0.0
 10
19.16599655272258
 20
-3.44396622569788
 30
0.0
 10
18.36971741652155
 20
-3.142959517260433
 30
0.0
 10
17.97643228867162
 20
-2.979465061894942
 30
0.0
 10
17.18180433675763
 20
-2.628160007419785
 30
0.0
 10
16.78174182351827
 20
-2.440437173011425
 30
0.0
 10
15.99090963648211
 20
-2.047893063772302
 30
0.0
 10
15.59443887039193
 20
-1.842175159239702
 30
0.0
 10
14.79789484156368
 20
-1.416557767879598
 30
0.0
 10
14.40409552874161
 20
-1.197809265023763
 30
0.0
 10
13.610302376825
 20
-0.7511094951732723
 30
0.0
 10
13.21014169149467
 20
-0.5230978223463922
 30
0.0
 10
12.61610588576506
 20
-0.1804223791160653
 30
0.0
 10
12.41953549682205
 20
-0.0661697417600697
 30
0.0
 10
12.02287415856404
 20
0.1629157020637967
 30
0.0
 10
11.82366332286264
 20
0.2775787674711878
 30
0.0
 10
11.42533040541442
 20
0.5060780267444044
 30
0.0
 10
11.22621024008821
 20
0.6199131220020987
 30
0.0
 10
10.82990878575252
 20
0.8457026875615211
 30
0.0
 10
10.6333895126226
 20
0.9575351991408506
 30
0.0
 10
10.03877683067354
 20
1.290680557391572
 30
0.0
 10
9.638590643131025
 20
1.509041388279184
 30
0.0
 10
9.043748474359251
 20
1.824916471402966
 30
0.0
 10
8.847207471250272
 20
1.928131473905199
 30
0.0
 10
8.451069508506535
 20
2.13090925957106
 30
0.0
 10
8.251993223595804
 20
2.230373611324157
 30
0.0
 10
7.853670982868663
 20
2.424504732929285
 30
0.0
 10
7.654426943114081
 20
2.51917056050678
 30
0.0
 10
7.257623136798856
 20
2.702842274252738
 30
0.0
 10
7.060987561143347
 20
2.791717429026329
 30
0.0
 10
6.467212706879848
 20
3.050027780614064
 30
0.0
 10
6.067073702531014
 20
3.210910989043386
 30
0.0
 10
5.273016703276771
 20
3.504002589369676
 30
0.0
 10
4.879397654899797
 20
3.636290529822128
 30
0.0
 10
4.481157664253909
 20
3.753528639051956
 30
0.0
  0
SPLINE
  5
BB
330
1F
100
AcDbEntity
  8
외형선
  6
Continuous
 62
     1
370
    15
100
AcDbSpline
210
0.0
220
0.0
230
1.0
 70
     8
 71
     3
 72
    19
 73
    15
 74
     0
 42
0.000000001
 43
0.00000001
 40
0.0
 40
0.0
 40
0.0
 40
0.0
 40
0.0883346707555876
 40
0.1767959923353926
 40
0.265311702514528
 40
0.3536619019831149
 40
0.4420161772921039
 40
0.530539563645479
 40
0.6189911362211834
 40
0.7073241701596931
 40
0.7999164072323344
 40
0.8926520002125055
 40
0.9853100537603547
 40
1.0
 40
1.0
 40
1.0
 40
1.0
 10
4.481157664253916
 20
-0.7993522040557206
 30
0.0
 10
4.925110255719152
 20
-1.049182541659438
 30
0.0
 10
5.813651960653263
 20
-1.549201413913416
 30
0.0
 10
7.147546770754071
 20
-2.243983415129637
 30
0.0
 10
8.481850948277728
 20
-2.870541457541445
 30
0.0
 10
9.81478327378123
 20
-3.40841918479933
 30
0.0
 10
11.14776467055147
 20
-3.840491669533917
 30
0.0
 10
12.48212143707296
 20
-4.152781231667077
 30
0.0
 10
13.81595555716892
 20
-4.336787725478711
 30
0.0
 10
15.1697390948173
 20
-4.386248227107723
 30
0.0
 10
16.54533191033644
 20
-4.295513832440433
 30
0.0
 10
17.94332912840051
 20
-4.046246666612165
 30
0.0
 10
18.94929768566077
 20
-3.797420996295506
 30
0.0
 10
19.48887254910912
 20
-3.600975443506989
 30
0.0
 10
19.56271021494371
 20
-3.574093017982589
 30
0.0
  0
SPLINE
  5
BC
330
1F
100
AcDbEntity
  8
외형선
  6
Continuous
370
    15
100
AcDbSpline
210
0.0
220
0.0
230
1.0
 70
    24
 71
     3
 72
    22
 73
    18
 74
     0
 42
0.000000001
 43
0.00000001
 40
0.0
 40
0.0
 40
0.0
 40
0.0
 40
0.0045153185714213
 40
0.0775975337581488
 40
0.1506797489448767
 40
0.2237619641315918
 40
0.2968441793183069
 40
0.3699263945050215
 40
0.443008609691736
 40
0.5160908248784499
 40
0.5891730400651639
 40
0.6622552552518357
 40
0.7353374704385075
 40
0.8084196856252652
 40
0.8815019008120228
 40
0.9545841159987384
 40
1.0
 40
1.0
 40
1.0
 40
1.0
 10
4.481157664253909
 20
3.753528639051957
 30
0.0
 10
4.481157664253909
 20
3.747447269482433
 30
0.0
 10
4.481157664253847
 20
3.642936530538408
 30
0.0
 10
4.481157664253923
 20
3.41845162504826
 30
0.0
 10
4.481157664253916
 20
3.047579668773966
 30
0.0
 10
4.481157664253931
 20
2.640398940159269
 30
0.0
 10
4.481157664253923
 20
2.209936130620666
 30
0.0
 10
4.481157664253909
 20
1.767614021653606
 30
0.0
 10
4.48115766425389
 20
1.326227580813303
 30
0.0
 10
4.481157664253904
 20
0.89859339798418
 30
0.0
 10
4.481157664253883
 20
0.4960671170074851
 30
0.0
 10
4.481157664253909
 20
0.1312892535995045
 30
0.0
 10
4.481157664253883
 20
-0.1868394334095887
 30
0.0
 10
4.481157664253916
 20
-0.4482135210800187
 30
0.0
 10
4.481157664253909
 20
-0.6439197446391083
 30
0.0
 10
4.481157664253904
 20
-0.7632448492001391
 30
0.0
 10
4.481157664253904
 20
-0.7864864753505374
 30
0.0
 10
4.481157664253909
 20
-0.7953941203210508
 30
0.0
  0
SPLINE
  5
BD
330
1F
100
AcDbEntity
  8
외형선
  6
Continuous
 62
     1
370
    15
100
AcDbSpline
210
0.0
220
0.0
230
1.0
 70
     8
 71
     3
 72
    14
 73
    10
 74
     0
 42
0.000000001
 43
0.00000001
 40
0.0
 40
0.0
 40
0.0
 40
0.0
 40
0.0215052818068772
 40
0.1845112500988313
 40
0.3477695923397905
 40
0.5108914286419585
 40
0.6738345822121762
 40
0.8368029377162304
 40
1.0
 40
1.0
 40
1.0
 40
1.0
 10
14.96418726050161
 20
4.358629619040739
 30
0.0
 10
15.02558393432169
 20
4.36121775709436
 30
0.0
 10
15.5523557822884
 20
4.383423492038487
 30
0.0
 10
16.54532729863909
 20
4.287147506178629
 30
0.0
 10
17.94334225109325
 20
4.057627116108937
 30
0.0
 10
19.34074305780464
 20
3.676367757305052
 30
0.0
 10
20.73696336203454
 20
3.172382420612743
 30
0.0
 10
22.13340510367205
 20
2.563838731762957
 30
0.0
 10
23.06502239443674
 20
2.089337981465743
 30
0.0
 10
23.5311576642539
 20
1.851921246653214
 30
0.0
  0
LINE
  5
BE
330
1F
100
AcDbEntity
  8
외형선
  6
Continuous
 62
     1
370
    15
100
AcDbLine
 10
23.53115766425391
 20
0.3751275690685621
 30
0.0
 11
23.53115766425391
 21
1.851921246653214
 31
0.0
  0
SPLINE
  5
BF
330
1F
100
AcDbEntity
  8
외형선
  6
Continuous
 62
     1
370
    15
100
AcDbSpline
210
0.0
220
0.0
230
1.0
 70
     8
 71
     3
 72
    13
 73
     9
 74
     0
 42
0.000000001
 43
0.00000001
 40
0.0
 40
0.0
 40
0.0
 40
0.0
 40
0.1069786952966487
 40
0.2854493984776948
 40
0.4640460944091409
 40
0.6428993362258264
 40
0.8215259950994762
 40
1.0
 40
1.0
 40
1.0
 40
1.0
 10
12.30180337417986
 20
-4.346673123102811
 30
0.0
 10
12.02292556369463
 20
-4.348523752524267
 30
0.0
 10
11.27880073555907
 20
-4.35346175493395
 30
0.0
 10
10.06934348324421
 20
-4.1951551596328
 30
0.0
 10
8.672352095985985
 20
-3.894199399769015
 30
0.0
 10
7.274239550494161
 20
-3.453210126757745
 30
0.0
 10
5.877107582275236
 20
-2.901342240661499
 30
0.0
 10
4.946341675152595
 20
-2.453728536763877
 30
0.0
 10
4.481157664253923
 20
-2.230017358132505
 30
0.0
  0
SPLINE
  5
C0
330
1F
100
AcDbEntity
  8
외형선
  6
Continuous
 62
     1
370
    15
100
AcDbSpline
210
0.0
220
0.0
230
1.0
 70
     8
 71
     3
 72
    10
 73
     6
 74
     0
 42
0.000000001
 43
0.00000001
 40
0.0
 40
0.0
 40
0.0
 40
0.0
 40
0.336270862819148
 40
0.6719767625013231
 40
1.0
 40
1.0
 40
1.0
 40
1.0
 10
23.53115766425393
 20
4.350645742364732
 30
0.0
 10
23.08620091803025
 20
4.315171631355318
 30
0.0
 10
22.19703499008208
 20
4.244283008806002
 30
0.0
 10
20.87456967420687
 20
3.97994480451172
 30
0.0
 10
19.99660923848758
 20
3.709767752347876
 30
0.0
 10
19.56271021494372
 20
3.576242875430375
 30
0.0
  0
LINE
  5
C1
330
1F
100
AcDbEntity
  8
외형선
  6
Continuous
 62
     1
370
    15
100
AcDbLine
 10
23.53115766425391
 20
1.837055861947282
 30
0.0
 11
23.53115766425391
 21
4.350645742364732
 31
0.0
  0
SPLINE
  5
C2
330
1F
100
AcDbEntity
  8
외형선
  6
Continuous
 62
     1
370
    15
100
AcDbSpline
210
0.0
220
0.0
230
1.0
 70
     8
 71
     3
 72
    10
 73
     6
 74
     0
 42
0.000000001
 43
0.00000001
 40
0.0
 40
0.0
 40
0.0
 40
0.0
 40
0.4146536674160199
 40
0.8299018491749823
 40
0.9999999999999999
 40
0.9999999999999999
 40
0.9999999999999999
 40
0.9999999999999999
 10
4.481157664253916
 20
-4.290544584436057
 30
0.0
 10
4.925107864423311
 20
-4.229365740070921
 30
0.0
 10
5.813644783337209
 20
-4.106920335486874
 30
0.0
 10
6.884726391696184
 20
-3.846653929843235
 30
0.0
 10
7.511732647231242
 20
-3.628880172063185
 30
0.0
 10
7.693936923033934
 20
-3.565596417754726
 30
0.0
  0
SPLINE
  5
C3
330
1F
100
AcDbEntity
  8
외형선
  6
Continuous
370
    15
100
AcDbSpline
210
0.0
220
0.0
230
1.0
 70
    24
 71
     3
 72
    12
 73
     8
 74
     0
 42
0.000000001
 43
0.00000001
 40
0.0
 40
0.0
 40
0.0
 40
0.0
 40
0.1923760912204329
 40
0.3990176301253755
 40
0.5998354389693547
 40
0.806476977874175
 40
1.0
 40
1.0
 40
1.0
 40
1.0
 10
4.481157664253897
 20
-2.27433049998372
 30
0.0
 10
4.481157664253897
 20
-2.3838145826238
 30
0.0
 10
4.481157664253883
 20
-2.610901425455213
 30
0.0
 10
4.481157664253916
 20
-3.003393310814993
 30
0.0
 10
4.481157664253904
 20
-3.428774534740768
 30
0.0
 10
4.481157664253909
 20
-3.862163387963485
 30
0.0
 10
4.481157664253916
 20
-4.150906117816147
 30
0.0
 10
4.481157664253916
 20
-4.290544584436054
 30
0.0
  0
LINE
  5
C4
330
1F
100
AcDbEntity
  8
중심선
 62
     1
100
AcDbLine
 10
-42.9688423357461
 20
0.0010749287238892
 30
0.0
 11
26.53115766425391
 21
0.0010749287238978
 31
0.0
  0
LINE
  5
C5
330
1F
100
AcDbEntity
  8
참조1
100
AcDbLine
 10
-8.21884233574609
 20
0.0010749287238892
 30
0.0
 11
-8.218842335746084
 21
-39.99892507127611
 31
0.0
  0
LINE
  5
C6
330
1F
100
AcDbEntity
  8
참조1
100
AcDbLine
 10
-8.218842335746084
 20
-39.99892507127611
 30
0.0
 11
-25.75894915005476
 21
-39.9989250712761
 31
0.0
  0
CIRCLE
  5
C7
330
1F
100
AcDbEntity
  8
해칭선
100
AcDbCircle
 10
0.0
 20
0.0
 30
0.0
 40
3.000000000000001
  0
INSERT
  5
C8
330
1F
100
AcDbEntity
  8
0
  6
Continuous
 62
     7
100
AcDbBlockReference
 66
     1
  2
블럭10
 10
-22.1591152678713
 20
-52.04609937292004
 30
0.0
  0
ATTRIB
  5
C9
330
C8
100
AcDbEntity
  8
FORMAT
 62
     2
100
AcDbText
 10
-31.34041055661258
 20
-49.97073246008785
 30
0.0
 40
4.233333333333333
  1
E2039022 [ 4 FLUTE ]
 41
0.75
  7
SLDTEXTSTYLE0
 11
-31.34041055661258
 21
-52.08739912675452
 31
0.0
100
AcDbAttribute
  2
AUTOATTR0
 70
     0
 74
     1
  0
SEQEND
  5
CA
330
C8
100
AcDbEntity
  8
0
  6
Continuous
 62
     7
  0
HATCH
  5
CB
330
1F
100
AcDbEntity
  8
중심선
100
AcDbHatch
 10
0.0
 20
0.0
 30
0.0
210
0.0
220
0.0
230
1.0
  2
SOLID
 70
     1
 71
     0
 91
        1
 92
        0
 93
        4
 72
     1
 10
-16.44420596349046
 20
-35.7989250712761
 11
-19.89048120732774
 21
-35.7989250712761
 72
     1
 10
-19.89048120732774
 20
-35.7989250712761
 11
-22.01871106653176
 21
-38.3352506518487
 72
     1
 10
-22.01871106653176
 20
-38.3352506518487
 11
-18.57240273758133
 21
-38.33521122254621
 72
     1
 10
-18.57240273758133
 20
-38.33521122254621
 11
-16.44420596349046
 21
-35.7989250712761
 97
        0
 75
     0
 76
     1
 98
        1
 10
-4.124445985523377
 20
0.0
  0
HATCH
  5
CC
330
1F
100
AcDbEntity
  8
중심선
100
AcDbHatch
 10
0.0
 20
0.0
 30
0.0
210
0.0
220
0.0
230
1.0
  2
SOLID
 70
     1
 71
     0
 91
        1
 92
        0
 93
        4
 72
     1
 10
-11.43144197245448
 20
-35.7989250712761
 11
-14.87771721629176
 21
-35.7989250712761
 72
     1
 10
-14.87771721629176
 20
-35.7989250712761
 11
-19.40885522464918
 21
-41.19892507127612
 72
     1
 10
-19.40885522464918
 20
-41.19892507127612
 11
-15.9625799808119
 21
-41.19892507127612
 72
     1
 10
-15.9625799808119
 20
-41.19892507127612
 11
-11.43144197245448
 21
-35.7989250712761
 97
        0
 75
     0
 76
     1
 98
        1
 10
-4.124445985523377
 20
0.0
  0
HATCH
  5
CD
330
1F
100
AcDbEntity
  8
중심선
100
AcDbHatch
 10
0.0
 20
0.0
 30
0.0
210
0.0
220
0.0
230
1.0
  2
SOLID
 70
     1
 71
     0
 91
        1
 92
        0
 93
        4
 72
     1
 10
-6.418677981418613
 20
-35.7989250712761
 11
-9.864953225255729
 21
-35.7989250712761
 72
     1
 10
-9.864953225255729
 20
-35.7989250712761
 11
-16.91339012714498
 21
-44.19892507127612
 72
     1
 10
-16.91339012714498
 20
-44.19892507127612
 11
-13.4671148833077
 21
-44.19892507127612
 72
     1
 10
-13.46711488330769
 20
-44.19892507127612
 11
-6.418677981418611
 21
-35.7989250712761
 97
        0
 75
     0
 76
     1
 98
        1
 10
-4.124445985523377
 20
0.0
  0
HATCH
  5
CE
330
1F
100
AcDbEntity
  8
중심선
100
AcDbHatch
 10
0.0
 20
0.0
 30
0.0
210
0.0
220
0.0
230
1.0
  2
SOLID
 70
     1
 71
     0
 91
        1
 92
        0
 93
        6
 72
     3
 10
-1.618787550406413
 20
-39.99892507132738
 11
3.960054785062284
 21
1.540882976769353E-10
 40
0.3939339440162627
 50
17.09539180608437
 51
320.0019657685086
 73
     0
 72
     1
 10
0.0642121052941826
 20
-38.58681907591443
 11
2.36951397899522
 21
-36.65249236586649
 72
     3
 10
-1.61878755045926
 20
-39.99892507127625
 11
6.600054785286829
 21
-1.278976924368180E-13
 40
0.6363583540795981
 50
39.99873849337411
 51
368.4976242363725
 73
     1
 72
     1
 10
4.806544941441349
 20
-39.03892507120613
 11
-2.938720243623338
 21
-39.03892507120613
 72
     1
 10
-2.938720243623338
 20
-39.03892507120613
 11
-2.938745288069271
 21
-40.95892507120602
 72
     1
 10
-2.938745288069271
 20
-40.95892507120602
 11
1.502634481402767
 21
-40.95892507120599
 97
        0
 75
     0
 76
     1
 98
        1
 10
-4.124445985523377
 20
0.0
  0
DIMENSION
  5
CF
330
1F
100
AcDbEntity
  8
치수문자_일반주서
100
AcDbDimension
  2
_D
 10
4.481157664253914
 20
17.53148362831354
 30
0.0
 11
14.00615766425391
 21
17.53148362831354
 31
0.0
 70
   160
  1
<>
 71
     2
 42
19.05
  3
SLDDIMSTYLE0
100
AcDbAlignedDimension
 13
23.53115766425391
 23
4.350645742364732
 33
0.0
 14
4.481157664253913
 24
4.292694441883849
 34
0.0
100
AcDbRotatedDimension
1001
ACAD
1000
DSTYLE
1002
{
1070
   171
1070
     6
1070
   273
1070
     7
1002
}
  0
DIMENSION
  5
E4
330
1F
100
AcDbEntity
  8
치수문자_일반주서
100
AcDbDimension
  2
_D_1
 10
-39.96884233574609
 20
33.25268882611631
 30
0.0
 11
-8.21884233574609
 21
33.25268882611631
 31
0.0
 70
   160
  1
<>
 71
     2
 42
63.5
  3
SLDDIMSTYLE1
100
AcDbAlignedDimension
 13
23.53115766425391
 23
4.350645742364732
 33
0.0
 14
-39.96884233574609
 24
3.811074928723895
 34
0.0
100
AcDbRotatedDimension
1001
ACAD
1000
DSTYLE
1002
{
1070
   171
1070
     6
1070
   273
1070
     7
1002
}
  0
DIMENSION
  5
F8
330
1F
100
AcDbEntity
  8
치수문자_일반주서
100
AcDbDimension
  2
_D_2
 10
-51.26961517357327
 20
-4.761425071276156
 30
0.0
 11
-51.26961517357329
 21
0.0010749287238959
 31
0.0
 70
   160
  1
%%c<>
 71
     2
 42
9.525000000000006
 52
-270.0
  3
SLDDIMSTYLE2
100
AcDbAlignedDimension
 13
-39.0163423357461
 23
4.763574928723896
 33
0.0
 14
-39.0163423357461
 24
-4.761425071276109
 34
0.0
 50
90.0000000000002
100
AcDbRotatedDimension
1001
ACAD
1000
DSTYLE
1002
{
1070
   171
1070
     6
1070
   273
1070
     7
1002
}
  0
LINE
  5
120
330
1F
100
AcDbEntity
  8
참조1
100
AcDbLine
 10
72.2133914795995
 20
7.441074928723896
 30
0.0
 11
72.2133914795995
 21
-7.438925071276109
 31
0.0
  0
LINE
  5
121
330
1F
100
AcDbEntity
  8
참조1
100
AcDbLine
 10
84.9133914795995
 20
5.441074928723896
 30
0.0
 11
72.2133914795995
 21
5.441074928723896
 31
0.0
  0
SOLID
  5
122
330
1F
100
AcDbEntity
  8
참조1
100
AcDbTrace
 10
72.2133914795995
 20
5.441074928723896
 30
0.0
 11
78.56339147959949
 21
4.425074928723896
 31
0.0
 12
78.56339147959949
 22
6.457074928723896
 32
0.0
 13
78.56339147959949
 23
6.457074928723896
 33
0.0
  0
LINE
  5
123
330
1F
100
AcDbEntity
  8
참조1
100
AcDbLine
 10
84.9133914795995
 20
-5.438925071276109
 30
0.0
 11
72.2133914795995
 21
-5.438925071276109
 31
0.0
  0
SOLID
  5
124
330
1F
100
AcDbEntity
  8
참조1
100
AcDbTrace
 10
72.2133914795995
 20
-5.438925071276109
 30
0.0
 11
78.56339147959949
 21
-6.454925071276109
 31
0.0
 12
78.56339147959949
 22
-4.422925071276109
 32
0.0
 13
78.56339147959949
 23
-4.422925071276109
 33
0.0
  0
MTEXT
  5
125
330
1F
100
AcDbEntity
  8
참조1
100
AcDbMText
 10
81.59774161222549
 20
11.01136670591222
 30
0.0
 40
3.5
 41
0.0
 71
     1
 72
     1
  1
A
  7
SLDTEXTSTYLE0
 73
     1
 44
1.0
  0
MTEXT
  5
126
330
1F
100
AcDbEntity
  8
참조1
100
AcDbMText
 10
81.59774161222549
 20
0.1313667059122201
 30
0.0
 40
3.5
 41
0.0
 71
     1
 72
     1
  1
A
  7
SLDTEXTSTYLE0
 73
     1
 44
1.0
  0
INSERT
  5
12D
330
1F
100
AcDbEntity
  8
해칭선
100
AcDbBlockReference
  2
SW_DOWELSYMBOL_0
 10
0.0
 20
0.0
 30
0.0
  0
LINE
  5
153
102
{ACAD_REACTORS
102
}
330
1F
100
AcDbEntity
  8
0
 62
     1
100
AcDbLine
 10
23.53115766425391
 20
4.366699928723897
 30
0.0
 11
23.53115766425391
 21
-4.364550071276103
 31
0.0
  0
DIMENSION
  5
154
102
{ACAD_REACTORS
102
}
102
{ACAD_XDICTIONARY
360
155
102
}
330
1F
100
AcDbEntity
  8
치수문자_일반주서
100
AcDbDimension
  2
*D7
 10
35.91906720114881
 20
-4.364550071276103
 30
0.0
 11
35.91906720114881
 21
22.5436999287239
 31
0.0
 70
   160
  1
{%%C<>[]}
 71
     5
 42
8.73125
  3
SLDDIMSTYLE0
100
AcDbAlignedDimension
 13
23.53115766425391
 23
4.366699928723897
 33
0.0
 14
23.53115766425391
 24
-4.364550071276103
 34
0.0
 50
90.0
100
AcDbRotatedDimension
1001
ACAD
1000
DSTYLE
1002
{
1070
   283
1070
     1
1070
   170
1070
     1
1070
   171
1070
     6
1070
   273
1070
     7
1002
}
  0
LINE
  5
1A2
330
1F
100
AcDbEntity
  8
외형선
  6
Continuous
370
    15
100
AcDbLine
 10
-23.69379233574621
 20
3.493574928723898
 30
0.0
 11
-16.55639233574608
 21
3.493574928723898
 31
0.0
  0
LINE
  5
1A3
330
1F
100
AcDbEntity
  8
외형선
  6
Continuous
370
    15
100
AcDbLine
 10
-23.69379233574621
 20
3.493574928723898
 30
0.0
 11
-24.96379233574619
 21
4.76357492872388
 31
0.0
  0
LINE
  5
1A4
330
1F
100
AcDbEntity
  8
외형선
  6
Continuous
370
    15
100
AcDbLine
 10
-16.55639233574608
 20
3.493574928723898
 30
0.0
 11
-15.28639233574599
 21
4.76357492872388
 31
0.0
  0
LINE
  5
1A5
330
1F
100
AcDbEntity
  8
외형선
  6
Continuous
370
    15
100
AcDbLine
 10
-24.96379233574621
 20
4.763574928723896
 30
0.0
 11
-39.01634233574609
 21
4.763574928723896
 31
0.0
  0
ENDSEC
  0
SECTION
  2
OBJECTS
  0
DICTIONARY
  5
C
330
0
100
AcDbDictionary
281
     1
  3
ACAD_GROUP
350
D
  3
ACAD_IMAGE_VARS
350
151
  3
ACAD_LAYOUT
350
1A
  3
ACAD_MLINESTYLE
350
17
  3
ACAD_PLOTSETTINGS
350
19
  3
ACAD_PLOTSTYLENAME
350
E
  3
ACAD_SCALELIST
350
47
  3
APPDATA
350
14F
  3
DWGPROPS
350
1A7
  0
DICTIONARY
  5
193
330
2
100
AcDbDictionary
280
     1
281
     1
  3
ACAD_LAYERSTATES
360
194
  0
DICTIONARY
  5
155
330
154
100
AcDbDictionary
280
     1
281
     1
  0
DICTIONARY
  5
D
102
{ACAD_REACTORS
330
C
102
}
330
C
100
AcDbDictionary
281
     1
  0
RASTERVARIABLES
  5
151
102
{ACAD_REACTORS
330
C
102
}
330
C
100
AcDbRasterVariables
 90
        0
 70
     1
 71
     1
 72
     1
  0
DICTIONARY
  5
1A
102
{ACAD_REACTORS
330
C
102
}
330
C
100
AcDbDictionary
281
     1
  3
Layout1
350
1E
  3
Layout2
350
26
  3
Model
350
22
  0
DICTIONARY
  5
17
102
{ACAD_REACTORS
330
C
102
}
330
C
100
AcDbDictionary
281
     1
  3
Standard
350
18
  0
DICTIONARY
  5
19
102
{ACAD_REACTORS
330
C
102
}
330
C
100
AcDbDictionary
281
     1
  0
ACDBDICTIONARYWDFLT
  5
E
102
{ACAD_REACTORS
330
C
102
}
330
C
100
AcDbDictionary
281
     1
  3
Normal
350
F
100
AcDbDictionaryWithDefault
340
F
  0
DICTIONARY
  5
47
102
{ACAD_REACTORS
330
C
102
}
330
C
100
AcDbDictionary
281
     1
  3
A0
350
48
  3
A1
350
49
  3
A2
350
4A
  3
A3
350
4B
  3
A4
350
4C
  3
A5
350
4D
  3
A6
350
4E
  3
A7
350
4F
  3
A8
350
50
  3
A9
350
51
  3
B0
350
52
  3
B1
350
53
  3
B2
350
54
  3
B3
350
55
  3
B4
350
56
  3
B5
350
57
  3
B6
350
58
  3
B7
350
59
  3
B8
350
5A
  3
B9
350
5B
  3
C0
350
5C
  3
C1
350
5D
  3
C2
350
5E
  3
C3
350
5F
  3
C4
350
60
  3
C5
350
61
  3
C6
350
62
  3
C7
350
63
  3
C8
350
64
  3
C9
350
65
  3
D0
350
66
  3
D1
350
67
  3
D2
350
68
  0
DICTIONARY
  5
14F
102
{ACAD_REACTORS
330
C
102
}
330
C
100
AcDbDictionary
281
     1
  0
XRECORD
  5
1A7
102
{ACAD_REACTORS
330
C
102
}
330
C
100
AcDbXrecord
280
     1
  1
DWGPROPS COOKIE
  2

  3

  4

  6

  7

  8
12016016
  9

300
=
301
=
302
=
303
=
304
=
305
=
306
=
307
=
308
=
309
=
 40
0.0
 41
2458312.303433866
 42
2458319.209091331
  1

 90
        0
  0
DICTIONARY
  5
194
102
{ACAD_REACTORS
330
193
102
}
330
193
100
AcDbDictionary
281
     1
  0
LAYOUT
  5
1E
102
{ACAD_REACTORS
330
1A
102
}
330
1A
100
AcDbPlotSettings
  1

  2
none_device
  4

  6

 40
0.0
 41
0.0
 42
0.0
 43
0.0
 44
0.0
 45
0.0
 46
0.0
 47
0.0
 48
0.0
 49
0.0
140
0.0
141
0.0
142
1.0
143
1.0
 70
   688
 72
     1
 73
     0
 74
     5
  7

 75
    16
147
1.0
148
0.0
149
0.0
100
AcDbLayout
  1
Layout1
 70
     1
 71
     1
 10
0.0
 20
0.0
 11
420.0
 21
297.0
 12
0.0
 22
0.0
 32
0.0
 14
1.000000000000000E+20
 24
1.000000000000000E+20
 34
1.000000000000000E+20
 15
-1.000000000000000E+20
 25
-1.000000000000000E+20
 35
-1.000000000000000E+20
146
0.0
 13
0.0
 23
0.0
 33
0.0
 16
1.0
 26
0.0
 36
0.0
 17
0.0
 27
1.0
 37
0.0
 76
     0
330
1B
  0
LAYOUT
  5
26
102
{ACAD_REACTORS
330
1A
102
}
330
1A
100
AcDbPlotSettings
  1

  2
none_device
  4

  6

 40
0.0
 41
0.0
 42
0.0
 43
0.0
 44
0.0
 45
0.0
 46
0.0
 47
0.0
 48
0.0
 49
0.0
140
0.0
141
0.0
142
1.0
143
1.0
 70
   688
 72
     1
 73
     0
 74
     5
  7

 75
    16
147
1.0
148
0.0
149
0.0
100
AcDbLayout
  1
Layout2
 70
     1
 71
     2
 10
0.0
 20
0.0
 11
0.0
 21
0.0
 12
0.0
 22
0.0
 32
0.0
 14
0.0
 24
0.0
 34
0.0
 15
0.0
 25
0.0
 35
0.0
146
0.0
 13
0.0
 23
0.0
 33
0.0
 16
1.0
 26
0.0
 36
0.0
 17
0.0
 27
1.0
 37
0.0
 76
     0
330
23
  0
LAYOUT
  5
22
102
{ACAD_REACTORS
330
1A
102
}
330
1A
100
AcDbPlotSettings
  1

  2
none_device
  4
ANSI_A_(11.00_x_8.50_Inches)
  6

 40
6.35
 41
19.05
 42
6.35000508
 43
19.05000254
 44
279.4
 45
215.9
 46
104.0853757014623
 47
95.17558836864507
 48
0.0
 49
0.0
140
0.0
141
0.0
142
0.0740937858640012
143
1.0
 70
  1696
 72
     0
 73
     0
 74
     0
  7

 75
     0
147
0.0235690232323232
148
0.0
149
0.0
100
AcDbLayout
  1
Model
 70
     1
 71
     0
 10
0.0
 20
0.0
 11
420.0
 21
297.0
 12
0.0
 22
0.0
 32
0.0
 14
1.000000000000000E+20
 24
1.000000000000000E+20
 34
1.000000000000000E+20
 15
-1.000000000000000E+20
 25
-1.000000000000000E+20
 35
-1.000000000000000E+20
146
0.0
 13
0.0
 23
0.0
 33
0.0
 16
1.0
 26
0.0
 36
0.0
 17
0.0
 27
1.0
 37
0.0
 76
     0
330
1F
331
29
  0
MLINESTYLE
  5
18
102
{ACAD_REACTORS
330
17
102
}
330
17
100
AcDbMlineStyle
  2
Standard
 70
     0
  3

 62
   256
 51
90.0
 52
90.0
 71
     2
 49
0.5
 62
   256
  6
BYLAYER
 49
-0.5
 62
   256
  6
BYLAYER
  0
ACDBPLACEHOLDER
  5
F
102
{ACAD_REACTORS
330
E
102
}
330
E
  0
SCALE
  5
48
102
{ACAD_REACTORS
330
47
102
}
330
47
100
AcDbScale
 70
     0
300
1:1
140
1.0
141
1.0
290
     1
  0
SCALE
  5
49
102
{ACAD_REACTORS
330
47
102
}
330
47
100
AcDbScale
 70
     0
300
1:2
140
1.0
141
2.0
290
     0
  0
SCALE
  5
4A
102
{ACAD_REACTORS
330
47
102
}
330
47
100
AcDbScale
 70
     0
300
1:4
140
1.0
141
4.0
290
     0
  0
SCALE
  5
4B
102
{ACAD_REACTORS
330
47
102
}
330
47
100
AcDbScale
 70
     0
300
1:5
140
1.0
141
5.0
290
     0
  0
SCALE
  5
4C
102
{ACAD_REACTORS
330
47
102
}
330
47
100
AcDbScale
 70
     0
300
1:8
140
1.0
141
8.0
290
     0
  0
SCALE
  5
4D
102
{ACAD_REACTORS
330
47
102
}
330
47
100
AcDbScale
 70
     0
300
1:10
140
1.0
141
10.0
290
     0
  0
SCALE
  5
4E
102
{ACAD_REACTORS
330
47
102
}
330
47
100
AcDbScale
 70
     0
300
1:16
140
1.0
141
16.0
290
     0
  0
SCALE
  5
4F
102
{ACAD_REACTORS
330
47
102
}
330
47
100
AcDbScale
 70
     0
300
1:20
140
1.0
141
20.0
290
     0
  0
SCALE
  5
50
102
{ACAD_REACTORS
330
47
102
}
330
47
100
AcDbScale
 70
     0
300
1:30
140
1.0
141
30.0
290
     0
  0
SCALE
  5
51
102
{ACAD_REACTORS
330
47
102
}
330
47
100
AcDbScale
 70
     0
300
1:40
140
1.0
141
40.0
290
     0
  0
SCALE
  5
52
102
{ACAD_REACTORS
330
47
102
}
330
47
100
AcDbScale
 70
     0
300
1:50
140
1.0
141
50.0
290
     0
  0
SCALE
  5
53
102
{ACAD_REACTORS
330
47
102
}
330
47
100
AcDbScale
 70
     0
300
1:100
140
1.0
141
100.0
290
     0
  0
SCALE
  5
54
102
{ACAD_REACTORS
330
47
102
}
330
47
100
AcDbScale
 70
     0
300
2:1
140
2.0
141
1.0
290
     0
  0
SCALE
  5
55
102
{ACAD_REACTORS
330
47
102
}
330
47
100
AcDbScale
 70
     0
300
4:1
140
4.0
141
1.0
290
     0
  0
SCALE
  5
56
102
{ACAD_REACTORS
330
47
102
}
330
47
100
AcDbScale
 70
     0
300
8:1
140
8.0
141
1.0
290
     0
  0
SCALE
  5
57
102
{ACAD_REACTORS
330
47
102
}
330
47
100
AcDbScale
 70
     0
300
10:1
140
10.0
141
1.0
290
     0
  0
SCALE
  5
58
102
{ACAD_REACTORS
330
47
102
}
330
47
100
AcDbScale
 70
     0
300
100:1
140
100.0
141
1.0
290
     0
  0
SCALE
  5
59
102
{ACAD_REACTORS
330
47
102
}
330
47
100
AcDbScale
 70
     0
300
1/128" = 1'-0"
140
0.0078125
141
12.0
290
     0
  0
SCALE
  5
5A
102
{ACAD_REACTORS
330
47
102
}
330
47
100
AcDbScale
 70
     0
300
1/64" = 1'-0"
140
0.015625
141
12.0
290
     0
  0
SCALE
  5
5B
102
{ACAD_REACTORS
330
47
102
}
330
47
100
AcDbScale
 70
     0
300
1/32" = 1'-0"
140
0.03125
141
12.0
290
     0
  0
SCALE
  5
5C
102
{ACAD_REACTORS
330
47
102
}
330
47
100
AcDbScale
 70
     0
300
1/16" = 1'-0"
140
0.0625
141
12.0
290
     0
  0
SCALE
  5
5D
102
{ACAD_REACTORS
330
47
102
}
330
47
100
AcDbScale
 70
     0
300
3/32" = 1'-0"
140
0.09375
141
12.0
290
     0
  0
SCALE
  5
5E
102
{ACAD_REACTORS
330
47
102
}
330
47
100
AcDbScale
 70
     0
300
1/8" = 1'-0"
140
0.125
141
12.0
290
     0
  0
SCALE
  5
5F
102
{ACAD_REACTORS
330
47
102
}
330
47
100
AcDbScale
 70
     0
300
3/16" = 1'-0"
140
0.1875
141
12.0
290
     0
  0
SCALE
  5
60
102
{ACAD_REACTORS
330
47
102
}
330
47
100
AcDbScale
 70
     0
300
1/4" = 1'-0"
140
0.25
141
12.0
290
     0
  0
SCALE
  5
61
102
{ACAD_REACTORS
330
47
102
}
330
47
100
AcDbScale
 70
     0
300
3/8" = 1'-0"
140
0.375
141
12.0
290
     0
  0
SCALE
  5
62
102
{ACAD_REACTORS
330
47
102
}
330
47
100
AcDbScale
 70
     0
300
1/2" = 1'-0"
140
0.5
141
12.0
290
     0
  0
SCALE
  5
63
102
{ACAD_REACTORS
330
47
102
}
330
47
100
AcDbScale
 70
     0
300
3/4" = 1'-0"
140
0.75
141
12.0
290
     0
  0
SCALE
  5
64
102
{ACAD_REACTORS
330
47
102
}
330
47
100
AcDbScale
 70
     0
300
1" = 1'-0"
140
1.0
141
12.0
290
     0
  0
SCALE
  5
65
102
{ACAD_REACTORS
330
47
102
}
330
47
100
AcDbScale
 70
     0
300
1-1/2" = 1'-0"
140
1.5
141
12.0
290
     0
  0
SCALE
  5
66
102
{ACAD_REACTORS
330
47
102
}
330
47
100
AcDbScale
 70
     0
300
3" = 1'-0"
140
3.0
141
12.0
290
     0
  0
SCALE
  5
67
102
{ACAD_REACTORS
330
47
102
}
330
47
100
AcDbScale
 70
     0
300
6" = 1'-0"
140
6.0
141
12.0
290
     0
  0
SCALE
  5
68
102
{ACAD_REACTORS
330
47
102
}
330
47
100
AcDbScale
 70
     0
300
1'-0" = 1'-0"
140
12.0
141
12.0
290
     0
  0
ENDSEC
  0
EOF
