  0
SECTION
  2
HEADER
  9
$ACADVER
  1
AC1015
  9
$ACADMAINTVER
 70
     6
  9
$DWGCODEPAGE
  3
ANSI_949
  9
$INSBASE
 10
0.0
 20
0.0
 30
0.0
  9
$EXTMIN
 10
1.000000000000000E+20
 20
1.000000000000000E+20
 30
1.000000000000000E+20
  9
$EXTMAX
 10
-1.000000000000000E+20
 20
-1.000000000000000E+20
 30
-1.000000000000000E+20
  9
$LIMMIN
 10
0.0
 20
0.0
  9
$LIMMAX
 10
420.0
 20
297.0
  9
$ORTHOMODE
 70
     1
  9
$REGENMODE
 70
     1
  9
$FILLMODE
 70
     1
  9
$QTEXTMODE
 70
     0
  9
$MIRRTEXT
 70
     1
  9
$LTSCALE
 40
1.0
  9
$ATTMODE
 70
     1
  9
$TEXTSIZE
 40
3.5
  9
$TRACEWID
 40
1.0
  9
$TEXTSTYLE
  7
Standard
  9
$CLAYER
  8
0
  9
$CELTYPE
  6
ByLayer
  9
$CECOLOR
 62
   256
  9
$CELTSCALE
 40
1.0
  9
$DISPSILH
 70
     0
  9
$DIMSCALE
 40
1.0
  9
$DIMASZ
 40
3.302
  9
$DIMEXO
 40
1.0
  9
$DIMDLI
 40
3.75
  9
$DIMRND
 40
0.0
  9
$DIMDLE
 40
0.0
  9
$DIMEXE
 40
1.0
  9
$DIMTP
 40
0.0
  9
$DIMTM
 40
0.0
  9
$DIMTXT
 40
3.5
  9
$DIMCEN
 40
2.5
  9
$DIMTSZ
 40
0.0
  9
$DIMTOL
 70
     0
  9
$DIMLIM
 70
     0
  9
$DIMTIH
 70
     1
  9
$DIMTOH
 70
     1
  9
$DIMSE1
 70
     0
  9
$DIMSE2
 70
     0
  9
$DIMTAD
 70
     1
  9
$DIMZIN
 70
     0
  9
$DIMBLK
  1

  9
$DIMASO
 70
     1
  9
$DIMSHO
 70
     1
  9
$DIMPOST
  1

  9
$DIMAPOST
  1

  9
$DIMALT
 70
     0
  9
$DIMALTD
 70
     3
  9
$DIMALTF
 40
0.0393700787401575
  9
$DIMLFAC
 40
1.0
  9
$DIMTOFL
 70
     1
  9
$DIMTVP
 40
0.0
  9
$DIMTIX
 70
     0
  9
$DIMSOXD
 70
     0
  9
$DIMSAH
 70
     0
  9
$DIMBLK1
  1

  9
$DIMBLK2
  1

  9
$DIMSTYLE
  2
ISO-25
  9
$DIMCLRD
 70
     0
  9
$DIMCLRE
 70
     0
  9
$DIMCLRT
 70
     0
  9
$DIMTFAC
 40
1.0
  9
$DIMGAP
 40
1.524
  9
$DIMJUST
 70
     0
  9
$DIMSD1
 70
     0
  9
$DIMSD2
 70
     0
  9
$DIMTOLJ
 70
     0
  9
$DIMTZIN
 70
     0
  9
$DIMALTZ
 70
     0
  9
$DIMALTTZ
 70
     0
  9
$DIMUPT
 70
     0
  9
$DIMDEC
 70
     2
  9
$DIMTDEC
 70
     2
  9
$DIMALTU
 70
     2
  9
$DIMALTTD
 70
     3
  9
$DIMTXSTY
  7
Standard
  9
$DIMAUNIT
 70
     0
  9
$DIMADEC
 70
     2
  9
$DIMALTRND
 40
0.0
  9
$DIMAZIN
 70
     0
  9
$DIMDSEP
 70
    44
  9
$DIMATFIT
 70
     3
  9
$DIMFRAC
 70
     0
  9
$DIMLDRBLK
  1

  9
$DIMLUNIT
 70
     2
  9
$DIMLWD
 70
    -2
  9
$DIMLWE
 70
    -2
  9
$DIMTMOVE
 70
     0
  9
$LUNITS
 70
     2
  9
$LUPREC
 70
     2
  9
$SKETCHINC
 40
1.0
  9
$FILLETRAD
 40
10.0
  9
$AUNITS
 70
     0
  9
$AUPREC
 70
     2
  9
$MENU
  1
.
  9
$ELEVATION
 40
0.0
  9
$PELEVATION
 40
0.0
  9
$THICKNESS
 40
0.0
  9
$LIMCHECK
 70
     0
  9
$CHAMFERA
 40
0.0
  9
$CHAMFERB
 40
0.0
  9
$CHAMFERC
 40
0.0
  9
$CHAMFERD
 40
0.0
  9
$SKPOLY
 70
     0
  9
$TDCREATE
 40
2458312.753726516
  9
$TDUCREATE
 40
2458312.378726516
  9
$TDUPDATE
 40
2458319.582066644
  9
$TDUUPDATE
 40
2458319.207066644
  9
$TDINDWG
 40
0.0001116667
  9
$TDUSRTIMER
 40
2458319.206955139
  9
$USRTIMER
 70
     1
  9
$ANGBASE
 50
0.0
  9
$ANGDIR
 70
     0
  9
$PDMODE
 70
     0
  9
$PDSIZE
 40
-1.0
  9
$PLINEWID
 40
0.0
  9
$SPLFRAME
 70
     0
  9
$SPLINETYPE
 70
     6
  9
$SPLINESEGS
 70
     8
  9
$HANDSEED
  5
1A0
  9
$SURFTAB1
 70
     6
  9
$SURFTAB2
 70
     6
  9
$SURFTYPE
 70
     6
  9
$SURFU
 70
     6
  9
$SURFV
 70
     6
  9
$UCSBASE
  2

  9
$UCSNAME
  2

  9
$UCSORG
 10
0.0
 20
0.0
 30
0.0
  9
$UCSXDIR
 10
1.0
 20
0.0
 30
0.0
  9
$UCSYDIR
 10
0.0
 20
1.0
 30
0.0
  9
$UCSORTHOREF
  2

  9
$UCSORTHOVIEW
 70
     0
  9
$UCSORGTOP
 10
0.0
 20
0.0
 30
0.0
  9
$UCSORGBOTTOM
 10
0.0
 20
0.0
 30
0.0
  9
$UCSORGLEFT
 10
0.0
 20
0.0
 30
0.0
  9
$UCSORGRIGHT
 10
0.0
 20
0.0
 30
0.0
  9
$UCSORGFRONT
 10
0.0
 20
0.0
 30
0.0
  9
$UCSORGBACK
 10
0.0
 20
0.0
 30
0.0
  9
$PUCSBASE
  2

  9
$PUCSNAME
  2

  9
$PUCSORG
 10
0.0
 20
0.0
 30
0.0
  9
$PUCSXDIR
 10
1.0
 20
0.0
 30
0.0
  9
$PUCSYDIR
 10
0.0
 20
1.0
 30
0.0
  9
$PUCSORTHOREF
  2

  9
$PUCSORTHOVIEW
 70
     0
  9
$PUCSORGTOP
 10
0.0
 20
0.0
 30
0.0
  9
$PUCSORGBOTTOM
 10
0.0
 20
0.0
 30
0.0
  9
$PUCSORGLEFT
 10
0.0
 20
0.0
 30
0.0
  9
$PUCSORGRIGHT
 10
0.0
 20
0.0
 30
0.0
  9
$PUCSORGFRONT
 10
0.0
 20
0.0
 30
0.0
  9
$PUCSORGBACK
 10
0.0
 20
0.0
 30
0.0
  9
$USERI1
 70
     0
  9
$USERI2
 70
     0
  9
$USERI3
 70
     0
  9
$USERI4
 70
     0
  9
$USERI5
 70
     0
  9
$USERR1
 40
0.0
  9
$USERR2
 40
0.0
  9
$USERR3
 40
0.0
  9
$USERR4
 40
0.0
  9
$USERR5
 40
0.0
  9
$WORLDVIEW
 70
     1
  9
$SHADEDGE
 70
     3
  9
$SHADEDIF
 70
    70
  9
$TILEMODE
 70
     1
  9
$MAXACTVP
 70
    64
  9
$PINSBASE
 10
0.0
 20
0.0
 30
0.0
  9
$PLIMCHECK
 70
     0
  9
$PEXTMIN
 10
1.000000000000000E+20
 20
1.000000000000000E+20
 30
1.000000000000000E+20
  9
$PEXTMAX
 10
-1.000000000000000E+20
 20
-1.000000000000000E+20
 30
-1.000000000000000E+20
  9
$PLIMMIN
 10
0.0
 20
0.0
  9
$PLIMMAX
 10
0.0
 20
0.0
  9
$UNITMODE
 70
     0
  9
$VISRETAIN
 70
     1
  9
$PLINEGEN
 70
     0
  9
$PSLTSCALE
 70
     1
  9
$TREEDEPTH
 70
  3020
  9
$CMLSTYLE
  2
Standard
  9
$CMLJUST
 70
     0
  9
$CMLSCALE
 40
20.0
  9
$PROXYGRAPHICS
 70
     1
  9
$MEASUREMENT
 70
     1
  9
$CELWEIGHT
370
    -1
  9
$ENDCAPS
280
     0
  9
$JOINSTYLE
280
     0
  9
$LWDISPLAY
290
     1
  9
$INSUNITS
 70
     4
  9
$HYPERLINKBASE
  1

  9
$STYLESHEET
  1

  9
$XEDIT
290
     1
  9
$CEPSNTYPE
380
     0
  9
$PSTYLEMODE
290
     1
  9
$FINGERPRINTGUID
  2
{A5569D9D-3FA2-4487-AEEC-E7B3EDDEB898}
  9
$VERSIONGUID
  2
{FAEB1C32-E019-11D5-929B-00C0DF256EC4}
  9
$EXTNAMES
290
     1
  9
$PSVPSCALE
 40
0.0
  9
$OLESTARTUP
290
     0
  0
ENDSEC
  0
SECTION
  2
CLASSES
  0
CLASS
  1
ACDBDICTIONARYWDFLT
  2
AcDbDictionaryWithDefault
  3
ObjectDBX Classes
 90
        0
280
     0
281
     0
  0
CLASS
  1
VISUALSTYLE
  2
AcDbVisualStyle
  3
ObjectDBX Classes
 90
     4095
280
     0
281
     0
  0
CLASS
  1
MATERIAL
  2
AcDbMaterial
  3
ObjectDBX Classes
 90
     1153
280
     0
281
     0
  0
CLASS
  1
SCALE
  2
AcDbScale
  3
ObjectDBX Classes
 90
     1153
280
     0
281
     0
  0
CLASS
  1
SUN
  2
AcDbSun
  3
SCENEOE
 90
     1153
280
     0
281
     0
  0
CLASS
  1
ACDBPLACEHOLDER
  2
AcDbPlaceHolder
  3
ObjectDBX Classes
 90
        0
280
     0
281
     0
  0
CLASS
  1
LAYOUT
  2
AcDbLayout
  3
ObjectDBX Classes
 90
        0
280
     0
281
     0
  0
CLASS
  1
TABLESTYLE
  2
AcDbTableStyle
  3
ObjectDBX Classes
 90
     4095
280
     0
281
     0
  0
CLASS
  1
MLEADERSTYLE
  2
AcDbMLeaderStyle
  3
ACDB_MLEADERSTYLE_CLASS
 90
     4095
280
     0
281
     0
  0
CLASS
  1
RASTERVARIABLES
  2
AcDbRasterVariables
  3
ISM
 90
        0
280
     0
281
     0
  0
CLASS
  1
DIMASSOC
  2
AcDbDimAssoc
  3
"AcDbDimAssoc|Product Desc:     AcDim ARX App For Dimension|Company:          Autodesk, Inc.|WEB Address:      www.autodesk.com"
 90
        0
280
     0
281
     0
  0
ENDSEC
  0
SECTION
  2
TABLES
  0
TABLE
  2
VPORT
  5
8
330
0
100
AcDbSymbolTable
 70
     1
  0
VPORT
  5
29
330
8
100
AcDbSymbolTableRecord
100
AcDbViewportTableRecord
  2
*Active
 70
     0
 10
0.0
 20
0.0
 11
1.0
 21
1.0
 12
-17.0656395757785
 22
-16.24750341102389
 13
0.0
 23
0.0
 14
10.0
 24
10.0
 15
10.0
 25
10.0
 16
0.0
 26
0.0
 36
1.0
 17
0.0
 27
0.0
 37
0.0
 40
92.13413739392178
 41
1.67311411992263
 42
50.0
 43
0.0
 44
0.0
 50
0.0
 51
0.0
 71
    16
 72
  2000
 73
     1
 74
     3
 75
     0
 76
     0
 77
     0
 78
     0
281
     0
 65
     1
110
0.0
120
0.0
130
0.0
111
1.0
121
0.0
131
0.0
112
0.0
122
1.0
132
0.0
 79
     0
146
0.0
  0
ENDTAB
  0
TABLE
  2
LTYPE
  5
5
330
0
100
AcDbSymbolTable
 70
     6
  0
LTYPE
  5
14
330
5
100
AcDbSymbolTableRecord
100
AcDbLinetypeTableRecord
  2
ByBlock
 70
     0
  3

 72
    65
 73
     0
 40
0.0
  0
LTYPE
  5
15
330
5
100
AcDbSymbolTableRecord
100
AcDbLinetypeTableRecord
  2
ByLayer
 70
     0
  3

 72
    65
 73
     0
 40
0.0
  0
LTYPE
  5
16
330
5
100
AcDbSymbolTableRecord
100
AcDbLinetypeTableRecord
  2
Continuous
 70
     0
  3
Solid line
 72
    65
 73
     0
 40
0.0
  0
LTYPE
  5
6A
330
5
100
AcDbSymbolTableRecord
100
AcDbLinetypeTableRecord
  2
HIDDEN
 70
     0
  3
Hidden __ __ __ __ __ __ __ __ __ __ __ __ __ __
 72
    65
 73
     2
 40
1.905
 49
1.27
 74
     0
 49
-0.635
 74
     0
  0
LTYPE
  5
6B
330
5
100
AcDbSymbolTableRecord
100
AcDbLinetypeTableRecord
  2
PHANTOM
 70
     0
  3
Phantom ______  __  __  ______  __  __  ______
 72
    65
 73
     6
 40
12.7
 49
6.35
 74
     0
 49
-1.27
 74
     0
 49
1.27
 74
     0
 49
-1.27
 74
     0
 49
1.27
 74
     0
 49
-1.27
 74
     0
  0
LTYPE
  5
6C
330
5
100
AcDbSymbolTableRecord
100
AcDbLinetypeTableRecord
  2
CENTER
 70
     0
  3
Center ____ _ ____ _ ____ _ ____ _ ____ _ ____
 72
    65
 73
     4
 40
10.16
 49
6.35
 74
     0
 49
-1.27
 74
     0
 49
1.27
 74
     0
 49
-1.27
 74
     0
  0
LTYPE
  5
6D
330
5
100
AcDbSymbolTableRecord
100
AcDbLinetypeTableRecord
  2
CENTERX2
 70
     0
  3
Center (2x) ________  __  ________  __  _____
 72
    65
 73
     4
 40
20.32
 49
12.7
 74
     0
 49
-2.54
 74
     0
 49
2.54
 74
     0
 49
-2.54
 74
     0
  0
LTYPE
  5
6E
330
5
100
AcDbSymbolTableRecord
100
AcDbLinetypeTableRecord
  2
DOT2
 70
     0
  3
Dot (.5x) ........................................
 72
    65
 73
     2
 40
0.635
 49
0.0
 74
     0
 49
-0.635
 74
     0
  0
ENDTAB
  0
TABLE
  2
LAYER
  5
2
102
{ACAD_XDICTIONARY
360
18C
102
}
330
0
100
AcDbSymbolTable
 70
    18
  0
LAYER
  5
10
330
2
100
AcDbSymbolTableRecord
100
AcDbLayerTableRecord
  2
0
 70
     0
 62
     7
  6
Continuous
370
    -3
390
F
  0
LAYER
  5
6F
330
2
100
AcDbSymbolTableRecord
100
AcDbLayerTableRecord
  2
FORMAT
 70
     0
 62
     2
  6
Continuous
370
    -3
390
F
  0
LAYER
  5
70
330
2
100
AcDbSymbolTableRecord
100
AcDbLayerTableRecord
  2
외형선
 70
     0
 62
     4
  6
Continuous
370
    30
390
F
  0
LAYER
  5
71
330
2
100
AcDbSymbolTableRecord
100
AcDbLayerTableRecord
  2
숨은선
 70
     0
 62
     2
  6
HIDDEN
370
    15
390
F
  0
LAYER
  5
72
330
2
100
AcDbSymbolTableRecord
100
AcDbLayerTableRecord
  2
중심선
 70
     0
 62
     1
  6
CENTERX2
370
    -3
390
F
  0
LAYER
  5
73
330
2
100
AcDbSymbolTableRecord
100
AcDbLayerTableRecord
  2
파단선
 70
     0
 62
     4
  6
Continuous
370
    -3
390
F
  0
LAYER
  5
74
330
2
100
AcDbSymbolTableRecord
100
AcDbLayerTableRecord
  2
해칭선
 70
     0
 62
   100
  6
Continuous
370
    -3
390
F
  0
LAYER
  5
75
330
2
100
AcDbSymbolTableRecord
100
AcDbLayerTableRecord
  2
가는실선
 70
     0
 62
     4
  6
Continuous
370
    -3
390
F
  0
LAYER
  5
76
330
2
100
AcDbSymbolTableRecord
100
AcDbLayerTableRecord
  2
치수_보조선
 70
     0
 62
     4
  6
Continuous
370
    -3
390
F
  0
LAYER
  5
77
330
2
100
AcDbSymbolTableRecord
100
AcDbLayerTableRecord
  2
치수문자_일반주서
 70
     0
 62
     7
  6
Continuous
370
    15
390
F
  0
LAYER
  5
78
330
2
100
AcDbSymbolTableRecord
100
AcDbLayerTableRecord
  2
개별주서
 70
     0
 62
   100
  6
Continuous
370
    30
390
F
  0
LAYER
  5
79
330
2
100
AcDbSymbolTableRecord
100
AcDbLayerTableRecord
  2
중간선
 70
     0
 62
     2
  6
Continuous
370
    15
390
F
  0
LAYER
  5
7A
330
2
100
AcDbSymbolTableRecord
100
AcDbLayerTableRecord
  2
윤곽선
 70
     0
 62
     3
  6
Continuous
370
    40
390
F
  0
LAYER
  5
7B
330
2
100
AcDbSymbolTableRecord
100
AcDbLayerTableRecord
  2
중심마크
 70
     0
 62
   100
  6
Continuous
370
    30
390
F
  0
LAYER
  5
7C
330
2
100
AcDbSymbolTableRecord
100
AcDbLayerTableRecord
  2
가상선
 70
     0
 62
     4
  6
PHANTOM
370
    -3
390
F
  0
LAYER
  5
7D
330
2
100
AcDbSymbolTableRecord
100
AcDbLayerTableRecord
  2
특수지정선
 70
     0
 62
     5
  6
CENTERX2
370
    60
390
F
  0
LAYER
  5
7E
330
2
100
AcDbSymbolTableRecord
100
AcDbLayerTableRecord
  2
참조1
 70
     0
 62
    -4
  6
Continuous
370
    -3
390
F
  0
LAYER
  5
13B
330
2
100
AcDbSymbolTableRecord
100
AcDbLayerTableRecord
  2
Defpoints
 70
     0
 62
     7
  6
Continuous
290
     0
370
    -3
390
F
  0
ENDTAB
  0
TABLE
  2
STYLE
  5
3
330
0
100
AcDbSymbolTable
 70
     2
  0
STYLE
  5
11
330
3
100
AcDbSymbolTableRecord
100
AcDbTextStyleTableRecord
  2
Standard
 70
     0
 40
0.0
 41
1.0
 50
0.0
 71
     0
 42
3.5
  3
txt
  4

  0
STYLE
  5
94
330
3
100
AcDbSymbolTableRecord
100
AcDbTextStyleTableRecord
  2
SLDTEXTSTYLE0
 70
     0
 40
0.0
 41
0.75
 50
0.0
 71
     0
 42
3.5
  3
TXT
  4

  0
ENDTAB
  0
TABLE
  2
VIEW
  5
6
330
0
100
AcDbSymbolTable
 70
     0
  0
ENDTAB
  0
TABLE
  2
UCS
  5
7
330
0
100
AcDbSymbolTable
 70
     0
  0
ENDTAB
  0
TABLE
  2
APPID
  5
9
330
0
100
AcDbSymbolTable
 70
     2
  0
APPID
  5
12
330
9
100
AcDbSymbolTableRecord
100
AcDbRegAppTableRecord
  2
ACAD
 70
     0
  0
APPID
  5
14D
330
9
100
AcDbSymbolTableRecord
100
AcDbRegAppTableRecord
  2
PE_DIMMEASUREMENT
 70
     0
  0
ENDTAB
  0
TABLE
  2
DIMSTYLE
  5
A
330
0
100
AcDbSymbolTable
 70
     4
100
AcDbDimStyleTable
  0
DIMSTYLE
105
27
330
A
100
AcDbSymbolTableRecord
100
AcDbDimStyleTableRecord
  2
ISO-25
 70
     0
 41
2.5
 42
0.625
 43
3.75
 44
1.25
 73
     0
 74
     0
 77
     1
 78
     8
140
2.5
141
2.5
143
0.03937007874016
147
0.625
171
     3
172
     1
178
     0
271
     2
272
     2
274
     3
278
    44
283
     0
284
     8
340
11
  0
DIMSTYLE
105
B7
102
{ACAD_REACTORS
330
E0
102
}
330
A
100
AcDbSymbolTableRecord
100
AcDbDimStyleTableRecord
  2
SLDDIMSTYLE0
 70
     0
 41
3.302
 44
0.0
 45
0.000000001
 73
     0
 74
     0
 77
     1
 78
    12
 79
     3
140
3.5
143
0.0393700787401575
147
0.875
148
0.000000001
170
     1
173
     1
178
     0
271
     2
272
     2
276
     2
284
    12
340
94
  0
DIMSTYLE
105
CB
102
{ACAD_REACTORS
330
CA
330
13C
102
}
330
A
100
AcDbSymbolTableRecord
100
AcDbDimStyleTableRecord
  2
SLDDIMSTYLE1
 70
     0
 41
3.302
 44
0.0
 45
0.000000001
 73
     0
 74
     0
 77
     1
 78
     4
 79
     1
140
3.5
143
0.0393700787401575
147
0.875
148
0.000000001
170
     1
172
     1
173
     1
178
     0
271
     2
272
     2
276
     2
284
    12
289
     0
340
94
  0
DIMSTYLE
105
F4
102
{ACAD_REACTORS
330
F3
102
}
330
A
100
AcDbSymbolTableRecord
100
AcDbDimStyleTableRecord
  2
SLDDIMSTYLE2
 70
     0
 41
3.302
 44
0.0
 45
0.000000001
 73
     0
 74
     0
 77
     1
 78
    12
 79
     3
140
3.5
143
0.0393700787401575
147
0.875
148
0.000000001
170
     1
172
     1
173
     1
178
     0
271
     2
272
     2
276
     2
284
    12
289
     0
340
94
  0
ENDTAB
  0
TABLE
  2
BLOCK_RECORD
  5
1
330
0
100
AcDbSymbolTable
 70
     9
  0
BLOCK_RECORD
  5
1F
330
1
100
AcDbSymbolTableRecord
100
AcDbBlockTableRecord
  2
*Model_Space
340
22
  0
BLOCK_RECORD
  5
1B
330
1
100
AcDbSymbolTableRecord
100
AcDbBlockTableRecord
  2
*Paper_Space
340
1E
  0
BLOCK_RECORD
  5
23
330
1
100
AcDbSymbolTableRecord
100
AcDbBlockTableRecord
  2
*Paper_Space0
340
26
  0
BLOCK_RECORD
  5
7F
330
1
100
AcDbSymbolTableRecord
100
AcDbBlockTableRecord
  2
블럭10
340
0
102
{BLKREFS
331
AF
102
}
  0
BLOCK_RECORD
  5
B8
330
1
100
AcDbSymbolTableRecord
100
AcDbBlockTableRecord
  2
_D
340
0
  0
BLOCK_RECORD
  5
CC
330
1
100
AcDbSymbolTableRecord
100
AcDbBlockTableRecord
  2
_D_1
340
0
  0
BLOCK_RECORD
  5
E1
330
1
100
AcDbSymbolTableRecord
100
AcDbBlockTableRecord
  2
_D_2
340
0
  0
BLOCK_RECORD
  5
F5
330
1
100
AcDbSymbolTableRecord
100
AcDbBlockTableRecord
  2
_D_3
340
0
  0
BLOCK_RECORD
  5
10F
330
1
100
AcDbSymbolTableRecord
100
AcDbBlockTableRecord
  2
SW_DOWELSYMBOL_0
340
0
102
{BLKREFS
331
115
102
}
  0
BLOCK_RECORD
  5
13F
330
1
100
AcDbSymbolTableRecord
100
AcDbBlockTableRecord
  2
*D7
340
0
  0
ENDTAB
  0
ENDSEC
  0
SECTION
  2
BLOCKS
  0
BLOCK
  5
20
330
1F
100
AcDbEntity
  8
0
100
AcDbBlockBegin
  2
*Model_Space
 70
     0
 10
0.0
 20
0.0
 30
0.0
  3
*Model_Space
  1
*Model_Space
  0
ENDBLK
  5
21
330
1F
100
AcDbEntity
  8
0
100
AcDbBlockEnd
  0
BLOCK
  5
1C
330
1B
100
AcDbEntity
 67
     1
  8
0
100
AcDbBlockBegin
  2
*Paper_Space
 70
     0
 10
0.0
 20
0.0
 30
0.0
  3
*Paper_Space
  1
*Paper_Space
  0
ENDBLK
  5
1D
330
1B
100
AcDbEntity
 67
     1
  8
0
100
AcDbBlockEnd
  0
BLOCK
  5
24
330
23
100
AcDbEntity
  8
0
100
AcDbBlockBegin
  2
*Paper_Space0
 70
     0
 10
0.0
 20
0.0
 30
0.0
  3
*Paper_Space0
  1
*Paper_Space0
  0
ENDBLK
  5
25
330
23
100
AcDbEntity
  8
0
100
AcDbBlockEnd
  0
BLOCK
  5
80
330
7F
100
AcDbEntity
  8
0
100
AcDbBlockBegin
  2
블럭10
 70
     2
 10
0.0
 20
0.0
 30
0.0
  3
블럭10
  1
블럭10
  0
ELLIPSE
  5
82
330
7F
100
AcDbEntity
  8
중심선
100
AcDbEllipse
 10
20.54032771741204
 20
12.0471743016438
 30
0.0
 11
6.600054785286829
 21
-1.261213355974178E-13
 31
0.0
210
0.0
220
0.0
230
1.0
 40
0.636358354079598
 41
0.9219305317359503
 42
6.513795318482858
  0
ELLIPSE
  5
83
330
7F
100
AcDbEntity
  8
중심선
100
AcDbEllipse
 10
20.54032771746488
 20
12.04717430159265
 30
0.0
 11
3.960054785062283
 21
1.540847449632565E-10
 31
0.0
210
0.0
220
0.0
230
1.0
 40
0.3939339440162632
 41
1.131841032648279
 42
5.62031148352944
  0
LINE
  5
84
330
7F
100
AcDbEntity
  8
중심선
100
AcDbLine
 10
2.268634060543552
 20
16.24717430164393
 30
0.0
 11
5.714909304380834
 21
16.24717430164393
 31
0.0
  0
LINE
  5
85
330
7F
100
AcDbEntity
  8
중심선
100
AcDbLine
 10
5.245725140726316
 20
7.84717430164391
 30
0.0
 11
8.692000384563599
 21
7.84717430164391
 31
0.0
  0
LINE
  5
86
330
7F
100
AcDbEntity
  8
중심선
100
AcDbLine
 10
15.74043728645272
 20
16.24717430164393
 30
0.0
 11
8.692000384563599
 21
7.84717430164391
 31
0.0
  0
LINE
  5
87
330
7F
100
AcDbEntity
  8
중심선
100
AcDbLine
 10
0.1404042013395286
 20
13.71084872107135
 30
0.0
 11
3.58671253028996
 21
13.71088815037384
 31
0.0
  0
LINE
  5
88
330
7F
100
AcDbEntity
  8
중심선
100
AcDbLine
 10
2.750260043222114
 20
10.84717430164391
 30
0.0
 11
6.196535287059397
 21
10.84717430164391
 31
0.0
  0
LINE
  5
89
330
7F
100
AcDbEntity
  8
중심선
100
AcDbLine
 10
12.29416204261559
 20
16.24717430164393
 30
0.0
 11
5.245725140726316
 21
7.84717430164391
 31
0.0
  0
LINE
  5
8A
330
7F
100
AcDbEntity
  8
중심선
100
AcDbLine
 10
10.72767329541681
 20
16.24717430164393
 30
0.0
 11
6.196535287059397
 21
10.84717430164391
 31
0.0
  0
LINE
  5
8B
330
7F
100
AcDbEntity
  8
중심선
100
AcDbLine
 10
7.28139805157953
 20
16.24717430164393
 30
0.0
 11
2.750260043222114
 21
10.84717430164391
 31
0.0
  0
LINE
  5
8C
330
7F
100
AcDbEntity
  8
중심선
100
AcDbLine
 10
5.714909304380834
 20
16.24717430164393
 30
0.0
 11
3.58671253028996
 21
13.71088815037384
 31
0.0
  0
LINE
  5
8D
330
7F
100
AcDbEntity
  8
중심선
100
AcDbLine
 10
2.268634060543552
 20
16.24717430164393
 30
0.0
 11
0.1404042013395286
 21
13.71084872107135
 31
0.0
  0
LINE
  5
8E
330
7F
100
AcDbEntity
  8
중심선
100
AcDbLine
 10
7.28139805157953
 20
16.24717430164393
 30
0.0
 11
10.72767329541681
 21
16.24717430164393
 31
0.0
  0
LINE
  5
8F
330
7F
100
AcDbEntity
  8
중심선
100
AcDbLine
 10
12.29416204261559
 20
16.24717430164393
 30
0.0
 11
15.74043728645272
 21
16.24717430164393
 31
0.0
  0
LINE
  5
90
330
7F
100
AcDbEntity
  8
중심선
100
AcDbLine
 10
19.22036997980202
 20
11.08717430171403
 30
0.0
 11
23.66174974927406
 21
11.08717430171406
 31
0.0
  0
LINE
  5
91
330
7F
100
AcDbEntity
  8
중심선
100
AcDbLine
 10
19.22039502424796
 20
13.00717430171391
 30
0.0
 11
19.22036997980202
 21
11.08717430171403
 31
0.0
  0
LINE
  5
92
330
7F
100
AcDbEntity
  8
중심선
100
AcDbLine
 10
19.22039502424796
 20
13.00717430171391
 30
0.0
 11
26.96566020931264
 21
13.00717430171391
 31
0.0
  0
LINE
  5
93
330
7F
100
AcDbEntity
  8
중심선
100
AcDbLine
 10
22.22332737316547
 20
13.45928029700563
 30
0.0
 11
24.52862924686651
 21
15.39360700705356
 31
0.0
  0
ATTDEF
  5
95
330
7F
100
AcDbEntity
  8
FORMAT
 62
     2
100
AcDbText
 10
4.408487351596664
 20
2.075366912832191
 30
0.0
 40
4.233333333333333
  1
E2039026
 41
0.75
  7
SLDTEXTSTYLE0
 11
4.408487351596664
 21
-0.0412997538344756
 31
0.0
100
AcDbAttributeDefinition
  3

  2
AUTOATTR0
 70
     0
 74
     1
  0
ENDBLK
  5
81
330
7F
100
AcDbEntity
  8
0
100
AcDbBlockEnd
  0
BLOCK
  5
B9
330
B8
100
AcDbEntity
  8
0
100
AcDbBlockBegin
  2
_D
 70
     0
 10
0.0
 20
0.0
 30
0.0
  3
_D
  1
_D
  0
LINE
  5
BB
330
B8
100
AcDbEntity
  8
치수문자_일반주서
 62
     0
370
    -2
100
AcDbLine
 10
19.81932620173308
 20
5.218258589704694
 30
0.0
 11
56.67052760992017
 21
5.218258589704828
 31
0.0
  0
LINE
  5
BC
330
B8
100
AcDbEntity
  8
치수문자_일반주서
 62
     0
370
    -2
100
AcDbLine
 10
19.81932620173308
 20
-5.100491410295307
 30
0.0
 11
56.67052760992021
 21
-5.100491410295174
 31
0.0
  0
LINE
  5
BD
330
B8
100
AcDbEntity
  8
치수문자_일반주서
 62
     0
370
    -2
100
AcDbLine
 10
56.67052760992017
 20
5.218258589704828
 30
0.0
 11
56.67052760992005
 21
40.45775858970482
 31
0.0
  0
LINE
  5
BE
330
B8
100
AcDbEntity
  8
치수문자_일반주서
 62
     0
370
    -2
100
AcDbLine
 10
56.67052760992019
 20
1.916258589704828
 30
0.0
 11
56.67052760992019
 21
-1.798491410295174
 31
0.0
  0
SOLID
  5
BF
330
B8
100
AcDbEntity
  8
치수문자_일반주서
 62
     0
100
AcDbTrace
 10
57.22086094325352
 20
1.91625858970483
 30
0.0
 11
56.12019427658685
 21
1.916258589704826
 31
0.0
 12
56.67052760992017
 22
5.218258589704828
 32
0.0
 13
56.67052760992017
 23
5.218258589704828
 33
0.0
  0
SOLID
  5
C0
330
B8
100
AcDbEntity
  8
치수문자_일반주서
 62
     0
100
AcDbTrace
 10
56.12019427658686
 20
-1.798491410295176
 30
0.0
 11
57.22086094325353
 21
-1.798491410295172
 31
0.0
 12
56.67052760992021
 22
-5.100491410295174
 32
0.0
 13
56.67052760992021
 23
-5.100491410295174
 33
0.0
  0
MTEXT
  5
C1
330
B8
100
AcDbEntity
  8
치수문자_일반주서
 62
     0
100
AcDbMText
 10
52.29552760992011
 20
24.48900858970481
 30
0.0
 40
3.5
 41
0.0
 71
     2
 72
     1
  1
\A1;%%c10.32 [13/32]
  7
SLDTEXTSTYLE0
 11
-3.442969040630406E-15
 21
1.0
 31
0.0
 73
     1
 44
1.0
  0
POINT
  5
C2
330
B8
100
AcDbEntity
  8
Defpoints
 62
     0
100
AcDbPoint
 10
19.75682620173308
 20
5.218258589704694
 30
0.0
  0
POINT
  5
C3
330
B8
100
AcDbEntity
  8
Defpoints
 62
     0
100
AcDbPoint
 10
19.75682620173308
 20
-5.100491410295307
 30
0.0
  0
POINT
  5
C4
330
B8
100
AcDbEntity
  8
Defpoints
 62
     0
100
AcDbPoint
 10
56.67052760992021
 20
-5.100491410295178
 30
0.0
  0
ENDBLK
  5
BA
330
B8
100
AcDbEntity
  8
0
100
AcDbBlockEnd
  0
BLOCK
  5
CD
330
CC
100
AcDbEntity
  8
0
100
AcDbBlockBegin
  2
_D_1
 70
     0
 10
0.0
 20
0.0
 30
0.0
  3
_D_1
  1
_D_1
  0
LINE
  5
CF
330
CC
100
AcDbEntity
  8
치수문자_일반주서
 62
     0
370
    -2
100
AcDbLine
 10
27.65942116787305
 20
5.064077696114738
 30
0.0
 11
27.65942116787305
 21
15.04947043550684
 31
0.0
  0
LINE
  5
D0
330
CC
100
AcDbEntity
  8
치수문자_일반주서
 62
     0
370
    -2
100
AcDbLine
 10
2.259421167873051
 20
5.280758589704694
 30
0.0
 11
2.25942116787305
 21
15.04947043550684
 31
0.0
  0
LINE
  5
D1
330
CC
100
AcDbEntity
  8
치수문자_일반주서
 62
     0
370
    -2
100
AcDbLine
 10
24.35742116787305
 20
15.04947043550684
 30
0.0
 11
5.56142116787305
 21
15.04947043550684
 31
0.0
  0
SOLID
  5
D2
330
CC
100
AcDbEntity
  8
치수문자_일반주서
 62
     0
100
AcDbTrace
 10
24.35742116787305
 20
14.49913710217351
 30
0.0
 11
24.35742116787305
 21
15.59980376884017
 31
0.0
 12
27.65942116787305
 22
15.04947043550684
 32
0.0
 13
27.65942116787305
 23
15.04947043550684
 33
0.0
  0
SOLID
  5
D3
330
CC
100
AcDbEntity
  8
치수문자_일반주서
 62
     0
100
AcDbTrace
 10
5.56142116787305
 20
15.59980376884017
 30
0.0
 11
5.56142116787305
 21
14.49913710217351
 31
0.0
 12
2.25942116787305
 22
15.04947043550684
 32
0.0
 13
2.25942116787305
 23
15.04947043550684
 33
0.0
  0
MTEXT
  5
D4
330
CC
100
AcDbEntity
  8
치수문자_일반주서
 62
     0
100
AcDbMText
 10
14.95942116787301
 20
19.42447043550684
 30
0.0
 40
3.5
 41
0.0
 71
     2
 72
     1
  1
\A1;25.40 [1]
  7
SLDTEXTSTYLE0
 73
     1
 44
1.0
  0
POINT
  5
D5
330
CC
100
AcDbEntity
  8
Defpoints
 62
     0
100
AcDbPoint
 10
27.65942116787305
 20
5.001577696114738
 30
0.0
  0
POINT
  5
D6
330
CC
100
AcDbEntity
  8
Defpoints
 62
     0
100
AcDbPoint
 10
2.259421167873051
 20
5.218258589704694
 30
0.0
  0
POINT
  5
D7
330
CC
100
AcDbEntity
  8
Defpoints
 62
     0
100
AcDbPoint
 10
2.259421167873051
 20
15.04947043550684
 30
0.0
  0
ENDBLK
  5
CE
330
CC
100
AcDbEntity
  8
0
100
AcDbBlockEnd
  0
BLOCK
  5
E2
330
E1
100
AcDbEntity
  8
0
100
AcDbBlockBegin
  2
_D_2
 70
     0
 10
0.0
 20
0.0
 30
0.0
  3
_D_2
  1
_D_2
  0
LINE
  5
E4
330
E1
100
AcDbEntity
  8
치수문자_일반주서
 62
     0
370
    -2
100
AcDbLine
 10
27.65942116787305
 20
5.064077696114738
 30
0.0
 11
27.65942116787306
 21
27.04947043550682
 31
0.0
  0
LINE
  5
E5
330
E1
100
AcDbEntity
  8
치수문자_일반주서
 62
     0
370
    -2
100
AcDbLine
 10
-40.60307883212693
 20
3.826074928723898
 30
0.0
 11
-40.60307883212693
 21
27.04947043550682
 31
0.0
  0
LINE
  5
E6
330
E1
100
AcDbEntity
  8
치수문자_일반주서
 62
     0
370
    -2
100
AcDbLine
 10
24.35742116787306
 20
27.04947043550682
 30
0.0
 11
-37.30107883212693
 21
27.04947043550682
 31
0.0
  0
SOLID
  5
E7
330
E1
100
AcDbEntity
  8
치수문자_일반주서
 62
     0
100
AcDbTrace
 10
24.35742116787306
 20
26.49913710217348
 30
0.0
 11
24.35742116787306
 21
27.59980376884015
 31
0.0
 12
27.65942116787306
 22
27.04947043550682
 32
0.0
 13
27.65942116787306
 23
27.04947043550682
 33
0.0
  0
SOLID
  5
E8
330
E1
100
AcDbEntity
  8
치수문자_일반주서
 62
     0
100
AcDbTrace
 10
-37.30107883212693
 20
27.59980376884015
 30
0.0
 11
-37.30107883212693
 21
26.49913710217348
 31
0.0
 12
-40.60307883212693
 22
27.04947043550682
 32
0.0
 13
-40.60307883212693
 23
27.04947043550682
 33
0.0
  0
MTEXT
  5
E9
330
E1
100
AcDbEntity
  8
치수문자_일반주서
 62
     0
100
AcDbMText
 10
-5.539685493910278
 20
31.42447043550682
 30
0.0
 40
3.5
 41
0.0
 71
     2
 72
     1
  1
\A1;68.26 [2 11/16]
  7
SLDTEXTSTYLE0
 73
     1
 44
1.0
  0
POINT
  5
EA
330
E1
100
AcDbEntity
  8
Defpoints
 62
     0
100
AcDbPoint
 10
27.65942116787305
 20
5.001577696114738
 30
0.0
  0
POINT
  5
EB
330
E1
100
AcDbEntity
  8
Defpoints
 62
     0
100
AcDbPoint
 10
-40.60307883212693
 20
3.763574928723898
 30
0.0
  0
POINT
  5
EC
330
E1
100
AcDbEntity
  8
Defpoints
 62
     0
100
AcDbPoint
 10
-40.60307883212693
 20
27.04947043550682
 30
0.0
  0
ENDBLK
  5
E3
330
E1
100
AcDbEntity
  8
0
100
AcDbBlockEnd
  0
BLOCK
  5
F6
330
F5
100
AcDbEntity
  8
0
100
AcDbBlockBegin
  2
_D_3
 70
     0
 10
0.0
 20
0.0
 30
0.0
  3
_D_3
  1
_D_3
  0
LINE
  5
F8
330
F5
100
AcDbEntity
  8
치수문자_일반주서
 62
     0
370
    -2
100
AcDbLine
 10
-39.71307883212696
 20
4.821383589704697
 30
0.0
 11
-53.60307883212698
 21
4.821383589704644
 31
0.0
  0
LINE
  5
F9
330
F5
100
AcDbEntity
  8
치수문자_일반주서
 62
     0
370
    -2
100
AcDbLine
 10
-39.66557883212693
 20
-4.761425071276101
 30
0.0
 11
-53.60307883212695
 21
-4.761425071276153
 31
0.0
  0
LINE
  5
FA
330
F5
100
AcDbEntity
  8
치수문자_일반주서
 62
     0
370
    -2
100
AcDbLine
 10
-53.60307883212697
 20
1.519383589704645
 30
0.0
 11
-53.60307883212696
 21
-1.459425071276153
 31
0.0
  0
SOLID
  5
FB
330
F5
100
AcDbEntity
  8
치수문자_일반주서
 62
     0
100
AcDbTrace
 10
-53.05274549879363
 20
1.519383589704647
 30
0.0
 11
-54.1534121654603
 21
1.519383589704643
 31
0.0
 12
-53.60307883212698
 22
4.821383589704644
 32
0.0
 13
-53.60307883212698
 23
4.821383589704644
 33
0.0
  0
SOLID
  5
FC
330
F5
100
AcDbEntity
  8
치수문자_일반주서
 62
     0
100
AcDbTrace
 10
-54.1534121654603
 20
-1.459425071276155
 30
0.0
 11
-53.05274549879363
 21
-1.459425071276151
 31
0.0
 12
-53.60307883212695
 22
-4.761425071276153
 32
0.0
 13
-53.60307883212695
 23
-4.761425071276153
 33
0.0
  0
MTEXT
  5
FD
330
F5
100
AcDbEntity
  8
치수문자_일반주서
 62
     0
100
AcDbMText
 10
-57.97807883212697
 20
0.0588835897046786
 30
0.0
 40
3.5
 41
0.0
 71
     2
 72
     1
  1
\A1;%%c9.58 [3/8]
  7
SLDTEXTSTYLE0
 11
-3.707382464252273E-15
 21
1.0
 31
0.0
 73
     1
 44
1.0
  0
POINT
  5
FE
330
F5
100
AcDbEntity
  8
Defpoints
 62
     0
100
AcDbPoint
 10
-39.65057883212696
 20
4.821383589704697
 30
0.0
  0
POINT
  5
FF
330
F5
100
AcDbEntity
  8
Defpoints
 62
     0
100
AcDbPoint
 10
-39.60307883212693
 20
-4.761425071276101
 30
0.0
  0
POINT
  5
100
330
F5
100
AcDbEntity
  8
Defpoints
 62
     0
100
AcDbPoint
 10
-53.60307883212695
 20
-4.761425071276153
 30
0.0
  0
ENDBLK
  5
F7
330
F5
100
AcDbEntity
  8
0
100
AcDbBlockEnd
  0
BLOCK
  5
110
330
10F
100
AcDbEntity
  8
0
100
AcDbBlockBegin
  2
SW_DOWELSYMBOL_0
 70
     0
 10
0.0
 20
0.0
 30
0.0
  3
SW_DOWELSYMBOL_0
  1
SW_DOWELSYMBOL_0
  0
CIRCLE
  5
112
330
10F
100
AcDbEntity
  8
해칭선
 62
     0
100
AcDbCircle
 10
0.0
 20
0.0
 30
0.0
 40
2.999999999999999
  0
HATCH
  5
113
330
10F
100
AcDbEntity
  8
0
  6
Continuous
 62
     0
370
     0
100
AcDbHatch
 10
0.0
 20
0.0
 30
0.0
210
0.0
220
0.0
230
1.0
  2
SOLID
 70
     1
 71
     0
 91
        1
 92
        0
 93
        3
 72
     2
 10
0.0
 20
0.0
 40
2.999999999999999
 50
0.0
 51
90.0
 73
     1
 72
     1
 10
0.0
 20
2.999999999999999
 11
0.0
 21
0.0
 72
     1
 10
0.0
 20
0.0
 11
2.999999999999999
 21
0.0
 97
        0
 75
     0
 76
     1
 98
        1
 10
0.0
 20
0.0
  0
HATCH
  5
114
330
10F
100
AcDbEntity
  8
0
  6
Continuous
 62
     0
370
     0
100
AcDbHatch
 10
0.0
 20
0.0
 30
0.0
210
0.0
220
0.0
230
1.0
  2
SOLID
 70
     1
 71
     0
 91
        1
 92
        0
 93
        3
 72
     2
 10
0.0
 20
0.0
 40
2.999999999999999
 50
180.0
 51
270.0000000000008
 73
     1
 72
     1
 10
0.0
 20
-2.999999999999999
 11
0.0
 21
0.0
 72
     1
 10
0.0
 20
0.0
 11
-2.999999999999999
 21
0.0
 97
        0
 75
     0
 76
     1
 98
        1
 10
0.0
 20
0.0
  0
ENDBLK
  5
111
330
10F
100
AcDbEntity
  8
0
100
AcDbBlockEnd
  0
BLOCK
  5
140
330
13F
100
AcDbEntity
  8
0
100
AcDbBlockBegin
  2
*D7
 70
     1
 10
0.0
 20
0.0
 30
0.0
  3
*D7
  1
*D7
  0
LINE
  5
142
330
13F
100
AcDbEntity
  8
치수문자_일반주서
 62
     0
370
    -2
100
AcDbLine
 10
27.72192116787307
 20
5.160449928723899
 30
0.0
 11
44.49548455393156
 21
5.160449928723899
 31
0.0
  0
LINE
  5
143
330
13F
100
AcDbEntity
  8
치수문자_일반주서
 62
     0
370
    -2
100
AcDbLine
 10
27.72192116787307
 20
-5.1583000712761
 30
0.0
 11
44.49548455393156
 21
-5.158300071276102
 31
0.0
  0
LINE
  5
144
330
13F
100
AcDbEntity
  8
치수문자_일반주서
 62
     0
370
    -2
100
AcDbLine
 10
44.49548455393156
 20
5.160449928723899
 30
0.0
 11
44.49548455393156
 21
43.7019499287239
 31
0.0
  0
LINE
  5
145
330
13F
100
AcDbEntity
  8
치수문자_일반주서
 62
     0
370
    -2
100
AcDbLine
 10
44.49548455393156
 20
5.160449928723899
 30
0.0
 11
44.49548455393156
 21
-5.158300071276102
 31
0.0
  0
LINE
  5
146
330
13F
100
AcDbEntity
  8
치수문자_일반주서
 62
     0
370
    -2
100
AcDbLine
 10
44.49548455393156
 20
8.462449928723899
 30
0.0
 11
44.49548455393156
 21
11.7644499287239
 31
0.0
  0
LINE
  5
147
330
13F
100
AcDbEntity
  8
치수문자_일반주서
 62
     0
370
    -2
100
AcDbLine
 10
44.49548455393156
 20
-8.460300071276102
 30
0.0
 11
44.49548455393156
 21
-11.7623000712761
 31
0.0
  0
SOLID
  5
148
330
13F
100
AcDbEntity
  8
치수문자_일반주서
 62
     0
100
AcDbTrace
 10
43.94515122059823
 20
8.462449928723899
 30
0.0
 11
45.0458178872649
 21
8.462449928723899
 31
0.0
 12
44.49548455393156
 22
5.160449928723899
 32
0.0
 13
44.49548455393156
 23
5.160449928723899
 33
0.0
  0
SOLID
  5
149
330
13F
100
AcDbEntity
  8
치수문자_일반주서
 62
     0
100
AcDbTrace
 10
45.0458178872649
 20
-8.460300071276102
 30
0.0
 11
43.94515122059823
 21
-8.460300071276102
 31
0.0
 12
44.49548455393156
 22
-5.158300071276102
 32
0.0
 13
44.49548455393156
 23
-5.158300071276102
 33
0.0
  0
MTEXT
  5
14A
330
13F
100
AcDbEntity
  8
치수문자_일반주서
 62
     0
100
AcDbMText
 10
41.87048455393156
 20
27.7331999287239
 30
0.0
 40
3.5
 41
0.0
 71
     5
 72
     1
  1
\A1;{%%C10.32 [13/32]}
  7
SLDTEXTSTYLE0
 11
0.0
 21
1.0
 31
0.0
 73
     1
 44
1.0
  0
POINT
  5
14B
330
13F
100
AcDbEntity
  8
Defpoints
 62
     0
100
AcDbPoint
 10
27.65942116787307
 20
5.160449928723899
 30
0.0
  0
POINT
  5
14C
330
13F
100
AcDbEntity
  8
Defpoints
 62
     0
100
AcDbPoint
 10
27.65942116787307
 20
-5.1583000712761
 30
0.0
  0
POINT
  5
14E
330
13F
100
AcDbEntity
  8
Defpoints
 62
     0
100
AcDbPoint
 10
44.49548455393156
 20
-5.158300071276101
 30
0.0
  0
ENDBLK
  5
141
330
13F
100
AcDbEntity
  8
0
100
AcDbBlockEnd
  0
ENDSEC
  0
SECTION
  2
ENTITIES
  0
LINE
  5
96
330
1F
100
AcDbEntity
  8
외형선
  6
Continuous
 62
     1
370
    15
100
AcDbLine
 10
14.38878099679804
 20
-5.100491410295307
 30
0.0
 11
17.53510028730564
 21
-5.100491410295307
 31
0.0
  0
LINE
  5
97
330
1F
100
AcDbEntity
  8
외형선
  6
Continuous
 62
     1
370
    15
100
AcDbLine
 10
3.49797010883395
 20
5.218258589704694
 30
0.0
 11
2.259421167873051
 21
5.218258589704694
 31
0.0
  0
LINE
  5
98
330
1F
100
AcDbEntity
  8
외형선
  6
Continuous
 62
     1
370
    15
100
AcDbLine
 10
17.53510028730565
 20
5.218258589704694
 30
0.0
 11
14.38878099679809
 21
5.218258589704694
 31
0.0
  0
LINE
  5
99
330
1F
100
AcDbEntity
  8
외형선
  6
Continuous
 62
     1
370
    15
100
AcDbLine
 10
2.259421167873051
 20
-5.100491410295307
 30
0.0
 11
3.497970108833901
 21
-5.100491410295307
 31
0.0
  0
SPLINE
  5
9A
330
1F
100
AcDbEntity
  8
외형선
  6
Continuous
 62
     1
370
    15
100
AcDbSpline
210
0.0
220
0.0
230
1.0
 70
     8
 71
     3
 72
    28
 73
    24
 74
     0
 42
0.000000001
 43
0.00000001
 40
0.0
 40
0.0
 40
0.0
 40
0.0
 40
0.0481322390801562
 40
0.0960936984463085
 40
0.1442276071971675
 40
0.1921874492519229
 40
0.2403228796584882
 40
0.2882812544461388
 40
0.3364180584737876
 40
0.3843751160542695
 40
0.4347993518890994
 40
0.4850511632383225
 40
0.5354643551432685
 40
0.5857287316691524
 40
0.636125729208071
 40
0.6864074208406886
 40
0.7367830805172797
 40
0.7870868309898402
 40
0.8374360184471592
 40
0.8877665636004184
 40
0.9380864843820174
 40
0.988446221670269
 40
1.0
 40
1.0
 40
1.0
 40
1.0
 10
2.259421167873045
 20
0.7711220662620035
 30
0.0
 10
2.592092178517419
 20
0.5805085395742066
 30
0.0
 10
3.256253837929343
 20
0.1999578088504391
 30
0.0
 10
4.251538138082585
 20
-0.37800398908206
 30
0.0
 10
5.247624348523659
 20
-0.945838120650772
 30
0.0
 10
6.242789189995613
 20
-1.50561749631138
 30
0.0
 10
7.238912770729672
 20
-2.041752004359215
 30
0.0
 10
8.234063117958183
 20
-2.555917376457705
 30
0.0
 10
9.23018971187285
 20
-3.033789549053626
 30
0.0
 10
10.24113062661458
 20
-3.483916097312441
 30
0.0
 10
11.26890845849951
 20
-3.891481382425381
 30
0.0
 10
12.31151372808877
 20
-4.254382629109507
 30
0.0
 10
13.35501534326994
 20
-4.556318783645748
 30
0.0
 10
14.39768549988885
 20
-4.797165959900703
 30
0.0
 10
15.4410840829657
 20
-4.970733313768388
 30
0.0
 10
16.48383630989846
 20
-5.07659076695728
 30
0.0
 10
17.52710115368631
 20
-5.112191054808116
 30
0.0
 10
18.56995690872412
 20
-5.077592192568568
 30
0.0
 10
19.61305791393404
 20
-4.972821366505501
 30
0.0
 10
20.65604819432273
 20
-4.800747108247475
 30
0.0
 10
21.6989807462285
 20
-4.557967144651818
 30
0.0
 10
22.47446382567063
 20
-4.343360827591351
 30
0.0
 10
22.90205635018627
 20
-4.194476715571732
 30
0.0
 10
22.98185006234092
 20
-4.166693217737311
 30
0.0
  0
SPLINE
  5
9B
330
1F
100
AcDbEntity
  8
외형선
  6
Continuous
370
    15
100
AcDbSpline
210
0.0
220
0.0
230
1.0
 70
    24
 71
     3
 72
    25
 73
    21
 74
     0
 42
0.000000001
 43
0.00000001
 40
0.0
 40
0.0
 40
0.0
 40
0.0
 40
0.0915460998983641
 40
0.1852185845933008
 40
0.2361557153356786
 40
0.2870928460780565
 40
0.3395098106759176
 40
0.3919267752737786
 40
0.4428639060161578
 40
0.493801036758537
 40
0.5462180013563993
 40
0.5986349659542618
 40
0.6495720966966406
 40
0.7005092274390194
 40
0.7529261920368816
 40
0.8053431566347438
 40
0.8562802873771234
 40
0.907217418119503
 40
0.9596343827173655
 40
1.0
 40
1.0
 40
1.0
 40
1.0
 10
2.259421167873058
 20
5.101077242567178
 30
0.0
 10
2.259421167873045
 20
4.96377288463507
 30
0.0
 10
2.25942116787301
 20
4.68597493515485
 30
0.0
 10
2.259421167873031
 20
4.301793585376664
 30
0.0
 10
2.259421167873045
 20
3.977485463682341
 30
0.0
 10
2.259421167873107
 20
3.718433145856357
 30
0.0
 10
2.25942116787308
 20
3.455876691653644
 30
0.0
 10
2.259421167873093
 20
3.194102293692874
 30
0.0
 10
2.259421167873045
 20
2.937502131990572
 30
0.0
 10
2.259421167873045
 20
2.685272264122166
 30
0.0
 10
2.259421167873031
 20
2.436937077294911
 30
0.0
 10
2.259421167873031
 20
2.196751236849765
 30
0.0
 10
2.259421167873045
 20
1.968619178982658
 30
0.0
 10
2.259421167873121
 20
1.751583991055844
 30
0.0
 10
2.259421167873051
 20
1.545476810468298
 30
0.0
 10
2.259421167873038
 20
1.353989795912647
 30
0.0
 10
2.259421167873051
 20
1.179916190387399
 30
0.0
 10
2.259421167873031
 20
1.023035454485941
 30
0.0
 10
2.259421167873031
 20
0.8915353445824723
 30
0.0
 10
2.259421167873024
 20
0.8215793991835327
 30
0.0
 10
2.259421167873024
 20
0.7911446466536288
 30
0.0
  0
SPLINE
  5
9C
330
1F
100
AcDbEntity
  8
외형선
  6
Continuous
 62
     1
370
    15
100
AcDbSpline
210
0.0
220
0.0
230
1.0
 70
     8
 71
     3
 72
    56
 73
    52
 74
     0
 42
0.000000001
 43
0.00000001
 40
0.0
 40
0.0
 40
0.0
 40
0.0
 40
0.0624999999999985
 40
0.0624999999999985
 40
0.0937499999999978
 40
0.0937499999999978
 40
0.1249999999999971
 40
0.1249999999999971
 40
0.1874999999999968
 40
0.1874999999999968
 40
0.2187499999999973
 40
0.2187499999999973
 40
0.2499999999999972
 40
0.2499999999999972
 40
0.3124999999999968
 40
0.3124999999999968
 40
0.3749999999999966
 40
0.3749999999999966
 40
0.4062499999999968
 40
0.4062499999999968
 40
0.4374999999999969
 40
0.4374999999999969
 40
0.4999999999999967
 40
0.4999999999999967
 40
0.5312499999999968
 40
0.5312499999999968
 40
0.562499999999997
 40
0.562499999999997
 40
0.6249999999999972
 40
0.6249999999999972
 40
0.6562499999999974
 40
0.6562499999999974
 40
0.6874999999999976
 40
0.6874999999999976
 40
0.7187499999999978
 40
0.7187499999999978
 40
0.7499999999999979
 40
0.7499999999999979
 40
0.781249999999998
 40
0.781249999999998
 40
0.8124999999999982
 40
0.8124999999999982
 40
0.8437499999999983
 40
0.8437499999999983
 40
0.8749999999999984
 40
0.8749999999999984
 40
0.9374999999999989
 40
0.9374999999999989
 40
0.9687499999999994
 40
0.9687499999999994
 40
1.0
 40
1.0
 40
1.0
 40
1.0
 10
27.65942116787305
 20
-5.081518280961752
 30
0.0
 10
27.13360111864645
 20
-5.055397233043677
 30
0.0
 10
26.59987453771154
 20
-5.002011693442842
 30
0.0
 10
25.80620857499527
 20
-4.882669260679808
 30
0.0
 10
25.54389019081031
 20
-4.836470809564638
 30
0.0
 10
25.01503277738698
 20
-4.73110210698141
 30
0.0
 10
24.74936446581514
 20
-4.671958009792079
 30
0.0
 10
23.95334918642582
 20
-4.476131029606886
 30
0.0
 10
23.42833948382528
 20
-4.321510310048348
 30
0.0
 10
22.63258709388125
 20
-4.055514751477663
 30
0.0
 10
22.36683956464844
 20
-3.9612478876153
 30
0.0
 10
21.83749312911349
 20
-3.762648949101719
 30
0.0
 10
21.57511712809023
 20
-3.658495093117529
 30
0.0
 10
20.78223696067356
 20
-3.33106149960867
 30
0.0
 10
20.24836758622312
 20
-3.092943651316322
 30
0.0
 10
19.19513054029136
 20
-2.588359718720861
 30
0.0
 10
18.6631515883724
 20
-2.319927653301314
 30
0.0
 10
17.8688044354772
 20
-1.901226995922666
 30
0.0
 10
17.60631320711009
 20
-1.759308020134626
 30
0.0
 10
17.07801444093054
 20
-1.470482153892039
 30
0.0
 10
16.81246070678253
 20
-1.323610917675671
 30
0.0
 10
16.01628818074946
 20
-0.8781990605812726
 30
0.0
 10
15.49108206213309
 20
-0.5758078575734266
 30
0.0
 10
14.69569808813272
 20
-0.1181696604509693
 30
0.0
 10
14.42990673623948
 20
0.0349379706583353
 30
0.0
 10
13.90014111932917
 20
0.3404650594396833
 30
0.0
 10
13.63747706577686
 20
0.4926325547641227
 30
0.0
 10
12.84548695253574
 20
0.947597533133066
 30
0.0
 10
12.3115466184706
 20
1.248933088706929
 30
0.0
 10
11.52052408513068
 20
1.68736973816559
 30
0.0
 10
11.2573575732705
 20
1.831480346643497
 30
0.0
 10
10.72725074481437
 20
2.115342750043455
 30
0.0
 10
10.46145076142499
 20
2.254881486072482
 30
0.0
 10
9.931501803117495
 20
2.527525078331738
 30
0.0
 10
9.668607345531214
 20
2.660425717746486
 30
0.0
 10
9.140936605725187
 20
2.919378457294123
 30
0.0
 10
8.875532757819908
 20
3.045519833284342
 30
0.0
 10
8.344716717628998
 20
3.289597111562857
 30
0.0
 10
8.079308655847015
 20
3.407531114243171
 30
0.0
 10
7.551621225641797
 20
3.633847834346156
 30
0.0
 10
7.288739768888475
 20
3.742334652796233
 30
0.0
 10
6.758799639243223
 20
3.949904390871656
 30
0.0
 10
6.4929998791891
 20
4.048802904209006
 30
0.0
 10
5.962885106645449
 20
4.235653935487449
 30
0.0
 10
5.699702691493119
 20
4.323490380117111
 30
0.0
 10
4.908706499625893
 20
4.570064847476002
 30
0.0
 10
4.374767071907335
 20
4.712138084258365
 30
0.0
 10
3.582753231691707
 20
4.886732712763437
 30
0.0
 10
3.320099275084745
 20
4.938584412660996
 30
0.0
 10
2.790343370436333
 20
5.029611650904193
 30
0.0
 10
2.524552688524076
 20
5.068683839140237
 30
0.0
 10
2.259421167873072
 20
5.101077242567175
 30
0.0
  0
LINE
  5
9D
330
1F
100
AcDbEntity
  8
외형선
  6
Continuous
 62
     1
370
    15
100
AcDbLine
 10
27.65942116787305
 20
-4.613866121611669
 30
0.0
 11
27.65942116787305
 21
0.5009458010211197
 31
0.0
  0
SPLINE
  5
9E
330
1F
100
AcDbEntity
  8
외형선
  6
Continuous
 62
     1
370
    15
100
AcDbSpline
210
0.0
220
0.0
230
1.0
 70
     8
 71
     3
 72
    31
 73
    27
 74
     0
 42
0.000000001
 43
0.00000001
 40
0.0
 40
0.0
 40
0.0
 40
0.0
 40
0.0311645175801537
 40
0.0724466759960725
 40
0.1135795457065866
 40
0.1548630091740491
 40
0.1959946204795296
 40
0.2372792620362986
 40
0.2784097436359976
 40
0.3216562063845261
 40
0.3647547888732893
 40
0.4079917797697529
 40
0.4511011388114055
 40
0.4943242405723067
 40
0.5374484499553864
 40
0.5806532512492006
 40
0.6237963794474906
 40
0.6669784767810827
 40
0.7101445854993846
 40
0.7533015822007045
 40
0.7964927276212508
 40
0.8371711085855862
 40
0.8778956742062008
 40
0.9185850961324636
 40
0.9592985643543784
 40
1.0
 40
1.0
 40
1.0
 40
1.0
 10
3.49797010883395
 20
5.21238946651123
 30
0.0
 10
3.748815558943975
 20
5.211178714751631
 30
0.0
 10
4.331944080104988
 20
5.208364137557751
 30
0.0
 10
5.24761621208252
 20
5.129075013190165
 30
0.0
 10
6.242791375932691
 20
4.986896849732121
 30
0.0
 10
7.238912186578848
 20
4.782862014828108
 30
0.0
 10
8.234063274885184
 20
4.51899239834087
 30
0.0
 10
9.230189670004133
 20
4.201929042223101
 30
0.0
 10
10.24113063845733
 20
3.824985356186491
 30
0.0
 10
11.26890845528297
 20
3.395779972470463
 30
0.0
 10
12.31151372891157
 20
2.911270818234541
 30
0.0
 10
13.35501534320318
 20
2.391295113341601
 30
0.0
 10
14.39768549933643
 20
1.836293173572905
 30
0.0
 10
15.44108408524769
 20
1.260197135097551
 30
0.0
 10
16.48383630134004
 20
0.6649891911060539
 30
0.0
 10
17.52710118569174
 20
0.0638534524352572
 30
0.0
 10
18.56995678942518
 20
-0.5391129921627413
 30
0.0
 10
19.61305835956228
 20
-1.132807361938207
 30
0.0
 10
20.65604653209375
 20
-1.710745059153262
 30
0.0
 10
21.69898695043246
 20
-2.264796438493448
 30
0.0
 10
22.72232938860677
 20
-2.776588375358789
 30
0.0
 10
23.72545591213038
 20
-3.243137649866043
 30
0.0
 10
24.70904543651598
 20
-3.659874759753285
 30
0.0
 10
25.69242666510846
 20
-4.031245714897813
 30
0.0
 10
26.67596163490748
 20
-4.35673902996564
 30
0.0
 10
27.33163362485751
 20
-4.52816553629197
 30
0.0
 10
27.65942116787305
 20
-4.613866121611669
 30
0.0
  0
SPLINE
  5
9F
330
1F
100
AcDbEntity
  8
외형선
  6
Continuous
 62
     1
370
    15
100
AcDbSpline
210
0.0
220
0.0
230
1.0
 70
     8
 71
     3
 72
    26
 73
    22
 74
     0
 42
0.000000001
 43
0.00000001
 40
0.0
 40
0.0
 40
0.0
 40
0.0
 40
0.0531999175456968
 40
0.1064056455340973
 40
0.1595997538700687
 40
0.2128111295819583
 40
0.265999593884841
 40
0.3192164545283213
 40
0.3723994400348837
 40
0.425621622747457
 40
0.4813385918869055
 40
0.5370676875143887
 40
0.5928170516368105
 40
0.6485164482959813
 40
0.7042951568889619
 40
0.7599700983222364
 40
0.8157724663926583
 40
0.871428205092298
 40
0.9272485375133329
 40
0.9828903328440103
 40
1.0
 40
1.0
 40
1.0
 40
1.0
 10
27.65942116787305
 20
0.5009458010211197
 30
0.0
 10
27.32755101435423
 20
0.691328552009034
 30
0.0
 10
26.66377446078462
 20
1.072114847401797
 30
0.0
 10
25.66809893157937
 20
1.629123764868087
 30
0.0
 10
24.67248172267296
 20
2.16729968164231
 30
0.0
 10
23.67677894922185
 20
2.678872852414483
 30
0.0
 10
22.681189817378
 20
3.158423935182727
 30
0.0
 10
21.68546314479161
 20
3.59902608656005
 30
0.0
 10
20.68989161122295
 20
3.9962716129792
 30
0.0
 10
19.6783339447647
 20
4.349691206866289
 30
0.0
 10
18.65120824060358
 20
4.652893676002281
 30
0.0
 10
17.60822571173629
 20
4.898087349998255
 30
0.0
 10
16.56512339182178
 20
5.077351978190214
 30
0.0
 10
15.52226762400972
 20
5.188516800046926
 30
0.0
 10
14.47900339724639
 20
5.229715475577191
 30
0.0
 10
13.43625098238245
 20
5.200576839445349
 30
0.0
 10
12.39285192983339
 20
5.101539838405031
 30
0.0
 10
11.35018561511847
 20
4.934204256773686
 30
0.0
 10
10.30666862340473
 20
4.697643778479144
 30
0.0
 10
9.505435566009925
 20
4.477852239678091
 30
0.0
 10
9.051372148692941
 20
4.320768112265462
 30
0.0
 10
8.9445856502163
 20
4.283825114232787
 30
0.0
  0
SPLINE
  5
A0
330
1F
100
AcDbEntity
  8
외형선
  6
Continuous
 62
     1
370
    15
100
AcDbSpline
210
0.0
220
0.0
230
1.0
 70
     8
 71
     3
 72
    19
 73
    15
 74
     0
 42
0.000000001
 43
0.00000001
 40
0.0
 40
0.0
 40
0.0
 40
0.0
 40
0.0785014937884842
 40
0.1646020116535806
 40
0.2504762870634705
 40
0.3366045231051312
 40
0.422457284530401
 40
0.5086044395486001
 40
0.5944438096510799
 40
0.6756829431764588
 40
0.7566076455643792
 40
0.8378418274850593
 40
0.9187726453994052
 40
1.0
 40
1.0
 40
1.0
 40
1.0
 10
14.38878099679804
 20
-5.09772860861934
 30
0.0
 10
14.07151097766236
 20
-5.093180653959795
 30
0.0
 10
13.40625888032246
 20
-5.08364449802514
 30
0.0
 10
12.39286430890081
 20
-4.982926493856985
 30
0.0
 10
11.35017892009025
 20
-4.816020193763365
 30
0.0
 10
10.30668302558041
 20
-4.582398385744185
 30
0.0
 10
9.264071425466831
 20
-4.284242058176369
 30
0.0
 10
8.220499014901051
 20
-3.929231008523944
 30
0.0
 10
7.197801098787292
 20
-3.524915079102743
 30
0.0
 10
6.193988213525693
 20
-3.086239811478159
 30
0.0
 10
5.211034142050727
 20
-2.614683218921903
 30
0.0
 10
4.227133601911263
 20
-2.114338405320209
 30
0.0
 10
3.244059386220283
 20
-1.584852926711012
 30
0.0
 10
2.588033796006138
 20
-1.218158000708936
 30
0.0
 10
2.259421167873065
 20
-1.034475252422752
 30
0.0
  0
LINE
  5
A1
330
1F
100
AcDbEntity
  8
외형선
  6
Continuous
370
    15
100
AcDbLine
 10
2.259421167873058
 20
-1.034475252422748
 30
0.0
 11
2.259421167873045
 21
0.7711220662620017
 31
0.0
  0
LINE
  5
A2
330
1F
100
AcDbEntity
  8
외형선
  6
Continuous
 62
     1
370
    15
100
AcDbLine
 10
27.65942116787305
 20
-5.081518280961752
 30
0.0
 11
27.65942116787305
 21
-4.613866121611669
 31
0.0
  0
LINE
  5
A3
330
1F
100
AcDbEntity
  8
외형선
  6
Continuous
370
    15
100
AcDbLine
 10
2.259421167873058
 20
5.101077242567178
 30
0.0
 11
2.259421167873051
 21
5.218258589704694
 31
0.0
  0
SPLINE
  5
A4
330
1F
100
AcDbEntity
  8
외형선
  6
Continuous
 62
     1
370
    15
100
AcDbSpline
210
0.0
220
0.0
230
1.0
 70
     8
 71
     3
 72
    17
 73
    13
 74
     0
 42
0.000000001
 43
0.00000001
 40
0.0
 40
0.0
 40
0.0
 40
0.0
 40
0.102203961912946
 40
0.2052564414330822
 40
0.3082707647136771
 40
0.4112633425024734
 40
0.5143374149477595
 40
0.6114148678758837
 40
0.7086025387794943
 40
0.8057063405552465
 40
0.902867527926957
 40
1.0
 40
1.0
 40
1.0
 40
1.0
 10
17.53510028730566
 20
5.218002995802757
 30
0.0
 10
17.87996107752787
 20
5.21143265690773
 30
0.0
 10
18.57254576080173
 20
5.198237430858165
 30
0.0
 10
19.61304794252096
 20
5.089929493327171
 30
0.0
 10
20.65604932256476
 20
4.918007417141052
 30
0.0
 10
21.69898620064513
 20
4.678420858055487
 30
0.0
 10
22.72232957659803
 20
4.382530147825169
 30
0.0
 10
23.72545586297758
 20
4.036692013511168
 30
0.0
 10
24.70904544967529
 20
3.650484721836776
 30
0.0
 10
25.69242666159824
 20
3.219607804375373
 30
0.0
 10
26.67596163578495
 20
2.752912085063609
 30
0.0
 10
27.33163362514997
 20
2.41511900049425
 30
0.0
 10
27.65942116787305
 20
2.246247419984801
 30
0.0
  0
LINE
  5
A5
330
1F
100
AcDbEntity
  8
외형선
  6
Continuous
 62
     1
370
    15
100
AcDbLine
 10
27.65942116787305
 20
0.5009458010211197
 30
0.0
 11
27.65942116787305
 21
2.246247419984801
 31
0.0
  0
SPLINE
  5
A6
330
1F
100
AcDbEntity
  8
외형선
  6
Continuous
 62
     1
370
    15
100
AcDbSpline
210
0.0
220
0.0
230
1.0
 70
     8
 71
     3
 72
    14
 73
    10
 74
     0
 42
0.000000001
 43
0.00000001
 40
0.0
 40
0.0
 40
0.0
 40
0.0
 40
0.1492017341072201
 40
0.2978740802207235
 40
0.447080990022426
 40
0.5957483227463676
 40
0.7449599494213017
 40
0.8936227338674023
 40
1.0
 40
1.0
 40
1.0
 40
1.0
 10
2.259421167873045
 20
-5.051093586676461
 30
0.0
 10
2.592092157398604
 20
-5.071456300040201
 30
0.0
 10
3.256253774647852
 20
-5.112109477098207
 30
0.0
 10
4.251538390538626
 20
-5.091944742711919
 30
0.0
 10
5.247623399350704
 20
-5.012727981966301
 30
0.0
 10
6.242792724375742
 20
-4.869044334069212
 30
0.0
 10
7.238899545245139
 20
-4.664008392195351
 30
0.0
 10
8.138754558108147
 20
-4.430398259110488
 30
0.0
 10
8.707402470054504
 20
-4.243862178632577
 30
0.0
 10
8.944585650216226
 20
-4.166057934823399
 30
0.0
  0
SPLINE
  5
A7
330
1F
100
AcDbEntity
  8
외형선
  6
Continuous
370
    15
100
AcDbSpline
210
0.0
220
0.0
230
1.0
 70
    24
 71
     3
 72
    21
 73
    17
 74
     0
 42
0.000000001
 43
0.00000001
 40
0.0
 40
0.0
 40
0.0
 40
0.0
 40
0.0288318747941533
 40
0.104695547020876
 40
0.18031807183968
 40
0.255940596658485
 40
0.3318042688852085
 40
0.4074267937040135
 40
0.4830493185228176
 40
0.5589129907495403
 40
0.6345355155683442
 40
0.7101580403871488
 40
0.7860217126138719
 40
0.8616442374326762
 40
0.930822118716338
 40
0.9999999999999999
 40
0.9999999999999999
 40
0.9999999999999999
 40
0.9999999999999999
 10
2.259421167873045
 20
-1.054507832814375
 30
0.0
 10
2.259421167873045
 20
-1.075788705165993
 30
0.0
 10
2.259421167873045
 20
-1.153064726508381
 30
0.0
 10
2.259421167873017
 20
-1.320750167367371
 30
0.0
 10
2.259421167873024
 20
-1.553816286445725
 30
0.0
 10
2.259421167873051
 20
-1.817136586222128
 30
0.0
 10
2.259421167873024
 20
-2.103607933335455
 30
0.0
 10
2.259421167873031
 20
-2.410521576904962
 30
0.0
 10
2.259421167873031
 20
-2.734379841965766
 30
0.0
 10
2.259421167873024
 20
-3.070523800070413
 30
0.0
 10
2.259421167873045
 20
-3.414896708718431
 30
0.0
 10
2.259421167873058
 20
-3.763241386472084
 30
0.0
 10
2.259421167873051
 20
-4.111101480676163
 30
0.0
 10
2.25942116787308
 20
-4.444154778000932
 30
0.0
 10
2.259421167873058
 20
-4.759668191743973
 30
0.0
 10
2.259421167873051
 20
-4.953951788365634
 30
0.0
 10
2.259421167873045
 20
-5.051093586676462
 30
0.0
  0
SPLINE
  5
A8
330
1F
100
AcDbEntity
  8
외형선
  6
Continuous
 62
     1
370
    15
100
AcDbSpline
210
0.0
220
0.0
230
1.0
 70
     8
 71
     3
 72
    12
 73
     8
 74
     0
 42
0.000000001
 43
0.00000001
 40
0.0
 40
0.0
 40
0.0
 40
0.0
 40
0.2128506523434261
 40
0.425724552025886
 40
0.638551961963366
 40
0.8514484579520661
 40
1.0
 40
1.0
 40
1.0
 40
1.0
 10
27.65942116787305
 20
5.199285460371139
 30
0.0
 10
27.32755096352533
 20
5.176692769221378
 30
0.0
 10
26.66377430829238
 20
5.131504919370334
 30
0.0
 10
25.66809954157044
 20
4.984258846483072
 30
0.0
 10
24.67247943545908
 20
4.778494141887721
 30
0.0
 10
23.77698106955492
 20
4.546336644993909
 30
0.0
 10
23.21345405156809
 20
4.360739127487967
 30
0.0
 10
22.98185006234092
 20
4.2844603971467
 30
0.0
  0
LINE
  5
A9
330
1F
100
AcDbEntity
  8
외형선
  6
Continuous
 62
     1
370
    15
100
AcDbLine
 10
27.65942116787305
 20
2.241391568849753
 30
0.0
 11
27.65942116787305
 21
5.199285460371139
 31
0.0
  0
LINE
  5
AA
330
1F
100
AcDbEntity
  8
외형선
  6
Continuous
370
    15
100
AcDbLine
 10
2.259421167873051
 20
-5.100491410295307
 30
0.0
 11
2.259421167873045
 21
-5.051093586676462
 31
0.0
  0
LINE
  5
AB
330
1F
100
AcDbEntity
  8
중심선
 62
     1
100
AcDbLine
 10
-43.60307883212695
 20
0.0010749287238892
 30
0.0
 11
30.65942116787306
 21
0.0010749287238983
 31
0.0
  0
LINE
  5
AC
330
1F
100
AcDbEntity
  8
참조1
100
AcDbLine
 10
-6.471828832126945
 20
0.0010749287238892
 30
0.0
 11
-6.471828832126945
 21
-39.99892507127612
 31
0.0
  0
LINE
  5
AD
330
1F
100
AcDbEntity
  8
참조1
100
AcDbLine
 10
-6.471828832126945
 20
-39.99892507127612
 30
0.0
 11
-21.63068564643562
 21
-39.9989250712761
 31
0.0
  0
CIRCLE
  5
AE
330
1F
100
AcDbEntity
  8
해칭선
100
AcDbCircle
 10
0.0
 20
0.0
 30
0.0
 40
2.999999999999999
  0
INSERT
  5
AF
330
1F
100
AcDbEntity
  8
0
  6
Continuous
 62
     7
100
AcDbBlockReference
 66
     1
  2
블럭10
 10
-20.41210176425216
 20
-52.04609937292005
 30
0.0
  0
ATTRIB
  5
B0
330
AF
100
AcDbEntity
  8
FORMAT
 62
     2
100
AcDbText
 10
-29.59339705299344
 20
-49.97073246008786
 30
0.0
 40
4.233333333333333
  1
E2039026 [ 4 FLUTE ]
 41
0.75
  7
SLDTEXTSTYLE0
 11
-29.59339705299344
 21
-52.08739912675453
 31
0.0
100
AcDbAttribute
  2
AUTOATTR0
 70
     0
 74
     1
  0
SEQEND
  5
B1
330
AF
100
AcDbEntity
  8
0
  6
Continuous
 62
     7
  0
HATCH
  5
B2
330
1F
100
AcDbEntity
  8
중심선
100
AcDbHatch
 10
0.0
 20
0.0
 30
0.0
210
0.0
220
0.0
230
1.0
  2
SOLID
 70
     1
 71
     0
 91
        1
 92
        0
 93
        4
 72
     1
 10
-14.69719245987131
 20
-35.7989250712761
 11
-18.14346770370859
 21
-35.7989250712761
 72
     1
 10
-18.14346770370859
 20
-35.7989250712761
 11
-20.27169756291262
 21
-38.3352506518487
 72
     1
 10
-20.27169756291262
 20
-38.3352506518487
 11
-16.82538923396219
 21
-38.33521122254621
 72
     1
 10
-16.82538923396219
 20
-38.33521122254621
 11
-14.69719245987131
 21
-35.7989250712761
 97
        0
 75
     0
 76
     1
 98
        1
 10
-2.221736496380836
 20
0.0
  0
HATCH
  5
B3
330
1F
100
AcDbEntity
  8
중심선
100
AcDbHatch
 10
0.0
 20
0.0
 30
0.0
210
0.0
220
0.0
230
1.0
  2
SOLID
 70
     1
 71
     0
 91
        1
 92
        0
 93
        4
 72
     1
 10
-9.684428468835335
 20
-35.7989250712761
 11
-13.13070371267262
 21
-35.7989250712761
 72
     1
 10
-13.13070371267262
 20
-35.7989250712761
 11
-17.66184172103003
 21
-41.19892507127612
 72
     1
 10
-17.66184172103003
 20
-41.19892507127612
 11
-14.21556647719275
 21
-41.19892507127612
 72
     1
 10
-14.21556647719275
 20
-41.19892507127612
 11
-9.684428468835335
 21
-35.7989250712761
 97
        0
 75
     0
 76
     1
 98
        1
 10
-2.221736496380836
 20
0.0
  0
HATCH
  5
B4
330
1F
100
AcDbEntity
  8
중심선
100
AcDbHatch
 10
0.0
 20
0.0
 30
0.0
210
0.0
220
0.0
230
1.0
  2
SOLID
 70
     1
 71
     0
 91
        1
 92
        0
 93
        4
 72
     1
 10
-4.671664477799467
 20
-35.7989250712761
 11
-8.117939721636583
 21
-35.7989250712761
 72
     1
 10
-8.117939721636583
 20
-35.7989250712761
 11
-15.16637662352583
 21
-44.19892507127612
 72
     1
 10
-15.16637662352583
 20
-44.19892507127612
 11
-11.72010137968855
 21
-44.19892507127612
 72
     1
 10
-11.72010137968855
 20
-44.19892507127612
 11
-4.671664477799468
 21
-35.7989250712761
 97
        0
 75
     0
 76
     1
 98
        1
 10
-2.221736496380836
 20
0.0
  0
HATCH
  5
B5
330
1F
100
AcDbEntity
  8
중심선
100
AcDbHatch
 10
0.0
 20
0.0
 30
0.0
210
0.0
220
0.0
230
1.0
  2
SOLID
 70
     1
 71
     0
 91
        1
 92
        0
 93
        6
 72
     3
 10
0.1282259532127319
 20
-39.99892507132738
 11
3.960054785062284
 21
1.540882976769353E-10
 40
0.3939339440162627
 50
17.09539180608438
 51
320.0019657685075
 73
     0
 72
     1
 10
1.811225608913327
 20
-38.58681907591438
 11
4.116527482614365
 21
-36.65249236586649
 72
     3
 10
0.1282259531598853
 20
-39.99892507127625
 11
6.600054785286829
 21
-1.278976924368180E-13
 40
0.636358354079598
 50
39.99873849337411
 51
368.4976242363725
 73
     1
 72
     1
 10
6.553558445060495
 20
-39.03892507120613
 11
-1.191706740004192
 21
-39.0389250712061
 72
     1
 10
-1.191706740004192
 20
-39.0389250712061
 11
-1.191731784450126
 21
-40.95892507120602
 72
     1
 10
-1.191731784450126
 20
-40.95892507120602
 11
3.249647985021911
 21
-40.95892507120599
 97
        0
 75
     0
 76
     1
 98
        1
 10
-2.221736496380836
 20
0.0
  0
DIMENSION
  5
CA
330
1F
100
AcDbEntity
  8
치수문자_일반주서
100
AcDbDimension
  2
_D_1
 10
2.25942116787305
 20
15.04947043550684
 30
0.0
 11
14.95942116787301
 21
15.04947043550684
 31
0.0
 70
   160
  1
<>
 71
     2
 42
25.4
  3
SLDDIMSTYLE1
100
AcDbAlignedDimension
 13
27.65942116787305
 23
5.001577696114738
 33
0.0
 14
2.259421167873051
 24
5.218258589704694
 34
0.0
 50
0.0000000000001282
100
AcDbRotatedDimension
1001
ACAD
1000
DSTYLE
1002
{
1070
   171
1070
     6
1070
   273
1070
     7
1002
}
  0
DIMENSION
  5
E0
330
1F
100
AcDbEntity
  8
치수문자_일반주서
100
AcDbDimension
  2
_D_2
 10
-40.60307883212693
 20
27.04947043550682
 30
0.0
 11
-5.539685493910278
 21
27.04947043550682
 31
0.0
 70
   160
  1
<>
 71
     2
 42
68.26249999999999
  3
SLDDIMSTYLE0
100
AcDbAlignedDimension
 13
27.65942116787305
 23
5.001577696114738
 33
0.0
 14
-40.60307883212693
 24
3.763574928723898
 34
0.0
 50
0.000000000000006
100
AcDbRotatedDimension
1001
ACAD
1000
DSTYLE
1002
{
1070
   171
1070
     6
1070
   273
1070
     7
1002
}
  0
DIMENSION
  5
F3
330
1F
100
AcDbEntity
  8
치수문자_일반주서
100
AcDbDimension
  2
_D_3
 10
-53.60307883212695
 20
-4.761425071276153
 30
0.0
 11
-53.60307883212697
 21
0.0588835897046948
 31
0.0
 70
   160
  1
%%c<>
 71
     2
 42
9.582808660980797
 52
-270.0
  3
SLDDIMSTYLE2
100
AcDbAlignedDimension
 13
-39.65057883212696
 23
4.821383589704697
 33
0.0
 14
-39.60307883212693
 24
-4.761425071276101
 34
0.0
 50
90.0000000000002
100
AcDbRotatedDimension
1001
ACAD
1000
DSTYLE
1002
{
1070
   171
1070
     6
1070
   273
1070
     7
1002
}
  0
LINE
  5
108
330
1F
100
AcDbEntity
  8
참조1
100
AcDbLine
 10
76.34165498321865
 20
7.441074928723896
 30
0.0
 11
76.34165498321865
 21
-7.438925071276109
 31
0.0
  0
LINE
  5
109
330
1F
100
AcDbEntity
  8
참조1
100
AcDbLine
 10
89.04165498321865
 20
5.441074928723896
 30
0.0
 11
76.34165498321865
 21
5.441074928723896
 31
0.0
  0
SOLID
  5
10A
330
1F
100
AcDbEntity
  8
참조1
100
AcDbTrace
 10
76.34165498321865
 20
5.441074928723896
 30
0.0
 11
82.69165498321864
 21
4.425074928723896
 31
0.0
 12
82.69165498321864
 22
6.457074928723896
 32
0.0
 13
82.69165498321864
 23
6.457074928723896
 33
0.0
  0
LINE
  5
10B
330
1F
100
AcDbEntity
  8
참조1
100
AcDbLine
 10
89.04165498321865
 20
-5.438925071276109
 30
0.0
 11
76.34165498321865
 21
-5.438925071276109
 31
0.0
  0
SOLID
  5
10C
330
1F
100
AcDbEntity
  8
참조1
100
AcDbTrace
 10
76.34165498321865
 20
-5.438925071276109
 30
0.0
 11
82.69165498321864
 21
-6.454925071276109
 31
0.0
 12
82.69165498321864
 22
-4.422925071276109
 32
0.0
 13
82.69165498321864
 23
-4.422925071276109
 33
0.0
  0
MTEXT
  5
10D
330
1F
100
AcDbEntity
  8
참조1
100
AcDbMText
 10
85.72600511584463
 20
11.01136670591222
 30
0.0
 40
3.5
 41
0.0
 71
     1
 72
     1
  1
A
  7
SLDTEXTSTYLE0
 73
     1
 44
1.0
  0
MTEXT
  5
10E
330
1F
100
AcDbEntity
  8
참조1
100
AcDbMText
 10
85.72600511584463
 20
0.1313667059122192
 30
0.0
 40
3.5
 41
0.0
 71
     1
 72
     1
  1
A
  7
SLDTEXTSTYLE0
 73
     1
 44
1.0
  0
INSERT
  5
115
330
1F
100
AcDbEntity
  8
해칭선
100
AcDbBlockReference
  2
SW_DOWELSYMBOL_0
 10
0.0
 20
0.0
 30
0.0
  0
LINE
  5
13A
102
{ACAD_REACTORS
102
}
330
1F
100
AcDbEntity
  8
0
 62
     1
100
AcDbLine
 10
27.65942116787307
 20
5.160449928723899
 30
0.0
 11
27.65942116787307
 21
-5.1583000712761
 31
0.0
  0
DIMENSION
  5
13C
102
{ACAD_REACTORS
102
}
102
{ACAD_XDICTIONARY
360
13D
102
}
330
1F
100
AcDbEntity
  8
치수문자_일반주서
100
AcDbDimension
  2
*D7
 10
44.49548455393156
 20
-5.158300071276102
 30
0.0
 11
44.49548455393156
 21
27.7331999287239
 31
0.0
 70
   160
  1
{%%C<>[]}
 71
     5
 42
10.31875
  3
SLDDIMSTYLE1
100
AcDbAlignedDimension
 13
27.65942116787307
 23
5.160449928723899
 33
0.0
 14
27.65942116787307
 24
-5.1583000712761
 34
0.0
 50
90.0
100
AcDbRotatedDimension
1001
ACAD
1000
DSTYLE
1002
{
1070
   283
1070
     1
1070
   170
1070
     1
1070
   171
1070
     6
1070
   273
1070
     7
1002
}
  0
LINE
  5
150
330
1F
100
AcDbEntity
  8
외형선
  6
Continuous
370
    15
100
AcDbLine
 10
-40.60307883212693
 20
3.763574928723898
 30
0.0
 11
-40.60307883212693
 21
-3.761425071276097
 31
0.0
  0
LINE
  5
152
330
1F
100
AcDbEntity
  8
외형선
  6
Continuous
370
    15
100
AcDbLine
 10
-39.60307883212693
 20
4.763574928723902
 30
0.0
 11
-39.60307883212693
 21
-4.761425071276101
 31
0.0
  0
LINE
  5
154
330
1F
100
AcDbEntity
  8
외형선
  6
Continuous
370
    15
100
AcDbLine
 10
-39.60307883212693
 20
4.763574928723902
 30
0.0
 11
-40.60307883212693
 21
3.763574928723898
 31
0.0
  0
LINE
  5
156
330
1F
100
AcDbEntity
  8
외형선
  6
Continuous
370
    15
100
AcDbLine
 10
-39.60307883212693
 20
-4.761425071276101
 30
0.0
 11
-40.60307883212693
 21
-3.761425071276097
 31
0.0
  0
LINE
  5
157
330
1F
100
AcDbEntity
  8
외형선
  6
Continuous
370
    15
100
AcDbLine
 10
-40.60307883212693
 20
-4.703616410295309
 30
0.0
 11
-40.60307883212693
 21
-4.761425071276101
 31
0.0
  0
LINE
  5
158
330
1F
100
AcDbEntity
  8
외형선
  6
Continuous
370
    15
100
AcDbLine
 10
-39.60307883212693
 20
4.763574928723902
 30
0.0
 11
-25.59802883212705
 21
4.763574928723902
 31
0.0
  0
LINE
  5
159
330
1F
100
AcDbEntity
  8
외형선
  6
Continuous
370
    15
100
AcDbLine
 10
2.259421167873051
 20
5.218258589704694
 30
0.0
 11
1.862546167873083
 21
4.763574928723902
 31
0.0
  0
LINE
  5
15C
330
1F
100
AcDbEntity
  8
외형선
  6
Continuous
370
    15
100
AcDbLine
 10
-39.60307883212693
 20
-4.761425071276102
 30
0.0
 11
1.862546167873083
 21
-4.761425071276102
 31
0.0
  0
LINE
  5
15D
330
1F
100
AcDbEntity
  8
외형선
  6
Continuous
370
    15
100
AcDbLine
 10
2.259421167873071
 20
-5.1583000712761
 30
0.0
 11
1.862546167873072
 21
-4.761425071276102
 31
0.0
  0
LINE
  5
15E
330
1F
100
AcDbEntity
  8
외형선
  6
Continuous
370
    15
100
AcDbLine
 10
2.259421167873071
 20
5.160449928723899
 30
0.0
 11
2.259421167873071
 21
-5.1583000712761
 31
0.0
  0
LINE
  5
15F
330
1F
100
AcDbEntity
  8
외형선
  6
Continuous
370
    15
100
AcDbLine
 10
1.862546167873083
 20
-4.761425071276102
 30
0.0
 11
1.862546167873083
 21
4.763574928723903
 31
0.0
  0
LINE
  5
19B
330
1F
100
AcDbEntity
  8
외형선
  6
Continuous
370
    15
100
AcDbLine
 10
-24.32802883212705
 20
3.493574928723906
 30
0.0
 11
-17.19062883212693
 21
3.493574928723906
 31
0.0
  0
LINE
  5
19C
330
1F
100
AcDbEntity
  8
외형선
  6
Continuous
370
    15
100
AcDbLine
 10
-24.32802883212705
 20
3.493574928723906
 30
0.0
 11
-25.59802883212704
 21
4.763574928723887
 31
0.0
  0
LINE
  5
19D
330
1F
100
AcDbEntity
  8
외형선
  6
Continuous
370
    15
100
AcDbLine
 10
-17.19062883212693
 20
3.493574928723906
 30
0.0
 11
-15.92062883212683
 21
4.763574928723887
 31
0.0
  0
LINE
  5
19E
330
1F
100
AcDbEntity
  8
외형선
  6
Continuous
370
    15
100
AcDbLine
 10
-15.92062883212682
 20
4.763574928723902
 30
0.0
 11
1.862546167873084
 21
4.763574928723902
 31
0.0
  0
ENDSEC
  0
SECTION
  2
OBJECTS
  0
DICTIONARY
  5
C
330
0
100
AcDbDictionary
281
     1
  3
ACAD_GROUP
350
D
  3
ACAD_IMAGE_VARS
350
139
  3
ACAD_LAYOUT
350
1A
  3
ACAD_MLINESTYLE
350
17
  3
ACAD_PLOTSETTINGS
350
19
  3
ACAD_PLOTSTYLENAME
350
E
  3
ACAD_SCALELIST
350
47
  3
APPDATA
350
137
  3
DWGPROPS
350
19F
  0
DICTIONARY
  5
18C
330
2
100
AcDbDictionary
280
     1
281
     1
  3
ACAD_LAYERSTATES
360
18D
  0
DICTIONARY
  5
13D
330
13C
100
AcDbDictionary
280
     1
281
     1
  0
DICTIONARY
  5
D
102
{ACAD_REACTORS
330
C
102
}
330
C
100
AcDbDictionary
281
     1
  0
RASTERVARIABLES
  5
139
102
{ACAD_REACTORS
330
C
102
}
330
C
100
AcDbRasterVariables
 90
        0
 70
     1
 71
     1
 72
     1
  0
DICTIONARY
  5
1A
102
{ACAD_REACTORS
330
C
102
}
330
C
100
AcDbDictionary
281
     1
  3
Layout1
350
1E
  3
Layout2
350
26
  3
Model
350
22
  0
DICTIONARY
  5
17
102
{ACAD_REACTORS
330
C
102
}
330
C
100
AcDbDictionary
281
     1
  3
Standard
350
18
  0
DICTIONARY
  5
19
102
{ACAD_REACTORS
330
C
102
}
330
C
100
AcDbDictionary
281
     1
  0
ACDBDICTIONARYWDFLT
  5
E
102
{ACAD_REACTORS
330
C
102
}
330
C
100
AcDbDictionary
281
     1
  3
Normal
350
F
100
AcDbDictionaryWithDefault
340
F
  0
DICTIONARY
  5
47
102
{ACAD_REACTORS
330
C
102
}
330
C
100
AcDbDictionary
281
     1
  3
A0
350
48
  3
A1
350
49
  3
A2
350
4A
  3
A3
350
4B
  3
A4
350
4C
  3
A5
350
4D
  3
A6
350
4E
  3
A7
350
4F
  3
A8
350
50
  3
A9
350
51
  3
B0
350
52
  3
B1
350
53
  3
B2
350
54
  3
B3
350
55
  3
B4
350
56
  3
B5
350
57
  3
B6
350
58
  3
B7
350
59
  3
B8
350
5A
  3
B9
350
5B
  3
C0
350
5C
  3
C1
350
5D
  3
C2
350
5E
  3
C3
350
5F
  3
C4
350
60
  3
C5
350
61
  3
C6
350
62
  3
C7
350
63
  3
C8
350
64
  3
C9
350
65
  3
D0
350
66
  3
D1
350
67
  3
D2
350
68
  0
DICTIONARY
  5
137
102
{ACAD_REACTORS
330
C
102
}
330
C
100
AcDbDictionary
281
     1
  0
XRECORD
  5
19F
102
{ACAD_REACTORS
330
C
102
}
330
C
100
AcDbXrecord
280
     1
  1
DWGPROPS COOKIE
  2

  3

  4

  6

  7

  8
12016016
  9

300
=
301
=
302
=
303
=
304
=
305
=
306
=
307
=
308
=
309
=
 40
0.0
 41
2458312.378726516
 42
2458319.207066644
  1

 90
        0
  0
DICTIONARY
  5
18D
102
{ACAD_REACTORS
330
18C
102
}
330
18C
100
AcDbDictionary
281
     1
  0
LAYOUT
  5
1E
102
{ACAD_REACTORS
330
1A
102
}
330
1A
100
AcDbPlotSettings
  1

  2
none_device
  4

  6

 40
0.0
 41
0.0
 42
0.0
 43
0.0
 44
0.0
 45
0.0
 46
0.0
 47
0.0
 48
0.0
 49
0.0
140
0.0
141
0.0
142
1.0
143
1.0
 70
   688
 72
     1
 73
     0
 74
     5
  7

 75
    16
147
1.0
148
0.0
149
0.0
100
AcDbLayout
  1
Layout1
 70
     1
 71
     1
 10
0.0
 20
0.0
 11
420.0
 21
297.0
 12
0.0
 22
0.0
 32
0.0
 14
1.000000000000000E+20
 24
1.000000000000000E+20
 34
1.000000000000000E+20
 15
-1.000000000000000E+20
 25
-1.000000000000000E+20
 35
-1.000000000000000E+20
146
0.0
 13
0.0
 23
0.0
 33
0.0
 16
1.0
 26
0.0
 36
0.0
 17
0.0
 27
1.0
 37
0.0
 76
     0
330
1B
  0
LAYOUT
  5
26
102
{ACAD_REACTORS
330
1A
102
}
330
1A
100
AcDbPlotSettings
  1

  2
none_device
  4

  6

 40
0.0
 41
0.0
 42
0.0
 43
0.0
 44
0.0
 45
0.0
 46
0.0
 47
0.0
 48
0.0
 49
0.0
140
0.0
141
0.0
142
1.0
143
1.0
 70
   688
 72
     1
 73
     0
 74
     5
  7

 75
    16
147
1.0
148
0.0
149
0.0
100
AcDbLayout
  1
Layout2
 70
     1
 71
     2
 10
0.0
 20
0.0
 11
0.0
 21
0.0
 12
0.0
 22
0.0
 32
0.0
 14
0.0
 24
0.0
 34
0.0
 15
0.0
 25
0.0
 35
0.0
146
0.0
 13
0.0
 23
0.0
 33
0.0
 16
1.0
 26
0.0
 36
0.0
 17
0.0
 27
1.0
 37
0.0
 76
     0
330
23
  0
LAYOUT
  5
22
102
{ACAD_REACTORS
330
1A
102
}
330
1A
100
AcDbPlotSettings
  1

  2
none_device
  4
ANSI_A_(11.00_x_8.50_Inches)
  6

 40
6.35
 41
19.05
 42
6.35000508
 43
19.05000254
 44
279.4
 45
215.9
 46
107.1300962393278
 47
100.5026560646533
 48
0.0
 49
0.0
140
0.0
141
0.0
142
0.0709734699818263
143
1.0
 70
  1696
 72
     0
 73
     0
 74
     0
  7

 75
     0
147
0.0235690232323232
148
0.0
149
0.0
100
AcDbLayout
  1
Model
 70
     1
 71
     0
 10
0.0
 20
0.0
 11
420.0
 21
297.0
 12
0.0
 22
0.0
 32
0.0
 14
1.000000000000000E+20
 24
1.000000000000000E+20
 34
1.000000000000000E+20
 15
-1.000000000000000E+20
 25
-1.000000000000000E+20
 35
-1.000000000000000E+20
146
0.0
 13
0.0
 23
0.0
 33
0.0
 16
1.0
 26
0.0
 36
0.0
 17
0.0
 27
1.0
 37
0.0
 76
     0
330
1F
331
29
  0
MLINESTYLE
  5
18
102
{ACAD_REACTORS
330
17
102
}
330
17
100
AcDbMlineStyle
  2
Standard
 70
     0
  3

 62
   256
 51
90.0
 52
90.0
 71
     2
 49
0.5
 62
   256
  6
BYLAYER
 49
-0.5
 62
   256
  6
BYLAYER
  0
ACDBPLACEHOLDER
  5
F
102
{ACAD_REACTORS
330
E
102
}
330
E
  0
SCALE
  5
48
102
{ACAD_REACTORS
330
47
102
}
330
47
100
AcDbScale
 70
     0
300
1:1
140
1.0
141
1.0
290
     1
  0
SCALE
  5
49
102
{ACAD_REACTORS
330
47
102
}
330
47
100
AcDbScale
 70
     0
300
1:2
140
1.0
141
2.0
290
     0
  0
SCALE
  5
4A
102
{ACAD_REACTORS
330
47
102
}
330
47
100
AcDbScale
 70
     0
300
1:4
140
1.0
141
4.0
290
     0
  0
SCALE
  5
4B
102
{ACAD_REACTORS
330
47
102
}
330
47
100
AcDbScale
 70
     0
300
1:5
140
1.0
141
5.0
290
     0
  0
SCALE
  5
4C
102
{ACAD_REACTORS
330
47
102
}
330
47
100
AcDbScale
 70
     0
300
1:8
140
1.0
141
8.0
290
     0
  0
SCALE
  5
4D
102
{ACAD_REACTORS
330
47
102
}
330
47
100
AcDbScale
 70
     0
300
1:10
140
1.0
141
10.0
290
     0
  0
SCALE
  5
4E
102
{ACAD_REACTORS
330
47
102
}
330
47
100
AcDbScale
 70
     0
300
1:16
140
1.0
141
16.0
290
     0
  0
SCALE
  5
4F
102
{ACAD_REACTORS
330
47
102
}
330
47
100
AcDbScale
 70
     0
300
1:20
140
1.0
141
20.0
290
     0
  0
SCALE
  5
50
102
{ACAD_REACTORS
330
47
102
}
330
47
100
AcDbScale
 70
     0
300
1:30
140
1.0
141
30.0
290
     0
  0
SCALE
  5
51
102
{ACAD_REACTORS
330
47
102
}
330
47
100
AcDbScale
 70
     0
300
1:40
140
1.0
141
40.0
290
     0
  0
SCALE
  5
52
102
{ACAD_REACTORS
330
47
102
}
330
47
100
AcDbScale
 70
     0
300
1:50
140
1.0
141
50.0
290
     0
  0
SCALE
  5
53
102
{ACAD_REACTORS
330
47
102
}
330
47
100
AcDbScale
 70
     0
300
1:100
140
1.0
141
100.0
290
     0
  0
SCALE
  5
54
102
{ACAD_REACTORS
330
47
102
}
330
47
100
AcDbScale
 70
     0
300
2:1
140
2.0
141
1.0
290
     0
  0
SCALE
  5
55
102
{ACAD_REACTORS
330
47
102
}
330
47
100
AcDbScale
 70
     0
300
4:1
140
4.0
141
1.0
290
     0
  0
SCALE
  5
56
102
{ACAD_REACTORS
330
47
102
}
330
47
100
AcDbScale
 70
     0
300
8:1
140
8.0
141
1.0
290
     0
  0
SCALE
  5
57
102
{ACAD_REACTORS
330
47
102
}
330
47
100
AcDbScale
 70
     0
300
10:1
140
10.0
141
1.0
290
     0
  0
SCALE
  5
58
102
{ACAD_REACTORS
330
47
102
}
330
47
100
AcDbScale
 70
     0
300
100:1
140
100.0
141
1.0
290
     0
  0
SCALE
  5
59
102
{ACAD_REACTORS
330
47
102
}
330
47
100
AcDbScale
 70
     0
300
1/128" = 1'-0"
140
0.0078125
141
12.0
290
     0
  0
SCALE
  5
5A
102
{ACAD_REACTORS
330
47
102
}
330
47
100
AcDbScale
 70
     0
300
1/64" = 1'-0"
140
0.015625
141
12.0
290
     0
  0
SCALE
  5
5B
102
{ACAD_REACTORS
330
47
102
}
330
47
100
AcDbScale
 70
     0
300
1/32" = 1'-0"
140
0.03125
141
12.0
290
     0
  0
SCALE
  5
5C
102
{ACAD_REACTORS
330
47
102
}
330
47
100
AcDbScale
 70
     0
300
1/16" = 1'-0"
140
0.0625
141
12.0
290
     0
  0
SCALE
  5
5D
102
{ACAD_REACTORS
330
47
102
}
330
47
100
AcDbScale
 70
     0
300
3/32" = 1'-0"
140
0.09375
141
12.0
290
     0
  0
SCALE
  5
5E
102
{ACAD_REACTORS
330
47
102
}
330
47
100
AcDbScale
 70
     0
300
1/8" = 1'-0"
140
0.125
141
12.0
290
     0
  0
SCALE
  5
5F
102
{ACAD_REACTORS
330
47
102
}
330
47
100
AcDbScale
 70
     0
300
3/16" = 1'-0"
140
0.1875
141
12.0
290
     0
  0
SCALE
  5
60
102
{ACAD_REACTORS
330
47
102
}
330
47
100
AcDbScale
 70
     0
300
1/4" = 1'-0"
140
0.25
141
12.0
290
     0
  0
SCALE
  5
61
102
{ACAD_REACTORS
330
47
102
}
330
47
100
AcDbScale
 70
     0
300
3/8" = 1'-0"
140
0.375
141
12.0
290
     0
  0
SCALE
  5
62
102
{ACAD_REACTORS
330
47
102
}
330
47
100
AcDbScale
 70
     0
300
1/2" = 1'-0"
140
0.5
141
12.0
290
     0
  0
SCALE
  5
63
102
{ACAD_REACTORS
330
47
102
}
330
47
100
AcDbScale
 70
     0
300
3/4" = 1'-0"
140
0.75
141
12.0
290
     0
  0
SCALE
  5
64
102
{ACAD_REACTORS
330
47
102
}
330
47
100
AcDbScale
 70
     0
300
1" = 1'-0"
140
1.0
141
12.0
290
     0
  0
SCALE
  5
65
102
{ACAD_REACTORS
330
47
102
}
330
47
100
AcDbScale
 70
     0
300
1-1/2" = 1'-0"
140
1.5
141
12.0
290
     0
  0
SCALE
  5
66
102
{ACAD_REACTORS
330
47
102
}
330
47
100
AcDbScale
 70
     0
300
3" = 1'-0"
140
3.0
141
12.0
290
     0
  0
SCALE
  5
67
102
{ACAD_REACTORS
330
47
102
}
330
47
100
AcDbScale
 70
     0
300
6" = 1'-0"
140
6.0
141
12.0
290
     0
  0
SCALE
  5
68
102
{ACAD_REACTORS
330
47
102
}
330
47
100
AcDbScale
 70
     0
300
1'-0" = 1'-0"
140
12.0
141
12.0
290
     0
  0
ENDSEC
  0
EOF
