  0
SECTION
  2
HEADER
  9
$ACADVER
  1
AC1015
  9
$ACADMAINTVER
 70
     6
  9
$DWGCODEPAGE
  3
ANSI_949
  9
$INSBASE
 10
0.0
 20
0.0
 30
0.0
  9
$EXTMIN
 10
1.000000000000000E+20
 20
1.000000000000000E+20
 30
1.000000000000000E+20
  9
$EXTMAX
 10
-1.000000000000000E+20
 20
-1.000000000000000E+20
 30
-1.000000000000000E+20
  9
$LIMMIN
 10
0.0
 20
0.0
  9
$LIMMAX
 10
420.0
 20
297.0
  9
$ORTHOMODE
 70
     1
  9
$REGENMODE
 70
     1
  9
$FILLMODE
 70
     1
  9
$QTEXTMODE
 70
     0
  9
$MIRRTEXT
 70
     1
  9
$LTSCALE
 40
1.0
  9
$ATTMODE
 70
     1
  9
$TEXTSIZE
 40
3.5
  9
$TRACEWID
 40
1.0
  9
$TEXTSTYLE
  7
Standard
  9
$CLAYER
  8
0
  9
$CELTYPE
  6
ByLayer
  9
$CECOLOR
 62
   256
  9
$CELTSCALE
 40
1.0
  9
$DISPSILH
 70
     0
  9
$DIMSCALE
 40
1.0
  9
$DIMASZ
 40
3.302
  9
$DIMEXO
 40
1.0
  9
$DIMDLI
 40
3.75
  9
$DIMRND
 40
0.0
  9
$DIMDLE
 40
0.0
  9
$DIMEXE
 40
1.0
  9
$DIMTP
 40
0.0
  9
$DIMTM
 40
0.0
  9
$DIMTXT
 40
3.5
  9
$DIMCEN
 40
2.5
  9
$DIMTSZ
 40
0.0
  9
$DIMTOL
 70
     0
  9
$DIMLIM
 70
     0
  9
$DIMTIH
 70
     1
  9
$DIMTOH
 70
     1
  9
$DIMSE1
 70
     0
  9
$DIMSE2
 70
     0
  9
$DIMTAD
 70
     1
  9
$DIMZIN
 70
     0
  9
$DIMBLK
  1

  9
$DIMASO
 70
     1
  9
$DIMSHO
 70
     1
  9
$DIMPOST
  1

  9
$DIMAPOST
  1

  9
$DIMALT
 70
     0
  9
$DIMALTD
 70
     3
  9
$DIMALTF
 40
0.0393700787401575
  9
$DIMLFAC
 40
1.0
  9
$DIMTOFL
 70
     1
  9
$DIMTVP
 40
0.0
  9
$DIMTIX
 70
     0
  9
$DIMSOXD
 70
     0
  9
$DIMSAH
 70
     0
  9
$DIMBLK1
  1

  9
$DIMBLK2
  1

  9
$DIMSTYLE
  2
ISO-25
  9
$DIMCLRD
 70
     0
  9
$DIMCLRE
 70
     0
  9
$DIMCLRT
 70
     0
  9
$DIMTFAC
 40
1.0
  9
$DIMGAP
 40
1.524
  9
$DIMJUST
 70
     0
  9
$DIMSD1
 70
     0
  9
$DIMSD2
 70
     0
  9
$DIMTOLJ
 70
     0
  9
$DIMTZIN
 70
     0
  9
$DIMALTZ
 70
     0
  9
$DIMALTTZ
 70
     0
  9
$DIMUPT
 70
     0
  9
$DIMDEC
 70
     2
  9
$DIMTDEC
 70
     2
  9
$DIMALTU
 70
     2
  9
$DIMALTTD
 70
     3
  9
$DIMTXSTY
  7
Standard
  9
$DIMAUNIT
 70
     0
  9
$DIMADEC
 70
     2
  9
$DIMALTRND
 40
0.0
  9
$DIMAZIN
 70
     0
  9
$DIMDSEP
 70
    44
  9
$DIMATFIT
 70
     3
  9
$DIMFRAC
 70
     0
  9
$DIMLDRBLK
  1

  9
$DIMLUNIT
 70
     2
  9
$DIMLWD
 70
    -2
  9
$DIMLWE
 70
    -2
  9
$DIMTMOVE
 70
     0
  9
$LUNITS
 70
     2
  9
$LUPREC
 70
     2
  9
$SKETCHINC
 40
1.0
  9
$FILLETRAD
 40
10.0
  9
$AUNITS
 70
     0
  9
$AUPREC
 70
     2
  9
$MENU
  1
.
  9
$ELEVATION
 40
0.0
  9
$PELEVATION
 40
0.0
  9
$THICKNESS
 40
0.0
  9
$LIMCHECK
 70
     0
  9
$CHAMFERA
 40
0.0
  9
$CHAMFERB
 40
0.0
  9
$CHAMFERC
 40
0.0
  9
$CHAMFERD
 40
0.0
  9
$SKPOLY
 70
     0
  9
$TDCREATE
 40
2458312.754362072
  9
$TDUCREATE
 40
2458312.379362072
  9
$TDUPDATE
 40
2458319.596542697
  9
$TDUUPDATE
 40
2458319.221542697
  9
$TDINDWG
 40
0.0028639005
  9
$TDUSRTIMER
 40
2458319.221406215
  9
$USRTIMER
 70
     1
  9
$ANGBASE
 50
0.0
  9
$ANGDIR
 70
     0
  9
$PDMODE
 70
     0
  9
$PDSIZE
 40
-1.0
  9
$PLINEWID
 40
0.0
  9
$SPLFRAME
 70
     0
  9
$SPLINETYPE
 70
     6
  9
$SPLINESEGS
 70
     8
  9
$HANDSEED
  5
3C4
  9
$SURFTAB1
 70
     6
  9
$SURFTAB2
 70
     6
  9
$SURFTYPE
 70
     6
  9
$SURFU
 70
     6
  9
$SURFV
 70
     6
  9
$UCSBASE
  2

  9
$UCSNAME
  2

  9
$UCSORG
 10
0.0
 20
0.0
 30
0.0
  9
$UCSXDIR
 10
1.0
 20
0.0
 30
0.0
  9
$UCSYDIR
 10
0.0
 20
1.0
 30
0.0
  9
$UCSORTHOREF
  2

  9
$UCSORTHOVIEW
 70
     0
  9
$UCSORGTOP
 10
0.0
 20
0.0
 30
0.0
  9
$UCSORGBOTTOM
 10
0.0
 20
0.0
 30
0.0
  9
$UCSORGLEFT
 10
0.0
 20
0.0
 30
0.0
  9
$UCSORGRIGHT
 10
0.0
 20
0.0
 30
0.0
  9
$UCSORGFRONT
 10
0.0
 20
0.0
 30
0.0
  9
$UCSORGBACK
 10
0.0
 20
0.0
 30
0.0
  9
$PUCSBASE
  2

  9
$PUCSNAME
  2

  9
$PUCSORG
 10
0.0
 20
0.0
 30
0.0
  9
$PUCSXDIR
 10
1.0
 20
0.0
 30
0.0
  9
$PUCSYDIR
 10
0.0
 20
1.0
 30
0.0
  9
$PUCSORTHOREF
  2

  9
$PUCSORTHOVIEW
 70
     0
  9
$PUCSORGTOP
 10
0.0
 20
0.0
 30
0.0
  9
$PUCSORGBOTTOM
 10
0.0
 20
0.0
 30
0.0
  9
$PUCSORGLEFT
 10
0.0
 20
0.0
 30
0.0
  9
$PUCSORGRIGHT
 10
0.0
 20
0.0
 30
0.0
  9
$PUCSORGFRONT
 10
0.0
 20
0.0
 30
0.0
  9
$PUCSORGBACK
 10
0.0
 20
0.0
 30
0.0
  9
$USERI1
 70
     0
  9
$USERI2
 70
     0
  9
$USERI3
 70
     0
  9
$USERI4
 70
     0
  9
$USERI5
 70
     0
  9
$USERR1
 40
0.0
  9
$USERR2
 40
0.0
  9
$USERR3
 40
0.0
  9
$USERR4
 40
0.0
  9
$USERR5
 40
0.0
  9
$WORLDVIEW
 70
     1
  9
$SHADEDGE
 70
     3
  9
$SHADEDIF
 70
    70
  9
$TILEMODE
 70
     1
  9
$MAXACTVP
 70
    64
  9
$PINSBASE
 10
0.0
 20
0.0
 30
0.0
  9
$PLIMCHECK
 70
     0
  9
$PEXTMIN
 10
1.000000000000000E+20
 20
1.000000000000000E+20
 30
1.000000000000000E+20
  9
$PEXTMAX
 10
-1.000000000000000E+20
 20
-1.000000000000000E+20
 30
-1.000000000000000E+20
  9
$PLIMMIN
 10
0.0
 20
0.0
  9
$PLIMMAX
 10
0.0
 20
0.0
  9
$UNITMODE
 70
     0
  9
$VISRETAIN
 70
     1
  9
$PLINEGEN
 70
     0
  9
$PSLTSCALE
 70
     1
  9
$TREEDEPTH
 70
  3020
  9
$CMLSTYLE
  2
Standard
  9
$CMLJUST
 70
     0
  9
$CMLSCALE
 40
20.0
  9
$PROXYGRAPHICS
 70
     1
  9
$MEASUREMENT
 70
     1
  9
$CELWEIGHT
370
    -1
  9
$ENDCAPS
280
     0
  9
$JOINSTYLE
280
     0
  9
$LWDISPLAY
290
     1
  9
$INSUNITS
 70
     4
  9
$HYPERLINKBASE
  1

  9
$STYLESHEET
  1

  9
$XEDIT
290
     1
  9
$CEPSNTYPE
380
     0
  9
$PSTYLEMODE
290
     1
  9
$FINGERPRINTGUID
  2
{5A8E92D0-C91F-4735-BA17-A097E9F31494}
  9
$VERSIONGUID
  2
{FAEB1C32-E019-11D5-929B-00C0DF256EC4}
  9
$EXTNAMES
290
     1
  9
$PSVPSCALE
 40
0.0
  9
$OLESTARTUP
290
     0
  0
ENDSEC
  0
SECTION
  2
CLASSES
  0
CLASS
  1
ACDBDICTIONARYWDFLT
  2
AcDbDictionaryWithDefault
  3
ObjectDBX Classes
 90
        0
280
     0
281
     0
  0
CLASS
  1
VISUALSTYLE
  2
AcDbVisualStyle
  3
ObjectDBX Classes
 90
     4095
280
     0
281
     0
  0
CLASS
  1
MATERIAL
  2
AcDbMaterial
  3
ObjectDBX Classes
 90
     1153
280
     0
281
     0
  0
CLASS
  1
SCALE
  2
AcDbScale
  3
ObjectDBX Classes
 90
     1153
280
     0
281
     0
  0
CLASS
  1
SUN
  2
AcDbSun
  3
SCENEOE
 90
     1153
280
     0
281
     0
  0
CLASS
  1
ACDBPLACEHOLDER
  2
AcDbPlaceHolder
  3
ObjectDBX Classes
 90
        0
280
     0
281
     0
  0
CLASS
  1
LAYOUT
  2
AcDbLayout
  3
ObjectDBX Classes
 90
        0
280
     0
281
     0
  0
CLASS
  1
TABLESTYLE
  2
AcDbTableStyle
  3
ObjectDBX Classes
 90
     4095
280
     0
281
     0
  0
CLASS
  1
MLEADERSTYLE
  2
AcDbMLeaderStyle
  3
ACDB_MLEADERSTYLE_CLASS
 90
     4095
280
     0
281
     0
  0
CLASS
  1
RASTERVARIABLES
  2
AcDbRasterVariables
  3
ISM
 90
        0
280
     0
281
     0
  0
CLASS
  1
DIMASSOC
  2
AcDbDimAssoc
  3
"AcDbDimAssoc|Product Desc:     AcDim ARX App For Dimension|Company:          Autodesk, Inc.|WEB Address:      www.autodesk.com"
 90
        0
280
     0
281
     0
  0
ENDSEC
  0
SECTION
  2
TABLES
  0
TABLE
  2
VPORT
  5
8
330
0
100
AcDbSymbolTable
 70
     1
  0
VPORT
  5
29
330
8
100
AcDbSymbolTableRecord
100
AcDbViewportTableRecord
  2
*Active
 70
     0
 10
0.0
 20
0.0
 11
1.0
 21
1.0
 12
-63.15175229294022
 22
-9.57312006692717
 13
0.0
 23
0.0
 14
10.0
 24
10.0
 15
10.0
 25
10.0
 16
0.0
 26
0.0
 36
1.0
 17
0.0
 27
0.0
 37
0.0
 40
145.8568672765935
 41
1.67311411992263
 42
50.0
 43
0.0
 44
0.0
 50
0.0
 51
0.0
 71
    16
 72
  2000
 73
     1
 74
     3
 75
     0
 76
     0
 77
     0
 78
     0
281
     0
 65
     1
110
0.0
120
0.0
130
0.0
111
1.0
121
0.0
131
0.0
112
0.0
122
1.0
132
0.0
 79
     0
146
0.0
  0
ENDTAB
  0
TABLE
  2
LTYPE
  5
5
330
0
100
AcDbSymbolTable
 70
     6
  0
LTYPE
  5
14
330
5
100
AcDbSymbolTableRecord
100
AcDbLinetypeTableRecord
  2
ByBlock
 70
     0
  3

 72
    65
 73
     0
 40
0.0
  0
LTYPE
  5
15
330
5
100
AcDbSymbolTableRecord
100
AcDbLinetypeTableRecord
  2
ByLayer
 70
     0
  3

 72
    65
 73
     0
 40
0.0
  0
LTYPE
  5
16
330
5
100
AcDbSymbolTableRecord
100
AcDbLinetypeTableRecord
  2
Continuous
 70
     0
  3
Solid line
 72
    65
 73
     0
 40
0.0
  0
LTYPE
  5
6A
330
5
100
AcDbSymbolTableRecord
100
AcDbLinetypeTableRecord
  2
HIDDEN
 70
     0
  3
Hidden __ __ __ __ __ __ __ __ __ __ __ __ __ __
 72
    65
 73
     2
 40
1.905
 49
1.27
 74
     0
 49
-0.635
 74
     0
  0
LTYPE
  5
6B
330
5
100
AcDbSymbolTableRecord
100
AcDbLinetypeTableRecord
  2
PHANTOM
 70
     0
  3
Phantom ______  __  __  ______  __  __  ______
 72
    65
 73
     6
 40
12.7
 49
6.35
 74
     0
 49
-1.27
 74
     0
 49
1.27
 74
     0
 49
-1.27
 74
     0
 49
1.27
 74
     0
 49
-1.27
 74
     0
  0
LTYPE
  5
6C
330
5
100
AcDbSymbolTableRecord
100
AcDbLinetypeTableRecord
  2
CENTER
 70
     0
  3
Center ____ _ ____ _ ____ _ ____ _ ____ _ ____
 72
    65
 73
     4
 40
10.16
 49
6.35
 74
     0
 49
-1.27
 74
     0
 49
1.27
 74
     0
 49
-1.27
 74
     0
  0
LTYPE
  5
6D
330
5
100
AcDbSymbolTableRecord
100
AcDbLinetypeTableRecord
  2
CENTERX2
 70
     0
  3
Center (2x) ________  __  ________  __  _____
 72
    65
 73
     4
 40
20.32
 49
12.7
 74
     0
 49
-2.54
 74
     0
 49
2.54
 74
     0
 49
-2.54
 74
     0
  0
LTYPE
  5
6E
330
5
100
AcDbSymbolTableRecord
100
AcDbLinetypeTableRecord
  2
DOT2
 70
     0
  3
Dot (.5x) ........................................
 72
    65
 73
     2
 40
0.635
 49
0.0
 74
     0
 49
-0.635
 74
     0
  0
ENDTAB
  0
TABLE
  2
LAYER
  5
2
102
{ACAD_XDICTIONARY
360
1D0
102
}
330
0
100
AcDbSymbolTable
 70
    18
  0
LAYER
  5
10
330
2
100
AcDbSymbolTableRecord
100
AcDbLayerTableRecord
  2
0
 70
     0
 62
     7
  6
Continuous
370
    -3
390
F
  0
LAYER
  5
6F
330
2
100
AcDbSymbolTableRecord
100
AcDbLayerTableRecord
  2
FORMAT
 70
     0
 62
     2
  6
Continuous
370
    -3
390
F
  0
LAYER
  5
70
330
2
100
AcDbSymbolTableRecord
100
AcDbLayerTableRecord
  2
외형선
 70
     0
 62
     4
  6
Continuous
370
    30
390
F
  0
LAYER
  5
71
330
2
100
AcDbSymbolTableRecord
100
AcDbLayerTableRecord
  2
숨은선
 70
     0
 62
     2
  6
HIDDEN
370
    15
390
F
  0
LAYER
  5
72
330
2
100
AcDbSymbolTableRecord
100
AcDbLayerTableRecord
  2
중심선
 70
     0
 62
     1
  6
CENTERX2
370
    -3
390
F
  0
LAYER
  5
73
330
2
100
AcDbSymbolTableRecord
100
AcDbLayerTableRecord
  2
파단선
 70
     0
 62
     4
  6
Continuous
370
    -3
390
F
  0
LAYER
  5
74
330
2
100
AcDbSymbolTableRecord
100
AcDbLayerTableRecord
  2
해칭선
 70
     0
 62
   100
  6
Continuous
370
    -3
390
F
  0
LAYER
  5
75
330
2
100
AcDbSymbolTableRecord
100
AcDbLayerTableRecord
  2
가는실선
 70
     0
 62
     4
  6
Continuous
370
    -3
390
F
  0
LAYER
  5
76
330
2
100
AcDbSymbolTableRecord
100
AcDbLayerTableRecord
  2
치수_보조선
 70
     0
 62
     4
  6
Continuous
370
    -3
390
F
  0
LAYER
  5
77
330
2
100
AcDbSymbolTableRecord
100
AcDbLayerTableRecord
  2
치수문자_일반주서
 70
     0
 62
     7
  6
Continuous
370
    15
390
F
  0
LAYER
  5
78
330
2
100
AcDbSymbolTableRecord
100
AcDbLayerTableRecord
  2
개별주서
 70
     0
 62
   100
  6
Continuous
370
    30
390
F
  0
LAYER
  5
79
330
2
100
AcDbSymbolTableRecord
100
AcDbLayerTableRecord
  2
중간선
 70
     0
 62
     2
  6
Continuous
370
    15
390
F
  0
LAYER
  5
7A
330
2
100
AcDbSymbolTableRecord
100
AcDbLayerTableRecord
  2
윤곽선
 70
     0
 62
     3
  6
Continuous
370
    40
390
F
  0
LAYER
  5
7B
330
2
100
AcDbSymbolTableRecord
100
AcDbLayerTableRecord
  2
중심마크
 70
     0
 62
   100
  6
Continuous
370
    30
390
F
  0
LAYER
  5
7C
330
2
100
AcDbSymbolTableRecord
100
AcDbLayerTableRecord
  2
가상선
 70
     0
 62
     4
  6
PHANTOM
370
    -3
390
F
  0
LAYER
  5
7D
330
2
100
AcDbSymbolTableRecord
100
AcDbLayerTableRecord
  2
특수지정선
 70
     0
 62
     5
  6
CENTERX2
370
    60
390
F
  0
LAYER
  5
7E
330
2
100
AcDbSymbolTableRecord
100
AcDbLayerTableRecord
  2
참조1
 70
     0
 62
    -4
  6
Continuous
370
    -3
390
F
  0
LAYER
  5
139
330
2
100
AcDbSymbolTableRecord
100
AcDbLayerTableRecord
  2
Defpoints
 70
     0
 62
     7
  6
Continuous
290
     0
370
    -3
390
F
  0
ENDTAB
  0
TABLE
  2
STYLE
  5
3
330
0
100
AcDbSymbolTable
 70
     2
  0
STYLE
  5
11
330
3
100
AcDbSymbolTableRecord
100
AcDbTextStyleTableRecord
  2
Standard
 70
     0
 40
0.0
 41
1.0
 50
0.0
 71
     0
 42
3.5
  3
txt
  4

  0
STYLE
  5
94
330
3
100
AcDbSymbolTableRecord
100
AcDbTextStyleTableRecord
  2
SLDTEXTSTYLE0
 70
     0
 40
0.0
 41
0.75
 50
0.0
 71
     0
 42
3.5
  3
TXT
  4

  0
ENDTAB
  0
TABLE
  2
VIEW
  5
6
330
0
100
AcDbSymbolTable
 70
     0
  0
ENDTAB
  0
TABLE
  2
UCS
  5
7
330
0
100
AcDbSymbolTable
 70
     0
  0
ENDTAB
  0
TABLE
  2
APPID
  5
9
330
0
100
AcDbSymbolTable
 70
     1
  0
APPID
  5
12
330
9
100
AcDbSymbolTableRecord
100
AcDbRegAppTableRecord
  2
ACAD
 70
     0
  0
ENDTAB
  0
TABLE
  2
DIMSTYLE
  5
A
330
0
100
AcDbSymbolTable
 70
     3
100
AcDbDimStyleTable
  0
DIMSTYLE
105
27
330
A
100
AcDbSymbolTableRecord
100
AcDbDimStyleTableRecord
  2
ISO-25
 70
     0
 41
2.5
 42
0.625
 43
3.75
 44
1.25
 73
     0
 74
     0
 77
     1
 78
     8
140
2.5
141
2.5
143
0.03937007874016
147
0.625
171
     3
172
     1
178
     0
271
     2
272
     2
274
     3
278
    44
283
     0
284
     8
340
11
  0
DIMSTYLE
105
B9
102
{ACAD_REACTORS
330
18C
330
199
330
1BB
330
2AF
330
2BC
330
2DE
330
341
330
342
330
346
102
}
330
A
100
AcDbSymbolTableRecord
100
AcDbDimStyleTableRecord
  2
SLDDIMSTYLE0
 70
     0
 41
3.302
 44
0.0
 45
0.000000001
 73
     0
 74
     0
 77
     1
 78
    12
 79
     3
140
3.5
143
0.0393700787401575
147
0.875
148
0.000000001
170
     1
173
     1
178
     0
271
     2
272
     2
276
     2
284
    12
340
94
  0
DIMSTYLE
105
F3
102
{ACAD_REACTORS
330
1A6
330
2C9
330
343
102
}
330
A
100
AcDbSymbolTableRecord
100
AcDbDimStyleTableRecord
  2
SLDDIMSTYLE1
 70
     0
 41
3.302
 44
0.0
 45
0.000000001
 73
     0
 74
     0
 77
     1
 78
     4
 79
     1
140
3.5
143
0.0393700787401575
147
0.875
148
0.000000001
170
     1
172
     1
173
     1
178
     0
271
     2
272
     2
276
     2
284
    12
289
     0
340
94
  0
ENDTAB
  0
TABLE
  2
BLOCK_RECORD
  5
1
330
0
100
AcDbSymbolTable
 70
    26
  0
BLOCK_RECORD
  5
1F
330
1
100
AcDbSymbolTableRecord
100
AcDbBlockTableRecord
  2
*Model_Space
340
22
  0
BLOCK_RECORD
  5
1B
330
1
100
AcDbSymbolTableRecord
100
AcDbBlockTableRecord
  2
*Paper_Space
340
1E
  0
BLOCK_RECORD
  5
23
330
1
100
AcDbSymbolTableRecord
100
AcDbBlockTableRecord
  2
*Paper_Space0
340
26
  0
BLOCK_RECORD
  5
7F
330
1
100
AcDbSymbolTableRecord
100
AcDbBlockTableRecord
  2
블럭10
340
0
102
{BLKREFS
331
B1
102
}
  0
BLOCK_RECORD
  5
BA
330
1
100
AcDbSymbolTableRecord
100
AcDbBlockTableRecord
  2
_D
340
0
  0
BLOCK_RECORD
  5
CD
330
1
100
AcDbSymbolTableRecord
100
AcDbBlockTableRecord
  2
_D_1
340
0
  0
BLOCK_RECORD
  5
E0
330
1
100
AcDbSymbolTableRecord
100
AcDbBlockTableRecord
  2
_D_2
340
0
  0
BLOCK_RECORD
  5
F4
330
1
100
AcDbSymbolTableRecord
100
AcDbBlockTableRecord
  2
_D_3
340
0
  0
BLOCK_RECORD
  5
10E
330
1
100
AcDbSymbolTableRecord
100
AcDbBlockTableRecord
  2
SW_DOWELSYMBOL_0
340
0
102
{BLKREFS
331
0
331
1B3
331
0
331
2D6
331
344
102
}
  0
BLOCK_RECORD
  5
1BE
330
1
100
AcDbSymbolTableRecord
100
AcDbBlockTableRecord
  2
*D8
340
0
  0
BLOCK_RECORD
  5
1D4
330
1
100
AcDbSymbolTableRecord
100
AcDbBlockTableRecord
  2
*D9
340
0
  0
BLOCK_RECORD
  5
1E0
330
1
100
AcDbSymbolTableRecord
100
AcDbBlockTableRecord
  2
*D10
340
0
  0
BLOCK_RECORD
  5
1EC
330
1
100
AcDbSymbolTableRecord
100
AcDbBlockTableRecord
  2
*D11
340
0
  0
BLOCK_RECORD
  5
22D
330
1
100
AcDbSymbolTableRecord
100
AcDbBlockTableRecord
  2
*D12
340
0
  0
BLOCK_RECORD
  5
239
330
1
100
AcDbSymbolTableRecord
100
AcDbBlockTableRecord
  2
*D13
340
0
  0
BLOCK_RECORD
  5
245
330
1
100
AcDbSymbolTableRecord
100
AcDbBlockTableRecord
  2
*D14
340
0
  0
BLOCK_RECORD
  5
251
330
1
100
AcDbSymbolTableRecord
100
AcDbBlockTableRecord
  2
*D15
340
0
  0
BLOCK_RECORD
  5
2E1
330
1
100
AcDbSymbolTableRecord
100
AcDbBlockTableRecord
  2
*D17
340
0
  0
BLOCK_RECORD
  5
2F5
330
1
100
AcDbSymbolTableRecord
100
AcDbBlockTableRecord
  2
*D18
340
0
  0
BLOCK_RECORD
  5
301
330
1
100
AcDbSymbolTableRecord
100
AcDbBlockTableRecord
  2
*D19
340
0
  0
BLOCK_RECORD
  5
30D
330
1
100
AcDbSymbolTableRecord
100
AcDbBlockTableRecord
  2
*D20
340
0
  0
BLOCK_RECORD
  5
34E
330
1
100
AcDbSymbolTableRecord
100
AcDbBlockTableRecord
  2
*D21
340
0
  0
BLOCK_RECORD
  5
35A
330
1
100
AcDbSymbolTableRecord
100
AcDbBlockTableRecord
  2
*D22
340
0
  0
BLOCK_RECORD
  5
366
330
1
100
AcDbSymbolTableRecord
100
AcDbBlockTableRecord
  2
*D23
340
0
  0
BLOCK_RECORD
  5
372
330
1
100
AcDbSymbolTableRecord
100
AcDbBlockTableRecord
  2
*D24
340
0
  0
ENDTAB
  0
ENDSEC
  0
SECTION
  2
BLOCKS
  0
BLOCK
  5
20
330
1F
100
AcDbEntity
  8
0
100
AcDbBlockBegin
  2
*Model_Space
 70
     0
 10
0.0
 20
0.0
 30
0.0
  3
*Model_Space
  1
*Model_Space
  0
ENDBLK
  5
21
330
1F
100
AcDbEntity
  8
0
100
AcDbBlockEnd
  0
BLOCK
  5
1C
330
1B
100
AcDbEntity
 67
     1
  8
0
100
AcDbBlockBegin
  2
*Paper_Space
 70
     0
 10
0.0
 20
0.0
 30
0.0
  3
*Paper_Space
  1
*Paper_Space
  0
ENDBLK
  5
1D
330
1B
100
AcDbEntity
 67
     1
  8
0
100
AcDbBlockEnd
  0
BLOCK
  5
24
330
23
100
AcDbEntity
  8
0
100
AcDbBlockBegin
  2
*Paper_Space0
 70
     0
 10
0.0
 20
0.0
 30
0.0
  3
*Paper_Space0
  1
*Paper_Space0
  0
ENDBLK
  5
25
330
23
100
AcDbEntity
  8
0
100
AcDbBlockEnd
  0
BLOCK
  5
80
330
7F
100
AcDbEntity
  8
0
100
AcDbBlockBegin
  2
블럭10
 70
     2
 10
0.0
 20
0.0
 30
0.0
  3
블럭10
  1
블럭10
  0
ELLIPSE
  5
82
330
7F
100
AcDbEntity
  8
중심선
100
AcDbEllipse
 10
20.54032771741204
 20
12.0471743016438
 30
0.0
 11
6.600054785286829
 21
-1.261213355974178E-13
 31
0.0
210
0.0
220
0.0
230
1.0
 40
0.636358354079598
 41
0.9219305317359503
 42
6.513795318482858
  0
ELLIPSE
  5
83
330
7F
100
AcDbEntity
  8
중심선
100
AcDbEllipse
 10
20.54032771746488
 20
12.04717430159265
 30
0.0
 11
3.960054785062283
 21
1.540847449632565E-10
 31
0.0
210
0.0
220
0.0
230
1.0
 40
0.3939339440162632
 41
1.131841032648279
 42
5.62031148352944
  0
LINE
  5
84
330
7F
100
AcDbEntity
  8
중심선
100
AcDbLine
 10
2.268634060543552
 20
16.24717430164393
 30
0.0
 11
5.714909304380834
 21
16.24717430164393
 31
0.0
  0
LINE
  5
85
330
7F
100
AcDbEntity
  8
중심선
100
AcDbLine
 10
5.245725140726316
 20
7.84717430164391
 30
0.0
 11
8.692000384563599
 21
7.84717430164391
 31
0.0
  0
LINE
  5
86
330
7F
100
AcDbEntity
  8
중심선
100
AcDbLine
 10
15.74043728645272
 20
16.24717430164393
 30
0.0
 11
8.692000384563599
 21
7.84717430164391
 31
0.0
  0
LINE
  5
87
330
7F
100
AcDbEntity
  8
중심선
100
AcDbLine
 10
0.1404042013395286
 20
13.71084872107135
 30
0.0
 11
3.58671253028996
 21
13.71088815037384
 31
0.0
  0
LINE
  5
88
330
7F
100
AcDbEntity
  8
중심선
100
AcDbLine
 10
2.750260043222114
 20
10.84717430164391
 30
0.0
 11
6.196535287059397
 21
10.84717430164391
 31
0.0
  0
LINE
  5
89
330
7F
100
AcDbEntity
  8
중심선
100
AcDbLine
 10
12.29416204261559
 20
16.24717430164393
 30
0.0
 11
5.245725140726316
 21
7.84717430164391
 31
0.0
  0
LINE
  5
8A
330
7F
100
AcDbEntity
  8
중심선
100
AcDbLine
 10
10.72767329541681
 20
16.24717430164393
 30
0.0
 11
6.196535287059397
 21
10.84717430164391
 31
0.0
  0
LINE
  5
8B
330
7F
100
AcDbEntity
  8
중심선
100
AcDbLine
 10
7.28139805157953
 20
16.24717430164393
 30
0.0
 11
2.750260043222114
 21
10.84717430164391
 31
0.0
  0
LINE
  5
8C
330
7F
100
AcDbEntity
  8
중심선
100
AcDbLine
 10
5.714909304380834
 20
16.24717430164393
 30
0.0
 11
3.58671253028996
 21
13.71088815037384
 31
0.0
  0
LINE
  5
8D
330
7F
100
AcDbEntity
  8
중심선
100
AcDbLine
 10
2.268634060543552
 20
16.24717430164393
 30
0.0
 11
0.1404042013395286
 21
13.71084872107135
 31
0.0
  0
LINE
  5
8E
330
7F
100
AcDbEntity
  8
중심선
100
AcDbLine
 10
7.28139805157953
 20
16.24717430164393
 30
0.0
 11
10.72767329541681
 21
16.24717430164393
 31
0.0
  0
LINE
  5
8F
330
7F
100
AcDbEntity
  8
중심선
100
AcDbLine
 10
12.29416204261559
 20
16.24717430164393
 30
0.0
 11
15.74043728645272
 21
16.24717430164393
 31
0.0
  0
LINE
  5
90
330
7F
100
AcDbEntity
  8
중심선
100
AcDbLine
 10
19.22036997980202
 20
11.08717430171403
 30
0.0
 11
23.66174974927406
 21
11.08717430171406
 31
0.0
  0
LINE
  5
91
330
7F
100
AcDbEntity
  8
중심선
100
AcDbLine
 10
19.22039502424796
 20
13.00717430171391
 30
0.0
 11
19.22036997980202
 21
11.08717430171403
 31
0.0
  0
LINE
  5
92
330
7F
100
AcDbEntity
  8
중심선
100
AcDbLine
 10
19.22039502424796
 20
13.00717430171391
 30
0.0
 11
26.96566020931264
 21
13.00717430171391
 31
0.0
  0
LINE
  5
93
330
7F
100
AcDbEntity
  8
중심선
100
AcDbLine
 10
22.22332737316547
 20
13.45928029700563
 30
0.0
 11
24.52862924686651
 21
15.39360700705356
 31
0.0
  0
ATTDEF
  5
95
330
7F
100
AcDbEntity
  8
FORMAT
 62
     2
100
AcDbText
 10
4.408487351596664
 20
2.075366912832191
 30
0.0
 40
4.233333333333333
  1
E2039044
 41
0.75
  7
SLDTEXTSTYLE0
 11
4.408487351596664
 21
-0.0412997538344756
 31
0.0
100
AcDbAttributeDefinition
  3

  2
AUTOATTR0
 70
     0
 74
     1
  0
ENDBLK
  5
81
330
7F
100
AcDbEntity
  8
0
100
AcDbBlockEnd
  0
BLOCK
  5
BB
330
BA
100
AcDbEntity
  8
0
100
AcDbBlockBegin
  2
_D
 70
     0
 10
0.0
 20
0.0
 30
0.0
  3
_D
  1
_D
  0
SOLID
  5
BD
330
BA
100
AcDbEntity
  8
치수문자_일반주서
100
AcDbTrace
 10
56.67052760992014
 20
5.218258589704695
 30
0.0
 11
56.16252760992013
 21
1.916258589704696
 31
0.0
 12
57.17852760992014
 22
1.916258589704696
 32
0.0
 13
57.17852760992014
 23
1.916258589704696
 33
0.0
  0
SOLID
  5
BE
330
BA
100
AcDbEntity
  8
치수문자_일반주서
100
AcDbTrace
 10
56.67052760992014
 20
-5.100491410295311
 30
0.0
 11
57.17852760992014
 21
-1.798491410295312
 31
0.0
 12
56.16252760992013
 22
-1.798491410295312
 32
0.0
 13
56.16252760992013
 23
-1.798491410295312
 33
0.0
  0
LINE
  5
BF
330
BA
100
AcDbEntity
  8
치수문자_일반주서
100
AcDbLine
 10
45.87764589387741
 20
10.23472747827019
 30
0.0
 11
45.87764589387741
 21
9.52378999270569
 31
0.0
  0
LINE
  5
C0
330
BA
100
AcDbEntity
  8
치수문자_일반주서
100
AcDbLine
 10
45.87764589387741
 20
9.52378999270569
 30
0.0
 11
51.43389588493672
 21
9.523789992705732
 31
0.0
  0
LINE
  5
C1
330
BA
100
AcDbEntity
  8
치수문자_일반주서
100
AcDbLine
 10
51.43389588493672
 20
9.523789992705732
 30
0.0
 11
51.43389588493671
 21
10.23472747827023
 31
0.0
  0
LINE
  5
C2
330
BA
100
AcDbEntity
  8
치수문자_일반주서
100
AcDbLine
 10
45.87764589387734
 20
21.06346034040745
 30
0.0
 11
45.87764589387733
 21
21.77439782597195
 31
0.0
  0
LINE
  5
C3
330
BA
100
AcDbEntity
  8
치수문자_일반주서
100
AcDbLine
 10
45.87764589387733
 20
21.77439782597195
 30
0.0
 11
51.43389588493663
 21
21.77439782597199
 31
0.0
  0
LINE
  5
C4
330
BA
100
AcDbEntity
  8
치수문자_일반주서
100
AcDbLine
 10
51.43389588493663
 20
21.77439782597199
 30
0.0
 11
51.43389588493664
 21
21.06346034040749
 31
0.0
  0
LINE
  5
C5
330
BA
100
AcDbEntity
  8
치수문자_일반주서
100
AcDbLine
 10
30.08087469871035
 20
5.218258589704697
 30
0.0
 11
57.67052760992014
 21
5.218258589704695
 31
0.0
  0
LINE
  5
C6
330
BA
100
AcDbEntity
  8
치수문자_일반주서
100
AcDbLine
 10
30.08087469871035
 20
-5.10049141029531
 30
0.0
 11
57.67052760992014
 21
-5.100491410295311
 31
0.0
  0
LINE
  5
C7
330
BA
100
AcDbEntity
  8
치수문자_일반주서
100
AcDbLine
 10
56.67052760992014
 20
5.218258589704695
 30
0.0
 11
56.67052760992014
 21
24.10706285215991
 31
0.0
  0
LINE
  5
C8
330
BA
100
AcDbEntity
  8
치수문자_일반주서
100
AcDbLine
 10
56.67052760992014
 20
5.218258589704695
 30
0.0
 11
56.67052760992014
 21
-5.100491410295311
 31
0.0
  0
MTEXT
  5
C9
330
BA
100
AcDbEntity
  8
치수문자_일반주서
100
AcDbMText
 10
46.92215897035781
 20
11.12339937888157
 30
0.0
 40
3.5
 41
0.0
 71
     1
 72
     1
  1
0.41
  7
SLDTEXTSTYLE0
 11
-7.044195017643634E-15
 21
1.0
 31
0.0
 73
     1
 44
1.0
  0
MTEXT
  5
CA
330
BA
100
AcDbEntity
  8
치수문자_일반주서
100
AcDbMText
 10
52.15879052071831
 20
7.191124966517838
 30
0.0
 40
3.5
 41
0.0
 71
     1
 72
     1
  1
%%c
  7
SLDTEXTSTYLE0
 11
-7.044195017643634E-15
 21
1.0
 31
0.0
 73
     1
 44
1.0
  0
MTEXT
  5
CB
330
BA
100
AcDbEntity
  8
치수문자_일반주서
100
AcDbMText
 10
52.15879052071828
 20
12.46956236489192
 30
0.0
 40
3.5
 41
0.0
 71
     1
 72
     1
  1
10.32
  7
SLDTEXTSTYLE0
 11
-7.044195017643634E-15
 21
1.0
 31
0.0
 73
     1
 44
1.0
  0
ENDBLK
  5
BC
330
BA
100
AcDbEntity
  8
0
100
AcDbBlockEnd
  0
BLOCK
  5
CE
330
CD
100
AcDbEntity
  8
0
100
AcDbBlockBegin
  2
_D_1
 70
     0
 10
0.0
 20
0.0
 30
0.0
  3
_D_1
  1
_D_1
  0
LINE
  5
D0
330
CD
100
AcDbEntity
  8
치수문자_일반주서
 62
     0
370
    -2
100
AcDbLine
 10
47.34365766425388
 20
6.645739810165953
 30
0.0
 11
47.34365766425388
 21
16.63113254955811
 31
0.0
  0
LINE
  5
D1
330
CD
100
AcDbEntity
  8
치수문자_일반주서
 62
     0
370
    -2
100
AcDbLine
 10
12.41865766425388
 20
6.668038961946342
 30
0.0
 11
12.41865766425388
 21
16.63113254955811
 31
0.0
  0
LINE
  5
D2
330
CD
100
AcDbEntity
  8
치수문자_일반주서
 62
     0
370
    -2
100
AcDbLine
 10
44.04165766425388
 20
16.63113254955811
 30
0.0
 11
15.72065766425388
 21
16.63113254955811
 31
0.0
  0
SOLID
  5
D3
330
CD
100
AcDbEntity
  8
치수문자_일반주서
 62
     0
100
AcDbTrace
 10
44.04165766425388
 20
16.08079921622478
 30
0.0
 11
44.04165766425388
 21
17.18146588289144
 31
0.0
 12
47.34365766425388
 22
16.63113254955811
 32
0.0
 13
47.34365766425388
 23
16.63113254955811
 33
0.0
  0
SOLID
  5
D4
330
CD
100
AcDbEntity
  8
치수문자_일반주서
 62
     0
100
AcDbTrace
 10
15.72065766425388
 20
17.18146588289144
 30
0.0
 11
15.72065766425388
 21
16.08079921622478
 31
0.0
 12
12.41865766425388
 22
16.63113254955811
 32
0.0
 13
12.41865766425388
 23
16.63113254955811
 33
0.0
  0
MTEXT
  5
D5
330
CD
100
AcDbEntity
  8
치수문자_일반주서
 62
     0
100
AcDbMText
 10
29.88115766425386
 20
21.00613254955811
 30
0.0
 40
3.5
 41
0.0
 71
     2
 72
     1
  1
\A1;34.93 [1 3/8]
  7
SLDTEXTSTYLE0
 73
     1
 44
1.0
  0
POINT
  5
D6
330
CD
100
AcDbEntity
  8
Defpoints
 62
     0
100
AcDbPoint
 10
47.34365766425388
 20
6.583239810165953
 30
0.0
  0
POINT
  5
D7
330
CD
100
AcDbEntity
  8
Defpoints
 62
     0
100
AcDbPoint
 10
12.41865766425388
 20
6.605538961946342
 30
0.0
  0
POINT
  5
D8
330
CD
100
AcDbEntity
  8
Defpoints
 62
     0
100
AcDbPoint
 10
12.41865766425388
 20
16.63113254955811
 30
0.0
  0
ENDBLK
  5
CF
330
CD
100
AcDbEntity
  8
0
100
AcDbBlockEnd
  0
BLOCK
  5
E1
330
E0
100
AcDbEntity
  8
0
100
AcDbBlockBegin
  2
_D_2
 70
     0
 10
0.0
 20
0.0
 30
0.0
  3
_D_2
  1
_D_2
  0
LINE
  5
E3
330
E0
100
AcDbEntity
  8
치수문자_일반주서
 62
     0
370
    -2
100
AcDbLine
 10
47.34365766425388
 20
6.645739810165953
 30
0.0
 11
47.34365766425388
 21
28.63113254955804
 31
0.0
  0
LINE
  5
E4
330
E0
100
AcDbEntity
  8
치수문자_일반주서
 62
     0
370
    -2
100
AcDbLine
 10
-38.38134233574612
 20
5.201383589704698
 30
0.0
 11
-38.38134233574612
 21
28.63113254955804
 31
0.0
  0
LINE
  5
E5
330
E0
100
AcDbEntity
  8
치수문자_일반주서
 62
     0
370
    -2
100
AcDbLine
 10
44.04165766425388
 20
28.63113254955804
 30
0.0
 11
-35.07934233574612
 21
28.63113254955804
 31
0.0
  0
SOLID
  5
E6
330
E0
100
AcDbEntity
  8
치수문자_일반주서
 62
     0
100
AcDbTrace
 10
44.04165766425388
 20
28.0807992162247
 30
0.0
 11
44.04165766425388
 21
29.18146588289137
 31
0.0
 12
47.34365766425388
 22
28.63113254955804
 32
0.0
 13
47.34365766425388
 23
28.63113254955804
 33
0.0
  0
SOLID
  5
E7
330
E0
100
AcDbEntity
  8
치수문자_일반주서
 62
     0
100
AcDbTrace
 10
-35.07934233574612
 20
29.18146588289137
 30
0.0
 11
-35.07934233574612
 21
28.0807992162247
 31
0.0
 12
-38.38134233574612
 22
28.63113254955804
 32
0.0
 13
-38.38134233574612
 23
28.63113254955804
 33
0.0
  0
MTEXT
  5
E8
330
E0
100
AcDbEntity
  8
치수문자_일반주서
 62
     0
100
AcDbMText
 10
5.651756275037611
 20
33.00613254955803
 30
0.0
 40
3.5
 41
0.0
 71
     2
 72
     1
  1
\A1;85.73 [3 3/8]
  7
SLDTEXTSTYLE0
 73
     1
 44
1.0
  0
POINT
  5
E9
330
E0
100
AcDbEntity
  8
Defpoints
 62
     0
100
AcDbPoint
 10
47.34365766425388
 20
6.583239810165953
 30
0.0
  0
POINT
  5
EA
330
E0
100
AcDbEntity
  8
Defpoints
 62
     0
100
AcDbPoint
 10
-38.38134233574612
 20
5.138883589704698
 30
0.0
  0
POINT
  5
EB
330
E0
100
AcDbEntity
  8
Defpoints
 62
     0
100
AcDbPoint
 10
-38.38134233574612
 20
28.63113254955804
 30
0.0
  0
ENDBLK
  5
E2
330
E0
100
AcDbEntity
  8
0
100
AcDbBlockEnd
  0
BLOCK
  5
F5
330
F4
100
AcDbEntity
  8
0
100
AcDbBlockBegin
  2
_D_3
 70
     0
 10
0.0
 20
0.0
 30
0.0
  3
_D_3
  1
_D_3
  0
LINE
  5
F7
330
F4
100
AcDbEntity
  8
치수문자_일반주서
 62
     0
370
    -2
100
AcDbLine
 10
-37.17384233574612
 20
6.408883589704688
 30
0.0
 11
-51.06384233574616
 21
6.408883589704641
 31
0.0
  0
LINE
  5
F8
330
F4
100
AcDbEntity
  8
치수문자_일반주서
 62
     0
370
    -2
100
AcDbLine
 10
-37.17384233574612
 20
-6.291116410295301
 30
0.0
 11
-51.06384233574612
 21
-6.291116410295348
 31
0.0
  0
LINE
  5
F9
330
F4
100
AcDbEntity
  8
치수문자_일반주서
 62
     0
370
    -2
100
AcDbLine
 10
-51.06384233574614
 20
3.106883589704641
 30
0.0
 11
-51.06384233574613
 21
-2.989116410295348
 31
0.0
  0
SOLID
  5
FA
330
F4
100
AcDbEntity
  8
치수문자_일반주서
 62
     0
100
AcDbTrace
 10
-50.51350900241281
 20
3.106883589704643
 30
0.0
 11
-51.61417566907948
 21
3.10688358970464
 31
0.0
 12
-51.06384233574616
 22
6.408883589704641
 32
0.0
 13
-51.06384233574616
 23
6.408883589704641
 33
0.0
  0
SOLID
  5
FB
330
F4
100
AcDbEntity
  8
치수문자_일반주서
 62
     0
100
AcDbTrace
 10
-51.61417566907947
 20
-2.98911641029535
 30
0.0
 11
-50.5135090024128
 21
-2.989116410295346
 31
0.0
 12
-51.06384233574612
 22
-6.291116410295348
 32
0.0
 13
-51.06384233574612
 23
-6.291116410295348
 33
0.0
  0
MTEXT
  5
FC
330
F4
100
AcDbEntity
  8
치수문자_일반주서
 62
     0
100
AcDbMText
 10
-55.43884233574614
 20
0.0588835897046742
 30
0.0
 40
3.5
 41
0.0
 71
     2
 72
     1
  1
\A1;%%c12.70 [1/2]
  7
SLDTEXTSTYLE0
 11
-3.356894814614649E-15
 21
1.0
 31
0.0
 73
     1
 44
1.0
  0
POINT
  5
FD
330
F4
100
AcDbEntity
  8
Defpoints
 62
     0
100
AcDbPoint
 10
-37.11134233574612
 20
6.408883589704688
 30
0.0
  0
POINT
  5
FE
330
F4
100
AcDbEntity
  8
Defpoints
 62
     0
100
AcDbPoint
 10
-37.11134233574612
 20
-6.291116410295301
 30
0.0
  0
POINT
  5
FF
330
F4
100
AcDbEntity
  8
Defpoints
 62
     0
100
AcDbPoint
 10
-51.06384233574612
 20
-6.291116410295349
 30
0.0
  0
ENDBLK
  5
F6
330
F4
100
AcDbEntity
  8
0
100
AcDbBlockEnd
  0
BLOCK
  5
10F
330
10E
100
AcDbEntity
  8
0
100
AcDbBlockBegin
  2
SW_DOWELSYMBOL_0
 70
     0
 10
0.0
 20
0.0
 30
0.0
  3
SW_DOWELSYMBOL_0
  1
SW_DOWELSYMBOL_0
  0
CIRCLE
  5
111
330
10E
100
AcDbEntity
  8
해칭선
 62
     0
100
AcDbCircle
 10
0.0
 20
0.0
 30
0.0
 40
3.0
  0
HATCH
  5
112
330
10E
100
AcDbEntity
  8
0
  6
Continuous
 62
     0
370
     0
100
AcDbHatch
 10
0.0
 20
0.0
 30
0.0
210
0.0
220
0.0
230
1.0
  2
SOLID
 70
     1
 71
     0
 91
        1
 92
        0
 93
        3
 72
     2
 10
0.0
 20
0.0
 40
3.0
 50
0.0
 51
90.0
 73
     1
 72
     1
 10
0.0
 20
3.0
 11
0.0
 21
0.0
 72
     1
 10
0.0
 20
0.0
 11
2.999999999999999
 21
0.0
 97
        0
 75
     0
 76
     1
 98
        1
 10
0.0
 20
0.0
  0
HATCH
  5
113
330
10E
100
AcDbEntity
  8
0
  6
Continuous
 62
     0
370
     0
100
AcDbHatch
 10
0.0
 20
0.0
 30
0.0
210
0.0
220
0.0
230
1.0
  2
SOLID
 70
     1
 71
     0
 91
        1
 92
        0
 93
        3
 72
     2
 10
0.0
 20
0.0
 40
3.0
 50
180.0
 51
270.0000000000008
 73
     1
 72
     1
 10
0.0
 20
-3.0
 11
0.0
 21
0.0
 72
     1
 10
0.0
 20
0.0
 11
-2.999999999999999
 21
0.0
 97
        0
 75
     0
 76
     1
 98
        1
 10
0.0
 20
0.0
  0
ENDBLK
  5
110
330
10E
100
AcDbEntity
  8
0
100
AcDbBlockEnd
  0
BLOCK
  5
1BF
330
1BE
100
AcDbEntity
  8
0
100
AcDbBlockBegin
  2
*D8
 70
     1
 10
0.0
 20
0.0
 30
0.0
  3
*D8
  1
*D8
  0
LINE
  5
1C0
330
1BE
100
AcDbEntity
  8
치수문자_일반주서
 62
     0
370
    -2
100
AcDbLine
 10
113.2107728378272
 20
22.43125000000001
 30
0.0
 11
129.4915437623308
 21
22.43125000000001
 31
0.0
  0
LINE
  5
1C1
330
1BE
100
AcDbEntity
  8
치수문자_일반주서
 62
     0
370
    -2
100
AcDbLine
 10
113.2107728378272
 20
3.38125000000001
 30
0.0
 11
129.4915437623308
 21
3.381250000000009
 31
0.0
  0
LINE
  5
1C2
330
1BE
100
AcDbEntity
  8
치수문자_일반주서
 62
     0
370
    -2
100
AcDbLine
 10
129.4915437623308
 20
22.43125000000001
 30
0.0
 11
129.4915437623308
 21
53.29575000000001
 31
0.0
  0
LINE
  5
1C3
330
1BE
100
AcDbEntity
  8
치수문자_일반주서
 62
     0
370
    -2
100
AcDbLine
 10
129.4915437623308
 20
19.12925000000001
 30
0.0
 11
129.4915437623308
 21
6.683250000000008
 31
0.0
  0
SOLID
  5
1C4
330
1BE
100
AcDbEntity
  8
치수문자_일반주서
 62
     0
100
AcDbTrace
 10
130.0418770956641
 20
19.12925000000001
 30
0.0
 11
128.9412104289975
 21
19.12925000000001
 31
0.0
 12
129.4915437623308
 22
22.43125000000001
 32
0.0
 13
129.4915437623308
 23
22.43125000000001
 33
0.0
  0
SOLID
  5
1C5
330
1BE
100
AcDbEntity
  8
치수문자_일반주서
 62
     0
100
AcDbTrace
 10
128.9412104289975
 20
6.683250000000008
 30
0.0
 11
130.0418770956641
 21
6.683250000000008
 31
0.0
 12
129.4915437623308
 22
3.381250000000009
 32
0.0
 13
129.4915437623308
 23
3.381250000000009
 33
0.0
  0
MTEXT
  5
1C6
330
1BE
100
AcDbEntity
  8
치수문자_일반주서
 62
     0
100
AcDbMText
 10
126.8665437623308
 20
39.51450000000001
 30
0.0
 40
3.5
 41
0.0
 71
     5
 72
     1
  1
\A1;{%%C19.05 [3/4]}
  7
SLDTEXTSTYLE0
 11
0.0
 21
1.0
 31
0.0
 73
     1
 44
1.0
  0
POINT
  5
1C7
330
1BE
100
AcDbEntity
  8
Defpoints
 62
     0
100
AcDbPoint
 10
113.1482728378272
 20
22.43125000000001
 30
0.0
  0
POINT
  5
1C8
330
1BE
100
AcDbEntity
  8
Defpoints
 62
     0
100
AcDbPoint
 10
113.1482728378272
 20
3.38125000000001
 30
0.0
  0
POINT
  5
1C9
330
1BE
100
AcDbEntity
  8
Defpoints
 62
     0
100
AcDbPoint
 10
129.4915437623308
 20
3.381250000000009
 30
0.0
  0
ENDBLK
  5
1CA
330
1BE
100
AcDbEntity
  8
0
100
AcDbBlockEnd
  0
BLOCK
  5
1D5
330
1D4
100
AcDbEntity
  8
0
100
AcDbBlockBegin
  2
*D9
 70
     1
 10
0.0
 20
0.0
 30
0.0
  3
*D9
  1
*D9
  0
LINE
  5
1D7
330
1D4
100
AcDbEntity
  8
치수문자_일반주서
 62
     0
370
    -2
100
AcDbLine
 10
113.1482728378272
 20
22.45872268430728
 30
0.0
 11
113.1482728378272
 21
35.57706057025609
 31
0.0
  0
LINE
  5
1D8
330
1D4
100
AcDbEntity
  8
치수문자_일반주서
 62
     0
370
    -2
100
AcDbLine
 10
71.87327283782723
 20
22.30019696236225
 30
0.0
 11
71.87327283782723
 21
35.57706057025609
 31
0.0
  0
LINE
  5
1D9
330
1D4
100
AcDbEntity
  8
치수문자_일반주서
 62
     0
370
    -2
100
AcDbLine
 10
109.8462728378272
 20
35.57706057025609
 30
0.0
 11
75.17527283782724
 21
35.57706057025609
 31
0.0
  0
SOLID
  5
1DA
330
1D4
100
AcDbEntity
  8
치수문자_일반주서
 62
     0
100
AcDbTrace
 10
109.8462728378272
 20
35.02672723692276
 30
0.0
 11
109.8462728378272
 21
36.12739390358943
 31
0.0
 12
113.1482728378272
 22
35.57706057025609
 32
0.0
 13
113.1482728378272
 23
35.57706057025609
 33
0.0
  0
SOLID
  5
1DB
330
1D4
100
AcDbEntity
  8
치수문자_일반주서
 62
     0
100
AcDbTrace
 10
75.17527283782724
 20
36.12739390358943
 30
0.0
 11
75.17527283782724
 21
35.02672723692276
 31
0.0
 12
71.87327283782723
 22
35.57706057025609
 32
0.0
 13
71.87327283782723
 23
35.57706057025609
 33
0.0
  0
MTEXT
  5
1DC
330
1D4
100
AcDbEntity
  8
치수문자_일반주서
 62
     0
100
AcDbMText
 10
92.51077283782723
 20
39.95206057025609
 30
0.0
 40
3.5
 41
0.0
 71
     2
 72
     1
  1
\A1;41.28 [1 5/8]
  7
SLDTEXTSTYLE0
 73
     1
 44
1.0
  0
POINT
  5
1DD
330
1D4
100
AcDbEntity
  8
Defpoints
 62
     0
100
AcDbPoint
 10
113.1482728378272
 20
22.39622268430728
 30
0.0
  0
POINT
  5
1DE
330
1D4
100
AcDbEntity
  8
Defpoints
 62
     0
100
AcDbPoint
 10
71.87327283782723
 20
22.23769696236225
 30
0.0
  0
POINT
  5
1DF
330
1D4
100
AcDbEntity
  8
Defpoints
 62
     0
100
AcDbPoint
 10
71.87327283782723
 20
35.57706057025609
 30
0.0
  0
ENDBLK
  5
1D6
330
1D4
100
AcDbEntity
  8
0
100
AcDbBlockEnd
  0
BLOCK
  5
1E1
330
1E0
100
AcDbEntity
  8
0
100
AcDbBlockBegin
  2
*D10
 70
     1
 10
0.0
 20
0.0
 30
0.0
  3
*D10
  1
*D10
  0
LINE
  5
1E3
330
1E0
100
AcDbEntity
  8
치수문자_일반주서
 62
     0
370
    -2
100
AcDbLine
 10
113.1482728378272
 20
22.45872268430728
 30
0.0
 11
113.1482728378272
 21
51.29826576805887
 31
0.0
  0
LINE
  5
1E4
330
1E0
100
AcDbEntity
  8
치수문자_일반주서
 62
     0
370
    -2
100
AcDbLine
 10
14.72327283782724
 20
20.58875000000001
 30
0.0
 11
14.72327283782724
 21
51.29826576805887
 31
0.0
  0
LINE
  5
1E5
330
1E0
100
AcDbEntity
  8
치수문자_일반주서
 62
     0
370
    -2
100
AcDbLine
 10
109.8462728378272
 20
51.29826576805887
 30
0.0
 11
18.02527283782724
 21
51.29826576805887
 31
0.0
  0
SOLID
  5
1E6
330
1E0
100
AcDbEntity
  8
치수문자_일반주서
 62
     0
100
AcDbTrace
 10
109.8462728378272
 20
50.74793243472553
 30
0.0
 11
109.8462728378272
 21
51.8485991013922
 31
0.0
 12
113.1482728378272
 22
51.29826576805887
 32
0.0
 13
113.1482728378272
 23
51.29826576805887
 33
0.0
  0
SOLID
  5
1E7
330
1E0
100
AcDbEntity
  8
치수문자_일반주서
 62
     0
100
AcDbTrace
 10
18.02527283782724
 20
51.8485991013922
 30
0.0
 11
18.02527283782724
 21
50.74793243472553
 31
0.0
 12
14.72327283782724
 22
51.29826576805887
 32
0.0
 13
14.72327283782724
 23
51.29826576805887
 33
0.0
  0
MTEXT
  5
1E8
330
1E0
100
AcDbEntity
  8
치수문자_일반주서
 62
     0
100
AcDbMText
 10
63.93577283782723
 20
55.67326576805887
 30
0.0
 40
3.5
 41
0.0
 71
     2
 72
     1
  1
\A1;98.43 [3 7/8]
  7
SLDTEXTSTYLE0
 73
     1
 44
1.0
  0
POINT
  5
1E9
330
1E0
100
AcDbEntity
  8
Defpoints
 62
     0
100
AcDbPoint
 10
113.1482728378272
 20
22.39622268430728
 30
0.0
  0
POINT
  5
1EA
330
1E0
100
AcDbEntity
  8
Defpoints
 62
     0
100
AcDbPoint
 10
14.72327283782724
 20
20.52625000000001
 30
0.0
  0
POINT
  5
1EB
330
1E0
100
AcDbEntity
  8
Defpoints
 62
     0
100
AcDbPoint
 10
14.72327283782724
 20
51.29826576805887
 30
0.0
  0
ENDBLK
  5
1E2
330
1E0
100
AcDbEntity
  8
0
100
AcDbBlockEnd
  0
BLOCK
  5
1ED
330
1EC
100
AcDbEntity
  8
0
100
AcDbBlockBegin
  2
*D11
 70
     1
 10
0.0
 20
0.0
 30
0.0
  3
*D11
  1
*D11
  0
LINE
  5
1EF
330
1EC
100
AcDbEntity
  8
치수문자_일반주서
 62
     0
370
    -2
100
AcDbLine
 10
16.56577283782723
 20
22.43125000000001
 30
0.0
 11
4.375000000000003
 21
22.43124999999996
 31
0.0
  0
LINE
  5
1F0
330
1EC
100
AcDbEntity
  8
치수문자_일반주서
 62
     0
370
    -2
100
AcDbLine
 10
16.56577283782723
 20
3.381249999999997
 30
0.0
 11
4.375000000000069
 21
3.381249999999952
 31
0.0
  0
LINE
  5
1F1
330
1EC
100
AcDbEntity
  8
치수문자_일반주서
 62
     0
370
    -2
100
AcDbLine
 10
4.375000000000014
 20
19.12924999999996
 30
0.0
 11
4.375000000000058
 21
6.683249999999951
 31
0.0
  0
SOLID
  5
1F2
330
1EC
100
AcDbEntity
  8
치수문자_일반주서
 62
     0
100
AcDbTrace
 10
4.925333333333348
 20
19.12924999999997
 30
0.0
 11
3.824666666666681
 21
19.12924999999996
 31
0.0
 12
4.375000000000003
 22
22.43124999999996
 32
0.0
 13
4.375000000000003
 23
22.43124999999996
 33
0.0
  0
SOLID
  5
1F3
330
1EC
100
AcDbEntity
  8
치수문자_일반주서
 62
     0
100
AcDbTrace
 10
3.824666666666725
 20
6.68324999999995
 30
0.0
 11
4.925333333333391
 21
6.683249999999953
 31
0.0
 12
4.375000000000069
 22
3.381249999999952
 32
0.0
 13
4.375000000000069
 23
3.381249999999952
 33
0.0
  0
MTEXT
  5
1F4
330
1EC
100
AcDbEntity
  8
치수문자_일반주서
 62
     0
100
AcDbMText
 10
0.0000000000000355
 20
12.90625
 30
0.0
 40
3.5
 41
0.0
 71
     2
 72
     1
  1
\A1;%%c19.05 [3/4]
  7
SLDTEXTSTYLE0
 11
-3.496765431890255E-15
 21
1.0
 31
0.0
 73
     1
 44
1.0
  0
POINT
  5
1F5
330
1EC
100
AcDbEntity
  8
Defpoints
 62
     0
100
AcDbPoint
 10
16.62827283782723
 20
22.43125000000001
 30
0.0
  0
POINT
  5
1F6
330
1EC
100
AcDbEntity
  8
Defpoints
 62
     0
100
AcDbPoint
 10
16.62827283782723
 20
3.381249999999998
 30
0.0
  0
POINT
  5
1F7
330
1EC
100
AcDbEntity
  8
Defpoints
 62
     0
100
AcDbPoint
 10
4.375000000000071
 20
3.381249999999952
 30
0.0
  0
ENDBLK
  5
1EE
330
1EC
100
AcDbEntity
  8
0
100
AcDbBlockEnd
  0
BLOCK
  5
22E
330
22D
100
AcDbEntity
  8
0
100
AcDbBlockBegin
  2
*D12
 70
     1
 10
0.0
 20
0.0
 30
0.0
  3
*D12
  1
*D12
  0
LINE
  5
230
330
22D
100
AcDbEntity
  8
치수문자_일반주서
 62
     0
370
    -2
100
AcDbLine
 10
72.80241491040857
 20
10.55321022392342
 30
0.0
 11
72.80241491040857
 21
23.67154810987223
 31
0.0
  0
LINE
  5
231
330
22D
100
AcDbEntity
  8
치수문자_일반주서
 62
     0
370
    -2
100
AcDbLine
 10
31.52741491040856
 20
10.39468450197839
 30
0.0
 11
31.52741491040856
 21
23.67154810987223
 31
0.0
  0
LINE
  5
232
330
22D
100
AcDbEntity
  8
치수문자_일반주서
 62
     0
370
    -2
100
AcDbLine
 10
69.50041491040858
 20
23.67154810987223
 30
0.0
 11
34.82941491040856
 21
23.67154810987223
 31
0.0
  0
SOLID
  5
233
330
22D
100
AcDbEntity
  8
치수문자_일반주서
 62
     0
100
AcDbTrace
 10
69.50041491040858
 20
23.1212147765389
 30
0.0
 11
69.50041491040858
 21
24.22188144320557
 31
0.0
 12
72.80241491040857
 22
23.67154810987223
 32
0.0
 13
72.80241491040857
 23
23.67154810987223
 33
0.0
  0
SOLID
  5
234
330
22D
100
AcDbEntity
  8
치수문자_일반주서
 62
     0
100
AcDbTrace
 10
34.82941491040856
 20
24.22188144320557
 30
0.0
 11
34.82941491040856
 21
23.1212147765389
 31
0.0
 12
31.52741491040856
 22
23.67154810987223
 32
0.0
 13
31.52741491040856
 23
23.67154810987223
 33
0.0
  0
MTEXT
  5
235
330
22D
100
AcDbEntity
  8
치수문자_일반주서
 62
     0
100
AcDbMText
 10
52.16491491040856
 20
28.04654810987223
 30
0.0
 40
3.5
 41
0.0
 71
     2
 72
     1
  1
\A1;41.28 [1 5/8]
  7
SLDTEXTSTYLE0
 73
     1
 44
1.0
  0
POINT
  5
236
330
22D
100
AcDbEntity
  8
Defpoints
 62
     0
100
AcDbPoint
 10
72.80241491040857
 20
10.49071022392342
 30
0.0
  0
POINT
  5
237
330
22D
100
AcDbEntity
  8
Defpoints
 62
     0
100
AcDbPoint
 10
31.52741491040856
 20
10.33218450197839
 30
0.0
  0
POINT
  5
238
330
22D
100
AcDbEntity
  8
Defpoints
 62
     0
100
AcDbPoint
 10
31.52741491040856
 20
23.67154810987223
 30
0.0
  0
ENDBLK
  5
22F
330
22D
100
AcDbEntity
  8
0
100
AcDbBlockEnd
  0
BLOCK
  5
23A
330
239
100
AcDbEntity
  8
0
100
AcDbBlockBegin
  2
*D13
 70
     1
 10
0.0
 20
0.0
 30
0.0
  3
*D13
  1
*D13
  0
LINE
  5
23C
330
239
100
AcDbEntity
  8
치수문자_일반주서
 62
     0
370
    -2
100
AcDbLine
 10
72.80241491040857
 20
10.55321022392342
 30
0.0
 11
72.80241491040857
 21
39.39275330767501
 31
0.0
  0
LINE
  5
23D
330
239
100
AcDbEntity
  8
치수문자_일반주서
 62
     0
370
    -2
100
AcDbLine
 10
-25.62258508959143
 20
8.683237539616147
 30
0.0
 11
-25.62258508959143
 21
39.39275330767501
 31
0.0
  0
LINE
  5
23E
330
239
100
AcDbEntity
  8
치수문자_일반주서
 62
     0
370
    -2
100
AcDbLine
 10
69.50041491040858
 20
39.39275330767501
 30
0.0
 11
-22.32058508959143
 21
39.39275330767501
 31
0.0
  0
SOLID
  5
23F
330
239
100
AcDbEntity
  8
치수문자_일반주서
 62
     0
100
AcDbTrace
 10
69.50041491040858
 20
38.84241997434167
 30
0.0
 11
69.50041491040858
 21
39.94308664100834
 31
0.0
 12
72.80241491040857
 22
39.39275330767501
 32
0.0
 13
72.80241491040857
 23
39.39275330767501
 33
0.0
  0
SOLID
  5
240
330
239
100
AcDbEntity
  8
치수문자_일반주서
 62
     0
100
AcDbTrace
 10
-22.32058508959143
 20
39.94308664100834
 30
0.0
 11
-22.32058508959143
 21
38.84241997434167
 31
0.0
 12
-25.62258508959143
 22
39.39275330767501
 32
0.0
 13
-25.62258508959143
 23
39.39275330767501
 33
0.0
  0
MTEXT
  5
241
330
239
100
AcDbEntity
  8
치수문자_일반주서
 62
     0
100
AcDbMText
 10
23.58991491040856
 20
43.76775330767501
 30
0.0
 40
3.5
 41
0.0
 71
     2
 72
     1
  1
\A1;98.43 [3 7/8]
  7
SLDTEXTSTYLE0
 73
     1
 44
1.0
  0
POINT
  5
242
330
239
100
AcDbEntity
  8
Defpoints
 62
     0
100
AcDbPoint
 10
72.80241491040857
 20
10.49071022392342
 30
0.0
  0
POINT
  5
243
330
239
100
AcDbEntity
  8
Defpoints
 62
     0
100
AcDbPoint
 10
-25.62258508959143
 20
8.620737539616147
 30
0.0
  0
POINT
  5
244
330
239
100
AcDbEntity
  8
Defpoints
 62
     0
100
AcDbPoint
 10
-25.62258508959143
 20
39.39275330767501
 30
0.0
  0
ENDBLK
  5
23B
330
239
100
AcDbEntity
  8
0
100
AcDbBlockEnd
  0
BLOCK
  5
246
330
245
100
AcDbEntity
  8
0
100
AcDbBlockBegin
  2
*D14
 70
     1
 10
0.0
 20
0.0
 30
0.0
  3
*D14
  1
*D14
  0
LINE
  5
248
330
245
100
AcDbEntity
  8
치수문자_일반주서
 62
     0
370
    -2
100
AcDbLine
 10
-23.78008508959145
 20
10.52573753961615
 30
0.0
 11
-35.97085792741866
 21
10.5257375396161
 31
0.0
  0
LINE
  5
249
330
245
100
AcDbEntity
  8
치수문자_일반주서
 62
     0
370
    -2
100
AcDbLine
 10
-23.78008508959145
 20
-8.524262460383863
 30
0.0
 11
-35.9708579274186
 21
-8.524262460383909
 31
0.0
  0
LINE
  5
24A
330
245
100
AcDbEntity
  8
치수문자_일반주서
 62
     0
370
    -2
100
AcDbLine
 10
-35.97085792741865
 20
7.223737539616103
 30
0.0
 11
-35.97085792741861
 21
-5.222262460383909
 31
0.0
  0
SOLID
  5
24B
330
245
100
AcDbEntity
  8
치수문자_일반주서
 62
     0
100
AcDbTrace
 10
-35.42052459408531
 20
7.223737539616105
 30
0.0
 11
-36.52119126075198
 21
7.223737539616101
 31
0.0
 12
-35.97085792741866
 22
10.5257375396161
 32
0.0
 13
-35.97085792741866
 23
10.5257375396161
 33
0.0
  0
SOLID
  5
24C
330
245
100
AcDbEntity
  8
치수문자_일반주서
 62
     0
100
AcDbTrace
 10
-36.52119126075195
 20
-5.222262460383911
 30
0.0
 11
-35.42052459408528
 21
-5.222262460383908
 31
0.0
 12
-35.9708579274186
 22
-8.524262460383909
 32
0.0
 13
-35.9708579274186
 23
-8.524262460383909
 33
0.0
  0
MTEXT
  5
24D
330
245
100
AcDbEntity
  8
치수문자_일반주서
 62
     0
100
AcDbMText
 10
-40.34585792741863
 20
1.000737539616135
 30
0.0
 40
3.5
 41
0.0
 71
     2
 72
     1
  1
\A1;%%c19.05 [3/4]
  7
SLDTEXTSTYLE0
 11
-3.356894814614645E-15
 21
1.0
 31
0.0
 73
     1
 44
1.0
  0
POINT
  5
24E
330
245
100
AcDbEntity
  8
Defpoints
 62
     0
100
AcDbPoint
 10
-23.71758508959145
 20
10.52573753961615
 30
0.0
  0
POINT
  5
24F
330
245
100
AcDbEntity
  8
Defpoints
 62
     0
100
AcDbPoint
 10
-23.71758508959145
 20
-8.524262460383863
 30
0.0
  0
POINT
  5
250
330
245
100
AcDbEntity
  8
Defpoints
 62
     0
100
AcDbPoint
 10
-35.9708579274186
 20
-8.524262460383909
 30
0.0
  0
ENDBLK
  5
247
330
245
100
AcDbEntity
  8
0
100
AcDbBlockEnd
  0
BLOCK
  5
252
330
251
100
AcDbEntity
  8
0
100
AcDbBlockBegin
  2
*D15
 70
     1
 10
0.0
 20
0.0
 30
0.0
  3
*D15
  1
*D15
  0
LINE
  5
254
330
251
100
AcDbEntity
  8
치수문자_일반주서
 62
     0
370
    -2
100
AcDbLine
 10
72.86491491040854
 20
10.52573753961615
 30
0.0
 11
89.14568583491211
 21
10.52573753961615
 31
0.0
  0
LINE
  5
255
330
251
100
AcDbEntity
  8
치수문자_일반주서
 62
     0
370
    -2
100
AcDbLine
 10
72.86491491040854
 20
-8.52426246038385
 30
0.0
 11
89.14568583491211
 21
-8.524262460383852
 31
0.0
  0
LINE
  5
256
330
251
100
AcDbEntity
  8
치수문자_일반주서
 62
     0
370
    -2
100
AcDbLine
 10
89.14568583491211
 20
10.52573753961615
 30
0.0
 11
89.14568583491211
 21
41.39023753961615
 31
0.0
  0
LINE
  5
257
330
251
100
AcDbEntity
  8
치수문자_일반주서
 62
     0
370
    -2
100
AcDbLine
 10
89.14568583491211
 20
7.223737539616153
 30
0.0
 11
89.14568583491211
 21
-5.222262460383853
 31
0.0
  0
SOLID
  5
258
330
251
100
AcDbEntity
  8
치수문자_일반주서
 62
     0
100
AcDbTrace
 10
89.69601916824544
 20
7.223737539616153
 30
0.0
 11
88.59535250157879
 21
7.223737539616153
 31
0.0
 12
89.14568583491211
 22
10.52573753961615
 32
0.0
 13
89.14568583491211
 23
10.52573753961615
 33
0.0
  0
SOLID
  5
259
330
251
100
AcDbEntity
  8
치수문자_일반주서
 62
     0
100
AcDbTrace
 10
88.59535250157879
 20
-5.222262460383853
 30
0.0
 11
89.69601916824544
 21
-5.222262460383853
 31
0.0
 12
89.14568583491211
 22
-8.524262460383852
 32
0.0
 13
89.14568583491211
 23
-8.524262460383852
 33
0.0
  0
MTEXT
  5
25A
330
251
100
AcDbEntity
  8
치수문자_일반주서
 62
     0
100
AcDbMText
 10
86.52068583491211
 20
27.60898753961615
 30
0.0
 40
3.5
 41
0.0
 71
     5
 72
     1
  1
\A1;{%%C19.05 [3/4]}
  7
SLDTEXTSTYLE0
 11
0.0
 21
1.0
 31
0.0
 73
     1
 44
1.0
  0
POINT
  5
25B
330
251
100
AcDbEntity
  8
Defpoints
 62
     0
100
AcDbPoint
 10
72.80241491040854
 20
10.52573753961615
 30
0.0
  0
POINT
  5
25C
330
251
100
AcDbEntity
  8
Defpoints
 62
     0
100
AcDbPoint
 10
72.80241491040854
 20
-8.52426246038385
 30
0.0
  0
POINT
  5
25D
330
251
100
AcDbEntity
  8
Defpoints
 62
     0
100
AcDbPoint
 10
89.14568583491211
 20
-8.524262460383852
 30
0.0
  0
ENDBLK
  5
253
330
251
100
AcDbEntity
  8
0
100
AcDbBlockEnd
  0
BLOCK
  5
2E2
330
2E1
100
AcDbEntity
  8
0
100
AcDbBlockBegin
  2
*D17
 70
     1
 10
0.0
 20
0.0
 30
0.0
  3
*D17
  1
*D17
  0
LINE
  5
2E3
330
2E1
100
AcDbEntity
  8
치수문자_일반주서
 62
     0
370
    -2
100
AcDbLine
 10
113.2107728378272
 20
22.43125000000001
 30
0.0
 11
129.4915437623308
 21
22.43125000000001
 31
0.0
  0
LINE
  5
2E4
330
2E1
100
AcDbEntity
  8
치수문자_일반주서
 62
     0
370
    -2
100
AcDbLine
 10
113.2107728378272
 20
3.38125000000001
 30
0.0
 11
129.4915437623308
 21
3.381250000000009
 31
0.0
  0
LINE
  5
2E5
330
2E1
100
AcDbEntity
  8
치수문자_일반주서
 62
     0
370
    -2
100
AcDbLine
 10
129.4915437623308
 20
22.43125000000001
 30
0.0
 11
129.4915437623308
 21
53.29575000000001
 31
0.0
  0
LINE
  5
2E6
330
2E1
100
AcDbEntity
  8
치수문자_일반주서
 62
     0
370
    -2
100
AcDbLine
 10
129.4915437623308
 20
19.12925000000001
 30
0.0
 11
129.4915437623308
 21
6.683250000000008
 31
0.0
  0
SOLID
  5
2E7
330
2E1
100
AcDbEntity
  8
치수문자_일반주서
 62
     0
100
AcDbTrace
 10
130.0418770956641
 20
19.12925000000001
 30
0.0
 11
128.9412104289975
 21
19.12925000000001
 31
0.0
 12
129.4915437623308
 22
22.43125000000001
 32
0.0
 13
129.4915437623308
 23
22.43125000000001
 33
0.0
  0
SOLID
  5
2E8
330
2E1
100
AcDbEntity
  8
치수문자_일반주서
 62
     0
100
AcDbTrace
 10
128.9412104289975
 20
6.683250000000008
 30
0.0
 11
130.0418770956641
 21
6.683250000000008
 31
0.0
 12
129.4915437623308
 22
3.381250000000009
 32
0.0
 13
129.4915437623308
 23
3.381250000000009
 33
0.0
  0
MTEXT
  5
2E9
330
2E1
100
AcDbEntity
  8
치수문자_일반주서
 62
     0
100
AcDbMText
 10
126.8665437623308
 20
39.51450000000001
 30
0.0
 40
3.5
 41
0.0
 71
     5
 72
     1
  1
\A1;{%%C19.05 [3/4]}
  7
SLDTEXTSTYLE0
 11
0.0
 21
1.0
 31
0.0
 73
     1
 44
1.0
  0
POINT
  5
2EA
330
2E1
100
AcDbEntity
  8
Defpoints
 62
     0
100
AcDbPoint
 10
113.1482728378272
 20
22.43125000000001
 30
0.0
  0
POINT
  5
2EB
330
2E1
100
AcDbEntity
  8
Defpoints
 62
     0
100
AcDbPoint
 10
113.1482728378272
 20
3.38125000000001
 30
0.0
  0
POINT
  5
2EC
330
2E1
100
AcDbEntity
  8
Defpoints
 62
     0
100
AcDbPoint
 10
129.4915437623308
 20
3.381250000000009
 30
0.0
  0
ENDBLK
  5
2ED
330
2E1
100
AcDbEntity
  8
0
100
AcDbBlockEnd
  0
BLOCK
  5
2F6
330
2F5
100
AcDbEntity
  8
0
100
AcDbBlockBegin
  2
*D18
 70
     1
 10
0.0
 20
0.0
 30
0.0
  3
*D18
  1
*D18
  0
LINE
  5
2F8
330
2F5
100
AcDbEntity
  8
치수문자_일반주서
 62
     0
370
    -2
100
AcDbLine
 10
113.1482728378272
 20
22.45872268430728
 30
0.0
 11
113.1482728378272
 21
35.57706057025609
 31
0.0
  0
LINE
  5
2F9
330
2F5
100
AcDbEntity
  8
치수문자_일반주서
 62
     0
370
    -2
100
AcDbLine
 10
71.87327283782723
 20
22.30019696236225
 30
0.0
 11
71.87327283782723
 21
35.57706057025609
 31
0.0
  0
LINE
  5
2FA
330
2F5
100
AcDbEntity
  8
치수문자_일반주서
 62
     0
370
    -2
100
AcDbLine
 10
109.8462728378272
 20
35.57706057025609
 30
0.0
 11
75.17527283782724
 21
35.57706057025609
 31
0.0
  0
SOLID
  5
2FB
330
2F5
100
AcDbEntity
  8
치수문자_일반주서
 62
     0
100
AcDbTrace
 10
109.8462728378272
 20
35.02672723692276
 30
0.0
 11
109.8462728378272
 21
36.12739390358943
 31
0.0
 12
113.1482728378272
 22
35.57706057025609
 32
0.0
 13
113.1482728378272
 23
35.57706057025609
 33
0.0
  0
SOLID
  5
2FC
330
2F5
100
AcDbEntity
  8
치수문자_일반주서
 62
     0
100
AcDbTrace
 10
75.17527283782724
 20
36.12739390358943
 30
0.0
 11
75.17527283782724
 21
35.02672723692276
 31
0.0
 12
71.87327283782723
 22
35.57706057025609
 32
0.0
 13
71.87327283782723
 23
35.57706057025609
 33
0.0
  0
MTEXT
  5
2FD
330
2F5
100
AcDbEntity
  8
치수문자_일반주서
 62
     0
100
AcDbMText
 10
92.51077283782723
 20
39.95206057025609
 30
0.0
 40
3.5
 41
0.0
 71
     2
 72
     1
  1
\A1;41.28 [1 5/8]
  7
SLDTEXTSTYLE0
 73
     1
 44
1.0
  0
POINT
  5
2FE
330
2F5
100
AcDbEntity
  8
Defpoints
 62
     0
100
AcDbPoint
 10
113.1482728378272
 20
22.39622268430728
 30
0.0
  0
POINT
  5
2FF
330
2F5
100
AcDbEntity
  8
Defpoints
 62
     0
100
AcDbPoint
 10
71.87327283782723
 20
22.23769696236225
 30
0.0
  0
POINT
  5
300
330
2F5
100
AcDbEntity
  8
Defpoints
 62
     0
100
AcDbPoint
 10
71.87327283782723
 20
35.57706057025609
 30
0.0
  0
ENDBLK
  5
2F7
330
2F5
100
AcDbEntity
  8
0
100
AcDbBlockEnd
  0
BLOCK
  5
302
330
301
100
AcDbEntity
  8
0
100
AcDbBlockBegin
  2
*D19
 70
     1
 10
0.0
 20
0.0
 30
0.0
  3
*D19
  1
*D19
  0
LINE
  5
304
330
301
100
AcDbEntity
  8
치수문자_일반주서
 62
     0
370
    -2
100
AcDbLine
 10
113.1482728378272
 20
22.45872268430728
 30
0.0
 11
113.1482728378272
 21
51.29826576805887
 31
0.0
  0
LINE
  5
305
330
301
100
AcDbEntity
  8
치수문자_일반주서
 62
     0
370
    -2
100
AcDbLine
 10
14.72327283782724
 20
20.58875000000001
 30
0.0
 11
14.72327283782724
 21
51.29826576805887
 31
0.0
  0
LINE
  5
306
330
301
100
AcDbEntity
  8
치수문자_일반주서
 62
     0
370
    -2
100
AcDbLine
 10
109.8462728378272
 20
51.29826576805887
 30
0.0
 11
18.02527283782724
 21
51.29826576805887
 31
0.0
  0
SOLID
  5
307
330
301
100
AcDbEntity
  8
치수문자_일반주서
 62
     0
100
AcDbTrace
 10
109.8462728378272
 20
50.74793243472553
 30
0.0
 11
109.8462728378272
 21
51.8485991013922
 31
0.0
 12
113.1482728378272
 22
51.29826576805887
 32
0.0
 13
113.1482728378272
 23
51.29826576805887
 33
0.0
  0
SOLID
  5
308
330
301
100
AcDbEntity
  8
치수문자_일반주서
 62
     0
100
AcDbTrace
 10
18.02527283782724
 20
51.8485991013922
 30
0.0
 11
18.02527283782724
 21
50.74793243472553
 31
0.0
 12
14.72327283782724
 22
51.29826576805887
 32
0.0
 13
14.72327283782724
 23
51.29826576805887
 33
0.0
  0
MTEXT
  5
309
330
301
100
AcDbEntity
  8
치수문자_일반주서
 62
     0
100
AcDbMText
 10
63.93577283782723
 20
55.67326576805887
 30
0.0
 40
3.5
 41
0.0
 71
     2
 72
     1
  1
\A1;98.43 [3 7/8]
  7
SLDTEXTSTYLE0
 73
     1
 44
1.0
  0
POINT
  5
30A
330
301
100
AcDbEntity
  8
Defpoints
 62
     0
100
AcDbPoint
 10
113.1482728378272
 20
22.39622268430728
 30
0.0
  0
POINT
  5
30B
330
301
100
AcDbEntity
  8
Defpoints
 62
     0
100
AcDbPoint
 10
14.72327283782724
 20
20.52625000000001
 30
0.0
  0
POINT
  5
30C
330
301
100
AcDbEntity
  8
Defpoints
 62
     0
100
AcDbPoint
 10
14.72327283782724
 20
51.29826576805887
 30
0.0
  0
ENDBLK
  5
303
330
301
100
AcDbEntity
  8
0
100
AcDbBlockEnd
  0
BLOCK
  5
30E
330
30D
100
AcDbEntity
  8
0
100
AcDbBlockBegin
  2
*D20
 70
     1
 10
0.0
 20
0.0
 30
0.0
  3
*D20
  1
*D20
  0
LINE
  5
310
330
30D
100
AcDbEntity
  8
치수문자_일반주서
 62
     0
370
    -2
100
AcDbLine
 10
16.56577283782723
 20
22.43125000000001
 30
0.0
 11
4.375000000000003
 21
22.43124999999996
 31
0.0
  0
LINE
  5
311
330
30D
100
AcDbEntity
  8
치수문자_일반주서
 62
     0
370
    -2
100
AcDbLine
 10
16.56577283782723
 20
3.381249999999997
 30
0.0
 11
4.375000000000069
 21
3.381249999999952
 31
0.0
  0
LINE
  5
312
330
30D
100
AcDbEntity
  8
치수문자_일반주서
 62
     0
370
    -2
100
AcDbLine
 10
4.375000000000014
 20
19.12924999999996
 30
0.0
 11
4.375000000000058
 21
6.683249999999951
 31
0.0
  0
SOLID
  5
313
330
30D
100
AcDbEntity
  8
치수문자_일반주서
 62
     0
100
AcDbTrace
 10
4.925333333333348
 20
19.12924999999997
 30
0.0
 11
3.824666666666681
 21
19.12924999999996
 31
0.0
 12
4.375000000000003
 22
22.43124999999996
 32
0.0
 13
4.375000000000003
 23
22.43124999999996
 33
0.0
  0
SOLID
  5
314
330
30D
100
AcDbEntity
  8
치수문자_일반주서
 62
     0
100
AcDbTrace
 10
3.824666666666725
 20
6.68324999999995
 30
0.0
 11
4.925333333333391
 21
6.683249999999953
 31
0.0
 12
4.375000000000069
 22
3.381249999999952
 32
0.0
 13
4.375000000000069
 23
3.381249999999952
 33
0.0
  0
MTEXT
  5
315
330
30D
100
AcDbEntity
  8
치수문자_일반주서
 62
     0
100
AcDbMText
 10
0.0000000000000355
 20
12.90625
 30
0.0
 40
3.5
 41
0.0
 71
     2
 72
     1
  1
\A1;%%c19.05 [3/4]
  7
SLDTEXTSTYLE0
 11
-3.496765431890255E-15
 21
1.0
 31
0.0
 73
     1
 44
1.0
  0
POINT
  5
316
330
30D
100
AcDbEntity
  8
Defpoints
 62
     0
100
AcDbPoint
 10
16.62827283782723
 20
22.43125000000001
 30
0.0
  0
POINT
  5
317
330
30D
100
AcDbEntity
  8
Defpoints
 62
     0
100
AcDbPoint
 10
16.62827283782723
 20
3.381249999999998
 30
0.0
  0
POINT
  5
318
330
30D
100
AcDbEntity
  8
Defpoints
 62
     0
100
AcDbPoint
 10
4.375000000000071
 20
3.381249999999952
 30
0.0
  0
ENDBLK
  5
30F
330
30D
100
AcDbEntity
  8
0
100
AcDbBlockEnd
  0
BLOCK
  5
34F
330
34E
100
AcDbEntity
  8
0
100
AcDbBlockBegin
  2
*D21
 70
     1
 10
0.0
 20
0.0
 30
0.0
  3
*D21
  1
*D21
  0
LINE
  5
351
330
34E
100
AcDbEntity
  8
치수문자_일반주서
 62
     0
370
    -2
100
AcDbLine
 10
44.06875000000002
 20
9.55247268430727
 30
0.0
 11
44.06875000000002
 21
22.67081057025608
 31
0.0
  0
LINE
  5
352
330
34E
100
AcDbEntity
  8
치수문자_일반주서
 62
     0
370
    -2
100
AcDbLine
 10
2.793750000000014
 20
9.393946962362234
 30
0.0
 11
2.793750000000014
 21
22.67081057025608
 31
0.0
  0
LINE
  5
353
330
34E
100
AcDbEntity
  8
치수문자_일반주서
 62
     0
370
    -2
100
AcDbLine
 10
40.76675000000002
 20
22.67081057025608
 30
0.0
 11
6.095750000000013
 21
22.67081057025608
 31
0.0
  0
SOLID
  5
354
330
34E
100
AcDbEntity
  8
치수문자_일반주서
 62
     0
100
AcDbTrace
 10
40.76675000000002
 20
22.12047723692275
 30
0.0
 11
40.76675000000002
 21
23.22114390358941
 31
0.0
 12
44.06875000000002
 22
22.67081057025608
 32
0.0
 13
44.06875000000002
 23
22.67081057025608
 33
0.0
  0
SOLID
  5
355
330
34E
100
AcDbEntity
  8
치수문자_일반주서
 62
     0
100
AcDbTrace
 10
6.095750000000013
 20
23.22114390358941
 30
0.0
 11
6.095750000000013
 21
22.12047723692275
 31
0.0
 12
2.793750000000014
 22
22.67081057025608
 32
0.0
 13
2.793750000000014
 23
22.67081057025608
 33
0.0
  0
MTEXT
  5
356
330
34E
100
AcDbEntity
  8
치수문자_일반주서
 62
     0
100
AcDbMText
 10
23.43125000000002
 20
27.04581057025608
 30
0.0
 40
3.5
 41
0.0
 71
     2
 72
     1
  1
\A1;41.28 [1 5/8]
  7
SLDTEXTSTYLE0
 73
     1
 44
1.0
  0
POINT
  5
357
330
34E
100
AcDbEntity
  8
Defpoints
 62
     0
100
AcDbPoint
 10
44.06875000000002
 20
9.48997268430727
 30
0.0
  0
POINT
  5
358
330
34E
100
AcDbEntity
  8
Defpoints
 62
     0
100
AcDbPoint
 10
2.793750000000014
 20
9.331446962362234
 30
0.0
  0
POINT
  5
359
330
34E
100
AcDbEntity
  8
Defpoints
 62
     0
100
AcDbPoint
 10
2.793750000000014
 20
22.67081057025608
 30
0.0
  0
ENDBLK
  5
350
330
34E
100
AcDbEntity
  8
0
100
AcDbBlockEnd
  0
BLOCK
  5
35B
330
35A
100
AcDbEntity
  8
0
100
AcDbBlockBegin
  2
*D22
 70
     1
 10
0.0
 20
0.0
 30
0.0
  3
*D22
  1
*D22
  0
LINE
  5
35D
330
35A
100
AcDbEntity
  8
치수문자_일반주서
 62
     0
370
    -2
100
AcDbLine
 10
44.06875000000002
 20
9.55247268430727
 30
0.0
 11
44.06875000000002
 21
38.39201576805885
 31
0.0
  0
LINE
  5
35E
330
35A
100
AcDbEntity
  8
치수문자_일반주서
 62
     0
370
    -2
100
AcDbLine
 10
-51.18124999999999
 20
6.095000000000011
 30
0.0
 11
-51.18124999999999
 21
38.39201576805885
 31
0.0
  0
LINE
  5
35F
330
35A
100
AcDbEntity
  8
치수문자_일반주서
 62
     0
370
    -2
100
AcDbLine
 10
40.76675000000002
 20
38.39201576805885
 30
0.0
 11
-47.87924999999999
 21
38.39201576805885
 31
0.0
  0
SOLID
  5
360
330
35A
100
AcDbEntity
  8
치수문자_일반주서
 62
     0
100
AcDbTrace
 10
40.76675000000002
 20
37.84168243472552
 30
0.0
 11
40.76675000000002
 21
38.94234910139219
 31
0.0
 12
44.06875000000002
 22
38.39201576805885
 32
0.0
 13
44.06875000000002
 23
38.39201576805885
 33
0.0
  0
SOLID
  5
361
330
35A
100
AcDbEntity
  8
치수문자_일반주서
 62
     0
100
AcDbTrace
 10
-47.87924999999999
 20
38.94234910139219
 30
0.0
 11
-47.87924999999999
 21
37.84168243472552
 31
0.0
 12
-51.18124999999999
 22
38.39201576805885
 32
0.0
 13
-51.18124999999999
 23
38.39201576805885
 33
0.0
  0
MTEXT
  5
362
330
35A
100
AcDbEntity
  8
치수문자_일반주서
 62
     0
100
AcDbMText
 10
-3.556249999999995
 20
42.76701576805885
 30
0.0
 40
3.5
 41
0.0
 71
     2
 72
     1
  1
\A1;95.25 [3 3/4]
  7
SLDTEXTSTYLE0
 73
     1
 44
1.0
  0
POINT
  5
363
330
35A
100
AcDbEntity
  8
Defpoints
 62
     0
100
AcDbPoint
 10
44.06875000000002
 20
9.48997268430727
 30
0.0
  0
POINT
  5
364
330
35A
100
AcDbEntity
  8
Defpoints
 62
     0
100
AcDbPoint
 10
-51.18124999999999
 20
6.032500000000011
 30
0.0
  0
POINT
  5
365
330
35A
100
AcDbEntity
  8
Defpoints
 62
     0
100
AcDbPoint
 10
-51.18124999999999
 20
38.39201576805885
 30
0.0
  0
ENDBLK
  5
35C
330
35A
100
AcDbEntity
  8
0
100
AcDbBlockEnd
  0
BLOCK
  5
367
330
366
100
AcDbEntity
  8
0
100
AcDbBlockBegin
  2
*D23
 70
     1
 10
0.0
 20
0.0
 30
0.0
  3
*D23
  1
*D23
  0
LINE
  5
369
330
366
100
AcDbEntity
  8
치수문자_일반주서
 62
     0
370
    -2
100
AcDbLine
 10
-49.33875
 20
7.9375
 30
0.0
 11
-61.82348213324025
 21
7.937499999999955
 31
0.0
  0
LINE
  5
36A
330
366
100
AcDbEntity
  8
치수문자_일반주서
 62
     0
370
    -2
100
AcDbLine
 10
-49.33875
 20
-7.937500000000002
 30
0.0
 11
-61.82348213324019
 21
-7.937500000000047
 31
0.0
  0
LINE
  5
36B
330
366
100
AcDbEntity
  8
치수문자_일반주서
 62
     0
370
    -2
100
AcDbLine
 10
-61.82348213324023
 20
4.635499999999955
 30
0.0
 11
-61.8234821332402
 21
-4.635500000000047
 31
0.0
  0
SOLID
  5
36C
330
366
100
AcDbEntity
  8
치수문자_일반주서
 62
     0
100
AcDbTrace
 10
-61.2731487999069
 20
4.635499999999957
 30
0.0
 11
-62.37381546657357
 21
4.635499999999953
 31
0.0
 12
-61.82348213324025
 22
7.937499999999955
 32
0.0
 13
-61.82348213324025
 23
7.937499999999955
 33
0.0
  0
SOLID
  5
36D
330
366
100
AcDbEntity
  8
치수문자_일반주서
 62
     0
100
AcDbTrace
 10
-62.37381546657354
 20
-4.635500000000049
 30
0.0
 11
-61.27314879990687
 21
-4.635500000000046
 31
0.0
 12
-61.82348213324019
 22
-7.937500000000047
 32
0.0
 13
-61.82348213324019
 23
-7.937500000000047
 33
0.0
  0
MTEXT
  5
36E
330
366
100
AcDbEntity
  8
치수문자_일반주서
 62
     0
100
AcDbMText
 10
-66.19848213324022
 20
-0.0000000000000173
 30
0.0
 40
3.5
 41
0.0
 71
     2
 72
     1
  1
\A1;%%c15.88 [5/8]
  7
SLDTEXTSTYLE0
 11
-3.580687802255622E-15
 21
1.0
 31
0.0
 73
     1
 44
1.0
  0
POINT
  5
36F
330
366
100
AcDbEntity
  8
Defpoints
 62
     0
100
AcDbPoint
 10
-49.27625
 20
7.9375
 30
0.0
  0
POINT
  5
370
330
366
100
AcDbEntity
  8
Defpoints
 62
     0
100
AcDbPoint
 10
-49.27625
 20
-7.937500000000002
 30
0.0
  0
POINT
  5
371
330
366
100
AcDbEntity
  8
Defpoints
 62
     0
100
AcDbPoint
 10
-61.82348213324019
 20
-7.937500000000049
 30
0.0
  0
ENDBLK
  5
368
330
366
100
AcDbEntity
  8
0
100
AcDbBlockEnd
  0
BLOCK
  5
373
330
372
100
AcDbEntity
  8
0
100
AcDbBlockBegin
  2
*D24
 70
     1
 10
0.0
 20
0.0
 30
0.0
  3
*D24
  1
*D24
  0
LINE
  5
375
330
372
100
AcDbEntity
  8
치수문자_일반주서
 62
     0
370
    -2
100
AcDbLine
 10
44.13125000000001
 20
8.731249999999998
 30
0.0
 11
60.41202092450357
 21
8.731249999999996
 31
0.0
  0
LINE
  5
376
330
372
100
AcDbEntity
  8
치수문자_일반주서
 62
     0
370
    -2
100
AcDbLine
 10
44.13125000000001
 20
-8.73125
 30
0.0
 11
60.41202092450357
 21
-8.731250000000003
 31
0.0
  0
LINE
  5
377
330
372
100
AcDbEntity
  8
치수문자_일반주서
 62
     0
370
    -2
100
AcDbLine
 10
60.41202092450357
 20
8.731249999999996
 30
0.0
 11
60.41202092450357
 21
42.65825
 31
0.0
  0
LINE
  5
378
330
372
100
AcDbEntity
  8
치수문자_일반주서
 62
     0
370
    -2
100
AcDbLine
 10
60.41202092450357
 20
5.429249999999996
 30
0.0
 11
60.41202092450357
 21
-5.429250000000003
 31
0.0
  0
SOLID
  5
379
330
372
100
AcDbEntity
  8
치수문자_일반주서
 62
     0
100
AcDbTrace
 10
60.9623542578369
 20
5.429249999999996
 30
0.0
 11
59.86168759117023
 21
5.429249999999996
 31
0.0
 12
60.41202092450357
 22
8.731249999999996
 32
0.0
 13
60.41202092450357
 23
8.731249999999996
 33
0.0
  0
SOLID
  5
37A
330
372
100
AcDbEntity
  8
치수문자_일반주서
 62
     0
100
AcDbTrace
 10
59.86168759117023
 20
-5.429250000000003
 30
0.0
 11
60.9623542578369
 21
-5.429250000000003
 31
0.0
 12
60.41202092450357
 22
-8.731250000000003
 32
0.0
 13
60.41202092450357
 23
-8.731250000000003
 33
0.0
  0
MTEXT
  5
37B
330
372
100
AcDbEntity
  8
치수문자_일반주서
 62
     0
100
AcDbMText
 10
57.78702092450357
 20
27.34575
 30
0.0
 40
3.5
 41
0.0
 71
     5
 72
     1
  1
\A1;{%%C17.46 [11/16]}
  7
SLDTEXTSTYLE0
 11
0.0
 21
1.0
 31
0.0
 73
     1
 44
1.0
  0
POINT
  5
37C
330
372
100
AcDbEntity
  8
Defpoints
 62
     0
100
AcDbPoint
 10
44.06875000000001
 20
8.731249999999998
 30
0.0
  0
POINT
  5
37D
330
372
100
AcDbEntity
  8
Defpoints
 62
     0
100
AcDbPoint
 10
44.06875000000001
 20
-8.73125
 30
0.0
  0
POINT
  5
37E
330
372
100
AcDbEntity
  8
Defpoints
 62
     0
100
AcDbPoint
 10
60.41202092450357
 20
-8.731250000000001
 30
0.0
  0
ENDBLK
  5
374
330
372
100
AcDbEntity
  8
0
100
AcDbBlockEnd
  0
ENDSEC
  0
SECTION
  2
ENTITIES
  0
LINE
  5
AE
330
1F
100
AcDbEntity
  8
참조1
100
AcDbLine
 10
-5.518842335746088
 20
0.0010749287238821
 30
0.0
 11
-5.518842335746083
 21
-39.99892507127612
 31
0.0
  0
LINE
  5
AF
330
1F
100
AcDbEntity
  8
참조1
100
AcDbLine
 10
-5.518842335746083
 20
-39.99892507127612
 30
0.0
 11
-28.61519915005476
 21
-39.99892507127611
 31
0.0
  0
INSERT
  5
B1
330
1F
100
AcDbEntity
  8
0
  6
Continuous
 62
     7
100
AcDbBlockReference
 66
     1
  2
블럭10
 10
-19.45911526787129
 20
-52.04609937292005
 30
0.0
  0
ATTRIB
  5
B2
330
B1
100
AcDbEntity
  8
FORMAT
 62
     2
100
AcDbText
 10
-28.64041055661258
 20
-49.97073246008786
 30
0.0
 40
4.233333333333333
  1
E2039044 [ 4 FLUTE ]
 41
0.75
  7
SLDTEXTSTYLE0
 11
-28.64041055661258
 21
-52.08739912675453
 31
0.0
100
AcDbAttribute
  2
AUTOATTR0
 70
     0
 74
     1
  0
SEQEND
  5
B3
330
B1
100
AcDbEntity
  8
0
  6
Continuous
 62
     7
  0
HATCH
  5
B4
330
1F
100
AcDbEntity
  8
중심선
100
AcDbHatch
 10
0.0
 20
0.0
 30
0.0
210
0.0
220
0.0
230
1.0
  2
SOLID
 70
     1
 71
     0
 91
        1
 92
        0
 93
        4
 72
     1
 10
-13.74420596349044
 20
-35.79892507127611
 11
-17.19048120732772
 21
-35.79892507127611
 72
     1
 10
-17.19048120732772
 20
-35.79892507127611
 11
-19.31871106653178
 21
-38.33525065184871
 72
     1
 10
-19.31871106653178
 20
-38.33525065184871
 11
-15.87240273758132
 21
-38.33521122254622
 72
     1
 10
-15.87240273758132
 20
-38.33521122254622
 11
-13.74420596349044
 21
-35.79892507127611
 97
        0
 75
     0
 76
     1
 98
        1
 10
-9.20624999999998
 20
-0.0000000000000071
  0
HATCH
  5
B5
330
1F
100
AcDbEntity
  8
중심선
100
AcDbHatch
 10
0.0
 20
0.0
 30
0.0
210
0.0
220
0.0
230
1.0
  2
SOLID
 70
     1
 71
     0
 91
        1
 92
        0
 93
        4
 72
     1
 10
-8.731441972454492
 20
-35.79892507127609
 11
-12.17771721629178
 21
-35.79892507127614
 72
     1
 10
-12.17771721629178
 20
-35.79892507127614
 11
-16.70885522464916
 21
-41.19892507127613
 72
     1
 10
-16.70885522464916
 20
-41.19892507127613
 11
-13.26257998081188
 21
-41.19892507127613
 72
     1
 10
-13.26257998081188
 20
-41.19892507127613
 11
-8.731441972454492
 21
-35.79892507127609
 97
        0
 75
     0
 76
     1
 98
        1
 10
-9.20624999999998
 20
-0.0000000000000071
  0
HATCH
  5
B6
330
1F
100
AcDbEntity
  8
중심선
100
AcDbHatch
 10
0.0
 20
0.0
 30
0.0
210
0.0
220
0.0
230
1.0
  2
SOLID
 70
     1
 71
     0
 91
        1
 92
        0
 93
        4
 72
     1
 10
-3.718677981418597
 20
-35.79892507127609
 11
-7.164953225255685
 21
-35.79892507127611
 72
     1
 10
-7.164953225255685
 20
-35.79892507127611
 11
-14.21339012714496
 21
-44.19892507127613
 72
     1
 10
-14.21339012714496
 20
-44.19892507127613
 11
-10.76711488330768
 21
-44.19892507127613
 72
     1
 10
-10.76711488330768
 20
-44.19892507127613
 11
-3.718677981418596
 21
-35.79892507127609
 97
        0
 75
     0
 76
     1
 98
        1
 10
-9.20624999999998
 20
-0.0000000000000071
  0
HATCH
  5
B7
330
1F
100
AcDbEntity
  8
중심선
100
AcDbHatch
 10
0.0
 20
0.0
 30
0.0
210
0.0
220
0.0
230
1.0
  2
SOLID
 70
     1
 71
     0
 91
        1
 92
        0
 93
        6
 72
     3
 10
1.081212449593602
 20
-39.99892507132738
 11
3.960054785062283
 21
1.540882976769353E-10
 40
0.3939339440162628
 50
17.09539180608437
 51
320.0019657685079
 73
     0
 72
     1
 10
2.764212105294225
 20
-38.58681907591438
 11
5.069513978995264
 21
-36.65249236586646
 72
     3
 10
1.081212449540756
 20
-39.99892507127626
 11
6.600054785286828
 21
-1.278976924368180E-13
 40
0.6363583540795982
 50
39.99873849337411
 51
368.4976242363725
 73
     1
 72
     1
 10
7.506544941441366
 20
-39.03892507120614
 11
-0.2387202436233213
 21
-39.03892507120614
 72
     1
 10
-0.2387202436233213
 20
-39.03892507120614
 11
-0.2387452880692553
 21
-40.95892507120602
 72
     1
 10
-0.2387452880692553
 20
-40.95892507120602
 11
4.202634481402782
 21
-40.958925071206
 97
        0
 75
     0
 76
     1
 98
        1
 10
-9.20624999999998
 20
-0.0000000000000071
  0
LINE
  5
107
330
1F
100
AcDbEntity
  8
참조1
100
AcDbLine
 10
69.3571414795995
 20
7.441074928723888
 30
0.0
 11
69.3571414795995
 21
-7.438925071276116
 31
0.0
  0
LINE
  5
108
330
1F
100
AcDbEntity
  8
참조1
100
AcDbLine
 10
82.05714147959951
 20
5.441074928723888
 30
0.0
 11
69.3571414795995
 21
5.441074928723888
 31
0.0
  0
SOLID
  5
109
330
1F
100
AcDbEntity
  8
참조1
100
AcDbTrace
 10
69.3571414795995
 20
5.441074928723888
 30
0.0
 11
75.7071414795995
 21
4.425074928723888
 31
0.0
 12
75.7071414795995
 22
6.457074928723888
 32
0.0
 13
75.7071414795995
 23
6.457074928723888
 33
0.0
  0
LINE
  5
10A
330
1F
100
AcDbEntity
  8
참조1
100
AcDbLine
 10
82.05714147959951
 20
-5.438925071276116
 30
0.0
 11
69.3571414795995
 21
-5.438925071276116
 31
0.0
  0
SOLID
  5
10B
330
1F
100
AcDbEntity
  8
참조1
100
AcDbTrace
 10
69.3571414795995
 20
-5.438925071276116
 30
0.0
 11
75.7071414795995
 21
-6.454925071276116
 31
0.0
 12
75.7071414795995
 22
-4.422925071276116
 32
0.0
 13
75.7071414795995
 23
-4.422925071276116
 33
0.0
  0
MTEXT
  5
10C
330
1F
100
AcDbEntity
  8
참조1
100
AcDbMText
 10
78.74149161222549
 20
11.01136670591221
 30
0.0
 40
3.5
 41
0.0
 71
     1
 72
     1
  1
A
  7
SLDTEXTSTYLE0
 73
     1
 44
1.0
  0
MTEXT
  5
10D
330
1F
100
AcDbEntity
  8
참조1
100
AcDbMText
 10
78.74149161222549
 20
0.1313667059122121
 30
0.0
 40
3.5
 41
0.0
 71
     1
 72
     1
  1
A
  7
SLDTEXTSTYLE0
 73
     1
 44
1.0
  0
LINE
  5
31A
330
1F
100
AcDbEntity
  8
외형선
  6
Continuous
370
    15
100
AcDbLine
 10
-49.27625
 20
-7.937500000000002
 30
0.0
 11
2.000000000000004
 21
-7.937500000000002
 31
0.0
  0
LINE
  5
31B
330
1F
100
AcDbEntity
  8
외형선
  6
Continuous
370
    15
100
AcDbLine
 10
-49.27624999999999
 20
7.937500000000009
 30
0.0
 11
-51.18124999999999
 21
6.032500000000011
 31
0.0
  0
LINE
  5
31C
330
1F
100
AcDbEntity
  8
외형선
  6
Continuous
370
    15
100
AcDbLine
 10
-51.18125000000001
 20
-6.032499999999998
 30
0.0
 11
-49.27625
 21
-7.937499999999993
 31
0.0
  0
LINE
  5
31D
330
1F
100
AcDbEntity
  8
외형선
  6
Continuous
 62
     1
370
    15
100
AcDbLine
 10
40.82056102198979
 20
2.586090966325274
 30
0.0
 11
40.75915422380945
 21
2.619287486461735
 31
0.0
  0
LINE
  5
31E
330
1F
100
AcDbEntity
  8
외형선
  6
Continuous
370
    15
100
AcDbLine
 10
7.754551556638766
 20
-2.601130819027364
 30
0.0
 11
7.78732069196937
 21
-2.619393982557377
 31
0.0
  0
LINE
  5
31F
330
1F
100
AcDbEntity
  8
외형선
  6
Continuous
 62
     1
370
    15
100
AcDbLine
 10
26.93471400752913
 20
8.73124999999999
 30
0.0
 11
21.61090484826922
 21
8.73124999999999
 31
0.0
  0
LINE
  5
320
330
1F
100
AcDbEntity
  8
외형선
  6
Continuous
 62
     1
370
    15
100
AcDbLine
 10
21.61090484826912
 20
-8.731250000000008
 30
0.0
 11
26.93471400752909
 21
-8.731250000000008
 31
0.0
  0
LINE
  5
32D
330
1F
100
AcDbEntity
  8
외형선
  6
Continuous
370
    15
100
AcDbLine
 10
-51.18124999999999
 20
0.0
 30
0.0
 11
-51.18124999999999
 21
6.032500000000003
 31
0.0
  0
LINE
  5
32E
330
1F
100
AcDbEntity
  8
외형선
  6
Continuous
370
    15
100
AcDbLine
 10
-51.18124999999999
 20
-6.032500000000005
 30
0.0
 11
-51.18124999999999
 21
0.0
 31
0.0
  0
LINE
  5
331
330
1F
100
AcDbEntity
  8
외형선
  6
Continuous
 62
     1
370
    15
100
AcDbLine
 10
44.06875000000002
 20
-7.907730280689241
 30
0.0
 11
44.06875000000002
 21
0.7481052806893296
 31
0.0
  0
SPLINE
  5
332
330
1F
100
AcDbEntity
  8
외형선
  6
Continuous
 62
     1
370
    15
100
AcDbSpline
210
0.0
220
0.0
230
1.0
 70
     8
 71
     3
 72
    58
 73
    54
 74
     0
 42
0.000000001
 43
0.00000001
 40
0.0
 40
0.0
 40
0.0
 40
0.0
 40
0.0624999999999998
 40
0.0624999999999998
 40
0.0937499999999994
 40
0.0937499999999994
 40
0.1249999999999989
 40
0.1249999999999989
 40
0.1562499999999984
 40
0.1562499999999984
 40
0.1874999999999979
 40
0.1874999999999979
 40
0.249999999999997
 40
0.249999999999997
 40
0.2812499999999965
 40
0.2812499999999965
 40
0.3124999999999961
 40
0.3124999999999961
 40
0.3437499999999956
 40
0.3437499999999956
 40
0.3749999999999951
 40
0.3749999999999951
 40
0.4374999999999949
 40
0.4374999999999949
 40
0.4687499999999953
 40
0.4687499999999953
 40
0.4999999999999956
 40
0.4999999999999956
 40
0.5312499999999959
 40
0.5312499999999959
 40
0.5624999999999962
 40
0.5624999999999962
 40
0.6249999999999977
 40
0.6249999999999977
 40
0.656249999999998
 40
0.656249999999998
 40
0.6874999999999983
 40
0.6874999999999983
 40
0.7187499999999987
 40
0.7187499999999987
 40
0.749999999999999
 40
0.749999999999999
 40
0.8124999999999997
 40
0.8124999999999997
 40
0.8750000000000002
 40
0.8750000000000002
 40
0.9062500000000001
 40
0.9062500000000001
 40
0.9375000000000001
 40
0.9375000000000001
 40
0.96875
 40
0.96875
 40
1.0
 40
1.0
 40
1.0
 40
1.0
 10
44.06875000000004
 20
-7.907730280689239
 30
0.0
 10
43.28387933111253
 20
-7.715066608656285
 30
0.0
 10
42.49046959475588
 20
-7.489380180703343
 30
0.0
 10
41.30922759013208
 20
-7.10733132203169
 30
0.0
 10
40.91720509544749
 20
-6.972814974586516
 30
0.0
 10
40.12836562479617
 20
-6.689307545546165
 30
0.0
 10
39.73295752250893
 20
-6.540462312280849
 30
0.0
 10
38.94378812614062
 20
-6.229947223672734
 30
0.0
 10
38.55140121529494
 20
-6.068476885215684
 30
0.0
 10
37.76447501908791
 20
-5.733237942355924
 30
0.0
 10
37.36936785104862
 20
-5.559371216140325
 30
0.0
 10
36.18453571588584
 20
-5.021352785769611
 30
0.0
 10
35.40025318517343
 20
-4.641592319846777
 30
0.0
 10
34.21578141739799
 20
-4.044655876650313
 30
0.0
 10
33.82046336267607
 20
-3.841259534668707
 30
0.0
 10
33.03245979040997
 20
-3.427512052089463
 30
0.0
 10
32.64061918499479
 20
-3.217322005915403
 30
0.0
 10
31.8521695516955
 20
-2.789972127198159
 30
0.0
 10
31.4567916560071
 20
-2.573023984982852
 30
0.0
 10
30.66735232922857
 20
-2.134562450249572
 30
0.0
 10
30.27441856746211
 20
-1.913264082392098
 30
0.0
 10
29.0949711243498
 20
-1.244094476145768
 30
0.0
 10
28.30143965449899
 20
-0.7897076374489382
 30
0.0
 10
27.12198482778011
 20
-0.108137901302235
 30
0.0
 10
26.72905583867061
 20
0.1193505667149129
 30
0.0
 10
25.93961831009827
 20
0.5743095323485666
 30
0.0
 10
25.54424007597428
 20
0.8015609999347382
 30
0.0
 10
24.75578730102726
 20
1.253527236401446
 30
0.0
 10
24.36394601199793
 20
1.478009866861074
 30
0.0
 10
23.57594602887497
 20
1.924331161593954
 30
0.0
 10
23.18062853868131
 20
2.146004852721013
 30
0.0
 10
21.99615474859075
 20
2.803505584207304
 30
0.0
 10
21.21187336031411
 20
3.23120608358683
 30
0.0
 10
20.02704190117081
 20
3.851939543881675
 30
0.0
 10
19.63193371859719
 20
4.055154585780578
 30
0.0
 10
18.8450030444273
 20
4.452361703057578
 30
0.0
 10
18.45261954055783
 20
4.646460912115587
 30
0.0
 10
17.66345239193569
 20
5.02551672194506
 30
0.0
 10
17.26804417739159
 20
5.210238223818834
 30
0.0
 10
16.47920201338405
 20
5.568379890404126
 30
0.0
 10
16.08717746802996
 20
5.741604670509838
 30
0.0
 10
14.90594151700081
 20
6.243994036023187
 30
0.0
 10
14.1125308691376
 20
6.555538053780226
 30
0.0
 10
12.5427779230739
 20
7.120679810030341
 30
0.0
 10
11.74938070729976
 20
7.376310080762994
 30
0.0
 10
10.56813265409209
 20
7.712216919283864
 30
0.0
 10
10.17611219984157
 20
7.816298411288647
 30
0.0
 10
9.387275425906136
 20
8.008750912335818
 30
0.0
 10
8.991867437569542
 20
8.096980158199644
 30
0.0
 10
8.202695796819409
 20
8.256629138774311
 30
0.0
 10
7.810305468767186
 20
8.327979816643984
 30
0.0
 10
7.023383753855473
 20
8.453740210504984
 30
0.0
 10
6.628277602040166
 20
8.508156198423118
 30
0.0
 10
2.793749999999999
 20
8.73125
 30
0.0
  0
SPLINE
  5
333
330
1F
100
AcDbEntity
  8
외형선
  6
Continuous
 62
     1
370
    15
100
AcDbSpline
210
0.0
220
0.0
230
1.0
 70
     8
 71
     3
 72
    21
 73
    17
 74
     0
 42
0.000000001
 43
0.00000001
 40
0.0
 40
0.0
 40
0.0
 40
0.0
 40
0.0749484004048921
 40
0.1498668653586832
 40
0.2247682955808157
 40
0.2996656542716251
 40
0.3745719195816208
 40
0.4481653337457792
 40
0.5217882868559565
 40
0.5953802264597592
 40
0.6689464347141691
 40
0.7440075889384907
 40
0.8190744237197086
 40
0.8941594245393478
 40
0.9692746010548955
 40
1.0
 40
1.0
 40
1.0
 40
1.0
 10
44.06875000000002
 20
0.7481052806893279
 30
0.0
 10
43.27737182841734
 20
1.20138028935909
 30
0.0
 10
41.69493157288598
 20
2.107749262249579
 30
0.0
 10
39.32187125953359
 20
3.410833642329008
 30
0.0
 10
36.94943771678768
 20
4.631276693006577
 30
0.0
 10
34.57716690976488
 20
5.737560089070236
 30
0.0
 10
32.21863680259492
 20
6.69728478737055
 30
0.0
 10
29.87346574050571
 20
7.490001198666052
 30
0.0
 10
27.54182995177328
 20
8.100222975899623
 30
0.0
 10
25.21081997613684
 20
8.518561830425769
 30
0.0
 10
22.86479069009337
 20
8.736584967952627
 30
0.0
 10
20.50317305001375
 20
8.743297749170006
 30
0.0
 10
18.12549315392003
 20
8.537184243033531
 30
0.0
 10
15.74715594599427
 20
8.109552098654753
 30
0.0
 10
13.83671639373363
 20
7.637791868104168
 30
0.0
 10
12.71918522751857
 20
7.250698361793288
 30
0.0
 10
12.39476719817488
 20
7.138325556196791
 30
0.0
  0
LINE
  5
334
330
1F
100
AcDbEntity
  8
외형선
  6
Continuous
 62
     1
370
    15
100
AcDbLine
 10
44.06875000000002
 20
-8.699141627281682
 30
0.0
 11
44.06875000000002
 21
-7.907730280689241
 31
0.0
  0
SPLINE
  5
335
330
1F
100
AcDbEntity
  8
외형선
  6
Continuous
 62
     1
370
    15
100
AcDbSpline
210
0.0
220
0.0
230
1.0
 70
     8
 71
     3
 72
    58
 73
    54
 74
     0
 42
0.000000001
 43
0.00000001
 40
0.0
 40
0.0
 40
0.0
 40
0.0
 40
0.062499999999999
 40
0.062499999999999
 40
0.0937499999999985
 40
0.0937499999999985
 40
0.1249999999999979
 40
0.1249999999999979
 40
0.1562499999999974
 40
0.1562499999999974
 40
0.1874999999999969
 40
0.1874999999999969
 40
0.2499999999999966
 40
0.2499999999999966
 40
0.2812499999999969
 40
0.2812499999999969
 40
0.3124999999999972
 40
0.3124999999999972
 40
0.3437499999999974
 40
0.3437499999999974
 40
0.3749999999999976
 40
0.3749999999999976
 40
0.4374999999999981
 40
0.4374999999999981
 40
0.468749999999998
 40
0.468749999999998
 40
0.4999999999999979
 40
0.4999999999999979
 40
0.5312499999999977
 40
0.5312499999999977
 40
0.5624999999999976
 40
0.5624999999999976
 40
0.6249999999999973
 40
0.6249999999999973
 40
0.6562499999999971
 40
0.6562499999999971
 40
0.6874999999999971
 40
0.6874999999999971
 40
0.718749999999997
 40
0.718749999999997
 40
0.7499999999999969
 40
0.7499999999999969
 40
0.8124999999999974
 40
0.8124999999999974
 40
0.874999999999998
 40
0.874999999999998
 40
0.9062499999999986
 40
0.9062499999999986
 40
0.937499999999999
 40
0.937499999999999
 40
0.9687499999999996
 40
0.9687499999999996
 40
0.9974024616662539
 40
0.9974024616662539
 40
0.9974024616662539
 40
0.9974024616662539
 10
44.06875000000002
 20
-8.699141627281682
 30
0.0
 10
43.28387933111254
 20
-8.660204653139473
 30
0.0
 10
42.49046959475588
 20
-8.585562976799112
 30
0.0
 10
41.309227590132
 20
-8.421909336945783
 30
0.0
 10
40.91720509544751
 20
-8.35882331055437
 30
0.0
 10
40.1283656247962
 20
-8.215497710099793
 30
0.0
 10
39.73295752250895
 20
-8.135315391001905
 30
0.0
 10
38.94378812614065
 20
-7.958639563985958
 30
0.0
 10
38.55140121529494
 20
-7.862272475755555
 30
0.0
 10
37.76447501908791
 20
-7.653580488378865
 30
0.0
 10
37.36936785104862
 20
-7.541182588629502
 30
0.0
 10
36.18453571588587
 20
-7.181290001212135
 30
0.0
 10
35.40025318517347
 20
-6.911678118939393
 30
0.0
 10
34.21578141739799
 20
-6.465813382957881
 30
0.0
 10
33.82046336267605
 20
-6.310373338715485
 30
0.0
 10
33.03245979040996
 20
-5.987307563513188
 30
0.0
 10
32.64061918499478
 20
-5.819819705591691
 30
0.0
 10
31.8521695516955
 20
-5.472661623995715
 30
0.0
 10
31.45679165600714
 20
-5.293151660595358
 30
0.0
 10
30.6673523292286
 20
-4.923901085531446
 30
0.0
 10
30.27441856746213
 20
-4.734348408419751
 30
0.0
 10
29.09497112434984
 20
-4.15174097812581
 30
0.0
 10
28.30143965449902
 20
-3.743572249586308
 30
0.0
 10
27.12198482778009
 20
-3.112831129121232
 30
0.0
 10
26.72905583867061
 20
-2.899245480333125
 30
0.0
 10
25.93961831009834
 20
-2.465950100965707
 30
0.0
 10
25.54424007597428
 20
-2.246442348741839
 30
0.0
 10
24.75578730102731
 20
-1.803724158569179
 30
0.0
 10
24.36394601199791
 20
-1.580752175302123
 30
0.0
 10
23.57594602887504
 20
-1.131231389062839
 30
0.0
 10
23.18062853868134
 20
-0.9048375408312979
 30
0.0
 10
21.99615474859075
 20
-0.2238604955158486
 30
0.0
 10
21.21187336031416
 20
0.2318574324140867
 30
0.0
 10
20.02704190117078
 20
0.91285392299933
 30
0.0
 10
19.63193371859719
 20
1.139182842804576
 30
0.0
 10
18.84500304442735
 20
1.588436132990604
 30
0.0
 10
18.4526195405578
 20
1.811471600309004
 30
0.0
 10
17.66345239193569
 20
2.254226669976418
 30
0.0
 10
17.26804417739163
 20
2.473682248974102
 30
0.0
 10
16.47920201338411
 20
2.906740347089065
 30
0.0
 10
16.08717746802996
 20
3.120093577329874
 30
0.0
 10
14.90594151700081
 20
3.75091696955399
 30
0.0
 10
14.1125308691376
 20
4.158861212861682
 30
0.0
 10
12.5427779230739
 20
4.934779800052708
 30
0.0
 10
11.74938070729976
 20
5.305544541185064
 30
0.0
 10
10.56813265409206
 20
5.825670778447838
 30
0.0
 10
10.17611219984156
 20
5.993048658108941
 30
0.0
 10
9.387275425906136
 20
6.315935672229128
 30
0.0
 10
8.991867437569557
 20
6.471231256991565
 30
0.0
 10
8.202695796819409
 20
6.768097905633685
 30
0.0
 10
7.810305468767226
 20
6.909515508902543
 30
0.0
 10
7.056088702977743
 20
7.167106869716556
 30
0.0
 10
6.693949650489154
 20
7.284439786971494
 30
0.0
 10
2.793749999999982
 20
7.905451475065684
 30
0.0
  0
SPLINE
  5
336
330
1F
100
AcDbEntity
  8
외형선
  6
Continuous
 62
     1
370
    15
100
AcDbSpline
210
0.0
220
0.0
230
1.0
 70
     8
 71
     3
 72
    20
 73
    16
 74
     0
 42
0.000000001
 43
0.00000001
 40
0.0074582890070846
 40
0.0074582890070846
 40
0.0074582890070846
 40
0.0074582890070846
 40
0.0793007531437913
 40
0.1586187041132891
 40
0.2379675169430842
 40
0.3173208662258107
 40
0.3966418589516261
 40
0.4745257820374094
 40
0.5524051398346125
 40
0.6302982422229493
 40
0.7082233381229278
 40
0.7877554367514731
 40
0.8672563690761552
 40
0.9467355520806678
 40
1.0
 40
1.0
 40
1.0
 40
1.0
 10
2.793750000000003
 20
0.2745285413210076
 30
0.0
 10
7.172831103172673
 20
-2.277674664543965
 30
0.0
 10
8.680145252690274
 20
-3.119899973598139
 30
0.0
 10
10.97878231916853
 20
-4.323554662661341
 30
0.0
 10
13.3525597343672
 20
-5.462898214657447
 30
0.0
 10
15.7264131984688
 20
-6.467141684642805
 30
0.0
 10
18.08539651541704
 20
-7.307784813203019
 30
0.0
 10
20.42952671792116
 20
-7.967290870904927
 30
0.0
 10
22.75939707441204
 20
-8.433968052954302
 30
0.0
 10
25.08975282544332
 20
-8.700880072444711
 30
0.0
 10
27.43680682143964
 20
-8.76145375690795
 30
0.0
 10
29.80010864303727
 20
-8.611647044796664
 30
0.0
 10
32.17860230215298
 20
-8.24135498547377
 30
0.0
 10
34.2950578015605
 20
-7.753610231971236
 30
0.0
 10
35.61871934983461
 20
-7.315712790435745
 30
0.0
 10
36.14984917587739
 20
-7.140002925439981
 30
0.0
  0
SPLINE
  5
338
330
1F
100
AcDbEntity
  8
외형선
  6
Continuous
 62
     1
370
    15
100
AcDbSpline
210
0.0
220
0.0
230
1.0
 70
     8
 71
     3
 72
    15
 73
    11
 74
     0
 42
0.000000001
 43
0.00000001
 40
0.0
 40
0.0
 40
0.0
 40
0.0
 40
0.028369553950181
 40
0.1672359813383806
 40
0.306047991034265
 40
0.4448220254919479
 40
0.5835811489375327
 40
0.7223484790128126
 40
0.8611471039553721
 40
1.0
 40
1.0
 40
1.0
 40
1.0
 10
26.93471400752914
 20
8.714151967239848
 30
0.0
 10
27.09674676040349
 20
8.719438872726238
 30
0.0
 10
28.0519153359646
 20
8.750604707367556
 30
0.0
 10
29.80012025526888
 20
8.599099185476009
 30
0.0
 10
32.17859924876066
 20
8.248725625667497
 30
0.0
 10
34.55638074827969
 20
7.676452531637641
 30
0.0
 10
36.9338424316723
 20
6.920125311936062
 30
0.0
 10
39.31148102926161
 20
5.989955319383463
 30
0.0
 10
41.68974277284241
 20
4.918738841411101
 30
0.0
 10
43.27564426163589
 20
4.107427565311199
 30
0.0
 10
44.06875000000004
 20
3.701692635858635
 30
0.0
  0
LINE
  5
339
330
1F
100
AcDbEntity
  8
외형선
  6
Continuous
 62
     1
370
    15
100
AcDbLine
 10
44.06875000000002
 20
0.7481052806893279
 30
0.0
 11
44.06875000000002
 21
3.701692635858635
 31
0.0
  0
SPLINE
  5
33A
330
1F
100
AcDbEntity
  8
외형선
  6
Continuous
 62
     1
370
    15
100
AcDbSpline
210
0.0
220
0.0
230
1.0
 70
     8
 71
     3
 72
    14
 73
    10
 74
     0
 42
0.000000001
 43
0.00000001
 40
0.0
 40
0.0
 40
0.0
 40
0.0
 40
0.0720365124779343
 40
0.2266560184454086
 40
0.3813129420540325
 40
0.5360320202906915
 40
0.6907374113512051
 40
0.8453848655750124
 40
0.9822667326881876
 40
0.9822667326881876
 40
0.9822667326881876
 40
0.9822667326881876
 10
21.61090484826912
 20
-8.70440522894394
 30
0.0
 10
21.24167987336965
 20
-8.710165354479315
 30
0.0
 10
20.07994869229731
 20
-8.728289040297575
 30
0.0
 10
18.12549387069368
 20
-8.527930335460084
 30
0.0
 10
15.74715061965424
 20
-8.118185694933853
 30
0.0
 10
13.36808411343819
 20
-7.496778091418447
 30
0.0
 10
10.98914384592487
 20
-6.691345592738192
 30
0.0
 10
8.701857007879156
 20
-5.764811789997545
 30
0.0
 10
7.207606204016759
 20
-5.057817905469949
 30
0.0
 10
2.793749999999998
 20
-2.362706589207881
 30
0.0
  0
SPLINE
  5
33B
330
1F
100
AcDbEntity
  8
외형선
  6
Continuous
 62
     1
370
    15
100
AcDbSpline
210
0.0
220
0.0
230
1.0
 70
     8
 71
     3
 72
    11
 73
     7
 74
     0
 42
0.000000001
 43
0.00000001
 40
0.0
 40
0.0
 40
0.0
 40
0.0
 40
0.2997780003201718
 40
0.5994362650673242
 40
0.8990263944337951
 40
0.9999999999999999
 40
0.9999999999999999
 40
0.9999999999999999
 40
0.9999999999999999
 10
44.06875000000002
 20
8.699141627281662
 30
0.0
 10
43.27737186502095
 20
8.639986113241536
 30
0.0
 10
41.69493168268218
 20
8.521698712710219
 30
0.0
 10
39.32187082059508
 20
8.066235992839577
 30
0.0
 10
37.47364251785311
 20
7.604199343507915
 30
0.0
 10
36.41636609489855
 20
7.233458750636582
 30
0.0
 10
36.14984917587736
 20
7.140002925439967
 30
0.0
  0
LINE
  5
33C
330
1F
100
AcDbEntity
  8
외형선
  6
Continuous
 62
     1
370
    15
100
AcDbLine
 10
44.06875000000002
 20
3.681040717205772
 30
0.0
 11
44.06875000000002
 21
8.699141627281662
 31
0.0
  0
SPLINE
  5
33D
330
1F
100
AcDbEntity
  8
외형선
  6
Continuous
 62
     1
370
    15
100
AcDbSpline
210
0.0
220
0.0
230
1.0
 70
     8
 71
     3
 72
    10
 73
     6
 74
     0
 42
0.000000001
 43
0.00000001
 40
0.0
 40
0.0
 40
0.0
 40
0.0
 40
0.3850382524428766
 40
0.7701600075070153
 40
0.9999999999999999
 40
0.9999999999999999
 40
0.9999999999999999
 40
0.9999999999999999
 10
2.793749999999999
 20
-8.73125
 30
0.0
 10
7.024089936665504
 20
-8.440462859563638
 30
0.0
 10
8.605774633431711
 20
-8.213711229396885
 30
0.0
 10
10.65954746484722
 20
-7.718673372691779
 30
0.0
 10
11.9226766808683
 20
-7.296217202796181
 30
0.0
 10
12.39476719817478
 20
-7.13832555619681
 30
0.0
  0
LINE
  5
33F
330
1F
100
AcDbEntity
  8
중심선
 62
     1
100
AcDbLine
 10
-57.35624999999999
 20
-0.0000000000000124
 30
0.0
 11
47.06875000000004
 21
0.0
 31
0.0
  0
CIRCLE
  5
340
330
1F
100
AcDbEntity
  8
해칭선
100
AcDbCircle
 10
0.0
 20
0.0
 30
0.0
 40
3.0
  0
DIMENSION
  5
341
330
1F
100
AcDbEntity
  8
치수문자_일반주서
100
AcDbDimension
  2
*D21
 10
2.793750000000014
 20
22.67081057025608
 30
0.0
 11
23.43125000000002
 21
22.67081057025608
 31
0.0
 70
   160
  1
<>
 71
     2
 42
41.27500000000001
  3
SLDDIMSTYLE0
100
AcDbAlignedDimension
 13
44.06875000000002
 23
9.48997268430727
 33
0.0
 14
2.793750000000014
 24
9.331446962362234
 34
0.0
 50
0.0000000000000049
100
AcDbRotatedDimension
1001
ACAD
1000
DSTYLE
1002
{
1070
   171
1070
     6
1070
   273
1070
     7
1002
}
  0
DIMENSION
  5
342
330
1F
100
AcDbEntity
  8
치수문자_일반주서
100
AcDbDimension
  2
*D22
 10
-51.18124999999999
 20
38.39201576805885
 30
0.0
 11
-3.556249999999995
 21
38.39201576805885
 31
0.0
 70
   160
  1
<>
 71
     2
 42
95.25000000000001
  3
SLDDIMSTYLE0
100
AcDbAlignedDimension
 13
44.06875000000002
 23
9.48997268430727
 33
0.0
 14
-51.18124999999999
 24
6.032500000000011
 34
0.0
 50
0.0000000000000083
100
AcDbRotatedDimension
1001
ACAD
1000
DSTYLE
1002
{
1070
   171
1070
     6
1070
   273
1070
     7
1002
}
  0
DIMENSION
  5
343
330
1F
100
AcDbEntity
  8
치수문자_일반주서
100
AcDbDimension
  2
*D23
 10
-61.82348213324019
 20
-7.937500000000047
 30
0.0
 11
-61.82348213324022
 21
-0.0000000000000018
 31
0.0
 70
   160
  1
%%c<>
 71
     2
 42
15.875
 52
-270.0
  3
SLDDIMSTYLE1
100
AcDbAlignedDimension
 13
-49.27625
 23
7.9375
 33
0.0
 14
-49.27625
 24
-7.937500000000002
 34
0.0
 50
90.0000000000002
100
AcDbRotatedDimension
1001
ACAD
1000
DSTYLE
1002
{
1070
   171
1070
     6
1070
   273
1070
     7
1002
}
  0
INSERT
  5
344
330
1F
100
AcDbEntity
  8
해칭선
100
AcDbBlockReference
  2
SW_DOWELSYMBOL_0
 10
0.0
 20
0.0
 30
0.0
  0
LINE
  5
345
102
{ACAD_REACTORS
102
}
330
1F
100
AcDbEntity
  8
0
 62
     1
100
AcDbLine
 10
44.06875000000001
 20
8.731249999999998
 30
0.0
 11
44.06875000000001
 21
-8.73125
 31
0.0
  0
DIMENSION
  5
346
102
{ACAD_REACTORS
102
}
102
{ACAD_XDICTIONARY
360
347
102
}
330
1F
100
AcDbEntity
  8
치수문자_일반주서
100
AcDbDimension
  2
*D24
 10
60.41202092450357
 20
-8.731250000000003
 30
0.0
 11
60.41202092450357
 21
27.34575
 31
0.0
 70
   160
  1
{%%C<>[]}
 71
     5
 42
17.4625
  3
SLDDIMSTYLE0
100
AcDbAlignedDimension
 13
44.06875000000001
 23
8.731249999999998
 33
0.0
 14
44.06875000000001
 24
-8.73125
 34
0.0
 50
90.0
100
AcDbRotatedDimension
1001
ACAD
1000
DSTYLE
1002
{
1070
   283
1070
     1
1070
   170
1070
     1
1070
   171
1070
     6
1070
   273
1070
     7
1002
}
  0
LINE
  5
34C
330
1F
100
AcDbEntity
  8
외형선
  6
Continuous
370
    15
100
AcDbLine
 10
2.0
 20
7.9375
 30
0.0
 11
-20.22817500000006
 21
7.9375
 31
0.0
  0
LINE
  5
380
330
1F
100
AcDbEntity
  8
외형선
  6
Continuous
370
    15
100
AcDbLine
 10
2.793749999999999
 20
8.73125
 30
0.0
 11
2.793749999999999
 21
-8.73125
 31
0.0
  0
LINE
  5
382
330
1F
100
AcDbEntity
  8
외형선
  6
Continuous
370
    15
100
AcDbLine
 10
-49.27625
 20
7.9375
 30
0.0
 11
-49.27625
 21
-7.937500000000002
 31
0.0
  0
LINE
  5
383
330
1F
100
AcDbEntity
  8
외형선
  6
Continuous
370
    15
100
AcDbLine
 10
2.793749999999999
 20
8.73125
 30
0.0
 11
2.0
 21
7.9375
 31
0.0
  0
LINE
  5
384
330
1F
100
AcDbEntity
  8
외형선
  6
Continuous
370
    15
100
AcDbLine
 10
2.793749999999999
 20
-8.73125
 30
0.0
 11
2.0
 21
-7.9375
 31
0.0
  0
LINE
  5
385
330
1F
100
AcDbEntity
  8
외형선
  6
Continuous
370
    15
100
AcDbLine
 10
2.0
 20
-7.9375
 30
0.0
 11
2.0
 21
7.9375
 31
0.0
  0
LINE
  5
3BF
330
1F
100
AcDbEntity
  8
외형선
  6
Continuous
370
    15
100
AcDbLine
 10
-32.064575
 20
6.286499999999961
 30
0.0
 11
-21.87917499999999
 21
6.286499999999961
 31
0.0
  0
LINE
  5
3C0
330
1F
100
AcDbEntity
  8
외형선
  6
Continuous
370
    15
100
AcDbLine
 10
-32.064575
 20
6.286500000000061
 30
0.0
 11
-33.71557499999996
 21
7.937499999999972
 31
0.0
  0
LINE
  5
3C1
330
1F
100
AcDbEntity
  8
외형선
  6
Continuous
370
    15
100
AcDbLine
 10
-21.8791750000001
 20
6.286500000000061
 30
0.0
 11
-20.22817500000009
 21
7.937499999999972
 31
0.0
  0
LINE
  5
3C2
330
1F
100
AcDbEntity
  8
외형선
  6
Continuous
370
    15
100
AcDbLine
 10
-33.71557499999999
 20
7.9375
 30
0.0
 11
-49.27625
 21
7.9375
 31
0.0
  0
ENDSEC
  0
SECTION
  2
OBJECTS
  0
DICTIONARY
  5
C
330
0
100
AcDbDictionary
281
     1
  3
ACAD_GROUP
350
D
  3
ACAD_IMAGE_VARS
350
138
  3
ACAD_LAYOUT
350
1A
  3
ACAD_MLINESTYLE
350
17
  3
ACAD_PLOTSETTINGS
350
19
  3
ACAD_PLOTSTYLENAME
350
E
  3
ACAD_SCALELIST
350
47
  3
APPDATA
350
136
  3
DWGPROPS
350
3C3
  0
DICTIONARY
  5
1D0
330
2
100
AcDbDictionary
280
     1
281
     1
  3
ACAD_LAYERSTATES
360
1D1
  0
DICTIONARY
  5
347
330
346
100
AcDbDictionary
280
     1
281
     1
  0
DICTIONARY
  5
D
102
{ACAD_REACTORS
330
C
102
}
330
C
100
AcDbDictionary
281
     1
  0
RASTERVARIABLES
  5
138
102
{ACAD_REACTORS
330
C
102
}
330
C
100
AcDbRasterVariables
 90
        0
 70
     1
 71
     1
 72
     1
  0
DICTIONARY
  5
1A
102
{ACAD_REACTORS
330
C
102
}
330
C
100
AcDbDictionary
281
     1
  3
Layout1
350
1E
  3
Layout2
350
26
  3
Model
350
22
  0
DICTIONARY
  5
17
102
{ACAD_REACTORS
330
C
102
}
330
C
100
AcDbDictionary
281
     1
  3
Standard
350
18
  0
DICTIONARY
  5
19
102
{ACAD_REACTORS
330
C
102
}
330
C
100
AcDbDictionary
281
     1
  0
ACDBDICTIONARYWDFLT
  5
E
102
{ACAD_REACTORS
330
C
102
}
330
C
100
AcDbDictionary
281
     1
  3
Normal
350
F
100
AcDbDictionaryWithDefault
340
F
  0
DICTIONARY
  5
47
102
{ACAD_REACTORS
330
C
102
}
330
C
100
AcDbDictionary
281
     1
  3
A0
350
48
  3
A1
350
49
  3
A2
350
4A
  3
A3
350
4B
  3
A4
350
4C
  3
A5
350
4D
  3
A6
350
4E
  3
A7
350
4F
  3
A8
350
50
  3
A9
350
51
  3
B0
350
52
  3
B1
350
53
  3
B2
350
54
  3
B3
350
55
  3
B4
350
56
  3
B5
350
57
  3
B6
350
58
  3
B7
350
59
  3
B8
350
5A
  3
B9
350
5B
  3
C0
350
5C
  3
C1
350
5D
  3
C2
350
5E
  3
C3
350
5F
  3
C4
350
60
  3
C5
350
61
  3
C6
350
62
  3
C7
350
63
  3
C8
350
64
  3
C9
350
65
  3
D0
350
66
  3
D1
350
67
  3
D2
350
68
  0
DICTIONARY
  5
136
102
{ACAD_REACTORS
330
C
102
}
330
C
100
AcDbDictionary
281
     1
  0
XRECORD
  5
3C3
102
{ACAD_REACTORS
330
C
102
}
330
C
100
AcDbXrecord
280
     1
  1
DWGPROPS COOKIE
  2

  3

  4

  6

  7

  8
12016016
  9

300
=
301
=
302
=
303
=
304
=
305
=
306
=
307
=
308
=
309
=
 40
0.0
 41
2458312.379362072
 42
2458319.221542697
  1

 90
        0
  0
DICTIONARY
  5
1D1
102
{ACAD_REACTORS
330
1D0
102
}
330
1D0
100
AcDbDictionary
281
     1
  0
LAYOUT
  5
1E
102
{ACAD_REACTORS
330
1A
102
}
330
1A
100
AcDbPlotSettings
  1

  2
none_device
  4

  6

 40
0.0
 41
0.0
 42
0.0
 43
0.0
 44
0.0
 45
0.0
 46
0.0
 47
0.0
 48
0.0
 49
0.0
140
0.0
141
0.0
142
1.0
143
1.0
 70
   688
 72
     1
 73
     0
 74
     5
  7

 75
    16
147
1.0
148
0.0
149
0.0
100
AcDbLayout
  1
Layout1
 70
     1
 71
     1
 10
0.0
 20
0.0
 11
420.0
 21
297.0
 12
0.0
 22
0.0
 32
0.0
 14
1.000000000000000E+20
 24
1.000000000000000E+20
 34
1.000000000000000E+20
 15
-1.000000000000000E+20
 25
-1.000000000000000E+20
 35
-1.000000000000000E+20
146
0.0
 13
0.0
 23
0.0
 33
0.0
 16
1.0
 26
0.0
 36
0.0
 17
0.0
 27
1.0
 37
0.0
 76
     0
330
1B
  0
LAYOUT
  5
26
102
{ACAD_REACTORS
330
1A
102
}
330
1A
100
AcDbPlotSettings
  1

  2
none_device
  4

  6

 40
0.0
 41
0.0
 42
0.0
 43
0.0
 44
0.0
 45
0.0
 46
0.0
 47
0.0
 48
0.0
 49
0.0
140
0.0
141
0.0
142
1.0
143
1.0
 70
   688
 72
     1
 73
     0
 74
     5
  7

 75
    16
147
1.0
148
0.0
149
0.0
100
AcDbLayout
  1
Layout2
 70
     1
 71
     2
 10
0.0
 20
0.0
 11
0.0
 21
0.0
 12
0.0
 22
0.0
 32
0.0
 14
0.0
 24
0.0
 34
0.0
 15
0.0
 25
0.0
 35
0.0
146
0.0
 13
0.0
 23
0.0
 33
0.0
 16
1.0
 26
0.0
 36
0.0
 17
0.0
 27
1.0
 37
0.0
 76
     0
330
23
  0
LAYOUT
  5
22
102
{ACAD_REACTORS
330
1A
102
}
330
1A
100
AcDbPlotSettings
  1

  2
none_device
  4
ANSI_A_(11.00_x_8.50_Inches)
  6

 40
6.35
 41
19.05
 42
6.35000508
 43
19.05000254
 44
279.4
 45
215.9
 46
106.7889521580535
 47
99.09810663031205
 48
0.0
 49
0.0
140
0.0
141
0.0
142
0.0711206359935618
143
1.0
 70
  1696
 72
     0
 73
     0
 74
     0
  7

 75
     0
147
0.0235690232323232
148
0.0
149
0.0
100
AcDbLayout
  1
Model
 70
     1
 71
     0
 10
0.0
 20
0.0
 11
420.0
 21
297.0
 12
0.0
 22
0.0
 32
0.0
 14
1.000000000000000E+20
 24
1.000000000000000E+20
 34
1.000000000000000E+20
 15
-1.000000000000000E+20
 25
-1.000000000000000E+20
 35
-1.000000000000000E+20
146
0.0
 13
0.0
 23
0.0
 33
0.0
 16
1.0
 26
0.0
 36
0.0
 17
0.0
 27
1.0
 37
0.0
 76
     0
330
1F
331
29
  0
MLINESTYLE
  5
18
102
{ACAD_REACTORS
330
17
102
}
330
17
100
AcDbMlineStyle
  2
Standard
 70
     0
  3

 62
   256
 51
90.0
 52
90.0
 71
     2
 49
0.5
 62
   256
  6
BYLAYER
 49
-0.5
 62
   256
  6
BYLAYER
  0
ACDBPLACEHOLDER
  5
F
102
{ACAD_REACTORS
330
E
102
}
330
E
  0
SCALE
  5
48
102
{ACAD_REACTORS
330
47
102
}
330
47
100
AcDbScale
 70
     0
300
1:1
140
1.0
141
1.0
290
     1
  0
SCALE
  5
49
102
{ACAD_REACTORS
330
47
102
}
330
47
100
AcDbScale
 70
     0
300
1:2
140
1.0
141
2.0
290
     0
  0
SCALE
  5
4A
102
{ACAD_REACTORS
330
47
102
}
330
47
100
AcDbScale
 70
     0
300
1:4
140
1.0
141
4.0
290
     0
  0
SCALE
  5
4B
102
{ACAD_REACTORS
330
47
102
}
330
47
100
AcDbScale
 70
     0
300
1:5
140
1.0
141
5.0
290
     0
  0
SCALE
  5
4C
102
{ACAD_REACTORS
330
47
102
}
330
47
100
AcDbScale
 70
     0
300
1:8
140
1.0
141
8.0
290
     0
  0
SCALE
  5
4D
102
{ACAD_REACTORS
330
47
102
}
330
47
100
AcDbScale
 70
     0
300
1:10
140
1.0
141
10.0
290
     0
  0
SCALE
  5
4E
102
{ACAD_REACTORS
330
47
102
}
330
47
100
AcDbScale
 70
     0
300
1:16
140
1.0
141
16.0
290
     0
  0
SCALE
  5
4F
102
{ACAD_REACTORS
330
47
102
}
330
47
100
AcDbScale
 70
     0
300
1:20
140
1.0
141
20.0
290
     0
  0
SCALE
  5
50
102
{ACAD_REACTORS
330
47
102
}
330
47
100
AcDbScale
 70
     0
300
1:30
140
1.0
141
30.0
290
     0
  0
SCALE
  5
51
102
{ACAD_REACTORS
330
47
102
}
330
47
100
AcDbScale
 70
     0
300
1:40
140
1.0
141
40.0
290
     0
  0
SCALE
  5
52
102
{ACAD_REACTORS
330
47
102
}
330
47
100
AcDbScale
 70
     0
300
1:50
140
1.0
141
50.0
290
     0
  0
SCALE
  5
53
102
{ACAD_REACTORS
330
47
102
}
330
47
100
AcDbScale
 70
     0
300
1:100
140
1.0
141
100.0
290
     0
  0
SCALE
  5
54
102
{ACAD_REACTORS
330
47
102
}
330
47
100
AcDbScale
 70
     0
300
2:1
140
2.0
141
1.0
290
     0
  0
SCALE
  5
55
102
{ACAD_REACTORS
330
47
102
}
330
47
100
AcDbScale
 70
     0
300
4:1
140
4.0
141
1.0
290
     0
  0
SCALE
  5
56
102
{ACAD_REACTORS
330
47
102
}
330
47
100
AcDbScale
 70
     0
300
8:1
140
8.0
141
1.0
290
     0
  0
SCALE
  5
57
102
{ACAD_REACTORS
330
47
102
}
330
47
100
AcDbScale
 70
     0
300
10:1
140
10.0
141
1.0
290
     0
  0
SCALE
  5
58
102
{ACAD_REACTORS
330
47
102
}
330
47
100
AcDbScale
 70
     0
300
100:1
140
100.0
141
1.0
290
     0
  0
SCALE
  5
59
102
{ACAD_REACTORS
330
47
102
}
330
47
100
AcDbScale
 70
     0
300
1/128" = 1'-0"
140
0.0078125
141
12.0
290
     0
  0
SCALE
  5
5A
102
{ACAD_REACTORS
330
47
102
}
330
47
100
AcDbScale
 70
     0
300
1/64" = 1'-0"
140
0.015625
141
12.0
290
     0
  0
SCALE
  5
5B
102
{ACAD_REACTORS
330
47
102
}
330
47
100
AcDbScale
 70
     0
300
1/32" = 1'-0"
140
0.03125
141
12.0
290
     0
  0
SCALE
  5
5C
102
{ACAD_REACTORS
330
47
102
}
330
47
100
AcDbScale
 70
     0
300
1/16" = 1'-0"
140
0.0625
141
12.0
290
     0
  0
SCALE
  5
5D
102
{ACAD_REACTORS
330
47
102
}
330
47
100
AcDbScale
 70
     0
300
3/32" = 1'-0"
140
0.09375
141
12.0
290
     0
  0
SCALE
  5
5E
102
{ACAD_REACTORS
330
47
102
}
330
47
100
AcDbScale
 70
     0
300
1/8" = 1'-0"
140
0.125
141
12.0
290
     0
  0
SCALE
  5
5F
102
{ACAD_REACTORS
330
47
102
}
330
47
100
AcDbScale
 70
     0
300
3/16" = 1'-0"
140
0.1875
141
12.0
290
     0
  0
SCALE
  5
60
102
{ACAD_REACTORS
330
47
102
}
330
47
100
AcDbScale
 70
     0
300
1/4" = 1'-0"
140
0.25
141
12.0
290
     0
  0
SCALE
  5
61
102
{ACAD_REACTORS
330
47
102
}
330
47
100
AcDbScale
 70
     0
300
3/8" = 1'-0"
140
0.375
141
12.0
290
     0
  0
SCALE
  5
62
102
{ACAD_REACTORS
330
47
102
}
330
47
100
AcDbScale
 70
     0
300
1/2" = 1'-0"
140
0.5
141
12.0
290
     0
  0
SCALE
  5
63
102
{ACAD_REACTORS
330
47
102
}
330
47
100
AcDbScale
 70
     0
300
3/4" = 1'-0"
140
0.75
141
12.0
290
     0
  0
SCALE
  5
64
102
{ACAD_REACTORS
330
47
102
}
330
47
100
AcDbScale
 70
     0
300
1" = 1'-0"
140
1.0
141
12.0
290
     0
  0
SCALE
  5
65
102
{ACAD_REACTORS
330
47
102
}
330
47
100
AcDbScale
 70
     0
300
1-1/2" = 1'-0"
140
1.5
141
12.0
290
     0
  0
SCALE
  5
66
102
{ACAD_REACTORS
330
47
102
}
330
47
100
AcDbScale
 70
     0
300
3" = 1'-0"
140
3.0
141
12.0
290
     0
  0
SCALE
  5
67
102
{ACAD_REACTORS
330
47
102
}
330
47
100
AcDbScale
 70
     0
300
6" = 1'-0"
140
6.0
141
12.0
290
     0
  0
SCALE
  5
68
102
{ACAD_REACTORS
330
47
102
}
330
47
100
AcDbScale
 70
     0
300
1'-0" = 1'-0"
140
12.0
141
12.0
290
     0
  0
ENDSEC
  0
EOF
