  0
SECTION
  2
HEADER
  9
$ACADVER
  1
AC1015
  9
$ACADMAINTVER
 70
     6
  9
$DWGCODEPAGE
  3
ANSI_949
  9
$INSBASE
 10
0.0
 20
0.0
 30
0.0
  9
$EXTMIN
 10
1.000000000000000E+20
 20
1.000000000000000E+20
 30
1.000000000000000E+20
  9
$EXTMAX
 10
-1.000000000000000E+20
 20
-1.000000000000000E+20
 30
-1.000000000000000E+20
  9
$LIMMIN
 10
0.0
 20
0.0
  9
$LIMMAX
 10
420.0
 20
297.0
  9
$ORTHOMODE
 70
     1
  9
$REGENMODE
 70
     1
  9
$FILLMODE
 70
     1
  9
$QTEXTMODE
 70
     0
  9
$MIRRTEXT
 70
     1
  9
$LTSCALE
 40
1.0
  9
$ATTMODE
 70
     1
  9
$TEXTSIZE
 40
3.5
  9
$TRACEWID
 40
1.0
  9
$TEXTSTYLE
  7
Standard
  9
$CLAYER
  8
0
  9
$CELTYPE
  6
ByLayer
  9
$CECOLOR
 62
   256
  9
$CELTSCALE
 40
1.0
  9
$DISPSILH
 70
     0
  9
$DIMSCALE
 40
1.0
  9
$DIMASZ
 40
3.302
  9
$DIMEXO
 40
1.0
  9
$DIMDLI
 40
3.75
  9
$DIMRND
 40
0.0
  9
$DIMDLE
 40
0.0
  9
$DIMEXE
 40
1.0
  9
$DIMTP
 40
0.0
  9
$DIMTM
 40
0.0
  9
$DIMTXT
 40
3.5
  9
$DIMCEN
 40
2.5
  9
$DIMTSZ
 40
0.0
  9
$DIMTOL
 70
     0
  9
$DIMLIM
 70
     0
  9
$DIMTIH
 70
     1
  9
$DIMTOH
 70
     1
  9
$DIMSE1
 70
     0
  9
$DIMSE2
 70
     0
  9
$DIMTAD
 70
     1
  9
$DIMZIN
 70
     0
  9
$DIMBLK
  1

  9
$DIMASO
 70
     1
  9
$DIMSHO
 70
     1
  9
$DIMPOST
  1

  9
$DIMAPOST
  1

  9
$DIMALT
 70
     0
  9
$DIMALTD
 70
     3
  9
$DIMALTF
 40
0.0393700787401575
  9
$DIMLFAC
 40
1.0
  9
$DIMTOFL
 70
     1
  9
$DIMTVP
 40
0.0
  9
$DIMTIX
 70
     0
  9
$DIMSOXD
 70
     0
  9
$DIMSAH
 70
     0
  9
$DIMBLK1
  1

  9
$DIMBLK2
  1

  9
$DIMSTYLE
  2
ISO-25
  9
$DIMCLRD
 70
     0
  9
$DIMCLRE
 70
     0
  9
$DIMCLRT
 70
     0
  9
$DIMTFAC
 40
1.0
  9
$DIMGAP
 40
1.524
  9
$DIMJUST
 70
     0
  9
$DIMSD1
 70
     0
  9
$DIMSD2
 70
     0
  9
$DIMTOLJ
 70
     0
  9
$DIMTZIN
 70
     0
  9
$DIMALTZ
 70
     0
  9
$DIMALTTZ
 70
     0
  9
$DIMUPT
 70
     0
  9
$DIMDEC
 70
     2
  9
$DIMTDEC
 70
     2
  9
$DIMALTU
 70
     2
  9
$DIMALTTD
 70
     3
  9
$DIMTXSTY
  7
Standard
  9
$DIMAUNIT
 70
     0
  9
$DIMADEC
 70
     2
  9
$DIMALTRND
 40
0.0
  9
$DIMAZIN
 70
     0
  9
$DIMDSEP
 70
    44
  9
$DIMATFIT
 70
     3
  9
$DIMFRAC
 70
     0
  9
$DIMLDRBLK
  1

  9
$DIMLUNIT
 70
     2
  9
$DIMLWD
 70
    -2
  9
$DIMLWE
 70
    -2
  9
$DIMTMOVE
 70
     0
  9
$LUNITS
 70
     2
  9
$LUPREC
 70
     2
  9
$SKETCHINC
 40
1.0
  9
$FILLETRAD
 40
10.0
  9
$AUNITS
 70
     0
  9
$AUPREC
 70
     2
  9
$MENU
  1
.
  9
$ELEVATION
 40
0.0
  9
$PELEVATION
 40
0.0
  9
$THICKNESS
 40
0.0
  9
$LIMCHECK
 70
     0
  9
$CHAMFERA
 40
0.0
  9
$CHAMFERB
 40
0.0
  9
$CHAMFERC
 40
0.0
  9
$CHAMFERD
 40
0.0
  9
$SKPOLY
 70
     0
  9
$TDCREATE
 40
2458312.755209236
  9
$TDUCREATE
 40
2458312.380209236
  9
$TDUPDATE
 40
2458319.662532164
  9
$TDUUPDATE
 40
2458319.287532164
  9
$TDINDWG
 40
0.0012907292
  9
$TDUSRTIMER
 40
2458319.286241632
  9
$USRTIMER
 70
     1
  9
$ANGBASE
 50
0.0
  9
$ANGDIR
 70
     0
  9
$PDMODE
 70
     0
  9
$PDSIZE
 40
-1.0
  9
$PLINEWID
 40
0.0
  9
$SPLFRAME
 70
     0
  9
$SPLINETYPE
 70
     6
  9
$SPLINESEGS
 70
     8
  9
$HANDSEED
  5
332
  9
$SURFTAB1
 70
     6
  9
$SURFTAB2
 70
     6
  9
$SURFTYPE
 70
     6
  9
$SURFU
 70
     6
  9
$SURFV
 70
     6
  9
$UCSBASE
  2

  9
$UCSNAME
  2

  9
$UCSORG
 10
0.0
 20
0.0
 30
0.0
  9
$UCSXDIR
 10
1.0
 20
0.0
 30
0.0
  9
$UCSYDIR
 10
0.0
 20
1.0
 30
0.0
  9
$UCSORTHOREF
  2

  9
$UCSORTHOVIEW
 70
     0
  9
$UCSORGTOP
 10
0.0
 20
0.0
 30
0.0
  9
$UCSORGBOTTOM
 10
0.0
 20
0.0
 30
0.0
  9
$UCSORGLEFT
 10
0.0
 20
0.0
 30
0.0
  9
$UCSORGRIGHT
 10
0.0
 20
0.0
 30
0.0
  9
$UCSORGFRONT
 10
0.0
 20
0.0
 30
0.0
  9
$UCSORGBACK
 10
0.0
 20
0.0
 30
0.0
  9
$PUCSBASE
  2

  9
$PUCSNAME
  2

  9
$PUCSORG
 10
0.0
 20
0.0
 30
0.0
  9
$PUCSXDIR
 10
1.0
 20
0.0
 30
0.0
  9
$PUCSYDIR
 10
0.0
 20
1.0
 30
0.0
  9
$PUCSORTHOREF
  2

  9
$PUCSORTHOVIEW
 70
     0
  9
$PUCSORGTOP
 10
0.0
 20
0.0
 30
0.0
  9
$PUCSORGBOTTOM
 10
0.0
 20
0.0
 30
0.0
  9
$PUCSORGLEFT
 10
0.0
 20
0.0
 30
0.0
  9
$PUCSORGRIGHT
 10
0.0
 20
0.0
 30
0.0
  9
$PUCSORGFRONT
 10
0.0
 20
0.0
 30
0.0
  9
$PUCSORGBACK
 10
0.0
 20
0.0
 30
0.0
  9
$USERI1
 70
     0
  9
$USERI2
 70
     0
  9
$USERI3
 70
     0
  9
$USERI4
 70
     0
  9
$USERI5
 70
     0
  9
$USERR1
 40
0.0
  9
$USERR2
 40
0.0
  9
$USERR3
 40
0.0
  9
$USERR4
 40
0.0
  9
$USERR5
 40
0.0
  9
$WORLDVIEW
 70
     1
  9
$SHADEDGE
 70
     3
  9
$SHADEDIF
 70
    70
  9
$TILEMODE
 70
     1
  9
$MAXACTVP
 70
    64
  9
$PINSBASE
 10
0.0
 20
0.0
 30
0.0
  9
$PLIMCHECK
 70
     0
  9
$PEXTMIN
 10
1.000000000000000E+20
 20
1.000000000000000E+20
 30
1.000000000000000E+20
  9
$PEXTMAX
 10
-1.000000000000000E+20
 20
-1.000000000000000E+20
 30
-1.000000000000000E+20
  9
$PLIMMIN
 10
0.0
 20
0.0
  9
$PLIMMAX
 10
0.0
 20
0.0
  9
$UNITMODE
 70
     0
  9
$VISRETAIN
 70
     1
  9
$PLINEGEN
 70
     0
  9
$PSLTSCALE
 70
     1
  9
$TREEDEPTH
 70
  3020
  9
$CMLSTYLE
  2
Standard
  9
$CMLJUST
 70
     0
  9
$CMLSCALE
 40
20.0
  9
$PROXYGRAPHICS
 70
     1
  9
$MEASUREMENT
 70
     1
  9
$CELWEIGHT
370
    -1
  9
$ENDCAPS
280
     0
  9
$JOINSTYLE
280
     0
  9
$LWDISPLAY
290
     1
  9
$INSUNITS
 70
     4
  9
$HYPERLINKBASE
  1

  9
$STYLESHEET
  1

  9
$XEDIT
290
     1
  9
$CEPSNTYPE
380
     0
  9
$PSTYLEMODE
290
     1
  9
$FINGERPRINTGUID
  2
{927426AD-84A3-40A8-827D-1A0FCBAEC8F2}
  9
$VERSIONGUID
  2
{FAEB1C32-E019-11D5-929B-00C0DF256EC4}
  9
$EXTNAMES
290
     1
  9
$PSVPSCALE
 40
0.0
  9
$OLESTARTUP
290
     0
  0
ENDSEC
  0
SECTION
  2
CLASSES
  0
CLASS
  1
ACDBDICTIONARYWDFLT
  2
AcDbDictionaryWithDefault
  3
ObjectDBX Classes
 90
        0
280
     0
281
     0
  0
CLASS
  1
VISUALSTYLE
  2
AcDbVisualStyle
  3
ObjectDBX Classes
 90
     4095
280
     0
281
     0
  0
CLASS
  1
MATERIAL
  2
AcDbMaterial
  3
ObjectDBX Classes
 90
     1153
280
     0
281
     0
  0
CLASS
  1
SCALE
  2
AcDbScale
  3
ObjectDBX Classes
 90
     1153
280
     0
281
     0
  0
CLASS
  1
SUN
  2
AcDbSun
  3
SCENEOE
 90
     1153
280
     0
281
     0
  0
CLASS
  1
ACDBPLACEHOLDER
  2
AcDbPlaceHolder
  3
ObjectDBX Classes
 90
        0
280
     0
281
     0
  0
CLASS
  1
LAYOUT
  2
AcDbLayout
  3
ObjectDBX Classes
 90
        0
280
     0
281
     0
  0
CLASS
  1
TABLESTYLE
  2
AcDbTableStyle
  3
ObjectDBX Classes
 90
     4095
280
     0
281
     0
  0
CLASS
  1
MLEADERSTYLE
  2
AcDbMLeaderStyle
  3
ACDB_MLEADERSTYLE_CLASS
 90
     4095
280
     0
281
     0
  0
CLASS
  1
RASTERVARIABLES
  2
AcDbRasterVariables
  3
ISM
 90
        0
280
     0
281
     0
  0
ENDSEC
  0
SECTION
  2
TABLES
  0
TABLE
  2
VPORT
  5
8
330
0
100
AcDbSymbolTable
 70
     1
  0
VPORT
  5
29
330
8
100
AcDbSymbolTableRecord
100
AcDbViewportTableRecord
  2
*Active
 70
     0
 10
0.0
 20
0.0
 11
1.0
 21
1.0
 12
30.5871195786987
 22
4.558151335315207
 13
0.0
 23
0.0
 14
10.0
 24
10.0
 15
10.0
 25
10.0
 16
0.0
 26
0.0
 36
1.0
 17
0.0
 27
0.0
 37
0.0
 40
224.4714094288301
 41
1.358943577430972
 42
50.0
 43
0.0
 44
0.0
 50
0.0
 51
0.0
 71
    16
 72
  2000
 73
     1
 74
     3
 75
     0
 76
     0
 77
     0
 78
     0
281
     0
 65
     1
110
0.0
120
0.0
130
0.0
111
1.0
121
0.0
131
0.0
112
0.0
122
1.0
132
0.0
 79
     0
146
0.0
  0
ENDTAB
  0
TABLE
  2
LTYPE
  5
5
330
0
100
AcDbSymbolTable
 70
     6
  0
LTYPE
  5
14
330
5
100
AcDbSymbolTableRecord
100
AcDbLinetypeTableRecord
  2
ByBlock
 70
     0
  3

 72
    65
 73
     0
 40
0.0
  0
LTYPE
  5
15
330
5
100
AcDbSymbolTableRecord
100
AcDbLinetypeTableRecord
  2
ByLayer
 70
     0
  3

 72
    65
 73
     0
 40
0.0
  0
LTYPE
  5
16
330
5
100
AcDbSymbolTableRecord
100
AcDbLinetypeTableRecord
  2
Continuous
 70
     0
  3
Solid line
 72
    65
 73
     0
 40
0.0
  0
LTYPE
  5
6A
330
5
100
AcDbSymbolTableRecord
100
AcDbLinetypeTableRecord
  2
HIDDEN
 70
     0
  3
Hidden __ __ __ __ __ __ __ __ __ __ __ __ __ __
 72
    65
 73
     2
 40
1.905
 49
1.27
 74
     0
 49
-0.635
 74
     0
  0
LTYPE
  5
6B
330
5
100
AcDbSymbolTableRecord
100
AcDbLinetypeTableRecord
  2
PHANTOM
 70
     0
  3
Phantom ______  __  __  ______  __  __  ______
 72
    65
 73
     6
 40
12.7
 49
6.35
 74
     0
 49
-1.27
 74
     0
 49
1.27
 74
     0
 49
-1.27
 74
     0
 49
1.27
 74
     0
 49
-1.27
 74
     0
  0
LTYPE
  5
6C
330
5
100
AcDbSymbolTableRecord
100
AcDbLinetypeTableRecord
  2
CENTER
 70
     0
  3
Center ____ _ ____ _ ____ _ ____ _ ____ _ ____
 72
    65
 73
     4
 40
10.16
 49
6.35
 74
     0
 49
-1.27
 74
     0
 49
1.27
 74
     0
 49
-1.27
 74
     0
  0
LTYPE
  5
6D
330
5
100
AcDbSymbolTableRecord
100
AcDbLinetypeTableRecord
  2
CENTERX2
 70
     0
  3
Center (2x) ________  __  ________  __  _____
 72
    65
 73
     4
 40
20.32
 49
12.7
 74
     0
 49
-2.54
 74
     0
 49
2.54
 74
     0
 49
-2.54
 74
     0
  0
LTYPE
  5
6E
330
5
100
AcDbSymbolTableRecord
100
AcDbLinetypeTableRecord
  2
DOT2
 70
     0
  3
Dot (.5x) ........................................
 72
    65
 73
     2
 40
0.635
 49
0.0
 74
     0
 49
-0.635
 74
     0
  0
ENDTAB
  0
TABLE
  2
LAYER
  5
2
102
{ACAD_XDICTIONARY
360
154
102
}
330
0
100
AcDbSymbolTable
 70
    18
  0
LAYER
  5
10
330
2
100
AcDbSymbolTableRecord
100
AcDbLayerTableRecord
  2
0
 70
     0
 62
     7
  6
Continuous
370
    -3
390
F
  0
LAYER
  5
6F
330
2
100
AcDbSymbolTableRecord
100
AcDbLayerTableRecord
  2
FORMAT
 70
     0
 62
     2
  6
Continuous
370
    -3
390
F
  0
LAYER
  5
70
330
2
100
AcDbSymbolTableRecord
100
AcDbLayerTableRecord
  2
외형선
 70
     0
 62
     4
  6
Continuous
370
    30
390
F
  0
LAYER
  5
71
330
2
100
AcDbSymbolTableRecord
100
AcDbLayerTableRecord
  2
숨은선
 70
     0
 62
     2
  6
HIDDEN
370
    15
390
F
  0
LAYER
  5
72
330
2
100
AcDbSymbolTableRecord
100
AcDbLayerTableRecord
  2
중심선
 70
     0
 62
     1
  6
CENTERX2
370
    -3
390
F
  0
LAYER
  5
73
330
2
100
AcDbSymbolTableRecord
100
AcDbLayerTableRecord
  2
파단선
 70
     0
 62
     4
  6
Continuous
370
    -3
390
F
  0
LAYER
  5
74
330
2
100
AcDbSymbolTableRecord
100
AcDbLayerTableRecord
  2
해칭선
 70
     0
 62
   100
  6
Continuous
370
    -3
390
F
  0
LAYER
  5
75
330
2
100
AcDbSymbolTableRecord
100
AcDbLayerTableRecord
  2
가는실선
 70
     0
 62
     4
  6
Continuous
370
    -3
390
F
  0
LAYER
  5
76
330
2
100
AcDbSymbolTableRecord
100
AcDbLayerTableRecord
  2
치수_보조선
 70
     0
 62
     4
  6
Continuous
370
    -3
390
F
  0
LAYER
  5
77
330
2
100
AcDbSymbolTableRecord
100
AcDbLayerTableRecord
  2
치수문자_일반주서
 70
     0
 62
     7
  6
Continuous
370
    15
390
F
  0
LAYER
  5
78
330
2
100
AcDbSymbolTableRecord
100
AcDbLayerTableRecord
  2
개별주서
 70
     0
 62
   100
  6
Continuous
370
    30
390
F
  0
LAYER
  5
79
330
2
100
AcDbSymbolTableRecord
100
AcDbLayerTableRecord
  2
중간선
 70
     0
 62
     2
  6
Continuous
370
    15
390
F
  0
LAYER
  5
7A
330
2
100
AcDbSymbolTableRecord
100
AcDbLayerTableRecord
  2
윤곽선
 70
     0
 62
     3
  6
Continuous
370
    40
390
F
  0
LAYER
  5
7B
330
2
100
AcDbSymbolTableRecord
100
AcDbLayerTableRecord
  2
중심마크
 70
     0
 62
   100
  6
Continuous
370
    30
390
F
  0
LAYER
  5
7C
330
2
100
AcDbSymbolTableRecord
100
AcDbLayerTableRecord
  2
가상선
 70
     0
 62
     4
  6
PHANTOM
370
    -3
390
F
  0
LAYER
  5
7D
330
2
100
AcDbSymbolTableRecord
100
AcDbLayerTableRecord
  2
특수지정선
 70
     0
 62
     5
  6
CENTERX2
370
    60
390
F
  0
LAYER
  5
7E
330
2
100
AcDbSymbolTableRecord
100
AcDbLayerTableRecord
  2
참조1
 70
     0
 62
    -4
  6
Continuous
370
    -3
390
F
  0
LAYER
  5
158
330
2
100
AcDbSymbolTableRecord
100
AcDbLayerTableRecord
  2
Defpoints
 70
     0
 62
     7
  6
Continuous
290
     0
370
    -3
390
F
  0
ENDTAB
  0
TABLE
  2
STYLE
  5
3
330
0
100
AcDbSymbolTable
 70
     2
  0
STYLE
  5
11
330
3
100
AcDbSymbolTableRecord
100
AcDbTextStyleTableRecord
  2
Standard
 70
     0
 40
0.0
 41
1.0
 50
0.0
 71
     0
 42
3.5
  3
txt
  4

  0
STYLE
  5
94
330
3
100
AcDbSymbolTableRecord
100
AcDbTextStyleTableRecord
  2
SLDTEXTSTYLE0
 70
     0
 40
0.0
 41
0.75
 50
0.0
 71
     0
 42
3.5
  3
TXT
  4

  0
ENDTAB
  0
TABLE
  2
VIEW
  5
6
330
0
100
AcDbSymbolTable
 70
     0
  0
ENDTAB
  0
TABLE
  2
UCS
  5
7
330
0
100
AcDbSymbolTable
 70
     0
  0
ENDTAB
  0
TABLE
  2
APPID
  5
9
330
0
100
AcDbSymbolTable
 70
     1
  0
APPID
  5
12
330
9
100
AcDbSymbolTableRecord
100
AcDbRegAppTableRecord
  2
ACAD
 70
     0
  0
ENDTAB
  0
TABLE
  2
DIMSTYLE
  5
A
330
0
100
AcDbSymbolTable
 70
     3
100
AcDbDimStyleTable
  0
DIMSTYLE
105
27
330
A
100
AcDbSymbolTableRecord
100
AcDbDimStyleTableRecord
  2
ISO-25
 70
     0
 41
2.5
 42
0.625
 43
3.75
 44
1.25
 73
     0
 74
     0
 77
     1
 78
     8
140
2.5
141
2.5
143
0.03937007874016
147
0.625
171
     3
172
     1
178
     0
271
     2
272
     2
274
     3
278
    44
283
     0
284
     8
340
11
  0
DIMSTYLE
105
A8
102
{ACAD_REACTORS
330
1A7
330
1B4
330
1D6
330
25E
330
26B
330
28D
330
2EC
330
2ED
330
2F1
102
}
330
A
100
AcDbSymbolTableRecord
100
AcDbDimStyleTableRecord
  2
SLDDIMSTYLE0
 70
     0
 41
3.302
 44
0.0
 45
0.000000001
 73
     0
 74
     0
 77
     1
 78
    12
 79
     3
140
3.5
143
0.0393700787401575
147
0.875
148
0.000000001
170
     1
173
     1
178
     0
271
     2
272
     2
276
     2
284
    12
340
94
  0
DIMSTYLE
105
E2
102
{ACAD_REACTORS
330
1C1
330
278
330
2EE
102
}
330
A
100
AcDbSymbolTableRecord
100
AcDbDimStyleTableRecord
  2
SLDDIMSTYLE1
 70
     0
 41
3.302
 44
0.0
 45
0.000000001
 73
     0
 74
     0
 77
     1
 78
     4
 79
     1
140
3.5
143
0.0393700787401575
147
0.875
148
0.000000001
170
     1
172
     1
173
     1
178
     0
271
     2
272
     2
276
     2
284
    12
289
     0
340
94
  0
ENDTAB
  0
TABLE
  2
BLOCK_RECORD
  5
1
330
0
100
AcDbSymbolTable
 70
    22
  0
BLOCK_RECORD
  5
1F
330
1
100
AcDbSymbolTableRecord
100
AcDbBlockTableRecord
  2
*Model_Space
340
22
  0
BLOCK_RECORD
  5
1B
330
1
100
AcDbSymbolTableRecord
100
AcDbBlockTableRecord
  2
*Paper_Space
340
1E
  0
BLOCK_RECORD
  5
23
330
1
100
AcDbSymbolTableRecord
100
AcDbBlockTableRecord
  2
*Paper_Space0
340
26
  0
BLOCK_RECORD
  5
7F
330
1
100
AcDbSymbolTableRecord
100
AcDbBlockTableRecord
  2
블럭10
340
0
102
{BLKREFS
331
A0
102
}
  0
BLOCK_RECORD
  5
A9
330
1
100
AcDbSymbolTableRecord
100
AcDbBlockTableRecord
  2
_D
340
0
  0
BLOCK_RECORD
  5
BC
330
1
100
AcDbSymbolTableRecord
100
AcDbBlockTableRecord
  2
_D_1
340
0
  0
BLOCK_RECORD
  5
CF
330
1
100
AcDbSymbolTableRecord
100
AcDbBlockTableRecord
  2
_D_2
340
0
  0
BLOCK_RECORD
  5
E3
330
1
100
AcDbSymbolTableRecord
100
AcDbBlockTableRecord
  2
_D_3
340
0
  0
BLOCK_RECORD
  5
FD
330
1
100
AcDbSymbolTableRecord
100
AcDbBlockTableRecord
  2
SW_DOWELSYMBOL_0
340
0
102
{BLKREFS
331
0
331
1CE
331
285
331
2EF
102
}
  0
BLOCK_RECORD
  5
1D7
330
1
100
AcDbSymbolTableRecord
100
AcDbBlockTableRecord
  2
*D9
340
0
  0
BLOCK_RECORD
  5
1EC
330
1
100
AcDbSymbolTableRecord
100
AcDbBlockTableRecord
  2
*D10
340
0
  0
BLOCK_RECORD
  5
1F8
330
1
100
AcDbSymbolTableRecord
100
AcDbBlockTableRecord
  2
*D11
340
0
  0
BLOCK_RECORD
  5
204
330
1
100
AcDbSymbolTableRecord
100
AcDbBlockTableRecord
  2
*D12
340
0
  0
BLOCK_RECORD
  5
28E
330
1
100
AcDbSymbolTableRecord
100
AcDbBlockTableRecord
  2
*D14
340
0
  0
BLOCK_RECORD
  5
2A3
330
1
100
AcDbSymbolTableRecord
100
AcDbBlockTableRecord
  2
*D15
340
0
  0
BLOCK_RECORD
  5
2AF
330
1
100
AcDbSymbolTableRecord
100
AcDbBlockTableRecord
  2
*D16
340
0
  0
BLOCK_RECORD
  5
2BB
330
1
100
AcDbSymbolTableRecord
100
AcDbBlockTableRecord
  2
*D17
340
0
  0
BLOCK_RECORD
  5
2F9
330
1
100
AcDbSymbolTableRecord
100
AcDbBlockTableRecord
  2
*D18
340
0
  0
BLOCK_RECORD
  5
305
330
1
100
AcDbSymbolTableRecord
100
AcDbBlockTableRecord
  2
*D19
340
0
  0
BLOCK_RECORD
  5
311
330
1
100
AcDbSymbolTableRecord
100
AcDbBlockTableRecord
  2
*D20
340
0
  0
BLOCK_RECORD
  5
31D
330
1
100
AcDbSymbolTableRecord
100
AcDbBlockTableRecord
  2
*D21
340
0
  0
ENDTAB
  0
ENDSEC
  0
SECTION
  2
BLOCKS
  0
BLOCK
  5
20
330
1F
100
AcDbEntity
  8
0
100
AcDbBlockBegin
  2
*Model_Space
 70
     0
 10
0.0
 20
0.0
 30
0.0
  3
*Model_Space
  1
*Model_Space
  0
ENDBLK
  5
21
330
1F
100
AcDbEntity
  8
0
100
AcDbBlockEnd
  0
BLOCK
  5
1C
330
1B
100
AcDbEntity
 67
     1
  8
0
100
AcDbBlockBegin
  2
*Paper_Space
 70
     0
 10
0.0
 20
0.0
 30
0.0
  3
*Paper_Space
  1
*Paper_Space
  0
ENDBLK
  5
1D
330
1B
100
AcDbEntity
 67
     1
  8
0
100
AcDbBlockEnd
  0
BLOCK
  5
24
330
23
100
AcDbEntity
  8
0
100
AcDbBlockBegin
  2
*Paper_Space0
 70
     0
 10
0.0
 20
0.0
 30
0.0
  3
*Paper_Space0
  1
*Paper_Space0
  0
ENDBLK
  5
25
330
23
100
AcDbEntity
  8
0
100
AcDbBlockEnd
  0
BLOCK
  5
80
330
7F
100
AcDbEntity
  8
0
100
AcDbBlockBegin
  2
블럭10
 70
     2
 10
0.0
 20
0.0
 30
0.0
  3
블럭10
  1
블럭10
  0
ELLIPSE
  5
82
330
7F
100
AcDbEntity
  8
중심선
100
AcDbEllipse
 10
20.54032771741204
 20
12.0471743016438
 30
0.0
 11
6.600054785286829
 21
-1.261213355974178E-13
 31
0.0
210
0.0
220
0.0
230
1.0
 40
0.636358354079598
 41
0.9219305317359503
 42
6.513795318482858
  0
ELLIPSE
  5
83
330
7F
100
AcDbEntity
  8
중심선
100
AcDbEllipse
 10
20.54032771746488
 20
12.04717430159265
 30
0.0
 11
3.960054785062283
 21
1.540847449632565E-10
 31
0.0
210
0.0
220
0.0
230
1.0
 40
0.3939339440162632
 41
1.131841032648279
 42
5.62031148352944
  0
LINE
  5
84
330
7F
100
AcDbEntity
  8
중심선
100
AcDbLine
 10
2.268634060543552
 20
16.24717430164393
 30
0.0
 11
5.714909304380834
 21
16.24717430164393
 31
0.0
  0
LINE
  5
85
330
7F
100
AcDbEntity
  8
중심선
100
AcDbLine
 10
5.245725140726316
 20
7.84717430164391
 30
0.0
 11
8.692000384563599
 21
7.84717430164391
 31
0.0
  0
LINE
  5
86
330
7F
100
AcDbEntity
  8
중심선
100
AcDbLine
 10
15.74043728645272
 20
16.24717430164393
 30
0.0
 11
8.692000384563599
 21
7.84717430164391
 31
0.0
  0
LINE
  5
87
330
7F
100
AcDbEntity
  8
중심선
100
AcDbLine
 10
0.1404042013395286
 20
13.71084872107135
 30
0.0
 11
3.58671253028996
 21
13.71088815037384
 31
0.0
  0
LINE
  5
88
330
7F
100
AcDbEntity
  8
중심선
100
AcDbLine
 10
2.750260043222114
 20
10.84717430164391
 30
0.0
 11
6.196535287059397
 21
10.84717430164391
 31
0.0
  0
LINE
  5
89
330
7F
100
AcDbEntity
  8
중심선
100
AcDbLine
 10
12.29416204261559
 20
16.24717430164393
 30
0.0
 11
5.245725140726316
 21
7.84717430164391
 31
0.0
  0
LINE
  5
8A
330
7F
100
AcDbEntity
  8
중심선
100
AcDbLine
 10
10.72767329541681
 20
16.24717430164393
 30
0.0
 11
6.196535287059397
 21
10.84717430164391
 31
0.0
  0
LINE
  5
8B
330
7F
100
AcDbEntity
  8
중심선
100
AcDbLine
 10
7.28139805157953
 20
16.24717430164393
 30
0.0
 11
2.750260043222114
 21
10.84717430164391
 31
0.0
  0
LINE
  5
8C
330
7F
100
AcDbEntity
  8
중심선
100
AcDbLine
 10
5.714909304380834
 20
16.24717430164393
 30
0.0
 11
3.58671253028996
 21
13.71088815037384
 31
0.0
  0
LINE
  5
8D
330
7F
100
AcDbEntity
  8
중심선
100
AcDbLine
 10
2.268634060543552
 20
16.24717430164393
 30
0.0
 11
0.1404042013395286
 21
13.71084872107135
 31
0.0
  0
LINE
  5
8E
330
7F
100
AcDbEntity
  8
중심선
100
AcDbLine
 10
7.28139805157953
 20
16.24717430164393
 30
0.0
 11
10.72767329541681
 21
16.24717430164393
 31
0.0
  0
LINE
  5
8F
330
7F
100
AcDbEntity
  8
중심선
100
AcDbLine
 10
12.29416204261559
 20
16.24717430164393
 30
0.0
 11
15.74043728645272
 21
16.24717430164393
 31
0.0
  0
LINE
  5
90
330
7F
100
AcDbEntity
  8
중심선
100
AcDbLine
 10
19.22036997980202
 20
11.08717430171403
 30
0.0
 11
23.66174974927406
 21
11.08717430171406
 31
0.0
  0
LINE
  5
91
330
7F
100
AcDbEntity
  8
중심선
100
AcDbLine
 10
19.22039502424796
 20
13.00717430171391
 30
0.0
 11
19.22036997980202
 21
11.08717430171403
 31
0.0
  0
LINE
  5
92
330
7F
100
AcDbEntity
  8
중심선
100
AcDbLine
 10
19.22039502424796
 20
13.00717430171391
 30
0.0
 11
26.96566020931264
 21
13.00717430171391
 31
0.0
  0
LINE
  5
93
330
7F
100
AcDbEntity
  8
중심선
100
AcDbLine
 10
22.22332737316547
 20
13.45928029700563
 30
0.0
 11
24.52862924686651
 21
15.39360700705356
 31
0.0
  0
ATTDEF
  5
95
330
7F
100
AcDbEntity
  8
FORMAT
 62
     2
100
AcDbText
 10
4.408487351596664
 20
2.075366912832191
 30
0.0
 40
4.233333333333333
  1
E2039132
 41
0.75
  7
SLDTEXTSTYLE0
 11
4.408487351596664
 21
-0.0412997538344756
 31
0.0
100
AcDbAttributeDefinition
  3

  2
AUTOATTR0
 70
     0
 74
     1
  0
ENDBLK
  5
81
330
7F
100
AcDbEntity
  8
0
100
AcDbBlockEnd
  0
BLOCK
  5
AA
330
A9
100
AcDbEntity
  8
0
100
AcDbBlockBegin
  2
_D
 70
     0
 10
0.0
 20
0.0
 30
0.0
  3
_D
  1
_D
  0
SOLID
  5
AC
330
A9
100
AcDbEntity
  8
치수문자_일반주서
100
AcDbTrace
 10
56.67052760992014
 20
5.218258589704694
 30
0.0
 11
56.16252760992013
 21
1.916258589704695
 31
0.0
 12
57.17852760992014
 22
1.916258589704695
 32
0.0
 13
57.17852760992014
 23
1.916258589704695
 33
0.0
  0
SOLID
  5
AD
330
A9
100
AcDbEntity
  8
치수문자_일반주서
100
AcDbTrace
 10
56.67052760992014
 20
-5.100491410295311
 30
0.0
 11
57.17852760992014
 21
-1.798491410295311
 31
0.0
 12
56.16252760992013
 22
-1.798491410295311
 32
0.0
 13
56.16252760992013
 23
-1.798491410295311
 33
0.0
  0
LINE
  5
AE
330
A9
100
AcDbEntity
  8
치수문자_일반주서
100
AcDbLine
 10
45.87764589387741
 20
10.23472747827019
 30
0.0
 11
45.87764589387741
 21
9.52378999270569
 31
0.0
  0
LINE
  5
AF
330
A9
100
AcDbEntity
  8
치수문자_일반주서
100
AcDbLine
 10
45.87764589387741
 20
9.52378999270569
 30
0.0
 11
51.43389588493672
 21
9.523789992705732
 31
0.0
  0
LINE
  5
B0
330
A9
100
AcDbEntity
  8
치수문자_일반주서
100
AcDbLine
 10
51.43389588493672
 20
9.523789992705732
 30
0.0
 11
51.43389588493671
 21
10.23472747827023
 31
0.0
  0
LINE
  5
B1
330
A9
100
AcDbEntity
  8
치수문자_일반주서
100
AcDbLine
 10
45.87764589387734
 20
21.06346034040745
 30
0.0
 11
45.87764589387733
 21
21.77439782597195
 31
0.0
  0
LINE
  5
B2
330
A9
100
AcDbEntity
  8
치수문자_일반주서
100
AcDbLine
 10
45.87764589387733
 20
21.77439782597195
 30
0.0
 11
51.43389588493663
 21
21.77439782597199
 31
0.0
  0
LINE
  5
B3
330
A9
100
AcDbEntity
  8
치수문자_일반주서
100
AcDbLine
 10
51.43389588493663
 20
21.77439782597199
 30
0.0
 11
51.43389588493664
 21
21.06346034040749
 31
0.0
  0
LINE
  5
B4
330
A9
100
AcDbEntity
  8
치수문자_일반주서
100
AcDbLine
 10
56.2811576642539
 20
5.218258589704698
 30
0.0
 11
57.67052760992014
 21
5.218258589704694
 31
0.0
  0
LINE
  5
B5
330
A9
100
AcDbEntity
  8
치수문자_일반주서
100
AcDbLine
 10
56.2811576642539
 20
-5.100491410295311
 30
0.0
 11
57.67052760992014
 21
-5.100491410295311
 31
0.0
  0
LINE
  5
B6
330
A9
100
AcDbEntity
  8
치수문자_일반주서
100
AcDbLine
 10
56.67052760992014
 20
5.218258589704694
 30
0.0
 11
56.67052760992014
 21
24.10706285215991
 31
0.0
  0
LINE
  5
B7
330
A9
100
AcDbEntity
  8
치수문자_일반주서
100
AcDbLine
 10
56.67052760992014
 20
5.218258589704694
 30
0.0
 11
56.67052760992014
 21
-5.100491410295311
 31
0.0
  0
MTEXT
  5
B8
330
A9
100
AcDbEntity
  8
치수문자_일반주서
100
AcDbMText
 10
46.92215897035781
 20
11.12339937888157
 30
0.0
 40
3.5
 41
0.0
 71
     1
 72
     1
  1
0.41
  7
SLDTEXTSTYLE0
 11
-7.044195017643634E-15
 21
1.0
 31
0.0
 73
     1
 44
1.0
  0
MTEXT
  5
B9
330
A9
100
AcDbEntity
  8
치수문자_일반주서
100
AcDbMText
 10
52.15879052071831
 20
7.191124966517838
 30
0.0
 40
3.5
 41
0.0
 71
     1
 72
     1
  1
%%c
  7
SLDTEXTSTYLE0
 11
-7.044195017643634E-15
 21
1.0
 31
0.0
 73
     1
 44
1.0
  0
MTEXT
  5
BA
330
A9
100
AcDbEntity
  8
치수문자_일반주서
100
AcDbMText
 10
52.15879052071828
 20
12.46956236489192
 30
0.0
 40
3.5
 41
0.0
 71
     1
 72
     1
  1
10.32
  7
SLDTEXTSTYLE0
 11
-7.044195017643634E-15
 21
1.0
 31
0.0
 73
     1
 44
1.0
  0
ENDBLK
  5
AB
330
A9
100
AcDbEntity
  8
0
100
AcDbBlockEnd
  0
BLOCK
  5
BD
330
BC
100
AcDbEntity
  8
0
100
AcDbBlockBegin
  2
_D_1
 70
     0
 10
0.0
 20
0.0
 30
0.0
  3
_D_1
  1
_D_1
  0
SOLID
  5
BF
330
BC
100
AcDbEntity
  8
치수문자_일반주서
100
AcDbTrace
 10
47.34365766425389
 20
16.63113254955809
 30
0.0
 11
44.04165766425389
 21
17.13913254955809
 31
0.0
 12
44.04165766425389
 22
16.12313254955809
 32
0.0
 13
44.04165766425389
 23
16.12313254955809
 33
0.0
  0
SOLID
  5
C0
330
BC
100
AcDbEntity
  8
치수문자_일반주서
100
AcDbTrace
 10
12.4186576642539
 20
16.63113254955814
 30
0.0
 11
15.7206576642539
 21
16.12313254955814
 31
0.0
 12
15.7206576642539
 22
17.13913254955813
 32
0.0
 13
15.7206576642539
 23
17.13913254955813
 33
0.0
  0
LINE
  5
C1
330
BC
100
AcDbEntity
  8
치수문자_일반주서
100
AcDbLine
 10
24.46679158243119
 20
27.42401426560085
 30
0.0
 11
23.75585409686669
 21
27.42401426560086
 31
0.0
  0
LINE
  5
C2
330
BC
100
AcDbEntity
  8
치수문자_일반주서
100
AcDbLine
 10
23.75585409686669
 20
27.42401426560086
 30
0.0
 11
23.75585409686664
 21
21.86776427454155
 31
0.0
  0
LINE
  5
C3
330
BC
100
AcDbEntity
  8
치수문자_일반주서
100
AcDbLine
 10
23.75585409686664
 20
21.86776427454155
 30
0.0
 11
24.46679158243114
 21
21.86776427454155
 31
0.0
  0
LINE
  5
C4
330
BC
100
AcDbEntity
  8
치수문자_일반주서
100
AcDbLine
 10
35.29552444456844
 20
27.42401426560076
 30
0.0
 11
36.00646193013294
 21
27.42401426560075
 31
0.0
  0
LINE
  5
C5
330
BC
100
AcDbEntity
  8
치수문자_일반주서
100
AcDbLine
 10
36.00646193013294
 20
27.42401426560075
 30
0.0
 11
36.0064619301329
 21
21.86776427454145
 31
0.0
  0
LINE
  5
C6
330
BC
100
AcDbEntity
  8
치수문자_일반주서
100
AcDbLine
 10
36.0064619301329
 20
21.86776427454145
 30
0.0
 11
35.2955244445684
 21
21.86776427454146
 31
0.0
  0
LINE
  5
C7
330
BC
100
AcDbEntity
  8
치수문자_일반주서
100
AcDbLine
 10
47.34365766425388
 20
7.583239810165953
 30
0.0
 11
47.34365766425389
 21
17.63113254955809
 31
0.0
  0
LINE
  5
C8
330
BC
100
AcDbEntity
  8
치수문자_일반주서
100
AcDbLine
 10
12.41865766425388
 20
7.605538961946342
 30
0.0
 11
12.4186576642539
 21
17.63113254955814
 31
0.0
  0
LINE
  5
C9
330
BC
100
AcDbEntity
  8
치수문자_일반주서
100
AcDbLine
 10
47.34365766425389
 20
16.63113254955809
 30
0.0
 11
12.4186576642539
 21
16.63113254955814
 31
0.0
  0
MTEXT
  5
CA
330
BC
100
AcDbEntity
  8
치수문자_일반주서
100
AcDbMText
 10
23.24209537137995
 20
21.19634181541983
 30
0.0
 40
3.5
 41
0.0
 71
     1
 72
     1
  1

  7
SLDTEXTSTYLE0
 73
     1
 44
1.0
  0
MTEXT
  5
CB
330
BC
100
AcDbEntity
  8
치수문자_일반주서
100
AcDbMText
 10
25.35546348304256
 20
26.37950118912043
 30
0.0
 40
3.5
 41
0.0
 71
     1
 72
     1
  1
1.38
  7
SLDTEXTSTYLE0
 73
     1
 44
1.0
  0
MTEXT
  5
CC
330
BC
100
AcDbEntity
  8
치수문자_일반주서
100
AcDbMText
 10
24.06240776986578
 20
21.14286963875997
 30
0.0
 40
3.5
 41
0.0
 71
     1
 72
     1
  1
34.93
  7
SLDTEXTSTYLE0
 73
     1
 44
1.0
  0
MTEXT
  5
CD
330
BC
100
AcDbEntity
  8
치수문자_일반주서
100
AcDbMText
 10
37.85216517527351
 20
21.19634181541971
 30
0.0
 40
3.5
 41
0.0
 71
     1
 72
     1
  1

  7
SLDTEXTSTYLE0
 73
     1
 44
1.0
  0
ENDBLK
  5
BE
330
BC
100
AcDbEntity
  8
0
100
AcDbBlockEnd
  0
BLOCK
  5
D0
330
CF
100
AcDbEntity
  8
0
100
AcDbBlockBegin
  2
_D_2
 70
     0
 10
0.0
 20
0.0
 30
0.0
  3
_D_2
  1
_D_2
  0
SOLID
  5
D2
330
CF
100
AcDbEntity
  8
치수문자_일반주서
100
AcDbTrace
 10
47.34365766425388
 20
28.63113254955805
 30
0.0
 11
44.04165766425388
 21
29.13913254955805
 31
0.0
 12
44.04165766425388
 22
28.12313254955805
 32
0.0
 13
44.04165766425388
 23
28.12313254955805
 33
0.0
  0
SOLID
  5
D3
330
CF
100
AcDbEntity
  8
치수문자_일반주서
100
AcDbTrace
 10
-38.38134233574612
 20
28.63113254955804
 30
0.0
 11
-35.07934233574612
 21
28.12313254955804
 31
0.0
 12
-35.07934233574612
 22
29.13913254955804
 32
0.0
 13
-35.07934233574612
 23
29.13913254955804
 33
0.0
  0
LINE
  5
D4
330
CF
100
AcDbEntity
  8
치수문자_일반주서
100
AcDbLine
 10
0.2373901932149428
 20
39.42401426560077
 30
0.0
 11
-0.4735472923495573
 21
39.42401426560077
 31
0.0
  0
LINE
  5
D5
330
CF
100
AcDbEntity
  8
치수문자_일반주서
100
AcDbLine
 10
-0.4735472923495573
 20
39.42401426560077
 30
0.0
 11
-0.4735472923495967
 21
33.86776427454147
 31
0.0
  0
LINE
  5
D6
330
CF
100
AcDbEntity
  8
치수문자_일반주서
100
AcDbLine
 10
-0.4735472923495967
 20
33.86776427454147
 30
0.0
 11
0.2373901932149033
 21
33.86776427454146
 31
0.0
  0
LINE
  5
D7
330
CF
100
AcDbEntity
  8
치수문자_일반주서
100
AcDbLine
 10
11.0661230553522
 20
39.4240142656007
 30
0.0
 11
11.7770605409167
 21
39.42401426560069
 31
0.0
  0
LINE
  5
D8
330
CF
100
AcDbEntity
  8
치수문자_일반주서
100
AcDbLine
 10
11.7770605409167
 20
39.42401426560069
 30
0.0
 11
11.77706054091666
 21
33.86776427454139
 31
0.0
  0
LINE
  5
D9
330
CF
100
AcDbEntity
  8
치수문자_일반주서
100
AcDbLine
 10
11.77706054091666
 20
33.86776427454139
 30
0.0
 11
11.06612305535216
 21
33.86776427454139
 31
0.0
  0
LINE
  5
DA
330
CF
100
AcDbEntity
  8
치수문자_일반주서
100
AcDbLine
 10
47.34365766425388
 20
7.583239810165953
 30
0.0
 11
47.34365766425388
 21
29.63113254955805
 31
0.0
  0
LINE
  5
DB
330
CF
100
AcDbEntity
  8
치수문자_일반주서
100
AcDbLine
 10
-38.38134233574612
 20
6.138883589704698
 30
0.0
 11
-38.38134233574612
 21
29.63113254955804
 31
0.0
  0
LINE
  5
DC
330
CF
100
AcDbEntity
  8
치수문자_일반주서
100
AcDbLine
 10
47.34365766425388
 20
28.63113254955805
 30
0.0
 11
-38.38134233574612
 21
28.63113254955804
 31
0.0
  0
MTEXT
  5
DD
330
CF
100
AcDbEntity
  8
치수문자_일반주서
100
AcDbMText
 10
-0.9873060178362975
 20
33.19634181541976
 30
0.0
 40
3.5
 41
0.0
 71
     1
 72
     1
  1

  7
SLDTEXTSTYLE0
 73
     1
 44
1.0
  0
MTEXT
  5
DE
330
CF
100
AcDbEntity
  8
치수문자_일반주서
100
AcDbMText
 10
1.126062093826306
 20
38.37950118912036
 30
0.0
 40
3.5
 41
0.0
 71
     1
 72
     1
  1
3.38
  7
SLDTEXTSTYLE0
 73
     1
 44
1.0
  0
MTEXT
  5
DF
330
CF
100
AcDbEntity
  8
치수문자_일반주서
100
AcDbMText
 10
-0.166993619350458
 20
33.1428696387599
 30
0.0
 40
3.5
 41
0.0
 71
     1
 72
     1
  1
85.73
  7
SLDTEXTSTYLE0
 73
     1
 44
1.0
  0
MTEXT
  5
E0
330
CF
100
AcDbEntity
  8
치수문자_일반주서
100
AcDbMText
 10
13.62276378605727
 20
33.19634181541966
 30
0.0
 40
3.5
 41
0.0
 71
     1
 72
     1
  1

  7
SLDTEXTSTYLE0
 73
     1
 44
1.0
  0
ENDBLK
  5
D1
330
CF
100
AcDbEntity
  8
0
100
AcDbBlockEnd
  0
BLOCK
  5
E4
330
E3
100
AcDbEntity
  8
0
100
AcDbBlockBegin
  2
_D_3
 70
     0
 10
0.0
 20
0.0
 30
0.0
  3
_D_3
  1
_D_3
  0
SOLID
  5
E6
330
E3
100
AcDbEntity
  8
치수문자_일반주서
100
AcDbTrace
 10
-51.06384233574614
 20
6.408883589704687
 30
0.0
 11
-50.55584233574614
 21
9.710883589704686
 31
0.0
 12
-51.57184233574614
 22
9.710883589704686
 32
0.0
 13
-51.57184233574614
 23
9.710883589704686
 33
0.0
  0
SOLID
  5
E7
330
E3
100
AcDbEntity
  8
치수문자_일반주서
100
AcDbTrace
 10
-51.06384233574614
 20
-6.291116410295301
 30
0.0
 11
-51.57184233574614
 21
-9.593116410295302
 31
0.0
 12
-50.55584233574614
 22
-9.593116410295302
 32
0.0
 13
-50.55584233574614
 23
-9.593116410295302
 33
0.0
  0
LINE
  5
E8
330
E3
100
AcDbEntity
  8
치수문자_일반주서
100
AcDbLine
 10
-61.85672405178885
 20
-5.35548284136401
 30
0.0
 11
-61.85672405178885
 21
-6.06642032692851
 31
0.0
  0
LINE
  5
E9
330
E3
100
AcDbEntity
  8
치수문자_일반주서
100
AcDbLine
 10
-61.85672405178885
 20
-6.06642032692851
 30
0.0
 11
-56.30047406072954
 21
-6.066420326928471
 31
0.0
  0
LINE
  5
EA
330
E3
100
AcDbEntity
  8
치수문자_일반주서
100
AcDbLine
 10
-56.30047406072954
 20
-6.066420326928471
 30
0.0
 11
-56.30047406072955
 21
-5.355482841363971
 31
0.0
  0
LINE
  5
EB
330
E3
100
AcDbEntity
  8
치수문자_일반주서
100
AcDbLine
 10
-61.85672405178892
 20
5.473250020773248
 30
0.0
 11
-61.85672405178893
 21
6.184187506337748
 31
0.0
  0
LINE
  5
EC
330
E3
100
AcDbEntity
  8
치수문자_일반주서
100
AcDbLine
 10
-61.85672405178893
 20
6.184187506337748
 30
0.0
 11
-56.30047406072963
 21
6.184187506337787
 31
0.0
  0
LINE
  5
ED
330
E3
100
AcDbEntity
  8
치수문자_일반주서
100
AcDbLine
 10
-56.30047406072963
 20
6.184187506337787
 30
0.0
 11
-56.30047406072962
 21
5.473250020773287
 31
0.0
  0
LINE
  5
EE
330
E3
100
AcDbEntity
  8
치수문자_일반주서
100
AcDbLine
 10
-38.11134233574612
 20
6.408883589704688
 30
0.0
 11
-52.06384233574614
 21
6.408883589704687
 31
0.0
  0
LINE
  5
EF
330
E3
100
AcDbEntity
  8
치수문자_일반주서
100
AcDbLine
 10
-38.11134233574612
 20
-6.291116410295301
 30
0.0
 11
-52.06384233574614
 21
-6.291116410295301
 31
0.0
  0
LINE
  5
F0
330
E3
100
AcDbEntity
  8
치수문자_일반주서
100
AcDbLine
 10
-51.06384233574614
 20
6.408883589704687
 30
0.0
 11
-51.06384233574614
 21
12.75888358970469
 31
0.0
  0
LINE
  5
F1
330
E3
100
AcDbEntity
  8
치수문자_일반주서
100
AcDbLine
 10
-51.06384233574614
 20
6.408883589704687
 30
0.0
 11
-51.06384233574614
 21
-6.291116410295301
 31
0.0
  0
LINE
  5
F2
330
E3
100
AcDbEntity
  8
치수문자_일반주서
100
AcDbLine
 10
-51.06384233574614
 20
-6.291116410295301
 30
0.0
 11
-51.06384233574614
 21
-12.6411164102953
 31
0.0
  0
MTEXT
  5
F3
330
E3
100
AcDbEntity
  8
치수문자_일반주서
100
AcDbMText
 10
-60.81221097530845
 20
-4.466810940752632
 30
0.0
 40
3.5
 41
0.0
 71
     1
 72
     1
  1
0.50
  7
SLDTEXTSTYLE0
 11
-7.044195017643634E-15
 21
1.0
 31
0.0
 73
     1
 44
1.0
  0
MTEXT
  5
F4
330
E3
100
AcDbEntity
  8
치수문자_일반주서
100
AcDbMText
 10
-55.57557942494794
 20
-8.399085353116362
 30
0.0
 40
3.5
 41
0.0
 71
     1
 72
     1
  1
%%c
  7
SLDTEXTSTYLE0
 11
-7.044195017643634E-15
 21
1.0
 31
0.0
 73
     1
 44
1.0
  0
MTEXT
  5
F5
330
E3
100
AcDbEntity
  8
치수문자_일반주서
100
AcDbMText
 10
-55.57557942494797
 20
-3.120647954742283
 30
0.0
 40
3.5
 41
0.0
 71
     1
 72
     1
  1
12.70
  7
SLDTEXTSTYLE0
 11
-7.044195017643634E-15
 21
1.0
 31
0.0
 73
     1
 44
1.0
  0
ENDBLK
  5
E5
330
E3
100
AcDbEntity
  8
0
100
AcDbBlockEnd
  0
BLOCK
  5
FE
330
FD
100
AcDbEntity
  8
0
100
AcDbBlockBegin
  2
SW_DOWELSYMBOL_0
 70
     0
 10
0.0
 20
0.0
 30
0.0
  3
SW_DOWELSYMBOL_0
  1
SW_DOWELSYMBOL_0
  0
CIRCLE
  5
100
330
FD
100
AcDbEntity
  8
해칭선
 62
     0
100
AcDbCircle
 10
0.0
 20
0.0
 30
0.0
 40
3.0
  0
HATCH
  5
101
330
FD
100
AcDbEntity
  8
0
  6
Continuous
 62
     0
370
     0
100
AcDbHatch
 10
0.0
 20
0.0
 30
0.0
210
0.0
220
0.0
230
1.0
  2
SOLID
 70
     1
 71
     0
 91
        1
 92
        0
 93
        3
 72
     2
 10
0.0
 20
0.0
 40
3.0
 50
0.0
 51
90.0
 73
     1
 72
     1
 10
0.0
 20
3.0
 11
0.0
 21
0.0
 72
     1
 10
0.0
 20
0.0
 11
2.999999999999999
 21
0.0
 97
        0
 75
     0
 76
     1
 98
        1
 10
0.0
 20
0.0
  0
HATCH
  5
102
330
FD
100
AcDbEntity
  8
0
  6
Continuous
 62
     0
370
     0
100
AcDbHatch
 10
0.0
 20
0.0
 30
0.0
210
0.0
220
0.0
230
1.0
  2
SOLID
 70
     1
 71
     0
 91
        1
 92
        0
 93
        3
 72
     2
 10
0.0
 20
0.0
 40
3.0
 50
180.0
 51
270.0000000000008
 73
     1
 72
     1
 10
0.0
 20
-3.0
 11
0.0
 21
0.0
 72
     1
 10
0.0
 20
0.0
 11
-2.999999999999999
 21
0.0
 97
        0
 75
     0
 76
     1
 98
        1
 10
0.0
 20
0.0
  0
ENDBLK
  5
FF
330
FD
100
AcDbEntity
  8
0
100
AcDbBlockEnd
  0
BLOCK
  5
1D8
330
1D7
100
AcDbEntity
  8
0
100
AcDbBlockBegin
  2
*D9
 70
     1
 10
0.0
 20
0.0
 30
0.0
  3
*D9
  1
*D7
  0
LINE
  5
1D9
330
1D7
100
AcDbEntity
  8
치수문자_일반주서
 62
     0
370
    -2
100
AcDbLine
 10
127.8157728378272
 20
31.7645059375117
 30
0.0
 11
143.5375347277685
 21
31.7645059375117
 31
0.0
  0
LINE
  5
1DA
330
1D7
100
AcDbEntity
  8
치수문자_일반주서
 62
     0
370
    -2
100
AcDbLine
 10
127.8157728378272
 20
0.0145059375117
 30
0.0
 11
143.5375347277685
 21
0.0145059375117
 31
0.0
  0
LINE
  5
1DB
330
1D7
100
AcDbEntity
  8
치수문자_일반주서
 62
     0
370
    -2
100
AcDbLine
 10
143.5375347277685
 20
28.4625059375117
 30
0.0
 11
143.5375347277685
 21
3.3165059375117
 31
0.0
  0
SOLID
  5
1DC
330
1D7
100
AcDbEntity
  8
치수문자_일반주서
 62
     0
100
AcDbTrace
 10
144.0878680611018
 20
28.4625059375117
 30
0.0
 11
142.9872013944352
 21
28.4625059375117
 31
0.0
 12
143.5375347277685
 22
31.7645059375117
 32
0.0
 13
143.5375347277685
 23
31.7645059375117
 33
0.0
  0
SOLID
  5
1DD
330
1D7
100
AcDbEntity
  8
치수문자_일반주서
 62
     0
100
AcDbTrace
 10
142.9872013944352
 20
3.3165059375117
 30
0.0
 11
144.0878680611018
 21
3.3165059375117
 31
0.0
 12
143.5375347277685
 22
0.0145059375117
 32
0.0
 13
143.5375347277685
 23
0.0145059375117
 33
0.0
  0
MTEXT
  5
1DE
330
1D7
100
AcDbEntity
  8
치수문자_일반주서
 62
     0
100
AcDbMText
 10
140.9125347277685
 20
15.8895059375117
 30
0.0
 40
3.5
 41
0.0
 71
     5
 72
     1
  1
\A1;{%%C31.75 [1 1/4]}
  7
SLDTEXTSTYLE0
 11
0.0
 21
1.0
 31
0.0
 73
     1
 44
1.0
  0
POINT
  5
1DF
330
1D7
100
AcDbEntity
  8
Defpoints
 62
     0
100
AcDbPoint
 10
127.7532728378272
 20
31.7645059375117
 30
0.0
  0
POINT
  5
1E0
330
1D7
100
AcDbEntity
  8
Defpoints
 62
     0
100
AcDbPoint
 10
127.7532728378272
 20
0.0145059375117
 30
0.0
  0
POINT
  5
1E1
330
1D7
100
AcDbEntity
  8
Defpoints
 62
     0
100
AcDbPoint
 10
143.5375347277685
 20
0.0145059375116991
 30
0.0
  0
ENDBLK
  5
1E2
330
1D7
100
AcDbEntity
  8
0
100
AcDbBlockEnd
  0
BLOCK
  5
1ED
330
1EC
100
AcDbEntity
  8
0
100
AcDbBlockBegin
  2
*D10
 70
     1
 10
0.0
 20
0.0
 30
0.0
  3
*D10
  1
*D10
  0
LINE
  5
1EF
330
1EC
100
AcDbEntity
  8
치수문자_일반주서
 62
     0
370
    -2
100
AcDbLine
 10
127.7532728378272
 20
31.76862707802383
 30
0.0
 11
127.7532728378272
 21
44.88696496397263
 31
0.0
  0
LINE
  5
1F0
330
1EC
100
AcDbEntity
  8
치수문자_일반주서
 62
     0
370
    -2
100
AcDbLine
 10
76.95327283782723
 20
30.79545122398534
 30
0.0
 11
76.95327283782723
 21
44.88696496397263
 31
0.0
  0
LINE
  5
1F1
330
1EC
100
AcDbEntity
  8
치수문자_일반주서
 62
     0
370
    -2
100
AcDbLine
 10
124.4512728378272
 20
44.88696496397263
 30
0.0
 11
80.25527283782722
 21
44.88696496397263
 31
0.0
  0
SOLID
  5
1F2
330
1EC
100
AcDbEntity
  8
치수문자_일반주서
 62
     0
100
AcDbTrace
 10
124.4512728378272
 20
44.3366316306393
 30
0.0
 11
124.4512728378272
 21
45.43729829730596
 31
0.0
 12
127.7532728378272
 22
44.88696496397263
 32
0.0
 13
127.7532728378272
 23
44.88696496397263
 33
0.0
  0
SOLID
  5
1F3
330
1EC
100
AcDbEntity
  8
치수문자_일반주서
 62
     0
100
AcDbTrace
 10
80.25527283782722
 20
45.43729829730596
 30
0.0
 11
80.25527283782722
 21
44.3366316306393
 31
0.0
 12
76.95327283782723
 22
44.88696496397263
 32
0.0
 13
76.95327283782723
 23
44.88696496397263
 33
0.0
  0
MTEXT
  5
1F4
330
1EC
100
AcDbEntity
  8
치수문자_일반주서
 62
     0
100
AcDbMText
 10
102.3532728378272
 20
49.26196496397263
 30
0.0
 40
3.5
 41
0.0
 71
     2
 72
     1
  1
\A1;50.8 [2]
  7
SLDTEXTSTYLE0
 73
     1
 44
1.0
  0
POINT
  5
1F5
330
1EC
100
AcDbEntity
  8
Defpoints
 62
     0
100
AcDbPoint
 10
127.7532728378272
 20
31.70612707802383
 30
0.0
  0
POINT
  5
1F6
330
1EC
100
AcDbEntity
  8
Defpoints
 62
     0
100
AcDbPoint
 10
76.95327283782723
 20
30.73295122398534
 30
0.0
  0
POINT
  5
1F7
330
1EC
100
AcDbEntity
  8
Defpoints
 62
     0
100
AcDbPoint
 10
76.95327283782723
 20
44.88696496397263
 30
0.0
  0
ENDBLK
  5
1EE
330
1EC
100
AcDbEntity
  8
0
100
AcDbBlockEnd
  0
BLOCK
  5
1F9
330
1F8
100
AcDbEntity
  8
0
100
AcDbBlockBegin
  2
*D11
 70
     1
 10
0.0
 20
0.0
 30
0.0
  3
*D11
  1
*D11
  0
LINE
  5
1FB
330
1F8
100
AcDbEntity
  8
치수문자_일반주서
 62
     0
370
    -2
100
AcDbLine
 10
127.7532728378272
 20
31.76862707802383
 30
0.0
 11
127.7532728378272
 21
60.6081701617754
 31
0.0
  0
LINE
  5
1FC
330
1F8
100
AcDbEntity
  8
치수문자_일반주서
 62
     0
370
    -2
100
AcDbLine
 10
13.45327283782724
 20
28.65200593751169
 30
0.0
 11
13.45327283782724
 21
60.6081701617754
 31
0.0
  0
LINE
  5
1FD
330
1F8
100
AcDbEntity
  8
치수문자_일반주서
 62
     0
370
    -2
100
AcDbLine
 10
124.4512728378272
 20
60.6081701617754
 30
0.0
 11
16.75527283782723
 21
60.6081701617754
 31
0.0
  0
SOLID
  5
1FE
330
1F8
100
AcDbEntity
  8
치수문자_일반주서
 62
     0
100
AcDbTrace
 10
124.4512728378272
 20
60.05783682844207
 30
0.0
 11
124.4512728378272
 21
61.15850349510874
 31
0.0
 12
127.7532728378272
 22
60.6081701617754
 32
0.0
 13
127.7532728378272
 23
60.6081701617754
 33
0.0
  0
SOLID
  5
1FF
330
1F8
100
AcDbEntity
  8
치수문자_일반주서
 62
     0
100
AcDbTrace
 10
16.75527283782723
 20
61.15850349510874
 30
0.0
 11
16.75527283782723
 21
60.05783682844207
 31
0.0
 12
13.45327283782724
 22
60.6081701617754
 32
0.0
 13
13.45327283782724
 23
60.6081701617754
 33
0.0
  0
MTEXT
  5
200
330
1F8
100
AcDbEntity
  8
치수문자_일반주서
 62
     0
100
AcDbMText
 10
70.60327283782722
 20
64.9831701617754
 30
0.0
 40
3.5
 41
0.0
 71
     2
 72
     1
  1
\A1;114.3 [4 1/2]
  7
SLDTEXTSTYLE0
 73
     1
 44
1.0
  0
POINT
  5
201
330
1F8
100
AcDbEntity
  8
Defpoints
 62
     0
100
AcDbPoint
 10
127.7532728378272
 20
31.70612707802383
 30
0.0
  0
POINT
  5
202
330
1F8
100
AcDbEntity
  8
Defpoints
 62
     0
100
AcDbPoint
 10
13.45327283782724
 20
28.58950593751169
 30
0.0
  0
POINT
  5
203
330
1F8
100
AcDbEntity
  8
Defpoints
 62
     0
100
AcDbPoint
 10
13.45327283782724
 20
60.6081701617754
 30
0.0
  0
ENDBLK
  5
1FA
330
1F8
100
AcDbEntity
  8
0
100
AcDbBlockEnd
  0
BLOCK
  5
205
330
204
100
AcDbEntity
  8
0
100
AcDbBlockBegin
  2
*D12
 70
     1
 10
0.0
 20
0.0
 30
0.0
  3
*D12
  1
*D12
  0
LINE
  5
207
330
204
100
AcDbEntity
  8
치수문자_일반주서
 62
     0
370
    -2
100
AcDbLine
 10
16.56577283782725
 20
31.76450593751169
 30
0.0
 11
4.375000000000002
 21
31.76450593751164
 31
0.0
  0
LINE
  5
208
330
204
100
AcDbEntity
  8
치수문자_일반주서
 62
     0
370
    -2
100
AcDbLine
 10
16.56577283782725
 20
0.0145059375116891
 30
0.0
 11
4.375000000000113
 21
0.0145059375116432
 31
0.0
  0
LINE
  5
209
330
204
100
AcDbEntity
  8
치수문자_일반주서
 62
     0
370
    -2
100
AcDbLine
 10
4.375000000000013
 20
28.46250593751164
 30
0.0
 11
4.375000000000101
 21
3.316505937511643
 31
0.0
  0
SOLID
  5
20A
330
204
100
AcDbEntity
  8
치수문자_일반주서
 62
     0
100
AcDbTrace
 10
4.925333333333347
 20
28.46250593751165
 30
0.0
 11
3.82466666666668
 21
28.46250593751164
 31
0.0
 12
4.375000000000002
 22
31.76450593751164
 32
0.0
 13
4.375000000000002
 23
31.76450593751164
 33
0.0
  0
SOLID
  5
20B
330
204
100
AcDbEntity
  8
치수문자_일반주서
 62
     0
100
AcDbTrace
 10
3.824666666666768
 20
3.316505937511641
 30
0.0
 11
4.925333333333435
 21
3.316505937511645
 31
0.0
 12
4.375000000000113
 22
0.0145059375116432
 32
0.0
 13
4.375000000000113
 23
0.0145059375116432
 33
0.0
  0
MTEXT
  5
20C
330
204
100
AcDbEntity
  8
치수문자_일반주서
 62
     0
100
AcDbMText
 10
0.0000000000000568
 20
15.88950593751167
 30
0.0
 40
3.5
 41
0.0
 71
     2
 72
     1
  1
\A1;%%c31.75 [1 1/4]
  7
SLDTEXTSTYLE0
 11
-3.496765431890257E-15
 21
1.0
 31
0.0
 73
     1
 44
1.0
  0
POINT
  5
20D
330
204
100
AcDbEntity
  8
Defpoints
 62
     0
100
AcDbPoint
 10
16.62827283782725
 20
31.76450593751169
 30
0.0
  0
POINT
  5
20E
330
204
100
AcDbEntity
  8
Defpoints
 62
     0
100
AcDbPoint
 10
16.62827283782725
 20
0.0145059375116894
 30
0.0
  0
POINT
  5
20F
330
204
100
AcDbEntity
  8
Defpoints
 62
     0
100
AcDbPoint
 10
4.375000000000107
 20
0.0145059375116436
 30
0.0
  0
ENDBLK
  5
206
330
204
100
AcDbEntity
  8
0
100
AcDbBlockEnd
  0
BLOCK
  5
28F
330
28E
100
AcDbEntity
  8
0
100
AcDbBlockBegin
  2
*D14
 70
     1
 10
0.0
 20
0.0
 30
0.0
  3
*D14
  1
*D7
  0
LINE
  5
290
330
28E
100
AcDbEntity
  8
치수문자_일반주서
 62
     0
370
    -2
100
AcDbLine
 10
127.8157728378272
 20
31.7645059375117
 30
0.0
 11
143.5375347277685
 21
31.7645059375117
 31
0.0
  0
LINE
  5
291
330
28E
100
AcDbEntity
  8
치수문자_일반주서
 62
     0
370
    -2
100
AcDbLine
 10
127.8157728378272
 20
0.0145059375117
 30
0.0
 11
143.5375347277685
 21
0.0145059375117
 31
0.0
  0
LINE
  5
292
330
28E
100
AcDbEntity
  8
치수문자_일반주서
 62
     0
370
    -2
100
AcDbLine
 10
143.5375347277685
 20
28.4625059375117
 30
0.0
 11
143.5375347277685
 21
3.3165059375117
 31
0.0
  0
SOLID
  5
293
330
28E
100
AcDbEntity
  8
치수문자_일반주서
 62
     0
100
AcDbTrace
 10
144.0878680611018
 20
28.4625059375117
 30
0.0
 11
142.9872013944352
 21
28.4625059375117
 31
0.0
 12
143.5375347277685
 22
31.7645059375117
 32
0.0
 13
143.5375347277685
 23
31.7645059375117
 33
0.0
  0
SOLID
  5
294
330
28E
100
AcDbEntity
  8
치수문자_일반주서
 62
     0
100
AcDbTrace
 10
142.9872013944352
 20
3.3165059375117
 30
0.0
 11
144.0878680611018
 21
3.3165059375117
 31
0.0
 12
143.5375347277685
 22
0.0145059375117
 32
0.0
 13
143.5375347277685
 23
0.0145059375117
 33
0.0
  0
MTEXT
  5
295
330
28E
100
AcDbEntity
  8
치수문자_일반주서
 62
     0
100
AcDbMText
 10
140.9125347277685
 20
15.8895059375117
 30
0.0
 40
3.5
 41
0.0
 71
     5
 72
     1
  1
\A1;{%%C31.75 [1 1/4]}
  7
SLDTEXTSTYLE0
 11
0.0
 21
1.0
 31
0.0
 73
     1
 44
1.0
  0
POINT
  5
296
330
28E
100
AcDbEntity
  8
Defpoints
 62
     0
100
AcDbPoint
 10
127.7532728378272
 20
31.7645059375117
 30
0.0
  0
POINT
  5
297
330
28E
100
AcDbEntity
  8
Defpoints
 62
     0
100
AcDbPoint
 10
127.7532728378272
 20
0.0145059375117
 30
0.0
  0
POINT
  5
298
330
28E
100
AcDbEntity
  8
Defpoints
 62
     0
100
AcDbPoint
 10
143.5375347277685
 20
0.0145059375116991
 30
0.0
  0
ENDBLK
  5
299
330
28E
100
AcDbEntity
  8
0
100
AcDbBlockEnd
  0
BLOCK
  5
2A4
330
2A3
100
AcDbEntity
  8
0
100
AcDbBlockBegin
  2
*D15
 70
     1
 10
0.0
 20
0.0
 30
0.0
  3
*D15
  1
*D15
  0
LINE
  5
2A6
330
2A3
100
AcDbEntity
  8
치수문자_일반주서
 62
     0
370
    -2
100
AcDbLine
 10
127.7532728378272
 20
31.76862707802383
 30
0.0
 11
127.7532728378272
 21
44.88696496397263
 31
0.0
  0
LINE
  5
2A7
330
2A3
100
AcDbEntity
  8
치수문자_일반주서
 62
     0
370
    -2
100
AcDbLine
 10
76.95327283782723
 20
30.79545122398534
 30
0.0
 11
76.95327283782723
 21
44.88696496397263
 31
0.0
  0
LINE
  5
2A8
330
2A3
100
AcDbEntity
  8
치수문자_일반주서
 62
     0
370
    -2
100
AcDbLine
 10
124.4512728378272
 20
44.88696496397263
 30
0.0
 11
80.25527283782722
 21
44.88696496397263
 31
0.0
  0
SOLID
  5
2A9
330
2A3
100
AcDbEntity
  8
치수문자_일반주서
 62
     0
100
AcDbTrace
 10
124.4512728378272
 20
44.3366316306393
 30
0.0
 11
124.4512728378272
 21
45.43729829730596
 31
0.0
 12
127.7532728378272
 22
44.88696496397263
 32
0.0
 13
127.7532728378272
 23
44.88696496397263
 33
0.0
  0
SOLID
  5
2AA
330
2A3
100
AcDbEntity
  8
치수문자_일반주서
 62
     0
100
AcDbTrace
 10
80.25527283782722
 20
45.43729829730596
 30
0.0
 11
80.25527283782722
 21
44.3366316306393
 31
0.0
 12
76.95327283782723
 22
44.88696496397263
 32
0.0
 13
76.95327283782723
 23
44.88696496397263
 33
0.0
  0
MTEXT
  5
2AB
330
2A3
100
AcDbEntity
  8
치수문자_일반주서
 62
     0
100
AcDbMText
 10
102.3532728378272
 20
49.26196496397263
 30
0.0
 40
3.5
 41
0.0
 71
     2
 72
     1
  1
\A1;50.8 [2]
  7
SLDTEXTSTYLE0
 73
     1
 44
1.0
  0
POINT
  5
2AC
330
2A3
100
AcDbEntity
  8
Defpoints
 62
     0
100
AcDbPoint
 10
127.7532728378272
 20
31.70612707802383
 30
0.0
  0
POINT
  5
2AD
330
2A3
100
AcDbEntity
  8
Defpoints
 62
     0
100
AcDbPoint
 10
76.95327283782723
 20
30.73295122398534
 30
0.0
  0
POINT
  5
2AE
330
2A3
100
AcDbEntity
  8
Defpoints
 62
     0
100
AcDbPoint
 10
76.95327283782723
 20
44.88696496397263
 30
0.0
  0
ENDBLK
  5
2A5
330
2A3
100
AcDbEntity
  8
0
100
AcDbBlockEnd
  0
BLOCK
  5
2B0
330
2AF
100
AcDbEntity
  8
0
100
AcDbBlockBegin
  2
*D16
 70
     1
 10
0.0
 20
0.0
 30
0.0
  3
*D16
  1
*D16
  0
LINE
  5
2B2
330
2AF
100
AcDbEntity
  8
치수문자_일반주서
 62
     0
370
    -2
100
AcDbLine
 10
127.7532728378272
 20
31.76862707802383
 30
0.0
 11
127.7532728378272
 21
60.6081701617754
 31
0.0
  0
LINE
  5
2B3
330
2AF
100
AcDbEntity
  8
치수문자_일반주서
 62
     0
370
    -2
100
AcDbLine
 10
13.45327283782724
 20
28.65200593751169
 30
0.0
 11
13.45327283782724
 21
60.6081701617754
 31
0.0
  0
LINE
  5
2B4
330
2AF
100
AcDbEntity
  8
치수문자_일반주서
 62
     0
370
    -2
100
AcDbLine
 10
124.4512728378272
 20
60.6081701617754
 30
0.0
 11
16.75527283782723
 21
60.6081701617754
 31
0.0
  0
SOLID
  5
2B5
330
2AF
100
AcDbEntity
  8
치수문자_일반주서
 62
     0
100
AcDbTrace
 10
124.4512728378272
 20
60.05783682844207
 30
0.0
 11
124.4512728378272
 21
61.15850349510874
 31
0.0
 12
127.7532728378272
 22
60.6081701617754
 32
0.0
 13
127.7532728378272
 23
60.6081701617754
 33
0.0
  0
SOLID
  5
2B6
330
2AF
100
AcDbEntity
  8
치수문자_일반주서
 62
     0
100
AcDbTrace
 10
16.75527283782723
 20
61.15850349510874
 30
0.0
 11
16.75527283782723
 21
60.05783682844207
 31
0.0
 12
13.45327283782724
 22
60.6081701617754
 32
0.0
 13
13.45327283782724
 23
60.6081701617754
 33
0.0
  0
MTEXT
  5
2B7
330
2AF
100
AcDbEntity
  8
치수문자_일반주서
 62
     0
100
AcDbMText
 10
70.60327283782722
 20
64.9831701617754
 30
0.0
 40
3.5
 41
0.0
 71
     2
 72
     1
  1
\A1;114.3 [4 1/2]
  7
SLDTEXTSTYLE0
 73
     1
 44
1.0
  0
POINT
  5
2B8
330
2AF
100
AcDbEntity
  8
Defpoints
 62
     0
100
AcDbPoint
 10
127.7532728378272
 20
31.70612707802383
 30
0.0
  0
POINT
  5
2B9
330
2AF
100
AcDbEntity
  8
Defpoints
 62
     0
100
AcDbPoint
 10
13.45327283782724
 20
28.58950593751169
 30
0.0
  0
POINT
  5
2BA
330
2AF
100
AcDbEntity
  8
Defpoints
 62
     0
100
AcDbPoint
 10
13.45327283782724
 20
60.6081701617754
 30
0.0
  0
ENDBLK
  5
2B1
330
2AF
100
AcDbEntity
  8
0
100
AcDbBlockEnd
  0
BLOCK
  5
2BC
330
2BB
100
AcDbEntity
  8
0
100
AcDbBlockBegin
  2
*D17
 70
     1
 10
0.0
 20
0.0
 30
0.0
  3
*D17
  1
*D17
  0
LINE
  5
2BE
330
2BB
100
AcDbEntity
  8
치수문자_일반주서
 62
     0
370
    -2
100
AcDbLine
 10
16.56577283782725
 20
31.76450593751169
 30
0.0
 11
4.375000000000002
 21
31.76450593751164
 31
0.0
  0
LINE
  5
2BF
330
2BB
100
AcDbEntity
  8
치수문자_일반주서
 62
     0
370
    -2
100
AcDbLine
 10
16.56577283782725
 20
0.0145059375116891
 30
0.0
 11
4.375000000000113
 21
0.0145059375116432
 31
0.0
  0
LINE
  5
2C0
330
2BB
100
AcDbEntity
  8
치수문자_일반주서
 62
     0
370
    -2
100
AcDbLine
 10
4.375000000000013
 20
28.46250593751164
 30
0.0
 11
4.375000000000101
 21
3.316505937511643
 31
0.0
  0
SOLID
  5
2C1
330
2BB
100
AcDbEntity
  8
치수문자_일반주서
 62
     0
100
AcDbTrace
 10
4.925333333333347
 20
28.46250593751165
 30
0.0
 11
3.82466666666668
 21
28.46250593751164
 31
0.0
 12
4.375000000000002
 22
31.76450593751164
 32
0.0
 13
4.375000000000002
 23
31.76450593751164
 33
0.0
  0
SOLID
  5
2C2
330
2BB
100
AcDbEntity
  8
치수문자_일반주서
 62
     0
100
AcDbTrace
 10
3.824666666666768
 20
3.316505937511641
 30
0.0
 11
4.925333333333435
 21
3.316505937511645
 31
0.0
 12
4.375000000000113
 22
0.0145059375116432
 32
0.0
 13
4.375000000000113
 23
0.0145059375116432
 33
0.0
  0
MTEXT
  5
2C3
330
2BB
100
AcDbEntity
  8
치수문자_일반주서
 62
     0
100
AcDbMText
 10
0.0000000000000568
 20
15.88950593751167
 30
0.0
 40
3.5
 41
0.0
 71
     2
 72
     1
  1
\A1;%%c31.75 [1 1/4]
  7
SLDTEXTSTYLE0
 11
-3.496765431890257E-15
 21
1.0
 31
0.0
 73
     1
 44
1.0
  0
POINT
  5
2C4
330
2BB
100
AcDbEntity
  8
Defpoints
 62
     0
100
AcDbPoint
 10
16.62827283782725
 20
31.76450593751169
 30
0.0
  0
POINT
  5
2C5
330
2BB
100
AcDbEntity
  8
Defpoints
 62
     0
100
AcDbPoint
 10
16.62827283782725
 20
0.0145059375116894
 30
0.0
  0
POINT
  5
2C6
330
2BB
100
AcDbEntity
  8
Defpoints
 62
     0
100
AcDbPoint
 10
4.375000000000107
 20
0.0145059375116436
 30
0.0
  0
ENDBLK
  5
2BD
330
2BB
100
AcDbEntity
  8
0
100
AcDbBlockEnd
  0
BLOCK
  5
2FA
330
2F9
100
AcDbEntity
  8
0
100
AcDbBlockBegin
  2
*D18
 70
     1
 10
0.0
 20
0.0
 30
0.0
  3
*D18
  1
*D18
  0
LINE
  5
2FC
330
2F9
100
AcDbEntity
  8
치수문자_일반주서
 62
     0
370
    -2
100
AcDbLine
 10
55.97499999999999
 20
15.87912114051213
 30
0.0
 11
55.97499999999999
 21
28.99745902646093
 31
0.0
  0
LINE
  5
2FD
330
2F9
100
AcDbEntity
  8
치수문자_일반주서
 62
     0
370
    -2
100
AcDbLine
 10
5.175000000000002
 20
14.90594528647364
 30
0.0
 11
5.175000000000004
 21
28.99745902646093
 31
0.0
  0
LINE
  5
2FE
330
2F9
100
AcDbEntity
  8
치수문자_일반주서
 62
     0
370
    -2
100
AcDbLine
 10
52.67299999999999
 20
28.99745902646093
 30
0.0
 11
8.477000000000004
 21
28.99745902646093
 31
0.0
  0
SOLID
  5
2FF
330
2F9
100
AcDbEntity
  8
치수문자_일반주서
 62
     0
100
AcDbTrace
 10
52.67299999999999
 20
28.4471256931276
 30
0.0
 11
52.67299999999999
 21
29.54779235979427
 31
0.0
 12
55.97499999999999
 22
28.99745902646093
 32
0.0
 13
55.97499999999999
 23
28.99745902646093
 33
0.0
  0
SOLID
  5
300
330
2F9
100
AcDbEntity
  8
치수문자_일반주서
 62
     0
100
AcDbTrace
 10
8.477000000000004
 20
29.54779235979427
 30
0.0
 11
8.477000000000004
 21
28.4471256931276
 31
0.0
 12
5.175000000000004
 22
28.99745902646093
 32
0.0
 13
5.175000000000004
 23
28.99745902646093
 33
0.0
  0
MTEXT
  5
301
330
2F9
100
AcDbEntity
  8
치수문자_일반주서
 62
     0
100
AcDbMText
 10
30.57499999999998
 20
33.37245902646093
 30
0.0
 40
3.5
 41
0.0
 71
     2
 72
     1
  1
\A1;50.8 [2]
  7
SLDTEXTSTYLE0
 73
     1
 44
1.0
  0
POINT
  5
302
330
2F9
100
AcDbEntity
  8
Defpoints
 62
     0
100
AcDbPoint
 10
55.97499999999999
 20
15.81662114051213
 30
0.0
  0
POINT
  5
303
330
2F9
100
AcDbEntity
  8
Defpoints
 62
     0
100
AcDbPoint
 10
5.175000000000002
 20
14.84344528647364
 30
0.0
  0
POINT
  5
304
330
2F9
100
AcDbEntity
  8
Defpoints
 62
     0
100
AcDbPoint
 10
5.175000000000002
 20
28.99745902646093
 30
0.0
  0
ENDBLK
  5
2FB
330
2F9
100
AcDbEntity
  8
0
100
AcDbBlockEnd
  0
BLOCK
  5
306
330
305
100
AcDbEntity
  8
0
100
AcDbBlockBegin
  2
*D19
 70
     1
 10
0.0
 20
0.0
 30
0.0
  3
*D19
  1
*D19
  0
LINE
  5
308
330
305
100
AcDbEntity
  8
치수문자_일반주서
 62
     0
370
    -2
100
AcDbLine
 10
55.97499999999999
 20
15.87912114051213
 30
0.0
 11
55.97499999999999
 21
44.71866422426371
 31
0.0
  0
LINE
  5
309
330
305
100
AcDbEntity
  8
치수문자_일반주서
 62
     0
370
    -2
100
AcDbLine
 10
-58.32499999999999
 20
12.76249999999999
 30
0.0
 11
-58.32499999999998
 21
44.71866422426371
 31
0.0
  0
LINE
  5
30A
330
305
100
AcDbEntity
  8
치수문자_일반주서
 62
     0
370
    -2
100
AcDbLine
 10
52.67299999999999
 20
44.71866422426371
 30
0.0
 11
-55.02299999999998
 21
44.71866422426371
 31
0.0
  0
SOLID
  5
30B
330
305
100
AcDbEntity
  8
치수문자_일반주서
 62
     0
100
AcDbTrace
 10
52.67299999999999
 20
44.16833089093038
 30
0.0
 11
52.67299999999999
 21
45.26899755759705
 31
0.0
 12
55.97499999999999
 22
44.71866422426371
 32
0.0
 13
55.97499999999999
 23
44.71866422426371
 33
0.0
  0
SOLID
  5
30C
330
305
100
AcDbEntity
  8
치수문자_일반주서
 62
     0
100
AcDbTrace
 10
-55.02299999999998
 20
45.26899755759705
 30
0.0
 11
-55.02299999999998
 21
44.16833089093038
 31
0.0
 12
-58.32499999999998
 22
44.71866422426371
 32
0.0
 13
-58.32499999999998
 23
44.71866422426371
 33
0.0
  0
MTEXT
  5
30D
330
305
100
AcDbEntity
  8
치수문자_일반주서
 62
     0
100
AcDbMText
 10
-1.175000000000006
 20
49.09366422426371
 30
0.0
 40
3.5
 41
0.0
 71
     2
 72
     1
  1
\A1;114.3 [4 1/2]
  7
SLDTEXTSTYLE0
 73
     1
 44
1.0
  0
POINT
  5
30E
330
305
100
AcDbEntity
  8
Defpoints
 62
     0
100
AcDbPoint
 10
55.97499999999999
 20
15.81662114051213
 30
0.0
  0
POINT
  5
30F
330
305
100
AcDbEntity
  8
Defpoints
 62
     0
100
AcDbPoint
 10
-58.32499999999999
 20
12.69999999999999
 30
0.0
  0
POINT
  5
310
330
305
100
AcDbEntity
  8
Defpoints
 62
     0
100
AcDbPoint
 10
-58.32499999999999
 20
44.71866422426371
 30
0.0
  0
ENDBLK
  5
307
330
305
100
AcDbEntity
  8
0
100
AcDbBlockEnd
  0
BLOCK
  5
312
330
311
100
AcDbEntity
  8
0
100
AcDbBlockBegin
  2
*D20
 70
     1
 10
0.0
 20
0.0
 30
0.0
  3
*D20
  1
*D20
  0
LINE
  5
314
330
311
100
AcDbEntity
  8
치수문자_일반주서
 62
     0
370
    -2
100
AcDbLine
 10
-55.21249999999998
 20
15.87499999999999
 30
0.0
 11
-67.40327283782723
 21
15.87499999999995
 31
0.0
  0
LINE
  5
315
330
311
100
AcDbEntity
  8
치수문자_일반주서
 62
     0
370
    -2
100
AcDbLine
 10
-55.21249999999998
 20
-15.87500000000001
 30
0.0
 11
-67.40327283782712
 21
-15.87500000000005
 31
0.0
  0
LINE
  5
316
330
311
100
AcDbEntity
  8
치수문자_일반주서
 62
     0
370
    -2
100
AcDbLine
 10
-67.40327283782722
 20
12.57299999999995
 30
0.0
 11
-67.40327283782713
 21
-12.57300000000005
 31
0.0
  0
SOLID
  5
317
330
311
100
AcDbEntity
  8
치수문자_일반주서
 62
     0
100
AcDbTrace
 10
-66.85293950449389
 20
12.57299999999995
 30
0.0
 11
-67.95360617116054
 21
12.57299999999995
 31
0.0
 12
-67.40327283782723
 22
15.87499999999995
 32
0.0
 13
-67.40327283782723
 23
15.87499999999995
 33
0.0
  0
SOLID
  5
318
330
311
100
AcDbEntity
  8
치수문자_일반주서
 62
     0
100
AcDbTrace
 10
-67.95360617116046
 20
-12.57300000000006
 30
0.0
 11
-66.8529395044938
 21
-12.57300000000005
 31
0.0
 12
-67.40327283782712
 22
-15.87500000000005
 32
0.0
 13
-67.40327283782712
 23
-15.87500000000005
 33
0.0
  0
MTEXT
  5
319
330
311
100
AcDbEntity
  8
치수문자_일반주서
 62
     0
100
AcDbMText
 10
-71.77827283782717
 20
-0.0000000000000262
 30
0.0
 40
3.5
 41
0.0
 71
     2
 72
     1
  1
\A1;%%c31.75 [1 1/4]
  7
SLDTEXTSTYLE0
 11
-3.580687802255623E-15
 21
1.0
 31
0.0
 73
     1
 44
1.0
  0
POINT
  5
31A
330
311
100
AcDbEntity
  8
Defpoints
 62
     0
100
AcDbPoint
 10
-55.14999999999998
 20
15.87499999999999
 30
0.0
  0
POINT
  5
31B
330
311
100
AcDbEntity
  8
Defpoints
 62
     0
100
AcDbPoint
 10
-55.14999999999998
 20
-15.87500000000001
 30
0.0
  0
POINT
  5
31C
330
311
100
AcDbEntity
  8
Defpoints
 62
     0
100
AcDbPoint
 10
-67.40327283782712
 20
-15.87500000000005
 30
0.0
  0
ENDBLK
  5
313
330
311
100
AcDbEntity
  8
0
100
AcDbBlockEnd
  0
BLOCK
  5
31E
330
31D
100
AcDbEntity
  8
0
100
AcDbBlockBegin
  2
*D21
 70
     1
 10
0.0
 20
0.0
 30
0.0
  3
*D21
  1
*D21
  0
LINE
  5
320
330
31D
100
AcDbEntity
  8
치수문자_일반주서
 62
     0
370
    -2
100
AcDbLine
 10
56.03749999999999
 20
19.05
 30
0.0
 11
73.73681525938869
 21
19.05
 31
0.0
  0
LINE
  5
321
330
31D
100
AcDbEntity
  8
치수문자_일반주서
 62
     0
370
    -2
100
AcDbLine
 10
56.03749999999999
 20
-19.05
 30
0.0
 11
73.73681525938869
 21
-19.05
 31
0.0
  0
LINE
  5
322
330
31D
100
AcDbEntity
  8
치수문자_일반주서
 62
     0
370
    -2
100
AcDbLine
 10
73.73681525938869
 20
15.748
 30
0.0
 11
73.73681525938869
 21
-15.748
 31
0.0
  0
SOLID
  5
323
330
31D
100
AcDbEntity
  8
치수문자_일반주서
 62
     0
100
AcDbTrace
 10
74.28714859272202
 20
15.748
 30
0.0
 11
73.18648192605536
 21
15.748
 31
0.0
 12
73.73681525938869
 22
19.05
 32
0.0
 13
73.73681525938869
 23
19.05
 33
0.0
  0
SOLID
  5
324
330
31D
100
AcDbEntity
  8
치수문자_일반주서
 62
     0
100
AcDbTrace
 10
73.18648192605536
 20
-15.748
 30
0.0
 11
74.28714859272202
 21
-15.748
 31
0.0
 12
73.73681525938869
 22
-19.05
 32
0.0
 13
73.73681525938869
 23
-19.05
 33
0.0
  0
MTEXT
  5
325
330
31D
100
AcDbEntity
  8
치수문자_일반주서
 62
     0
100
AcDbMText
 10
71.11181525938869
 20
0.5120562484850737
 30
0.0
 40
3.5
 41
0.0
 71
     5
 72
     1
  1
\A1;{%%C38.1 [1 1/2]}
  7
SLDTEXTSTYLE0
 11
0.0
 21
1.0
 31
0.0
 73
     1
 44
1.0
  0
POINT
  5
326
330
31D
100
AcDbEntity
  8
Defpoints
 62
     0
100
AcDbPoint
 10
55.97499999999999
 20
19.05
 30
0.0
  0
POINT
  5
327
330
31D
100
AcDbEntity
  8
Defpoints
 62
     0
100
AcDbPoint
 10
55.97499999999999
 20
-19.05
 30
0.0
  0
POINT
  5
328
330
31D
100
AcDbEntity
  8
Defpoints
 62
     0
100
AcDbPoint
 10
73.73681525938869
 20
-19.05
 30
0.0
  0
ENDBLK
  5
31F
330
31D
100
AcDbEntity
  8
0
100
AcDbBlockEnd
  0
ENDSEC
  0
SECTION
  2
ENTITIES
  0
LINE
  5
9D
330
1F
100
AcDbEntity
  8
참조1
100
AcDbLine
 10
0.0374076642538768
 20
0.0010749287238821
 30
0.0
 11
0.0374076642538821
 21
-39.99892507127612
 31
0.0
  0
LINE
  5
9E
330
1F
100
AcDbEntity
  8
참조1
100
AcDbLine
 10
0.0374076642538821
 20
-39.99892507127612
 30
0.0
 11
-26.2339491500548
 21
-39.99892507127611
 31
0.0
  0
INSERT
  5
A0
330
1F
100
AcDbEntity
  8
0
  6
Continuous
 62
     7
100
AcDbBlockReference
 66
     1
  2
블럭10
 10
-13.90286526787133
 20
-52.04609937292005
 30
0.0
  0
ATTRIB
  5
A1
330
A0
100
AcDbEntity
  8
FORMAT
 62
     2
100
AcDbText
 10
-23.08416055661261
 20
-49.97073246008786
 30
0.0
 40
4.233333333333333
  1
E2039132 [ 4 FLUTE ]
 41
0.75
  7
SLDTEXTSTYLE0
 11
-23.08416055661261
 21
-52.08739912675453
 31
0.0
100
AcDbAttribute
  2
AUTOATTR0
 70
     0
 74
     1
  0
SEQEND
  5
A2
330
A0
100
AcDbEntity
  8
0
  6
Continuous
 62
     7
  0
HATCH
  5
A3
330
1F
100
AcDbEntity
  8
중심선
100
AcDbHatch
 10
0.0
 20
0.0
 30
0.0
210
0.0
220
0.0
230
1.0
  2
SOLID
 70
     1
 71
     0
 91
        1
 92
        0
 93
        4
 72
     1
 10
-8.187955963490493
 20
-35.79892507127611
 11
-11.63423120732778
 21
-35.79892507127611
 72
     1
 10
-11.63423120732778
 20
-35.79892507127611
 11
-13.7624610665318
 21
-38.33525065184871
 72
     1
 10
-13.7624610665318
 20
-38.33525065184871
 11
-10.31615273758137
 21
-38.33521122254622
 72
     1
 10
-10.31615273758137
 20
-38.33521122254622
 11
-8.187955963490491
 21
-35.79892507127611
 97
        0
 75
     0
 76
     1
 98
        1
 10
-6.825000000000012
 20
-0.0000000000000071
  0
HATCH
  5
A4
330
1F
100
AcDbEntity
  8
중심선
100
AcDbHatch
 10
0.0
 20
0.0
 30
0.0
210
0.0
220
0.0
230
1.0
  2
SOLID
 70
     1
 71
     0
 91
        1
 92
        0
 93
        4
 72
     1
 10
-3.175191972454514
 20
-35.79892507127611
 11
-6.621467216291796
 21
-35.79892507127611
 72
     1
 10
-6.621467216291796
 20
-35.79892507127611
 11
-11.15260522464921
 21
-41.19892507127613
 72
     1
 10
-11.15260522464921
 20
-41.19892507127613
 11
-7.70632998081193
 21
-41.19892507127613
 72
     1
 10
-7.70632998081193
 20
-41.19892507127613
 11
-3.175191972454513
 21
-35.79892507127611
 97
        0
 75
     0
 76
     1
 98
        1
 10
-6.825000000000012
 20
-0.0000000000000071
  0
HATCH
  5
A5
330
1F
100
AcDbEntity
  8
중심선
100
AcDbHatch
 10
0.0
 20
0.0
 30
0.0
210
0.0
220
0.0
230
1.0
  2
SOLID
 70
     1
 71
     0
 91
        1
 92
        0
 93
        4
 72
     1
 10
1.83757201858141
 20
-35.79892507127609
 11
-1.608703225255734
 21
-35.79892507127611
 72
     1
 10
-1.608703225255734
 20
-35.79892507127611
 11
-8.657140127145011
 21
-44.19892507127613
 72
     1
 10
-8.657140127145011
 20
-44.19892507127613
 11
-5.210864883307728
 21
-44.19892507127613
 72
     1
 10
-5.210864883307728
 20
-44.19892507127613
 11
1.83757201858141
 21
-35.79892507127609
 97
        0
 75
     0
 76
     1
 98
        1
 10
-6.825000000000012
 20
-0.0000000000000071
  0
HATCH
  5
A6
330
1F
100
AcDbEntity
  8
중심선
100
AcDbHatch
 10
0.0
 20
0.0
 30
0.0
210
0.0
220
0.0
230
1.0
  2
SOLID
 70
     1
 71
     0
 91
        1
 92
        0
 93
        6
 72
     3
 10
6.637462449593553
 20
-39.99892507132738
 11
3.960054785062285
 21
1.540882976769353E-10
 40
0.3939339440162626
 50
17.09539180608436
 51
320.0019657685081
 73
     0
 72
     1
 10
8.32046210529415
 20
-38.58681907591441
 11
10.62576397899521
 21
-36.65249236586646
 72
     3
 10
6.637462449540706
 20
-39.99892507127626
 11
6.600054785286828
 21
-1.278976924368180E-13
 40
0.6363583540795982
 50
39.99873849337411
 51
368.4976242363725
 73
     1
 72
     1
 10
13.06279494144132
 20
-39.03892507120614
 11
5.317529756376629
 21
-39.03892507120614
 72
     1
 10
5.317529756376629
 20
-39.03892507120614
 11
5.317504711930695
 21
-40.95892507120602
 72
     1
 10
5.317504711930695
 20
-40.95892507120602
 11
9.758884481402733
 21
-40.958925071206
 97
        0
 75
     0
 76
     1
 98
        1
 10
-6.825000000000012
 20
-0.0000000000000071
  0
LINE
  5
F6
330
1F
100
AcDbEntity
  8
참조1
100
AcDbLine
 10
71.73839147959947
 20
7.441074928723888
 30
0.0
 11
71.73839147959947
 21
-7.438925071276116
 31
0.0
  0
LINE
  5
F7
330
1F
100
AcDbEntity
  8
참조1
100
AcDbLine
 10
84.43839147959947
 20
5.441074928723888
 30
0.0
 11
71.73839147959947
 21
5.441074928723888
 31
0.0
  0
SOLID
  5
F8
330
1F
100
AcDbEntity
  8
참조1
100
AcDbTrace
 10
71.73839147959947
 20
5.441074928723888
 30
0.0
 11
78.08839147959947
 21
4.425074928723888
 31
0.0
 12
78.08839147959947
 22
6.457074928723888
 32
0.0
 13
78.08839147959947
 23
6.457074928723888
 33
0.0
  0
LINE
  5
F9
330
1F
100
AcDbEntity
  8
참조1
100
AcDbLine
 10
84.43839147959947
 20
-5.438925071276116
 30
0.0
 11
71.73839147959947
 21
-5.438925071276116
 31
0.0
  0
SOLID
  5
FA
330
1F
100
AcDbEntity
  8
참조1
100
AcDbTrace
 10
71.73839147959947
 20
-5.438925071276116
 30
0.0
 11
78.08839147959947
 21
-6.454925071276116
 31
0.0
 12
78.08839147959947
 22
-4.422925071276116
 32
0.0
 13
78.08839147959947
 23
-4.422925071276116
 33
0.0
  0
MTEXT
  5
FB
330
1F
100
AcDbEntity
  8
참조1
100
AcDbMText
 10
81.12274161222545
 20
11.01136670591221
 30
0.0
 40
3.5
 41
0.0
 71
     1
 72
     1
  1
A
  7
SLDTEXTSTYLE0
 73
     1
 44
1.0
  0
MTEXT
  5
FC
330
1F
100
AcDbEntity
  8
참조1
100
AcDbMText
 10
81.12274161222545
 20
0.1313667059122121
 30
0.0
 40
3.5
 41
0.0
 71
     1
 72
     1
  1
A
  7
SLDTEXTSTYLE0
 73
     1
 44
1.0
  0
LINE
  5
2C8
330
1F
100
AcDbEntity
  8
외형선
  6
Continuous
370
    15
100
AcDbLine
 10
-55.14999999999999
 20
-15.87500000000001
 30
0.0
 11
1.999999999999991
 21
-15.87500000000001
 31
0.0
  0
LINE
  5
2C9
330
1F
100
AcDbEntity
  8
외형선
  6
Continuous
370
    15
100
AcDbLine
 10
1.999999999999986
 20
15.87499999999999
 30
0.0
 11
-20.41232499999997
 21
15.87499999999999
 31
0.0
  0
LINE
  5
2CA
330
1F
100
AcDbEntity
  8
외형선
  6
Continuous
370
    15
100
AcDbLine
 10
-58.32499999999999
 20
-12.70000000000002
 30
0.0
 11
-55.14999999999999
 21
-15.87500000000001
 31
0.0
  0
LINE
  5
2CB
330
1F
100
AcDbEntity
  8
외형선
  6
Continuous
 62
     1
370
    15
100
AcDbLine
 10
18.59075676416235
 20
19.04999999999999
 30
0.0
 11
6.977571657247323
 21
19.04999999999999
 31
0.0
  0
LINE
  5
2CC
330
1F
100
AcDbEntity
  8
외형선
  6
Continuous
 62
     1
370
    15
100
AcDbLine
 10
6.977571657247049
 20
-19.05000000000002
 30
0.0
 11
18.5907567641624
 21
-19.05000000000002
 31
0.0
  0
LINE
  5
2D7
330
1F
100
AcDbEntity
  8
외형선
  6
Continuous
370
    15
100
AcDbLine
 10
-55.14999999999999
 20
-0.0000000000000107
 30
0.0
 11
-55.14999999999999
 21
13.48739999999999
 31
0.0
  0
LINE
  5
2D8
330
1F
100
AcDbEntity
  8
외형선
  6
Continuous
370
    15
100
AcDbLine
 10
-55.14999999999999
 20
-15.87500000000001
 30
0.0
 11
-55.14999999999999
 21
-0.0000000000000107
 31
0.0
  0
LINE
  5
2D9
330
1F
100
AcDbEntity
  8
외형선
  6
Continuous
370
    15
100
AcDbLine
 10
-58.32499999999999
 20
-0.0000000000000107
 30
0.0
 11
-58.32499999999999
 21
13.48739999999999
 31
0.0
  0
LINE
  5
2DA
330
1F
100
AcDbEntity
  8
외형선
  6
Continuous
370
    15
100
AcDbLine
 10
-58.32499999999999
 20
-12.70000000000002
 30
0.0
 11
-58.32499999999999
 21
-0.0000000000000107
 31
0.0
  0
SPLINE
  5
2DF
330
1F
100
AcDbEntity
  8
외형선
  6
Continuous
 62
     1
370
    15
100
AcDbSpline
210
0.0
220
0.0
230
1.0
 70
     8
 71
     3
 72
    46
 73
    42
 74
     0
 42
0.000000001
 43
0.00000001
 40
0.0
 40
0.0
 40
0.0
 40
0.0
 40
0.0624999999999993
 40
0.0624999999999993
 40
0.093749999999999
 40
0.093749999999999
 40
0.1249999999999986
 40
0.1249999999999986
 40
0.1562499999999983
 40
0.1562499999999983
 40
0.1874999999999979
 40
0.1874999999999979
 40
0.2499999999999978
 40
0.2499999999999978
 40
0.3124999999999977
 40
0.3124999999999977
 40
0.3749999999999977
 40
0.3749999999999977
 40
0.4062499999999976
 40
0.4062499999999976
 40
0.4374999999999975
 40
0.4374999999999975
 40
0.4999999999999973
 40
0.4999999999999973
 40
0.5312499999999976
 40
0.5312499999999976
 40
0.5624999999999978
 40
0.5624999999999978
 40
0.6249999999999981
 40
0.6249999999999981
 40
0.6562499999999981
 40
0.6562499999999981
 40
0.6874999999999981
 40
0.6874999999999981
 40
0.7499999999999987
 40
0.7499999999999987
 40
0.7812499999999987
 40
0.7812499999999987
 40
0.8124999999999986
 40
0.8124999999999986
 40
0.8333442385108897
 40
0.8333442385108897
 40
0.8333442385108897
 40
0.8333442385108897
 10
55.97499999999999
 20
-18.97994536861459
 30
0.0
 10
54.70894653775959
 20
-18.91718695104254
 30
0.0
 10
53.43425771837833
 20
-18.81205689380214
 30
0.0
 10
51.52831663567154
 20
-18.592150236852
 30
0.0
 10
50.89541969751033
 20
-18.50857853525778
 30
0.0
 10
49.62720533127094
 20
-18.32089527859439
 30
0.0
 10
48.99138161116732
 20
-18.21674001165291
 30
0.0
 10
47.71947375490877
 20
-17.98826355027361
 30
0.0
 10
47.08339138562969
 20
-17.86394266416702
 30
0.0
 10
45.81414672162425
 20
-17.59579858342827
 30
0.0
 10
45.18176467178223
 20
-17.452052299408
 30
0.0
 10
43.27693898413106
 20
-16.99140678697909
 30
0.0
 10
42.00195933773521
 20
-16.64533636756954
 30
0.0
 10
39.4672210871569
 20
-15.88229483839257
 30
0.0
 10
38.19544800589269
 20
-15.46417095132391
 30
0.0
 10
35.65304025298992
 20
-14.56115617300416
 30
0.0
 10
34.38800282377045
 20
-14.07703513075369
 30
0.0
 10
32.48039254592742
 20
-13.30430089091661
 30
0.0
 10
31.84413541908634
 20
-13.03912344175754
 30
0.0
 10
30.57402695960435
 20
-12.4949141669931
 30
0.0
 10
29.94156124973135
 20
-12.21609576192725
 30
0.0
 10
28.03810113088177
 20
-11.35888527876457
 30
0.0
 10
26.76299967482858
 20
-10.75991150599545
 30
0.0
 10
24.8602210138329
 20
-9.829169825012857
 30
0.0
 10
24.22752826623822
 20
-9.513555728658869
 30
0.0
 10
22.9570919210765
 20
-8.871272075023674
 30
0.0
 10
22.32078440897251
 20
-8.544834655084339
 30
0.0
 10
20.41336490502157
 20
-7.552070104272842
 30
0.0
 10
19.14844128813549
 20
-6.873141594563751
 30
0.0
 10
17.24133391287632
 20
-5.832392967529846
 30
0.0
 10
16.6049859970259
 20
-5.481921315864767
 30
0.0
 10
15.33418062310485
 20
-4.775622298380974
 30
0.0
 10
14.70103274148231
 20
-4.420042661395684
 30
0.0
 10
12.79918776656278
 20
-3.346096065749669
 30
0.0
 10
11.5241335722141
 20
-2.619743384098888
 30
0.0
 10
9.619879214754194
 20
-1.525479639603724
 30
0.0
 10
8.987534054431977
 20
-1.160137432708398
 30
0.0
 10
7.717887962746611
 20
-0.4276196629213402
 30
0.0
 10
7.081718190484162
 20
-0.0606606219437019
 30
0.0
 10
6.021617450907181
 20
0.5507046412613193
 30
0.0
 10
5.598170161524182
 20
0.7951121752004774
 30
0.0
 10
5.174999999999992
 20
1.039209773932355
 30
0.0
  0
LINE
  5
2E0
330
1F
100
AcDbEntity
  8
외형선
  6
Continuous
 62
     1
370
    15
100
AcDbLine
 10
55.97499999999999
 20
-18.97994536861459
 30
0.0
 11
55.97499999999999
 21
-17.25322970332197
 31
0.0
  0
SPLINE
  5
2E1
330
1F
100
AcDbEntity
  8
외형선
  6
Continuous
 62
     1
370
    15
100
AcDbSpline
210
0.0
220
0.0
230
1.0
 70
     8
 71
     3
 72
    46
 73
    42
 74
     0
 42
0.000000001
 43
0.00000001
 40
0.0
 40
0.0
 40
0.0
 40
0.0
 40
0.0625000000000002
 40
0.0625000000000002
 40
0.0937500000000001
 40
0.0937500000000001
 40
0.1249999999999999
 40
0.1249999999999999
 40
0.1562499999999997
 40
0.1562499999999997
 40
0.1874999999999996
 40
0.1874999999999996
 40
0.2499999999999993
 40
0.2499999999999993
 40
0.3124999999999989
 40
0.3124999999999989
 40
0.3749999999999987
 40
0.3749999999999987
 40
0.4062499999999985
 40
0.4062499999999985
 40
0.4374999999999983
 40
0.4374999999999983
 40
0.4999999999999987
 40
0.4999999999999987
 40
0.5312499999999989
 40
0.5312499999999989
 40
0.5624999999999991
 40
0.5624999999999991
 40
0.6249999999999994
 40
0.6249999999999994
 40
0.6562499999999997
 40
0.6562499999999997
 40
0.6874999999999999
 40
0.6874999999999999
 40
0.7500000000000002
 40
0.7500000000000002
 40
0.7812500000000004
 40
0.7812500000000004
 40
0.8125000000000007
 40
0.8125000000000007
 40
0.8333442385108918
 40
0.8333442385108918
 40
0.8333442385108918
 40
0.8333442385108918
 10
55.97500000000004
 20
-17.25322970332197
 30
0.0
 10
54.70894653775959
 20
-16.94269537324674
 30
0.0
 10
53.43425771837835
 20
-16.59306967870306
 30
0.0
 10
51.52831663567162
 20
-16.01501964497371
 30
0.0
 10
50.89541969751038
 20
-15.81358274177547
 30
0.0
 10
49.62720533127096
 20
-15.39313893040352
 30
0.0
 10
48.99138161116739
 20
-15.17406009319164
 30
0.0
 10
47.71947375490877
 20
-14.71923363566015
 30
0.0
 10
47.0833913856297
 20
-14.48348663970213
 30
0.0
 10
45.81414672162425
 20
-13.99653723088818
 30
0.0
 10
45.18176467178223
 20
-13.74545218466002
 30
0.0
 10
43.27693898413102
 20
-12.96870943082947
 30
0.0
 10
42.00195933773521
 20
-12.42012605484183
 30
0.0
 10
39.46722108715696
 20
-11.27249653782811
 30
0.0
 10
38.19544800589276
 20
-10.67167871273801
 30
0.0
 10
35.65304025298992
 20
-9.425444110656361
 30
0.0
 10
34.38800282377038
 20
-8.78101590818721
 30
0.0
 10
32.48039254592738
 20
-7.78557307752178
 30
0.0
 10
31.84413541908633
 20
-7.449174324362362
 30
0.0
 10
30.57402695960435
 20
-6.768900334843015
 30
0.0
 10
29.94156124973134
 20
-6.425281210878935
 30
0.0
 10
28.03810113088182
 20
-5.383207948557312
 30
0.0
 10
26.76299967482859
 20
-4.673836290040195
 30
0.0
 10
24.86022101383298
 20
-3.598407269175227
 30
0.0
 10
24.22752826623825
 20
-3.238031707673934
 30
0.0
 10
22.95709192107654
 20
-2.513127571667905
 30
0.0
 10
22.32078440897251
 20
-2.148869282851977
 30
0.0
 10
20.4133649050215
 20
-1.053403689748207
 30
0.0
 10
19.14844128813556
 20
-0.3204118091748434
 30
0.0
 10
17.24133391287639
 20
0.7795691745287933
 30
0.0
 10
16.60498599702593
 20
1.146123637896074
 30
0.0
 10
15.33418062310488
 20
1.87718872466859
 30
0.0
 10
14.70103274148236
 20
2.241449095970232
 30
0.0
 10
12.79918776656275
 20
3.33035479223384
 30
0.0
 10
11.52413357221416
 20
4.051851980242096
 30
0.0
 10
9.619879214754194
 20
5.116634720451014
 30
0.0
 10
8.987534054431995
 20
5.468473189556821
 30
0.0
 10
7.717887962746611
 20
6.166604861828952
 30
0.0
 10
7.081718190484212
 20
6.512683433186556
 30
0.0
 10
6.021617450907211
 20
7.083170039089231
 30
0.0
 10
5.598170161524202
 20
7.309611739086499
 30
0.0
 10
5.174999999999997
 20
7.534142884242042
 30
0.0
  0
LINE
  5
2E2
330
1F
100
AcDbEntity
  8
외형선
  6
Continuous
 62
     1
370
    15
100
AcDbLine
 10
55.97499999999999
 20
-17.25322970332197
 30
0.0
 11
55.97499999999999
 21
1.632229703322179
 31
0.0
  0
SPLINE
  5
2E4
330
1F
100
AcDbEntity
  8
외형선
  6
Continuous
 62
     1
370
    15
100
AcDbSpline
210
0.0
220
0.0
230
1.0
 70
     8
 71
     3
 72
    46
 73
    42
 74
     0
 42
0.000000001
 43
0.00000001
 40
0.0
 40
0.0
 40
0.0
 40
0.0
 40
0.0624999999999993
 40
0.0624999999999993
 40
0.0937499999999989
 40
0.0937499999999989
 40
0.1249999999999985
 40
0.1249999999999985
 40
0.1562499999999981
 40
0.1562499999999981
 40
0.1874999999999978
 40
0.1874999999999978
 40
0.2499999999999976
 40
0.2499999999999976
 40
0.3124999999999974
 40
0.3124999999999974
 40
0.3749999999999973
 40
0.3749999999999973
 40
0.4062499999999973
 40
0.4062499999999973
 40
0.4374999999999972
 40
0.4374999999999972
 40
0.4999999999999971
 40
0.4999999999999971
 40
0.5312499999999974
 40
0.5312499999999974
 40
0.5624999999999977
 40
0.5624999999999977
 40
0.6249999999999981
 40
0.6249999999999981
 40
0.6562499999999981
 40
0.6562499999999981
 40
0.6874999999999981
 40
0.6874999999999981
 40
0.7499999999999986
 40
0.7499999999999986
 40
0.7812499999999986
 40
0.7812499999999986
 40
0.8124999999999984
 40
0.8124999999999984
 40
0.8333442385108898
 40
0.8333442385108898
 40
0.8333442385108898
 40
0.8333442385108898
 10
55.97499999999999
 20
1.632229703322179
 30
0.0
 10
54.70894653775957
 20
2.361999131310039
 30
0.0
 10
53.43425771837833
 20
3.089790937053775
 30
0.0
 10
51.52831663567154
 20
4.16760095533544
 30
0.0
 10
50.89541969751036
 20
4.524300891747447
 30
0.0
 10
49.62720533127088
 20
5.232740596059588
 30
0.0
 10
48.99138161116739
 20
5.584569974589415
 30
0.0
 10
47.71947375490875
 20
6.281672778738166
 30
0.0
 10
47.08339138562965
 20
6.626945232958146
 30
0.0
 10
45.81414672162423
 20
7.309221767103333
 30
0.0
 10
45.18176467178221
 20
7.646094836387983
 30
0.0
 10
43.27693898413109
 20
8.644777512037706
 30
0.0
 10
42.00195933773524
 20
9.29366184699851
 30
0.0
 10
39.4672210871569
 20
10.54476571490603
 30
0.0
 10
38.19544800589276
 20
11.14898524633657
 30
0.0
 10
35.65304025298989
 20
12.30500654775054
 30
0.0
 10
34.38800282377041
 20
12.85603704276951
 30
0.0
 10
32.48039254592738
 20
13.63937698112864
 30
0.0
 10
31.84413541908636
 20
13.89309797793896
 30
0.0
 10
30.57402695960431
 20
14.38450664824755
 30
0.0
 10
29.9415612497313
 20
14.62203254790507
 30
0.0
 10
28.03810113088177
 20
15.31063523209084
 30
0.0
 10
26.76299967482858
 20
15.73734419105685
 30
0.0
 10
24.86022101383288
 20
16.32250654777691
 30
0.0
 10
24.22752826623822
 20
16.50845819804936
 30
0.0
 10
22.95709192107653
 20
16.86230904858365
 30
0.0
 10
22.32078440897251
 20
17.03005632339055
 30
0.0
 10
20.41336490502157
 20
17.50447964900638
 30
0.0
 10
19.14844128813549
 20
17.78202565981904
 30
0.0
 10
17.24133391287636
 20
18.13891383899973
 30
0.0
 10
16.60498599702591
 20
18.2478902723488
 30
0.0
 10
15.33418062310488
 20
18.44533524683735
 30
0.0
 10
14.70103274148233
 20
18.53375241051164
 30
0.0
 10
12.79918776656278
 20
18.76814224396189
 30
0.0
 10
11.52413357221416
 20
18.88324442400986
 30
0.0
 10
9.619879214754194
 20
18.99236111474853
 30
0.0
 10
8.987534054431977
 20
19.01817446760701
 30
0.0
 10
7.717887962746628
 20
19.04872752618908
 30
0.0
 10
7.081718190484127
 20
19.05343420451482
 30
0.0
 10
6.021617450907181
 20
19.04360995742115
 30
0.0
 10
5.598170161524187
 20
19.03497356268508
 30
0.0
 10
5.174999999999997
 20
19.02163987662909
 30
0.0
  0
SPLINE
  5
2E5
330
1F
100
AcDbEntity
  8
외형선
  6
Continuous
 62
     1
370
    15
100
AcDbSpline
210
0.0
220
0.0
230
1.0
 70
     8
 71
     3
 72
    16
 73
    12
 74
     0
 42
0.000000001
 43
0.00000001
 40
0.0
 40
0.0
 40
0.0
 40
0.0
 40
0.0542177187644895
 40
0.1683942794586423
 40
0.2825718850742526
 40
0.4021440904098877
 40
0.5217011138379141
 40
0.6412540866014436
 40
0.7608141488822759
 40
0.8803924252193619
 40
1.0
 40
1.0
 40
1.0
 40
1.0
 10
18.59075676416236
 20
19.01029075996311
 30
0.0
 10
19.2663537752095
 20
19.01858765209622
 30
0.0
 10
21.36468388706596
 20
19.04435688776937
 30
0.0
 10
24.88617602536466
 20
18.74575330440857
 30
0.0
 10
29.22204246561245
 20
18.12604361037069
 30
0.0
 10
33.62467095171674
 20
17.15860041397361
 30
0.0
 10
38.09419768249661
 20
15.86673285213017
 30
0.0
 10
42.56353376251693
 20
14.28352790165287
 30
0.0
 10
47.03319552195088
 20
12.43604734196411
 30
0.0
 10
51.50365182155412
 20
10.37101905491541
 30
0.0
 10
54.48442889969443
 20
8.841349006891324
 30
0.0
 10
55.97500000000004
 20
8.076420296418844
 30
0.0
  0
LINE
  5
2E6
330
1F
100
AcDbEntity
  8
외형선
  6
Continuous
 62
     1
370
    15
100
AcDbLine
 10
55.97499999999999
 20
1.632229703322175
 30
0.0
 11
55.97499999999999
 21
8.076420296418844
 31
0.0
  0
SPLINE
  5
2E7
330
1F
100
AcDbEntity
  8
외형선
  6
Continuous
 62
     1
370
    15
100
AcDbSpline
210
0.0
220
0.0
230
1.0
 70
     8
 71
     3
 72
    12
 73
     8
 74
     0
 42
0.000000001
 43
0.00000001
 40
0.0
 40
0.0
 40
0.0
 40
0.0
 40
0.2468557841742336
 40
0.4936182268922397
 40
0.7403382771853162
 40
0.9870670376494615
 40
1.0
 40
1.0
 40
1.0
 40
1.0
 10
55.97499999999999
 20
18.97994536861456
 30
0.0
 10
54.55210825621746
 20
18.87859827594309
 30
0.0
 10
51.7068627944794
 20
18.67594241210535
 30
0.0
 10
47.43997159596673
 20
17.98211867987565
 30
0.0
 10
43.17389335345528
 20
16.98240476834268
 30
0.0
 10
40.25551405394798
 20
16.17310423415923
 30
0.0
 10
38.75891475048834
 20
15.63643660660151
 30
0.0
 10
38.68437368130159
 20
15.60970682083749
 30
0.0
  0
LINE
  5
2E8
330
1F
100
AcDbEntity
  8
외형선
  6
Continuous
 62
     1
370
    15
100
AcDbLine
 10
55.97499999999999
 20
8.062635671482482
 30
0.0
 11
55.97499999999999
 21
18.97994536861456
 31
0.0
  0
SPLINE
  5
2E9
330
1F
100
AcDbEntity
  8
외형선
  6
Continuous
 62
     1
370
    15
100
AcDbSpline
210
0.0
220
0.0
230
1.0
 70
     8
 71
     3
 72
     8
 73
     4
 74
     0
 42
0.000000001
 43
0.00000001
 40
0.0
 40
0.0
 40
0.0
 40
0.0
 40
0.1506852735165085
 40
0.1506852735165085
 40
0.1506852735165085
 40
0.1506852735165085
 10
6.977571657247049
 20
-19.01168569674318
 30
0.0
 10
6.376716225899044
 20
-19.01114092180951
 30
0.0
 10
5.775860794551035
 20
-19.01059614687584
 30
0.0
 10
5.174999999999915
 20
-19.00183592000817
 30
0.0
  0
LINE
  5
2EA
330
1F
100
AcDbEntity
  8
중심선
 62
     1
100
AcDbLine
 10
-61.325
 20
-0.0000000000000142
 30
0.0
 11
58.97499999999999
 21
0.0000000000000018
 31
0.0
  0
CIRCLE
  5
2EB
330
1F
100
AcDbEntity
  8
해칭선
100
AcDbCircle
 10
0.0
 20
0.0
 30
0.0
 40
3.0
  0
DIMENSION
  5
2EC
330
1F
100
AcDbEntity
  8
치수문자_일반주서
100
AcDbDimension
  2
*D18
 10
5.175000000000004
 20
28.99745902646093
 30
0.0
 11
30.57499999999998
 21
28.99745902646093
 31
0.0
 70
   160
  1
<>
 71
     2
 42
50.79999999999998
  3
SLDDIMSTYLE0
100
AcDbAlignedDimension
 13
55.97499999999999
 23
15.81662114051213
 33
0.0
 14
5.175000000000002
 24
14.84344528647364
 34
0.0
 50
0.000000000000008
100
AcDbRotatedDimension
1001
ACAD
1000
DSTYLE
1002
{
1070
   171
1070
     6
1070
   273
1070
     7
1002
}
  0
DIMENSION
  5
2ED
330
1F
100
AcDbEntity
  8
치수문자_일반주서
100
AcDbDimension
  2
*D19
 10
-58.32499999999998
 20
44.71866422426371
 30
0.0
 11
-1.175000000000006
 21
44.71866422426371
 31
0.0
 70
   160
  1
<>
 71
     2
 42
114.3
  3
SLDDIMSTYLE0
100
AcDbAlignedDimension
 13
55.97499999999999
 23
15.81662114051213
 33
0.0
 14
-58.32499999999999
 24
12.69999999999999
 34
0.0
100
AcDbRotatedDimension
1001
ACAD
1000
DSTYLE
1002
{
1070
   171
1070
     6
1070
   273
1070
     7
1002
}
  0
DIMENSION
  5
2EE
330
1F
100
AcDbEntity
  8
치수문자_일반주서
100
AcDbDimension
  2
*D20
 10
-67.40327283782712
 20
-15.87500000000005
 30
0.0
 11
-67.40327283782717
 21
-0.0000000000000107
 31
0.0
 70
   160
  1
%%c<>
 71
     2
 42
31.75
 52
-270.0
  3
SLDDIMSTYLE1
100
AcDbAlignedDimension
 13
-55.14999999999998
 23
15.87499999999999
 33
0.0
 14
-55.14999999999998
 24
-15.87500000000001
 34
0.0
 50
90.0000000000002
100
AcDbRotatedDimension
1001
ACAD
1000
DSTYLE
1002
{
1070
   171
1070
     6
1070
   273
1070
     7
1002
}
  0
INSERT
  5
2EF
330
1F
100
AcDbEntity
  8
해칭선
100
AcDbBlockReference
  2
SW_DOWELSYMBOL_0
 10
0.0
 20
0.0
 30
0.0
  0
LINE
  5
2F0
330
1F
100
AcDbEntity
  8
0
 62
     1
100
AcDbLine
 10
55.97499999999999
 20
19.05
 30
0.0
 11
55.97499999999999
 21
-19.05
 31
0.0
  0
DIMENSION
  5
2F1
330
1F
100
AcDbEntity
  8
치수문자_일반주서
100
AcDbDimension
  2
*D21
 10
73.73681525938869
 20
-19.05
 30
0.0
 11
73.73681525938869
 21
0.5120562484850737
 31
0.0
 70
   160
  1
{%%C<>[]}
 71
     5
 42
38.09999999999999
  3
SLDDIMSTYLE0
100
AcDbAlignedDimension
 13
55.97499999999999
 23
19.05
 33
0.0
 14
55.97499999999999
 24
-19.05
 34
0.0
 50
90.0
100
AcDbRotatedDimension
1001
ACAD
1000
DSTYLE
1002
{
1070
   283
1070
     1
1070
   170
1070
     1
1070
   171
1070
     6
1070
   273
1070
     7
1002
}
  0
LINE
  5
2F2
330
1F
100
AcDbEntity
  8
외형선
  6
Continuous
370
    15
100
AcDbLine
 10
-43.23740000000009
 20
15.87499999999999
 30
0.0
 11
-38.29392499999999
 21
15.87499999999999
 31
0.0
  0
LINE
  5
2F3
330
1F
100
AcDbEntity
  8
외형선
  6
Continuous
370
    15
100
AcDbLine
 10
-35.90632499999997
 20
13.48739999999998
 30
0.0
 11
-22.79992499999997
 21
13.48739999999998
 31
0.0
  0
LINE
  5
2F4
330
1F
100
AcDbEntity
  8
외형선
  6
Continuous
370
    15
100
AcDbLine
 10
-22.79992499999997
 20
13.48739999999998
 30
0.0
 11
-20.41232499999995
 21
15.875
 31
0.0
  0
LINE
  5
2F5
330
1F
100
AcDbEntity
  8
외형선
  6
Continuous
370
    15
100
AcDbLine
 10
-35.90632499999997
 20
13.48739999999998
 30
0.0
 11
-38.29392499999999
 21
15.875
 31
0.0
  0
LINE
  5
2F6
330
1F
100
AcDbEntity
  8
외형선
  6
Continuous
370
    15
100
AcDbLine
 10
-58.32499999999998
 20
13.48739999999998
 30
0.0
 11
-45.62499999999999
 21
13.48739999999998
 31
0.0
  0
LINE
  5
2F7
330
1F
100
AcDbEntity
  8
외형선
  6
Continuous
370
    15
100
AcDbLine
 10
-45.62499999999999
 20
13.48739999999998
 30
0.0
 11
-43.23740000000009
 21
15.87499999999998
 31
0.0
  0
LINE
  5
2F8
330
1F
100
AcDbEntity
  8
외형선
  6
Continuous
370
    15
100
AcDbLine
 10
-38.29392499999997
 20
15.87499999999999
 30
0.0
 11
-43.23740000000007
 21
15.87499999999999
 31
0.0
  0
LINE
  5
329
330
1F
100
AcDbEntity
  8
외형선
  6
Continuous
370
    15
100
AcDbLine
 10
5.174999999999988
 20
19.05
 30
0.0
 11
5.174999999999988
 21
-19.05
 31
0.0
  0
SPLINE
  5
32A
330
1F
100
AcDbEntity
  8
외형선
  6
Continuous
 62
     1
370
    15
100
AcDbSpline
210
0.0
220
0.0
230
1.0
 70
     8
 71
     3
 72
    16
 73
    12
 74
     0
 42
0.000000001
 43
0.00000001
 40
0.2326479903382474
 40
0.2326479903382474
 40
0.2326479903382474
 40
0.2326479903382474
 40
0.2931992873866204
 40
0.3908924979786684
 40
0.4885820660442733
 40
0.5862882260557154
 40
0.6840311523810574
 40
0.7817749732304627
 40
0.8841369395186816
 40
0.986485909058112
 40
1.0
 40
1.0
 40
1.0
 40
1.0
 10
5.174999999999986
 20
-17.49563805714667
 30
0.0
 10
6.056413654450822
 20
-17.69690323831366
 30
0.0
 10
8.359827661724031
 20
-18.17553300333622
 30
0.0
 10
12.08509994545434
 20
-18.73275249145297
 30
0.0
 10
16.35114864174165
 20
-19.05915853803284
 30
0.0
 10
20.6180317695978
 20
-19.06740712501404
 30
0.0
 10
24.88616611350106
 20
-18.75545892259749
 30
0.0
 10
29.22204531036085
 20
-18.1273627990694
 30
0.0
 10
33.62466998207675
 20
-17.14222278098942
 30
0.0
 10
36.80116425218243
 20
-16.28115356607104
 30
0.0
 10
38.48766303179529
 20
-15.67984279367276
 30
0.0
 10
38.68437368130159
 20
-15.6097068208375
 30
0.0
  0
LINE
  5
32C
330
1F
100
AcDbEntity
  8
외형선
  6
Continuous
370
    15
100
AcDbLine
 10
5.174999999999988
 20
-19.05
 30
0.0
 11
2.0
 21
-15.87500000000001
 31
0.0
  0
LINE
  5
32D
330
1F
100
AcDbEntity
  8
외형선
  6
Continuous
370
    15
100
AcDbLine
 10
5.174999999999988
 20
19.05
 30
0.0
 11
2.0
 21
15.87500000000001
 31
0.0
  0
LINE
  5
32E
330
1F
100
AcDbEntity
  8
외형선
  6
Continuous
370
    15
100
AcDbLine
 10
2.0
 20
15.87500000000001
 30
0.0
 11
2.0
 21
-15.87500000000001
 31
0.0
  0
ENDSEC
  0
SECTION
  2
OBJECTS
  0
DICTIONARY
  5
C
330
0
100
AcDbDictionary
281
     1
  3
ACAD_GROUP
350
D
  3
ACAD_IMAGE_VARS
350
127
  3
ACAD_LAYOUT
350
1A
  3
ACAD_MLINESTYLE
350
17
  3
ACAD_PLOTSETTINGS
350
19
  3
ACAD_PLOTSTYLENAME
350
E
  3
ACAD_SCALELIST
350
47
  3
APPDATA
350
125
  3
DWGPROPS
350
331
  0
DICTIONARY
  5
154
330
2
100
AcDbDictionary
280
     1
281
     1
  3
ACAD_LAYERSTATES
360
155
  0
DICTIONARY
  5
D
102
{ACAD_REACTORS
330
C
102
}
330
C
100
AcDbDictionary
281
     1
  0
RASTERVARIABLES
  5
127
102
{ACAD_REACTORS
330
C
102
}
330
C
100
AcDbRasterVariables
 90
        0
 70
     1
 71
     1
 72
     1
  0
DICTIONARY
  5
1A
102
{ACAD_REACTORS
330
C
102
}
330
C
100
AcDbDictionary
281
     1
  3
Layout1
350
1E
  3
Layout2
350
26
  3
Model
350
22
  0
DICTIONARY
  5
17
102
{ACAD_REACTORS
330
C
102
}
330
C
100
AcDbDictionary
281
     1
  3
Standard
350
18
  0
DICTIONARY
  5
19
102
{ACAD_REACTORS
330
C
102
}
330
C
100
AcDbDictionary
281
     1
  0
ACDBDICTIONARYWDFLT
  5
E
102
{ACAD_REACTORS
330
C
102
}
330
C
100
AcDbDictionary
281
     1
  3
Normal
350
F
100
AcDbDictionaryWithDefault
340
F
  0
DICTIONARY
  5
47
102
{ACAD_REACTORS
330
C
102
}
330
C
100
AcDbDictionary
281
     1
  3
A0
350
48
  3
A1
350
49
  3
A2
350
4A
  3
A3
350
4B
  3
A4
350
4C
  3
A5
350
4D
  3
A6
350
4E
  3
A7
350
4F
  3
A8
350
50
  3
A9
350
51
  3
B0
350
52
  3
B1
350
53
  3
B2
350
54
  3
B3
350
55
  3
B4
350
56
  3
B5
350
57
  3
B6
350
58
  3
B7
350
59
  3
B8
350
5A
  3
B9
350
5B
  3
C0
350
5C
  3
C1
350
5D
  3
C2
350
5E
  3
C3
350
5F
  3
C4
350
60
  3
C5
350
61
  3
C6
350
62
  3
C7
350
63
  3
C8
350
64
  3
C9
350
65
  3
D0
350
66
  3
D1
350
67
  3
D2
350
68
  0
DICTIONARY
  5
125
102
{ACAD_REACTORS
330
C
102
}
330
C
100
AcDbDictionary
281
     1
  0
XRECORD
  5
331
102
{ACAD_REACTORS
330
C
102
}
330
C
100
AcDbXrecord
280
     1
  1
DWGPROPS COOKIE
  2

  3

  4

  6

  7

  8
12016016
  9

300
=
301
=
302
=
303
=
304
=
305
=
306
=
307
=
308
=
309
=
 40
0.0
 41
2458312.380209236
 42
2458319.287532164
  1

 90
        0
  0
DICTIONARY
  5
155
102
{ACAD_REACTORS
330
154
102
}
330
154
100
AcDbDictionary
281
     1
  0
LAYOUT
  5
1E
102
{ACAD_REACTORS
330
1A
102
}
330
1A
100
AcDbPlotSettings
  1

  2
none_device
  4

  6

 40
0.0
 41
0.0
 42
0.0
 43
0.0
 44
0.0
 45
0.0
 46
0.0
 47
0.0
 48
0.0
 49
0.0
140
0.0
141
0.0
142
1.0
143
1.0
 70
   688
 72
     1
 73
     0
 74
     5
  7

 75
    16
147
1.0
148
0.0
149
0.0
100
AcDbLayout
  1
Layout1
 70
     1
 71
     1
 10
0.0
 20
0.0
 11
420.0
 21
297.0
 12
0.0
 22
0.0
 32
0.0
 14
1.000000000000000E+20
 24
1.000000000000000E+20
 34
1.000000000000000E+20
 15
-1.000000000000000E+20
 25
-1.000000000000000E+20
 35
-1.000000000000000E+20
146
0.0
 13
0.0
 23
0.0
 33
0.0
 16
1.0
 26
0.0
 36
0.0
 17
0.0
 27
1.0
 37
0.0
 76
     0
330
1B
  0
LAYOUT
  5
26
102
{ACAD_REACTORS
330
1A
102
}
330
1A
100
AcDbPlotSettings
  1

  2
none_device
  4

  6

 40
0.0
 41
0.0
 42
0.0
 43
0.0
 44
0.0
 45
0.0
 46
0.0
 47
0.0
 48
0.0
 49
0.0
140
0.0
141
0.0
142
1.0
143
1.0
 70
   688
 72
     1
 73
     0
 74
     5
  7

 75
    16
147
1.0
148
0.0
149
0.0
100
AcDbLayout
  1
Layout2
 70
     1
 71
     2
 10
0.0
 20
0.0
 11
0.0
 21
0.0
 12
0.0
 22
0.0
 32
0.0
 14
0.0
 24
0.0
 34
0.0
 15
0.0
 25
0.0
 35
0.0
146
0.0
 13
0.0
 23
0.0
 33
0.0
 16
1.0
 26
0.0
 36
0.0
 17
0.0
 27
1.0
 37
0.0
 76
     0
330
23
  0
LAYOUT
  5
22
102
{ACAD_REACTORS
330
1A
102
}
330
1A
100
AcDbPlotSettings
  1

  2
none_device
  4
ANSI_A_(11.00_x_8.50_Inches)
  6

 40
6.35
 41
19.05
 42
6.35000508
 43
19.05000254
 44
279.4
 45
215.9
 46
106.7889521580535
 47
99.09810663031205
 48
0.0
 49
0.0
140
0.0
141
0.0
142
0.0711206359935618
143
1.0
 70
  1696
 72
     0
 73
     0
 74
     0
  7

 75
     0
147
0.0235690232323232
148
0.0
149
0.0
100
AcDbLayout
  1
Model
 70
     1
 71
     0
 10
0.0
 20
0.0
 11
420.0
 21
297.0
 12
0.0
 22
0.0
 32
0.0
 14
1.000000000000000E+20
 24
1.000000000000000E+20
 34
1.000000000000000E+20
 15
-1.000000000000000E+20
 25
-1.000000000000000E+20
 35
-1.000000000000000E+20
146
0.0
 13
0.0
 23
0.0
 33
0.0
 16
1.0
 26
0.0
 36
0.0
 17
0.0
 27
1.0
 37
0.0
 76
     0
330
1F
331
29
  0
MLINESTYLE
  5
18
102
{ACAD_REACTORS
330
17
102
}
330
17
100
AcDbMlineStyle
  2
Standard
 70
     0
  3

 62
   256
 51
90.0
 52
90.0
 71
     2
 49
0.5
 62
   256
  6
BYLAYER
 49
-0.5
 62
   256
  6
BYLAYER
  0
ACDBPLACEHOLDER
  5
F
102
{ACAD_REACTORS
330
E
102
}
330
E
  0
SCALE
  5
48
102
{ACAD_REACTORS
330
47
102
}
330
47
100
AcDbScale
 70
     0
300
1:1
140
1.0
141
1.0
290
     1
  0
SCALE
  5
49
102
{ACAD_REACTORS
330
47
102
}
330
47
100
AcDbScale
 70
     0
300
1:2
140
1.0
141
2.0
290
     0
  0
SCALE
  5
4A
102
{ACAD_REACTORS
330
47
102
}
330
47
100
AcDbScale
 70
     0
300
1:4
140
1.0
141
4.0
290
     0
  0
SCALE
  5
4B
102
{ACAD_REACTORS
330
47
102
}
330
47
100
AcDbScale
 70
     0
300
1:5
140
1.0
141
5.0
290
     0
  0
SCALE
  5
4C
102
{ACAD_REACTORS
330
47
102
}
330
47
100
AcDbScale
 70
     0
300
1:8
140
1.0
141
8.0
290
     0
  0
SCALE
  5
4D
102
{ACAD_REACTORS
330
47
102
}
330
47
100
AcDbScale
 70
     0
300
1:10
140
1.0
141
10.0
290
     0
  0
SCALE
  5
4E
102
{ACAD_REACTORS
330
47
102
}
330
47
100
AcDbScale
 70
     0
300
1:16
140
1.0
141
16.0
290
     0
  0
SCALE
  5
4F
102
{ACAD_REACTORS
330
47
102
}
330
47
100
AcDbScale
 70
     0
300
1:20
140
1.0
141
20.0
290
     0
  0
SCALE
  5
50
102
{ACAD_REACTORS
330
47
102
}
330
47
100
AcDbScale
 70
     0
300
1:30
140
1.0
141
30.0
290
     0
  0
SCALE
  5
51
102
{ACAD_REACTORS
330
47
102
}
330
47
100
AcDbScale
 70
     0
300
1:40
140
1.0
141
40.0
290
     0
  0
SCALE
  5
52
102
{ACAD_REACTORS
330
47
102
}
330
47
100
AcDbScale
 70
     0
300
1:50
140
1.0
141
50.0
290
     0
  0
SCALE
  5
53
102
{ACAD_REACTORS
330
47
102
}
330
47
100
AcDbScale
 70
     0
300
1:100
140
1.0
141
100.0
290
     0
  0
SCALE
  5
54
102
{ACAD_REACTORS
330
47
102
}
330
47
100
AcDbScale
 70
     0
300
2:1
140
2.0
141
1.0
290
     0
  0
SCALE
  5
55
102
{ACAD_REACTORS
330
47
102
}
330
47
100
AcDbScale
 70
     0
300
4:1
140
4.0
141
1.0
290
     0
  0
SCALE
  5
56
102
{ACAD_REACTORS
330
47
102
}
330
47
100
AcDbScale
 70
     0
300
8:1
140
8.0
141
1.0
290
     0
  0
SCALE
  5
57
102
{ACAD_REACTORS
330
47
102
}
330
47
100
AcDbScale
 70
     0
300
10:1
140
10.0
141
1.0
290
     0
  0
SCALE
  5
58
102
{ACAD_REACTORS
330
47
102
}
330
47
100
AcDbScale
 70
     0
300
100:1
140
100.0
141
1.0
290
     0
  0
SCALE
  5
59
102
{ACAD_REACTORS
330
47
102
}
330
47
100
AcDbScale
 70
     0
300
1/128" = 1'-0"
140
0.0078125
141
12.0
290
     0
  0
SCALE
  5
5A
102
{ACAD_REACTORS
330
47
102
}
330
47
100
AcDbScale
 70
     0
300
1/64" = 1'-0"
140
0.015625
141
12.0
290
     0
  0
SCALE
  5
5B
102
{ACAD_REACTORS
330
47
102
}
330
47
100
AcDbScale
 70
     0
300
1/32" = 1'-0"
140
0.03125
141
12.0
290
     0
  0
SCALE
  5
5C
102
{ACAD_REACTORS
330
47
102
}
330
47
100
AcDbScale
 70
     0
300
1/16" = 1'-0"
140
0.0625
141
12.0
290
     0
  0
SCALE
  5
5D
102
{ACAD_REACTORS
330
47
102
}
330
47
100
AcDbScale
 70
     0
300
3/32" = 1'-0"
140
0.09375
141
12.0
290
     0
  0
SCALE
  5
5E
102
{ACAD_REACTORS
330
47
102
}
330
47
100
AcDbScale
 70
     0
300
1/8" = 1'-0"
140
0.125
141
12.0
290
     0
  0
SCALE
  5
5F
102
{ACAD_REACTORS
330
47
102
}
330
47
100
AcDbScale
 70
     0
300
3/16" = 1'-0"
140
0.1875
141
12.0
290
     0
  0
SCALE
  5
60
102
{ACAD_REACTORS
330
47
102
}
330
47
100
AcDbScale
 70
     0
300
1/4" = 1'-0"
140
0.25
141
12.0
290
     0
  0
SCALE
  5
61
102
{ACAD_REACTORS
330
47
102
}
330
47
100
AcDbScale
 70
     0
300
3/8" = 1'-0"
140
0.375
141
12.0
290
     0
  0
SCALE
  5
62
102
{ACAD_REACTORS
330
47
102
}
330
47
100
AcDbScale
 70
     0
300
1/2" = 1'-0"
140
0.5
141
12.0
290
     0
  0
SCALE
  5
63
102
{ACAD_REACTORS
330
47
102
}
330
47
100
AcDbScale
 70
     0
300
3/4" = 1'-0"
140
0.75
141
12.0
290
     0
  0
SCALE
  5
64
102
{ACAD_REACTORS
330
47
102
}
330
47
100
AcDbScale
 70
     0
300
1" = 1'-0"
140
1.0
141
12.0
290
     0
  0
SCALE
  5
65
102
{ACAD_REACTORS
330
47
102
}
330
47
100
AcDbScale
 70
     0
300
1-1/2" = 1'-0"
140
1.5
141
12.0
290
     0
  0
SCALE
  5
66
102
{ACAD_REACTORS
330
47
102
}
330
47
100
AcDbScale
 70
     0
300
3" = 1'-0"
140
3.0
141
12.0
290
     0
  0
SCALE
  5
67
102
{ACAD_REACTORS
330
47
102
}
330
47
100
AcDbScale
 70
     0
300
6" = 1'-0"
140
6.0
141
12.0
290
     0
  0
SCALE
  5
68
102
{ACAD_REACTORS
330
47
102
}
330
47
100
AcDbScale
 70
     0
300
1'-0" = 1'-0"
140
12.0
141
12.0
290
     0
  0
ENDSEC
  0
EOF
