  0
SECTION
  2
HEADER
  9
$ACADVER
  1
AC1015
  9
$ACADMAINTVER
 70
     6
  9
$DWGCODEPAGE
  3
ANSI_949
  9
$INSBASE
 10
0.0
 20
0.0
 30
0.0
  9
$EXTMIN
 10
1.000000000000000E+20
 20
1.000000000000000E+20
 30
1.000000000000000E+20
  9
$EXTMAX
 10
-1.000000000000000E+20
 20
-1.000000000000000E+20
 30
-1.000000000000000E+20
  9
$LIMMIN
 10
0.0
 20
0.0
  9
$LIMMAX
 10
420.0
 20
297.0
  9
$ORTHOMODE
 70
     1
  9
$REGENMODE
 70
     1
  9
$FILLMODE
 70
     1
  9
$QTEXTMODE
 70
     0
  9
$MIRRTEXT
 70
     1
  9
$LTSCALE
 40
1.0
  9
$ATTMODE
 70
     1
  9
$TEXTSIZE
 40
3.5
  9
$TRACEWID
 40
1.0
  9
$TEXTSTYLE
  7
Standard
  9
$CLAYER
  8
0
  9
$CELTYPE
  6
ByLayer
  9
$CECOLOR
 62
   256
  9
$CELTSCALE
 40
1.0
  9
$DISPSILH
 70
     0
  9
$DIMSCALE
 40
1.0
  9
$DIMASZ
 40
3.302
  9
$DIMEXO
 40
1.0
  9
$DIMDLI
 40
3.75
  9
$DIMRND
 40
0.0
  9
$DIMDLE
 40
0.0
  9
$DIMEXE
 40
1.0
  9
$DIMTP
 40
0.0
  9
$DIMTM
 40
0.0
  9
$DIMTXT
 40
3.5
  9
$DIMCEN
 40
2.5
  9
$DIMTSZ
 40
0.0
  9
$DIMTOL
 70
     0
  9
$DIMLIM
 70
     0
  9
$DIMTIH
 70
     1
  9
$DIMTOH
 70
     1
  9
$DIMSE1
 70
     0
  9
$DIMSE2
 70
     0
  9
$DIMTAD
 70
     1
  9
$DIMZIN
 70
     0
  9
$DIMBLK
  1

  9
$DIMASO
 70
     1
  9
$DIMSHO
 70
     1
  9
$DIMPOST
  1

  9
$DIMAPOST
  1

  9
$DIMALT
 70
     0
  9
$DIMALTD
 70
     3
  9
$DIMALTF
 40
0.0393700787401575
  9
$DIMLFAC
 40
1.0
  9
$DIMTOFL
 70
     1
  9
$DIMTVP
 40
0.0
  9
$DIMTIX
 70
     0
  9
$DIMSOXD
 70
     0
  9
$DIMSAH
 70
     0
  9
$DIMBLK1
  1

  9
$DIMBLK2
  1

  9
$DIMSTYLE
  2
ISO-25
  9
$DIMCLRD
 70
     0
  9
$DIMCLRE
 70
     0
  9
$DIMCLRT
 70
     0
  9
$DIMTFAC
 40
1.0
  9
$DIMGAP
 40
1.524
  9
$DIMJUST
 70
     0
  9
$DIMSD1
 70
     0
  9
$DIMSD2
 70
     0
  9
$DIMTOLJ
 70
     0
  9
$DIMTZIN
 70
     0
  9
$DIMALTZ
 70
     0
  9
$DIMALTTZ
 70
     0
  9
$DIMUPT
 70
     0
  9
$DIMDEC
 70
     2
  9
$DIMTDEC
 70
     2
  9
$DIMALTU
 70
     2
  9
$DIMALTTD
 70
     3
  9
$DIMTXSTY
  7
Standard
  9
$DIMAUNIT
 70
     0
  9
$DIMADEC
 70
     2
  9
$DIMALTRND
 40
0.0
  9
$DIMAZIN
 70
     0
  9
$DIMDSEP
 70
    44
  9
$DIMATFIT
 70
     3
  9
$DIMFRAC
 70
     0
  9
$DIMLDRBLK
  1

  9
$DIMLUNIT
 70
     2
  9
$DIMLWD
 70
    -2
  9
$DIMLWE
 70
    -2
  9
$DIMTMOVE
 70
     0
  9
$LUNITS
 70
     2
  9
$LUPREC
 70
     2
  9
$SKETCHINC
 40
1.0
  9
$FILLETRAD
 40
10.0
  9
$AUNITS
 70
     0
  9
$AUPREC
 70
     2
  9
$MENU
  1
.
  9
$ELEVATION
 40
0.0
  9
$PELEVATION
 40
0.0
  9
$THICKNESS
 40
0.0
  9
$LIMCHECK
 70
     0
  9
$CHAMFERA
 40
0.0
  9
$CHAMFERB
 40
0.0
  9
$CHAMFERC
 40
0.0
  9
$CHAMFERD
 40
0.0
  9
$SKPOLY
 70
     0
  9
$TDCREATE
 40
2458312.757115544
  9
$TDUCREATE
 40
2458312.382115544
  9
$TDUPDATE
 40
2458319.649105984
  9
$TDUUPDATE
 40
2458319.274105984
  9
$TDINDWG
 40
0.0067828819
  9
$TDUSRTIMER
 40
2458319.27397794
  9
$USRTIMER
 70
     1
  9
$ANGBASE
 50
0.0
  9
$ANGDIR
 70
     0
  9
$PDMODE
 70
     0
  9
$PDSIZE
 40
-1.0
  9
$PLINEWID
 40
0.0
  9
$SPLFRAME
 70
     0
  9
$SPLINETYPE
 70
     6
  9
$SPLINESEGS
 70
     8
  9
$HANDSEED
  5
2A0
  9
$SURFTAB1
 70
     6
  9
$SURFTAB2
 70
     6
  9
$SURFTYPE
 70
     6
  9
$SURFU
 70
     6
  9
$SURFV
 70
     6
  9
$UCSBASE
  2

  9
$UCSNAME
  2

  9
$UCSORG
 10
0.0
 20
0.0
 30
0.0
  9
$UCSXDIR
 10
1.0
 20
0.0
 30
0.0
  9
$UCSYDIR
 10
0.0
 20
1.0
 30
0.0
  9
$UCSORTHOREF
  2

  9
$UCSORTHOVIEW
 70
     0
  9
$UCSORGTOP
 10
0.0
 20
0.0
 30
0.0
  9
$UCSORGBOTTOM
 10
0.0
 20
0.0
 30
0.0
  9
$UCSORGLEFT
 10
0.0
 20
0.0
 30
0.0
  9
$UCSORGRIGHT
 10
0.0
 20
0.0
 30
0.0
  9
$UCSORGFRONT
 10
0.0
 20
0.0
 30
0.0
  9
$UCSORGBACK
 10
0.0
 20
0.0
 30
0.0
  9
$PUCSBASE
  2

  9
$PUCSNAME
  2

  9
$PUCSORG
 10
0.0
 20
0.0
 30
0.0
  9
$PUCSXDIR
 10
1.0
 20
0.0
 30
0.0
  9
$PUCSYDIR
 10
0.0
 20
1.0
 30
0.0
  9
$PUCSORTHOREF
  2

  9
$PUCSORTHOVIEW
 70
     0
  9
$PUCSORGTOP
 10
0.0
 20
0.0
 30
0.0
  9
$PUCSORGBOTTOM
 10
0.0
 20
0.0
 30
0.0
  9
$PUCSORGLEFT
 10
0.0
 20
0.0
 30
0.0
  9
$PUCSORGRIGHT
 10
0.0
 20
0.0
 30
0.0
  9
$PUCSORGFRONT
 10
0.0
 20
0.0
 30
0.0
  9
$PUCSORGBACK
 10
0.0
 20
0.0
 30
0.0
  9
$USERI1
 70
     0
  9
$USERI2
 70
     0
  9
$USERI3
 70
     0
  9
$USERI4
 70
     0
  9
$USERI5
 70
     0
  9
$USERR1
 40
0.0
  9
$USERR2
 40
0.0
  9
$USERR3
 40
0.0
  9
$USERR4
 40
0.0
  9
$USERR5
 40
0.0
  9
$WORLDVIEW
 70
     1
  9
$SHADEDGE
 70
     3
  9
$SHADEDIF
 70
    70
  9
$TILEMODE
 70
     1
  9
$MAXACTVP
 70
    64
  9
$PINSBASE
 10
0.0
 20
0.0
 30
0.0
  9
$PLIMCHECK
 70
     0
  9
$PEXTMIN
 10
1.000000000000000E+20
 20
1.000000000000000E+20
 30
1.000000000000000E+20
  9
$PEXTMAX
 10
-1.000000000000000E+20
 20
-1.000000000000000E+20
 30
-1.000000000000000E+20
  9
$PLIMMIN
 10
0.0
 20
0.0
  9
$PLIMMAX
 10
0.0
 20
0.0
  9
$UNITMODE
 70
     0
  9
$VISRETAIN
 70
     1
  9
$PLINEGEN
 70
     0
  9
$PSLTSCALE
 70
     1
  9
$TREEDEPTH
 70
  3020
  9
$CMLSTYLE
  2
Standard
  9
$CMLJUST
 70
     0
  9
$CMLSCALE
 40
20.0
  9
$PROXYGRAPHICS
 70
     1
  9
$MEASUREMENT
 70
     1
  9
$CELWEIGHT
370
    -1
  9
$ENDCAPS
280
     0
  9
$JOINSTYLE
280
     0
  9
$LWDISPLAY
290
     1
  9
$INSUNITS
 70
     4
  9
$HYPERLINKBASE
  1

  9
$STYLESHEET
  1

  9
$XEDIT
290
     1
  9
$CEPSNTYPE
380
     0
  9
$PSTYLEMODE
290
     1
  9
$FINGERPRINTGUID
  2
{7ACA107A-577F-4192-8DB7-CC7D46CA4087}
  9
$VERSIONGUID
  2
{FAEB1C32-E019-11D5-929B-00C0DF256EC4}
  9
$EXTNAMES
290
     1
  9
$PSVPSCALE
 40
0.0
  9
$OLESTARTUP
290
     0
  0
ENDSEC
  0
SECTION
  2
CLASSES
  0
CLASS
  1
ACDBDICTIONARYWDFLT
  2
AcDbDictionaryWithDefault
  3
ObjectDBX Classes
 90
        0
280
     0
281
     0
  0
CLASS
  1
VISUALSTYLE
  2
AcDbVisualStyle
  3
ObjectDBX Classes
 90
     4095
280
     0
281
     0
  0
CLASS
  1
MATERIAL
  2
AcDbMaterial
  3
ObjectDBX Classes
 90
     1153
280
     0
281
     0
  0
CLASS
  1
SCALE
  2
AcDbScale
  3
ObjectDBX Classes
 90
     1153
280
     0
281
     0
  0
CLASS
  1
SUN
  2
AcDbSun
  3
SCENEOE
 90
     1153
280
     0
281
     0
  0
CLASS
  1
ACDBPLACEHOLDER
  2
AcDbPlaceHolder
  3
ObjectDBX Classes
 90
        0
280
     0
281
     0
  0
CLASS
  1
LAYOUT
  2
AcDbLayout
  3
ObjectDBX Classes
 90
        0
280
     0
281
     0
  0
CLASS
  1
TABLESTYLE
  2
AcDbTableStyle
  3
ObjectDBX Classes
 90
     4095
280
     0
281
     0
  0
CLASS
  1
MLEADERSTYLE
  2
AcDbMLeaderStyle
  3
ACDB_MLEADERSTYLE_CLASS
 90
     4095
280
     0
281
     0
  0
CLASS
  1
RASTERVARIABLES
  2
AcDbRasterVariables
  3
ISM
 90
        0
280
     0
281
     0
  0
CLASS
  1
DIMASSOC
  2
AcDbDimAssoc
  3
"AcDbDimAssoc|Product Desc:     AcDim ARX App For Dimension|Company:          Autodesk, Inc.|WEB Address:      www.autodesk.com"
 90
        0
280
     0
281
     0
  0
ENDSEC
  0
SECTION
  2
TABLES
  0
TABLE
  2
VPORT
  5
8
330
0
100
AcDbSymbolTable
 70
     1
  0
VPORT
  5
29
330
8
100
AcDbSymbolTableRecord
100
AcDbViewportTableRecord
  2
*Active
 70
     0
 10
0.0
 20
0.0
 11
1.0
 21
1.0
 12
-17.7369877804832
 22
5.882717693592742
 13
0.0
 23
0.0
 14
10.0
 24
10.0
 15
10.0
 25
10.0
 16
0.0
 26
0.0
 36
1.0
 17
0.0
 27
0.0
 37
0.0
 40
224.4714094288306
 41
1.67311411992263
 42
50.0
 43
0.0
 44
0.0
 50
0.0
 51
0.0
 71
    16
 72
  2000
 73
     1
 74
     3
 75
     0
 76
     0
 77
     0
 78
     0
281
     0
 65
     1
110
0.0
120
0.0
130
0.0
111
1.0
121
0.0
131
0.0
112
0.0
122
1.0
132
0.0
 79
     0
146
0.0
  0
ENDTAB
  0
TABLE
  2
LTYPE
  5
5
330
0
100
AcDbSymbolTable
 70
     6
  0
LTYPE
  5
14
330
5
100
AcDbSymbolTableRecord
100
AcDbLinetypeTableRecord
  2
ByBlock
 70
     0
  3

 72
    65
 73
     0
 40
0.0
  0
LTYPE
  5
15
330
5
100
AcDbSymbolTableRecord
100
AcDbLinetypeTableRecord
  2
ByLayer
 70
     0
  3

 72
    65
 73
     0
 40
0.0
  0
LTYPE
  5
16
330
5
100
AcDbSymbolTableRecord
100
AcDbLinetypeTableRecord
  2
Continuous
 70
     0
  3
Solid line
 72
    65
 73
     0
 40
0.0
  0
LTYPE
  5
6A
330
5
100
AcDbSymbolTableRecord
100
AcDbLinetypeTableRecord
  2
HIDDEN
 70
     0
  3
Hidden __ __ __ __ __ __ __ __ __ __ __ __ __ __
 72
    65
 73
     2
 40
1.905
 49
1.27
 74
     0
 49
-0.635
 74
     0
  0
LTYPE
  5
6B
330
5
100
AcDbSymbolTableRecord
100
AcDbLinetypeTableRecord
  2
PHANTOM
 70
     0
  3
Phantom ______  __  __  ______  __  __  ______
 72
    65
 73
     6
 40
12.7
 49
6.35
 74
     0
 49
-1.27
 74
     0
 49
1.27
 74
     0
 49
-1.27
 74
     0
 49
1.27
 74
     0
 49
-1.27
 74
     0
  0
LTYPE
  5
6C
330
5
100
AcDbSymbolTableRecord
100
AcDbLinetypeTableRecord
  2
CENTER
 70
     0
  3
Center ____ _ ____ _ ____ _ ____ _ ____ _ ____
 72
    65
 73
     4
 40
10.16
 49
6.35
 74
     0
 49
-1.27
 74
     0
 49
1.27
 74
     0
 49
-1.27
 74
     0
  0
LTYPE
  5
6D
330
5
100
AcDbSymbolTableRecord
100
AcDbLinetypeTableRecord
  2
CENTERX2
 70
     0
  3
Center (2x) ________  __  ________  __  _____
 72
    65
 73
     4
 40
20.32
 49
12.7
 74
     0
 49
-2.54
 74
     0
 49
2.54
 74
     0
 49
-2.54
 74
     0
  0
LTYPE
  5
6E
330
5
100
AcDbSymbolTableRecord
100
AcDbLinetypeTableRecord
  2
DOT2
 70
     0
  3
Dot (.5x) ........................................
 72
    65
 73
     2
 40
0.635
 49
0.0
 74
     0
 49
-0.635
 74
     0
  0
ENDTAB
  0
TABLE
  2
LAYER
  5
2
102
{ACAD_XDICTIONARY
360
1CD
102
}
330
0
100
AcDbSymbolTable
 70
    18
  0
LAYER
  5
10
330
2
100
AcDbSymbolTableRecord
100
AcDbLayerTableRecord
  2
0
 70
     0
 62
     7
  6
Continuous
370
    -3
390
F
  0
LAYER
  5
6F
330
2
100
AcDbSymbolTableRecord
100
AcDbLayerTableRecord
  2
FORMAT
 70
     0
 62
     2
  6
Continuous
370
    -3
390
F
  0
LAYER
  5
70
330
2
100
AcDbSymbolTableRecord
100
AcDbLayerTableRecord
  2
외형선
 70
     0
 62
     4
  6
Continuous
370
    30
390
F
  0
LAYER
  5
71
330
2
100
AcDbSymbolTableRecord
100
AcDbLayerTableRecord
  2
숨은선
 70
     0
 62
     2
  6
HIDDEN
370
    15
390
F
  0
LAYER
  5
72
330
2
100
AcDbSymbolTableRecord
100
AcDbLayerTableRecord
  2
중심선
 70
     0
 62
     1
  6
CENTERX2
370
    -3
390
F
  0
LAYER
  5
73
330
2
100
AcDbSymbolTableRecord
100
AcDbLayerTableRecord
  2
파단선
 70
     0
 62
     4
  6
Continuous
370
    -3
390
F
  0
LAYER
  5
74
330
2
100
AcDbSymbolTableRecord
100
AcDbLayerTableRecord
  2
해칭선
 70
     0
 62
   100
  6
Continuous
370
    -3
390
F
  0
LAYER
  5
75
330
2
100
AcDbSymbolTableRecord
100
AcDbLayerTableRecord
  2
가는실선
 70
     0
 62
     4
  6
Continuous
370
    -3
390
F
  0
LAYER
  5
76
330
2
100
AcDbSymbolTableRecord
100
AcDbLayerTableRecord
  2
치수_보조선
 70
     0
 62
     4
  6
Continuous
370
    -3
390
F
  0
LAYER
  5
77
330
2
100
AcDbSymbolTableRecord
100
AcDbLayerTableRecord
  2
치수문자_일반주서
 70
     0
 62
     7
  6
Continuous
370
    15
390
F
  0
LAYER
  5
78
330
2
100
AcDbSymbolTableRecord
100
AcDbLayerTableRecord
  2
개별주서
 70
     0
 62
   100
  6
Continuous
370
    30
390
F
  0
LAYER
  5
79
330
2
100
AcDbSymbolTableRecord
100
AcDbLayerTableRecord
  2
중간선
 70
     0
 62
     2
  6
Continuous
370
    15
390
F
  0
LAYER
  5
7A
330
2
100
AcDbSymbolTableRecord
100
AcDbLayerTableRecord
  2
윤곽선
 70
     0
 62
     3
  6
Continuous
370
    40
390
F
  0
LAYER
  5
7B
330
2
100
AcDbSymbolTableRecord
100
AcDbLayerTableRecord
  2
중심마크
 70
     0
 62
   100
  6
Continuous
370
    30
390
F
  0
LAYER
  5
7C
330
2
100
AcDbSymbolTableRecord
100
AcDbLayerTableRecord
  2
가상선
 70
     0
 62
     4
  6
PHANTOM
370
    -3
390
F
  0
LAYER
  5
7D
330
2
100
AcDbSymbolTableRecord
100
AcDbLayerTableRecord
  2
특수지정선
 70
     0
 62
     5
  6
CENTERX2
370
    60
390
F
  0
LAYER
  5
7E
330
2
100
AcDbSymbolTableRecord
100
AcDbLayerTableRecord
  2
참조1
 70
     0
 62
    -4
  6
Continuous
370
    -3
390
F
  0
LAYER
  5
137
330
2
100
AcDbSymbolTableRecord
100
AcDbLayerTableRecord
  2
Defpoints
 70
     0
 62
     7
  6
Continuous
290
     0
370
    -3
390
F
  0
ENDTAB
  0
TABLE
  2
STYLE
  5
3
330
0
100
AcDbSymbolTable
 70
     2
  0
STYLE
  5
11
330
3
100
AcDbSymbolTableRecord
100
AcDbTextStyleTableRecord
  2
Standard
 70
     0
 40
0.0
 41
1.0
 50
0.0
 71
     0
 42
3.5
  3
txt
  4

  0
STYLE
  5
94
330
3
100
AcDbSymbolTableRecord
100
AcDbTextStyleTableRecord
  2
SLDTEXTSTYLE0
 70
     0
 40
0.0
 41
0.75
 50
0.0
 71
     0
 42
3.5
  3
TXT
  4

  0
ENDTAB
  0
TABLE
  2
VIEW
  5
6
330
0
100
AcDbSymbolTable
 70
     0
  0
ENDTAB
  0
TABLE
  2
UCS
  5
7
330
0
100
AcDbSymbolTable
 70
     0
  0
ENDTAB
  0
TABLE
  2
APPID
  5
9
330
0
100
AcDbSymbolTable
 70
     1
  0
APPID
  5
12
330
9
100
AcDbSymbolTableRecord
100
AcDbRegAppTableRecord
  2
ACAD
 70
     0
  0
ENDTAB
  0
TABLE
  2
DIMSTYLE
  5
A
330
0
100
AcDbSymbolTable
 70
     3
100
AcDbDimStyleTable
  0
DIMSTYLE
105
27
330
A
100
AcDbSymbolTableRecord
100
AcDbDimStyleTableRecord
  2
ISO-25
 70
     0
 41
2.5
 42
0.625
 43
3.75
 44
1.25
 73
     0
 74
     0
 77
     1
 78
     8
140
2.5
141
2.5
143
0.03937007874016
147
0.625
171
     3
172
     1
178
     0
271
     2
272
     2
274
     3
278
    44
283
     0
284
     8
340
11
  0
DIMSTYLE
105
B7
102
{ACAD_REACTORS
330
185
330
192
330
1B4
330
219
330
21A
330
21E
102
}
330
A
100
AcDbSymbolTableRecord
100
AcDbDimStyleTableRecord
  2
SLDDIMSTYLE0
 70
     0
 41
3.302
 44
0.0
 45
0.000000001
 73
     0
 74
     0
 77
     1
 78
    12
 79
     3
140
3.5
143
0.0393700787401575
147
0.875
148
0.000000001
170
     1
173
     1
178
     0
271
     2
272
     2
276
     2
284
    12
340
94
  0
DIMSTYLE
105
F1
102
{ACAD_REACTORS
330
19F
330
21B
102
}
330
A
100
AcDbSymbolTableRecord
100
AcDbDimStyleTableRecord
  2
SLDDIMSTYLE1
 70
     0
 41
3.302
 44
0.0
 45
0.000000001
 73
     0
 74
     0
 77
     1
 78
     4
 79
     1
140
3.5
143
0.0393700787401575
147
0.875
148
0.000000001
170
     1
172
     1
173
     1
178
     0
271
     2
272
     2
276
     2
284
    12
289
     0
340
94
  0
ENDTAB
  0
TABLE
  2
BLOCK_RECORD
  5
1
330
0
100
AcDbSymbolTable
 70
    17
  0
BLOCK_RECORD
  5
1F
330
1
100
AcDbSymbolTableRecord
100
AcDbBlockTableRecord
  2
*Model_Space
340
22
  0
BLOCK_RECORD
  5
1B
330
1
100
AcDbSymbolTableRecord
100
AcDbBlockTableRecord
  2
*Paper_Space
340
1E
  0
BLOCK_RECORD
  5
23
330
1
100
AcDbSymbolTableRecord
100
AcDbBlockTableRecord
  2
*Paper_Space0
340
26
  0
BLOCK_RECORD
  5
7F
330
1
100
AcDbSymbolTableRecord
100
AcDbBlockTableRecord
  2
블럭10
340
0
102
{BLKREFS
331
AF
102
}
  0
BLOCK_RECORD
  5
B8
330
1
100
AcDbSymbolTableRecord
100
AcDbBlockTableRecord
  2
_D
340
0
  0
BLOCK_RECORD
  5
CB
330
1
100
AcDbSymbolTableRecord
100
AcDbBlockTableRecord
  2
_D_1
340
0
  0
BLOCK_RECORD
  5
DE
330
1
100
AcDbSymbolTableRecord
100
AcDbBlockTableRecord
  2
_D_2
340
0
  0
BLOCK_RECORD
  5
F2
330
1
100
AcDbSymbolTableRecord
100
AcDbBlockTableRecord
  2
_D_3
340
0
  0
BLOCK_RECORD
  5
10C
330
1
100
AcDbSymbolTableRecord
100
AcDbBlockTableRecord
  2
SW_DOWELSYMBOL_0
340
0
102
{BLKREFS
331
0
331
1AC
331
21C
102
}
  0
BLOCK_RECORD
  5
1B7
330
1
100
AcDbSymbolTableRecord
100
AcDbBlockTableRecord
  2
*D8
340
0
  0
BLOCK_RECORD
  5
1D1
330
1
100
AcDbSymbolTableRecord
100
AcDbBlockTableRecord
  2
*D9
340
0
  0
BLOCK_RECORD
  5
1DD
330
1
100
AcDbSymbolTableRecord
100
AcDbBlockTableRecord
  2
*D10
340
0
  0
BLOCK_RECORD
  5
1E9
330
1
100
AcDbSymbolTableRecord
100
AcDbBlockTableRecord
  2
*D11
340
0
  0
BLOCK_RECORD
  5
22B
330
1
100
AcDbSymbolTableRecord
100
AcDbBlockTableRecord
  2
*D12
340
0
  0
BLOCK_RECORD
  5
237
330
1
100
AcDbSymbolTableRecord
100
AcDbBlockTableRecord
  2
*D13
340
0
  0
BLOCK_RECORD
  5
243
330
1
100
AcDbSymbolTableRecord
100
AcDbBlockTableRecord
  2
*D14
340
0
  0
BLOCK_RECORD
  5
24F
330
1
100
AcDbSymbolTableRecord
100
AcDbBlockTableRecord
  2
*D15
340
0
  0
ENDTAB
  0
ENDSEC
  0
SECTION
  2
BLOCKS
  0
BLOCK
  5
20
330
1F
100
AcDbEntity
  8
0
100
AcDbBlockBegin
  2
*Model_Space
 70
     0
 10
0.0
 20
0.0
 30
0.0
  3
*Model_Space
  1
*Model_Space
  0
ENDBLK
  5
21
330
1F
100
AcDbEntity
  8
0
100
AcDbBlockEnd
  0
BLOCK
  5
1C
330
1B
100
AcDbEntity
 67
     1
  8
0
100
AcDbBlockBegin
  2
*Paper_Space
 70
     0
 10
0.0
 20
0.0
 30
0.0
  3
*Paper_Space
  1
*Paper_Space
  0
ENDBLK
  5
1D
330
1B
100
AcDbEntity
 67
     1
  8
0
100
AcDbBlockEnd
  0
BLOCK
  5
24
330
23
100
AcDbEntity
  8
0
100
AcDbBlockBegin
  2
*Paper_Space0
 70
     0
 10
0.0
 20
0.0
 30
0.0
  3
*Paper_Space0
  1
*Paper_Space0
  0
ENDBLK
  5
25
330
23
100
AcDbEntity
  8
0
100
AcDbBlockEnd
  0
BLOCK
  5
80
330
7F
100
AcDbEntity
  8
0
100
AcDbBlockBegin
  2
블럭10
 70
     2
 10
0.0
 20
0.0
 30
0.0
  3
블럭10
  1
블럭10
  0
ELLIPSE
  5
82
330
7F
100
AcDbEntity
  8
중심선
100
AcDbEllipse
 10
20.54032771741204
 20
12.0471743016438
 30
0.0
 11
6.600054785286829
 21
-1.261213355974178E-13
 31
0.0
210
0.0
220
0.0
230
1.0
 40
0.636358354079598
 41
0.9219305317359503
 42
6.513795318482858
  0
ELLIPSE
  5
83
330
7F
100
AcDbEntity
  8
중심선
100
AcDbEllipse
 10
20.54032771746488
 20
12.04717430159265
 30
0.0
 11
3.960054785062283
 21
1.540847449632565E-10
 31
0.0
210
0.0
220
0.0
230
1.0
 40
0.3939339440162632
 41
1.131841032648279
 42
5.62031148352944
  0
LINE
  5
84
330
7F
100
AcDbEntity
  8
중심선
100
AcDbLine
 10
2.268634060543552
 20
16.24717430164393
 30
0.0
 11
5.714909304380834
 21
16.24717430164393
 31
0.0
  0
LINE
  5
85
330
7F
100
AcDbEntity
  8
중심선
100
AcDbLine
 10
5.245725140726316
 20
7.84717430164391
 30
0.0
 11
8.692000384563599
 21
7.84717430164391
 31
0.0
  0
LINE
  5
86
330
7F
100
AcDbEntity
  8
중심선
100
AcDbLine
 10
15.74043728645272
 20
16.24717430164393
 30
0.0
 11
8.692000384563599
 21
7.84717430164391
 31
0.0
  0
LINE
  5
87
330
7F
100
AcDbEntity
  8
중심선
100
AcDbLine
 10
0.1404042013395286
 20
13.71084872107135
 30
0.0
 11
3.58671253028996
 21
13.71088815037384
 31
0.0
  0
LINE
  5
88
330
7F
100
AcDbEntity
  8
중심선
100
AcDbLine
 10
2.750260043222114
 20
10.84717430164391
 30
0.0
 11
6.196535287059397
 21
10.84717430164391
 31
0.0
  0
LINE
  5
89
330
7F
100
AcDbEntity
  8
중심선
100
AcDbLine
 10
12.29416204261559
 20
16.24717430164393
 30
0.0
 11
5.245725140726316
 21
7.84717430164391
 31
0.0
  0
LINE
  5
8A
330
7F
100
AcDbEntity
  8
중심선
100
AcDbLine
 10
10.72767329541681
 20
16.24717430164393
 30
0.0
 11
6.196535287059397
 21
10.84717430164391
 31
0.0
  0
LINE
  5
8B
330
7F
100
AcDbEntity
  8
중심선
100
AcDbLine
 10
7.28139805157953
 20
16.24717430164393
 30
0.0
 11
2.750260043222114
 21
10.84717430164391
 31
0.0
  0
LINE
  5
8C
330
7F
100
AcDbEntity
  8
중심선
100
AcDbLine
 10
5.714909304380834
 20
16.24717430164393
 30
0.0
 11
3.58671253028996
 21
13.71088815037384
 31
0.0
  0
LINE
  5
8D
330
7F
100
AcDbEntity
  8
중심선
100
AcDbLine
 10
2.268634060543552
 20
16.24717430164393
 30
0.0
 11
0.1404042013395286
 21
13.71084872107135
 31
0.0
  0
LINE
  5
8E
330
7F
100
AcDbEntity
  8
중심선
100
AcDbLine
 10
7.28139805157953
 20
16.24717430164393
 30
0.0
 11
10.72767329541681
 21
16.24717430164393
 31
0.0
  0
LINE
  5
8F
330
7F
100
AcDbEntity
  8
중심선
100
AcDbLine
 10
12.29416204261559
 20
16.24717430164393
 30
0.0
 11
15.74043728645272
 21
16.24717430164393
 31
0.0
  0
LINE
  5
90
330
7F
100
AcDbEntity
  8
중심선
100
AcDbLine
 10
19.22036997980202
 20
11.08717430171403
 30
0.0
 11
23.66174974927406
 21
11.08717430171406
 31
0.0
  0
LINE
  5
91
330
7F
100
AcDbEntity
  8
중심선
100
AcDbLine
 10
19.22039502424796
 20
13.00717430171391
 30
0.0
 11
19.22036997980202
 21
11.08717430171403
 31
0.0
  0
LINE
  5
92
330
7F
100
AcDbEntity
  8
중심선
100
AcDbLine
 10
19.22039502424796
 20
13.00717430171391
 30
0.0
 11
26.96566020931264
 21
13.00717430171391
 31
0.0
  0
LINE
  5
93
330
7F
100
AcDbEntity
  8
중심선
100
AcDbLine
 10
22.22332737316547
 20
13.45928029700563
 30
0.0
 11
24.52862924686651
 21
15.39360700705356
 31
0.0
  0
ATTDEF
  5
95
330
7F
100
AcDbEntity
  8
FORMAT
 62
     2
100
AcDbText
 10
4.408487351596664
 20
2.075366912832191
 30
0.0
 40
4.233333333333333
  1
E2039909
 41
0.75
  7
SLDTEXTSTYLE0
 11
4.408487351596664
 21
-0.0412997538344756
 31
0.0
100
AcDbAttributeDefinition
  3

  2
AUTOATTR0
 70
     0
 74
     1
  0
ENDBLK
  5
81
330
7F
100
AcDbEntity
  8
0
100
AcDbBlockEnd
  0
BLOCK
  5
B9
330
B8
100
AcDbEntity
  8
0
100
AcDbBlockBegin
  2
_D
 70
     0
 10
0.0
 20
0.0
 30
0.0
  3
_D
  1
_D
  0
SOLID
  5
BB
330
B8
100
AcDbEntity
  8
치수문자_일반주서
100
AcDbTrace
 10
56.67052760992014
 20
5.218258589704695
 30
0.0
 11
56.16252760992013
 21
1.916258589704696
 31
0.0
 12
57.17852760992014
 22
1.916258589704696
 32
0.0
 13
57.17852760992014
 23
1.916258589704696
 33
0.0
  0
SOLID
  5
BC
330
B8
100
AcDbEntity
  8
치수문자_일반주서
100
AcDbTrace
 10
56.67052760992014
 20
-5.100491410295312
 30
0.0
 11
57.17852760992014
 21
-1.798491410295313
 31
0.0
 12
56.16252760992013
 22
-1.798491410295313
 32
0.0
 13
56.16252760992013
 23
-1.798491410295313
 33
0.0
  0
LINE
  5
BD
330
B8
100
AcDbEntity
  8
치수문자_일반주서
100
AcDbLine
 10
45.87764589387741
 20
10.23472747827019
 30
0.0
 11
45.87764589387741
 21
9.52378999270569
 31
0.0
  0
LINE
  5
BE
330
B8
100
AcDbEntity
  8
치수문자_일반주서
100
AcDbLine
 10
45.87764589387741
 20
9.52378999270569
 30
0.0
 11
51.43389588493672
 21
9.523789992705732
 31
0.0
  0
LINE
  5
BF
330
B8
100
AcDbEntity
  8
치수문자_일반주서
100
AcDbLine
 10
51.43389588493672
 20
9.523789992705732
 30
0.0
 11
51.43389588493671
 21
10.23472747827023
 31
0.0
  0
LINE
  5
C0
330
B8
100
AcDbEntity
  8
치수문자_일반주서
100
AcDbLine
 10
45.87764589387734
 20
21.06346034040745
 30
0.0
 11
45.87764589387733
 21
21.77439782597195
 31
0.0
  0
LINE
  5
C1
330
B8
100
AcDbEntity
  8
치수문자_일반주서
100
AcDbLine
 10
45.87764589387733
 20
21.77439782597195
 30
0.0
 11
51.43389588493663
 21
21.77439782597199
 31
0.0
  0
LINE
  5
C2
330
B8
100
AcDbEntity
  8
치수문자_일반주서
100
AcDbLine
 10
51.43389588493663
 20
21.77439782597199
 30
0.0
 11
51.43389588493664
 21
21.06346034040749
 31
0.0
  0
LINE
  5
C3
330
B8
100
AcDbEntity
  8
치수문자_일반주서
100
AcDbLine
 10
35.34547953039672
 20
5.218258589704698
 30
0.0
 11
57.67052760992014
 21
5.218258589704695
 31
0.0
  0
LINE
  5
C4
330
B8
100
AcDbEntity
  8
치수문자_일반주서
100
AcDbLine
 10
35.34547953039672
 20
-5.100491410295311
 30
0.0
 11
57.67052760992014
 21
-5.100491410295312
 31
0.0
  0
LINE
  5
C5
330
B8
100
AcDbEntity
  8
치수문자_일반주서
100
AcDbLine
 10
56.67052760992014
 20
5.218258589704695
 30
0.0
 11
56.67052760992014
 21
24.10706285215991
 31
0.0
  0
LINE
  5
C6
330
B8
100
AcDbEntity
  8
치수문자_일반주서
100
AcDbLine
 10
56.67052760992014
 20
5.218258589704695
 30
0.0
 11
56.67052760992014
 21
-5.100491410295312
 31
0.0
  0
MTEXT
  5
C7
330
B8
100
AcDbEntity
  8
치수문자_일반주서
100
AcDbMText
 10
46.92215897035781
 20
11.12339937888157
 30
0.0
 40
3.5
 41
0.0
 71
     1
 72
     1
  1
0.41
  7
SLDTEXTSTYLE0
 11
-7.044195017643634E-15
 21
1.0
 31
0.0
 73
     1
 44
1.0
  0
MTEXT
  5
C8
330
B8
100
AcDbEntity
  8
치수문자_일반주서
100
AcDbMText
 10
52.15879052071831
 20
7.191124966517838
 30
0.0
 40
3.5
 41
0.0
 71
     1
 72
     1
  1
%%c
  7
SLDTEXTSTYLE0
 11
-7.044195017643634E-15
 21
1.0
 31
0.0
 73
     1
 44
1.0
  0
MTEXT
  5
C9
330
B8
100
AcDbEntity
  8
치수문자_일반주서
100
AcDbMText
 10
52.15879052071828
 20
12.46956236489192
 30
0.0
 40
3.5
 41
0.0
 71
     1
 72
     1
  1
10.32
  7
SLDTEXTSTYLE0
 11
-7.044195017643634E-15
 21
1.0
 31
0.0
 73
     1
 44
1.0
  0
ENDBLK
  5
BA
330
B8
100
AcDbEntity
  8
0
100
AcDbBlockEnd
  0
BLOCK
  5
CC
330
CB
100
AcDbEntity
  8
0
100
AcDbBlockBegin
  2
_D_1
 70
     0
 10
0.0
 20
0.0
 30
0.0
  3
_D_1
  1
_D_1
  0
SOLID
  5
CE
330
CB
100
AcDbEntity
  8
치수문자_일반주서
100
AcDbTrace
 10
47.34365766425389
 20
16.63113254955809
 30
0.0
 11
44.04165766425389
 21
17.13913254955809
 31
0.0
 12
44.04165766425389
 22
16.12313254955809
 32
0.0
 13
44.04165766425389
 23
16.12313254955809
 33
0.0
  0
SOLID
  5
CF
330
CB
100
AcDbEntity
  8
치수문자_일반주서
100
AcDbTrace
 10
12.4186576642539
 20
16.63113254955814
 30
0.0
 11
15.7206576642539
 21
16.12313254955814
 31
0.0
 12
15.7206576642539
 22
17.13913254955813
 32
0.0
 13
15.7206576642539
 23
17.13913254955813
 33
0.0
  0
LINE
  5
D0
330
CB
100
AcDbEntity
  8
치수문자_일반주서
100
AcDbLine
 10
24.46679158243119
 20
27.42401426560085
 30
0.0
 11
23.75585409686669
 21
27.42401426560086
 31
0.0
  0
LINE
  5
D1
330
CB
100
AcDbEntity
  8
치수문자_일반주서
100
AcDbLine
 10
23.75585409686669
 20
27.42401426560086
 30
0.0
 11
23.75585409686664
 21
21.86776427454155
 31
0.0
  0
LINE
  5
D2
330
CB
100
AcDbEntity
  8
치수문자_일반주서
100
AcDbLine
 10
23.75585409686664
 20
21.86776427454155
 30
0.0
 11
24.46679158243114
 21
21.86776427454155
 31
0.0
  0
LINE
  5
D3
330
CB
100
AcDbEntity
  8
치수문자_일반주서
100
AcDbLine
 10
35.29552444456844
 20
27.42401426560076
 30
0.0
 11
36.00646193013294
 21
27.42401426560075
 31
0.0
  0
LINE
  5
D4
330
CB
100
AcDbEntity
  8
치수문자_일반주서
100
AcDbLine
 10
36.00646193013294
 20
27.42401426560075
 30
0.0
 11
36.0064619301329
 21
21.86776427454145
 31
0.0
  0
LINE
  5
D5
330
CB
100
AcDbEntity
  8
치수문자_일반주서
100
AcDbLine
 10
36.0064619301329
 20
21.86776427454145
 30
0.0
 11
35.2955244445684
 21
21.86776427454146
 31
0.0
  0
LINE
  5
D6
330
CB
100
AcDbEntity
  8
치수문자_일반주서
100
AcDbLine
 10
47.34365766425388
 20
7.583239810165953
 30
0.0
 11
47.34365766425389
 21
17.63113254955809
 31
0.0
  0
LINE
  5
D7
330
CB
100
AcDbEntity
  8
치수문자_일반주서
100
AcDbLine
 10
12.41865766425388
 20
7.605538961946342
 30
0.0
 11
12.4186576642539
 21
17.63113254955814
 31
0.0
  0
LINE
  5
D8
330
CB
100
AcDbEntity
  8
치수문자_일반주서
100
AcDbLine
 10
47.34365766425389
 20
16.63113254955809
 30
0.0
 11
12.4186576642539
 21
16.63113254955814
 31
0.0
  0
MTEXT
  5
D9
330
CB
100
AcDbEntity
  8
치수문자_일반주서
100
AcDbMText
 10
23.24209537137995
 20
21.19634181541983
 30
0.0
 40
3.5
 41
0.0
 71
     1
 72
     1
  1

  7
SLDTEXTSTYLE0
 73
     1
 44
1.0
  0
MTEXT
  5
DA
330
CB
100
AcDbEntity
  8
치수문자_일반주서
100
AcDbMText
 10
25.35546348304256
 20
26.37950118912043
 30
0.0
 40
3.5
 41
0.0
 71
     1
 72
     1
  1
1.38
  7
SLDTEXTSTYLE0
 73
     1
 44
1.0
  0
MTEXT
  5
DB
330
CB
100
AcDbEntity
  8
치수문자_일반주서
100
AcDbMText
 10
24.06240776986578
 20
21.14286963875997
 30
0.0
 40
3.5
 41
0.0
 71
     1
 72
     1
  1
34.93
  7
SLDTEXTSTYLE0
 73
     1
 44
1.0
  0
MTEXT
  5
DC
330
CB
100
AcDbEntity
  8
치수문자_일반주서
100
AcDbMText
 10
37.85216517527351
 20
21.19634181541971
 30
0.0
 40
3.5
 41
0.0
 71
     1
 72
     1
  1

  7
SLDTEXTSTYLE0
 73
     1
 44
1.0
  0
ENDBLK
  5
CD
330
CB
100
AcDbEntity
  8
0
100
AcDbBlockEnd
  0
BLOCK
  5
DF
330
DE
100
AcDbEntity
  8
0
100
AcDbBlockBegin
  2
_D_2
 70
     0
 10
0.0
 20
0.0
 30
0.0
  3
_D_2
  1
_D_2
  0
SOLID
  5
E1
330
DE
100
AcDbEntity
  8
치수문자_일반주서
100
AcDbTrace
 10
47.34365766425388
 20
28.63113254955805
 30
0.0
 11
44.04165766425388
 21
29.13913254955805
 31
0.0
 12
44.04165766425388
 22
28.12313254955805
 32
0.0
 13
44.04165766425388
 23
28.12313254955805
 33
0.0
  0
SOLID
  5
E2
330
DE
100
AcDbEntity
  8
치수문자_일반주서
100
AcDbTrace
 10
-38.38134233574612
 20
28.63113254955804
 30
0.0
 11
-35.07934233574612
 21
28.12313254955804
 31
0.0
 12
-35.07934233574612
 22
29.13913254955804
 32
0.0
 13
-35.07934233574612
 23
29.13913254955804
 33
0.0
  0
LINE
  5
E3
330
DE
100
AcDbEntity
  8
치수문자_일반주서
100
AcDbLine
 10
0.2373901932149428
 20
39.42401426560077
 30
0.0
 11
-0.4735472923495573
 21
39.42401426560077
 31
0.0
  0
LINE
  5
E4
330
DE
100
AcDbEntity
  8
치수문자_일반주서
100
AcDbLine
 10
-0.4735472923495573
 20
39.42401426560077
 30
0.0
 11
-0.4735472923495967
 21
33.86776427454147
 31
0.0
  0
LINE
  5
E5
330
DE
100
AcDbEntity
  8
치수문자_일반주서
100
AcDbLine
 10
-0.4735472923495967
 20
33.86776427454147
 30
0.0
 11
0.2373901932149033
 21
33.86776427454146
 31
0.0
  0
LINE
  5
E6
330
DE
100
AcDbEntity
  8
치수문자_일반주서
100
AcDbLine
 10
11.0661230553522
 20
39.4240142656007
 30
0.0
 11
11.7770605409167
 21
39.42401426560069
 31
0.0
  0
LINE
  5
E7
330
DE
100
AcDbEntity
  8
치수문자_일반주서
100
AcDbLine
 10
11.7770605409167
 20
39.42401426560069
 30
0.0
 11
11.77706054091666
 21
33.86776427454139
 31
0.0
  0
LINE
  5
E8
330
DE
100
AcDbEntity
  8
치수문자_일반주서
100
AcDbLine
 10
11.77706054091666
 20
33.86776427454139
 30
0.0
 11
11.06612305535216
 21
33.86776427454139
 31
0.0
  0
LINE
  5
E9
330
DE
100
AcDbEntity
  8
치수문자_일반주서
100
AcDbLine
 10
47.34365766425388
 20
7.583239810165953
 30
0.0
 11
47.34365766425388
 21
29.63113254955805
 31
0.0
  0
LINE
  5
EA
330
DE
100
AcDbEntity
  8
치수문자_일반주서
100
AcDbLine
 10
-38.38134233574612
 20
6.138883589704698
 30
0.0
 11
-38.38134233574612
 21
29.63113254955804
 31
0.0
  0
LINE
  5
EB
330
DE
100
AcDbEntity
  8
치수문자_일반주서
100
AcDbLine
 10
47.34365766425388
 20
28.63113254955805
 30
0.0
 11
-38.38134233574612
 21
28.63113254955804
 31
0.0
  0
MTEXT
  5
EC
330
DE
100
AcDbEntity
  8
치수문자_일반주서
100
AcDbMText
 10
-0.9873060178362975
 20
33.19634181541976
 30
0.0
 40
3.5
 41
0.0
 71
     1
 72
     1
  1

  7
SLDTEXTSTYLE0
 73
     1
 44
1.0
  0
MTEXT
  5
ED
330
DE
100
AcDbEntity
  8
치수문자_일반주서
100
AcDbMText
 10
1.126062093826306
 20
38.37950118912036
 30
0.0
 40
3.5
 41
0.0
 71
     1
 72
     1
  1
3.38
  7
SLDTEXTSTYLE0
 73
     1
 44
1.0
  0
MTEXT
  5
EE
330
DE
100
AcDbEntity
  8
치수문자_일반주서
100
AcDbMText
 10
-0.166993619350458
 20
33.1428696387599
 30
0.0
 40
3.5
 41
0.0
 71
     1
 72
     1
  1
85.73
  7
SLDTEXTSTYLE0
 73
     1
 44
1.0
  0
MTEXT
  5
EF
330
DE
100
AcDbEntity
  8
치수문자_일반주서
100
AcDbMText
 10
13.62276378605727
 20
33.19634181541966
 30
0.0
 40
3.5
 41
0.0
 71
     1
 72
     1
  1

  7
SLDTEXTSTYLE0
 73
     1
 44
1.0
  0
ENDBLK
  5
E0
330
DE
100
AcDbEntity
  8
0
100
AcDbBlockEnd
  0
BLOCK
  5
F3
330
F2
100
AcDbEntity
  8
0
100
AcDbBlockBegin
  2
_D_3
 70
     0
 10
0.0
 20
0.0
 30
0.0
  3
_D_3
  1
_D_3
  0
SOLID
  5
F5
330
F2
100
AcDbEntity
  8
치수문자_일반주서
100
AcDbTrace
 10
-51.06384233574614
 20
6.408883589704687
 30
0.0
 11
-50.55584233574614
 21
9.710883589704686
 31
0.0
 12
-51.57184233574614
 22
9.710883589704686
 32
0.0
 13
-51.57184233574614
 23
9.710883589704686
 33
0.0
  0
SOLID
  5
F6
330
F2
100
AcDbEntity
  8
치수문자_일반주서
100
AcDbTrace
 10
-51.06384233574614
 20
-6.291116410295301
 30
0.0
 11
-51.57184233574614
 21
-9.593116410295302
 31
0.0
 12
-50.55584233574614
 22
-9.593116410295302
 32
0.0
 13
-50.55584233574614
 23
-9.593116410295302
 33
0.0
  0
LINE
  5
F7
330
F2
100
AcDbEntity
  8
치수문자_일반주서
100
AcDbLine
 10
-61.85672405178885
 20
-5.35548284136401
 30
0.0
 11
-61.85672405178885
 21
-6.06642032692851
 31
0.0
  0
LINE
  5
F8
330
F2
100
AcDbEntity
  8
치수문자_일반주서
100
AcDbLine
 10
-61.85672405178885
 20
-6.06642032692851
 30
0.0
 11
-56.30047406072954
 21
-6.066420326928471
 31
0.0
  0
LINE
  5
F9
330
F2
100
AcDbEntity
  8
치수문자_일반주서
100
AcDbLine
 10
-56.30047406072954
 20
-6.066420326928471
 30
0.0
 11
-56.30047406072955
 21
-5.355482841363971
 31
0.0
  0
LINE
  5
FA
330
F2
100
AcDbEntity
  8
치수문자_일반주서
100
AcDbLine
 10
-61.85672405178892
 20
5.473250020773248
 30
0.0
 11
-61.85672405178893
 21
6.184187506337748
 31
0.0
  0
LINE
  5
FB
330
F2
100
AcDbEntity
  8
치수문자_일반주서
100
AcDbLine
 10
-61.85672405178893
 20
6.184187506337748
 30
0.0
 11
-56.30047406072963
 21
6.184187506337787
 31
0.0
  0
LINE
  5
FC
330
F2
100
AcDbEntity
  8
치수문자_일반주서
100
AcDbLine
 10
-56.30047406072963
 20
6.184187506337787
 30
0.0
 11
-56.30047406072962
 21
5.473250020773287
 31
0.0
  0
LINE
  5
FD
330
F2
100
AcDbEntity
  8
치수문자_일반주서
100
AcDbLine
 10
-38.11134233574612
 20
6.408883589704688
 30
0.0
 11
-52.06384233574614
 21
6.408883589704687
 31
0.0
  0
LINE
  5
FE
330
F2
100
AcDbEntity
  8
치수문자_일반주서
100
AcDbLine
 10
-38.11134233574612
 20
-6.291116410295301
 30
0.0
 11
-52.06384233574614
 21
-6.291116410295301
 31
0.0
  0
LINE
  5
FF
330
F2
100
AcDbEntity
  8
치수문자_일반주서
100
AcDbLine
 10
-51.06384233574614
 20
6.408883589704687
 30
0.0
 11
-51.06384233574614
 21
12.75888358970469
 31
0.0
  0
LINE
  5
100
330
F2
100
AcDbEntity
  8
치수문자_일반주서
100
AcDbLine
 10
-51.06384233574614
 20
6.408883589704687
 30
0.0
 11
-51.06384233574614
 21
-6.291116410295301
 31
0.0
  0
LINE
  5
101
330
F2
100
AcDbEntity
  8
치수문자_일반주서
100
AcDbLine
 10
-51.06384233574614
 20
-6.291116410295301
 30
0.0
 11
-51.06384233574614
 21
-12.6411164102953
 31
0.0
  0
MTEXT
  5
102
330
F2
100
AcDbEntity
  8
치수문자_일반주서
100
AcDbMText
 10
-60.81221097530845
 20
-4.466810940752632
 30
0.0
 40
3.5
 41
0.0
 71
     1
 72
     1
  1
0.50
  7
SLDTEXTSTYLE0
 11
-7.044195017643634E-15
 21
1.0
 31
0.0
 73
     1
 44
1.0
  0
MTEXT
  5
103
330
F2
100
AcDbEntity
  8
치수문자_일반주서
100
AcDbMText
 10
-55.57557942494794
 20
-8.399085353116362
 30
0.0
 40
3.5
 41
0.0
 71
     1
 72
     1
  1
%%c
  7
SLDTEXTSTYLE0
 11
-7.044195017643634E-15
 21
1.0
 31
0.0
 73
     1
 44
1.0
  0
MTEXT
  5
104
330
F2
100
AcDbEntity
  8
치수문자_일반주서
100
AcDbMText
 10
-55.57557942494797
 20
-3.120647954742283
 30
0.0
 40
3.5
 41
0.0
 71
     1
 72
     1
  1
12.70
  7
SLDTEXTSTYLE0
 11
-7.044195017643634E-15
 21
1.0
 31
0.0
 73
     1
 44
1.0
  0
ENDBLK
  5
F4
330
F2
100
AcDbEntity
  8
0
100
AcDbBlockEnd
  0
BLOCK
  5
10D
330
10C
100
AcDbEntity
  8
0
100
AcDbBlockBegin
  2
SW_DOWELSYMBOL_0
 70
     0
 10
0.0
 20
0.0
 30
0.0
  3
SW_DOWELSYMBOL_0
  1
SW_DOWELSYMBOL_0
  0
CIRCLE
  5
10F
330
10C
100
AcDbEntity
  8
해칭선
 62
     0
100
AcDbCircle
 10
0.0
 20
0.0
 30
0.0
 40
3.0
  0
HATCH
  5
110
330
10C
100
AcDbEntity
  8
0
  6
Continuous
 62
     0
370
     0
100
AcDbHatch
 10
0.0
 20
0.0
 30
0.0
210
0.0
220
0.0
230
1.0
  2
SOLID
 70
     1
 71
     0
 91
        1
 92
        0
 93
        3
 72
     2
 10
0.0
 20
0.0
 40
3.0
 50
0.0
 51
90.0
 73
     1
 72
     1
 10
0.0
 20
3.0
 11
0.0
 21
0.0
 72
     1
 10
0.0
 20
0.0
 11
2.999999999999999
 21
0.0
 97
        0
 75
     0
 76
     1
 98
        1
 10
0.0
 20
0.0
  0
HATCH
  5
111
330
10C
100
AcDbEntity
  8
0
  6
Continuous
 62
     0
370
     0
100
AcDbHatch
 10
0.0
 20
0.0
 30
0.0
210
0.0
220
0.0
230
1.0
  2
SOLID
 70
     1
 71
     0
 91
        1
 92
        0
 93
        3
 72
     2
 10
0.0
 20
0.0
 40
3.0
 50
180.0
 51
270.0000000000008
 73
     1
 72
     1
 10
0.0
 20
-3.0
 11
0.0
 21
0.0
 72
     1
 10
0.0
 20
0.0
 11
-2.999999999999999
 21
0.0
 97
        0
 75
     0
 76
     1
 98
        1
 10
0.0
 20
0.0
  0
ENDBLK
  5
10E
330
10C
100
AcDbEntity
  8
0
100
AcDbBlockEnd
  0
BLOCK
  5
1B8
330
1B7
100
AcDbEntity
  8
0
100
AcDbBlockBegin
  2
*D8
 70
     1
 10
0.0
 20
0.0
 30
0.0
  3
*D8
  1
*D8
  0
LINE
  5
1B9
330
1B7
100
AcDbEntity
  8
치수문자_일반주서
 62
     0
370
    -2
100
AcDbLine
 10
119.2432728378273
 20
24.67500000000003
 30
0.0
 11
140.2798503290727
 21
24.67500000000003
 31
0.0
  0
LINE
  5
1BA
330
1B7
100
AcDbEntity
  8
치수문자_일반주서
 62
     0
370
    -2
100
AcDbLine
 10
119.2432728378273
 20
2.450000000000033
 30
0.0
 11
140.2798503290727
 21
2.450000000000033
 31
0.0
  0
LINE
  5
1BB
330
1B7
100
AcDbEntity
  8
치수문자_일반주서
 62
     0
370
    -2
100
AcDbLine
 10
140.2798503290727
 20
21.37300000000003
 30
0.0
 11
140.2798503290727
 21
5.752000000000033
 31
0.0
  0
SOLID
  5
1BC
330
1B7
100
AcDbEntity
  8
치수문자_일반주서
 62
     0
100
AcDbTrace
 10
140.8301836624061
 20
21.37300000000003
 30
0.0
 11
139.7295169957394
 21
21.37300000000003
 31
0.0
 12
140.2798503290727
 22
24.67500000000003
 32
0.0
 13
140.2798503290727
 23
24.67500000000003
 33
0.0
  0
SOLID
  5
1BD
330
1B7
100
AcDbEntity
  8
치수문자_일반주서
 62
     0
100
AcDbTrace
 10
139.7295169957394
 20
5.752000000000033
 30
0.0
 11
140.8301836624061
 21
5.752000000000033
 31
0.0
 12
140.2798503290727
 22
2.450000000000033
 32
0.0
 13
140.2798503290727
 23
2.450000000000033
 33
0.0
  0
MTEXT
  5
1BE
330
1B7
100
AcDbEntity
  8
치수문자_일반주서
 62
     0
100
AcDbMText
 10
137.6548503290727
 20
13.56250000000004
 30
0.0
 40
3.5
 41
0.0
 71
     5
 72
     1
  1
\A1;{%%C22.23 [7/8]}
  7
SLDTEXTSTYLE0
 11
0.0
 21
1.0
 31
0.0
 73
     1
 44
1.0
  0
POINT
  5
1BF
330
1B7
100
AcDbEntity
  8
Defpoints
 62
     0
100
AcDbPoint
 10
119.1807728378273
 20
24.67500000000003
 30
0.0
  0
POINT
  5
1C0
330
1B7
100
AcDbEntity
  8
Defpoints
 62
     0
100
AcDbPoint
 10
119.1807728378273
 20
2.450000000000033
 30
0.0
  0
POINT
  5
1C1
330
1B7
100
AcDbEntity
  8
Defpoints
 62
     0
100
AcDbPoint
 10
140.2798503290727
 20
2.450000000000032
 30
0.0
  0
ENDBLK
  5
1C2
330
1B7
100
AcDbEntity
  8
0
100
AcDbBlockEnd
  0
BLOCK
  5
1D2
330
1D1
100
AcDbEntity
  8
0
100
AcDbBlockBegin
  2
*D9
 70
     1
 10
0.0
 20
0.0
 30
0.0
  3
*D9
  1
*D9
  0
LINE
  5
1D4
330
1D1
100
AcDbEntity
  8
치수문자_일반주서
 62
     0
370
    -2
100
AcDbLine
 10
119.1807728378272
 20
24.69663479835852
 30
0.0
 11
119.1807728378272
 21
39.70459535692938
 31
0.0
  0
LINE
  5
1D5
330
1D1
100
AcDbEntity
  8
치수문자_일반주서
 62
     0
370
    -2
100
AcDbLine
 10
71.55577283782725
 20
24.44643549245504
 30
0.0
 11
71.55577283782725
 21
39.70459535692938
 31
0.0
  0
LINE
  5
1D6
330
1D1
100
AcDbEntity
  8
치수문자_일반주서
 62
     0
370
    -2
100
AcDbLine
 10
115.8787728378273
 20
39.70459535692938
 30
0.0
 11
74.85777283782724
 21
39.70459535692938
 31
0.0
  0
SOLID
  5
1D7
330
1D1
100
AcDbEntity
  8
치수문자_일반주서
 62
     0
100
AcDbTrace
 10
115.8787728378273
 20
39.15426202359605
 30
0.0
 11
115.8787728378273
 21
40.25492869026272
 31
0.0
 12
119.1807728378272
 22
39.70459535692938
 32
0.0
 13
119.1807728378272
 23
39.70459535692938
 33
0.0
  0
SOLID
  5
1D8
330
1D1
100
AcDbEntity
  8
치수문자_일반주서
 62
     0
100
AcDbTrace
 10
74.85777283782724
 20
40.25492869026272
 30
0.0
 11
74.85777283782724
 21
39.15426202359605
 31
0.0
 12
71.55577283782725
 22
39.70459535692938
 32
0.0
 13
71.55577283782725
 23
39.70459535692938
 33
0.0
  0
MTEXT
  5
1D9
330
1D1
100
AcDbEntity
  8
치수문자_일반주서
 62
     0
100
AcDbMText
 10
95.36827283782725
 20
44.07959535692938
 30
0.0
 40
3.5
 41
0.0
 71
     2
 72
     1
  1
\A1;47.63 [1 7/8]
  7
SLDTEXTSTYLE0
 73
     1
 44
1.0
  0
POINT
  5
1DA
330
1D1
100
AcDbEntity
  8
Defpoints
 62
     0
100
AcDbPoint
 10
119.1807728378272
 20
24.63413479835852
 30
0.0
  0
POINT
  5
1DB
330
1D1
100
AcDbEntity
  8
Defpoints
 62
     0
100
AcDbPoint
 10
71.55577283782725
 20
24.38393549245504
 30
0.0
  0
POINT
  5
1DC
330
1D1
100
AcDbEntity
  8
Defpoints
 62
     0
100
AcDbPoint
 10
71.55577283782725
 20
39.70459535692938
 30
0.0
  0
ENDBLK
  5
1D3
330
1D1
100
AcDbEntity
  8
0
100
AcDbBlockEnd
  0
BLOCK
  5
1DE
330
1DD
100
AcDbEntity
  8
0
100
AcDbBlockBegin
  2
*D10
 70
     1
 10
0.0
 20
0.0
 30
0.0
  3
*D10
  1
*D10
  0
LINE
  5
1E0
330
1DD
100
AcDbEntity
  8
치수문자_일반주서
 62
     0
370
    -2
100
AcDbLine
 10
119.1807728378272
 20
24.69663479835852
 30
0.0
 11
119.1807728378272
 21
53.5361778821101
 31
0.0
  0
LINE
  5
1E1
330
1DD
100
AcDbEntity
  8
치수문자_일반주서
 62
     0
370
    -2
100
AcDbLine
 10
14.40577283782725
 20
22.51500000000004
 30
0.0
 11
14.40577283782725
 21
53.5361778821101
 31
0.0
  0
LINE
  5
1E2
330
1DD
100
AcDbEntity
  8
치수문자_일반주서
 62
     0
370
    -2
100
AcDbLine
 10
115.8787728378273
 20
53.5361778821101
 30
0.0
 11
17.70777283782725
 21
53.5361778821101
 31
0.0
  0
SOLID
  5
1E3
330
1DD
100
AcDbEntity
  8
치수문자_일반주서
 62
     0
100
AcDbTrace
 10
115.8787728378273
 20
52.98584454877677
 30
0.0
 11
115.8787728378273
 21
54.08651121544344
 31
0.0
 12
119.1807728378272
 22
53.5361778821101
 32
0.0
 13
119.1807728378272
 23
53.5361778821101
 33
0.0
  0
SOLID
  5
1E4
330
1DD
100
AcDbEntity
  8
치수문자_일반주서
 62
     0
100
AcDbTrace
 10
17.70777283782725
 20
54.08651121544344
 30
0.0
 11
17.70777283782725
 21
52.98584454877677
 31
0.0
 12
14.40577283782725
 22
53.5361778821101
 32
0.0
 13
14.40577283782725
 23
53.5361778821101
 33
0.0
  0
MTEXT
  5
1E5
330
1DD
100
AcDbEntity
  8
치수문자_일반주서
 62
     0
100
AcDbMText
 10
66.79327283782725
 20
57.9111778821101
 30
0.0
 40
3.5
 41
0.0
 71
     2
 72
     1
  1
\A1;104.78 [4 1/8]
  7
SLDTEXTSTYLE0
 73
     1
 44
1.0
  0
POINT
  5
1E6
330
1DD
100
AcDbEntity
  8
Defpoints
 62
     0
100
AcDbPoint
 10
119.1807728378272
 20
24.63413479835852
 30
0.0
  0
POINT
  5
1E7
330
1DD
100
AcDbEntity
  8
Defpoints
 62
     0
100
AcDbPoint
 10
14.40577283782725
 20
22.45250000000004
 30
0.0
  0
POINT
  5
1E8
330
1DD
100
AcDbEntity
  8
Defpoints
 62
     0
100
AcDbPoint
 10
14.40577283782725
 20
53.5361778821101
 30
0.0
  0
ENDBLK
  5
1DF
330
1DD
100
AcDbEntity
  8
0
100
AcDbBlockEnd
  0
BLOCK
  5
1EA
330
1E9
100
AcDbEntity
  8
0
100
AcDbBlockBegin
  2
*D11
 70
     1
 10
0.0
 20
0.0
 30
0.0
  3
*D11
  1
*D11
  0
LINE
  5
1EC
330
1E9
100
AcDbEntity
  8
치수문자_일반주서
 62
     0
370
    -2
100
AcDbLine
 10
16.56577283782723
 20
24.67500000000003
 30
0.0
 11
4.375000000000004
 21
24.67499999999998
 31
0.0
  0
LINE
  5
1ED
330
1E9
100
AcDbEntity
  8
치수문자_일반주서
 62
     0
370
    -2
100
AcDbLine
 10
16.56577283782723
 20
2.450000000000029
 30
0.0
 11
4.375000000000082
 21
2.449999999999983
 31
0.0
  0
LINE
  5
1EE
330
1E9
100
AcDbEntity
  8
치수문자_일반주서
 62
     0
370
    -2
100
AcDbLine
 10
4.375000000000016
 20
21.37299999999998
 30
0.0
 11
4.37500000000007
 21
5.751999999999983
 31
0.0
  0
SOLID
  5
1EF
330
1E9
100
AcDbEntity
  8
치수문자_일반주서
 62
     0
100
AcDbTrace
 10
4.92533333333335
 20
21.37299999999998
 30
0.0
 11
3.824666666666683
 21
21.37299999999998
 31
0.0
 12
4.375000000000004
 22
24.67499999999998
 32
0.0
 13
4.375000000000004
 23
24.67499999999998
 33
0.0
  0
SOLID
  5
1F0
330
1E9
100
AcDbEntity
  8
치수문자_일반주서
 62
     0
100
AcDbTrace
 10
3.824666666666737
 20
5.751999999999981
 30
0.0
 11
4.925333333333404
 21
5.751999999999985
 31
0.0
 12
4.375000000000082
 22
2.449999999999983
 32
0.0
 13
4.375000000000082
 23
2.449999999999983
 33
0.0
  0
MTEXT
  5
1F1
330
1E9
100
AcDbEntity
  8
치수문자_일반주서
 62
     0
100
AcDbMText
 10
0.0000000000000426
 20
13.56250000000001
 30
0.0
 40
3.5
 41
0.0
 71
     2
 72
     1
  1
\A1;%%c22.23 [7/8]
  7
SLDTEXTSTYLE0
 11
-3.476783915136599E-15
 21
1.0
 31
0.0
 73
     1
 44
1.0
  0
POINT
  5
1F2
330
1E9
100
AcDbEntity
  8
Defpoints
 62
     0
100
AcDbPoint
 10
16.62827283782723
 20
24.67500000000003
 30
0.0
  0
POINT
  5
1F3
330
1E9
100
AcDbEntity
  8
Defpoints
 62
     0
100
AcDbPoint
 10
16.62827283782723
 20
2.450000000000029
 30
0.0
  0
POINT
  5
1F4
330
1E9
100
AcDbEntity
  8
Defpoints
 62
     0
100
AcDbPoint
 10
4.375000000000085
 20
2.449999999999984
 30
0.0
  0
ENDBLK
  5
1EB
330
1E9
100
AcDbEntity
  8
0
100
AcDbBlockEnd
  0
BLOCK
  5
22C
330
22B
100
AcDbEntity
  8
0
100
AcDbBlockBegin
  2
*D12
 70
     1
 10
0.0
 20
0.0
 30
0.0
  3
*D12
  1
*D12
  0
LINE
  5
22E
330
22B
100
AcDbEntity
  8
치수문자_일반주서
 62
     0
370
    -2
100
AcDbLine
 10
50.92143549245503
 20
11.1341347983585
 30
0.0
 11
50.92143549245503
 21
26.14209535692936
 31
0.0
  0
LINE
  5
22F
330
22B
100
AcDbEntity
  8
치수문자_일반주서
 62
     0
370
    -2
100
AcDbLine
 10
3.296435492455029
 20
10.88393549245502
 30
0.0
 11
3.296435492455029
 21
26.14209535692936
 31
0.0
  0
LINE
  5
230
330
22B
100
AcDbEntity
  8
치수문자_일반주서
 62
     0
370
    -2
100
AcDbLine
 10
47.61943549245503
 20
26.14209535692936
 30
0.0
 11
6.598435492455028
 21
26.14209535692936
 31
0.0
  0
SOLID
  5
231
330
22B
100
AcDbEntity
  8
치수문자_일반주서
 62
     0
100
AcDbTrace
 10
47.61943549245503
 20
25.59176202359602
 30
0.0
 11
47.61943549245503
 21
26.69242869026269
 31
0.0
 12
50.92143549245503
 22
26.14209535692936
 32
0.0
 13
50.92143549245503
 23
26.14209535692936
 33
0.0
  0
SOLID
  5
232
330
22B
100
AcDbEntity
  8
치수문자_일반주서
 62
     0
100
AcDbTrace
 10
6.598435492455028
 20
26.69242869026269
 30
0.0
 11
6.598435492455028
 21
25.59176202359602
 31
0.0
 12
3.296435492455029
 22
26.14209535692936
 32
0.0
 13
3.296435492455029
 23
26.14209535692936
 33
0.0
  0
MTEXT
  5
233
330
22B
100
AcDbEntity
  8
치수문자_일반주서
 62
     0
100
AcDbMText
 10
27.10893549245503
 20
30.51709535692936
 30
0.0
 40
3.5
 41
0.0
 71
     2
 72
     1
  1
\A1;47.63 [1 7/8]
  7
SLDTEXTSTYLE0
 73
     1
 44
1.0
  0
POINT
  5
234
330
22B
100
AcDbEntity
  8
Defpoints
 62
     0
100
AcDbPoint
 10
50.92143549245503
 20
11.0716347983585
 30
0.0
  0
POINT
  5
235
330
22B
100
AcDbEntity
  8
Defpoints
 62
     0
100
AcDbPoint
 10
3.296435492455029
 20
10.82143549245502
 30
0.0
  0
POINT
  5
236
330
22B
100
AcDbEntity
  8
Defpoints
 62
     0
100
AcDbPoint
 10
3.296435492455029
 20
26.14209535692936
 30
0.0
  0
ENDBLK
  5
22D
330
22B
100
AcDbEntity
  8
0
100
AcDbBlockEnd
  0
BLOCK
  5
238
330
237
100
AcDbEntity
  8
0
100
AcDbBlockBegin
  2
*D13
 70
     1
 10
0.0
 20
0.0
 30
0.0
  3
*D13
  1
*D13
  0
LINE
  5
23A
330
237
100
AcDbEntity
  8
치수문자_일반주서
 62
     0
370
    -2
100
AcDbLine
 10
50.92143549245503
 20
11.1341347983585
 30
0.0
 11
50.92143549245503
 21
39.97367788211008
 31
0.0
  0
LINE
  5
23B
330
237
100
AcDbEntity
  8
치수문자_일반주서
 62
     0
370
    -2
100
AcDbLine
 10
-53.85356450754497
 20
8.952500000000013
 30
0.0
 11
-53.85356450754497
 21
39.97367788211008
 31
0.0
  0
LINE
  5
23C
330
237
100
AcDbEntity
  8
치수문자_일반주서
 62
     0
370
    -2
100
AcDbLine
 10
47.61943549245503
 20
39.97367788211008
 30
0.0
 11
-50.55156450754497
 21
39.97367788211008
 31
0.0
  0
SOLID
  5
23D
330
237
100
AcDbEntity
  8
치수문자_일반주서
 62
     0
100
AcDbTrace
 10
47.61943549245503
 20
39.42334454877675
 30
0.0
 11
47.61943549245503
 21
40.52401121544342
 31
0.0
 12
50.92143549245503
 22
39.97367788211008
 32
0.0
 13
50.92143549245503
 23
39.97367788211008
 33
0.0
  0
SOLID
  5
23E
330
237
100
AcDbEntity
  8
치수문자_일반주서
 62
     0
100
AcDbTrace
 10
-50.55156450754497
 20
40.52401121544342
 30
0.0
 11
-50.55156450754497
 21
39.42334454877675
 31
0.0
 12
-53.85356450754497
 22
39.97367788211008
 32
0.0
 13
-53.85356450754497
 23
39.97367788211008
 33
0.0
  0
MTEXT
  5
23F
330
237
100
AcDbEntity
  8
치수문자_일반주서
 62
     0
100
AcDbMText
 10
-1.466064507544974
 20
44.34867788211008
 30
0.0
 40
3.5
 41
0.0
 71
     2
 72
     1
  1
\A1;104.78 [4 1/8]
  7
SLDTEXTSTYLE0
 73
     1
 44
1.0
  0
POINT
  5
240
330
237
100
AcDbEntity
  8
Defpoints
 62
     0
100
AcDbPoint
 10
50.92143549245503
 20
11.0716347983585
 30
0.0
  0
POINT
  5
241
330
237
100
AcDbEntity
  8
Defpoints
 62
     0
100
AcDbPoint
 10
-53.85356450754497
 20
8.890000000000013
 30
0.0
  0
POINT
  5
242
330
237
100
AcDbEntity
  8
Defpoints
 62
     0
100
AcDbPoint
 10
-53.85356450754497
 20
39.97367788211008
 30
0.0
  0
ENDBLK
  5
239
330
237
100
AcDbEntity
  8
0
100
AcDbBlockEnd
  0
BLOCK
  5
244
330
243
100
AcDbEntity
  8
0
100
AcDbBlockBegin
  2
*D14
 70
     1
 10
0.0
 20
0.0
 30
0.0
  3
*D14
  1
*D14
  0
LINE
  5
246
330
243
100
AcDbEntity
  8
치수문자_일반주서
 62
     0
370
    -2
100
AcDbLine
 10
-51.69356450754498
 20
9.525000000000002
 30
0.0
 11
-63.8843373453722
 21
9.524999999999956
 31
0.0
  0
LINE
  5
247
330
243
100
AcDbEntity
  8
치수문자_일반주서
 62
     0
370
    -2
100
AcDbLine
 10
-51.69356450754498
 20
-9.524999999999999
 30
0.0
 11
-63.88433734537214
 21
-9.525000000000045
 31
0.0
  0
LINE
  5
248
330
243
100
AcDbEntity
  8
치수문자_일반주서
 62
     0
370
    -2
100
AcDbLine
 10
-63.88433734537219
 20
6.222999999999956
 30
0.0
 11
-63.88433734537215
 21
-6.223000000000045
 31
0.0
  0
SOLID
  5
249
330
243
100
AcDbEntity
  8
치수문자_일반주서
 62
     0
100
AcDbTrace
 10
-63.33400401203885
 20
6.222999999999958
 30
0.0
 11
-64.43467067870552
 21
6.222999999999955
 31
0.0
 12
-63.8843373453722
 22
9.524999999999956
 32
0.0
 13
-63.8843373453722
 23
9.524999999999956
 33
0.0
  0
SOLID
  5
24A
330
243
100
AcDbEntity
  8
치수문자_일반주서
 62
     0
100
AcDbTrace
 10
-64.43467067870549
 20
-6.223000000000047
 30
0.0
 11
-63.33400401203882
 21
-6.223000000000043
 31
0.0
 12
-63.88433734537214
 22
-9.525000000000045
 32
0.0
 13
-63.88433734537214
 23
-9.525000000000045
 33
0.0
  0
MTEXT
  5
24B
330
243
100
AcDbEntity
  8
치수문자_일반주서
 62
     0
100
AcDbMText
 10
-68.25933734537217
 20
-0.0000000000000145
 30
0.0
 40
3.5
 41
0.0
 71
     2
 72
     1
  1
\A1;%%c19.05 [3/4]
  7
SLDTEXTSTYLE0
 11
-3.356894814614647E-15
 21
1.0
 31
0.0
 73
     1
 44
1.0
  0
POINT
  5
24C
330
243
100
AcDbEntity
  8
Defpoints
 62
     0
100
AcDbPoint
 10
-51.63106450754498
 20
9.525000000000002
 30
0.0
  0
POINT
  5
24D
330
243
100
AcDbEntity
  8
Defpoints
 62
     0
100
AcDbPoint
 10
-51.63106450754498
 20
-9.524999999999999
 30
0.0
  0
POINT
  5
24E
330
243
100
AcDbEntity
  8
Defpoints
 62
     0
100
AcDbPoint
 10
-63.88433734537214
 20
-9.525000000000045
 30
0.0
  0
ENDBLK
  5
245
330
243
100
AcDbEntity
  8
0
100
AcDbBlockEnd
  0
BLOCK
  5
250
330
24F
100
AcDbEntity
  8
0
100
AcDbBlockBegin
  2
*D15
 70
     1
 10
0.0
 20
0.0
 30
0.0
  3
*D15
  1
*D15
  0
LINE
  5
252
330
24F
100
AcDbEntity
  8
치수문자_일반주서
 62
     0
370
    -2
100
AcDbLine
 10
50.98393549245506
 20
11.11250000000001
 30
0.0
 11
72.02051298370051
 21
11.11250000000001
 31
0.0
  0
LINE
  5
253
330
24F
100
AcDbEntity
  8
치수문자_일반주서
 62
     0
370
    -2
100
AcDbLine
 10
50.98393549245506
 20
-11.11249999999999
 30
0.0
 11
72.02051298370051
 21
-11.11249999999999
 31
0.0
  0
LINE
  5
254
330
24F
100
AcDbEntity
  8
치수문자_일반주서
 62
     0
370
    -2
100
AcDbLine
 10
72.02051298370051
 20
7.81050000000001
 30
0.0
 11
72.02051298370051
 21
-7.81049999999999
 31
0.0
  0
SOLID
  5
255
330
24F
100
AcDbEntity
  8
치수문자_일반주서
 62
     0
100
AcDbTrace
 10
72.57084631703384
 20
7.81050000000001
 30
0.0
 11
71.47017965036719
 21
7.81050000000001
 31
0.0
 12
72.02051298370051
 22
11.11250000000001
 32
0.0
 13
72.02051298370051
 23
11.11250000000001
 33
0.0
  0
SOLID
  5
256
330
24F
100
AcDbEntity
  8
치수문자_일반주서
 62
     0
100
AcDbTrace
 10
71.47017965036719
 20
-7.81049999999999
 30
0.0
 11
72.57084631703384
 21
-7.81049999999999
 31
0.0
 12
72.02051298370051
 22
-11.11249999999999
 32
0.0
 13
72.02051298370051
 23
-11.11249999999999
 33
0.0
  0
MTEXT
  5
257
330
24F
100
AcDbEntity
  8
치수문자_일반주서
 62
     0
100
AcDbMText
 10
69.39551298370051
 20
0.0000000000000124
 30
0.0
 40
3.5
 41
0.0
 71
     5
 72
     1
  1
\A1;{%%C22.23 [7/8]}
  7
SLDTEXTSTYLE0
 11
0.0
 21
1.0
 31
0.0
 73
     1
 44
1.0
  0
POINT
  5
258
330
24F
100
AcDbEntity
  8
Defpoints
 62
     0
100
AcDbPoint
 10
50.92143549245506
 20
11.11250000000001
 30
0.0
  0
POINT
  5
259
330
24F
100
AcDbEntity
  8
Defpoints
 62
     0
100
AcDbPoint
 10
50.92143549245506
 20
-11.11249999999999
 30
0.0
  0
POINT
  5
25A
330
24F
100
AcDbEntity
  8
Defpoints
 62
     0
100
AcDbPoint
 10
72.02051298370051
 20
-11.11249999999999
 30
0.0
  0
ENDBLK
  5
251
330
24F
100
AcDbEntity
  8
0
100
AcDbBlockEnd
  0
ENDSEC
  0
SECTION
  2
ENTITIES
  0
LINE
  5
AC
330
1F
100
AcDbEntity
  8
참조1
100
AcDbLine
 10
-1.841156843291047
 20
0.0010749287238927
 30
0.0
 11
-1.841156843291042
 21
-39.9989250712761
 31
0.0
  0
LINE
  5
AD
330
1F
100
AcDbEntity
  8
참조1
100
AcDbLine
 10
-1.841156843291042
 20
-39.9989250712761
 30
0.0
 11
-28.11251365759972
 21
-39.9989250712761
 31
0.0
  0
INSERT
  5
AF
330
1F
100
AcDbEntity
  8
0
  6
Continuous
 62
     7
100
AcDbBlockReference
 66
     1
  2
블럭10
 10
-15.78142977541625
 20
-52.04609937292004
 30
0.0
  0
ATTRIB
  5
B0
330
AF
100
AcDbEntity
  8
FORMAT
 62
     2
100
AcDbText
 10
-24.96272506415754
 20
-49.97073246008785
 30
0.0
 40
4.233333333333333
  1
E2039909 [ 4 FLUTE ]
 41
0.75
  7
SLDTEXTSTYLE0
 11
-24.96272506415754
 21
-52.08739912675452
 31
0.0
100
AcDbAttribute
  2
AUTOATTR0
 70
     0
 74
     1
  0
SEQEND
  5
B1
330
AF
100
AcDbEntity
  8
0
  6
Continuous
 62
     7
  0
HATCH
  5
B2
330
1F
100
AcDbEntity
  8
중심선
100
AcDbHatch
 10
0.0
 20
0.0
 30
0.0
210
0.0
220
0.0
230
1.0
  2
SOLID
 70
     1
 71
     0
 91
        1
 92
        0
 93
        4
 72
     1
 10
-10.06652047103542
 20
-35.7989250712761
 11
-13.5127957148727
 21
-35.7989250712761
 72
     1
 10
-13.5127957148727
 20
-35.7989250712761
 11
-15.64102557407672
 21
-38.3352506518487
 72
     1
 10
-15.64102557407672
 20
-38.3352506518487
 11
-12.19471724512629
 21
-38.33521122254621
 72
     1
 10
-12.19471724512629
 20
-38.33521122254621
 11
-10.06652047103542
 21
-35.79892507127609
 97
        0
 75
     0
 76
     1
 98
        1
 10
-8.703564507544936
 20
0.0000000000000036
  0
HATCH
  5
B3
330
1F
100
AcDbEntity
  8
중심선
100
AcDbHatch
 10
0.0
 20
0.0
 30
0.0
210
0.0
220
0.0
230
1.0
  2
SOLID
 70
     1
 71
     0
 91
        1
 92
        0
 93
        4
 72
     1
 10
-5.053756479999437
 20
-35.7989250712761
 11
-8.50003172383672
 21
-35.7989250712761
 72
     1
 10
-8.50003172383672
 20
-35.7989250712761
 11
-13.03116973219414
 21
-41.19892507127612
 72
     1
 10
-13.03116973219414
 20
-41.19892507127612
 11
-9.584894488356854
 21
-41.19892507127612
 72
     1
 10
-9.584894488356854
 20
-41.19892507127612
 11
-5.053756479999437
 21
-35.7989250712761
 97
        0
 75
     0
 76
     1
 98
        1
 10
-8.703564507544936
 20
0.0000000000000036
  0
HATCH
  5
B4
330
1F
100
AcDbEntity
  8
중심선
100
AcDbHatch
 10
0.0
 20
0.0
 30
0.0
210
0.0
220
0.0
230
1.0
  2
SOLID
 70
     1
 71
     0
 91
        1
 92
        0
 93
        4
 72
     1
 10
-0.0409924889635143
 20
-35.79892507127607
 11
-3.487267732800658
 21
-35.79892507127609
 72
     1
 10
-3.487267732800658
 20
-35.7989250712761
 11
-10.53570463468994
 21
-44.19892507127612
 72
     1
 10
-10.53570463468994
 20
-44.19892507127612
 11
-7.089429390852652
 21
-44.19892507127612
 72
     1
 10
-7.089429390852652
 20
-44.19892507127612
 11
-0.0409924889635143
 21
-35.79892507127608
 97
        0
 75
     0
 76
     1
 98
        1
 10
-8.703564507544936
 20
0.0000000000000036
  0
HATCH
  5
B5
330
1F
100
AcDbEntity
  8
중심선
100
AcDbHatch
 10
0.0
 20
0.0
 30
0.0
210
0.0
220
0.0
230
1.0
  2
SOLID
 70
     1
 71
     0
 91
        1
 92
        0
 93
        6
 72
     3
 10
4.758897942048629
 20
-39.99892507132738
 11
3.960054785062285
 21
1.540882976769353E-10
 40
0.3939339440162626
 50
17.09539180608436
 51
320.0019657685079
 73
     0
 72
     1
 10
6.441897597749225
 20
-38.58681907591441
 11
8.74719947145029
 21
-36.65249236586646
 72
     3
 10
4.758897941995782
 20
-39.99892507127625
 11
6.600054785286828
 21
-1.278976924368180E-13
 40
0.6363583540795982
 50
39.99873849337406
 51
368.4976242363725
 73
     1
 72
     1
 10
11.18423043389639
 20
-39.03892507120612
 11
3.438965248831705
 21
-39.03892507120612
 72
     1
 10
3.438965248831705
 20
-39.03892507120612
 11
3.438940204385771
 21
-40.95892507120601
 72
     1
 10
3.438940204385771
 20
-40.95892507120601
 11
7.880319973857809
 21
-40.95892507120598
 97
        0
 75
     0
 76
     1
 98
        1
 10
-8.703564507544936
 20
0.0000000000000036
  0
LINE
  5
105
330
1F
100
AcDbEntity
  8
참조1
100
AcDbLine
 10
69.85982697205455
 20
7.441074928723899
 30
0.0
 11
69.85982697205455
 21
-7.438925071276105
 31
0.0
  0
LINE
  5
106
330
1F
100
AcDbEntity
  8
참조1
100
AcDbLine
 10
82.55982697205455
 20
5.441074928723899
 30
0.0
 11
69.85982697205455
 21
5.441074928723899
 31
0.0
  0
SOLID
  5
107
330
1F
100
AcDbEntity
  8
참조1
100
AcDbTrace
 10
69.85982697205455
 20
5.441074928723899
 30
0.0
 11
76.20982697205454
 21
4.425074928723899
 31
0.0
 12
76.20982697205454
 22
6.457074928723899
 32
0.0
 13
76.20982697205454
 23
6.457074928723899
 33
0.0
  0
LINE
  5
108
330
1F
100
AcDbEntity
  8
참조1
100
AcDbLine
 10
82.55982697205455
 20
-5.438925071276105
 30
0.0
 11
69.85982697205455
 21
-5.438925071276105
 31
0.0
  0
SOLID
  5
109
330
1F
100
AcDbEntity
  8
참조1
100
AcDbTrace
 10
69.85982697205455
 20
-5.438925071276105
 30
0.0
 11
76.20982697205454
 21
-6.454925071276105
 31
0.0
 12
76.20982697205454
 22
-4.422925071276105
 32
0.0
 13
76.20982697205454
 23
-4.422925071276105
 33
0.0
  0
MTEXT
  5
10A
330
1F
100
AcDbEntity
  8
참조1
100
AcDbMText
 10
79.24417710468053
 20
11.01136670591223
 30
0.0
 40
3.5
 41
0.0
 71
     1
 72
     1
  1
A
  7
SLDTEXTSTYLE0
 73
     1
 44
1.0
  0
MTEXT
  5
10B
330
1F
100
AcDbEntity
  8
참조1
100
AcDbMText
 10
79.24417710468053
 20
0.1313667059122228
 30
0.0
 40
3.5
 41
0.0
 71
     1
 72
     1
  1
A
  7
SLDTEXTSTYLE0
 73
     1
 44
1.0
  0
LINE
  5
1F6
330
1F
100
AcDbEntity
  8
외형선
  6
Continuous
370
    15
100
AcDbLine
 10
-51.63106450754498
 20
-9.524999999999999
 30
0.0
 11
2.000000000000011
 21
-9.524999999999999
 31
0.0
  0
LINE
  5
1F7
330
1F
100
AcDbEntity
  8
외형선
  6
Continuous
370
    15
100
AcDbLine
 10
-53.85356450754497
 20
-7.302500000000009
 30
0.0
 11
-51.63106450754498
 21
-9.524999999999999
 31
0.0
  0
LINE
  5
1F8
330
1F
100
AcDbEntity
  8
외형선
  6
Continuous
 62
     1
370
    15
100
AcDbLine
 10
46.78682881920273
 20
3.291597413675747
 30
0.0
 11
46.70901032045592
 21
3.33366390979876
 31
0.0
  0
LINE
  5
1F9
330
1F
100
AcDbEntity
  8
외형선
  6
Continuous
 62
     1
370
    15
100
AcDbLine
 10
29.11567824743573
 20
11.11250000000001
 30
0.0
 11
22.33778870038921
 21
11.11250000000001
 31
0.0
  0
LINE
  5
1FA
330
1F
100
AcDbEntity
  8
0
 62
     1
100
AcDbLine
 10
22.33778870038909
 20
-11.1125
 30
0.0
 11
29.11567824743573
 21
-11.1125
 31
0.0
  0
SPLINE
  5
1FD
330
1F
100
AcDbEntity
  8
외형선
  6
Continuous
370
    15
100
AcDbSpline
210
0.0
220
0.0
230
1.0
 70
     8
 71
     3
 72
     8
 73
     4
 74
     0
 42
0.000000001
 43
0.00000001
 40
0.0
 40
0.0
 40
0.0
 40
0.0
 40
1.0
 40
1.0
 40
1.0
 40
1.0
 10
3.296435492455029
 20
9.286619060113507
 30
0.0
 10
3.129967464739135
 20
9.339419595574624
 30
0.0
 10
2.963316722319416
 20
9.391196607931574
 30
0.0
 10
2.796567302408814
 20
9.441922162357193
 30
0.0
  0
LINE
  5
1FE
330
1F
100
AcDbEntity
  8
외형선
  6
Continuous
370
    15
100
AcDbLine
 10
2.7965673024088
 20
-2.244999093406234
 30
0.0
 11
2.7965673024088
 21
9.441956923902827
 31
0.0
  0
SPLINE
  5
1FF
330
1F
100
AcDbEntity
  8
외형선
  6
Continuous
370
    15
100
AcDbSpline
210
0.0
220
0.0
230
1.0
 70
     8
 71
     3
 72
     8
 73
     4
 74
     0
 42
0.000000001
 43
0.00000001
 40
0.0
 40
0.0
 40
0.0
 40
0.0
 40
1.0
 40
1.0
 40
1.0
 40
1.0
 10
3.296435492455029
 20
-2.526695496619151
 30
0.0
 10
3.129967464739149
 20
-2.433072773733072
 30
0.0
 10
2.963316722319416
 20
-2.339132078346582
 30
0.0
 10
2.796567302408814
 20
-2.24492041886707
 30
0.0
  0
SPLINE
  5
200
330
1F
100
AcDbEntity
  8
외형선
  6
Continuous
370
    15
100
AcDbSpline
210
0.0
220
0.0
230
1.0
 70
     8
 71
     3
 72
     8
 73
     4
 74
     0
 42
0.000000001
 43
0.00000001
 40
0.0
 40
0.0
 40
0.0
 40
0.0
 40
1.0
 40
1.0
 40
1.0
 40
1.0
 10
3.296435492455029
 20
-6.102979819918811
 30
0.0
 10
3.129967464739135
 20
-6.022635713684497
 30
0.0
 10
2.963316722319416
 20
-5.941576895300059
 30
0.0
 10
2.796567302408814
 20
-5.859843183054287
 30
0.0
  0
LINE
  5
201
330
1F
100
AcDbEntity
  8
외형선
  6
Continuous
370
    15
100
AcDbLine
 10
2.7965673024088
 20
-10.32156730240879
 30
0.0
 11
2.7965673024088
 21
-5.859787171661025
 31
0.0
  0
LINE
  5
204
330
1F
100
AcDbEntity
  8
외형선
  6
Continuous
370
    15
100
AcDbLine
 10
3.296435492455014
 20
-6.102979819918843
 30
0.0
 11
3.296435492455043
 21
-2.526695496619157
 31
0.0
  0
LINE
  5
205
330
1F
100
AcDbEntity
  8
외형선
  6
Continuous
370
    15
100
AcDbLine
 10
3.296435492455014
 20
9.286619060113521
 30
0.0
 11
3.296435492455043
 21
10.82143549245501
 31
0.0
  0
LINE
  5
206
330
1F
100
AcDbEntity
  8
외형선
  6
Continuous
370
    15
100
AcDbLine
 10
-53.85356450754497
 20
0.0000000000000018
 30
0.0
 11
-53.85356450754497
 21
7.302500000000012
 31
0.0
  0
LINE
  5
207
330
1F
100
AcDbEntity
  8
외형선
  6
Continuous
370
    15
100
AcDbLine
 10
-53.85356450754497
 20
-7.302500000000009
 30
0.0
 11
-53.85356450754497
 21
0.0000000000000018
 31
0.0
  0
SPLINE
  5
208
330
1F
100
AcDbEntity
  8
외형선
  6
Continuous
370
    15
100
AcDbSpline
210
0.0
220
0.0
230
1.0
 70
    24
 71
     3
 72
    21
 73
    17
 74
     0
 42
0.000000001
 43
0.00000001
 40
0.0
 40
0.0
 40
0.0
 40
0.0
 40
0.0420300071508
 40
0.1146490856915049
 40
0.1872681642322098
 40
0.259887242772915
 40
0.3325063213136202
 40
0.4051253998543254
 40
0.4777444783950305
 40
0.5503635569357355
 40
0.6229826354764405
 40
0.6956017140171421
 40
0.7682207925578436
 40
0.8408398710985522
 40
0.9134589496392608
 40
1.0
 40
1.0
 40
1.0
 40
1.0
 10
3.296435492455043
 20
-2.467609116750442
 30
0.0
 10
3.296435492455029
 20
-2.439685908575582
 30
0.0
 10
3.296435492455029
 20
-2.36351722567874
 30
0.0
 10
3.296435492455043
 20
-2.042048940873231
 30
0.0
 10
3.296435492455043
 20
-1.523764384053756
 30
0.0
 10
3.296435492455029
 20
-0.8346646620675706
 30
0.0
 10
3.296435492455
 20
-0.0097039864369552
 30
0.0
 10
3.296435492455014
 20
0.9354758213475858
 30
0.0
 10
3.296435492455043
 20
1.9691100757654
 30
0.0
 10
3.296435492455014
 20
3.065136815045866
 30
0.0
 10
3.296435492455014
 20
4.19058991229152
 30
0.0
 10
3.296435492455043
 20
5.313847441988868
 30
0.0
 10
3.296435492455043
 20
6.404743159120377
 30
0.0
 10
3.296435492455029
 20
7.42659984851929
 30
0.0
 10
3.296435492455029
 20
8.427530942369257
 30
0.0
 10
3.296435492455014
 20
8.984030410416059
 30
0.0
 10
3.296435492455014
 20
9.286619060113521
 30
0.0
  0
SPLINE
  5
209
330
1F
100
AcDbEntity
  8
외형선
  6
Continuous
370
    15
100
AcDbSpline
210
0.0
220
0.0
230
1.0
 70
    24
 71
     3
 72
    12
 73
     8
 74
     0
 42
0.000000001
 43
0.00000001
 40
0.0
 40
0.0
 40
0.0
 40
0.0
 40
0.2026887842038683
 40
0.4102251864207969
 40
0.6324481435960372
 40
0.8611155815838099
 40
1.0
 40
1.0
 40
1.0
 40
1.0
 10
3.296435492455043
 20
-10.821435492455
 30
0.0
 10
3.296435492455
 20
-10.48435447005696
 30
0.0
 10
3.296435492454943
 20
-9.80213060752165
 30
0.0
 10
3.296435492455057
 20
-8.758333403557252
 30
0.0
 10
3.296435492455014
 20
-7.717532368534224
 30
0.0
 10
3.296435492455057
 20
-6.833190131092558
 30
0.0
 10
3.296435492455043
 20
-6.357449301974219
 30
0.0
 10
3.296435492455014
 20
-6.177684223339112
 30
0.0
  0
SPLINE
  5
20A
330
1F
100
AcDbEntity
  8
0
 62
     1
100
AcDbSpline
210
0.0
220
0.0
230
1.0
 70
     8
 71
     3
 72
    20
 73
    16
 74
     0
 42
0.000000001
 43
0.00000001
 40
0.0
 40
0.0
 40
0.0
 40
0.0
 40
0.0795558868877038
 40
0.159102898809953
 40
0.2386456743911404
 40
0.3181888597755414
 40
0.3977371003797957
 40
0.4758761125677247
 40
0.554034693779256
 40
0.6321986332126214
 40
0.7103417406283059
 40
0.7900662668969916
 40
0.8697845983915728
 40
0.9495011385113821
 40
1.0
 40
1.0
 40
1.0
 40
1.0
 10
3.296435492455029
 20
-2.526695496619148
 30
0.0
 10
4.292115150141708
 20
-3.08062550064556
 30
0.0
 10
6.283363391113067
 20
-4.188423714281376
 30
0.0
 10
9.270033114612882
 20
-5.73327169973051
 30
0.0
 10
12.25652035567307
 20
-7.144634136309529
 30
0.0
 10
15.24302019822123
 20
-8.383115331722067
 30
0.0
 10
18.21200476944562
 20
-9.414275353427197
 30
0.0
 10
21.1636785965742
 20
-10.21750655719221
 30
0.0
 10
24.09822513606926
 20
-10.77890340672898
 30
0.0
 10
27.03289586705224
 20
-11.09050117945234
 30
0.0
 10
29.98691665731772
 20
-11.1446663047082
 30
0.0
 10
32.96037356814546
 20
-10.9369970265106
 30
0.0
 10
35.9534608827765
 20
-10.45475827534426
 30
0.0
 10
38.58077495817932
 20
-9.839891680369075
 30
0.0
 10
40.2104347004466
 20
-9.297112751794522
 30
0.0
 10
40.84243337788268
 20
-9.08661754466495
 30
0.0
  0
SPLINE
  5
20B
330
1F
100
AcDbEntity
  8
0
 62
     1
100
AcDbSpline
210
0.0
220
0.0
230
1.0
 70
     8
 71
     3
 72
    60
 73
    56
 74
     0
 42
0.000000001
 43
0.00000001
 40
0.0
 40
0.0
 40
0.0
 40
0.0
 40
0.0625
 40
0.0625
 40
0.0937499999999997
 40
0.0937499999999997
 40
0.1249999999999993
 40
0.1249999999999993
 40
0.156249999999999
 40
0.156249999999999
 40
0.1874999999999986
 40
0.1874999999999986
 40
0.2187499999999983
 40
0.2187499999999983
 40
0.2499999999999979
 40
0.2499999999999979
 40
0.3124999999999979
 40
0.3124999999999979
 40
0.3437499999999983
 40
0.3437499999999983
 40
0.3749999999999986
 40
0.3749999999999986
 40
0.4062499999999989
 40
0.4062499999999989
 40
0.4374999999999992
 40
0.4374999999999992
 40
0.4687499999999996
 40
0.4687499999999996
 40
0.4999999999999999
 40
0.4999999999999999
 40
0.5624999999999999
 40
0.5624999999999999
 40
0.6249999999999999
 40
0.6249999999999999
 40
0.6562499999999999
 40
0.6562499999999999
 40
0.6874999999999999
 40
0.6874999999999999
 40
0.7187499999999999
 40
0.7187499999999999
 40
0.7499999999999998
 40
0.7499999999999998
 40
0.7812499999999998
 40
0.7812499999999998
 40
0.8124999999999998
 40
0.8124999999999998
 40
0.8750000000000003
 40
0.8750000000000003
 40
0.9062500000000003
 40
0.9062500000000003
 40
0.9375000000000002
 40
0.9375000000000002
 40
0.9687500000000001
 40
0.9687500000000001
 40
1.0
 40
1.0
 40
1.0
 40
1.0
 10
50.92143549245503
 20
-11.0716347983585
 30
0.0
 10
49.93299855888492
 20
-11.02261415072403
 30
0.0
 10
48.93452127345523
 20
-10.92914381262472
 30
0.0
 10
47.44844024473849
 20
-10.72461306303799
 30
0.0
 10
46.95416516089705
 20
-10.64575269348248
 30
0.0
 10
45.96072482223107
 20
-10.46670381310434
 30
0.0
 10
45.46314461266944
 20
-10.36658372242327
 30
0.0
 10
44.47072356948165
 20
-10.14607089518826
 30
0.0
 10
43.97720311231421
 20
-10.02581050846557
 30
0.0
 10
42.98494146324069
 20
-9.765146644895449
 30
0.0
 10
42.48737764576327
 20
-9.624813064671091
 30
0.0
 10
41.49384299327251
 20
-9.325375638501594
 30
0.0
 10
40.99938007885001
 20
-9.166446415111494
 30
0.0
 10
40.00888355280924
 20
-8.830513019407547
 30
0.0
 10
39.51163217542664
 20
-8.653349651776388
 30
0.0
 10
38.0205432047197
 20
-8.096556202670818
 30
0.0
 10
37.03267729876474
 20
-7.692362637976053
 30
0.0
 10
35.54168631432648
 20
-7.041314497073932
 30
0.0
 10
35.04434027141789
 20
-6.816995490369638
 30
0.0
 10
34.05340257572666
 20
-6.355803631536415
 30
0.0
 10
33.55929454177804
 20
-6.118868471283601
 30
0.0
 10
32.56595573261122
 20
-5.632456384888632
 30
0.0
 10
32.06836275963846
 20
-5.38323150029602
 30
0.0
 10
31.07578951332973
 20
-4.874986355583692
 30
0.0
 10
30.58224825724538
 20
-4.616229132136377
 30
0.0
 10
29.59015318942286
 20
-4.089169204999719
 30
0.0
 10
29.09260939230357
 20
-3.821030848123819
 30
0.0
 10
28.09898764394782
 20
-3.277928391468418
 30
0.0
 10
27.60431612279237
 20
-3.003229418157023
 30
0.0
 10
26.11891829010355
 20
-2.170743173442167
 30
0.0
 10
25.12038938546902
 20
-1.603308199199361
 30
0.0
 10
23.14240416522827
 20
-0.4638001585922957
 30
0.0
 10
22.14509892194479
 20
0.1116706798397136
 30
0.0
 10
20.6583775962849
 20
0.96901968746017
 30
0.0
 10
20.1644158275061
 20
1.253814099982312
 30
0.0
 10
19.17118576105315
 20
1.82135211090228
 30
0.0
 10
18.67358365365299
 20
2.103773005971824
 30
0.0
 10
17.68086539890029
 20
2.663389142990654
 30
0.0
 10
17.18728254548452
 20
2.940303691475441
 30
0.0
 10
16.19536124201991
 20
3.488614294467835
 30
0.0
 10
15.69784109304529
 20
3.759849045549862
 30
0.0
 10
14.70413946889485
 20
4.294033733233215
 30
0.0
 10
14.20923856989222
 20
4.556760638874239
 30
0.0
 10
13.21921179124282
 20
5.072674459021593
 30
0.0
 10
12.72206956198042
 20
5.326202584077391
 30
0.0
 10
11.23092598880582
 20
6.07003142507382
 30
0.0
 10
10.2429910888556
 20
6.542659649218882
 30
0.0
 10
8.752141464983705
 20
7.211138729094058
 30
0.0
 10
8.254715248355605
 20
7.427053301863511
 30
0.0
 10
7.263365003367749
 20
7.84316162930387
 30
0.0
 10
6.769528711502868
 20
8.043366433219004
 30
0.0
 10
5.776414598344157
 20
8.428079987361206
 30
0.0
 10
5.27880698572282
 20
8.612347577870919
 30
0.0
 10
4.285950920713002
 20
8.963057113863938
 30
0.0
 10
3.792305672556378
 20
9.129338341480624
 30
0.0
 10
3.296435492455057
 20
9.286619060113493
 30
0.0
  0
SPLINE
  5
20C
330
1F
100
AcDbEntity
  8
외형선
  6
Continuous
370
    15
100
AcDbSpline
210
0.0
220
0.0
230
1.0
 70
    24
 71
     3
 72
    22
 73
    18
 74
     0
 42
0.000000001
 43
0.00000001
 40
0.0
 40
0.0
 40
0.0
 40
0.0
 40
0.0464096273912592
 40
0.0928192547825185
 40
0.1634214767087014
 40
0.2340236986348844
 40
0.3046259205610668
 40
0.3752281424872493
 40
0.4458303644134322
 40
0.516432586339615
 40
0.5870348082657976
 40
0.65763703019198
 40
0.728239252118163
 40
0.7988414740443459
 40
0.8694436959705284
 40
0.9400459178967108
 40
1.0
 40
1.0
 40
1.0
 40
1.0
 10
3.296435492455057
 20
9.286619060113493
 30
0.0
 10
3.296435492455043
 20
9.12469115371722
 30
0.0
 10
3.296435492455029
 20
8.800835340924662
 30
0.0
 10
3.296435492455
 20
8.144323909153888
 30
0.0
 10
3.296435492455029
 20
7.308718371485986
 30
0.0
 10
3.296435492455029
 20
6.274598307453358
 30
0.0
 10
3.296435492455057
 20
5.178690801887056
 30
0.0
 10
3.296435492455085
 20
4.053246579399532
 30
0.0
 10
3.296435492455029
 20
2.929834316955398
 30
0.0
 10
3.296435492455014
 20
1.839548656052731
 30
0.0
 10
3.296435492455043
 20
0.8154064744851546
 30
0.0
 10
3.296435492455057
 20
-0.1168711169101968
 30
0.0
 10
3.296435492455029
 20
-0.9261098638265715
 30
0.0
 10
3.296435492455014
 20
-1.595876596415405
 30
0.0
 10
3.296435492455029
 20
-2.096727721967119
 30
0.0
 10
3.296435492455057
 20
-2.41976308970253
 30
0.0
 10
3.296435492455043
 20
-2.495233988242569
 30
0.0
 10
3.296435492455029
 20
-2.529891743615741
 30
0.0
  0
LINE
  5
20D
330
1F
100
AcDbEntity
  8
외형선
  6
Continuous
 62
     1
370
    15
100
AcDbLine
 10
50.92143549245503
 20
-11.0716347983585
 30
0.0
 11
50.92143549245503
 21
-10.06438399360447
 31
0.0
  0
SPLINE
  5
20E
330
1F
100
AcDbEntity
  8
0
 62
     1
100
AcDbSpline
210
0.0
220
0.0
230
1.0
 70
     8
 71
     3
 72
    60
 73
    56
 74
     0
 42
0.000000001
 43
0.00000001
 40
0.0
 40
0.0
 40
0.0
 40
0.0
 40
0.0625000000000002
 40
0.0625000000000002
 40
0.0937500000000002
 40
0.0937500000000002
 40
0.1250000000000003
 40
0.1250000000000003
 40
0.1562500000000004
 40
0.1562500000000004
 40
0.1875000000000005
 40
0.1875000000000005
 40
0.2187500000000006
 40
0.2187500000000006
 40
0.2500000000000007
 40
0.2500000000000007
 40
0.3125000000000008
 40
0.3125000000000008
 40
0.3437500000000009
 40
0.3437500000000009
 40
0.375000000000001
 40
0.375000000000001
 40
0.4062500000000011
 40
0.4062500000000011
 40
0.4375000000000012
 40
0.4375000000000012
 40
0.4687500000000013
 40
0.4687500000000013
 40
0.5000000000000013
 40
0.5000000000000013
 40
0.5625000000000016
 40
0.5625000000000016
 40
0.6250000000000017
 40
0.6250000000000017
 40
0.6562500000000014
 40
0.6562500000000014
 40
0.6875000000000012
 40
0.6875000000000012
 40
0.718750000000001
 40
0.718750000000001
 40
0.7500000000000007
 40
0.7500000000000007
 40
0.7812500000000004
 40
0.7812500000000004
 40
0.8125000000000002
 40
0.8125000000000002
 40
0.8749999999999998
 40
0.8749999999999998
 40
0.9062499999999999
 40
0.9062499999999999
 40
0.9374999999999999
 40
0.9374999999999999
 40
0.96875
 40
0.96875
 40
1.0
 40
1.0
 40
1.0
 40
1.0
 10
50.92143549245503
 20
-10.06438399360447
 30
0.0
 10
49.93299855888498
 20
-9.821825392512444
 30
0.0
 10
48.93452127345526
 20
-9.538195508390515
 30
0.0
 10
47.44844024473852
 20
-9.05859539093819
 30
0.0
 10
46.95416516089708
 20
-8.88967757459412
 30
0.0
 10
45.96072482223109
 20
-8.533898649428764
 30
0.0
 10
45.46314461266951
 20
-8.347205036763444
 30
0.0
 10
44.47072356948165
 20
-7.957900086760896
 30
0.0
 10
43.97720311231424
 20
-7.755488951499812
 30
0.0
 10
42.98494146324072
 20
-7.334918982926478
 30
0.0
 10
42.48737764576327
 20
-7.116901223488318
 30
0.0
 10
41.49384299327252
 20
-6.667335744473595
 30
0.0
 10
40.99938007885001
 20
-6.436032778317056
 30
0.0
 10
40.00888355280921
 20
-5.96084798736829
 30
0.0
 10
39.51163217542663
 20
-5.716756464228921
 30
0.0
 10
38.02054320471967
 20
-4.968201495340031
 30
0.0
 10
37.03267729876474
 20
-4.448399044772849
 30
0.0
 10
35.54168631432645
 20
-3.643639131013538
 30
0.0
 10
35.04434027141785
 20
-3.371414843805139
 30
0.0
 10
34.05340257572672
 20
-2.821484591422832
 30
0.0
 10
33.55929454177804
 20
-2.543691276924385
 30
0.0
 10
32.5659557326112
 20
-1.982630839729804
 30
0.0
 10
32.06836275963843
 20
-1.699666838226689
 30
0.0
 10
31.07578951332973
 20
-1.131410361642022
 30
0.0
 10
30.58224825724538
 20
-0.8463975585629822
 30
0.0
 10
29.59015318942289
 20
-0.2742945560442145
 30
0.0
 10
29.0926093923036
 20
0.012603348302175
 30
0.0
 10
28.09898764394785
 20
0.5855210885602595
 30
0.0
 10
27.60431612279239
 20
0.8712699641080821
 30
0.0
 10
26.11891829010358
 20
1.725330644983272
 30
0.0
 10
25.12038938546899
 20
2.291643019203882
 30
0.0
 10
23.14240416522835
 20
3.397974321192985
 30
0.0
 10
22.14509892194479
 20
3.94130350404493
 30
0.0
 10
20.6583775962849
 20
4.727866725198362
 30
0.0
 10
20.16441582750604
 20
4.985330049200938
 30
0.0
 10
19.17118576105309
 20
5.490725206926529
 30
0.0
 10
18.67358365365294
 20
5.738358453093339
 30
0.0
 10
17.68086539890025
 20
6.22128240869286
 30
0.0
 10
17.18728254548452
 20
6.456343821559896
 30
0.0
 10
16.19536124201988
 20
6.913899806726613
 30
0.0
 10
15.69784109304527
 20
7.136246585869811
 30
0.0
 10
14.70413946889482
 20
7.56605999838469
 30
0.0
 10
14.20923856989219
 20
7.773355056812102
 30
0.0
 10
13.21921179124277
 20
8.1721142659512
 30
0.0
 10
12.72206956198039
 20
8.363834014062084
 30
0.0
 10
11.23092598880578
 20
8.913337224297235
 30
0.0
 10
10.24299108885556
 20
9.24482634897947
 30
0.0
 10
8.752141464983648
 20
9.685884590419866
 30
0.0
 10
8.254715248355549
 20
9.823419758922268
 30
0.0
 10
7.263365003367692
 20
10.07833910449769
 30
0.0
 10
6.769528711502812
 20
10.19574602230362
 30
0.0
 10
5.7764145983441
 20
10.41043652640114
 30
0.0
 10
5.278806985722749
 20
10.50756823419658
 30
0.0
 10
4.285950920712931
 20
10.68053933260854
 30
0.0
 10
3.792305672556363
 20
10.75631968096608
 30
0.0
 10
3.296435492455014
 20
10.82143549245502
 30
0.0
  0
LINE
  5
20F
330
1F
100
AcDbEntity
  8
외형선
  6
Continuous
 62
     1
370
    15
100
AcDbLine
 10
50.92143549245503
 20
-10.06438399360447
 30
0.0
 11
50.92143549245503
 21
0.9521339936046171
 31
0.0
  0
SPLINE
  5
210
330
1F
100
AcDbEntity
  8
외형선
  6
Continuous
 62
     1
370
    15
100
AcDbSpline
210
0.0
220
0.0
230
1.0
 70
     8
 71
     3
 72
    21
 73
    17
 74
     0
 42
0.000000001
 43
0.00000001
 40
0.0
 40
0.0
 40
0.0
 40
0.0
 40
0.0741216400208409
 40
0.1482281301624112
 40
0.2223237637707428
 40
0.2964128534282319
 40
0.3704997233277669
 40
0.4432647605392205
 40
0.5160390152419125
 40
0.5888289277052645
 40
0.661635080569705
 40
0.735909764771136
 40
0.8101720195704561
 40
0.884425926656866
 40
0.9586755820105474
 40
1.0
 40
1.0
 40
1.0
 40
1.0
 10
50.92143549245503
 20
0.9521339936046154
 30
0.0
 10
49.92539415437761
 20
1.522724718246069
 30
0.0
 10
47.93351506122522
 20
2.663789543280126
 30
0.0
 10
44.94610838212716
 20
4.305354851543095
 30
0.0
 10
41.95921394091133
 20
5.844955812975824
 30
0.0
 10
38.97264443544844
 20
7.243581057086091
 30
0.0
 10
36.00395016154197
 20
8.460908846526818
 30
0.0
 10
33.05298147794076
 20
9.471642509578954
 30
0.0
 10
30.11934098302127
 20
10.25672141071156
 30
0.0
 10
27.18503680915377
 20
10.80392661384488
 30
0.0
 10
24.23035538918939
 20
11.10275968417203
 30
0.0
 10
21.256075690599
 20
11.13930928128498
 30
0.0
 10
18.2624267980378
 20
10.90994436083665
 30
0.0
 10
15.26918492350587
 20
10.40673992074197
 30
0.0
 10
12.71855028042371
 20
9.797138656297284
 30
0.0
 10
11.16562880872447
 20
9.272627906110051
 30
0.0
 10
10.61036953521281
 20
9.085084966299098
 30
0.0
  0
SPLINE
  5
211
330
1F
100
AcDbEntity
  8
외형선
  6
Continuous
 62
     1
370
    15
100
AcDbSpline
210
0.0
220
0.0
230
1.0
 70
     8
 71
     3
 72
    15
 73
    11
 74
     0
 42
0.000000001
 43
0.00000001
 40
0.0
 40
0.0
 40
0.0
 40
0.0
 40
0.0390462452703473
 40
0.1763194551032954
 40
0.3135819985006395
 40
0.4508414574297966
 40
0.5881054191454106
 40
0.7253814631841574
 40
0.8626771483875799
 40
1.0
 40
1.0
 40
1.0
 40
1.0
 10
29.11567824743576
 20
11.08592800752099
 30
0.0
 10
29.3994933700126
 20
11.0936110843312
 30
0.0
 10
30.68110514641637
 20
11.12830522476169
 30
0.0
 10
32.96036845306185
 20
10.92310063205995
 30
0.0
 10
35.95346130092103
 20
10.46381180684586
 30
0.0
 10
38.94646945847646
 20
9.73199107131166
 30
0.0
 10
41.9395957510151
 20
8.77111462714272
 30
0.0
 10
44.93304067539628
 20
7.594852686149425
 30
0.0
 10
47.92698857315136
 20
6.243678297236995
 30
0.0
 10
49.92322069415633
 20
5.222089900945464
 30
0.0
 10
50.92143549245503
 20
4.711245172910997
 30
0.0
  0
LINE
  5
212
330
1F
100
AcDbEntity
  8
외형선
  6
Continuous
 62
     1
370
    15
100
AcDbLine
 10
50.92143549245503
 20
0.9521339936046171
 30
0.0
 11
50.92143549245503
 21
4.711245172910997
 31
0.0
  0
SPLINE
  5
213
330
1F
100
AcDbEntity
  8
0
 62
     1
100
AcDbSpline
210
0.0
220
0.0
230
1.0
 70
     8
 71
     3
 72
    14
 73
    10
 74
     0
 42
0.000000001
 43
0.00000001
 40
0.0
 40
0.0
 40
0.0
 40
0.0
 40
0.0568138165349043
 40
0.21402676638416
 40
0.3712220441525627
 40
0.528408321016724
 40
0.6855942835776279
 40
0.842788618975045
 40
1.0
 40
1.0
 40
1.0
 40
1.0
 10
22.33778870038912
 20
-11.08149741722818
 30
0.0
 10
21.97716524328757
 20
-11.08973704674154
 30
0.0
 10
20.61863879473776
 20
-11.12077705370644
 30
0.0
 10
18.26243212702965
 20
-10.89710358246674
 30
0.0
 10
15.26918386457569
 20
-10.41613253933211
 30
0.0
 10
12.27614932569909
 20
-9.666675449247442
 30
0.0
 10
9.283118042728159
 20
-8.685806223961869
 30
0.0
 10
6.289903076364165
 20
-7.504529229588458
 30
0.0
 10
4.294294084662578
 20
-6.570179841846538
 30
0.0
 10
3.296435492455057
 20
-6.102979819918834
 30
0.0
  0
SPLINE
  5
214
330
1F
100
AcDbEntity
  8
외형선
  6
Continuous
 62
     1
370
    15
100
AcDbSpline
210
0.0
220
0.0
230
1.0
 70
     8
 71
     3
 72
    11
 73
     7
 74
     0
 42
0.000000001
 43
0.00000001
 40
0.0
 40
0.0
 40
0.0
 40
0.0
 40
0.296454873392216
 40
0.5928491537438598
 40
0.8892000126036714
 40
1.0
 40
1.0
 40
1.0
 40
1.0
 10
50.92143549245503
 20
11.0716347983585
 30
0.0
 10
49.92539404488505
 20
10.99740122600791
 30
0.0
 10
47.93351473276999
 20
10.84894925406407
 30
0.0
 10
44.94610969555447
 20
10.28087551352534
 30
0.0
 10
42.58249397364499
 20
9.692873697710658
 30
0.0
 10
41.21466695596141
 20
9.216307796619416
 30
0.0
 10
40.8424333778827
 20
9.086617544664952
 30
0.0
  0
LINE
  5
215
330
1F
100
AcDbEntity
  8
외형선
  6
Continuous
 62
     1
370
    15
100
AcDbLine
 10
50.92143549245503
 20
4.710196662251724
 30
0.0
 11
50.92143549245503
 21
11.0716347983585
 31
0.0
  0
SPLINE
  5
216
330
1F
100
AcDbEntity
  8
0
 62
     1
100
AcDbSpline
210
0.0
220
0.0
230
1.0
 70
     8
 71
     3
 72
    10
 73
     6
 74
     0
 42
0.000000001
 43
0.00000001
 40
0.0
 40
0.0
 40
0.0
 40
0.0
 40
0.4083955381270858
 40
0.8167455171329746
 40
1.0
 40
1.0
 40
1.0
 40
1.0
 10
3.296435492455029
 20
-10.821435492455
 30
0.0
 10
4.292114999522123
 20
-10.66327121592139
 30
0.0
 10
6.283362939271068
 20
-10.34696030708576
 30
0.0
 10
8.72131574379554
 20
-9.733831169173374
 30
0.0
 10
10.16360747870659
 20
-9.23851372998146
 30
0.0
 10
10.61036953521267
 20
-9.085084966299089
 30
0.0
  0
SPLINE
  5
217
330
1F
100
AcDbEntity
  8
외형선
  6
Continuous
370
    15
100
AcDbSpline
210
0.0
220
0.0
230
1.0
 70
    24
 71
     3
 72
    12
 73
     8
 74
     0
 42
0.000000001
 43
0.00000001
 40
0.0
 40
0.0
 40
0.0
 40
0.0
 40
0.1659332933600864
 40
0.3882355927746577
 40
0.61698467393208
 40
0.8065224101087354
 40
1.0
 40
1.0
 40
1.0
 40
1.0
 10
3.296435492455014
 20
-6.177694223339111
 30
0.0
 10
3.296435492455014
 20
-6.394963251177216
 30
0.0
 10
3.296435492455029
 20
-6.90330951554775
 30
0.0
 10
3.296435492455
 20
-7.833882733092652
 30
0.0
 10
3.296435492455057
 20
-8.852883295995298
 30
0.0
 10
3.296435492455043
 20
-9.863211565675108
 30
0.0
 10
3.296435492455043
 20
-10.49984462672675
 30
0.0
 10
3.296435492455029
 20
-10.821435492455
 30
0.0
  0
LINE
  5
218
330
1F
100
AcDbEntity
  8
중심선
 62
     1
100
AcDbLine
 10
-56.85356450754497
 20
-0.0000000000000018
 30
0.0
 11
53.92143549245506
 21
0.0000000000000124
 31
0.0
  0
DIMENSION
  5
219
330
1F
100
AcDbEntity
  8
치수문자_일반주서
100
AcDbDimension
  2
*D12
 10
3.296435492455029
 20
26.14209535692936
 30
0.0
 11
27.10893549245503
 21
26.14209535692936
 31
0.0
 70
   160
  1
<>
 71
     2
 42
47.625
  3
SLDDIMSTYLE0
100
AcDbAlignedDimension
 13
50.92143549245503
 23
11.0716347983585
 33
0.0
 14
3.296435492455029
 24
10.82143549245502
 34
0.0
100
AcDbRotatedDimension
1001
ACAD
1000
DSTYLE
1002
{
1070
   171
1070
     6
1070
   273
1070
     7
1002
}
  0
DIMENSION
  5
21A
330
1F
100
AcDbEntity
  8
치수문자_일반주서
100
AcDbDimension
  2
*D13
 10
-53.85356450754497
 20
39.97367788211008
 30
0.0
 11
-1.466064507544974
 21
39.97367788211008
 31
0.0
 70
   160
  1
<>
 71
     2
 42
104.775
  3
SLDDIMSTYLE0
100
AcDbAlignedDimension
 13
50.92143549245503
 23
11.0716347983585
 33
0.0
 14
-53.85356450754497
 24
8.890000000000013
 34
0.0
 50
0.0000000000000078
100
AcDbRotatedDimension
1001
ACAD
1000
DSTYLE
1002
{
1070
   171
1070
     6
1070
   273
1070
     7
1002
}
  0
DIMENSION
  5
21B
330
1F
100
AcDbEntity
  8
치수문자_일반주서
100
AcDbDimension
  2
*D14
 10
-63.88433734537214
 20
-9.525000000000045
 30
0.0
 11
-63.88433734537217
 21
0.0
 31
0.0
 70
   160
  1
%%c<>
 71
     2
 42
19.05
 52
-270.0
  3
SLDDIMSTYLE1
100
AcDbAlignedDimension
 13
-51.63106450754498
 23
9.525000000000002
 33
0.0
 14
-51.63106450754498
 24
-9.524999999999999
 34
0.0
 50
90.0000000000002
100
AcDbRotatedDimension
1001
ACAD
1000
DSTYLE
1002
{
1070
   171
1070
     6
1070
   273
1070
     7
1002
}
  0
INSERT
  5
21C
330
1F
100
AcDbEntity
  8
해칭선
100
AcDbBlockReference
  2
SW_DOWELSYMBOL_0
 10
0.0
 20
0.0
 30
0.0
  0
LINE
  5
21D
102
{ACAD_REACTORS
102
}
330
1F
100
AcDbEntity
  8
0
 62
     1
100
AcDbLine
 10
50.92143549245506
 20
11.11250000000001
 30
0.0
 11
50.92143549245506
 21
-11.11249999999999
 31
0.0
  0
DIMENSION
  5
21E
102
{ACAD_REACTORS
102
}
102
{ACAD_XDICTIONARY
360
21F
102
}
330
1F
100
AcDbEntity
  8
치수문자_일반주서
100
AcDbDimension
  2
*D15
 10
72.02051298370051
 20
-11.11249999999999
 30
0.0
 11
72.02051298370051
 21
0.0000000000000124
 31
0.0
 70
   160
  1
{%%C<>[]}
 71
     5
 42
22.225
  3
SLDDIMSTYLE0
100
AcDbAlignedDimension
 13
50.92143549245506
 23
11.11250000000001
 33
0.0
 14
50.92143549245506
 24
-11.11249999999999
 34
0.0
 50
90.0
100
AcDbRotatedDimension
1001
ACAD
1000
DSTYLE
1002
{
1070
   283
1070
     1
1070
   170
1070
     1
1070
   171
1070
     6
1070
   273
1070
     7
1002
}
  0
LINE
  5
22A
330
1F
100
AcDbEntity
  8
외형선
  6
Continuous
370
    15
100
AcDbLine
 10
-51.63106450754498
 20
0.0000000000000018
 30
0.0
 11
-51.63106450754498
 21
9.4615
 31
0.0
  0
LINE
  5
25B
330
1F
100
AcDbEntity
  8
외형선
  6
Continuous
370
    15
100
AcDbLine
 10
-51.63106450754498
 20
9.525000000000002
 30
0.0
 11
-51.63106450754498
 21
-9.524999999999999
 31
0.0
  0
LINE
  5
25C
330
1F
100
AcDbEntity
  8
외형선
  6
Continuous
370
    15
100
AcDbLine
 10
-53.85356450754497
 20
7.302500000000013
 30
0.0
 11
-51.63106450754498
 21
9.525000000000002
 31
0.0
  0
LINE
  5
25E
330
1F
100
AcDbEntity
  8
외형선
  6
Continuous
370
    15
100
AcDbLine
 10
-51.63106450754498
 20
9.525000000000002
 30
0.0
 11
-35.75288950754508
 21
9.525000000000002
 31
0.0
  0
LINE
  5
25F
330
1F
100
AcDbEntity
  8
외형선
  6
Continuous
370
    15
100
AcDbLine
 10
3.296435492455014
 20
10.82143549245502
 30
0.0
 11
1.999999999999993
 21
9.525000000000002
 31
0.0
  0
LINE
  5
260
330
1F
100
AcDbEntity
  8
외형선
  6
Continuous
370
    15
100
AcDbLine
 10
3.296435492455014
 20
-10.82143549245501
 30
0.0
 11
1.999999999999993
 21
-9.52499999999999
 31
0.0
  0
LINE
  5
261
330
1F
100
AcDbEntity
  8
외형선
  6
Continuous
370
    15
100
AcDbLine
 10
2.000000000000011
 20
-9.524999999999999
 30
0.0
 11
1.999999999999989
 21
9.525000000000002
 31
0.0
  0
LINE
  5
29B
330
1F
100
AcDbEntity
  8
외형선
  6
Continuous
370
    15
100
AcDbLine
 10
-33.84788950754495
 20
7.619999999999997
 30
0.0
 11
-22.26548950754494
 21
7.619999999999997
 31
0.0
  0
LINE
  5
29C
330
1F
100
AcDbEntity
  8
외형선
  6
Continuous
370
    15
100
AcDbLine
 10
-33.84788950754495
 20
7.619999999999983
 30
0.0
 11
-35.75288950754509
 21
9.525000000000013
 31
0.0
  0
LINE
  5
29D
330
1F
100
AcDbEntity
  8
외형선
  6
Continuous
370
    15
100
AcDbLine
 10
-22.26548950754494
 20
7.619999999999983
 30
0.0
 11
-20.36048950754497
 21
9.525000000000013
 31
0.0
  0
LINE
  5
29E
330
1F
100
AcDbEntity
  8
외형선
  6
Continuous
370
    15
100
AcDbLine
 10
-20.36048950754498
 20
9.525000000000002
 30
0.0
 11
1.999999999999986
 21
9.525000000000002
 31
0.0
  0
ENDSEC
  0
SECTION
  2
OBJECTS
  0
DICTIONARY
  5
C
330
0
100
AcDbDictionary
281
     1
  3
ACAD_GROUP
350
D
  3
ACAD_IMAGE_VARS
350
136
  3
ACAD_LAYOUT
350
1A
  3
ACAD_MLINESTYLE
350
17
  3
ACAD_PLOTSETTINGS
350
19
  3
ACAD_PLOTSTYLENAME
350
E
  3
ACAD_SCALELIST
350
47
  3
APPDATA
350
134
  3
DWGPROPS
350
29F
  0
DICTIONARY
  5
1CD
330
2
100
AcDbDictionary
280
     1
281
     1
  3
ACAD_LAYERSTATES
360
1CE
  0
DICTIONARY
  5
21F
330
21E
100
AcDbDictionary
280
     1
281
     1
  0
DICTIONARY
  5
D
102
{ACAD_REACTORS
330
C
102
}
330
C
100
AcDbDictionary
281
     1
  0
RASTERVARIABLES
  5
136
102
{ACAD_REACTORS
330
C
102
}
330
C
100
AcDbRasterVariables
 90
        0
 70
     1
 71
     1
 72
     1
  0
DICTIONARY
  5
1A
102
{ACAD_REACTORS
330
C
102
}
330
C
100
AcDbDictionary
281
     1
  3
Layout1
350
1E
  3
Layout2
350
26
  3
Model
350
22
  0
DICTIONARY
  5
17
102
{ACAD_REACTORS
330
C
102
}
330
C
100
AcDbDictionary
281
     1
  3
Standard
350
18
  0
DICTIONARY
  5
19
102
{ACAD_REACTORS
330
C
102
}
330
C
100
AcDbDictionary
281
     1
  0
ACDBDICTIONARYWDFLT
  5
E
102
{ACAD_REACTORS
330
C
102
}
330
C
100
AcDbDictionary
281
     1
  3
Normal
350
F
100
AcDbDictionaryWithDefault
340
F
  0
DICTIONARY
  5
47
102
{ACAD_REACTORS
330
C
102
}
330
C
100
AcDbDictionary
281
     1
  3
A0
350
48
  3
A1
350
49
  3
A2
350
4A
  3
A3
350
4B
  3
A4
350
4C
  3
A5
350
4D
  3
A6
350
4E
  3
A7
350
4F
  3
A8
350
50
  3
A9
350
51
  3
B0
350
52
  3
B1
350
53
  3
B2
350
54
  3
B3
350
55
  3
B4
350
56
  3
B5
350
57
  3
B6
350
58
  3
B7
350
59
  3
B8
350
5A
  3
B9
350
5B
  3
C0
350
5C
  3
C1
350
5D
  3
C2
350
5E
  3
C3
350
5F
  3
C4
350
60
  3
C5
350
61
  3
C6
350
62
  3
C7
350
63
  3
C8
350
64
  3
C9
350
65
  3
D0
350
66
  3
D1
350
67
  3
D2
350
68
  0
DICTIONARY
  5
134
102
{ACAD_REACTORS
330
C
102
}
330
C
100
AcDbDictionary
281
     1
  0
XRECORD
  5
29F
102
{ACAD_REACTORS
330
C
102
}
330
C
100
AcDbXrecord
280
     1
  1
DWGPROPS COOKIE
  2

  3

  4

  6

  7

  8
12016016
  9

300
=
301
=
302
=
303
=
304
=
305
=
306
=
307
=
308
=
309
=
 40
0.0
 41
2458312.382115544
 42
2458319.274105984
  1

 90
        0
  0
DICTIONARY
  5
1CE
102
{ACAD_REACTORS
330
1CD
102
}
330
1CD
100
AcDbDictionary
281
     1
  0
LAYOUT
  5
1E
102
{ACAD_REACTORS
330
1A
102
}
330
1A
100
AcDbPlotSettings
  1

  2
none_device
  4

  6

 40
0.0
 41
0.0
 42
0.0
 43
0.0
 44
0.0
 45
0.0
 46
0.0
 47
0.0
 48
0.0
 49
0.0
140
0.0
141
0.0
142
1.0
143
1.0
 70
   688
 72
     1
 73
     0
 74
     5
  7

 75
    16
147
1.0
148
0.0
149
0.0
100
AcDbLayout
  1
Layout1
 70
     1
 71
     1
 10
0.0
 20
0.0
 11
420.0
 21
297.0
 12
0.0
 22
0.0
 32
0.0
 14
1.000000000000000E+20
 24
1.000000000000000E+20
 34
1.000000000000000E+20
 15
-1.000000000000000E+20
 25
-1.000000000000000E+20
 35
-1.000000000000000E+20
146
0.0
 13
0.0
 23
0.0
 33
0.0
 16
1.0
 26
0.0
 36
0.0
 17
0.0
 27
1.0
 37
0.0
 76
     0
330
1B
  0
LAYOUT
  5
26
102
{ACAD_REACTORS
330
1A
102
}
330
1A
100
AcDbPlotSettings
  1

  2
none_device
  4

  6

 40
0.0
 41
0.0
 42
0.0
 43
0.0
 44
0.0
 45
0.0
 46
0.0
 47
0.0
 48
0.0
 49
0.0
140
0.0
141
0.0
142
1.0
143
1.0
 70
   688
 72
     1
 73
     0
 74
     5
  7

 75
    16
147
1.0
148
0.0
149
0.0
100
AcDbLayout
  1
Layout2
 70
     1
 71
     2
 10
0.0
 20
0.0
 11
0.0
 21
0.0
 12
0.0
 22
0.0
 32
0.0
 14
0.0
 24
0.0
 34
0.0
 15
0.0
 25
0.0
 35
0.0
146
0.0
 13
0.0
 23
0.0
 33
0.0
 16
1.0
 26
0.0
 36
0.0
 17
0.0
 27
1.0
 37
0.0
 76
     0
330
23
  0
LAYOUT
  5
22
102
{ACAD_REACTORS
330
1A
102
}
330
1A
100
AcDbPlotSettings
  1

  2
none_device
  4
ANSI_A_(11.00_x_8.50_Inches)
  6

 40
6.35
 41
19.05
 42
6.35000508
 43
19.05000254
 44
279.4
 45
215.9
 46
106.7889521580535
 47
99.09810663031205
 48
0.0
 49
0.0
140
0.0
141
0.0
142
0.0711206359935618
143
1.0
 70
  1696
 72
     0
 73
     0
 74
     0
  7

 75
     0
147
0.0235690232323232
148
0.0
149
0.0
100
AcDbLayout
  1
Model
 70
     1
 71
     0
 10
0.0
 20
0.0
 11
420.0
 21
297.0
 12
0.0
 22
0.0
 32
0.0
 14
1.000000000000000E+20
 24
1.000000000000000E+20
 34
1.000000000000000E+20
 15
-1.000000000000000E+20
 25
-1.000000000000000E+20
 35
-1.000000000000000E+20
146
0.0
 13
0.0
 23
0.0
 33
0.0
 16
1.0
 26
0.0
 36
0.0
 17
0.0
 27
1.0
 37
0.0
 76
     0
330
1F
331
29
  0
MLINESTYLE
  5
18
102
{ACAD_REACTORS
330
17
102
}
330
17
100
AcDbMlineStyle
  2
Standard
 70
     0
  3

 62
   256
 51
90.0
 52
90.0
 71
     2
 49
0.5
 62
   256
  6
BYLAYER
 49
-0.5
 62
   256
  6
BYLAYER
  0
ACDBPLACEHOLDER
  5
F
102
{ACAD_REACTORS
330
E
102
}
330
E
  0
SCALE
  5
48
102
{ACAD_REACTORS
330
47
102
}
330
47
100
AcDbScale
 70
     0
300
1:1
140
1.0
141
1.0
290
     1
  0
SCALE
  5
49
102
{ACAD_REACTORS
330
47
102
}
330
47
100
AcDbScale
 70
     0
300
1:2
140
1.0
141
2.0
290
     0
  0
SCALE
  5
4A
102
{ACAD_REACTORS
330
47
102
}
330
47
100
AcDbScale
 70
     0
300
1:4
140
1.0
141
4.0
290
     0
  0
SCALE
  5
4B
102
{ACAD_REACTORS
330
47
102
}
330
47
100
AcDbScale
 70
     0
300
1:5
140
1.0
141
5.0
290
     0
  0
SCALE
  5
4C
102
{ACAD_REACTORS
330
47
102
}
330
47
100
AcDbScale
 70
     0
300
1:8
140
1.0
141
8.0
290
     0
  0
SCALE
  5
4D
102
{ACAD_REACTORS
330
47
102
}
330
47
100
AcDbScale
 70
     0
300
1:10
140
1.0
141
10.0
290
     0
  0
SCALE
  5
4E
102
{ACAD_REACTORS
330
47
102
}
330
47
100
AcDbScale
 70
     0
300
1:16
140
1.0
141
16.0
290
     0
  0
SCALE
  5
4F
102
{ACAD_REACTORS
330
47
102
}
330
47
100
AcDbScale
 70
     0
300
1:20
140
1.0
141
20.0
290
     0
  0
SCALE
  5
50
102
{ACAD_REACTORS
330
47
102
}
330
47
100
AcDbScale
 70
     0
300
1:30
140
1.0
141
30.0
290
     0
  0
SCALE
  5
51
102
{ACAD_REACTORS
330
47
102
}
330
47
100
AcDbScale
 70
     0
300
1:40
140
1.0
141
40.0
290
     0
  0
SCALE
  5
52
102
{ACAD_REACTORS
330
47
102
}
330
47
100
AcDbScale
 70
     0
300
1:50
140
1.0
141
50.0
290
     0
  0
SCALE
  5
53
102
{ACAD_REACTORS
330
47
102
}
330
47
100
AcDbScale
 70
     0
300
1:100
140
1.0
141
100.0
290
     0
  0
SCALE
  5
54
102
{ACAD_REACTORS
330
47
102
}
330
47
100
AcDbScale
 70
     0
300
2:1
140
2.0
141
1.0
290
     0
  0
SCALE
  5
55
102
{ACAD_REACTORS
330
47
102
}
330
47
100
AcDbScale
 70
     0
300
4:1
140
4.0
141
1.0
290
     0
  0
SCALE
  5
56
102
{ACAD_REACTORS
330
47
102
}
330
47
100
AcDbScale
 70
     0
300
8:1
140
8.0
141
1.0
290
     0
  0
SCALE
  5
57
102
{ACAD_REACTORS
330
47
102
}
330
47
100
AcDbScale
 70
     0
300
10:1
140
10.0
141
1.0
290
     0
  0
SCALE
  5
58
102
{ACAD_REACTORS
330
47
102
}
330
47
100
AcDbScale
 70
     0
300
100:1
140
100.0
141
1.0
290
     0
  0
SCALE
  5
59
102
{ACAD_REACTORS
330
47
102
}
330
47
100
AcDbScale
 70
     0
300
1/128" = 1'-0"
140
0.0078125
141
12.0
290
     0
  0
SCALE
  5
5A
102
{ACAD_REACTORS
330
47
102
}
330
47
100
AcDbScale
 70
     0
300
1/64" = 1'-0"
140
0.015625
141
12.0
290
     0
  0
SCALE
  5
5B
102
{ACAD_REACTORS
330
47
102
}
330
47
100
AcDbScale
 70
     0
300
1/32" = 1'-0"
140
0.03125
141
12.0
290
     0
  0
SCALE
  5
5C
102
{ACAD_REACTORS
330
47
102
}
330
47
100
AcDbScale
 70
     0
300
1/16" = 1'-0"
140
0.0625
141
12.0
290
     0
  0
SCALE
  5
5D
102
{ACAD_REACTORS
330
47
102
}
330
47
100
AcDbScale
 70
     0
300
3/32" = 1'-0"
140
0.09375
141
12.0
290
     0
  0
SCALE
  5
5E
102
{ACAD_REACTORS
330
47
102
}
330
47
100
AcDbScale
 70
     0
300
1/8" = 1'-0"
140
0.125
141
12.0
290
     0
  0
SCALE
  5
5F
102
{ACAD_REACTORS
330
47
102
}
330
47
100
AcDbScale
 70
     0
300
3/16" = 1'-0"
140
0.1875
141
12.0
290
     0
  0
SCALE
  5
60
102
{ACAD_REACTORS
330
47
102
}
330
47
100
AcDbScale
 70
     0
300
1/4" = 1'-0"
140
0.25
141
12.0
290
     0
  0
SCALE
  5
61
102
{ACAD_REACTORS
330
47
102
}
330
47
100
AcDbScale
 70
     0
300
3/8" = 1'-0"
140
0.375
141
12.0
290
     0
  0
SCALE
  5
62
102
{ACAD_REACTORS
330
47
102
}
330
47
100
AcDbScale
 70
     0
300
1/2" = 1'-0"
140
0.5
141
12.0
290
     0
  0
SCALE
  5
63
102
{ACAD_REACTORS
330
47
102
}
330
47
100
AcDbScale
 70
     0
300
3/4" = 1'-0"
140
0.75
141
12.0
290
     0
  0
SCALE
  5
64
102
{ACAD_REACTORS
330
47
102
}
330
47
100
AcDbScale
 70
     0
300
1" = 1'-0"
140
1.0
141
12.0
290
     0
  0
SCALE
  5
65
102
{ACAD_REACTORS
330
47
102
}
330
47
100
AcDbScale
 70
     0
300
1-1/2" = 1'-0"
140
1.5
141
12.0
290
     0
  0
SCALE
  5
66
102
{ACAD_REACTORS
330
47
102
}
330
47
100
AcDbScale
 70
     0
300
3" = 1'-0"
140
3.0
141
12.0
290
     0
  0
SCALE
  5
67
102
{ACAD_REACTORS
330
47
102
}
330
47
100
AcDbScale
 70
     0
300
6" = 1'-0"
140
6.0
141
12.0
290
     0
  0
SCALE
  5
68
102
{ACAD_REACTORS
330
47
102
}
330
47
100
AcDbScale
 70
     0
300
1'-0" = 1'-0"
140
12.0
141
12.0
290
     0
  0
ENDSEC
  0
EOF
