  0
SECTION
  2
HEADER
  9
$ACADVER
  1
AC1015
  9
$ACADMAINTVER
 70
     6
  9
$DWGCODEPAGE
  3
ANSI_949
  9
$INSBASE
 10
0.0
 20
0.0
 30
0.0
  9
$EXTMIN
 10
-56.32486064570863
 20
-49.97180738881175
 30
0.0
  9
$EXTMAX
 10
82.93237316963706
 20
34.31449999999996
 30
0.0
  9
$LIMMIN
 10
0.0
 20
0.0
  9
$LIMMAX
 10
420.0
 20
297.0
  9
$ORTHOMODE
 70
     1
  9
$REGENMODE
 70
     1
  9
$FILLMODE
 70
     1
  9
$QTEXTMODE
 70
     0
  9
$MIRRTEXT
 70
     1
  9
$LTSCALE
 40
1.0
  9
$ATTMODE
 70
     1
  9
$TEXTSIZE
 40
3.5
  9
$TRACEWID
 40
1.0
  9
$TEXTSTYLE
  7
Standard
  9
$CLAYER
  8
0
  9
$CELTYPE
  6
ByLayer
  9
$CECOLOR
 62
   256
  9
$CELTSCALE
 40
1.0
  9
$DISPSILH
 70
     0
  9
$DIMSCALE
 40
1.0
  9
$DIMASZ
 40
3.302
  9
$DIMEXO
 40
1.0
  9
$DIMDLI
 40
3.75
  9
$DIMRND
 40
0.0
  9
$DIMDLE
 40
0.0
  9
$DIMEXE
 40
1.0
  9
$DIMTP
 40
0.0
  9
$DIMTM
 40
0.0
  9
$DIMTXT
 40
3.5
  9
$DIMCEN
 40
2.5
  9
$DIMTSZ
 40
0.0
  9
$DIMTOL
 70
     0
  9
$DIMLIM
 70
     0
  9
$DIMTIH
 70
     1
  9
$DIMTOH
 70
     1
  9
$DIMSE1
 70
     0
  9
$DIMSE2
 70
     0
  9
$DIMTAD
 70
     1
  9
$DIMZIN
 70
     0
  9
$DIMBLK
  1

  9
$DIMASO
 70
     1
  9
$DIMSHO
 70
     1
  9
$DIMPOST
  1

  9
$DIMAPOST
  1

  9
$DIMALT
 70
     0
  9
$DIMALTD
 70
     3
  9
$DIMALTF
 40
0.0393700787401575
  9
$DIMLFAC
 40
1.0
  9
$DIMTOFL
 70
     1
  9
$DIMTVP
 40
0.0
  9
$DIMTIX
 70
     0
  9
$DIMSOXD
 70
     0
  9
$DIMSAH
 70
     0
  9
$DIMBLK1
  1

  9
$DIMBLK2
  1

  9
$DIMSTYLE
  2
ISO-25
  9
$DIMCLRD
 70
     0
  9
$DIMCLRE
 70
     0
  9
$DIMCLRT
 70
     0
  9
$DIMTFAC
 40
1.0
  9
$DIMGAP
 40
1.524
  9
$DIMJUST
 70
     0
  9
$DIMSD1
 70
     0
  9
$DIMSD2
 70
     0
  9
$DIMTOLJ
 70
     0
  9
$DIMTZIN
 70
     0
  9
$DIMALTZ
 70
     0
  9
$DIMALTTZ
 70
     0
  9
$DIMUPT
 70
     0
  9
$DIMDEC
 70
     2
  9
$DIMTDEC
 70
     2
  9
$DIMALTU
 70
     2
  9
$DIMALTTD
 70
     3
  9
$DIMTXSTY
  7
Standard
  9
$DIMAUNIT
 70
     0
  9
$DIMADEC
 70
     2
  9
$DIMALTRND
 40
0.0
  9
$DIMAZIN
 70
     0
  9
$DIMDSEP
 70
    44
  9
$DIMATFIT
 70
     3
  9
$DIMFRAC
 70
     0
  9
$DIMLDRBLK
  1

  9
$DIMLUNIT
 70
     2
  9
$DIMLWD
 70
    -2
  9
$DIMLWE
 70
    -2
  9
$DIMTMOVE
 70
     0
  9
$LUNITS
 70
     2
  9
$LUPREC
 70
     2
  9
$SKETCHINC
 40
1.0
  9
$FILLETRAD
 40
10.0
  9
$AUNITS
 70
     0
  9
$AUPREC
 70
     2
  9
$MENU
  1
.
  9
$ELEVATION
 40
0.0
  9
$PELEVATION
 40
0.0
  9
$THICKNESS
 40
0.0
  9
$LIMCHECK
 70
     0
  9
$CHAMFERA
 40
0.0
  9
$CHAMFERB
 40
0.0
  9
$CHAMFERC
 40
0.0
  9
$CHAMFERD
 40
0.0
  9
$SKPOLY
 70
     0
  9
$TDCREATE
 40
2458312.630132755
  9
$TDUCREATE
 40
2458312.255132755
  9
$TDUPDATE
 40
2458330.655738345
  9
$TDUUPDATE
 40
2458330.280738345
  9
$TDINDWG
 40
0.0013057292
  9
$TDUSRTIMER
 40
2458330.280699247
  9
$USRTIMER
 70
     1
  9
$ANGBASE
 50
0.0
  9
$ANGDIR
 70
     0
  9
$PDMODE
 70
     0
  9
$PDSIZE
 40
-1.0
  9
$PLINEWID
 40
0.0
  9
$SPLFRAME
 70
     0
  9
$SPLINETYPE
 70
     6
  9
$SPLINESEGS
 70
     8
  9
$HANDSEED
  5
205
  9
$SURFTAB1
 70
     6
  9
$SURFTAB2
 70
     6
  9
$SURFTYPE
 70
     6
  9
$SURFU
 70
     6
  9
$SURFV
 70
     6
  9
$UCSBASE
  2

  9
$UCSNAME
  2

  9
$UCSORG
 10
0.0
 20
0.0
 30
0.0
  9
$UCSXDIR
 10
1.0
 20
0.0
 30
0.0
  9
$UCSYDIR
 10
0.0
 20
1.0
 30
0.0
  9
$UCSORTHOREF
  2

  9
$UCSORTHOVIEW
 70
     0
  9
$UCSORGTOP
 10
0.0
 20
0.0
 30
0.0
  9
$UCSORGBOTTOM
 10
0.0
 20
0.0
 30
0.0
  9
$UCSORGLEFT
 10
0.0
 20
0.0
 30
0.0
  9
$UCSORGRIGHT
 10
0.0
 20
0.0
 30
0.0
  9
$UCSORGFRONT
 10
0.0
 20
0.0
 30
0.0
  9
$UCSORGBACK
 10
0.0
 20
0.0
 30
0.0
  9
$PUCSBASE
  2

  9
$PUCSNAME
  2

  9
$PUCSORG
 10
0.0
 20
0.0
 30
0.0
  9
$PUCSXDIR
 10
1.0
 20
0.0
 30
0.0
  9
$PUCSYDIR
 10
0.0
 20
1.0
 30
0.0
  9
$PUCSORTHOREF
  2

  9
$PUCSORTHOVIEW
 70
     0
  9
$PUCSORGTOP
 10
0.0
 20
0.0
 30
0.0
  9
$PUCSORGBOTTOM
 10
0.0
 20
0.0
 30
0.0
  9
$PUCSORGLEFT
 10
0.0
 20
0.0
 30
0.0
  9
$PUCSORGRIGHT
 10
0.0
 20
0.0
 30
0.0
  9
$PUCSORGFRONT
 10
0.0
 20
0.0
 30
0.0
  9
$PUCSORGBACK
 10
0.0
 20
0.0
 30
0.0
  9
$USERI1
 70
     0
  9
$USERI2
 70
     0
  9
$USERI3
 70
     0
  9
$USERI4
 70
     0
  9
$USERI5
 70
     0
  9
$USERR1
 40
0.0
  9
$USERR2
 40
0.0
  9
$USERR3
 40
0.0
  9
$USERR4
 40
0.0
  9
$USERR5
 40
0.0
  9
$WORLDVIEW
 70
     1
  9
$SHADEDGE
 70
     3
  9
$SHADEDIF
 70
    70
  9
$TILEMODE
 70
     1
  9
$MAXACTVP
 70
    64
  9
$PINSBASE
 10
0.0
 20
0.0
 30
0.0
  9
$PLIMCHECK
 70
     0
  9
$PEXTMIN
 10
1.000000000000000E+20
 20
1.000000000000000E+20
 30
1.000000000000000E+20
  9
$PEXTMAX
 10
-1.000000000000000E+20
 20
-1.000000000000000E+20
 30
-1.000000000000000E+20
  9
$PLIMMIN
 10
0.0
 20
0.0
  9
$PLIMMAX
 10
0.0
 20
0.0
  9
$UNITMODE
 70
     0
  9
$VISRETAIN
 70
     1
  9
$PLINEGEN
 70
     0
  9
$PSLTSCALE
 70
     1
  9
$TREEDEPTH
 70
  3020
  9
$CMLSTYLE
  2
Standard
  9
$CMLJUST
 70
     0
  9
$CMLSCALE
 40
20.0
  9
$PROXYGRAPHICS
 70
     1
  9
$MEASUREMENT
 70
     1
  9
$CELWEIGHT
370
    -1
  9
$ENDCAPS
280
     0
  9
$JOINSTYLE
280
     0
  9
$LWDISPLAY
290
     1
  9
$INSUNITS
 70
     4
  9
$HYPERLINKBASE
  1

  9
$STYLESHEET
  1

  9
$XEDIT
290
     1
  9
$CEPSNTYPE
380
     0
  9
$PSTYLEMODE
290
     1
  9
$FINGERPRINTGUID
  2
{B0998EE4-1C07-4A88-A33C-E8D2837E9024}
  9
$VERSIONGUID
  2
{FAEB1C32-E019-11D5-929B-00C0DF256EC4}
  9
$EXTNAMES
290
     1
  9
$PSVPSCALE
 40
0.0
  9
$OLESTARTUP
290
     0
  0
ENDSEC
  0
SECTION
  2
CLASSES
  0
CLASS
  1
ACDBDICTIONARYWDFLT
  2
AcDbDictionaryWithDefault
  3
ObjectDBX Classes
 90
        0
280
     0
281
     0
  0
CLASS
  1
VISUALSTYLE
  2
AcDbVisualStyle
  3
ObjectDBX Classes
 90
     4095
280
     0
281
     0
  0
CLASS
  1
MATERIAL
  2
AcDbMaterial
  3
ObjectDBX Classes
 90
     1153
280
     0
281
     0
  0
CLASS
  1
SCALE
  2
AcDbScale
  3
ObjectDBX Classes
 90
     1153
280
     0
281
     0
  0
CLASS
  1
SUN
  2
AcDbSun
  3
SCENEOE
 90
     1153
280
     0
281
     0
  0
CLASS
  1
ACDBPLACEHOLDER
  2
AcDbPlaceHolder
  3
ObjectDBX Classes
 90
        0
280
     0
281
     0
  0
CLASS
  1
LAYOUT
  2
AcDbLayout
  3
ObjectDBX Classes
 90
        0
280
     0
281
     0
  0
CLASS
  1
TABLESTYLE
  2
AcDbTableStyle
  3
ObjectDBX Classes
 90
     4095
280
     0
281
     0
  0
CLASS
  1
MLEADERSTYLE
  2
AcDbMLeaderStyle
  3
ACDB_MLEADERSTYLE_CLASS
 90
     4095
280
     0
281
     0
  0
CLASS
  1
RASTERVARIABLES
  2
AcDbRasterVariables
  3
ISM
 90
        0
280
     0
281
     0
  0
ENDSEC
  0
SECTION
  2
TABLES
  0
TABLE
  2
VPORT
  5
8
330
0
100
AcDbSymbolTable
 70
     1
  0
VPORT
  5
29
330
8
100
AcDbSymbolTableRecord
100
AcDbViewportTableRecord
  2
*Active
 70
     0
 10
0.0
 20
0.0
 11
1.0
 21
1.0
 12
13.30375626196421
 22
-7.828653694405894
 13
0.0
 23
0.0
 14
10.0
 24
10.0
 15
10.0
 25
10.0
 16
0.0
 26
0.0
 36
1.0
 17
0.0
 27
0.0
 37
0.0
 40
85.97203353658794
 41
1.782762691853601
 42
50.0
 43
0.0
 44
0.0
 50
0.0
 51
0.0
 71
    16
 72
  2000
 73
     1
 74
     3
 75
     0
 76
     0
 77
     0
 78
     0
281
     0
 65
     1
110
0.0
120
0.0
130
0.0
111
1.0
121
0.0
131
0.0
112
0.0
122
1.0
132
0.0
 79
     0
146
0.0
  0
ENDTAB
  0
TABLE
  2
LTYPE
  5
5
330
0
100
AcDbSymbolTable
 70
     6
  0
LTYPE
  5
14
330
5
100
AcDbSymbolTableRecord
100
AcDbLinetypeTableRecord
  2
ByBlock
 70
     0
  3

 72
    65
 73
     0
 40
0.0
  0
LTYPE
  5
15
330
5
100
AcDbSymbolTableRecord
100
AcDbLinetypeTableRecord
  2
ByLayer
 70
     0
  3

 72
    65
 73
     0
 40
0.0
  0
LTYPE
  5
16
330
5
100
AcDbSymbolTableRecord
100
AcDbLinetypeTableRecord
  2
Continuous
 70
     0
  3
Solid line
 72
    65
 73
     0
 40
0.0
  0
LTYPE
  5
6A
330
5
100
AcDbSymbolTableRecord
100
AcDbLinetypeTableRecord
  2
HIDDEN
 70
     0
  3
Hidden __ __ __ __ __ __ __ __ __ __ __ __ __ __
 72
    65
 73
     2
 40
1.905
 49
1.27
 74
     0
 49
-0.635
 74
     0
  0
LTYPE
  5
6B
330
5
100
AcDbSymbolTableRecord
100
AcDbLinetypeTableRecord
  2
PHANTOM
 70
     0
  3
Phantom ______  __  __  ______  __  __  ______
 72
    65
 73
     6
 40
12.7
 49
6.35
 74
     0
 49
-1.27
 74
     0
 49
1.27
 74
     0
 49
-1.27
 74
     0
 49
1.27
 74
     0
 49
-1.27
 74
     0
  0
LTYPE
  5
6C
330
5
100
AcDbSymbolTableRecord
100
AcDbLinetypeTableRecord
  2
CENTER
 70
     0
  3
Center ____ _ ____ _ ____ _ ____ _ ____ _ ____
 72
    65
 73
     4
 40
10.16
 49
6.35
 74
     0
 49
-1.27
 74
     0
 49
1.27
 74
     0
 49
-1.27
 74
     0
  0
LTYPE
  5
6D
330
5
100
AcDbSymbolTableRecord
100
AcDbLinetypeTableRecord
  2
CENTERX2
 70
     0
  3
Center (2x) ________  __  ________  __  _____
 72
    65
 73
     4
 40
20.32
 49
12.7
 74
     0
 49
-2.54
 74
     0
 49
2.54
 74
     0
 49
-2.54
 74
     0
  0
LTYPE
  5
6E
330
5
100
AcDbSymbolTableRecord
100
AcDbLinetypeTableRecord
  2
DOT2
 70
     0
  3
Dot (.5x) ........................................
 72
    65
 73
     2
 40
0.635
 49
0.0
 74
     0
 49
-0.635
 74
     0
  0
ENDTAB
  0
TABLE
  2
LAYER
  5
2
102
{ACAD_XDICTIONARY
360
184
102
}
330
0
100
AcDbSymbolTable
 70
    18
  0
LAYER
  5
10
330
2
100
AcDbSymbolTableRecord
100
AcDbLayerTableRecord
  2
0
 70
     0
 62
     7
  6
Continuous
370
    -3
390
F
  0
LAYER
  5
6F
330
2
100
AcDbSymbolTableRecord
100
AcDbLayerTableRecord
  2
FORMAT
 70
     0
 62
     2
  6
Continuous
370
    -3
390
F
  0
LAYER
  5
70
330
2
100
AcDbSymbolTableRecord
100
AcDbLayerTableRecord
  2
외형선
 70
     0
 62
     4
  6
Continuous
370
    30
390
F
  0
LAYER
  5
71
330
2
100
AcDbSymbolTableRecord
100
AcDbLayerTableRecord
  2
숨은선
 70
     0
 62
     2
  6
HIDDEN
370
    15
390
F
  0
LAYER
  5
72
330
2
100
AcDbSymbolTableRecord
100
AcDbLayerTableRecord
  2
중심선
 70
     0
 62
     1
  6
CENTERX2
370
    -3
390
F
  0
LAYER
  5
73
330
2
100
AcDbSymbolTableRecord
100
AcDbLayerTableRecord
  2
파단선
 70
     0
 62
     4
  6
Continuous
370
    -3
390
F
  0
LAYER
  5
74
330
2
100
AcDbSymbolTableRecord
100
AcDbLayerTableRecord
  2
해칭선
 70
     0
 62
   100
  6
Continuous
370
    -3
390
F
  0
LAYER
  5
75
330
2
100
AcDbSymbolTableRecord
100
AcDbLayerTableRecord
  2
가는실선
 70
     0
 62
     4
  6
Continuous
370
    -3
390
F
  0
LAYER
  5
76
330
2
100
AcDbSymbolTableRecord
100
AcDbLayerTableRecord
  2
치수_보조선
 70
     0
 62
     4
  6
Continuous
370
    -3
390
F
  0
LAYER
  5
77
330
2
100
AcDbSymbolTableRecord
100
AcDbLayerTableRecord
  2
치수문자_일반주서
 70
     0
 62
     7
  6
Continuous
370
    15
390
F
  0
LAYER
  5
78
330
2
100
AcDbSymbolTableRecord
100
AcDbLayerTableRecord
  2
개별주서
 70
     0
 62
   100
  6
Continuous
370
    30
390
F
  0
LAYER
  5
79
330
2
100
AcDbSymbolTableRecord
100
AcDbLayerTableRecord
  2
중간선
 70
     0
 62
     2
  6
Continuous
370
    15
390
F
  0
LAYER
  5
7A
330
2
100
AcDbSymbolTableRecord
100
AcDbLayerTableRecord
  2
윤곽선
 70
     0
 62
     3
  6
Continuous
370
    40
390
F
  0
LAYER
  5
7B
330
2
100
AcDbSymbolTableRecord
100
AcDbLayerTableRecord
  2
중심마크
 70
     0
 62
   100
  6
Continuous
370
    30
390
F
  0
LAYER
  5
7C
330
2
100
AcDbSymbolTableRecord
100
AcDbLayerTableRecord
  2
가상선
 70
     0
 62
     4
  6
PHANTOM
370
    -3
390
F
  0
LAYER
  5
7D
330
2
100
AcDbSymbolTableRecord
100
AcDbLayerTableRecord
  2
특수지정선
 70
     0
 62
     5
  6
CENTERX2
370
    60
390
F
  0
LAYER
  5
7E
330
2
100
AcDbSymbolTableRecord
100
AcDbLayerTableRecord
  2
참조1
 70
     0
 62
    -4
  6
Continuous
370
    -3
390
F
  0
LAYER
  5
150
330
2
100
AcDbSymbolTableRecord
100
AcDbLayerTableRecord
  2
Defpoints
 70
     0
 62
     7
  6
Continuous
290
     0
370
    -3
390
F
  0
ENDTAB
  0
TABLE
  2
STYLE
  5
3
330
0
100
AcDbSymbolTable
 70
     2
  0
STYLE
  5
11
330
3
100
AcDbSymbolTableRecord
100
AcDbTextStyleTableRecord
  2
Standard
 70
     0
 40
0.0
 41
1.0
 50
0.0
 71
     0
 42
3.5
  3
txt
  4

  0
STYLE
  5
94
330
3
100
AcDbSymbolTableRecord
100
AcDbTextStyleTableRecord
  2
SLDTEXTSTYLE0
 70
     0
 40
0.0
 41
0.75
 50
0.0
 71
     0
 42
3.5
  3
TXT
  4

  0
ENDTAB
  0
TABLE
  2
VIEW
  5
6
330
0
100
AcDbSymbolTable
 70
     0
  0
ENDTAB
  0
TABLE
  2
UCS
  5
7
330
0
100
AcDbSymbolTable
 70
     0
  0
ENDTAB
  0
TABLE
  2
APPID
  5
9
330
0
100
AcDbSymbolTable
 70
     4
  0
APPID
  5
12
330
9
100
AcDbSymbolTableRecord
100
AcDbRegAppTableRecord
  2
ACAD
 70
     0
  0
APPID
  5
157
330
9
100
AcDbSymbolTableRecord
100
AcDbRegAppTableRecord
  2
PE_URL
 70
     0
  0
APPID
  5
1DF
330
9
100
AcDbSymbolTableRecord
100
AcDbRegAppTableRecord
  2
ACAD_DSTYLE_DIMFLIPARROW_SYMBOL
 70
     0
  0
APPID
  5
1E0
330
9
100
AcDbSymbolTableRecord
100
AcDbRegAppTableRecord
  2
ACAD_DSTYLE_DIMFLIPARROW_WHICH_SYMBOL
 70
     0
  0
ENDTAB
  0
TABLE
  2
DIMSTYLE
  5
A
330
0
100
AcDbSymbolTable
 70
     4
100
AcDbDimStyleTable
  0
DIMSTYLE
105
27
330
A
100
AcDbSymbolTableRecord
100
AcDbDimStyleTableRecord
  2
ISO-25
 70
     0
 41
2.5
 42
0.625
 43
3.75
 44
1.25
 73
     0
 74
     0
 77
     1
 78
     8
140
2.5
141
2.5
143
0.03937007874016
147
0.625
171
     3
172
     1
178
     0
271
     2
272
     2
274
     3
278
    44
283
     0
284
     8
340
11
  0
DIMSTYLE
105
CF
102
{ACAD_REACTORS
330
CE
330
E3
330
10C
330
F7
102
}
330
A
100
AcDbSymbolTableRecord
100
AcDbDimStyleTableRecord
  2
SLDDIMSTYLE0
 70
     0
 41
3.302
 44
0.0
 45
0.000000001
 73
     0
 74
     0
 77
     1
 78
     4
 79
     1
140
3.5
143
0.0393700787401575
147
0.875
148
0.000000001
170
     1
173
     1
178
     0
271
     2
272
     2
276
     2
284
    12
340
94
  0
DIMSTYLE
105
E4
330
A
100
AcDbSymbolTableRecord
100
AcDbDimStyleTableRecord
  2
SLDDIMSTYLE1
 70
     0
 41
3.302
 44
0.0
 45
0.000000001
 73
     0
 74
     0
 77
     1
 78
    12
 79
     3
140
3.5
143
0.0393700787401575
147
0.875
148
0.000000001
170
     1
173
     1
178
     0
271
     2
272
     2
276
     2
284
    12
340
94
  0
DIMSTYLE
105
F8
330
A
100
AcDbSymbolTableRecord
100
AcDbDimStyleTableRecord
  2
SLDDIMSTYLE2
 70
     0
 41
3.302
 44
0.0
 45
0.000000001
 73
     0
 74
     0
 77
     1
 78
    12
 79
     3
140
3.5
143
0.0393700787401575
147
0.875
148
0.000000001
170
     1
172
     1
173
     1
178
     0
271
     2
272
     2
276
     2
284
    12
289
     0
340
94
  0
ENDTAB
  0
TABLE
  2
BLOCK_RECORD
  5
1
330
0
100
AcDbSymbolTable
 70
     9
  0
BLOCK_RECORD
  5
1F
330
1
100
AcDbSymbolTableRecord
100
AcDbBlockTableRecord
  2
*Model_Space
340
22
  0
BLOCK_RECORD
  5
1B
330
1
100
AcDbSymbolTableRecord
100
AcDbBlockTableRecord
  2
*Paper_Space
340
1E
  0
BLOCK_RECORD
  5
23
330
1
100
AcDbSymbolTableRecord
100
AcDbBlockTableRecord
  2
*Paper_Space0
340
26
  0
BLOCK_RECORD
  5
7F
330
1
100
AcDbSymbolTableRecord
100
AcDbBlockTableRecord
  2
블럭10
340
0
102
{BLKREFS
331
C7
102
}
  0
BLOCK_RECORD
  5
D0
330
1
100
AcDbSymbolTableRecord
100
AcDbBlockTableRecord
  2
_D
340
0
  0
BLOCK_RECORD
  5
E5
330
1
100
AcDbSymbolTableRecord
100
AcDbBlockTableRecord
  2
_D_1
340
0
  0
BLOCK_RECORD
  5
F9
330
1
100
AcDbSymbolTableRecord
100
AcDbBlockTableRecord
  2
_D_2
340
0
  0
BLOCK_RECORD
  5
10D
330
1
100
AcDbSymbolTableRecord
100
AcDbBlockTableRecord
  2
_D_3
340
0
  0
BLOCK_RECORD
  5
126
330
1
100
AcDbSymbolTableRecord
100
AcDbBlockTableRecord
  2
SW_DOWELSYMBOL_0
340
0
102
{BLKREFS
331
12C
102
}
  0
BLOCK_RECORD
  5
188
330
1
100
AcDbSymbolTableRecord
100
AcDbBlockTableRecord
  2
*D7
340
0
  0
BLOCK_RECORD
  5
197
330
1
100
AcDbSymbolTableRecord
100
AcDbBlockTableRecord
  2
*D8
340
0
  0
ENDTAB
  0
ENDSEC
  0
SECTION
  2
BLOCKS
  0
BLOCK
  5
20
330
1F
100
AcDbEntity
  8
0
100
AcDbBlockBegin
  2
*Model_Space
 70
     0
 10
0.0
 20
0.0
 30
0.0
  3
*Model_Space
  1
*Model_Space
  0
ENDBLK
  5
21
330
1F
100
AcDbEntity
  8
0
100
AcDbBlockEnd
  0
BLOCK
  5
1C
330
1B
100
AcDbEntity
 67
     1
  8
0
100
AcDbBlockBegin
  2
*Paper_Space
 70
     0
 10
0.0
 20
0.0
 30
0.0
  3
*Paper_Space
  1
*Paper_Space
  0
ENDBLK
  5
1D
330
1B
100
AcDbEntity
 67
     1
  8
0
100
AcDbBlockEnd
  0
BLOCK
  5
24
330
23
100
AcDbEntity
  8
0
100
AcDbBlockBegin
  2
*Paper_Space0
 70
     0
 10
0.0
 20
0.0
 30
0.0
  3
*Paper_Space0
  1
*Paper_Space0
  0
ENDBLK
  5
25
330
23
100
AcDbEntity
  8
0
100
AcDbBlockEnd
  0
BLOCK
  5
80
330
7F
100
AcDbEntity
  8
0
100
AcDbBlockBegin
  2
블럭10
 70
     2
 10
0.0
 20
0.0
 30
0.0
  3
블럭10
  1
블럭10
  0
ELLIPSE
  5
82
330
7F
100
AcDbEntity
  8
중심선
100
AcDbEllipse
 10
20.54032771741204
 20
12.0471743016438
 30
0.0
 11
6.600054785286829
 21
-1.261213355974178E-13
 31
0.0
210
0.0
220
0.0
230
1.0
 40
0.636358354079598
 41
0.9219305317359503
 42
6.513795318482858
  0
ELLIPSE
  5
83
330
7F
100
AcDbEntity
  8
중심선
100
AcDbEllipse
 10
20.54032771746488
 20
12.04717430159265
 30
0.0
 11
3.960054785062283
 21
1.540847449632565E-10
 31
0.0
210
0.0
220
0.0
230
1.0
 40
0.3939339440162632
 41
1.131841032648279
 42
5.62031148352944
  0
LINE
  5
84
330
7F
100
AcDbEntity
  8
중심선
100
AcDbLine
 10
2.268634060543552
 20
16.24717430164393
 30
0.0
 11
5.714909304380834
 21
16.24717430164393
 31
0.0
  0
LINE
  5
85
330
7F
100
AcDbEntity
  8
중심선
100
AcDbLine
 10
5.245725140726316
 20
7.84717430164391
 30
0.0
 11
8.692000384563599
 21
7.84717430164391
 31
0.0
  0
LINE
  5
86
330
7F
100
AcDbEntity
  8
중심선
100
AcDbLine
 10
15.74043728645272
 20
16.24717430164393
 30
0.0
 11
8.692000384563599
 21
7.84717430164391
 31
0.0
  0
LINE
  5
87
330
7F
100
AcDbEntity
  8
중심선
100
AcDbLine
 10
0.1404042013395286
 20
13.71084872107135
 30
0.0
 11
3.58671253028996
 21
13.71088815037384
 31
0.0
  0
LINE
  5
88
330
7F
100
AcDbEntity
  8
중심선
100
AcDbLine
 10
2.750260043222114
 20
10.84717430164391
 30
0.0
 11
6.196535287059397
 21
10.84717430164391
 31
0.0
  0
LINE
  5
89
330
7F
100
AcDbEntity
  8
중심선
100
AcDbLine
 10
12.29416204261559
 20
16.24717430164393
 30
0.0
 11
5.245725140726316
 21
7.84717430164391
 31
0.0
  0
LINE
  5
8A
330
7F
100
AcDbEntity
  8
중심선
100
AcDbLine
 10
10.72767329541681
 20
16.24717430164393
 30
0.0
 11
6.196535287059397
 21
10.84717430164391
 31
0.0
  0
LINE
  5
8B
330
7F
100
AcDbEntity
  8
중심선
100
AcDbLine
 10
7.28139805157953
 20
16.24717430164393
 30
0.0
 11
2.750260043222114
 21
10.84717430164391
 31
0.0
  0
LINE
  5
8C
330
7F
100
AcDbEntity
  8
중심선
100
AcDbLine
 10
5.714909304380834
 20
16.24717430164393
 30
0.0
 11
3.58671253028996
 21
13.71088815037384
 31
0.0
  0
LINE
  5
8D
330
7F
100
AcDbEntity
  8
중심선
100
AcDbLine
 10
2.268634060543552
 20
16.24717430164393
 30
0.0
 11
0.1404042013395286
 21
13.71084872107135
 31
0.0
  0
LINE
  5
8E
330
7F
100
AcDbEntity
  8
중심선
100
AcDbLine
 10
7.28139805157953
 20
16.24717430164393
 30
0.0
 11
10.72767329541681
 21
16.24717430164393
 31
0.0
  0
LINE
  5
8F
330
7F
100
AcDbEntity
  8
중심선
100
AcDbLine
 10
12.29416204261559
 20
16.24717430164393
 30
0.0
 11
15.74043728645272
 21
16.24717430164393
 31
0.0
  0
LINE
  5
90
330
7F
100
AcDbEntity
  8
중심선
100
AcDbLine
 10
19.22036997980202
 20
11.08717430171403
 30
0.0
 11
23.66174974927406
 21
11.08717430171406
 31
0.0
  0
LINE
  5
91
330
7F
100
AcDbEntity
  8
중심선
100
AcDbLine
 10
19.22039502424796
 20
13.00717430171391
 30
0.0
 11
19.22036997980202
 21
11.08717430171403
 31
0.0
  0
LINE
  5
92
330
7F
100
AcDbEntity
  8
중심선
100
AcDbLine
 10
19.22039502424796
 20
13.00717430171391
 30
0.0
 11
26.96566020931264
 21
13.00717430171391
 31
0.0
  0
LINE
  5
93
330
7F
100
AcDbEntity
  8
중심선
100
AcDbLine
 10
22.22332737316547
 20
13.45928029700563
 30
0.0
 11
24.52862924686651
 21
15.39360700705356
 31
0.0
  0
ATTDEF
  5
95
330
7F
100
AcDbEntity
  8
FORMAT
 62
     2
100
AcDbText
 10
4.408487351596664
 20
2.075366912832191
 30
0.0
 40
4.233333333333333
  1
E1040024
 41
0.75
  7
SLDTEXTSTYLE0
 11
4.408487351596664
 21
-0.0412997538344756
 31
0.0
100
AcDbAttributeDefinition
  3

  2
AUTOATTR0
 70
     0
 74
     1
  0
ENDBLK
  5
81
330
7F
100
AcDbEntity
  8
0
100
AcDbBlockEnd
  0
BLOCK
  5
D1
330
D0
100
AcDbEntity
  8
0
100
AcDbBlockBegin
  2
_D
 70
     0
 10
0.0
 20
0.0
 30
0.0
  3
_D
  1
_D
  0
LINE
  5
D3
330
D0
100
AcDbEntity
  8
치수문자_일반주서
 62
     0
370
    -2
100
AcDbLine
 10
40.60013935429147
 20
4.807486342153639
 30
0.0
 11
40.60013935429147
 21
14.7625
 31
0.0
  0
LINE
  5
D4
330
D0
100
AcDbEntity
  8
치수문자_일반주서
 62
     0
370
    -2
100
AcDbLine
 10
2.500139354291464
 20
4.824853700972687
 30
0.0
 11
2.500139354291463
 21
14.7625
 31
0.0
  0
LINE
  5
D5
330
D0
100
AcDbEntity
  8
치수문자_일반주서
 62
     0
370
    -2
100
AcDbLine
 10
37.29813935429147
 20
14.7625
 30
0.0
 11
5.802139354291462
 21
14.7625
 31
0.0
  0
SOLID
  5
D6
330
D0
100
AcDbEntity
  8
치수문자_일반주서
 62
     0
100
AcDbTrace
 10
37.29813935429147
 20
14.21216666666666
 30
0.0
 11
37.29813935429147
 21
15.31283333333333
 31
0.0
 12
40.60013935429147
 22
14.7625
 32
0.0
 13
40.60013935429147
 23
14.7625
 33
0.0
  0
SOLID
  5
D7
330
D0
100
AcDbEntity
  8
치수문자_일반주서
 62
     0
100
AcDbTrace
 10
5.802139354291462
 20
15.31283333333333
 30
0.0
 11
5.802139354291462
 21
14.21216666666666
 31
0.0
 12
2.500139354291463
 22
14.7625
 32
0.0
 13
2.500139354291463
 23
14.7625
 33
0.0
  0
MTEXT
  5
D8
330
D0
100
AcDbEntity
  8
치수문자_일반주서
 62
     0
100
AcDbMText
 10
21.55013935429147
 20
19.1375
 30
0.0
 40
3.5
 41
0.0
 71
     2
 72
     1
  1
\A1;38.10 [1 1/2]
  7
SLDTEXTSTYLE0
 73
     1
 44
1.0
  0
POINT
  5
D9
330
D0
100
AcDbEntity
  8
Defpoints
 62
     0
100
AcDbPoint
 10
40.60013935429147
 20
4.744986342153639
 30
0.0
  0
POINT
  5
DA
330
D0
100
AcDbEntity
  8
Defpoints
 62
     0
100
AcDbPoint
 10
2.500139354291464
 20
4.762353700972687
 30
0.0
  0
POINT
  5
DB
330
D0
100
AcDbEntity
  8
Defpoints
 62
     0
100
AcDbPoint
 10
2.500139354291464
 20
14.7625
 30
0.0
  0
ENDBLK
  5
D2
330
D0
100
AcDbEntity
  8
0
100
AcDbBlockEnd
  0
BLOCK
  5
E6
330
E5
100
AcDbEntity
  8
0
100
AcDbBlockBegin
  2
_D_1
 70
     0
 10
0.0
 20
0.0
 30
0.0
  3
_D_1
  1
_D_1
  0
LINE
  5
E8
330
E5
100
AcDbEntity
  8
치수문자_일반주서
 62
     0
370
    -2
100
AcDbLine
 10
40.60013935429147
 20
4.807486342153639
 30
0.0
 11
40.60013935429148
 21
24.7625
 31
0.0
  0
LINE
  5
E9
330
E5
100
AcDbEntity
  8
치수문자_일반주서
 62
     0
370
    -2
100
AcDbLine
 10
-41.94986064570853
 20
3.8725
 30
0.0
 11
-41.94986064570853
 21
24.7625
 31
0.0
  0
LINE
  5
EA
330
E5
100
AcDbEntity
  8
치수문자_일반주서
 62
     0
370
    -2
100
AcDbLine
 10
37.29813935429148
 20
24.7625
 30
0.0
 11
-38.64786064570853
 21
24.7625
 31
0.0
  0
SOLID
  5
EB
330
E5
100
AcDbEntity
  8
치수문자_일반주서
 62
     0
100
AcDbTrace
 10
37.29813935429148
 20
24.21216666666666
 30
0.0
 11
37.29813935429148
 21
25.31283333333333
 31
0.0
 12
40.60013935429148
 22
24.7625
 32
0.0
 13
40.60013935429148
 23
24.7625
 33
0.0
  0
SOLID
  5
EC
330
E5
100
AcDbEntity
  8
치수문자_일반주서
 62
     0
100
AcDbTrace
 10
-38.64786064570853
 20
25.31283333333333
 30
0.0
 11
-38.64786064570853
 21
24.21216666666666
 31
0.0
 12
-41.94986064570853
 22
24.7625
 32
0.0
 13
-41.94986064570853
 23
24.7625
 33
0.0
  0
MTEXT
  5
ED
330
E5
100
AcDbEntity
  8
치수문자_일반주서
 62
     0
100
AcDbMText
 10
-0.6748606457085344
 20
29.1375
 30
0.0
 40
3.5
 41
0.0
 71
     2
 72
     1
  1
\A1;82.55 [3 1/4]
  7
SLDTEXTSTYLE0
 73
     1
 44
1.0
  0
POINT
  5
EE
330
E5
100
AcDbEntity
  8
Defpoints
 62
     0
100
AcDbPoint
 10
40.60013935429147
 20
4.744986342153639
 30
0.0
  0
POINT
  5
EF
330
E5
100
AcDbEntity
  8
Defpoints
 62
     0
100
AcDbPoint
 10
-41.94986064570853
 20
3.81
 30
0.0
  0
POINT
  5
F0
330
E5
100
AcDbEntity
  8
Defpoints
 62
     0
100
AcDbPoint
 10
-41.94986064570853
 20
24.7625
 30
0.0
  0
ENDBLK
  5
E7
330
E5
100
AcDbEntity
  8
0
100
AcDbBlockEnd
  0
BLOCK
  5
FA
330
F9
100
AcDbEntity
  8
0
100
AcDbBlockBegin
  2
_D_2
 70
     0
 10
0.0
 20
0.0
 30
0.0
  3
_D_2
  1
_D_2
  0
LINE
  5
FC
330
F9
100
AcDbEntity
  8
치수문자_일반주서
 62
     0
370
    -2
100
AcDbLine
 10
-41.05986064570853
 20
4.762500000000001
 30
0.0
 11
-51.94986064570852
 21
4.76249999999996
 31
0.0
  0
LINE
  5
FD
330
F9
100
AcDbEntity
  8
치수문자_일반주서
 62
     0
370
    -2
100
AcDbLine
 10
-41.05986064570853
 20
-4.762500000000005
 30
0.0
 11
-51.94986064570848
 21
-4.762500000000045
 31
0.0
  0
LINE
  5
FE
330
F9
100
AcDbEntity
  8
치수문자_일반주서
 62
     0
370
    -2
100
AcDbLine
 10
-51.94986064570852
 20
4.76249999999996
 30
0.0
 11
-51.94986064570863
 21
34.31449999999996
 31
0.0
  0
LINE
  5
FF
330
F9
100
AcDbEntity
  8
치수문자_일반주서
 62
     0
370
    -2
100
AcDbLine
 10
-51.94986064570852
 20
4.76249999999996
 30
0.0
 11
-51.94986064570848
 21
-4.762500000000045
 31
0.0
  0
LINE
  5
100
330
F9
100
AcDbEntity
  8
치수문자_일반주서
 62
     0
370
    -2
100
AcDbLine
 10
-51.94986064570853
 20
8.06449999999996
 30
0.0
 11
-51.94986064570855
 21
11.36649999999996
 31
0.0
  0
LINE
  5
101
330
F9
100
AcDbEntity
  8
치수문자_일반주서
 62
     0
370
    -2
100
AcDbLine
 10
-51.94986064570847
 20
-8.064500000000045
 30
0.0
 11
-51.94986064570845
 21
-11.36650000000004
 31
0.0
  0
SOLID
  5
102
330
F9
100
AcDbEntity
  8
치수문자_일반주서
 62
     0
100
AcDbTrace
 10
-52.50019397904187
 20
8.064499999999958
 30
0.0
 11
-51.3995273123752
 21
8.064499999999962
 31
0.0
 12
-51.94986064570852
 22
4.76249999999996
 32
0.0
 13
-51.94986064570852
 23
4.76249999999996
 33
0.0
  0
SOLID
  5
103
330
F9
100
AcDbEntity
  8
치수문자_일반주서
 62
     0
100
AcDbTrace
 10
-51.39952731237513
 20
-8.064500000000043
 30
0.0
 11
-52.5001939790418
 21
-8.064500000000047
 31
0.0
 12
-51.94986064570848
 22
-4.762500000000045
 32
0.0
 13
-51.94986064570848
 23
-4.762500000000045
 33
0.0
  0
MTEXT
  5
104
330
F9
100
AcDbEntity
  8
치수문자_일반주서
 62
     0
100
AcDbMText
 10
-56.32486064570858
 20
21.18949999999994
 30
0.0
 40
3.5
 41
0.0
 71
     2
 72
     1
  1
\A1;%%c9.53 [3/8]
  7
SLDTEXTSTYLE0
 11
-3.729883127349605E-15
 21
1.0
 31
0.0
 73
     1
 44
1.0
  0
POINT
  5
1D8
330
F9
100
AcDbEntity
  8
Defpoints
 62
     0
100
AcDbPoint
 10
-40.99736064570853
 20
4.762500000000001
 30
0.0
  0
POINT
  5
1D9
330
F9
100
AcDbEntity
  8
Defpoints
 62
     0
100
AcDbPoint
 10
-40.99736064570853
 20
-4.762500000000005
 30
0.0
  0
POINT
  5
1DA
330
F9
100
AcDbEntity
  8
Defpoints
 62
     0
100
AcDbPoint
 10
-51.94986064570849
 20
-4.762500000000045
 30
0.0
  0
ENDBLK
  5
FB
330
F9
100
AcDbEntity
  8
0
100
AcDbBlockEnd
  0
BLOCK
  5
10E
330
10D
100
AcDbEntity
  8
0
100
AcDbBlockBegin
  2
_D_3
 70
     0
 10
0.0
 20
0.0
 30
0.0
  3
_D_3
  1
_D_3
  0
LINE
  5
110
330
10D
100
AcDbEntity
  8
치수문자_일반주서
 62
     0
370
    -2
100
AcDbLine
 10
40.66263935429147
 20
-4.744986342153643
 30
0.0
 11
50.60013935429151
 21
-4.744986342153606
 31
0.0
  0
LINE
  5
111
330
10D
100
AcDbEntity
  8
치수문자_일반주서
 62
     0
370
    -2
100
AcDbLine
 10
40.66263935429147
 20
4.744986342153639
 30
0.0
 11
50.60013935429148
 21
4.744986342153677
 31
0.0
  0
LINE
  5
112
330
10D
100
AcDbEntity
  8
치수문자_일반주서
 62
     0
370
    -2
100
AcDbLine
 10
50.60013935429148
 20
4.744986342153677
 30
0.0
 11
50.60013935429136
 21
34.29698634215367
 31
0.0
  0
LINE
  5
113
330
10D
100
AcDbEntity
  8
치수문자_일반주서
 62
     0
370
    -2
100
AcDbLine
 10
50.60013935429151
 20
-4.744986342153606
 30
0.0
 11
50.60013935429148
 21
4.744986342153677
 31
0.0
  0
LINE
  5
114
330
10D
100
AcDbEntity
  8
치수문자_일반주서
 62
     0
370
    -2
100
AcDbLine
 10
50.60013935429153
 20
-8.046986342153605
 30
0.0
 11
50.60013935429154
 21
-11.34898634215361
 31
0.0
  0
LINE
  5
115
330
10D
100
AcDbEntity
  8
치수문자_일반주서
 62
     0
370
    -2
100
AcDbLine
 10
50.60013935429146
 20
8.046986342153676
 30
0.0
 11
50.60013935429145
 21
11.34898634215368
 31
0.0
  0
SOLID
  5
116
330
10D
100
AcDbEntity
  8
치수문자_일반주서
 62
     0
100
AcDbTrace
 10
51.15047268762486
 20
-8.046986342153604
 30
0.0
 11
50.04980602095819
 21
-8.046986342153607
 31
0.0
 12
50.60013935429151
 22
-4.744986342153606
 32
0.0
 13
50.60013935429151
 23
-4.744986342153606
 33
0.0
  0
SOLID
  5
117
330
10D
100
AcDbEntity
  8
치수문자_일반주서
 62
     0
100
AcDbTrace
 10
50.04980602095813
 20
8.046986342153675
 30
0.0
 11
51.1504726876248
 21
8.046986342153678
 31
0.0
 12
50.60013935429148
 22
4.744986342153677
 32
0.0
 13
50.60013935429148
 23
4.744986342153677
 33
0.0
  0
MTEXT
  5
118
330
10D
100
AcDbEntity
  8
치수문자_일반주서
 62
     0
100
AcDbMText
 10
46.22513935429141
 20
21.17198634215366
 30
0.0
 40
3.5
 41
0.0
 71
     2
 72
     1
  1
\A1;%%c9.49 [3/8]
  7
SLDTEXTSTYLE0
 11
-3.743650057787106E-15
 21
1.0
 31
0.0
 73
     1
 44
1.0
  0
POINT
  5
119
330
10D
100
AcDbEntity
  8
Defpoints
 62
     0
100
AcDbPoint
 10
40.60013935429147
 20
-4.744986342153643
 30
0.0
  0
POINT
  5
1DC
330
10D
100
AcDbEntity
  8
Defpoints
 62
     0
100
AcDbPoint
 10
40.60013935429147
 20
4.744986342153639
 30
0.0
  0
POINT
  5
1DD
330
10D
100
AcDbEntity
  8
Defpoints
 62
     0
100
AcDbPoint
 10
50.60013935429146
 20
4.744986342153676
 30
0.0
  0
ENDBLK
  5
10F
330
10D
100
AcDbEntity
  8
0
100
AcDbBlockEnd
  0
BLOCK
  5
127
330
126
100
AcDbEntity
  8
0
100
AcDbBlockBegin
  2
SW_DOWELSYMBOL_0
 70
     0
 10
0.0
 20
0.0
 30
0.0
  3
SW_DOWELSYMBOL_0
  1
SW_DOWELSYMBOL_0
  0
CIRCLE
  5
129
330
126
100
AcDbEntity
  8
해칭선
 62
     0
100
AcDbCircle
 10
0.0
 20
0.0
 30
0.0
 40
3.000000000000001
  0
HATCH
  5
12A
330
126
100
AcDbEntity
  8
0
  6
Continuous
 62
     0
370
     0
100
AcDbHatch
 10
0.0
 20
0.0
 30
0.0
210
0.0
220
0.0
230
1.0
  2
SOLID
 70
     1
 71
     0
 91
        1
 92
        0
 93
        3
 72
     2
 10
0.0
 20
0.0
 40
3.000000000000001
 50
0.0
 51
90.0
 73
     1
 72
     1
 10
0.0
 20
3.000000000000001
 11
0.0
 21
0.0
 72
     1
 10
0.0
 20
0.0
 11
3.000000000000001
 21
0.0
 97
        0
 75
     0
 76
     1
 98
        1
 10
0.0
 20
0.0
  0
HATCH
  5
12B
330
126
100
AcDbEntity
  8
0
  6
Continuous
 62
     0
370
     0
100
AcDbHatch
 10
0.0
 20
0.0
 30
0.0
210
0.0
220
0.0
230
1.0
  2
SOLID
 70
     1
 71
     0
 91
        1
 92
        0
 93
        3
 72
     2
 10
0.0
 20
0.0
 40
3.000000000000001
 50
180.0
 51
270.0000000000007
 73
     1
 72
     1
 10
0.0
 20
-3.000000000000001
 11
0.0
 21
0.0
 72
     1
 10
0.0
 20
0.0
 11
-3.000000000000001
 21
0.0
 97
        0
 75
     0
 76
     1
 98
        1
 10
0.0
 20
0.0
  0
ENDBLK
  5
128
330
126
100
AcDbEntity
  8
0
100
AcDbBlockEnd
  0
BLOCK
  5
189
330
188
100
AcDbEntity
  8
0
100
AcDbBlockBegin
  2
*D7
 70
     1
 10
0.0
 20
0.0
 30
0.0
  3
*D7
  1
*D7
  0
LINE
  5
18B
330
188
100
AcDbEntity
  8
치수문자_일반주서
 62
     0
370
    -2
100
AcDbLine
 10
34.925
 20
7.611078139986779
 30
0.0
 11
34.925
 21
18.35692285485875
 31
0.0
  0
LINE
  5
18C
330
188
100
AcDbEntity
  8
치수문자_일반주서
 62
     0
370
    -2
100
AcDbLine
 10
-0.0000000000000009
 20
7.223453614286712
 30
0.0
 11
0.0
 21
18.35692285485875
 31
0.0
  0
LINE
  5
18D
330
188
100
AcDbEntity
  8
치수문자_일반주서
 62
     0
370
    -2
100
AcDbLine
 10
31.623
 20
18.35692285485875
 30
0.0
 11
3.302
 21
18.35692285485875
 31
0.0
  0
SOLID
  5
18E
330
188
100
AcDbEntity
  8
치수문자_일반주서
 62
     0
100
AcDbTrace
 10
31.623
 20
17.80658952152542
 30
0.0
 11
31.623
 21
18.90725618819209
 31
0.0
 12
34.925
 22
18.35692285485875
 32
0.0
 13
34.925
 23
18.35692285485875
 33
0.0
  0
SOLID
  5
18F
330
188
100
AcDbEntity
  8
치수문자_일반주서
 62
     0
100
AcDbTrace
 10
3.302
 20
18.90725618819209
 30
0.0
 11
3.302
 21
17.80658952152542
 31
0.0
 12
0.0
 22
18.35692285485875
 32
0.0
 13
0.0
 23
18.35692285485875
 33
0.0
  0
MTEXT
  5
190
330
188
100
AcDbEntity
  8
치수문자_일반주서
 62
     0
100
AcDbMText
 10
17.46249999999999
 20
22.73192285485875
 30
0.0
 40
3.5
 41
0.0
 71
     2
 72
     1
  1
\A1;34.93 [1 3/8]
  7
SLDTEXTSTYLE0
 73
     1
 44
1.0
  0
POINT
  5
191
330
188
100
AcDbEntity
  8
Defpoints
 62
     0
100
AcDbPoint
 10
34.925
 20
7.548578139986779
 30
0.0
  0
POINT
  5
192
330
188
100
AcDbEntity
  8
Defpoints
 62
     0
100
AcDbPoint
 10
-0.0000000000000009
 20
7.160953614286712
 30
0.0
  0
POINT
  5
193
330
188
100
AcDbEntity
  8
Defpoints
 62
     0
100
AcDbPoint
 10
-0.0000000000000009
 20
18.35692285485875
 30
0.0
  0
ENDBLK
  5
18A
330
188
100
AcDbEntity
  8
0
100
AcDbBlockEnd
  0
BLOCK
  5
198
330
197
100
AcDbEntity
  8
0
100
AcDbBlockBegin
  2
*D8
 70
     1
 10
0.0
 20
0.0
 30
0.0
  3
*D8
  1
*D8
  0
LINE
  5
19A
330
197
100
AcDbEntity
  8
치수문자_일반주서
 62
     0
370
    -2
100
AcDbLine
 10
140.9304196217732
 20
-7.709843702817425
 30
0.0
 11
140.9304196217732
 21
3.036001012054548
 31
0.0
  0
LINE
  5
19B
330
197
100
AcDbEntity
  8
치수문자_일반주서
 62
     0
370
    -2
100
AcDbLine
 10
106.0054196217732
 20
-8.097468228517492
 30
0.0
 11
106.0054196217732
 21
3.036001012054548
 31
0.0
  0
LINE
  5
19C
330
197
100
AcDbEntity
  8
치수문자_일반주서
 62
     0
370
    -2
100
AcDbLine
 10
137.6284196217732
 20
3.036001012054548
 30
0.0
 11
109.3074196217732
 21
3.036001012054548
 31
0.0
  0
SOLID
  5
19D
330
197
100
AcDbEntity
  8
치수문자_일반주서
 62
     0
100
AcDbTrace
 10
137.6284196217732
 20
2.485667678721215
 30
0.0
 11
137.6284196217732
 21
3.586334345387881
 31
0.0
 12
140.9304196217732
 22
3.036001012054548
 32
0.0
 13
140.9304196217732
 23
3.036001012054548
 33
0.0
  0
SOLID
  5
19E
330
197
100
AcDbEntity
  8
치수문자_일반주서
 62
     0
100
AcDbTrace
 10
109.3074196217732
 20
3.586334345387881
 30
0.0
 11
109.3074196217732
 21
2.485667678721215
 31
0.0
 12
106.0054196217732
 22
3.036001012054548
 32
0.0
 13
106.0054196217732
 23
3.036001012054548
 33
0.0
  0
MTEXT
  5
19F
330
197
100
AcDbEntity
  8
치수문자_일반주서
 62
     0
100
AcDbMText
 10
123.4679196217732
 20
7.411001012054548
 30
0.0
 40
3.5
 41
0.0
 71
     2
 72
     1
  1
\A1;34.93 [1 3/8]
  7
SLDTEXTSTYLE0
 73
     1
 44
1.0
  0
POINT
  5
1A0
330
197
100
AcDbEntity
  8
Defpoints
 62
     0
100
AcDbPoint
 10
140.9304196217732
 20
-7.772343702817425
 30
0.0
  0
POINT
  5
1A1
330
197
100
AcDbEntity
  8
Defpoints
 62
     0
100
AcDbPoint
 10
106.0054196217732
 20
-8.159968228517492
 30
0.0
  0
POINT
  5
1A2
330
197
100
AcDbEntity
  8
Defpoints
 62
     0
100
AcDbPoint
 10
106.0054196217732
 20
3.036001012054548
 30
0.0
  0
ENDBLK
  5
199
330
197
100
AcDbEntity
  8
0
100
AcDbBlockEnd
  0
ENDSEC
  0
SECTION
  2
ENTITIES
  0
LINE
  5
96
330
1F
100
AcDbEntity
  8
0
  6
Continuous
 62
     1
370
    15
100
AcDbLine
 10
15.39243901701527
 20
-4.762500000000003
 30
0.0
 11
18.29722580976172
 21
-4.762500000000003
 31
0.0
1001
PE_URL
1000

  0
LINE
  5
97
330
1F
100
AcDbEntity
  8
0
  6
Continuous
 62
     1
370
    15
100
AcDbLine
 10
28.35015828885211
 20
-4.762500000000003
 30
0.0
 11
31.25450050154715
 21
-4.762500000000003
 31
0.0
1001
PE_URL
1000

  0
LINE
  5
98
330
1F
100
AcDbEntity
  8
0
  6
Continuous
 62
     1
370
    15
100
AcDbLine
 10
5.339536585813264
 20
4.762499999999999
 30
0.0
 11
2.500139354291461
 21
4.762499999999999
 31
0.0
1001
PE_URL
1000

  0
LINE
  5
99
330
1F
100
AcDbEntity
  8
0
  6
Continuous
 62
     1
370
    15
100
AcDbLine
 10
18.29722580976178
 20
4.762499999999999
 30
0.0
 11
15.39243901701528
 21
4.762499999999999
 31
0.0
1001
PE_URL
1000

  0
LINE
  5
9A
330
1F
100
AcDbEntity
  8
0
  6
Continuous
 62
     1
370
    15
100
AcDbLine
 10
2.500139354291461
 20
-4.762500000000003
 30
0.0
 11
5.339536585813271
 21
-4.762500000000003
 31
0.0
1001
PE_URL
1000

  0
LINE
  5
9B
330
1F
100
AcDbEntity
  8
0
  6
Continuous
 62
     1
370
    15
100
AcDbLine
 10
31.25450050154713
 20
4.762499999999999
 30
0.0
 11
28.35015828885216
 21
4.762499999999999
 31
0.0
1001
PE_URL
1000

  0
LINE
  5
9C
330
1F
100
AcDbEntity
  8
외형선
  6
Continuous
370
    15
100
AcDbLine
 10
2.435446605606606
 20
-4.762500000000001
 30
0.0
 11
2.500139354291461
 21
-4.762500000000001
 31
0.0
  0
LINE
  5
9D
330
1F
100
AcDbEntity
  8
외형선
  6
Continuous
370
    15
100
AcDbLine
 10
-40.99736064570853
 20
-4.762500000000001
 30
0.0
 11
2.0
 21
-4.762500000000001
 31
0.0
  0
LINE
  5
9E
330
1F
100
AcDbEntity
  8
외형선
  6
Continuous
370
    15
100
AcDbLine
 10
2.0
 20
4.762499999999998
 30
0.0
 11
-17.26741064570842
 21
4.762499999999998
 31
0.0
  0
LINE
  5
9F
330
1F
100
AcDbEntity
  8
외형선
  6
Continuous
370
    15
100
AcDbLine
 10
2.500139354291461
 20
4.762499999999998
 30
0.0
 11
2.435446605606572
 21
4.762499999999998
 31
0.0
  0
LINE
  5
A0
330
1F
100
AcDbEntity
  8
외형선
  6
Continuous
370
    15
100
AcDbLine
 10
-40.99736064570853
 20
4.762499999999998
 30
0.0
 11
-41.94986064570853
 21
3.81
 31
0.0
  0
LINE
  5
A1
330
1F
100
AcDbEntity
  8
외형선
  6
Continuous
370
    15
100
AcDbLine
 10
-41.94986064570853
 20
-3.810000000000004
 30
0.0
 11
-40.99736064570853
 21
-4.762500000000001
 31
0.0
  0
SPLINE
  5
A2
330
1F
100
AcDbEntity
  8
0
  6
Continuous
 62
     1
370
    15
100
AcDbSpline
210
0.0
220
0.0
230
1.0
 70
     8
 71
     3
 72
    28
 73
    24
 74
     0
 42
0.000000001
 43
0.00000001
 40
0.0
 40
0.0
 40
0.0
 40
0.0
 40
0.0068036829050088
 40
0.056133084733472
 40
0.1054250534905755
 40
0.1546920964669867
 40
0.2039548347695778
 40
0.2559226344840201
 40
0.3079079901063063
 40
0.3599172959388625
 40
0.4119145615665972
 40
0.4638900611510961
 40
0.515852252738842
 40
0.5678096488796908
 40
0.6197707817951176
 40
0.6717441683763611
 40
0.7237382753151487
 40
0.7757488865280797
 40
0.827737010296783
 40
0.8797065287322482
 40
0.9316659243609667
 40
0.9836237212001809
 40
1.0
 40
1.0
 40
1.0
 40
1.0
 10
5.339536585813264
 20
4.752833743787499
 30
0.0
 10
5.409710185522545
 20
4.755942831117299
 30
0.0
 10
5.98867023900098
 20
4.781594035761033
 30
0.0
 10
7.076299909453422
 20
4.674213385406531
 30
0.0
 10
8.601517217378069
 20
4.422889161066649
 30
0.0
 10
10.1259583394049
 20
4.005124452777135
 30
0.0
 10
11.67791232377478
 20
3.445081170904656
 30
0.0
 10
13.25816576768074
 20
2.748506824148907
 30
0.0
 10
14.86677793362576
 20
1.935691508101915
 30
0.0
 10
16.47594231318907
 20
1.04964424959186
 30
0.0
 10
18.08486845560144
 20
0.1236830230427586
 30
0.0
 10
19.69316071189591
 20
-0.8069501948354862
 30
0.0
 10
21.30096286052397
 20
-1.706902203443647
 30
0.0
 10
22.90858614653249
 20
-2.542155057341039
 30
0.0
 10
24.51634835638521
 20
-3.281109966108048
 30
0.0
 10
26.1245648957057
 20
-3.895818412092532
 30
0.0
 10
27.7334206123827
 20
-4.362855421181269
 30
0.0
 10
29.34260586779507
 20
-4.664684991010799
 30
0.0
 10
30.95130986572818
 20
-4.789054867887106
 30
0.0
 10
32.55938552196644
 20
-4.734707930715613
 30
0.0
 10
34.16708596358644
 20
-4.490532496464031
 30
0.0
 10
35.40768377910618
 20
-4.200892764129414
 30
0.0
 10
36.11245058774174
 20
-3.949497793747779
 30
0.0
 10
36.28134813467048
 20
-3.889250924446597
 30
0.0
1001
PE_URL
1000

  0
SPLINE
  5
A3
330
1F
100
AcDbEntity
  8
0
  6
Continuous
 62
     1
370
    15
100
AcDbSpline
210
0.0
220
0.0
230
1.0
 70
     8
 71
     3
 72
    26
 73
    22
 74
     0
 42
0.000000001
 43
0.00000001
 40
0.0
 40
0.0
 40
0.0
 40
0.0
 40
0.053223722642599
 40
0.1064230124602851
 40
0.1596065063580589
 40
0.2127829058921439
 40
0.2659609417132653
 40
0.319149337758429
 40
0.3723567755007761
 40
0.4255872281011721
 40
0.4788007893410922
 40
0.5319931442543736
 40
0.585172958108009
 40
0.6383489475458681
 40
0.6915298449016076
 40
0.7447243623758938
 40
0.7979411563877111
 40
0.8511702729917296
 40
0.9043748776643773
 40
0.9575615146781475
 40
1.0
 40
1.0
 40
1.0
 40
1.0
 10
40.60013935429146
 20
-4.744986342153643
 30
0.0
 10
40.06370290677471
 20
-4.701050176447175
 30
0.0
 10
38.99107626768026
 20
-4.613198014323245
 30
0.0
 10
37.38261948139608
 20
-4.258371809022476
 30
0.0
 10
35.77472102350946
 20
-3.755129042697479
 30
0.0
 10
34.16708322143686
 20
-3.106185436924698
 30
0.0
 10
32.55938625688261
 20
-2.340472987987268
 30
0.0
 10
30.951309668716
 20
-1.485775096424246
 30
0.0
 10
29.34260592061833
 20
-0.5747058271685614
 30
0.0
 10
27.73342059823108
 20
0.3579181632853369
 30
0.0
 10
26.12456489949504
 20
1.277189237631755
 30
0.0
 10
24.51634835537172
 20
2.147986904121264
 30
0.0
 10
22.90858614679863
 20
2.937311971259125
 30
0.0
 10
21.30096286047274
 20
3.615334784360174
 30
0.0
 10
19.69316071183447
 20
4.156382124159128
 30
0.0
 10
18.08486845589847
 20
4.540059810396088
 30
0.0
 10
16.4759423120617
 20
4.751382212995805
 30
0.0
 10
14.86677793783824
 20
4.783720582571232
 30
0.0
 10
13.25816575196852
 20
4.63074514093482
 30
0.0
 10
11.7583276210259
 20
4.338383400460877
 30
0.0
 10
10.79481178234309
 20
4.03224307525536
 30
0.0
 10
10.3672028885861
 20
3.896377819553391
 30
0.0
1001
PE_URL
1000

  0
SPLINE
  5
A4
330
1F
100
AcDbEntity
  8
0
  6
Continuous
 62
     1
370
    15
100
AcDbSpline
210
0.0
220
0.0
230
1.0
 70
     8
 71
     3
 72
    21
 73
    17
 74
     0
 42
0.000000001
 43
0.00000001
 40
0.0
 40
0.0
 40
0.0
 40
0.0
 40
0.0732099679327515
 40
0.146464939035369
 40
0.219760838238839
 40
0.2930011176593081
 40
0.3662043612058061
 40
0.4394012086695072
 40
0.5166173610757594
 40
0.5938595988591714
 40
0.6711374229690495
 40
0.7483973571875795
 40
0.8256249504157075
 40
0.9028327700087933
 40
0.9800334643058205
 40
1.0
 40
1.0
 40
1.0
 40
1.0
 10
2.500139354291468
 20
1.60701942912055
 30
0.0
 10
3.00826054983659
 20
1.325460901770267
 30
0.0
 10
4.024815289984216
 20
0.7621707691871187
 30
0.0
 10
5.550293262477009
 20
-0.1233292577959547
 30
0.0
 10
7.076283758701672
 20
-1.000297631272925
 30
0.0
 10
8.601521540644294
 20
-1.844684852936165
 30
0.0
 10
10.12595718322674
 20
-2.625737136637492
 30
0.0
 10
11.67791265325832
 20
-3.329950974930638
 30
0.0
 10
13.25816567455072
 20
-3.926340549896097
 30
0.0
 10
14.86677796910193
 20
-4.384463082536851
 30
0.0
 10
16.47594226445921
 20
-4.676557809325254
 30
0.0
 10
18.08486861496926
 20
-4.790665091396444
 30
0.0
 10
19.69316012346602
 20
-4.726264693014401
 30
0.0
 10
21.30096505428647
 20
-4.471353650327305
 30
0.0
 10
22.51128334157135
 20
-4.184031074909806
 30
0.0
 10
23.1857296986059
 20
-3.940983981041211
 30
0.0
 10
23.32431919284954
 20
-3.891041130189816
 30
0.0
1001
PE_URL
1000

  0
SPLINE
  5
A5
330
1F
100
AcDbEntity
  8
0
  6
Continuous
 62
     1
370
    15
100
AcDbSpline
210
0.0
220
0.0
230
1.0
 70
     8
 71
     3
 72
    24
 73
    20
 74
     0
 42
0.000000001
 43
0.00000001
 40
0.0
 40
0.0
 40
0.0
 40
0.0
 40
0.023860458505508
 40
0.0860959026910759
 40
0.1483065452071606
 40
0.2105025204392026
 40
0.2726940228600094
 40
0.3348912652922378
 40
0.3971044370121865
 40
0.4593436620571872
 40
0.5215972988795865
 40
0.5838222679920791
 40
0.6460262231899766
 40
0.7049922980120448
 40
0.7639635254043374
 40
0.8229645882361513
 40
0.8820104573731519
 40
0.9410233555620731
 40
1.0
 40
1.0
 40
1.0
 40
1.0
 10
28.35015828885211
 20
-4.74111224319669
 30
0.0
 10
28.14453075777048
 20
-4.746603502769138
 30
0.0
 10
27.40256312531601
 20
-4.766417663075059
 30
0.0
 10
26.12456474062068
 20
-4.612253489986936
 30
0.0
 10
24.51634839793058
 20
-4.286411030671397
 30
0.0
 10
22.90858613537157
 20
-3.786666881295871
 30
0.0
 10
21.3009628636301
 20
-3.146557863989266
 30
0.0
 10
19.69316071063243
 20
-2.386382050771749
 30
0.0
 10
18.08486845754899
 20
-1.535911368943271
 30
0.0
 10
16.47594230665925
 20
-0.6271469840932418
 30
0.0
 10
14.86677795779755
 20
0.3051966701079588
 30
0.0
 10
13.25816567758338
 20
1.226213363922104
 30
0.0
 10
11.67791265249278
 20
2.085450191310325
 30
0.0
 10
10.12595718342721
 20
2.854855208526424
 30
0.0
 10
8.601521540590573
 20
3.51301691794722
 30
0.0
 10
7.076283758716126
 20
4.052369652156382
 30
0.0
 10
5.550293262473165
 20
4.45025559841996
 30
0.0
 10
4.024815289985217
 20
4.708317944067463
 30
0.0
 10
3.008260549836951
 20
4.744345471972407
 30
0.0
 10
2.500139354291504
 20
4.762353700972388
 30
0.0
1001
PE_URL
1000

  0
SPLINE
  5
A6
330
1F
100
AcDbEntity
  8
외형선
  6
Continuous
370
    15
100
AcDbSpline
210
0.0
220
0.0
230
1.0
 70
    24
 71
     3
 72
    15
 73
    11
 74
     0
 42
0.000000001
 43
0.00000001
 40
0.0
 40
0.0
 40
0.0
 40
0.0
 40
0.1429045330752137
 40
0.2902580851452364
 40
0.4284324439256576
 40
0.5706138684713068
 40
0.7087882272517306
 40
0.8509696517973817
 40
0.9891440105778065
 40
1.0
 40
1.0
 40
1.0
 40
1.0
 10
2.500139354291461
 20
4.762353700972687
 30
0.0
 10
2.500139354291489
 20
4.603976969317141
 30
0.0
 10
2.500139354291552
 20
4.282292794066349
 30
0.0
 10
2.500139354291427
 20
3.788365825120668
 30
0.0
 10
2.500139354291504
 20
3.300299921701285
 30
0.0
 10
2.500139354291406
 20
2.838993250876922
 30
0.0
 10
2.500139354291504
 20
2.401490281873666
 30
0.0
 10
2.500139354291461
 20
2.016993683624485
 30
0.0
 10
2.500139354291454
 20
1.767798576802663
 30
0.0
 10
2.500139354291475
 20
1.671164415855598
 30
0.0
 10
2.500139354291475
 20
1.664125182291991
 30
0.0
  0
LINE
  5
A7
330
1F
100
AcDbEntity
  8
0
  6
Continuous
 62
     1
370
    15
100
AcDbLine
 10
40.60013935429147
 20
-4.313307425830494
 30
0.0
 11
40.60013935429147
 21
0.4080574258305458
 31
0.0
1001
PE_URL
1000

  0
SPLINE
  5
A8
330
1F
100
AcDbEntity
  8
0
  6
Continuous
 62
     1
370
    15
100
AcDbSpline
210
0.0
220
0.0
230
1.0
 70
     8
 71
     3
 72
    21
 73
    17
 74
     0
 42
0.000000001
 43
0.00000001
 40
0.0
 40
0.0
 40
0.0
 40
0.0
 40
0.0625953816780174
 40
0.1346848499132904
 40
0.2067676652109906
 40
0.2788556647028911
 40
0.3509606642524423
 40
0.4230944100790722
 40
0.4952510530220525
 40
0.5673764981297067
 40
0.6394761312279268
 40
0.7115617205044157
 40
0.7836450917088477
 40
0.8557380796916967
 40
0.9278524798643226
 40
1.0
 40
1.0
 40
1.0
 40
1.0
 10
18.29722580976178
 20
4.752155661512426
 30
0.0
 10
18.76258415212934
 20
4.743193912020389
 30
0.0
 10
19.7638835582113
 20
4.72391114941173
 30
0.0
 10
21.30096068930148
 20
4.475566530195475
 30
0.0
 10
22.90858672858094
 20
4.063795771939828
 30
0.0
 10
24.51634819944015
 20
3.493340737807122
 30
0.0
 10
26.1245649412991
 20
2.791716346538923
 30
0.0
 10
27.73342058702369
 20
1.983887517284119
 30
0.0
 10
29.34260592362036
 20
1.10116611968707
 30
0.0
 10
30.95130966791203
 20
0.1764722642620159
 30
0.0
 10
32.55938625709794
 20
-0.7548326601853477
 30
0.0
 10
34.16708322137916
 20
-1.657247314726136
 30
0.0
 10
35.77472102352493
 20
-2.497703193461508
 30
0.0
 10
37.38261948139196
 20
-3.240423933534811
 30
0.0
 10
38.99107626768131
 20
-3.872168867295863
 30
0.0
 10
40.06370290677508
 20
-4.166238735253939
 30
0.0
 10
40.6001393542915
 20
-4.313307425830494
 30
0.0
1001
PE_URL
1000

  0
SPLINE
  5
A9
330
1F
100
AcDbEntity
  8
0
  6
Continuous
 62
     1
370
    15
100
AcDbSpline
210
0.0
220
0.0
230
1.0
 70
     8
 71
     3
 72
    18
 73
    14
 74
     0
 42
0.000000001
 43
0.00000001
 40
0.0
 40
0.0
 40
0.0
 40
0.0
 40
0.0931429167862264
 40
0.1862430754851802
 40
0.2793155909081492
 40
0.3723756910077641
 40
0.4654386546528004
 40
0.5585197489628471
 40
0.6516341667446122
 40
0.7447888611342818
 40
0.8379139951981212
 40
0.931002017631669
 40
1.0
 40
1.0
 40
1.0
 40
1.0
 10
40.60013935429146
 20
0.4080574258305453
 30
0.0
 10
40.06370290678188
 20
0.7149798423234981
 30
0.0
 10
38.99107626770173
 20
1.32868377983476
 30
0.0
 10
37.38261948131021
 20
2.194919772596207
 30
0.0
 10
35.77472102383134
 20
2.978963300004215
 30
0.0
 10
34.16708322023555
 20
3.649815924192555
 30
0.0
 10
32.55938626136653
 20
4.182446812191604
 30
0.0
 10
30.95130965197561
 20
4.556716962999833
 30
0.0
 10
29.34260598313013
 20
4.757965212804786
 30
0.0
 10
27.73342036485578
 20
4.780237296470387
 30
0.0
 10
26.1245657699959
 20
4.616305236783425
 30
0.0
 10
24.6549404633119
 20
4.323855219685316
 30
0.0
 10
23.72162142085149
 20
4.020272494428736
 30
0.0
 10
23.32431919284959
 20
3.89104113018981
 30
0.0
1001
PE_URL
1000

  0
SPLINE
  5
AA
330
1F
100
AcDbEntity
  8
0
  6
Continuous
 62
     1
370
    15
100
AcDbSpline
210
0.0
220
0.0
230
1.0
 70
     8
 71
     3
 72
    10
 73
     6
 74
     0
 42
0.000000001
 43
0.00000001
 40
0.0
 40
0.0
 40
0.0
 40
0.0
 40
0.3725947474207428
 40
0.745018451897189
 40
1.0
 40
1.0
 40
1.0
 40
1.0
 10
40.60013935429146
 20
4.744986342153639
 30
0.0
 10
40.06370334262306
 20
4.699983288258371
 30
0.0
 10
38.99107757502527
 20
4.609997839521389
 30
0.0
 10
37.55151983450568
 20
4.306745182445709
 30
0.0
 10
36.6483871091089
 20
4.009893404758359
 30
0.0
 10
36.28134813467048
 20
3.889250924446593
 30
0.0
1001
PE_URL
1000

  0
SPLINE
  5
AB
330
1F
100
AcDbEntity
  8
0
  6
Continuous
 62
     1
370
    15
100
AcDbSpline
210
0.0
220
0.0
230
1.0
 70
     8
 71
     3
 72
    16
 73
    12
 74
     0
 42
0.000000001
 43
0.00000001
 40
0.0
 40
0.0
 40
0.0
 40
0.0
 40
0.0407831104084267
 40
0.1655467064065892
 40
0.2902681686505963
 40
0.4084975489400103
 40
0.5267372603424647
 40
0.6450367930156397
 40
0.7634261641545981
 40
0.8817494272005426
 40
1.0
 40
1.0
 40
1.0
 40
1.0
 10
15.39243901701528
 20
-4.742599229955394
 30
0.0
 10
15.21714813806899
 20
-4.748137862483325
 30
0.0
 10
14.50560781213356
 20
-4.770620266689703
 30
0.0
 10
13.25816938284901
 20
-4.625305132406234
 30
0.0
 10
11.67791171717266
 20
-4.315547016818462
 30
0.0
 10
10.12595742837997
 20
-3.845412434702618
 30
0.0
 10
8.601521474919442
 20
-3.255761314154363
 30
0.0
 10
7.076283776325596
 20
-2.554149372295458
 30
0.0
 10
5.550293257778669
 20
-1.766090271266377
 30
0.0
 10
4.024815291157729
 20
-0.9175207767136483
 30
0.0
 10
3.008260550227694
 20
-0.3306663545545591
 30
0.0
 10
2.500139354291504
 20
-0.0373293026264827
 30
0.0
1001
PE_URL
1000

  0
LINE
  5
AC
330
1F
100
AcDbEntity
  8
외형선
  6
Continuous
370
    15
100
AcDbLine
 10
2.500139354291461
 20
-0.0373293026265561
 30
0.0
 11
2.500139354291468
 21
1.607019429120553
 31
0.0
  0
LINE
  5
AD
330
1F
100
AcDbEntity
  8
외형선
  6
Continuous
370
    15
100
AcDbLine
 10
2.500139354291461
 20
4.762353700972687
 30
0.0
 11
2.500139354291461
 21
4.762499999999999
 31
0.0
  0
LINE
  5
AE
330
1F
100
AcDbEntity
  8
0
  6
Continuous
 62
     1
370
    15
100
AcDbLine
 10
40.60013935429147
 20
-4.744986342153643
 30
0.0
 11
40.60013935429147
 21
-4.313307425830494
 31
0.0
1001
PE_URL
1000

  0
LINE
  5
AF
330
1F
100
AcDbEntity
  8
0
  6
Continuous
 62
     1
370
    15
100
AcDbLine
 10
40.60013935429147
 20
2.00517334158069
 30
0.0
 11
40.60013935429147
 21
4.744986342153639
 31
0.0
1001
PE_URL
1000

  0
SPLINE
  5
B0
330
1F
100
AcDbEntity
  8
0
  6
Continuous
 62
     1
370
    15
100
AcDbSpline
210
0.0
220
0.0
230
1.0
 70
     8
 71
     3
 72
    13
 73
     9
 74
     0
 42
0.000000001
 43
0.00000001
 40
0.0
 40
0.0
 40
0.0
 40
0.0
 40
0.1937852421710811
 40
0.3876896067843271
 40
0.5817023072179437
 40
0.7755677832581793
 40
0.9693352261205682
 40
1.0
 40
1.0
 40
1.0
 40
1.0
 10
2.500139354291475
 20
-4.483179095734316
 30
0.0
 10
3.008260533556786
 20
-4.567463230258855
 30
0.0
 10
4.024815241134814
 20
-4.736083309919659
 30
0.0
 10
5.55029345806035
 20
-4.785751220987041
 30
0.0
 10
7.076283025056659
 20
-4.686580138141728
 30
0.0
 10
8.601524276631805
 20
-4.412539407712182
 30
0.0
 10
9.698326256697149
 20
-4.140294292071179
 30
0.0
 10
10.28679837020995
 20
-3.925698602432922
 30
0.0
 10
10.3672028885861
 20
-3.896377819553396
 30
0.0
1001
PE_URL
1000

  0
SPLINE
  5
B1
330
1F
100
AcDbEntity
  8
0
  6
Continuous
 62
     1
370
    15
100
AcDbSpline
210
0.0
220
0.0
230
1.0
 70
     8
 71
     3
 72
    13
 73
     9
 74
     0
 42
0.000000001
 43
0.00000001
 40
0.0
 40
0.0
 40
0.0
 40
0.0
 40
0.1396367877768303
 40
0.3116636479016716
 40
0.4836852147636664
 40
0.6557297313471271
 40
0.827825346517874
 40
0.9999999999999999
 40
0.9999999999999999
 40
0.9999999999999999
 40
0.9999999999999999
 10
31.25450050154713
 20
4.748681928903069
 30
0.0
 10
31.6894973064321
 20
4.742757226975448
 30
0.0
 10
32.66039253536486
 20
4.72953353252579
 30
0.0
 10
34.16708157046158
 20
4.493689941989952
 30
0.0
 10
35.77472146579007
 20
4.091939240161298
 30
0.0
 10
37.38261936341063
 20
3.528368373486203
 30
0.0
 10
38.99107629719609
 20
2.837893801877794
 30
0.0
 10
40.06370291661485
 20
2.29207642000663
 30
0.0
 10
40.60013935429149
 20
2.019105074104713
 30
0.0
1001
PE_URL
1000

  0
SPLINE
  5
B2
330
1F
100
AcDbEntity
  8
외형선
  6
Continuous
370
    15
100
AcDbSpline
210
0.0
220
0.0
230
1.0
 70
    24
 71
     3
 72
    21
 73
    17
 74
     0
 42
0.000000001
 43
0.00000001
 40
0.0
 40
0.0
 40
0.0
 40
0.0
 40
0.0231379998799726
 40
0.0986246636537338
 40
0.1741113274274949
 40
0.2495979912012573
 40
0.3250846549750198
 40
0.400571318748783
 40
0.4760579825225462
 40
0.5515446462962671
 40
0.6270313100699881
 40
0.7025179738437929
 40
0.7780046376175977
 40
0.85349130139136
 40
0.9289779651651224
 40
1.0
 40
1.0
 40
1.0
 40
1.0
 10
2.500139354291468
 20
0.0916066575085375
 30
0.0
 10
2.500139354291475
 20
0.0950104931344218
 30
0.0
 10
2.500139354291454
 20
0.1095191864301635
 30
0.0
 10
2.500139354291489
 20
0.0498559247815085
 30
0.0
 10
2.500139354291413
 20
-0.0826541704706016
 30
0.0
 10
2.500139354291454
 20
-0.2988190272313662
 30
0.0
 10
2.500139354291468
 20
-0.5816511350317205
 30
0.0
 10
2.500139354291454
 20
-0.9279337957639707
 30
0.0
 10
2.500139354291461
 20
-1.324934262302579
 30
0.0
 10
2.500139354291461
 20
-1.763434266814929
 30
0.0
 10
2.500139354291475
 20
-2.229549648233904
 30
0.0
 10
2.500139354291461
 20
-2.710867775607124
 30
0.0
 10
2.500139354291461
 20
-3.193688438362439
 30
0.0
 10
2.500139354291449
 20
-3.662956033178994
 30
0.0
 10
2.500139354291449
 20
-4.101501279224624
 30
0.0
 10
2.500139354291461
 20
-4.358564358539534
 30
0.0
 10
2.500139354291475
 20
-4.483179095734314
 30
0.0
  0
LINE
  5
B3
330
1F
100
AcDbEntity
  8
0
  6
Continuous
 62
     1
370
    15
100
AcDbLine
 10
40.60013935429147
 20
0.4080574258305456
 30
0.0
 11
40.60013935429147
 21
2.019105074104713
 31
0.0
1001
PE_URL
1000

  0
LINE
  5
B4
330
1F
100
AcDbEntity
  8
외형선
  6
Continuous
370
    15
100
AcDbLine
 10
2.500139354291461
 20
-4.762500000000003
 30
0.0
 11
2.500139354291475
 21
-4.483179095734314
 31
0.0
  0
SPLINE
  5
B5
330
1F
100
AcDbEntity
  8
외형선
  6
Continuous
370
    15
100
AcDbSpline
210
0.0
220
0.0
230
1.0
 70
    24
 71
     3
 72
    20
 73
    16
 74
     0
 42
0.000000001
 43
0.00000001
 40
0.0
 40
0.0
 40
0.0
 40
0.0
 40
0.0976077183843643
 40
0.1740039108108494
 40
0.2526155979931484
 40
0.3290117904196337
 40
0.4076234776019327
 40
0.484019670028379
 40
0.5626313572107173
 40
0.6390275496372029
 40
0.7176392368195027
 40
0.7940354292459866
 40
0.8726471164282843
 40
0.9490433088547708
 40
1.0
 40
1.0
 40
1.0
 40
1.0
 10
2.500139354291468
 20
-4.483179095734314
 30
0.0
 10
2.500139354291454
 20
-4.314392375391012
 30
0.0
 10
2.500139354291427
 20
-4.013498655931054
 30
0.0
 10
2.500139354291523
 20
-3.51722671349436
 30
0.0
 10
2.500139354291449
 20
-3.044685253243879
 30
0.0
 10
2.500139354291468
 20
-2.558588717715623
 30
0.0
 10
2.500139354291489
 20
-2.082739861236365
 30
0.0
 10
2.500139354291441
 20
-1.621690125529975
 30
0.0
 10
2.500139354291468
 20
-1.196901862373946
 30
0.0
 10
2.50013935429142
 20
-0.8126480453559286
 30
0.0
 10
2.500139354291475
 20
-0.4870264862565696
 30
0.0
 10
2.500139354291441
 20
-0.2222732993240001
 30
0.0
 10
2.500139354291482
 20
-0.0348130798078899
 30
0.0
 10
2.500139354291427
 20
0.0743427885605314
 30
0.0
 10
2.500139354291441
 20
0.0847598250158647
 30
0.0
 10
2.500139354291441
 20
0.0889279105308196
 30
0.0
  0
SPLINE
  5
B6
330
1F
100
AcDbEntity
  8
외형선
  6
Continuous
370
    15
100
AcDbSpline
210
0.0
220
0.0
230
1.0
 70
     8
 71
     3
 72
     8
 73
     4
 74
     0
 42
0.000000001
 43
0.00000001
 40
0.0
 40
0.0
 40
0.0
 40
0.0
 40
1.0
 40
1.0
 40
1.0
 40
1.0
 10
2.500139354291475
 20
-4.483179095734315
 30
0.0
 10
2.333132169984673
 20
-4.450705976828584
 30
0.0
 10
2.166266535966354
 20
-4.415493680178283
 30
0.0
 10
1.999999999999993
 20
-4.37765102064388
 30
0.0
  0
SPLINE
  5
B7
330
1F
100
AcDbEntity
  8
외형선
  6
Continuous
370
    15
100
AcDbSpline
210
0.0
220
0.0
230
1.0
 70
     8
 71
     3
 72
     8
 73
     4
 74
     0
 42
0.000000001
 43
0.00000001
 40
0.0
 40
0.0
 40
0.0
 40
0.0
 40
1.0
 40
1.0
 40
1.0
 40
1.0
 10
2.500139354291454
 20
-0.0373293026264562
 30
0.0
 10
2.333132169984658
 20
0.0589038076897334
 30
0.0
 10
2.166266535966354
 20
0.1551324749874642
 30
0.0
 10
2.000000000000007
 20
0.2510924971863828
 30
0.0
  0
LINE
  5
B8
330
1F
100
AcDbEntity
  8
외형선
  6
Continuous
370
    15
100
AcDbLine
 10
2.0
 20
-4.762500000000001
 30
0.0
 11
2.0
 21
-4.75587556045784
 31
0.0
  0
SPLINE
  5
B9
330
1F
100
AcDbEntity
  8
외형선
  6
Continuous
370
    15
100
AcDbSpline
210
0.0
220
0.0
230
1.0
 70
     8
 71
     3
 72
     8
 73
     4
 74
     0
 42
0.000000001
 43
0.00000001
 40
0.0
 40
0.0
 40
0.0
 40
0.0
 40
1.0
 40
1.0
 40
1.0
 40
1.0
 10
2.500139354291454
 20
4.762353700972388
 30
0.0
 10
2.333132169984658
 20
4.763108015986189
 30
0.0
 10
2.166266535966354
 20
4.760942570413028
 30
0.0
 10
2.000000000000007
 20
4.755876239754004
 30
0.0
  0
LINE
  5
BA
330
1F
100
AcDbEntity
  8
외형선
  6
Continuous
370
    15
100
AcDbLine
 10
2.0
 20
1.875497513089171
 30
0.0
 11
2.0
 21
4.762499999999998
 31
0.0
  0
SPLINE
  5
BB
330
1F
100
AcDbEntity
  8
외형선
  6
Continuous
370
    15
100
AcDbSpline
210
0.0
220
0.0
230
1.0
 70
     8
 71
     3
 72
     8
 73
     4
 74
     0
 42
0.000000001
 43
0.00000001
 40
0.0
 40
0.0
 40
0.0
 40
0.0
 40
1.0
 40
1.0
 40
1.0
 40
1.0
 10
2.500139354291475
 20
1.607019429120546
 30
0.0
 10
2.333132169984673
 20
1.697611244759725
 30
0.0
 10
2.166266535966354
 20
1.787192156392949
 30
0.0
 10
1.999999999999993
 20
1.875520672094999
 30
0.0
  0
LINE
  5
BC
330
1F
100
AcDbEntity
  8
외형선
  6
Continuous
370
    15
100
AcDbLine
 10
2.0
 20
-4.377660942603527
 30
0.0
 11
2.0
 21
0.2511053632239227
 31
0.0
  0
LINE
  5
BD
330
1F
100
AcDbEntity
  8
외형선
  6
Continuous
370
    15
100
AcDbLine
 10
2.435446605606613
 20
-4.761515844948624
 30
0.0
 11
2.000000000000007
 21
-4.755876239754007
 31
0.0
  0
LINE
  5
BE
330
1F
100
AcDbEntity
  8
외형선
  6
Continuous
370
    15
100
AcDbLine
 10
-40.99736064570853
 20
-0.000000000000002
 30
0.0
 11
-40.99736064570853
 21
4.762499999999998
 31
0.0
  0
LINE
  5
BF
330
1F
100
AcDbEntity
  8
외형선
  6
Continuous
370
    15
100
AcDbLine
 10
-40.99736064570853
 20
-4.762500000000001
 30
0.0
 11
-40.99736064570853
 21
-0.000000000000002
 31
0.0
  0
LINE
  5
C0
330
1F
100
AcDbEntity
  8
외형선
  6
Continuous
370
    15
100
AcDbLine
 10
-41.94986064570853
 20
-0.000000000000002
 30
0.0
 11
-41.94986064570853
 21
3.81
 31
0.0
  0
LINE
  5
C1
330
1F
100
AcDbEntity
  8
외형선
  6
Continuous
370
    15
100
AcDbLine
 10
-41.94986064570853
 20
-3.810000000000004
 30
0.0
 11
-41.94986064570853
 21
-0.000000000000002
 31
0.0
  0
SPLINE
  5
C2
330
1F
100
AcDbEntity
  8
외형선
  6
Continuous
370
    15
100
AcDbSpline
210
0.0
220
0.0
230
1.0
 70
    24
 71
     3
 72
    19
 73
    15
 74
     0
 42
0.000000001
 43
0.00000001
 40
0.0
 40
0.0
 40
0.0
 40
0.0
 40
0.1227637175477329
 40
0.1941068751029651
 40
0.2629437908220139
 40
0.4029563937550196
 40
0.4742995513102147
 40
0.5431364670293901
 40
0.6124513294091948
 40
0.6832736091196276
 40
0.754616766674825
 40
0.8151487487506961
 40
0.9377875204725705
 40
1.0
 40
1.0
 40
1.0
 40
1.0
 10
2.500139354291449
 20
1.664135182291991
 30
0.0
 10
2.500139354291449
 20
1.755721564363286
 30
0.0
 10
2.500139354291449
 20
1.900532643572687
 30
0.0
 10
2.500139354291475
 20
2.133163106705355
 30
0.0
 10
2.50013935429142
 20
2.394920443917739
 30
0.0
 10
2.500139354291496
 20
2.680003611115108
 30
0.0
 10
2.500139354291441
 20
2.980419276927286
 30
0.0
 10
2.500139354291518
 20
3.211517018451716
 30
0.0
 10
2.500139354291449
 20
3.446703832556719
 30
0.0
 10
2.500139354291449
 20
3.687844806446658
 30
0.0
 10
2.50013935429142
 20
3.920391574808624
 30
0.0
 10
2.500139354291475
 20
4.211748186789004
 30
0.0
 10
2.500139354291496
 20
4.490949666537998
 30
0.0
 10
2.500139354291449
 20
4.694012152486855
 30
0.0
 10
2.500139354291441
 20
4.762353700972478
 30
0.0
  0
LINE
  5
C3
330
1F
100
AcDbEntity
  8
중심선
 62
     1
100
AcDbLine
 10
-44.94986064570853
 20
-0.0000000000000059
 30
0.0
 11
43.60013935429147
 21
0.0000000000000049
 31
0.0
  0
LINE
  5
C4
330
1F
100
AcDbEntity
  8
참조1
100
AcDbLine
 10
-0.6748606457085327
 20
-0.0000000000000059
 30
0.0
 11
-0.6748606457085273
 21
-40.00000000000001
 31
0.0
  0
LINE
  5
C5
330
1F
100
AcDbEntity
  8
참조1
100
AcDbLine
 10
-0.6748606457085273
 20
-40.00000000000001
 30
0.0
 11
-27.7399674600172
 21
-40.0
 31
0.0
  0
CIRCLE
  5
C6
330
1F
100
AcDbEntity
  8
해칭선
100
AcDbCircle
 10
0.0
 20
0.0
 30
0.0
 40
3.000000000000002
  0
INSERT
  5
C7
330
1F
100
AcDbEntity
  8
0
  6
Continuous
 62
     7
100
AcDbBlockReference
 66
     1
  2
블럭10
 10
-14.61513357783374
 20
-52.04717430164393
 30
0.0
  0
ATTRIB
  5
C8
330
C7
100
AcDbEntity
  8
FORMAT
 62
     2
100
AcDbText
 10
-23.79642886657502
 20
-49.97180738881174
 30
0.0
 40
4.233333333333333
  1
E2040024 [ 4 FLUTE ]
 41
0.75
  7
SLDTEXTSTYLE0
 11
-23.79642886657502
 21
-52.08847405547841
 31
0.0
100
AcDbAttribute
  2
AUTOATTR0
 70
     0
 74
     1
  0
SEQEND
  5
C9
330
C7
100
AcDbEntity
  8
0
  6
Continuous
 62
     7
  0
HATCH
  5
CA
330
1F
100
AcDbEntity
  8
중심선
100
AcDbHatch
 10
0.0
 20
0.0
 30
0.0
210
0.0
220
0.0
230
1.0
  2
SOLID
 70
     1
 71
     0
 91
        1
 92
        0
 93
        4
 72
     1
 10
-8.900224273452896
 20
-35.8
 11
-12.34649951729018
 21
-35.8
 72
     1
 10
-12.34649951729018
 20
-35.8
 11
-14.4747293764942
 21
-38.3363255805726
 72
     1
 10
-14.4747293764942
 20
-38.3363255805726
 11
-11.02842104754374
 21
-38.33628615127011
 72
     1
 10
-11.02842104754374
 20
-38.33628615127011
 11
-8.900224273452896
 21
-35.8
 97
        0
 75
     0
 76
     1
 98
        1
 10
-7.586621959739704
 20
-0.0010749287238951
  0
HATCH
  5
CB
330
1F
100
AcDbEntity
  8
중심선
100
AcDbHatch
 10
0.0
 20
0.0
 30
0.0
210
0.0
220
0.0
230
1.0
  2
SOLID
 70
     1
 71
     0
 91
        1
 92
        0
 93
        4
 72
     1
 10
-3.887460282416916
 20
-35.8
 11
-7.333735526254198
 21
-35.8
 72
     1
 10
-7.333735526254198
 20
-35.8
 11
-11.86487353461161
 21
-41.20000000000002
 72
     1
 10
-11.86487353461161
 20
-41.20000000000002
 11
-8.418598290774332
 21
-41.20000000000002
 72
     1
 10
-8.418598290774332
 20
-41.20000000000002
 11
-3.887460282416916
 21
-35.8
 97
        0
 75
     0
 76
     1
 98
        1
 10
-7.586621959739704
 20
-0.0010749287238951
  0
HATCH
  5
CC
330
1F
100
AcDbEntity
  8
중심선
100
AcDbHatch
 10
0.0
 20
0.0
 30
0.0
210
0.0
220
0.0
230
1.0
  2
SOLID
 70
     1
 71
     0
 91
        1
 92
        0
 93
        4
 72
     1
 10
1.125303708619008
 20
-35.79999999999998
 11
-2.320971535218137
 21
-35.8
 72
     1
 10
-2.320971535218137
 20
-35.8
 11
-9.369408437107413
 21
-44.20000000000002
 72
     1
 10
-9.369408437107413
 20
-44.20000000000002
 11
-5.923133193270131
 21
-44.20000000000002
 72
     1
 10
-5.923133193270131
 20
-44.20000000000002
 11
1.125303708619009
 21
-35.79999999999998
 97
        0
 75
     0
 76
     1
 98
        1
 10
-7.586621959739704
 20
-0.0010749287238951
  0
HATCH
  5
CD
330
1F
100
AcDbEntity
  8
중심선
100
AcDbHatch
 10
0.0
 20
0.0
 30
0.0
210
0.0
220
0.0
230
1.0
  2
SOLID
 70
     1
 71
     0
 91
        1
 92
        0
 93
        6
 72
     3
 10
5.92519413963115
 20
-40.00000000005127
 11
3.960054785062283
 21
1.540882976769353E-10
 40
0.3939339440162628
 50
17.09539180608436
 51
320.0019657685082
 73
     0
 72
     1
 10
7.608193795331719
 20
-38.58789400463833
 11
9.913495669032786
 21
-36.65356729459038
 72
     3
 10
5.925194139578304
 20
-40.00000000000015
 11
6.600054785286829
 21
-1.278976924368180E-13
 40
0.636358354079598
 50
39.99873849337408
 51
368.4976242363724
 73
     1
 72
     1
 10
12.35052663147891
 20
-39.03999999993002
 11
4.605261446414227
 21
-39.03999999993002
 72
     1
 10
4.605261446414227
 20
-39.03999999993002
 11
4.605236401968293
 21
-40.95999999992991
 72
     1
 10
4.605236401968293
 20
-40.95999999992991
 11
9.046616171440329
 21
-40.95999999992988
 97
        0
 75
     0
 76
     1
 98
        1
 10
-7.586621959739704
 20
-0.0010749287238951
  0
DIMENSION
  5
CE
330
1F
100
AcDbEntity
  8
치수문자_일반주서
100
AcDbDimension
  2
_D
 10
2.500139354291463
 20
14.7625
 30
0.0
 11
21.55013935429147
 21
14.7625
 31
0.0
 70
   160
  1
<>
 71
     2
 42
38.10000000000001
  3
SLDDIMSTYLE0
100
AcDbAlignedDimension
 13
40.60013935429147
 23
4.744986342153639
 33
0.0
 14
2.500139354291464
 24
4.762353700972687
 34
0.0
 50
0.0000000000000053
100
AcDbRotatedDimension
1001
PE_URL
1000

1001
ACAD
1000
DSTYLE
1002
{
1070
   171
1070
     8
1070
   273
1070
     7
1002
}
  0
DIMENSION
  5
E3
330
1F
100
AcDbEntity
  8
치수문자_일반주서
100
AcDbDimension
  2
_D_1
 10
-41.94986064570853
 20
24.7625
 30
0.0
 11
-0.6748606457085344
 21
24.7625
 31
0.0
 70
   160
  1
<>
 71
     2
 42
82.55000000000001
  3
SLDDIMSTYLE0
100
AcDbAlignedDimension
 13
40.60013935429147
 23
4.744986342153639
 33
0.0
 14
-41.94986064570853
 24
3.81
 34
0.0
 50
0.0000000000000049
100
AcDbRotatedDimension
1001
PE_URL
1000

1001
ACAD
1000
DSTYLE
1002
{
1070
   171
1070
     8
1070
   273
1070
     7
1002
}
  0
DIMENSION
  5
F7
330
1F
100
AcDbEntity
  8
치수문자_일반주서
100
AcDbDimension
  2
_D_2
 10
-51.94986064570848
 20
-4.762500000000045
 30
0.0
 11
-51.94986064570858
 21
21.18949999999996
 31
0.0
 70
   160
  1
%%c<>
 71
     2
 42
9.525000000000006
 52
-270.0
  3
SLDDIMSTYLE0
100
AcDbAlignedDimension
 13
-40.99736064570853
 23
4.762500000000001
 33
0.0
 14
-40.99736064570853
 24
-4.762500000000005
 34
0.0
 50
90.0000000000002
100
AcDbRotatedDimension
1001
PE_URL
1000

1001
ACAD
1000
DSTYLE
1002
{
1070
   171
1070
     8
1070
   273
1070
     7
1002
}
1001
ACAD_DSTYLE_DIMFLIPARROW_SYMBOL
1070
   385
1070
     0
1001
ACAD_DSTYLE_DIMFLIPARROW_WHICH_SYMBOL
1070
   386
1070
     3
  0
DIMENSION
  5
10C
330
1F
100
AcDbEntity
  8
치수문자_일반주서
100
AcDbDimension
  2
_D_3
 10
50.60013935429148
 20
4.744986342153677
 30
0.0
 11
50.60013935429141
 21
21.17198634215368
 31
0.0
 70
   160
  1
%%c<>
 71
     2
 42
9.489972684307283
 52
-270.0
  3
SLDDIMSTYLE0
100
AcDbAlignedDimension
 13
40.60013935429147
 23
-4.744986342153643
 33
0.0
 14
40.60013935429147
 24
4.744986342153639
 34
0.0
 50
90.0000000000002
100
AcDbRotatedDimension
1001
PE_URL
1000

1001
ACAD
1000
DSTYLE
1002
{
1070
   171
1070
     8
1070
   273
1070
     7
1002
}
1001
ACAD_DSTYLE_DIMFLIPARROW_SYMBOL
1070
   385
1070
     0
1001
ACAD_DSTYLE_DIMFLIPARROW_WHICH_SYMBOL
1070
   386
1070
     3
  0
LINE
  5
11F
330
1F
100
AcDbEntity
  8
참조1
100
AcDbLine
 10
70.23237316963706
 20
7.44
 30
0.0
 11
70.23237316963706
 21
-7.440000000000004
 31
0.0
  0
LINE
  5
120
330
1F
100
AcDbEntity
  8
참조1
100
AcDbLine
 10
82.93237316963706
 20
5.44
 30
0.0
 11
70.23237316963706
 21
5.44
 31
0.0
  0
SOLID
  5
121
330
1F
100
AcDbEntity
  8
참조1
100
AcDbTrace
 10
70.23237316963706
 20
5.44
 30
0.0
 11
76.58237316963705
 21
4.424
 31
0.0
 12
76.58237316963705
 22
6.456
 32
0.0
 13
76.58237316963705
 23
6.456
 33
0.0
  0
LINE
  5
122
330
1F
100
AcDbEntity
  8
참조1
100
AcDbLine
 10
82.93237316963706
 20
-5.440000000000004
 30
0.0
 11
70.23237316963706
 21
-5.440000000000004
 31
0.0
  0
SOLID
  5
123
330
1F
100
AcDbEntity
  8
참조1
100
AcDbTrace
 10
70.23237316963706
 20
-5.440000000000004
 30
0.0
 11
76.58237316963705
 21
-6.456000000000004
 31
0.0
 12
76.58237316963705
 22
-4.424000000000004
 32
0.0
 13
76.58237316963705
 23
-4.424000000000004
 33
0.0
  0
MTEXT
  5
124
330
1F
100
AcDbEntity
  8
참조1
100
AcDbMText
 10
79.61672330226305
 20
11.01029177718833
 30
0.0
 40
3.5
 41
0.0
 71
     1
 72
     1
  1
A
  7
SLDTEXTSTYLE0
 73
     1
 44
1.0
  0
MTEXT
  5
125
330
1F
100
AcDbEntity
  8
참조1
100
AcDbMText
 10
79.61672330226305
 20
0.130291777188325
 30
0.0
 40
3.5
 41
0.0
 71
     1
 72
     1
  1
A
  7
SLDTEXTSTYLE0
 73
     1
 44
1.0
  0
INSERT
  5
12C
330
1F
100
AcDbEntity
  8
해칭선
100
AcDbBlockReference
  2
SW_DOWELSYMBOL_0
 10
0.0
 20
0.0
 30
0.0
  0
LINE
  5
1CE
330
1F
100
AcDbEntity
  8
외형선
  6
Continuous
370
    15
100
AcDbLine
 10
-25.67481064570865
 20
3.492500000000003
 30
0.0
 11
-18.53741064570853
 21
3.492500000000003
 31
0.0
1001
PE_URL
1000

  0
LINE
  5
1CF
330
1F
100
AcDbEntity
  8
외형선
  6
Continuous
370
    15
100
AcDbLine
 10
-25.67481064570865
 20
3.492500000000003
 30
0.0
 11
-26.94481064570864
 21
4.762499999999985
 31
0.0
1001
PE_URL
1000

  0
LINE
  5
1D0
330
1F
100
AcDbEntity
  8
외형선
  6
Continuous
370
    15
100
AcDbLine
 10
-18.53741064570853
 20
3.492500000000003
 30
0.0
 11
-17.26741064570843
 21
4.762499999999985
 31
0.0
1001
PE_URL
1000

  0
LINE
  5
1D4
330
1F
100
AcDbEntity
  8
외형선
  6
Continuous
370
    15
100
AcDbLine
 10
-26.94481064570864
 20
4.762499999999998
 30
0.0
 11
-40.99736064570853
 21
4.762499999999998
 31
0.0
  0
ENDSEC
  0
SECTION
  2
OBJECTS
  0
DICTIONARY
  5
C
330
0
100
AcDbDictionary
281
     1
  3
ACAD_GROUP
350
D
  3
ACAD_IMAGE_VARS
350
203
  3
ACAD_LAYOUT
350
1A
  3
ACAD_MLINESTYLE
350
17
  3
ACAD_PLOTSETTINGS
350
19
  3
ACAD_PLOTSTYLENAME
350
E
  3
ACAD_SCALELIST
350
47
  3
APPDATA
350
14E
  3
DWGPROPS
350
204
  0
DICTIONARY
  5
184
330
2
100
AcDbDictionary
280
     1
281
     1
  3
ACAD_LAYERSTATES
360
185
  0
DICTIONARY
  5
D
102
{ACAD_REACTORS
330
C
102
}
330
C
100
AcDbDictionary
281
     1
  0
RASTERVARIABLES
  5
203
102
{ACAD_REACTORS
330
C
102
}
330
C
100
AcDbRasterVariables
 90
        0
 70
     1
 71
     1
 72
     1
  0
DICTIONARY
  5
1A
102
{ACAD_REACTORS
330
C
102
}
330
C
100
AcDbDictionary
281
     1
  3
Layout1
350
1E
  3
Layout2
350
26
  3
Model
350
22
  0
DICTIONARY
  5
17
102
{ACAD_REACTORS
330
C
102
}
330
C
100
AcDbDictionary
281
     1
  3
Standard
350
18
  0
DICTIONARY
  5
19
102
{ACAD_REACTORS
330
C
102
}
330
C
100
AcDbDictionary
281
     1
  0
ACDBDICTIONARYWDFLT
  5
E
102
{ACAD_REACTORS
330
C
102
}
330
C
100
AcDbDictionary
281
     1
  3
Normal
350
F
100
AcDbDictionaryWithDefault
340
F
  0
DICTIONARY
  5
47
102
{ACAD_REACTORS
330
C
102
}
330
C
100
AcDbDictionary
281
     1
  3
A0
350
48
  3
A1
350
49
  3
A2
350
4A
  3
A3
350
4B
  3
A4
350
4C
  3
A5
350
4D
  3
A6
350
4E
  3
A7
350
4F
  3
A8
350
50
  3
A9
350
51
  3
B0
350
52
  3
B1
350
53
  3
B2
350
54
  3
B3
350
55
  3
B4
350
56
  3
B5
350
57
  3
B6
350
58
  3
B7
350
59
  3
B8
350
5A
  3
B9
350
5B
  3
C0
350
5C
  3
C1
350
5D
  3
C2
350
5E
  3
C3
350
5F
  3
C4
350
60
  3
C5
350
61
  3
C6
350
62
  3
C7
350
63
  3
C8
350
64
  3
C9
350
65
  3
D0
350
66
  3
D1
350
67
  3
D2
350
68
  0
DICTIONARY
  5
14E
102
{ACAD_REACTORS
330
C
102
}
330
C
100
AcDbDictionary
281
     1
  0
XRECORD
  5
204
102
{ACAD_REACTORS
330
C
102
}
330
C
100
AcDbXrecord
280
     1
  1
DWGPROPS COOKIE
  2

  3

  4

  6

  7

  8
12016016
  9

300
=
301
=
302
=
303
=
304
=
305
=
306
=
307
=
308
=
309
=
 40
0.0
 41
2458312.255132755
 42
2458330.280738345
  1

 90
        0
  0
DICTIONARY
  5
185
102
{ACAD_REACTORS
330
184
102
}
330
184
100
AcDbDictionary
281
     1
  0
LAYOUT
  5
1E
102
{ACAD_REACTORS
330
1A
102
}
330
1A
100
AcDbPlotSettings
  1

  2
none_device
  4

  6

 40
0.0
 41
0.0
 42
0.0
 43
0.0
 44
0.0
 45
0.0
 46
0.0
 47
0.0
 48
0.0
 49
0.0
140
0.0
141
0.0
142
1.0
143
1.0
 70
   688
 72
     1
 73
     0
 74
     5
  7

 75
    16
147
1.0
148
0.0
149
0.0
100
AcDbLayout
  1
Layout1
 70
     1
 71
     1
 10
0.0
 20
0.0
 11
420.0
 21
297.0
 12
0.0
 22
0.0
 32
0.0
 14
1.000000000000000E+20
 24
1.000000000000000E+20
 34
1.000000000000000E+20
 15
-1.000000000000000E+20
 25
-1.000000000000000E+20
 35
-1.000000000000000E+20
146
0.0
 13
0.0
 23
0.0
 33
0.0
 16
1.0
 26
0.0
 36
0.0
 17
0.0
 27
1.0
 37
0.0
 76
     0
330
1B
  0
LAYOUT
  5
26
102
{ACAD_REACTORS
330
1A
102
}
330
1A
100
AcDbPlotSettings
  1

  2
none_device
  4

  6

 40
0.0
 41
0.0
 42
0.0
 43
0.0
 44
0.0
 45
0.0
 46
0.0
 47
0.0
 48
0.0
 49
0.0
140
0.0
141
0.0
142
1.0
143
1.0
 70
   688
 72
     1
 73
     0
 74
     5
  7

 75
    16
147
1.0
148
0.0
149
0.0
100
AcDbLayout
  1
Layout2
 70
     1
 71
     2
 10
0.0
 20
0.0
 11
0.0
 21
0.0
 12
0.0
 22
0.0
 32
0.0
 14
0.0
 24
0.0
 34
0.0
 15
0.0
 25
0.0
 35
0.0
146
0.0
 13
0.0
 23
0.0
 33
0.0
 16
1.0
 26
0.0
 36
0.0
 17
0.0
 27
1.0
 37
0.0
 76
     0
330
23
  0
LAYOUT
  5
22
102
{ACAD_REACTORS
330
1A
102
}
330
1A
100
AcDbPlotSettings
  1

  2
none_device
  4
ANSI_A_(11.00_x_8.50_Inches)
  6

 40
6.35
 41
19.05
 42
6.35000508
 43
19.05000254
 44
279.4
 45
215.9
 46
83.30022016346453
 47
74.25379213092414
 48
0.0
 49
0.0
140
0.0
141
0.0
142
0.0615431726316858
143
1.0
 70
  1696
 72
     0
 73
     0
 74
     0
  7

 75
     0
147
0.0235690232323232
148
0.0
149
0.0
100
AcDbLayout
  1
Model
 70
     1
 71
     0
 10
0.0
 20
0.0
 11
420.0
 21
297.0
 12
0.0
 22
0.0
 32
0.0
 14
-56.32486064570863
 24
-49.97180738881175
 34
0.0
 15
82.93237316963706
 25
34.31449999999996
 35
0.0
146
0.0
 13
0.0
 23
0.0
 33
0.0
 16
1.0
 26
0.0
 36
0.0
 17
0.0
 27
1.0
 37
0.0
 76
     0
330
1F
331
29
  0
MLINESTYLE
  5
18
102
{ACAD_REACTORS
330
17
102
}
330
17
100
AcDbMlineStyle
  2
Standard
 70
     0
  3

 62
   256
 51
90.0
 52
90.0
 71
     2
 49
0.5
 62
   256
  6
BYLAYER
 49
-0.5
 62
   256
  6
BYLAYER
  0
ACDBPLACEHOLDER
  5
F
102
{ACAD_REACTORS
330
E
102
}
330
E
  0
SCALE
  5
48
102
{ACAD_REACTORS
330
47
102
}
330
47
100
AcDbScale
 70
     0
300
1:1
140
1.0
141
1.0
290
     1
  0
SCALE
  5
49
102
{ACAD_REACTORS
330
47
102
}
330
47
100
AcDbScale
 70
     0
300
1:2
140
1.0
141
2.0
290
     0
  0
SCALE
  5
4A
102
{ACAD_REACTORS
330
47
102
}
330
47
100
AcDbScale
 70
     0
300
1:4
140
1.0
141
4.0
290
     0
  0
SCALE
  5
4B
102
{ACAD_REACTORS
330
47
102
}
330
47
100
AcDbScale
 70
     0
300
1:5
140
1.0
141
5.0
290
     0
  0
SCALE
  5
4C
102
{ACAD_REACTORS
330
47
102
}
330
47
100
AcDbScale
 70
     0
300
1:8
140
1.0
141
8.0
290
     0
  0
SCALE
  5
4D
102
{ACAD_REACTORS
330
47
102
}
330
47
100
AcDbScale
 70
     0
300
1:10
140
1.0
141
10.0
290
     0
  0
SCALE
  5
4E
102
{ACAD_REACTORS
330
47
102
}
330
47
100
AcDbScale
 70
     0
300
1:16
140
1.0
141
16.0
290
     0
  0
SCALE
  5
4F
102
{ACAD_REACTORS
330
47
102
}
330
47
100
AcDbScale
 70
     0
300
1:20
140
1.0
141
20.0
290
     0
  0
SCALE
  5
50
102
{ACAD_REACTORS
330
47
102
}
330
47
100
AcDbScale
 70
     0
300
1:30
140
1.0
141
30.0
290
     0
  0
SCALE
  5
51
102
{ACAD_REACTORS
330
47
102
}
330
47
100
AcDbScale
 70
     0
300
1:40
140
1.0
141
40.0
290
     0
  0
SCALE
  5
52
102
{ACAD_REACTORS
330
47
102
}
330
47
100
AcDbScale
 70
     0
300
1:50
140
1.0
141
50.0
290
     0
  0
SCALE
  5
53
102
{ACAD_REACTORS
330
47
102
}
330
47
100
AcDbScale
 70
     0
300
1:100
140
1.0
141
100.0
290
     0
  0
SCALE
  5
54
102
{ACAD_REACTORS
330
47
102
}
330
47
100
AcDbScale
 70
     0
300
2:1
140
2.0
141
1.0
290
     0
  0
SCALE
  5
55
102
{ACAD_REACTORS
330
47
102
}
330
47
100
AcDbScale
 70
     0
300
4:1
140
4.0
141
1.0
290
     0
  0
SCALE
  5
56
102
{ACAD_REACTORS
330
47
102
}
330
47
100
AcDbScale
 70
     0
300
8:1
140
8.0
141
1.0
290
     0
  0
SCALE
  5
57
102
{ACAD_REACTORS
330
47
102
}
330
47
100
AcDbScale
 70
     0
300
10:1
140
10.0
141
1.0
290
     0
  0
SCALE
  5
58
102
{ACAD_REACTORS
330
47
102
}
330
47
100
AcDbScale
 70
     0
300
100:1
140
100.0
141
1.0
290
     0
  0
SCALE
  5
59
102
{ACAD_REACTORS
330
47
102
}
330
47
100
AcDbScale
 70
     0
300
1/128" = 1'-0"
140
0.0078125
141
12.0
290
     0
  0
SCALE
  5
5A
102
{ACAD_REACTORS
330
47
102
}
330
47
100
AcDbScale
 70
     0
300
1/64" = 1'-0"
140
0.015625
141
12.0
290
     0
  0
SCALE
  5
5B
102
{ACAD_REACTORS
330
47
102
}
330
47
100
AcDbScale
 70
     0
300
1/32" = 1'-0"
140
0.03125
141
12.0
290
     0
  0
SCALE
  5
5C
102
{ACAD_REACTORS
330
47
102
}
330
47
100
AcDbScale
 70
     0
300
1/16" = 1'-0"
140
0.0625
141
12.0
290
     0
  0
SCALE
  5
5D
102
{ACAD_REACTORS
330
47
102
}
330
47
100
AcDbScale
 70
     0
300
3/32" = 1'-0"
140
0.09375
141
12.0
290
     0
  0
SCALE
  5
5E
102
{ACAD_REACTORS
330
47
102
}
330
47
100
AcDbScale
 70
     0
300
1/8" = 1'-0"
140
0.125
141
12.0
290
     0
  0
SCALE
  5
5F
102
{ACAD_REACTORS
330
47
102
}
330
47
100
AcDbScale
 70
     0
300
3/16" = 1'-0"
140
0.1875
141
12.0
290
     0
  0
SCALE
  5
60
102
{ACAD_REACTORS
330
47
102
}
330
47
100
AcDbScale
 70
     0
300
1/4" = 1'-0"
140
0.25
141
12.0
290
     0
  0
SCALE
  5
61
102
{ACAD_REACTORS
330
47
102
}
330
47
100
AcDbScale
 70
     0
300
3/8" = 1'-0"
140
0.375
141
12.0
290
     0
  0
SCALE
  5
62
102
{ACAD_REACTORS
330
47
102
}
330
47
100
AcDbScale
 70
     0
300
1/2" = 1'-0"
140
0.5
141
12.0
290
     0
  0
SCALE
  5
63
102
{ACAD_REACTORS
330
47
102
}
330
47
100
AcDbScale
 70
     0
300
3/4" = 1'-0"
140
0.75
141
12.0
290
     0
  0
SCALE
  5
64
102
{ACAD_REACTORS
330
47
102
}
330
47
100
AcDbScale
 70
     0
300
1" = 1'-0"
140
1.0
141
12.0
290
     0
  0
SCALE
  5
65
102
{ACAD_REACTORS
330
47
102
}
330
47
100
AcDbScale
 70
     0
300
1-1/2" = 1'-0"
140
1.5
141
12.0
290
     0
  0
SCALE
  5
66
102
{ACAD_REACTORS
330
47
102
}
330
47
100
AcDbScale
 70
     0
300
3" = 1'-0"
140
3.0
141
12.0
290
     0
  0
SCALE
  5
67
102
{ACAD_REACTORS
330
47
102
}
330
47
100
AcDbScale
 70
     0
300
6" = 1'-0"
140
6.0
141
12.0
290
     0
  0
SCALE
  5
68
102
{ACAD_REACTORS
330
47
102
}
330
47
100
AcDbScale
 70
     0
300
1'-0" = 1'-0"
140
12.0
141
12.0
290
     0
  0
ENDSEC
  0
EOF
