  0
SECTION
  2
HEADER
  9
$ACADVER
  1
AC1015
  9
$ACADMAINTVER
 70
     6
  9
$DWGCODEPAGE
  3
ANSI_949
  9
$INSBASE
 10
0.0
 20
0.0
 30
0.0
  9
$EXTMIN
 10
-60.17500000000013
 20
-49.99956897358057
 30
0.0
  9
$EXTMAX
 10
84.08223381534557
 20
40.69723841523118
 30
0.0
  9
$LIMMIN
 10
0.0
 20
0.0
  9
$LIMMAX
 10
420.0
 20
297.0
  9
$ORTHOMODE
 70
     1
  9
$REGENMODE
 70
     1
  9
$FILLMODE
 70
     1
  9
$QTEXTMODE
 70
     0
  9
$MIRRTEXT
 70
     1
  9
$LTSCALE
 40
1.0
  9
$ATTMODE
 70
     1
  9
$TEXTSIZE
 40
3.5
  9
$TRACEWID
 40
1.0
  9
$TEXTSTYLE
  7
Standard
  9
$CLAYER
  8
0
  9
$CELTYPE
  6
ByLayer
  9
$CECOLOR
 62
   256
  9
$CELTSCALE
 40
1.0
  9
$DISPSILH
 70
     0
  9
$DIMSCALE
 40
1.0
  9
$DIMASZ
 40
3.302
  9
$DIMEXO
 40
1.0
  9
$DIMDLI
 40
3.75
  9
$DIMRND
 40
0.0
  9
$DIMDLE
 40
0.0
  9
$DIMEXE
 40
1.0
  9
$DIMTP
 40
0.0
  9
$DIMTM
 40
0.0
  9
$DIMTXT
 40
3.5
  9
$DIMCEN
 40
2.5
  9
$DIMTSZ
 40
0.0
  9
$DIMTOL
 70
     0
  9
$DIMLIM
 70
     0
  9
$DIMTIH
 70
     1
  9
$DIMTOH
 70
     1
  9
$DIMSE1
 70
     0
  9
$DIMSE2
 70
     0
  9
$DIMTAD
 70
     1
  9
$DIMZIN
 70
     0
  9
$DIMBLK
  1

  9
$DIMASO
 70
     1
  9
$DIMSHO
 70
     1
  9
$DIMPOST
  1

  9
$DIMAPOST
  1

  9
$DIMALT
 70
     0
  9
$DIMALTD
 70
     3
  9
$DIMALTF
 40
0.0393700787401575
  9
$DIMLFAC
 40
1.0
  9
$DIMTOFL
 70
     1
  9
$DIMTVP
 40
0.0
  9
$DIMTIX
 70
     0
  9
$DIMSOXD
 70
     0
  9
$DIMSAH
 70
     0
  9
$DIMBLK1
  1

  9
$DIMBLK2
  1

  9
$DIMSTYLE
  2
ISO-25
  9
$DIMCLRD
 70
     0
  9
$DIMCLRE
 70
     0
  9
$DIMCLRT
 70
     0
  9
$DIMTFAC
 40
1.0
  9
$DIMGAP
 40
1.524
  9
$DIMJUST
 70
     0
  9
$DIMSD1
 70
     0
  9
$DIMSD2
 70
     0
  9
$DIMTOLJ
 70
     0
  9
$DIMTZIN
 70
     0
  9
$DIMALTZ
 70
     0
  9
$DIMALTTZ
 70
     0
  9
$DIMUPT
 70
     0
  9
$DIMDEC
 70
     2
  9
$DIMTDEC
 70
     2
  9
$DIMALTU
 70
     2
  9
$DIMALTTD
 70
     3
  9
$DIMTXSTY
  7
Standard
  9
$DIMAUNIT
 70
     0
  9
$DIMADEC
 70
     2
  9
$DIMALTRND
 40
0.0
  9
$DIMAZIN
 70
     0
  9
$DIMDSEP
 70
    44
  9
$DIMATFIT
 70
     3
  9
$DIMFRAC
 70
     0
  9
$DIMLDRBLK
  1

  9
$DIMLUNIT
 70
     2
  9
$DIMLWD
 70
    -2
  9
$DIMLWE
 70
    -2
  9
$DIMTMOVE
 70
     0
  9
$LUNITS
 70
     2
  9
$LUPREC
 70
     2
  9
$SKETCHINC
 40
1.0
  9
$FILLETRAD
 40
10.0
  9
$AUNITS
 70
     0
  9
$AUPREC
 70
     2
  9
$MENU
  1
.
  9
$ELEVATION
 40
0.0
  9
$PELEVATION
 40
0.0
  9
$THICKNESS
 40
0.0
  9
$LIMCHECK
 70
     0
  9
$CHAMFERA
 40
0.0
  9
$CHAMFERB
 40
0.0
  9
$CHAMFERC
 40
0.0
  9
$CHAMFERD
 40
0.0
  9
$SKPOLY
 70
     0
  9
$TDCREATE
 40
2458312.630767593
  9
$TDUCREATE
 40
2458312.255767593
  9
$TDUPDATE
 40
2458330.655593009
  9
$TDUUPDATE
 40
2458330.280593009
  9
$TDINDWG
 40
0.0027927778
  9
$TDUSRTIMER
 40
2458330.2805575
  9
$USRTIMER
 70
     1
  9
$ANGBASE
 50
0.0
  9
$ANGDIR
 70
     0
  9
$PDMODE
 70
     0
  9
$PDSIZE
 40
-1.0
  9
$PLINEWID
 40
0.0
  9
$SPLFRAME
 70
     0
  9
$SPLINETYPE
 70
     6
  9
$SPLINESEGS
 70
     8
  9
$HANDSEED
  5
20E
  9
$SURFTAB1
 70
     6
  9
$SURFTAB2
 70
     6
  9
$SURFTYPE
 70
     6
  9
$SURFU
 70
     6
  9
$SURFV
 70
     6
  9
$UCSBASE
  2

  9
$UCSNAME
  2

  9
$UCSORG
 10
0.0
 20
0.0
 30
0.0
  9
$UCSXDIR
 10
1.0
 20
0.0
 30
0.0
  9
$UCSYDIR
 10
0.0
 20
1.0
 30
0.0
  9
$UCSORTHOREF
  2

  9
$UCSORTHOVIEW
 70
     0
  9
$UCSORGTOP
 10
0.0
 20
0.0
 30
0.0
  9
$UCSORGBOTTOM
 10
0.0
 20
0.0
 30
0.0
  9
$UCSORGLEFT
 10
0.0
 20
0.0
 30
0.0
  9
$UCSORGRIGHT
 10
0.0
 20
0.0
 30
0.0
  9
$UCSORGFRONT
 10
0.0
 20
0.0
 30
0.0
  9
$UCSORGBACK
 10
0.0
 20
0.0
 30
0.0
  9
$PUCSBASE
  2

  9
$PUCSNAME
  2

  9
$PUCSORG
 10
0.0
 20
0.0
 30
0.0
  9
$PUCSXDIR
 10
1.0
 20
0.0
 30
0.0
  9
$PUCSYDIR
 10
0.0
 20
1.0
 30
0.0
  9
$PUCSORTHOREF
  2

  9
$PUCSORTHOVIEW
 70
     0
  9
$PUCSORGTOP
 10
0.0
 20
0.0
 30
0.0
  9
$PUCSORGBOTTOM
 10
0.0
 20
0.0
 30
0.0
  9
$PUCSORGLEFT
 10
0.0
 20
0.0
 30
0.0
  9
$PUCSORGRIGHT
 10
0.0
 20
0.0
 30
0.0
  9
$PUCSORGFRONT
 10
0.0
 20
0.0
 30
0.0
  9
$PUCSORGBACK
 10
0.0
 20
0.0
 30
0.0
  9
$USERI1
 70
     0
  9
$USERI2
 70
     0
  9
$USERI3
 70
     0
  9
$USERI4
 70
     0
  9
$USERI5
 70
     0
  9
$USERR1
 40
0.0
  9
$USERR2
 40
0.0
  9
$USERR3
 40
0.0
  9
$USERR4
 40
0.0
  9
$USERR5
 40
0.0
  9
$WORLDVIEW
 70
     1
  9
$SHADEDGE
 70
     3
  9
$SHADEDIF
 70
    70
  9
$TILEMODE
 70
     1
  9
$MAXACTVP
 70
    64
  9
$PINSBASE
 10
0.0
 20
0.0
 30
0.0
  9
$PLIMCHECK
 70
     0
  9
$PEXTMIN
 10
1.000000000000000E+20
 20
1.000000000000000E+20
 30
1.000000000000000E+20
  9
$PEXTMAX
 10
-1.000000000000000E+20
 20
-1.000000000000000E+20
 30
-1.000000000000000E+20
  9
$PLIMMIN
 10
0.0
 20
0.0
  9
$PLIMMAX
 10
0.0
 20
0.0
  9
$UNITMODE
 70
     0
  9
$VISRETAIN
 70
     1
  9
$PLINEGEN
 70
     0
  9
$PSLTSCALE
 70
     1
  9
$TREEDEPTH
 70
  3020
  9
$CMLSTYLE
  2
Standard
  9
$CMLJUST
 70
     0
  9
$CMLSCALE
 40
20.0
  9
$PROXYGRAPHICS
 70
     1
  9
$MEASUREMENT
 70
     1
  9
$CELWEIGHT
370
    -1
  9
$ENDCAPS
280
     0
  9
$JOINSTYLE
280
     0
  9
$LWDISPLAY
290
     1
  9
$INSUNITS
 70
     4
  9
$HYPERLINKBASE
  1

  9
$STYLESHEET
  1

  9
$XEDIT
290
     1
  9
$CEPSNTYPE
380
     0
  9
$PSTYLEMODE
290
     1
  9
$FINGERPRINTGUID
  2
{1676D6D6-6251-4DEE-B5ED-5F0D22E7ECCD}
  9
$VERSIONGUID
  2
{FAEB1C32-E019-11D5-929B-00C0DF256EC4}
  9
$EXTNAMES
290
     1
  9
$PSVPSCALE
 40
0.0
  9
$OLESTARTUP
290
     0
  0
ENDSEC
  0
SECTION
  2
CLASSES
  0
CLASS
  1
ACDBDICTIONARYWDFLT
  2
AcDbDictionaryWithDefault
  3
ObjectDBX Classes
 90
        0
280
     0
281
     0
  0
CLASS
  1
VISUALSTYLE
  2
AcDbVisualStyle
  3
ObjectDBX Classes
 90
     4095
280
     0
281
     0
  0
CLASS
  1
MATERIAL
  2
AcDbMaterial
  3
ObjectDBX Classes
 90
     1153
280
     0
281
     0
  0
CLASS
  1
SCALE
  2
AcDbScale
  3
ObjectDBX Classes
 90
     1153
280
     0
281
     0
  0
CLASS
  1
SUN
  2
AcDbSun
  3
SCENEOE
 90
     1153
280
     0
281
     0
  0
CLASS
  1
ACDBPLACEHOLDER
  2
AcDbPlaceHolder
  3
ObjectDBX Classes
 90
        0
280
     0
281
     0
  0
CLASS
  1
LAYOUT
  2
AcDbLayout
  3
ObjectDBX Classes
 90
        0
280
     0
281
     0
  0
CLASS
  1
TABLESTYLE
  2
AcDbTableStyle
  3
ObjectDBX Classes
 90
     4095
280
     0
281
     0
  0
CLASS
  1
MLEADERSTYLE
  2
AcDbMLeaderStyle
  3
ACDB_MLEADERSTYLE_CLASS
 90
     4095
280
     0
281
     0
  0
CLASS
  1
DICTIONARYVAR
  2
AcDbDictionaryVar
  3
ObjectDBX Classes
 90
        0
280
     0
281
     0
  0
CLASS
  1
RASTERVARIABLES
  2
AcDbRasterVariables
  3
ISM
 90
        0
280
     0
281
     0
  0
ENDSEC
  0
SECTION
  2
TABLES
  0
TABLE
  2
VPORT
  5
8
330
0
100
AcDbSymbolTable
 70
     1
  0
VPORT
  5
29
330
8
100
AcDbSymbolTableRecord
100
AcDbViewportTableRecord
  2
*Active
 70
     0
 10
0.0
 20
0.0
 11
1.0
 21
1.0
 12
11.95361690767272
 22
-4.651165279174691
 13
0.0
 23
0.0
 14
10.0
 24
10.0
 15
10.0
 25
10.0
 16
0.0
 26
0.0
 36
1.0
 17
0.0
 27
0.0
 37
0.0
 40
92.51074353658798
 41
1.782762691853601
 42
50.0
 43
0.0
 44
0.0
 50
0.0
 51
0.0
 71
    16
 72
  2000
 73
     1
 74
     3
 75
     0
 76
     0
 77
     0
 78
     0
281
     0
 65
     1
110
0.0
120
0.0
130
0.0
111
1.0
121
0.0
131
0.0
112
0.0
122
1.0
132
0.0
 79
     0
146
0.0
  0
ENDTAB
  0
TABLE
  2
LTYPE
  5
5
330
0
100
AcDbSymbolTable
 70
     6
  0
LTYPE
  5
14
330
5
100
AcDbSymbolTableRecord
100
AcDbLinetypeTableRecord
  2
ByBlock
 70
     0
  3

 72
    65
 73
     0
 40
0.0
  0
LTYPE
  5
15
330
5
100
AcDbSymbolTableRecord
100
AcDbLinetypeTableRecord
  2
ByLayer
 70
     0
  3

 72
    65
 73
     0
 40
0.0
  0
LTYPE
  5
16
330
5
100
AcDbSymbolTableRecord
100
AcDbLinetypeTableRecord
  2
Continuous
 70
     0
  3
Solid line
 72
    65
 73
     0
 40
0.0
  0
LTYPE
  5
6A
330
5
100
AcDbSymbolTableRecord
100
AcDbLinetypeTableRecord
  2
HIDDEN
 70
     0
  3
Hidden __ __ __ __ __ __ __ __ __ __ __ __ __ __
 72
    65
 73
     2
 40
1.905
 49
1.27
 74
     0
 49
-0.635
 74
     0
  0
LTYPE
  5
6B
330
5
100
AcDbSymbolTableRecord
100
AcDbLinetypeTableRecord
  2
PHANTOM
 70
     0
  3
Phantom ______  __  __  ______  __  __  ______
 72
    65
 73
     6
 40
12.7
 49
6.35
 74
     0
 49
-1.27
 74
     0
 49
1.27
 74
     0
 49
-1.27
 74
     0
 49
1.27
 74
     0
 49
-1.27
 74
     0
  0
LTYPE
  5
6C
330
5
100
AcDbSymbolTableRecord
100
AcDbLinetypeTableRecord
  2
CENTER
 70
     0
  3
Center ____ _ ____ _ ____ _ ____ _ ____ _ ____
 72
    65
 73
     4
 40
10.16
 49
6.35
 74
     0
 49
-1.27
 74
     0
 49
1.27
 74
     0
 49
-1.27
 74
     0
  0
LTYPE
  5
6D
330
5
100
AcDbSymbolTableRecord
100
AcDbLinetypeTableRecord
  2
CENTERX2
 70
     0
  3
Center (2x) ________  __  ________  __  _____
 72
    65
 73
     4
 40
20.32
 49
12.7
 74
     0
 49
-2.54
 74
     0
 49
2.54
 74
     0
 49
-2.54
 74
     0
  0
LTYPE
  5
6E
330
5
100
AcDbSymbolTableRecord
100
AcDbLinetypeTableRecord
  2
DOT2
 70
     0
  3
Dot (.5x) ........................................
 72
    65
 73
     2
 40
0.635
 49
0.0
 74
     0
 49
-0.635
 74
     0
  0
ENDTAB
  0
TABLE
  2
LAYER
  5
2
102
{ACAD_XDICTIONARY
360
185
102
}
330
0
100
AcDbSymbolTable
 70
    18
  0
LAYER
  5
10
330
2
100
AcDbSymbolTableRecord
100
AcDbLayerTableRecord
  2
0
 70
     0
 62
     7
  6
Continuous
370
    -3
390
F
  0
LAYER
  5
6F
330
2
100
AcDbSymbolTableRecord
100
AcDbLayerTableRecord
  2
FORMAT
 70
     0
 62
     2
  6
Continuous
370
    -3
390
F
  0
LAYER
  5
70
330
2
100
AcDbSymbolTableRecord
100
AcDbLayerTableRecord
  2
외형선
 70
     0
 62
     4
  6
Continuous
370
    30
390
F
  0
LAYER
  5
71
330
2
100
AcDbSymbolTableRecord
100
AcDbLayerTableRecord
  2
숨은선
 70
     0
 62
     2
  6
HIDDEN
370
    15
390
F
  0
LAYER
  5
72
330
2
100
AcDbSymbolTableRecord
100
AcDbLayerTableRecord
  2
중심선
 70
     0
 62
     1
  6
CENTERX2
370
    -3
390
F
  0
LAYER
  5
73
330
2
100
AcDbSymbolTableRecord
100
AcDbLayerTableRecord
  2
파단선
 70
     0
 62
     4
  6
Continuous
370
    -3
390
F
  0
LAYER
  5
74
330
2
100
AcDbSymbolTableRecord
100
AcDbLayerTableRecord
  2
해칭선
 70
     0
 62
   100
  6
Continuous
370
    -3
390
F
  0
LAYER
  5
75
330
2
100
AcDbSymbolTableRecord
100
AcDbLayerTableRecord
  2
가는실선
 70
     0
 62
     4
  6
Continuous
370
    -3
390
F
  0
LAYER
  5
76
330
2
100
AcDbSymbolTableRecord
100
AcDbLayerTableRecord
  2
치수_보조선
 70
     0
 62
     4
  6
Continuous
370
    -3
390
F
  0
LAYER
  5
77
330
2
100
AcDbSymbolTableRecord
100
AcDbLayerTableRecord
  2
치수문자_일반주서
 70
     0
 62
     7
  6
Continuous
370
    15
390
F
  0
LAYER
  5
78
330
2
100
AcDbSymbolTableRecord
100
AcDbLayerTableRecord
  2
개별주서
 70
     0
 62
   100
  6
Continuous
370
    30
390
F
  0
LAYER
  5
79
330
2
100
AcDbSymbolTableRecord
100
AcDbLayerTableRecord
  2
중간선
 70
     0
 62
     2
  6
Continuous
370
    15
390
F
  0
LAYER
  5
7A
330
2
100
AcDbSymbolTableRecord
100
AcDbLayerTableRecord
  2
윤곽선
 70
     0
 62
     3
  6
Continuous
370
    40
390
F
  0
LAYER
  5
7B
330
2
100
AcDbSymbolTableRecord
100
AcDbLayerTableRecord
  2
중심마크
 70
     0
 62
   100
  6
Continuous
370
    30
390
F
  0
LAYER
  5
7C
330
2
100
AcDbSymbolTableRecord
100
AcDbLayerTableRecord
  2
가상선
 70
     0
 62
     4
  6
PHANTOM
370
    -3
390
F
  0
LAYER
  5
7D
330
2
100
AcDbSymbolTableRecord
100
AcDbLayerTableRecord
  2
특수지정선
 70
     0
 62
     5
  6
CENTERX2
370
    60
390
F
  0
LAYER
  5
7E
330
2
100
AcDbSymbolTableRecord
100
AcDbLayerTableRecord
  2
참조1
 70
     0
 62
    -4
  6
Continuous
370
    -3
390
F
  0
LAYER
  5
151
330
2
100
AcDbSymbolTableRecord
100
AcDbLayerTableRecord
  2
Defpoints
 70
     0
 62
     7
  6
Continuous
290
     0
370
    -3
390
F
  0
ENDTAB
  0
TABLE
  2
STYLE
  5
3
330
0
100
AcDbSymbolTable
 70
     2
  0
STYLE
  5
11
330
3
100
AcDbSymbolTableRecord
100
AcDbTextStyleTableRecord
  2
Standard
 70
     0
 40
0.0
 41
1.0
 50
0.0
 71
     0
 42
3.5
  3
txt
  4

  0
STYLE
  5
94
330
3
100
AcDbSymbolTableRecord
100
AcDbTextStyleTableRecord
  2
SLDTEXTSTYLE0
 70
     0
 40
0.0
 41
0.75
 50
0.0
 71
     0
 42
3.5
  3
TXT
  4

  0
ENDTAB
  0
TABLE
  2
VIEW
  5
6
330
0
100
AcDbSymbolTable
 70
     0
  0
ENDTAB
  0
TABLE
  2
UCS
  5
7
330
0
100
AcDbSymbolTable
 70
     0
  0
ENDTAB
  0
TABLE
  2
APPID
  5
9
330
0
100
AcDbSymbolTable
 70
     4
  0
APPID
  5
12
330
9
100
AcDbSymbolTableRecord
100
AcDbRegAppTableRecord
  2
ACAD
 70
     0
  0
APPID
  5
158
330
9
100
AcDbSymbolTableRecord
100
AcDbRegAppTableRecord
  2
PE_URL
 70
     0
  0
APPID
  5
1E8
330
9
100
AcDbSymbolTableRecord
100
AcDbRegAppTableRecord
  2
ACAD_DSTYLE_DIMFLIPARROW_SYMBOL
 70
     0
  0
APPID
  5
1E9
330
9
100
AcDbSymbolTableRecord
100
AcDbRegAppTableRecord
  2
ACAD_DSTYLE_DIMFLIPARROW_WHICH_SYMBOL
 70
     0
  0
ENDTAB
  0
TABLE
  2
DIMSTYLE
  5
A
330
0
100
AcDbSymbolTable
 70
     4
100
AcDbDimStyleTable
  0
DIMSTYLE
105
27
330
A
100
AcDbSymbolTableRecord
100
AcDbDimStyleTableRecord
  2
ISO-25
 70
     0
 41
2.5
 42
0.625
 43
3.75
 44
1.25
 73
     0
 74
     0
 77
     1
 78
     8
140
2.5
141
2.5
143
0.03937007874016
147
0.625
171
     3
172
     1
178
     0
271
     2
272
     2
274
     3
278
    44
283
     0
284
     8
340
11
  0
DIMSTYLE
105
D0
102
{ACAD_REACTORS
330
CF
330
E4
330
10C
330
F7
102
}
330
A
100
AcDbSymbolTableRecord
100
AcDbDimStyleTableRecord
  2
SLDDIMSTYLE0
 70
     0
 41
3.302
 44
0.0
 45
0.000000001
 73
     0
 74
     0
 77
     1
 78
     4
 79
     1
140
3.5
143
0.0393700787401575
147
0.875
148
0.000000001
170
     1
173
     1
178
     0
271
     2
272
     2
276
     2
284
    12
340
94
  0
DIMSTYLE
105
F8
330
A
100
AcDbSymbolTableRecord
100
AcDbDimStyleTableRecord
  2
SLDDIMSTYLE1
 70
     0
 41
3.302
 44
0.0
 45
0.000000001
 73
     0
 74
     0
 77
     1
 78
     4
 79
     1
140
3.5
143
0.0393700787401575
147
0.875
148
0.000000001
170
     1
172
     1
173
     1
178
     0
271
     2
272
     2
276
     2
284
    12
289
     0
340
94
  0
DIMSTYLE
105
10D
330
A
100
AcDbSymbolTableRecord
100
AcDbDimStyleTableRecord
  2
SLDDIMSTYLE2
 70
     0
 41
3.302
 44
0.0
 45
0.000000001
 73
     0
 74
     0
 77
     1
 78
    12
 79
     3
140
3.5
143
0.0393700787401575
147
0.875
148
0.000000001
170
     1
173
     1
178
     0
271
     2
272
     2
276
     2
284
    12
340
94
  0
ENDTAB
  0
TABLE
  2
BLOCK_RECORD
  5
1
330
0
100
AcDbSymbolTable
 70
     9
  0
BLOCK_RECORD
  5
1F
330
1
100
AcDbSymbolTableRecord
100
AcDbBlockTableRecord
  2
*Model_Space
340
22
  0
BLOCK_RECORD
  5
1B
330
1
100
AcDbSymbolTableRecord
100
AcDbBlockTableRecord
  2
*Paper_Space
340
1E
  0
BLOCK_RECORD
  5
23
330
1
100
AcDbSymbolTableRecord
100
AcDbBlockTableRecord
  2
*Paper_Space0
340
26
  0
BLOCK_RECORD
  5
7F
330
1
100
AcDbSymbolTableRecord
100
AcDbBlockTableRecord
  2
블럭10
340
0
102
{BLKREFS
331
C8
102
}
  0
BLOCK_RECORD
  5
D1
330
1
100
AcDbSymbolTableRecord
100
AcDbBlockTableRecord
  2
_D
340
0
  0
BLOCK_RECORD
  5
E5
330
1
100
AcDbSymbolTableRecord
100
AcDbBlockTableRecord
  2
_D_1
340
0
  0
BLOCK_RECORD
  5
F9
330
1
100
AcDbSymbolTableRecord
100
AcDbBlockTableRecord
  2
_D_2
340
0
  0
BLOCK_RECORD
  5
10E
330
1
100
AcDbSymbolTableRecord
100
AcDbBlockTableRecord
  2
_D_3
340
0
  0
BLOCK_RECORD
  5
127
330
1
100
AcDbSymbolTableRecord
100
AcDbBlockTableRecord
  2
SW_DOWELSYMBOL_0
340
0
102
{BLKREFS
331
12D
102
}
  0
BLOCK_RECORD
  5
189
330
1
100
AcDbSymbolTableRecord
100
AcDbBlockTableRecord
  2
*D7
340
0
  0
BLOCK_RECORD
  5
198
330
1
100
AcDbSymbolTableRecord
100
AcDbBlockTableRecord
  2
*D8
340
0
  0
ENDTAB
  0
ENDSEC
  0
SECTION
  2
BLOCKS
  0
BLOCK
  5
20
330
1F
100
AcDbEntity
  8
0
100
AcDbBlockBegin
  2
*Model_Space
 70
     0
 10
0.0
 20
0.0
 30
0.0
  3
*Model_Space
  1
*Model_Space
  0
ENDBLK
  5
21
330
1F
100
AcDbEntity
  8
0
100
AcDbBlockEnd
  0
BLOCK
  5
1C
330
1B
100
AcDbEntity
 67
     1
  8
0
100
AcDbBlockBegin
  2
*Paper_Space
 70
     0
 10
0.0
 20
0.0
 30
0.0
  3
*Paper_Space
  1
*Paper_Space
  0
ENDBLK
  5
1D
330
1B
100
AcDbEntity
 67
     1
  8
0
100
AcDbBlockEnd
  0
BLOCK
  5
24
330
23
100
AcDbEntity
  8
0
100
AcDbBlockBegin
  2
*Paper_Space0
 70
     0
 10
0.0
 20
0.0
 30
0.0
  3
*Paper_Space0
  1
*Paper_Space0
  0
ENDBLK
  5
25
330
23
100
AcDbEntity
  8
0
100
AcDbBlockEnd
  0
BLOCK
  5
80
330
7F
100
AcDbEntity
  8
0
100
AcDbBlockBegin
  2
블럭10
 70
     2
 10
0.0
 20
0.0
 30
0.0
  3
블럭10
  1
블럭10
  0
ELLIPSE
  5
82
330
7F
100
AcDbEntity
  8
중심선
100
AcDbEllipse
 10
20.54032771741204
 20
12.0471743016438
 30
0.0
 11
6.600054785286829
 21
-1.261213355974178E-13
 31
0.0
210
0.0
220
0.0
230
1.0
 40
0.636358354079598
 41
0.9219305317359503
 42
6.513795318482858
  0
ELLIPSE
  5
83
330
7F
100
AcDbEntity
  8
중심선
100
AcDbEllipse
 10
20.54032771746488
 20
12.04717430159265
 30
0.0
 11
3.960054785062283
 21
1.540847449632565E-10
 31
0.0
210
0.0
220
0.0
230
1.0
 40
0.3939339440162632
 41
1.131841032648279
 42
5.62031148352944
  0
LINE
  5
84
330
7F
100
AcDbEntity
  8
중심선
100
AcDbLine
 10
2.268634060543552
 20
16.24717430164393
 30
0.0
 11
5.714909304380834
 21
16.24717430164393
 31
0.0
  0
LINE
  5
85
330
7F
100
AcDbEntity
  8
중심선
100
AcDbLine
 10
5.245725140726316
 20
7.84717430164391
 30
0.0
 11
8.692000384563599
 21
7.84717430164391
 31
0.0
  0
LINE
  5
86
330
7F
100
AcDbEntity
  8
중심선
100
AcDbLine
 10
15.74043728645272
 20
16.24717430164393
 30
0.0
 11
8.692000384563599
 21
7.84717430164391
 31
0.0
  0
LINE
  5
87
330
7F
100
AcDbEntity
  8
중심선
100
AcDbLine
 10
0.1404042013395286
 20
13.71084872107135
 30
0.0
 11
3.58671253028996
 21
13.71088815037384
 31
0.0
  0
LINE
  5
88
330
7F
100
AcDbEntity
  8
중심선
100
AcDbLine
 10
2.750260043222114
 20
10.84717430164391
 30
0.0
 11
6.196535287059397
 21
10.84717430164391
 31
0.0
  0
LINE
  5
89
330
7F
100
AcDbEntity
  8
중심선
100
AcDbLine
 10
12.29416204261559
 20
16.24717430164393
 30
0.0
 11
5.245725140726316
 21
7.84717430164391
 31
0.0
  0
LINE
  5
8A
330
7F
100
AcDbEntity
  8
중심선
100
AcDbLine
 10
10.72767329541681
 20
16.24717430164393
 30
0.0
 11
6.196535287059397
 21
10.84717430164391
 31
0.0
  0
LINE
  5
8B
330
7F
100
AcDbEntity
  8
중심선
100
AcDbLine
 10
7.28139805157953
 20
16.24717430164393
 30
0.0
 11
2.750260043222114
 21
10.84717430164391
 31
0.0
  0
LINE
  5
8C
330
7F
100
AcDbEntity
  8
중심선
100
AcDbLine
 10
5.714909304380834
 20
16.24717430164393
 30
0.0
 11
3.58671253028996
 21
13.71088815037384
 31
0.0
  0
LINE
  5
8D
330
7F
100
AcDbEntity
  8
중심선
100
AcDbLine
 10
2.268634060543552
 20
16.24717430164393
 30
0.0
 11
0.1404042013395286
 21
13.71084872107135
 31
0.0
  0
LINE
  5
8E
330
7F
100
AcDbEntity
  8
중심선
100
AcDbLine
 10
7.28139805157953
 20
16.24717430164393
 30
0.0
 11
10.72767329541681
 21
16.24717430164393
 31
0.0
  0
LINE
  5
8F
330
7F
100
AcDbEntity
  8
중심선
100
AcDbLine
 10
12.29416204261559
 20
16.24717430164393
 30
0.0
 11
15.74043728645272
 21
16.24717430164393
 31
0.0
  0
LINE
  5
90
330
7F
100
AcDbEntity
  8
중심선
100
AcDbLine
 10
19.22036997980202
 20
11.08717430171403
 30
0.0
 11
23.66174974927406
 21
11.08717430171406
 31
0.0
  0
LINE
  5
91
330
7F
100
AcDbEntity
  8
중심선
100
AcDbLine
 10
19.22039502424796
 20
13.00717430171391
 30
0.0
 11
19.22036997980202
 21
11.08717430171403
 31
0.0
  0
LINE
  5
92
330
7F
100
AcDbEntity
  8
중심선
100
AcDbLine
 10
19.22039502424796
 20
13.00717430171391
 30
0.0
 11
26.96566020931264
 21
13.00717430171391
 31
0.0
  0
LINE
  5
93
330
7F
100
AcDbEntity
  8
중심선
100
AcDbLine
 10
22.22332737316547
 20
13.45928029700563
 30
0.0
 11
24.52862924686651
 21
15.39360700705356
 31
0.0
  0
ATTDEF
  5
95
330
7F
100
AcDbEntity
  8
FORMAT
 62
     2
100
AcDbText
 10
4.408487351596664
 20
2.075366912832191
 30
0.0
 40
4.233333333333333
  1
E1040032
 41
0.75
  7
SLDTEXTSTYLE0
 11
4.408487351596664
 21
-0.0412997538344756
 31
0.0
100
AcDbAttributeDefinition
  3

  2
AUTOATTR0
 70
     0
 74
     1
  0
ENDBLK
  5
81
330
7F
100
AcDbEntity
  8
0
100
AcDbBlockEnd
  0
BLOCK
  5
D2
330
D1
100
AcDbEntity
  8
0
100
AcDbBlockBegin
  2
_D
 70
     0
 10
0.0
 20
0.0
 30
0.0
  3
_D
  1
_D
  0
LINE
  5
D4
330
D1
100
AcDbEntity
  8
치수문자_일반주서
 62
     0
370
    -2
100
AcDbLine
 10
60.79999999999998
 20
6.361386871436041
 30
0.0
 11
60.79999999999998
 21
21.34181264333361
 31
0.0
  0
LINE
  5
D5
330
D1
100
AcDbEntity
  8
치수문자_일반주서
 62
     0
370
    -2
100
AcDbLine
 10
9.999999999999968
 20
6.38454694229358
 30
0.0
 11
9.999999999999968
 21
21.34181264333361
 31
0.0
  0
LINE
  5
D6
330
D1
100
AcDbEntity
  8
치수문자_일반주서
 62
     0
370
    -2
100
AcDbLine
 10
57.49799999999998
 20
21.34181264333361
 30
0.0
 11
13.30199999999997
 21
21.34181264333361
 31
0.0
  0
SOLID
  5
D7
330
D1
100
AcDbEntity
  8
치수문자_일반주서
 62
     0
100
AcDbTrace
 10
57.49799999999998
 20
20.79147931000028
 30
0.0
 11
57.49799999999998
 21
21.89214597666695
 31
0.0
 12
60.79999999999998
 22
21.34181264333361
 32
0.0
 13
60.79999999999998
 23
21.34181264333361
 33
0.0
  0
SOLID
  5
D8
330
D1
100
AcDbEntity
  8
치수문자_일반주서
 62
     0
100
AcDbTrace
 10
13.30199999999997
 20
21.89214597666695
 30
0.0
 11
13.30199999999997
 21
20.79147931000028
 31
0.0
 12
9.999999999999968
 22
21.34181264333361
 32
0.0
 13
9.999999999999968
 23
21.34181264333361
 33
0.0
  0
MTEXT
  5
D9
330
D1
100
AcDbEntity
  8
치수문자_일반주서
 62
     0
100
AcDbMText
 10
35.39999999999998
 20
25.71681264333361
 30
0.0
 40
3.5
 41
0.0
 71
     2
 72
     1
  1
\A1;50.80 [2]
  7
SLDTEXTSTYLE0
 73
     1
 44
1.0
  0
POINT
  5
DA
330
D1
100
AcDbEntity
  8
Defpoints
 62
     0
100
AcDbPoint
 10
60.79999999999998
 20
6.298886871436041
 30
0.0
  0
POINT
  5
DB
330
D1
100
AcDbEntity
  8
Defpoints
 62
     0
100
AcDbPoint
 10
9.999999999999968
 20
6.32204694229358
 30
0.0
  0
POINT
  5
DC
330
D1
100
AcDbEntity
  8
Defpoints
 62
     0
100
AcDbPoint
 10
9.999999999999968
 20
21.34181264333361
 30
0.0
  0
ENDBLK
  5
D3
330
D1
100
AcDbEntity
  8
0
100
AcDbBlockEnd
  0
BLOCK
  5
E6
330
E5
100
AcDbEntity
  8
0
100
AcDbBlockBegin
  2
_D_1
 70
     0
 10
0.0
 20
0.0
 30
0.0
  3
_D_1
  1
_D_1
  0
LINE
  5
E8
330
E5
100
AcDbEntity
  8
치수문자_일반주서
 62
     0
370
    -2
100
AcDbLine
 10
60.79999999999998
 20
6.361386871436041
 30
0.0
 11
60.79999999999998
 21
36.32223841523118
 31
0.0
  0
LINE
  5
E9
330
E5
100
AcDbEntity
  8
치수문자_일반주서
 62
     0
370
    -2
100
AcDbLine
 10
-40.80000000000002
 20
5.114738415231185
 30
0.0
 11
-40.80000000000003
 21
36.32223841523118
 31
0.0
  0
LINE
  5
EA
330
E5
100
AcDbEntity
  8
치수문자_일반주서
 62
     0
370
    -2
100
AcDbLine
 10
57.49799999999998
 20
36.32223841523118
 30
0.0
 11
-37.49800000000003
 21
36.32223841523118
 31
0.0
  0
SOLID
  5
EB
330
E5
100
AcDbEntity
  8
치수문자_일반주서
 62
     0
100
AcDbTrace
 10
57.49799999999998
 20
35.77190508189784
 30
0.0
 11
57.49799999999998
 21
36.87257174856451
 31
0.0
 12
60.79999999999998
 22
36.32223841523118
 32
0.0
 13
60.79999999999998
 23
36.32223841523118
 33
0.0
  0
SOLID
  5
EC
330
E5
100
AcDbEntity
  8
치수문자_일반주서
 62
     0
100
AcDbTrace
 10
-37.49800000000003
 20
36.87257174856451
 30
0.0
 11
-37.49800000000003
 21
35.77190508189784
 31
0.0
 12
-40.80000000000003
 22
36.32223841523118
 32
0.0
 13
-40.80000000000003
 23
36.32223841523118
 33
0.0
  0
MTEXT
  5
ED
330
E5
100
AcDbEntity
  8
치수문자_일반주서
 62
     0
100
AcDbMText
 10
9.999999999999986
 20
40.69723841523118
 30
0.0
 40
3.5
 41
0.0
 71
     2
 72
     1
  1
\A1;101.60 [4]
  7
SLDTEXTSTYLE0
 73
     1
 44
1.0
  0
POINT
  5
EE
330
E5
100
AcDbEntity
  8
Defpoints
 62
     0
100
AcDbPoint
 10
60.79999999999998
 20
6.298886871436041
 30
0.0
  0
POINT
  5
EF
330
E5
100
AcDbEntity
  8
Defpoints
 62
     0
100
AcDbPoint
 10
-40.80000000000002
 20
5.052238415231185
 30
0.0
  0
POINT
  5
F0
330
E5
100
AcDbEntity
  8
Defpoints
 62
     0
100
AcDbPoint
 10
-40.80000000000002
 20
36.32223841523118
 30
0.0
  0
ENDBLK
  5
E7
330
E5
100
AcDbEntity
  8
0
100
AcDbBlockEnd
  0
BLOCK
  5
FA
330
F9
100
AcDbEntity
  8
0
100
AcDbBlockBegin
  2
_D_2
 70
     0
 10
0.0
 20
0.0
 30
0.0
  3
_D_2
  1
_D_2
  0
LINE
  5
FC
330
F9
100
AcDbEntity
  8
치수문자_일반주서
 62
     0
370
    -2
100
AcDbLine
 10
-39.59250000000002
 20
6.322238415231177
 30
0.0
 11
-55.80000000000003
 21
6.322238415231116
 31
0.0
  0
LINE
  5
FD
330
F9
100
AcDbEntity
  8
치수문자_일반주서
 62
     0
370
    -2
100
AcDbLine
 10
-39.59250000000002
 20
-6.377761584768812
 30
0.0
 11
-55.79999999999999
 21
-6.377761584768873
 31
0.0
  0
LINE
  5
FE
330
F9
100
AcDbEntity
  8
치수문자_일반주서
 62
     0
370
    -2
100
AcDbLine
 10
-55.80000000000003
 20
6.322238415231116
 30
0.0
 11
-55.80000000000013
 21
36.31173841523113
 31
0.0
  0
LINE
  5
FF
330
F9
100
AcDbEntity
  8
치수문자_일반주서
 62
     0
370
    -2
100
AcDbLine
 10
-55.80000000000003
 20
6.322238415231116
 30
0.0
 11
-55.79999999999999
 21
-6.377761584768873
 31
0.0
  0
LINE
  5
100
330
F9
100
AcDbEntity
  8
치수문자_일반주서
 62
     0
370
    -2
100
AcDbLine
 10
-55.80000000000005
 20
9.624238415231115
 30
0.0
 11
-55.80000000000006
 21
12.92623841523111
 31
0.0
  0
LINE
  5
101
330
F9
100
AcDbEntity
  8
치수문자_일반주서
 62
     0
370
    -2
100
AcDbLine
 10
-55.79999999999998
 20
-9.679761584768872
 30
0.0
 11
-55.79999999999996
 21
-12.98176158476887
 31
0.0
  0
SOLID
  5
102
330
F9
100
AcDbEntity
  8
치수문자_일반주서
 62
     0
100
AcDbTrace
 10
-56.35033333333338
 20
9.624238415231114
 30
0.0
 11
-55.24966666666671
 21
9.624238415231117
 31
0.0
 12
-55.80000000000003
 22
6.322238415231116
 32
0.0
 13
-55.80000000000003
 23
6.322238415231116
 33
0.0
  0
SOLID
  5
103
330
F9
100
AcDbEntity
  8
치수문자_일반주서
 62
     0
100
AcDbTrace
 10
-55.24966666666664
 20
-9.67976158476887
 30
0.0
 11
-56.35033333333331
 21
-9.679761584768874
 31
0.0
 12
-55.79999999999999
 22
-6.377761584768873
 32
0.0
 13
-55.79999999999999
 23
-6.377761584768873
 33
0.0
  0
MTEXT
  5
104
330
F9
100
AcDbEntity
  8
치수문자_일반주서
 62
     0
100
AcDbMText
 10
-60.17500000000009
 20
22.96798841523111
 30
0.0
 40
3.5
 41
0.0
 71
     2
 72
     1
  1
\A1;%%c12.70 [1/2]
  7
SLDTEXTSTYLE0
 11
-3.356894814614650E-15
 21
1.0
 31
0.0
 73
     1
 44
1.0
  0
POINT
  5
1E1
330
F9
100
AcDbEntity
  8
Defpoints
 62
     0
100
AcDbPoint
 10
-39.53000000000002
 20
6.322238415231177
 30
0.0
  0
POINT
  5
1E2
330
F9
100
AcDbEntity
  8
Defpoints
 62
     0
100
AcDbPoint
 10
-39.53000000000002
 20
-6.377761584768812
 30
0.0
  0
POINT
  5
1E3
330
F9
100
AcDbEntity
  8
Defpoints
 62
     0
100
AcDbPoint
 10
-55.79999999999999
 20
-6.377761584768872
 30
0.0
  0
ENDBLK
  5
FB
330
F9
100
AcDbEntity
  8
0
100
AcDbBlockEnd
  0
BLOCK
  5
10F
330
10E
100
AcDbEntity
  8
0
100
AcDbBlockBegin
  2
_D_3
 70
     0
 10
0.0
 20
0.0
 30
0.0
  3
_D_3
  1
_D_3
  0
LINE
  5
111
330
10E
100
AcDbEntity
  8
치수문자_일반주서
 62
     0
370
    -2
100
AcDbLine
 10
60.86249999999998
 20
-6.354410040973676
 30
0.0
 11
75.80000000000003
 21
-6.354410040973619
 31
0.0
  0
LINE
  5
112
330
10E
100
AcDbEntity
  8
치수문자_일반주서
 62
     0
370
    -2
100
AcDbLine
 10
60.86249999999998
 20
6.298886871436041
 30
0.0
 11
75.79999999999998
 21
6.2988868714361
 31
0.0
  0
LINE
  5
113
330
10E
100
AcDbEntity
  8
치수문자_일반주서
 62
     0
370
    -2
100
AcDbLine
 10
75.79999999999998
 20
6.2988868714361
 30
0.0
 11
75.79999999999988
 21
36.7258868714361
 31
0.0
  0
LINE
  5
114
330
10E
100
AcDbEntity
  8
치수문자_일반주서
 62
     0
370
    -2
100
AcDbLine
 10
75.80000000000003
 20
-6.354410040973619
 30
0.0
 11
75.79999999999998
 21
6.2988868714361
 31
0.0
  0
LINE
  5
115
330
10E
100
AcDbEntity
  8
치수문자_일반주서
 62
     0
370
    -2
100
AcDbLine
 10
75.80000000000004
 20
-9.656410040973618
 30
0.0
 11
75.80000000000005
 21
-12.95841004097362
 31
0.0
  0
LINE
  5
116
330
10E
100
AcDbEntity
  8
치수문자_일반주서
 62
     0
370
    -2
100
AcDbLine
 10
75.79999999999997
 20
9.6008868714361
 30
0.0
 11
75.79999999999995
 21
12.9028868714361
 31
0.0
  0
SOLID
  5
117
330
10E
100
AcDbEntity
  8
치수문자_일반주서
 62
     0
100
AcDbTrace
 10
76.35033333333337
 20
-9.656410040973617
 30
0.0
 11
75.24966666666671
 21
-9.65641004097362
 31
0.0
 12
75.80000000000003
 22
-6.354410040973619
 32
0.0
 13
75.80000000000003
 23
-6.354410040973619
 33
0.0
  0
SOLID
  5
118
330
10E
100
AcDbEntity
  8
치수문자_일반주서
 62
     0
100
AcDbTrace
 10
75.24966666666664
 20
9.600886871436098
 30
0.0
 11
76.3503333333333
 21
9.600886871436101
 31
0.0
 12
75.79999999999998
 22
6.2988868714361
 32
0.0
 13
75.79999999999998
 23
6.2988868714361
 33
0.0
  0
MTEXT
  5
119
330
10E
100
AcDbEntity
  8
치수문자_일반주서
 62
     0
100
AcDbMText
 10
71.42499999999993
 20
23.16338687143609
 30
0.0
 40
3.5
 41
0.0
 71
     2
 72
     1
  1
\A1;%%c12.65 [1/2]
  7
SLDTEXTSTYLE0
 11
-3.369285052008393E-15
 21
1.0
 31
0.0
 73
     1
 44
1.0
  0
POINT
  5
1E4
330
10E
100
AcDbEntity
  8
Defpoints
 62
     0
100
AcDbPoint
 10
60.79999999999998
 20
-6.354410040973676
 30
0.0
  0
POINT
  5
1E5
330
10E
100
AcDbEntity
  8
Defpoints
 62
     0
100
AcDbPoint
 10
60.79999999999998
 20
6.298886871436041
 30
0.0
  0
POINT
  5
1E6
330
10E
100
AcDbEntity
  8
Defpoints
 62
     0
100
AcDbPoint
 10
75.79999999999998
 20
6.298886871436097
 30
0.0
  0
ENDBLK
  5
110
330
10E
100
AcDbEntity
  8
0
100
AcDbBlockEnd
  0
BLOCK
  5
128
330
127
100
AcDbEntity
  8
0
100
AcDbBlockBegin
  2
SW_DOWELSYMBOL_0
 70
     0
 10
0.0
 20
0.0
 30
0.0
  3
SW_DOWELSYMBOL_0
  1
SW_DOWELSYMBOL_0
  0
CIRCLE
  5
12A
330
127
100
AcDbEntity
  8
해칭선
 62
     0
100
AcDbCircle
 10
0.0
 20
0.0
 30
0.0
 40
3.000000000000001
  0
HATCH
  5
12B
330
127
100
AcDbEntity
  8
0
  6
Continuous
 62
     0
370
     0
100
AcDbHatch
 10
0.0
 20
0.0
 30
0.0
210
0.0
220
0.0
230
1.0
  2
SOLID
 70
     1
 71
     0
 91
        1
 92
        0
 93
        3
 72
     2
 10
0.0
 20
0.0
 40
3.000000000000001
 50
0.0
 51
90.0
 73
     1
 72
     1
 10
0.0
 20
3.000000000000001
 11
0.0
 21
0.0
 72
     1
 10
0.0
 20
0.0
 11
3.000000000000001
 21
0.0
 97
        0
 75
     0
 76
     1
 98
        1
 10
0.0
 20
0.0
  0
HATCH
  5
12C
330
127
100
AcDbEntity
  8
0
  6
Continuous
 62
     0
370
     0
100
AcDbHatch
 10
0.0
 20
0.0
 30
0.0
210
0.0
220
0.0
230
1.0
  2
SOLID
 70
     1
 71
     0
 91
        1
 92
        0
 93
        3
 72
     2
 10
0.0
 20
0.0
 40
3.000000000000001
 50
180.0
 51
270.0000000000007
 73
     1
 72
     1
 10
0.0
 20
-3.000000000000001
 11
0.0
 21
0.0
 72
     1
 10
0.0
 20
0.0
 11
-3.000000000000001
 21
0.0
 97
        0
 75
     0
 76
     1
 98
        1
 10
0.0
 20
0.0
  0
ENDBLK
  5
129
330
127
100
AcDbEntity
  8
0
100
AcDbBlockEnd
  0
BLOCK
  5
18A
330
189
100
AcDbEntity
  8
0
100
AcDbBlockBegin
  2
*D7
 70
     1
 10
0.0
 20
0.0
 30
0.0
  3
*D7
  1
*D7
  0
LINE
  5
18C
330
189
100
AcDbEntity
  8
치수문자_일반주서
 62
     0
370
    -2
100
AcDbLine
 10
34.925
 20
7.611078139986779
 30
0.0
 11
34.925
 21
18.35692285485875
 31
0.0
  0
LINE
  5
18D
330
189
100
AcDbEntity
  8
치수문자_일반주서
 62
     0
370
    -2
100
AcDbLine
 10
-0.0000000000000009
 20
7.223453614286712
 30
0.0
 11
0.0
 21
18.35692285485875
 31
0.0
  0
LINE
  5
18E
330
189
100
AcDbEntity
  8
치수문자_일반주서
 62
     0
370
    -2
100
AcDbLine
 10
31.623
 20
18.35692285485875
 30
0.0
 11
3.302
 21
18.35692285485875
 31
0.0
  0
SOLID
  5
18F
330
189
100
AcDbEntity
  8
치수문자_일반주서
 62
     0
100
AcDbTrace
 10
31.623
 20
17.80658952152542
 30
0.0
 11
31.623
 21
18.90725618819209
 31
0.0
 12
34.925
 22
18.35692285485875
 32
0.0
 13
34.925
 23
18.35692285485875
 33
0.0
  0
SOLID
  5
190
330
189
100
AcDbEntity
  8
치수문자_일반주서
 62
     0
100
AcDbTrace
 10
3.302
 20
18.90725618819209
 30
0.0
 11
3.302
 21
17.80658952152542
 31
0.0
 12
0.0
 22
18.35692285485875
 32
0.0
 13
0.0
 23
18.35692285485875
 33
0.0
  0
MTEXT
  5
191
330
189
100
AcDbEntity
  8
치수문자_일반주서
 62
     0
100
AcDbMText
 10
17.46249999999999
 20
22.73192285485875
 30
0.0
 40
3.5
 41
0.0
 71
     2
 72
     1
  1
\A1;34.93 [1 3/8]
  7
SLDTEXTSTYLE0
 73
     1
 44
1.0
  0
POINT
  5
192
330
189
100
AcDbEntity
  8
Defpoints
 62
     0
100
AcDbPoint
 10
34.925
 20
7.548578139986779
 30
0.0
  0
POINT
  5
193
330
189
100
AcDbEntity
  8
Defpoints
 62
     0
100
AcDbPoint
 10
-0.0000000000000009
 20
7.160953614286712
 30
0.0
  0
POINT
  5
194
330
189
100
AcDbEntity
  8
Defpoints
 62
     0
100
AcDbPoint
 10
-0.0000000000000009
 20
18.35692285485875
 30
0.0
  0
ENDBLK
  5
18B
330
189
100
AcDbEntity
  8
0
100
AcDbBlockEnd
  0
BLOCK
  5
199
330
198
100
AcDbEntity
  8
0
100
AcDbBlockBegin
  2
*D8
 70
     1
 10
0.0
 20
0.0
 30
0.0
  3
*D8
  1
*D8
  0
LINE
  5
19B
330
198
100
AcDbEntity
  8
치수문자_일반주서
 62
     0
370
    -2
100
AcDbLine
 10
171.5669470367234
 20
-19.80045052820517
 30
0.0
 11
171.5669470367234
 21
-9.054605813333197
 31
0.0
  0
LINE
  5
19C
330
198
100
AcDbEntity
  8
치수문자_일반주서
 62
     0
370
    -2
100
AcDbLine
 10
136.6419470367234
 20
-20.18807505390524
 30
0.0
 11
136.6419470367234
 21
-9.054605813333197
 31
0.0
  0
LINE
  5
19D
330
198
100
AcDbEntity
  8
치수문자_일반주서
 62
     0
370
    -2
100
AcDbLine
 10
168.2649470367234
 20
-9.054605813333197
 30
0.0
 11
139.9439470367234
 21
-9.054605813333197
 31
0.0
  0
SOLID
  5
19E
330
198
100
AcDbEntity
  8
치수문자_일반주서
 62
     0
100
AcDbTrace
 10
168.2649470367234
 20
-9.60493914666653
 30
0.0
 11
168.2649470367234
 21
-8.504272479999864
 31
0.0
 12
171.5669470367234
 22
-9.054605813333197
 32
0.0
 13
171.5669470367234
 23
-9.054605813333197
 33
0.0
  0
SOLID
  5
19F
330
198
100
AcDbEntity
  8
치수문자_일반주서
 62
     0
100
AcDbTrace
 10
139.9439470367234
 20
-8.504272479999864
 30
0.0
 11
139.9439470367234
 21
-9.60493914666653
 31
0.0
 12
136.6419470367234
 22
-9.054605813333197
 32
0.0
 13
136.6419470367234
 23
-9.054605813333197
 33
0.0
  0
MTEXT
  5
1A0
330
198
100
AcDbEntity
  8
치수문자_일반주서
 62
     0
100
AcDbMText
 10
154.1044470367233
 20
-4.679605813333197
 30
0.0
 40
3.5
 41
0.0
 71
     2
 72
     1
  1
\A1;34.93 [1 3/8]
  7
SLDTEXTSTYLE0
 73
     1
 44
1.0
  0
POINT
  5
1A1
330
198
100
AcDbEntity
  8
Defpoints
 62
     0
100
AcDbPoint
 10
171.5669470367234
 20
-19.86295052820517
 30
0.0
  0
POINT
  5
1A2
330
198
100
AcDbEntity
  8
Defpoints
 62
     0
100
AcDbPoint
 10
136.6419470367234
 20
-20.25057505390524
 30
0.0
  0
POINT
  5
1A3
330
198
100
AcDbEntity
  8
Defpoints
 62
     0
100
AcDbPoint
 10
136.6419470367234
 20
-9.054605813333197
 30
0.0
  0
ENDBLK
  5
19A
330
198
100
AcDbEntity
  8
0
100
AcDbBlockEnd
  0
ENDSEC
  0
SECTION
  2
ENTITIES
  0
LINE
  5
96
330
1F
100
AcDbEntity
  8
0
  6
Continuous
 62
     1
370
    15
100
AcDbLine
 10
51.6236628943664
 20
-1.897072468267362
 30
0.0
 11
51.68967045479381
 21
-1.932752363425051
 31
0.0
1001
PE_URL
1000

  0
LINE
  5
97
330
1F
100
AcDbEntity
  8
0
  6
Continuous
 62
     1
370
    15
100
AcDbLine
 10
27.18935216157686
 20
-6.37776158476882
 30
0.0
 11
31.06193724062074
 21
-6.37776158476882
 31
0.0
1001
PE_URL
1000

  0
LINE
  5
98
330
1F
100
AcDbEntity
  8
0
  6
Continuous
 62
     1
370
    15
100
AcDbLine
 10
44.46685776221273
 20
-6.37776158476882
 30
0.0
 11
48.33789648369252
 21
-6.37776158476882
 31
0.0
1001
PE_URL
1000

  0
LINE
  5
99
330
1F
100
AcDbEntity
  8
0
  6
Continuous
 62
     1
370
    15
100
AcDbLine
 10
13.78727930219459
 20
6.322238415231186
 30
0.0
 11
9.999999999999979
 21
6.322238415231186
 31
0.0
1001
PE_URL
1000

  0
LINE
  5
9A
330
1F
100
AcDbEntity
  8
0
  6
Continuous
 62
     1
370
    15
100
AcDbLine
 10
31.06193724062087
 20
6.322238415231186
 30
0.0
 11
27.18935216157685
 21
6.322238415231186
 31
0.0
1001
PE_URL
1000

  0
LINE
  5
9B
330
1F
100
AcDbEntity
  8
0
  6
Continuous
 62
     1
370
    15
100
AcDbLine
 10
9.999999999999979
 20
-6.37776158476882
 30
0.0
 11
13.7872793021945
 21
-6.37776158476882
 31
0.0
1001
PE_URL
1000

  0
LINE
  5
9C
330
1F
100
AcDbEntity
  8
0
  6
Continuous
 62
     1
370
    15
100
AcDbLine
 10
48.33789648369251
 20
6.322238415231186
 30
0.0
 11
44.46685776221277
 21
6.322238415231186
 31
0.0
1001
PE_URL
1000

  0
LINE
  5
9D
330
1F
100
AcDbEntity
  8
외형선
  6
Continuous
370
    15
100
AcDbLine
 10
9.914661841329615
 20
-6.377761584768817
 30
0.0
 11
9.999999999999979
 21
-6.377761584768817
 31
0.0
  0
LINE
  5
9E
330
1F
100
AcDbEntity
  8
외형선
  6
Continuous
370
    15
100
AcDbLine
 10
-39.53000000000002
 20
-6.377761584768817
 30
0.0
 11
9.500154259971172
 21
-6.377761584768817
 31
0.0
  0
LINE
  5
9F
330
1F
100
AcDbEntity
  8
외형선
  6
Continuous
370
    15
100
AcDbLine
 10
9.500154259971172
 20
6.322238415231182
 30
0.0
 11
-11.06612500000001
 21
6.322238415231182
 31
0.0
  0
LINE
  5
A0
330
1F
100
AcDbEntity
  8
외형선
  6
Continuous
370
    15
100
AcDbLine
 10
9.999999999999979
 20
6.322238415231182
 30
0.0
 11
9.914661841329522
 21
6.322238415231182
 31
0.0
  0
LINE
  5
A1
330
1F
100
AcDbEntity
  8
외형선
  6
Continuous
370
    15
100
AcDbLine
 10
-39.53000000000002
 20
6.322238415231182
 30
0.0
 11
-40.80000000000002
 21
5.052238415231185
 31
0.0
  0
LINE
  5
A2
330
1F
100
AcDbEntity
  8
외형선
  6
Continuous
370
    15
100
AcDbLine
 10
-40.80000000000002
 20
-5.10776158476882
 30
0.0
 11
-39.53000000000002
 21
-6.377761584768817
 31
0.0
  0
SPLINE
  5
A3
330
1F
100
AcDbEntity
  8
0
  6
Continuous
 62
     1
370
    15
100
AcDbSpline
210
0.0
220
0.0
230
1.0
 70
     8
 71
     3
 72
    21
 73
    17
 74
     0
 42
0.000000001
 43
0.00000001
 40
0.0
 40
0.0
 40
0.0
 40
0.0
 40
0.0739972844693442
 40
0.1479765242262013
 40
0.2219434671501833
 40
0.2959038911026725
 40
0.3698635898629783
 40
0.4438283589821796
 40
0.5208052054278864
 40
0.5977885593309581
 40
0.6747801127226403
 40
0.7517815487618673
 40
0.8287854753572571
 40
0.9057792851926997
 40
0.982764483971859
 40
1.0
 40
1.0
 40
1.0
 40
1.0
 10
9.999999999999979
 20
2.115364431011693
 30
0.0
 10
10.68491644482026
 20
1.736005227187103
 30
0.0
 10
12.05458231319221
 20
0.9773793287132428
 30
0.0
 10
14.10874821132581
 20
-0.2156067067004521
 30
0.0
 10
16.16251470407957
 20
-1.396615024415357
 30
0.0
 10
18.2160592349699
 20
-2.531415972845661
 30
0.0
 10
20.26958902463787
 20
-3.578765891355053
 30
0.0
 10
22.35103095850177
 20
-4.515249424290213
 30
0.0
 10
24.46064728698017
 20
-5.30115281466409
 30
0.0
 10
26.59826993646234
 20
-5.89881906081667
 30
0.0
 10
28.7361751373688
 20
-6.275734827653698
 30
0.0
 10
30.87433270928685
 20
-6.416213937213482
 30
0.0
 10
33.01253712525694
 20
-6.320423554984573
 30
0.0
 10
35.15050826777279
 20
-5.971629307152133
 30
0.0
 10
36.73524219941255
 20
-5.591490869432658
 30
0.0
 10
37.60731348899608
 20
-5.275502637922076
 30
0.0
 10
37.76683890461238
 20
-5.217699847526744
 30
0.0
1001
PE_URL
1000

  0
SPLINE
  5
A4
330
1F
100
AcDbEntity
  8
0
  6
Continuous
 62
     1
370
    15
100
AcDbSpline
210
0.0
220
0.0
230
1.0
 70
     8
 71
     3
 72
    24
 73
    20
 74
     0
 42
0.000000001
 43
0.00000001
 40
0.0
 40
0.0
 40
0.0
 40
0.0
 40
0.0222455167354645
 40
0.0842527799215478
 40
0.1462628790803871
 40
0.2082771863240322
 40
0.2702970691982137
 40
0.3323238892072025
 40
0.3943588593577371
 40
0.4563918230965976
 40
0.5184168252967101
 40
0.5804352219241751
 40
0.6424483760927
 40
0.702034977028133
 40
0.761617493242478
 40
0.8212005936773619
 40
0.8807889458470572
 40
0.9403872044422315
 40
1.0
 40
1.0
 40
1.0
 40
1.0
 10
44.46685776221273
 20
-6.350203559231466
 30
0.0
 10
44.21128597888992
 20
-6.357552542918676
 30
0.0
 10
43.24333214484272
 20
-6.385386120021359
 30
0.0
 10
41.56295537566498
 20
-6.186335457927394
 30
0.0
 10
39.42566695161867
 20
-5.760707622237735
 30
0.0
 10
37.28820457633022
 20
-5.103294892995306
 30
0.0
 10
35.15051013224015
 20
-4.259012939730647
 30
0.0
 10
33.01253662557696
 20
-3.254203179599567
 30
0.0
 10
30.87433284317899
 20
-2.128244099673718
 30
0.0
 10
28.73617510149777
 20
-0.9230784510569117
 30
0.0
 10
26.59826994607319
 20
0.3157815284493514
 30
0.0
 10
24.46064728440187
 20
1.541662521407444
 30
0.0
 10
22.35103095916256
 20
2.693181079771784
 30
0.0
 10
20.2695890244638
 20
3.731218476387868
 30
0.0
 10
18.21605923501654
 20
4.624363003225793
 30
0.0
 10
16.16251470406708
 20
5.356870167346306
 30
0.0
 10
14.10874821132916
 20
5.897899319016456
 30
0.0
 10
12.05458231319145
 20
6.248717555597369
 30
0.0
 10
10.68491644482004
 20
6.297601826361802
 30
0.0
 10
10.00000000000002
 20
6.322046942293182
 30
0.0
1001
PE_URL
1000

  0
SPLINE
  5
A5
330
1F
100
AcDbEntity
  8
외형선
  6
Continuous
370
    15
100
AcDbSpline
210
0.0
220
0.0
230
1.0
 70
    24
 71
     3
 72
    15
 73
    11
 74
     0
 42
0.000000001
 43
0.00000001
 40
0.0
 40
0.0
 40
0.0
 40
0.0
 40
0.1426723630552146
 40
0.2897903523198729
 40
0.4276838704458765
 40
0.569576309939105
 40
0.7074698280651074
 40
0.8493622675583339
 40
0.9872557856843371
 40
1.0
 40
1.0
 40
1.0
 40
1.0
 10
9.999999999999964
 20
6.32204694229358
 30
0.0
 10
9.999999999999979
 20
6.110786042650596
 30
0.0
 10
10.00000000000002
 20
5.681681419807409
 30
0.0
 10
9.999999999999972
 20
5.022912930392576
 30
0.0
 10
9.999999999999964
 20
4.372081868129382
 30
0.0
 10
9.999999999999943
 20
3.757033777914786
 30
0.0
 10
10.00000000000001
 20
3.173806488972541
 30
0.0
 10
9.999999999999943
 20
2.661049857091086
 30
0.0
 10
10.00000000000004
 20
2.327130193074173
 30
0.0
 10
9.999999999999993
 20
2.19683302908004
 30
0.0
 10
9.999999999999986
 20
2.185809662253223
 30
0.0
  0
LINE
  5
A6
330
1F
100
AcDbEntity
  8
0
  6
Continuous
 62
     1
370
    15
100
AcDbLine
 10
60.79999999999998
 20
-5.778838152542805
 30
0.0
 11
60.79999999999998
 21
0.516314983005246
 31
0.0
1001
PE_URL
1000

  0
SPLINE
  5
A7
330
1F
100
AcDbEntity
  8
0
  6
Continuous
 62
     1
370
    15
100
AcDbSpline
210
0.0
220
0.0
230
1.0
 70
     8
 71
     3
 72
    21
 73
    17
 74
     0
 42
0.000000001
 43
0.00000001
 40
0.0
 40
0.0
 40
0.0
 40
0.0
 40
0.0655915102015012
 40
0.1374823971072162
 40
0.2093652436720945
 40
0.2812416279191529
 40
0.3531131348736335
 40
0.4249813548532743
 40
0.4968478817463566
 40
0.5687143112814907
 40
0.6405822392931327
 40
0.7124532599868661
 40
0.7843289642084519
 40
0.8562109377206473
 40
0.9281007594917837
 40
1.0
 40
1.0
 40
1.0
 40
1.0
 10
31.06193724062086
 20
6.312659784321242
 30
0.0
 10
31.71216736041188
 20
6.297302292047826
 30
0.0
 10
33.07507538411124
 20
6.265112381420392
 30
0.0
 10
35.15051026708965
 20
5.922597300176282
 30
0.0
 10
37.28820455656655
 20
5.36683396160516
 30
0.0
 10
39.42566689585024
 20
4.602312002506771
 30
0.0
 10
41.56295561847817
 20
3.665002402910488
 30
0.0
 10
43.70012697140723
 20
2.588277084905353
 30
0.0
 10
45.83723794469032
 20
1.41317644366506
 30
0.0
 10
47.97434544357051
 20
0.1838206042032823
 30
0.0
 10
50.11150638247766
 20
-1.053583592235394
 30
0.0
 10
52.24877774765655
 20
-2.252090792397844
 30
0.0
 10
54.38621586332282
 20
-3.367996457683249
 30
0.0
 10
56.52387887624347
 20
-4.354003844148099
 30
0.0
 10
58.66181716338697
 20
-5.192692099233961
 30
0.0
 10
60.08724126420712
 20
-5.58344760277664
 30
0.0
 10
60.80000000000003
 20
-5.778838152542805
 30
0.0
1001
PE_URL
1000

  0
SPLINE
  5
A8
330
1F
100
AcDbEntity
  8
0
  6
Continuous
 62
     1
370
    15
100
AcDbSpline
210
0.0
220
0.0
230
1.0
 70
     8
 71
     3
 72
    18
 73
    14
 74
     0
 42
0.000000001
 43
0.00000001
 40
0.0
 40
0.0
 40
0.0
 40
0.0
 40
0.0928281247444102
 40
0.1856440890863664
 40
0.2784499206486899
 40
0.3712476580157653
 40
0.4640393485441729
 40
0.5568270461530872
 40
0.6496128090995036
 40
0.742398697743435
 40
0.835186772308235
 40
0.9279790906412329
 40
1.0
 40
1.0
 40
1.0
 40
1.0
 10
60.8
 20
0.5163149830052449
 30
0.0
 10
60.0872412642012
 20
0.9242243038588054
 30
0.0
 10
58.66181716336928
 20
1.739989509804728
 30
0.0
 10
56.52387887631418
 20
2.891632068145114
 30
0.0
 10
54.38621586305786
 20
3.934753959596979
 30
0.0
 10
52.24877774864549
 20
4.82825807268033
 30
0.0
 10
50.11150637878702
 20
5.538981387926936
 30
0.0
 10
47.97434545734335
 20
6.040203618108999
 30
0.0
 10
45.83723789329042
 20
6.312534125084174
 30
0.0
 10
43.70012716323664
 20
6.34783869991319
 30
0.0
 10
41.56295490252848
 20
6.136864586095081
 30
0.0
 10
39.58519268205504
 20
5.748442244651493
 30
0.0
 10
38.31979758792686
 20
5.34045916615824
 30
0.0
 10
37.76683890461246
 20
5.162176677989109
 30
0.0
1001
PE_URL
1000

  0
SPLINE
  5
A9
330
1F
100
AcDbEntity
  8
0
  6
Continuous
 62
     1
370
    15
100
AcDbSpline
210
0.0
220
0.0
230
1.0
 70
     8
 71
     3
 72
    28
 73
    24
 74
     0
 42
0.000000001
 43
0.00000001
 40
0.0
 40
0.0
 40
0.0
 40
0.0
 40
0.0077950302967254
 40
0.057579399969939
 40
0.1073593819684176
 40
0.1571388758672896
 40
0.2069217824341952
 40
0.258732005058507
 40
0.3105466076078267
 40
0.3623667289248012
 40
0.4141935018804572
 40
0.4660219511358737
 40
0.5178435911803482
 40
0.5696594354464338
 40
0.6214706214321404
 40
0.673278291682943
 40
0.7250835925593462
 40
0.7768876729956357
 40
0.8286916832526748
 40
0.8804967736676248
 40
0.9323040934034944
 40
0.9841147892014068
 40
1.0
 40
1.0
 40
1.0
 40
1.0
 10
13.78727930219457
 20
6.307640755791262
 30
0.0
 10
13.89447054071986
 20
6.312296777220771
 30
0.0
 10
14.68625799521051
 20
6.346689320925305
 30
0.0
 10
16.16250959949299
 20
6.197828292856027
 30
0.0
 10
18.21606060258329
 20
5.851597006206776
 30
0.0
 10
20.26958865848681
 20
5.28019068792251
 30
0.0
 10
22.35103106168233
 20
4.519586000266739
 30
0.0
 10
24.46064725647333
 20
3.581165966689125
 30
0.0
 10
26.59826995353539
 20
2.494856321256748
 30
0.0
 10
28.73617509958143
 20
1.313392116581553
 30
0.0
 10
30.87433284338078
 20
0.081455447013099
 30
0.0
 10
33.01253662668623
 20
-1.154572658303767
 30
0.0
 10
35.15051012760236
 20
-2.348214855814368
 30
0.0
 10
37.28820459376946
 20
-3.454417557710275
 30
0.0
 10
39.42566688650685
 20
-4.431555039944743
 30
0.0
 10
41.56295561865314
 20
-5.242879778549689
 30
0.0
 10
43.7001269800495
 20
-5.857774057387265
 30
0.0
 10
45.83723790994711
 20
-6.253444047971864
 30
0.0
 10
47.97434557390236
 20
-6.413723093064716
 30
0.0
 10
50.11150589587348
 20
-6.337343224892858
 30
0.0
 10
52.24877956387188
 20
-6.009376407686815
 30
0.0
 10
53.89212007081423
 20
-5.624333343170667
 30
0.0
 10
54.82305827048342
 20
-5.291889359040903
 30
0.0
 10
55.04150795652352
 20
-5.213879579245766
 30
0.0
1001
PE_URL
1000

  0
SPLINE
  5
AA
330
1F
100
AcDbEntity
  8
0
  6
Continuous
 62
     1
370
    15
100
AcDbSpline
210
0.0
220
0.0
230
1.0
 70
     8
 71
     3
 72
    26
 73
    22
 74
     0
 42
0.000000001
 43
0.00000001
 40
0.0
 40
0.0
 40
0.0
 40
0.0
 40
0.0530409773722185
 40
0.1060750064231907
 40
0.159103245714468
 40
0.2121268600709188
 40
0.2651470193297487
 40
0.3181648970779581
 40
0.3711816693811307
 40
0.4241985135064916
 40
0.47721660664318
 40
0.5302371246227011
 40
0.5832612406425275
 40
0.6362901239957901
 40
0.6893249388099884
 40
0.7423667222427216
 40
0.7954067901325406
 40
0.8484400506649439
 40
0.9014676632321277
 40
0.9544907933377081
 40
1.0
 40
1.0
 40
1.0
 40
1.0
 10
60.8
 20
-6.354410040973676
 30
0.0
 10
60.08724126420712
 20
-6.296090243597778
 30
0.0
 10
58.66181716338698
 20
-6.179458288687993
 30
0.0
 10
56.52387887624329
 20
-5.709006296931952
 30
0.0
 10
54.38621586332379
 20
-5.041749247692681
 30
0.0
 10
52.24877774765281
 20
-4.181145824858381
 30
0.0
 10
50.11150638249157
 20
-3.165416900683444
 30
0.0
 10
47.97434544351862
 20
-2.031247993967796
 30
0.0
 10
45.8372379448839
 20
-0.8217496170761445
 30
0.0
 10
43.70012697068474
 20
0.4176649826624767
 30
0.0
 10
41.56295562117461
 20
1.640315352897369
 30
0.0
 10
39.42566688578606
 20
2.800188038983994
 30
0.0
 10
37.28820459413087
 20
3.853614146859178
 30
0.0
 10
35.15051012687738
 20
4.760935241416678
 30
0.0
 10
33.01253662922514
 20
5.487946456273769
 30
0.0
 10
30.87433283394894
 20
6.00731800530664
 30
0.0
 10
28.73617513476626
 20
6.299097129530519
 30
0.0
 10
26.59826982225162
 20
6.353904054521368
 30
0.0
 10
24.46064774635659
 20
6.16361755779542
 30
0.0
 10
22.42411582782118
 20
5.777241313637573
 30
0.0
 10
21.10024263569553
 20
5.362263771262761
 30
0.0
 10
20.48878429956523
 20
5.17059777250911
 30
0.0
1001
PE_URL
1000

  0
SPLINE
  5
AB
330
1F
100
AcDbEntity
  8
0
  6
Continuous
 62
     1
370
    15
100
AcDbSpline
210
0.0
220
0.0
230
1.0
 70
     8
 71
     3
 72
    10
 73
     6
 74
     0
 42
0.000000001
 43
0.00000001
 40
0.0
 40
0.0
 40
0.0
 40
0.0
 40
0.3713154068378837
 40
0.7425821716850238
 40
0.9999999999999999
 40
0.9999999999999999
 40
0.9999999999999999
 40
0.9999999999999999
 10
60.80000000000001
 20
6.298886871436042
 30
0.0
 10
60.08724154881595
 20
6.239175760684571
 30
0.0
 10
58.66181801717627
 20
6.119761361284464
 30
0.0
 10
56.74232939989643
 20
5.716113380921257
 30
0.0
 10
55.53560632674888
 20
5.320388004225033
 30
0.0
 10
55.04150795652352
 20
5.158356409708132
 30
0.0
1001
PE_URL
1000

  0
SPLINE
  5
AC
330
1F
100
AcDbEntity
  8
0
  6
Continuous
 62
     1
370
    15
100
AcDbSpline
210
0.0
220
0.0
230
1.0
 70
     8
 71
     3
 72
    16
 73
    12
 74
     0
 42
0.000000001
 43
0.00000001
 40
0.0
 40
0.0
 40
0.0
 40
0.0
 40
0.034388201320873
 40
0.1587399201190607
 40
0.2830811273784893
 40
0.4025569062860238
 40
0.5220244950094238
 40
0.6414932551405367
 40
0.7609725454092542
 40
0.8804716988331387
 40
1.0
 40
1.0
 40
1.0
 40
1.0
 10
27.18935216157685
 20
-6.353798137132776
 30
0.0
 10
26.9923020120273
 20
-6.360833934072761
 30
0.0
 10
26.08269569947041
 20
-6.393311987629739
 30
0.0
 10
24.46065005522819
 20
-6.210673542307365
 30
0.0
 10
22.35103024901703
 20
-5.810832439727985
 30
0.0
 10
20.26958921151233
 20
-5.190748864911161
 30
0.0
 10
18.21605918489934
 20
-4.404033166759488
 30
0.0
 10
16.16251471749265
 20
-3.463901055191189
 30
0.0
 10
14.10874820774824
 20
-2.40454176739538
 30
0.0
 10
12.05458231408699
 20
-1.262463863311345
 30
0.0
 10
10.68491644511855
 20
-0.472235773599045
 30
0.0
 10
10.00000000000002
 20
-0.0770735473210345
 30
0.0
1001
PE_URL
1000

  0
LINE
  5
AD
330
1F
100
AcDbEntity
  8
외형선
  6
Continuous
370
    15
100
AcDbLine
 10
9.999999999999964
 20
-0.077073547321132
 30
0.0
 11
9.999999999999979
 21
2.115364431011689
 31
0.0
  0
LINE
  5
AE
330
1F
100
AcDbEntity
  8
외형선
  6
Continuous
370
    15
100
AcDbLine
 10
9.999999999999964
 20
6.32204694229358
 30
0.0
 11
9.999999999999979
 21
6.322238415231186
 31
0.0
  0
LINE
  5
AF
330
1F
100
AcDbEntity
  8
0
  6
Continuous
 62
     1
370
    15
100
AcDbLine
 10
60.79999999999998
 20
-6.354410040973676
 30
0.0
 11
60.79999999999998
 21
-5.778838152542805
 31
0.0
1001
PE_URL
1000

  0
LINE
  5
B0
330
1F
100
AcDbEntity
  8
0
  6
Continuous
 62
     1
370
    15
100
AcDbLine
 10
60.79999999999998
 20
2.664378514037469
 30
0.0
 11
60.79999999999998
 21
6.298886871436041
 31
0.0
1001
PE_URL
1000

  0
SPLINE
  5
B1
330
1F
100
AcDbEntity
  8
0
  6
Continuous
 62
     1
370
    15
100
AcDbSpline
210
0.0
220
0.0
230
1.0
 70
     8
 71
     3
 72
    13
 73
     9
 74
     0
 42
0.000000001
 43
0.00000001
 40
0.0
 40
0.0
 40
0.0
 40
0.0
 40
0.1958844221637444
 40
0.3917210766546087
 40
0.5875251791671202
 40
0.7833120247630686
 40
0.9790969506419245
 40
0.9999999999999999
 40
0.9999999999999999
 40
0.9999999999999999
 40
0.9999999999999999
 10
9.999999999999972
 20
-6.005178324505549
 30
0.0
 10
10.68491642105934
 20
-6.118551443726746
 30
0.0
 10
12.05458224191526
 20
-6.345270035406762
 30
0.0
 10
14.10874849633272
 20
-6.408745671404635
 30
0.0
 10
16.16251363553295
 20
-6.269991458970556
 30
0.0
 10
18.2160632238269
 20
-5.892252066585397
 30
0.0
 10
19.65812082595787
 20
-5.531508668339262
 30
0.0
 10
20.41570325781139
 20
-5.252988685585981
 30
0.0
 10
20.48878429956525
 20
-5.226120942046744
 30
0.0
1001
PE_URL
1000

  0
SPLINE
  5
B2
330
1F
100
AcDbEntity
  8
0
  6
Continuous
 62
     1
370
    15
100
AcDbSpline
210
0.0
220
0.0
230
1.0
 70
     8
 71
     3
 72
    13
 73
     9
 74
     0
 42
0.000000001
 43
0.00000001
 40
0.0
 40
0.0
 40
0.0
 40
0.0
 40
0.1423233582879138
 40
0.313828782905188
 40
0.4853453837994272
 40
0.6568769450676484
 40
0.8284272345933679
 40
1.0
 40
1.0
 40
1.0
 40
1.0
 10
48.33789648369251
 20
6.305340698417417
 30
0.0
 10
48.929089713148
 20
6.296239022684699
 30
0.0
 10
50.23269478468144
 20
6.27616945819467
 30
0.0
 10
52.24877794763889
 20
5.958320106750325
 30
0.0
 10
54.38621580974967
 20
5.421714844449017
 30
0.0
 10
56.52387889053188
 20
4.671194263248479
 30
0.0
 10
58.66181715981418
 20
3.752764936584579
 30
0.0
 10
60.08724126301614
 20
3.027189830873988
 30
0.0
 10
60.80000000000003
 20
2.66437851403747
 30
0.0
1001
PE_URL
1000

  0
SPLINE
  5
B3
330
1F
100
AcDbEntity
  8
외형선
  6
Continuous
370
    15
100
AcDbSpline
210
0.0
220
0.0
230
1.0
 70
    24
 71
     3
 72
    21
 73
    17
 74
     0
 42
0.000000001
 43
0.00000001
 40
0.0
 40
0.0
 40
0.0
 40
0.0
 40
0.0232292200335841
 40
0.0987139346396078
 40
0.1741986492456315
 40
0.2496833638516543
 40
0.325168078457677
 40
0.4006527930637003
 40
0.4761375076697235
 40
0.5516222222757463
 40
0.627106936881769
 40
0.7025916514877927
 40
0.7780763660938164
 40
0.8535610806998396
 40
0.9290457953058631
 40
1.0
 40
1.0
 40
1.0
 40
1.0
 10
9.999999999999986
 20
0.0947212137887618
 30
0.0
 10
9.999999999999986
 20
0.0992694694364379
 30
0.0
 10
9.999999999999972
 20
0.1185975489018616
 30
0.0
 10
9.99999999999995
 20
0.03892406316544
 30
0.0
 10
9.999999999999957
 20
-0.1379020041842242
 30
0.0
 10
9.999999999999957
 20
-0.4262464813065823
 30
0.0
 10
10.00000000000001
 20
-0.8034718227526709
 30
0.0
 10
9.99999999999995
 20
-1.2652810594612
 30
0.0
 10
9.999999999999957
 20
-1.79469620387357
 30
0.0
 10
9.999999999999964
 20
-2.379422822504449
 30
0.0
 10
9.999999999999986
 20
-3.000947961384249
 30
0.0
 10
9.999999999999986
 20
-3.642719428610251
 30
0.0
 10
10.00000000000002
 20
-4.286470754959623
 30
0.0
 10
10.00000000000003
 20
-4.912127498164575
 30
0.0
 10
10.0
 20
-5.496624972567618
 30
0.0
 10
9.999999999999979
 20
-5.839193320158127
 30
0.0
 10
9.999999999999979
 20
-6.005178324505552
 30
0.0
  0
LINE
  5
B4
330
1F
100
AcDbEntity
  8
0
  6
Continuous
 62
     1
370
    15
100
AcDbLine
 10
60.79999999999998
 20
0.5163149830052458
 30
0.0
 11
60.79999999999998
 21
2.664378514037469
 31
0.0
1001
PE_URL
1000

  0
LINE
  5
B5
330
1F
100
AcDbEntity
  8
외형선
  6
Continuous
370
    15
100
AcDbLine
 10
9.999999999999979
 20
-6.37776158476882
 30
0.0
 11
9.999999999999979
 21
-6.005178324505552
 31
0.0
  0
SPLINE
  5
B6
330
1F
100
AcDbEntity
  8
외형선
  6
Continuous
370
    15
100
AcDbSpline
210
0.0
220
0.0
230
1.0
 70
    24
 71
     3
 72
    20
 73
    16
 74
     0
 42
0.000000001
 43
0.00000001
 40
0.0
 40
0.0
 40
0.0
 40
0.0
 40
0.0976439136269332
 40
0.1740411207525251
 40
0.2526538520602742
 40
0.3290510591858661
 40
0.4076637904936141
 40
0.4840609976191662
 40
0.5626737289269538
 40
0.6390709360525455
 40
0.717683667360294
 40
0.7940808744858847
 40
0.8726936057936319
 40
0.9490908129192246
 40
1.0
 40
1.0
 40
1.0
 40
1.0
 10
9.999999999999993
 20
-6.005178324505551
 30
0.0
 10
9.999999999999972
 20
-5.780056052296527
 30
0.0
 10
9.99999999999995
 20
-5.378796709995787
 30
0.0
 10
10.00000000000003
 20
-4.717007554491317
 30
0.0
 10
9.999999999999943
 20
-4.086952055241076
 30
0.0
 10
9.999999999999943
 20
-3.438823242155791
 30
0.0
 10
10.00000000000007
 20
-2.804358487819579
 30
0.0
 10
9.999999999999936
 20
-2.18962627192916
 30
0.0
 10
9.999999999999932
 20
-1.623243086159497
 30
0.0
 10
10.00000000000005
 20
-1.11090608916353
 30
0.0
 10
9.99999999999995
 20
-0.676746081424102
 30
0.0
 10
9.999999999999964
 20
-0.323742847842816
 30
0.0
 10
10.00000000000001
 20
-0.0738020558190935
 30
0.0
 10
9.999999999999972
 20
0.0717157506037563
 30
0.0
 10
9.999999999999979
 20
0.0856039729817509
 30
0.0
 10
9.999999999999993
 20
0.091157803295369
 30
0.0
  0
SPLINE
  5
B7
330
1F
100
AcDbEntity
  8
외형선
  6
Continuous
370
    15
100
AcDbSpline
210
0.0
220
0.0
230
1.0
 70
     8
 71
     3
 72
     8
 73
     4
 74
     0
 42
0.000000001
 43
0.00000001
 40
0.0
 40
0.0
 40
0.0
 40
0.0
 40
1.0
 40
1.0
 40
1.0
 40
1.0
 10
9.999999999999986
 20
-6.00517832450555
 30
0.0
 10
9.833830468842908
 20
-5.972716423036625
 30
0.0
 10
9.667129603208053
 20
-5.938161789150222
 30
0.0
 10
9.500154259971186
 20
-5.901558065089533
 30
0.0
  0
SPLINE
  5
B8
330
1F
100
AcDbEntity
  8
외형선
  6
Continuous
370
    15
100
AcDbSpline
210
0.0
220
0.0
230
1.0
 70
     8
 71
     3
 72
     8
 73
     4
 74
     0
 42
0.000000001
 43
0.00000001
 40
0.0
 40
0.0
 40
0.0
 40
0.0
 40
1.0
 40
1.0
 40
1.0
 40
1.0
 10
9.999999999999986
 20
-0.0770735473210021
 30
0.0
 10
9.833830468842901
 20
0.0191069186125218
 30
0.0
 10
9.66712960320804
 20
0.115406764159201
 30
0.0
 10
9.500154259971179
 20
0.2116766998617065
 30
0.0
  0
LINE
  5
B9
330
1F
100
AcDbEntity
  8
외형선
  6
Continuous
370
    15
100
AcDbLine
 10
9.500154259971172
 20
-6.377761584768817
 30
0.0
 11
9.500154259971172
 21
-6.373244543034065
 31
0.0
  0
SPLINE
  5
BA
330
1F
100
AcDbEntity
  8
외형선
  6
Continuous
370
    15
100
AcDbSpline
210
0.0
220
0.0
230
1.0
 70
     8
 71
     3
 72
     8
 73
     4
 74
     0
 42
0.000000001
 43
0.00000001
 40
0.0
 40
0.0
 40
0.0
 40
0.0
 40
1.0
 40
1.0
 40
1.0
 40
1.0
 10
9.999999999999986
 20
6.322046942293182
 30
0.0
 10
9.833830468842901
 20
6.322793869938975
 30
0.0
 10
9.66712960320804
 20
6.321355197925093
 30
0.0
 10
9.500154259971179
 20
6.317722581774596
 30
0.0
  0
LINE
  5
BB
330
1F
100
AcDbEntity
  8
외형선
  6
Continuous
370
    15
100
AcDbLine
 10
9.500154259971165
 20
2.384875772243432
 30
0.0
 11
9.500154259971172
 21
6.322238415231182
 31
0.0
  0
SPLINE
  5
BC
330
1F
100
AcDbEntity
  8
외형선
  6
Continuous
370
    15
100
AcDbSpline
210
0.0
220
0.0
230
1.0
 70
     8
 71
     3
 72
     8
 73
     4
 74
     0
 42
0.000000001
 43
0.00000001
 40
0.0
 40
0.0
 40
0.0
 40
0.0
 40
1.0
 40
1.0
 40
1.0
 40
1.0
 10
9.999999999999986
 20
2.115364431011684
 30
0.0
 10
9.833830468842908
 20
2.205904283458657
 30
0.0
 10
9.667129603208053
 20
2.295802599941529
 30
0.0
 10
9.500154259971186
 20
2.384916368827996
 30
0.0
  0
LINE
  5
BD
330
1F
100
AcDbEntity
  8
외형선
  6
Continuous
370
    15
100
AcDbLine
 10
9.500154259971165
 20
-5.901574740083603
 30
0.0
 11
9.500154259971172
 21
0.2117087189543882
 31
0.0
  0
LINE
  5
BE
330
1F
100
AcDbEntity
  8
외형선
  6
Continuous
370
    15
100
AcDbLine
 10
9.914661841329607
 20
-6.37683181812432
 30
0.0
 11
9.500154259971179
 21
-6.37324575131223
 31
0.0
  0
LINE
  5
BF
330
1F
100
AcDbEntity
  8
외형선
  6
Continuous
370
    15
100
AcDbLine
 10
-39.53000000000002
 20
-0.0277615847688176
 30
0.0
 11
-39.53000000000002
 21
6.322238415231182
 31
0.0
  0
LINE
  5
C0
330
1F
100
AcDbEntity
  8
외형선
  6
Continuous
370
    15
100
AcDbLine
 10
-39.53000000000002
 20
-6.377761584768817
 30
0.0
 11
-39.53000000000002
 21
-0.0277615847688176
 31
0.0
  0
LINE
  5
C1
330
1F
100
AcDbEntity
  8
외형선
  6
Continuous
370
    15
100
AcDbLine
 10
-40.80000000000002
 20
-0.0277615847688176
 30
0.0
 11
-40.80000000000002
 21
5.052238415231185
 31
0.0
  0
LINE
  5
C2
330
1F
100
AcDbEntity
  8
외형선
  6
Continuous
370
    15
100
AcDbLine
 10
-40.80000000000002
 20
-5.10776158476882
 30
0.0
 11
-40.80000000000002
 21
-0.0277615847688176
 31
0.0
  0
SPLINE
  5
C3
330
1F
100
AcDbEntity
  8
외형선
  6
Continuous
370
    15
100
AcDbSpline
210
0.0
220
0.0
230
1.0
 70
    24
 71
     3
 72
    19
 73
    15
 74
     0
 42
0.000000001
 43
0.00000001
 40
0.0
 40
0.0
 40
0.0
 40
0.0
 40
0.12433626174988
 40
0.1955566682114395
 40
0.2642751450083795
 40
0.4040468460702652
 40
0.4752672525317879
 40
0.5439857293287297
 40
0.6131813304442952
 40
0.6838817552692886
 40
0.7551021617308139
 40
0.8155148234829038
 40
0.9379110351607018
 40
1.0
 40
1.0
 40
1.0
 40
1.0
 10
9.999999999999957
 20
2.185819662253224
 30
0.0
 10
9.999999999999979
 20
2.3096893470683
 30
0.0
 10
9.999999999999993
 20
2.504512180841175
 30
0.0
 10
9.999999999999964
 20
2.816722080550926
 30
0.0
 10
9.99999999999995
 20
3.165751381032833
 30
0.0
 10
9.999999999999911
 20
3.545855034897166
 30
0.0
 10
10.00000000000002
 20
3.946411168857362
 30
0.0
 10
9.99999999999995
 20
4.25454156312817
 30
0.0
 10
9.999999999999993
 20
4.568124286856765
 30
0.0
 10
9.999999999999964
 20
4.889645703093315
 30
0.0
 10
10.00000000000001
 20
5.199684846573647
 30
0.0
 10
9.999999999999986
 20
5.588088924940079
 30
0.0
 10
9.99999999999995
 20
5.960262407676342
 30
0.0
 10
9.999999999999986
 20
6.230947254687503
 30
0.0
 10
9.999999999999993
 20
6.322046942293293
 30
0.0
  0
LINE
  5
C4
330
1F
100
AcDbEntity
  8
중심선
 62
     1
100
AcDbLine
 10
-47.80000000000002
 20
-0.027761584768822
 30
0.0
 11
67.79999999999998
 21
-0.0277615847688068
 31
0.0
  0
LINE
  5
C5
330
1F
100
AcDbEntity
  8
참조1
100
AcDbLine
 10
9.999999999999982
 20
-0.0277615847688215
 30
0.0
 11
9.999999999999986
 21
-40.02776158476883
 31
0.0
  0
LINE
  5
C6
330
1F
100
AcDbEntity
  8
참조1
100
AcDbLine
 10
9.999999999999986
 20
-40.02776158476883
 30
0.0
 11
-26.59010681430869
 21
-40.02776158476882
 31
0.0
  0
CIRCLE
  5
C7
330
1F
100
AcDbEntity
  8
해칭선
100
AcDbCircle
 10
0.0
 20
0.0
 30
0.0
 40
3.000000000000002
  0
INSERT
  5
C8
330
1F
100
AcDbEntity
  8
0
  6
Continuous
 62
     7
100
AcDbBlockReference
 66
     1
  2
블럭10
 10
-3.940272932125224
 20
-52.07493588641275
 30
0.0
  0
ATTRIB
  5
C9
330
C8
100
AcDbEntity
  8
FORMAT
 62
     2
100
AcDbText
 10
-13.1215682208665
 20
-49.99956897358057
 30
0.0
 40
4.233333333333333
  1
E2040032 [ 4 FLUTE ]
 41
0.75
  7
SLDTEXTSTYLE0
 11
-13.1215682208665
 21
-52.11623564024723
 31
0.0
100
AcDbAttribute
  2
AUTOATTR0
 70
     0
 74
     1
  0
SEQEND
  5
CA
330
C8
100
AcDbEntity
  8
0
  6
Continuous
 62
     7
  0
HATCH
  5
CB
330
1F
100
AcDbEntity
  8
중심선
100
AcDbHatch
 10
0.0
 20
0.0
 30
0.0
210
0.0
220
0.0
230
1.0
  2
SOLID
 70
     1
 71
     0
 91
        1
 92
        0
 93
        4
 72
     1
 10
1.774636372255626
 20
-35.82776158476882
 11
-1.671638871581655
 21
-35.82776158476882
 72
     1
 10
-1.671638871581655
 20
-35.82776158476882
 11
-3.799868730785678
 21
-38.36408716534139
 72
     1
 10
-3.799868730785678
 20
-38.36408716534139
 11
-0.3535604018352467
 21
-38.3640477360389
 72
     1
 10
-0.3535604018352467
 20
-38.3640477360389
 11
1.774636372255626
 21
-35.82776158476882
 97
        0
 75
     0
 76
     1
 98
        1
 10
-6.436761314031187
 20
-0.0288365134927107
  0
HATCH
  5
CC
330
1F
100
AcDbEntity
  8
중심선
100
AcDbHatch
 10
0.0
 20
0.0
 30
0.0
210
0.0
220
0.0
230
1.0
  2
SOLID
 70
     1
 71
     0
 91
        1
 92
        0
 93
        4
 72
     1
 10
6.787400363291633
 20
-35.82776158476879
 11
3.34112511945435
 21
-35.82776158476879
 72
     1
 10
3.34112511945435
 20
-35.82776158476879
 11
-1.190012888903093
 21
-41.22776158476884
 72
     1
 10
-1.190012888903093
 20
-41.22776158476884
 11
2.25626235493419
 21
-41.22776158476884
 72
     1
 10
2.25626235493419
 20
-41.22776158476884
 11
6.787400363291633
 21
-35.82776158476879
 97
        0
 75
     0
 76
     1
 98
        1
 10
-6.436761314031187
 20
-0.0288365134927107
  0
HATCH
  5
CD
330
1F
100
AcDbEntity
  8
중심선
100
AcDbHatch
 10
0.0
 20
0.0
 30
0.0
210
0.0
220
0.0
230
1.0
  2
SOLID
 70
     1
 71
     0
 91
        1
 92
        0
 93
        4
 72
     1
 10
11.80016435432747
 20
-35.82776158476884
 11
8.353889110490385
 21
-35.82776158476882
 72
     1
 10
8.353889110490385
 20
-35.82776158476882
 11
1.305452208601109
 21
-44.22776158476884
 72
     1
 10
1.305452208601109
 20
-44.22776158476884
 11
4.751727452438391
 21
-44.22776158476884
 72
     1
 10
4.751727452438391
 20
-44.22776158476884
 11
11.80016435432747
 21
-35.82776158476884
 97
        0
 75
     0
 76
     1
 98
        1
 10
-6.436761314031187
 20
-0.0288365134927107
  0
HATCH
  5
CE
330
1F
100
AcDbEntity
  8
중심선
100
AcDbHatch
 10
0.0
 20
0.0
 30
0.0
210
0.0
220
0.0
230
1.0
  2
SOLID
 70
     1
 71
     0
 91
        1
 92
        0
 93
        6
 72
     3
 10
16.60005478533967
 20
-40.02776158482009
 11
3.960054785062283
 21
1.540882976769353E-10
 40
0.3939339440162628
 50
17.09539180608436
 51
320.0019657685083
 73
     0
 72
     1
 10
18.28305444104024
 20
-38.61565558940715
 11
20.58835631474131
 21
-36.68132887935923
 72
     3
 10
16.60005478528683
 20
-40.02776158476897
 11
6.600054785286829
 21
-1.278976924368180E-13
 40
0.636358354079598
 50
39.99873849337381
 51
368.4976242363724
 73
     1
 72
     1
 10
23.02538727718743
 20
-39.06776158469884
 11
15.28012209212275
 21
-39.06776158469884
 72
     1
 10
15.28012209212275
 20
-39.06776158469884
 11
15.28009704767681
 21
-40.98776158469873
 72
     1
 10
15.28009704767681
 20
-40.98776158469873
 11
19.72147681714885
 21
-40.9877615846987
 97
        0
 75
     0
 76
     1
 98
        1
 10
-6.436761314031187
 20
-0.0288365134927107
  0
DIMENSION
  5
CF
330
1F
100
AcDbEntity
  8
치수문자_일반주서
100
AcDbDimension
  2
_D
 10
9.999999999999968
 20
21.34181264333361
 30
0.0
 11
35.39999999999998
 21
21.34181264333361
 31
0.0
 70
   160
  1
<>
 71
     2
 42
50.80000000000001
  3
SLDDIMSTYLE0
100
AcDbAlignedDimension
 13
60.79999999999998
 23
6.298886871436041
 33
0.0
 14
9.999999999999968
 24
6.32204694229358
 34
0.0
 50
0.0000000000000681
100
AcDbRotatedDimension
1001
PE_URL
1000

1001
ACAD
1000
DSTYLE
1002
{
1070
   171
1070
     8
1070
   273
1070
     7
1002
}
  0
DIMENSION
  5
E4
330
1F
100
AcDbEntity
  8
치수문자_일반주서
100
AcDbDimension
  2
_D_1
 10
-40.80000000000003
 20
36.32223841523118
 30
0.0
 11
9.999999999999986
 21
36.32223841523118
 31
0.0
 70
   160
  1
<>
 71
     2
 42
101.6
  3
SLDDIMSTYLE0
100
AcDbAlignedDimension
 13
60.79999999999998
 23
6.298886871436041
 33
0.0
 14
-40.80000000000002
 24
5.052238415231185
 34
0.0
 50
0.000000000000004
100
AcDbRotatedDimension
1001
PE_URL
1000

1001
ACAD
1000
DSTYLE
1002
{
1070
   171
1070
     8
1070
   273
1070
     7
1002
}
  0
DIMENSION
  5
F7
330
1F
100
AcDbEntity
  8
치수문자_일반주서
100
AcDbDimension
  2
_D_2
 10
-55.79999999999999
 20
-6.377761584768873
 30
0.0
 11
-55.80000000000009
 21
22.96798841523112
 31
0.0
 70
   160
  1
%%c<>
 71
     2
 42
12.69999999999999
 52
-270.0
  3
SLDDIMSTYLE0
100
AcDbAlignedDimension
 13
-39.53000000000002
 23
6.322238415231177
 33
0.0
 14
-39.53000000000002
 24
-6.377761584768812
 34
0.0
 50
90.0000000000002
100
AcDbRotatedDimension
1001
PE_URL
1000

1001
ACAD
1000
DSTYLE
1002
{
1070
   171
1070
     8
1070
   273
1070
     7
1002
}
1001
ACAD_DSTYLE_DIMFLIPARROW_SYMBOL
1070
   385
1070
     0
1001
ACAD_DSTYLE_DIMFLIPARROW_WHICH_SYMBOL
1070
   386
1070
     3
  0
DIMENSION
  5
10C
330
1F
100
AcDbEntity
  8
치수문자_일반주서
100
AcDbDimension
  2
_D_3
 10
75.79999999999998
 20
6.2988868714361
 30
0.0
 11
75.79999999999993
 21
23.1633868714361
 31
0.0
 70
   160
  1
%%c<>
 71
     2
 42
12.65329691240972
 52
-270.0
  3
SLDDIMSTYLE0
100
AcDbAlignedDimension
 13
60.79999999999998
 23
-6.354410040973676
 33
0.0
 14
60.79999999999998
 24
6.298886871436041
 34
0.0
 50
90.0000000000002
100
AcDbRotatedDimension
1001
PE_URL
1000

1001
ACAD
1000
DSTYLE
1002
{
1070
   171
1070
     8
1070
   273
1070
     7
1002
}
1001
ACAD_DSTYLE_DIMFLIPARROW_SYMBOL
1070
   385
1070
     0
1001
ACAD_DSTYLE_DIMFLIPARROW_WHICH_SYMBOL
1070
   386
1070
     3
  0
LINE
  5
120
330
1F
100
AcDbEntity
  8
참조1
100
AcDbLine
 10
71.38223381534557
 20
7.412238415231185
 30
0.0
 11
71.38223381534557
 21
-7.467761584768819
 31
0.0
  0
LINE
  5
121
330
1F
100
AcDbEntity
  8
참조1
100
AcDbLine
 10
84.08223381534557
 20
5.412238415231185
 30
0.0
 11
71.38223381534557
 21
5.412238415231185
 31
0.0
  0
SOLID
  5
122
330
1F
100
AcDbEntity
  8
참조1
100
AcDbTrace
 10
71.38223381534557
 20
5.412238415231185
 30
0.0
 11
77.73223381534557
 21
4.396238415231185
 31
0.0
 12
77.73223381534557
 22
6.428238415231185
 32
0.0
 13
77.73223381534557
 23
6.428238415231185
 33
0.0
  0
LINE
  5
123
330
1F
100
AcDbEntity
  8
참조1
100
AcDbLine
 10
84.08223381534557
 20
-5.467761584768819
 30
0.0
 11
71.38223381534557
 21
-5.467761584768819
 31
0.0
  0
SOLID
  5
124
330
1F
100
AcDbEntity
  8
참조1
100
AcDbTrace
 10
71.38223381534557
 20
-5.467761584768819
 30
0.0
 11
77.73223381534557
 21
-6.483761584768819
 31
0.0
 12
77.73223381534557
 22
-4.451761584768819
 32
0.0
 13
77.73223381534557
 23
-4.451761584768819
 33
0.0
  0
MTEXT
  5
125
330
1F
100
AcDbEntity
  8
참조1
100
AcDbMText
 10
80.76658394797157
 20
10.98253019241951
 30
0.0
 40
3.5
 41
0.0
 71
     1
 72
     1
  1
A
  7
SLDTEXTSTYLE0
 73
     1
 44
1.0
  0
MTEXT
  5
126
330
1F
100
AcDbEntity
  8
참조1
100
AcDbMText
 10
80.76658394797157
 20
0.1025301924195094
 30
0.0
 40
3.5
 41
0.0
 71
     1
 72
     1
  1
A
  7
SLDTEXTSTYLE0
 73
     1
 44
1.0
  0
INSERT
  5
12D
330
1F
100
AcDbEntity
  8
해칭선
100
AcDbBlockReference
  2
SW_DOWELSYMBOL_0
 10
0.0
 20
0.0
 30
0.0
  0
LINE
  5
1CF
330
1F
100
AcDbEntity
  8
외형선
  6
Continuous
370
    15
100
AcDbLine
 10
-23.766125
 20
4.798238415231178
 30
0.0
 11
-12.59012500000013
 21
4.798238415231178
 31
0.0
1001
PE_URL
1000

  0
LINE
  5
1D0
330
1F
100
AcDbEntity
  8
외형선
  6
Continuous
370
    15
100
AcDbLine
 10
-23.766125
 20
4.798238415231178
 30
0.0
 11
-25.290125
 21
6.322238415231179
 31
0.0
1001
PE_URL
1000

  0
LINE
  5
1D1
330
1F
100
AcDbEntity
  8
외형선
  6
Continuous
370
    15
100
AcDbLine
 10
-12.59012500000001
 20
4.798238415231178
 30
0.0
 11
-11.06612500000001
 21
6.322238415231179
 31
0.0
1001
PE_URL
1000

  0
LINE
  5
1DC
330
1F
100
AcDbEntity
  8
외형선
  6
Continuous
370
    15
100
AcDbLine
 10
-25.290125
 20
6.322238415231182
 30
0.0
 11
-39.53000000000003
 21
6.322238415231182
 31
0.0
1001
PE_URL
1000

  0
ENDSEC
  0
SECTION
  2
OBJECTS
  0
DICTIONARY
  5
C
330
0
100
AcDbDictionary
281
     1
  3
ACAD_DETAILVIEWSTYLE
350
1DA
  3
ACAD_GROUP
350
D
  3
ACAD_IMAGE_VARS
350
20C
  3
ACAD_LAYOUT
350
1A
  3
ACAD_MLINESTYLE
350
17
  3
ACAD_PLOTSETTINGS
350
19
  3
ACAD_PLOTSTYLENAME
350
E
  3
ACAD_SCALELIST
350
47
  3
ACAD_SECTIONVIEWSTYLE
350
1DB
  3
AcDbVariableDictionary
350
1D5
  3
APPDATA
350
14F
  3
DWGPROPS
350
20D
  0
DICTIONARY
  5
185
330
2
100
AcDbDictionary
280
     1
281
     1
  3
ACAD_LAYERSTATES
360
186
  0
DICTIONARY
  5
1DA
102
{ACAD_REACTORS
330
C
102
}
330
C
100
AcDbDictionary
281
     1
  0
DICTIONARY
  5
D
102
{ACAD_REACTORS
330
C
102
}
330
C
100
AcDbDictionary
281
     1
  0
RASTERVARIABLES
  5
20C
102
{ACAD_REACTORS
330
C
102
}
330
C
100
AcDbRasterVariables
 90
        0
 70
     1
 71
     1
 72
     1
  0
DICTIONARY
  5
1A
102
{ACAD_REACTORS
330
C
102
}
330
C
100
AcDbDictionary
281
     1
  3
Layout1
350
1E
  3
Layout2
350
26
  3
Model
350
22
  0
DICTIONARY
  5
17
102
{ACAD_REACTORS
330
C
102
}
330
C
100
AcDbDictionary
281
     1
  3
Standard
350
18
  0
DICTIONARY
  5
19
102
{ACAD_REACTORS
330
C
102
}
330
C
100
AcDbDictionary
281
     1
  0
ACDBDICTIONARYWDFLT
  5
E
102
{ACAD_REACTORS
330
C
102
}
330
C
100
AcDbDictionary
281
     1
  3
Normal
350
F
100
AcDbDictionaryWithDefault
340
F
  0
DICTIONARY
  5
47
102
{ACAD_REACTORS
330
C
102
}
330
C
100
AcDbDictionary
281
     1
  3
A0
350
48
  3
A1
350
49
  3
A2
350
4A
  3
A3
350
4B
  3
A4
350
4C
  3
A5
350
4D
  3
A6
350
4E
  3
A7
350
4F
  3
A8
350
50
  3
A9
350
51
  3
B0
350
52
  3
B1
350
53
  3
B2
350
54
  3
B3
350
55
  3
B4
350
56
  3
B5
350
57
  3
B6
350
58
  3
B7
350
59
  3
B8
350
5A
  3
B9
350
5B
  3
C0
350
5C
  3
C1
350
5D
  3
C2
350
5E
  3
C3
350
5F
  3
C4
350
60
  3
C5
350
61
  3
C6
350
62
  3
C7
350
63
  3
C8
350
64
  3
C9
350
65
  3
D0
350
66
  3
D1
350
67
  3
D2
350
68
  0
DICTIONARY
  5
1DB
102
{ACAD_REACTORS
330
C
102
}
330
C
100
AcDbDictionary
281
     1
  0
DICTIONARY
  5
1D5
102
{ACAD_REACTORS
330
C
102
}
330
C
100
AcDbDictionary
281
     1
  0
DICTIONARY
  5
14F
102
{ACAD_REACTORS
330
C
102
}
330
C
100
AcDbDictionary
281
     1
  0
XRECORD
  5
20D
102
{ACAD_REACTORS
330
C
102
}
330
C
100
AcDbXrecord
280
     1
  1
DWGPROPS COOKIE
  2

  3

  4

  6

  7

  8
12016016
  9

300
=
301
=
302
=
303
=
304
=
305
=
306
=
307
=
308
=
309
=
 40
0.0
 41
2458312.255767593
 42
2458330.280593009
  1

 90
        0
  0
DICTIONARY
  5
186
102
{ACAD_REACTORS
330
185
102
}
330
185
100
AcDbDictionary
281
     1
  0
LAYOUT
  5
1E
102
{ACAD_REACTORS
330
1A
102
}
330
1A
100
AcDbPlotSettings
  1

  2
none_device
  4

  6

 40
0.0
 41
0.0
 42
0.0
 43
0.0
 44
0.0
 45
0.0
 46
0.0
 47
0.0
 48
0.0
 49
0.0
140
0.0
141
0.0
142
1.0
143
1.0
 70
   688
 72
     1
 73
     0
 74
     5
  7

 75
    16
147
1.0
148
0.0
149
0.0
100
AcDbLayout
  1
Layout1
 70
     1
 71
     1
 10
0.0
 20
0.0
 11
420.0
 21
297.0
 12
0.0
 22
0.0
 32
0.0
 14
1.000000000000000E+20
 24
1.000000000000000E+20
 34
1.000000000000000E+20
 15
-1.000000000000000E+20
 25
-1.000000000000000E+20
 35
-1.000000000000000E+20
146
0.0
 13
0.0
 23
0.0
 33
0.0
 16
1.0
 26
0.0
 36
0.0
 17
0.0
 27
1.0
 37
0.0
 76
     0
330
1B
  0
LAYOUT
  5
26
102
{ACAD_REACTORS
330
1A
102
}
330
1A
100
AcDbPlotSettings
  1

  2
none_device
  4

  6

 40
0.0
 41
0.0
 42
0.0
 43
0.0
 44
0.0
 45
0.0
 46
0.0
 47
0.0
 48
0.0
 49
0.0
140
0.0
141
0.0
142
1.0
143
1.0
 70
   688
 72
     1
 73
     0
 74
     5
  7

 75
    16
147
1.0
148
0.0
149
0.0
100
AcDbLayout
  1
Layout2
 70
     1
 71
     2
 10
0.0
 20
0.0
 11
0.0
 21
0.0
 12
0.0
 22
0.0
 32
0.0
 14
0.0
 24
0.0
 34
0.0
 15
0.0
 25
0.0
 35
0.0
146
0.0
 13
0.0
 23
0.0
 33
0.0
 16
1.0
 26
0.0
 36
0.0
 17
0.0
 27
1.0
 37
0.0
 76
     0
330
23
  0
LAYOUT
  5
22
102
{ACAD_REACTORS
330
1A
102
}
330
1A
100
AcDbPlotSettings
  1

  2
none_device
  4
ANSI_A_(11.00_x_8.50_Inches)
  6

 40
6.35
 41
19.05
 42
6.35000508
 43
19.05000254
 44
279.4
 45
215.9
 46
66.56313971931203
 47
62.91597877360707
 48
0.0
 49
0.0
140
0.0
141
0.0
142
0.050153661973378
143
1.0
 70
  1696
 72
     0
 73
     0
 74
     0
  7

 75
     0
147
0.0235690232323232
148
0.0
149
0.0
100
AcDbLayout
  1
Model
 70
     1
 71
     0
 10
0.0
 20
0.0
 11
420.0
 21
297.0
 12
0.0
 22
0.0
 32
0.0
 14
-60.17500000000013
 24
-49.99956897358057
 34
0.0
 15
84.08223381534557
 25
40.69723841523118
 35
0.0
146
0.0
 13
0.0
 23
0.0
 33
0.0
 16
1.0
 26
0.0
 36
0.0
 17
0.0
 27
1.0
 37
0.0
 76
     0
330
1F
331
29
  0
MLINESTYLE
  5
18
102
{ACAD_REACTORS
330
17
102
}
330
17
100
AcDbMlineStyle
  2
Standard
 70
     0
  3

 62
   256
 51
90.0
 52
90.0
 71
     2
 49
0.5
 62
   256
  6
BYLAYER
 49
-0.5
 62
   256
  6
BYLAYER
  0
ACDBPLACEHOLDER
  5
F
102
{ACAD_REACTORS
330
E
102
}
330
E
  0
SCALE
  5
48
102
{ACAD_REACTORS
330
47
102
}
330
47
100
AcDbScale
 70
     0
300
1:1
140
1.0
141
1.0
290
     1
  0
SCALE
  5
49
102
{ACAD_REACTORS
330
47
102
}
330
47
100
AcDbScale
 70
     0
300
1:2
140
1.0
141
2.0
290
     0
  0
SCALE
  5
4A
102
{ACAD_REACTORS
330
47
102
}
330
47
100
AcDbScale
 70
     0
300
1:4
140
1.0
141
4.0
290
     0
  0
SCALE
  5
4B
102
{ACAD_REACTORS
330
47
102
}
330
47
100
AcDbScale
 70
     0
300
1:5
140
1.0
141
5.0
290
     0
  0
SCALE
  5
4C
102
{ACAD_REACTORS
330
47
102
}
330
47
100
AcDbScale
 70
     0
300
1:8
140
1.0
141
8.0
290
     0
  0
SCALE
  5
4D
102
{ACAD_REACTORS
330
47
102
}
330
47
100
AcDbScale
 70
     0
300
1:10
140
1.0
141
10.0
290
     0
  0
SCALE
  5
4E
102
{ACAD_REACTORS
330
47
102
}
330
47
100
AcDbScale
 70
     0
300
1:16
140
1.0
141
16.0
290
     0
  0
SCALE
  5
4F
102
{ACAD_REACTORS
330
47
102
}
330
47
100
AcDbScale
 70
     0
300
1:20
140
1.0
141
20.0
290
     0
  0
SCALE
  5
50
102
{ACAD_REACTORS
330
47
102
}
330
47
100
AcDbScale
 70
     0
300
1:30
140
1.0
141
30.0
290
     0
  0
SCALE
  5
51
102
{ACAD_REACTORS
330
47
102
}
330
47
100
AcDbScale
 70
     0
300
1:40
140
1.0
141
40.0
290
     0
  0
SCALE
  5
52
102
{ACAD_REACTORS
330
47
102
}
330
47
100
AcDbScale
 70
     0
300
1:50
140
1.0
141
50.0
290
     0
  0
SCALE
  5
53
102
{ACAD_REACTORS
330
47
102
}
330
47
100
AcDbScale
 70
     0
300
1:100
140
1.0
141
100.0
290
     0
  0
SCALE
  5
54
102
{ACAD_REACTORS
330
47
102
}
330
47
100
AcDbScale
 70
     0
300
2:1
140
2.0
141
1.0
290
     0
  0
SCALE
  5
55
102
{ACAD_REACTORS
330
47
102
}
330
47
100
AcDbScale
 70
     0
300
4:1
140
4.0
141
1.0
290
     0
  0
SCALE
  5
56
102
{ACAD_REACTORS
330
47
102
}
330
47
100
AcDbScale
 70
     0
300
8:1
140
8.0
141
1.0
290
     0
  0
SCALE
  5
57
102
{ACAD_REACTORS
330
47
102
}
330
47
100
AcDbScale
 70
     0
300
10:1
140
10.0
141
1.0
290
     0
  0
SCALE
  5
58
102
{ACAD_REACTORS
330
47
102
}
330
47
100
AcDbScale
 70
     0
300
100:1
140
100.0
141
1.0
290
     0
  0
SCALE
  5
59
102
{ACAD_REACTORS
330
47
102
}
330
47
100
AcDbScale
 70
     0
300
1/128" = 1'-0"
140
0.0078125
141
12.0
290
     0
  0
SCALE
  5
5A
102
{ACAD_REACTORS
330
47
102
}
330
47
100
AcDbScale
 70
     0
300
1/64" = 1'-0"
140
0.015625
141
12.0
290
     0
  0
SCALE
  5
5B
102
{ACAD_REACTORS
330
47
102
}
330
47
100
AcDbScale
 70
     0
300
1/32" = 1'-0"
140
0.03125
141
12.0
290
     0
  0
SCALE
  5
5C
102
{ACAD_REACTORS
330
47
102
}
330
47
100
AcDbScale
 70
     0
300
1/16" = 1'-0"
140
0.0625
141
12.0
290
     0
  0
SCALE
  5
5D
102
{ACAD_REACTORS
330
47
102
}
330
47
100
AcDbScale
 70
     0
300
3/32" = 1'-0"
140
0.09375
141
12.0
290
     0
  0
SCALE
  5
5E
102
{ACAD_REACTORS
330
47
102
}
330
47
100
AcDbScale
 70
     0
300
1/8" = 1'-0"
140
0.125
141
12.0
290
     0
  0
SCALE
  5
5F
102
{ACAD_REACTORS
330
47
102
}
330
47
100
AcDbScale
 70
     0
300
3/16" = 1'-0"
140
0.1875
141
12.0
290
     0
  0
SCALE
  5
60
102
{ACAD_REACTORS
330
47
102
}
330
47
100
AcDbScale
 70
     0
300
1/4" = 1'-0"
140
0.25
141
12.0
290
     0
  0
SCALE
  5
61
102
{ACAD_REACTORS
330
47
102
}
330
47
100
AcDbScale
 70
     0
300
3/8" = 1'-0"
140
0.375
141
12.0
290
     0
  0
SCALE
  5
62
102
{ACAD_REACTORS
330
47
102
}
330
47
100
AcDbScale
 70
     0
300
1/2" = 1'-0"
140
0.5
141
12.0
290
     0
  0
SCALE
  5
63
102
{ACAD_REACTORS
330
47
102
}
330
47
100
AcDbScale
 70
     0
300
3/4" = 1'-0"
140
0.75
141
12.0
290
     0
  0
SCALE
  5
64
102
{ACAD_REACTORS
330
47
102
}
330
47
100
AcDbScale
 70
     0
300
1" = 1'-0"
140
1.0
141
12.0
290
     0
  0
SCALE
  5
65
102
{ACAD_REACTORS
330
47
102
}
330
47
100
AcDbScale
 70
     0
300
1-1/2" = 1'-0"
140
1.5
141
12.0
290
     0
  0
SCALE
  5
66
102
{ACAD_REACTORS
330
47
102
}
330
47
100
AcDbScale
 70
     0
300
3" = 1'-0"
140
3.0
141
12.0
290
     0
  0
SCALE
  5
67
102
{ACAD_REACTORS
330
47
102
}
330
47
100
AcDbScale
 70
     0
300
6" = 1'-0"
140
6.0
141
12.0
290
     0
  0
SCALE
  5
68
102
{ACAD_REACTORS
330
47
102
}
330
47
100
AcDbScale
 70
     0
300
1'-0" = 1'-0"
140
12.0
141
12.0
290
     0
  0
ENDSEC
  0
EOF
