  0
SECTION
  2
HEADER
  9
$ACADVER
  1
AC1015
  9
$ACADMAINTVER
 70
     6
  9
$DWGCODEPAGE
  3
ANSI_949
  9
$INSBASE
 10
0.0
 20
0.0
 30
0.0
  9
$EXTMIN
 10
-61.35000000000068
 20
-49.97180738881175
 30
0.0
  9
$EXTMAX
 10
91.05033333333287
 20
44.02281057025613
 30
0.0
  9
$LIMMIN
 10
0.0
 20
0.0
  9
$LIMMAX
 10
420.0
 20
297.0
  9
$ORTHOMODE
 70
     1
  9
$REGENMODE
 70
     1
  9
$FILLMODE
 70
     1
  9
$QTEXTMODE
 70
     0
  9
$MIRRTEXT
 70
     1
  9
$LTSCALE
 40
1.0
  9
$ATTMODE
 70
     1
  9
$TEXTSIZE
 40
3.5
  9
$TRACEWID
 40
1.0
  9
$TEXTSTYLE
  7
Standard
  9
$CLAYER
  8
0
  9
$CELTYPE
  6
ByLayer
  9
$CECOLOR
 62
   256
  9
$CELTSCALE
 40
1.0
  9
$DISPSILH
 70
     0
  9
$DIMSCALE
 40
1.0
  9
$DIMASZ
 40
3.302
  9
$DIMEXO
 40
1.0
  9
$DIMDLI
 40
3.75
  9
$DIMRND
 40
0.0
  9
$DIMDLE
 40
0.0
  9
$DIMEXE
 40
1.0
  9
$DIMTP
 40
0.0
  9
$DIMTM
 40
0.0
  9
$DIMTXT
 40
3.5
  9
$DIMCEN
 40
2.5
  9
$DIMTSZ
 40
0.0
  9
$DIMTOL
 70
     0
  9
$DIMLIM
 70
     0
  9
$DIMTIH
 70
     1
  9
$DIMTOH
 70
     1
  9
$DIMSE1
 70
     0
  9
$DIMSE2
 70
     0
  9
$DIMTAD
 70
     1
  9
$DIMZIN
 70
     0
  9
$DIMBLK
  1

  9
$DIMASO
 70
     1
  9
$DIMSHO
 70
     1
  9
$DIMPOST
  1

  9
$DIMAPOST
  1

  9
$DIMALT
 70
     0
  9
$DIMALTD
 70
     3
  9
$DIMALTF
 40
0.0393700787401575
  9
$DIMLFAC
 40
1.0
  9
$DIMTOFL
 70
     1
  9
$DIMTVP
 40
0.0
  9
$DIMTIX
 70
     0
  9
$DIMSOXD
 70
     0
  9
$DIMSAH
 70
     0
  9
$DIMBLK1
  1

  9
$DIMBLK2
  1

  9
$DIMSTYLE
  2
ISO-25
  9
$DIMCLRD
 70
     0
  9
$DIMCLRE
 70
     0
  9
$DIMCLRT
 70
     0
  9
$DIMTFAC
 40
1.0
  9
$DIMGAP
 40
1.524
  9
$DIMJUST
 70
     0
  9
$DIMSD1
 70
     0
  9
$DIMSD2
 70
     0
  9
$DIMTOLJ
 70
     0
  9
$DIMTZIN
 70
     0
  9
$DIMALTZ
 70
     0
  9
$DIMALTTZ
 70
     0
  9
$DIMUPT
 70
     0
  9
$DIMDEC
 70
     2
  9
$DIMTDEC
 70
     2
  9
$DIMALTU
 70
     2
  9
$DIMALTTD
 70
     3
  9
$DIMTXSTY
  7
Standard
  9
$DIMAUNIT
 70
     0
  9
$DIMADEC
 70
     2
  9
$DIMALTRND
 40
0.0
  9
$DIMAZIN
 70
     0
  9
$DIMDSEP
 70
    44
  9
$DIMATFIT
 70
     3
  9
$DIMFRAC
 70
     0
  9
$DIMLDRBLK
  1

  9
$DIMLUNIT
 70
     2
  9
$DIMLWD
 70
    -2
  9
$DIMLWE
 70
    -2
  9
$DIMTMOVE
 70
     0
  9
$LUNITS
 70
     2
  9
$LUPREC
 70
     2
  9
$SKETCHINC
 40
1.0
  9
$FILLETRAD
 40
10.0
  9
$AUNITS
 70
     0
  9
$AUPREC
 70
     2
  9
$MENU
  1
.
  9
$ELEVATION
 40
0.0
  9
$PELEVATION
 40
0.0
  9
$THICKNESS
 40
0.0
  9
$LIMCHECK
 70
     0
  9
$CHAMFERA
 40
0.0
  9
$CHAMFERB
 40
0.0
  9
$CHAMFERC
 40
0.0
  9
$CHAMFERD
 40
0.0
  9
$SKPOLY
 70
     0
  9
$TDCREATE
 40
2458312.630979387
  9
$TDUCREATE
 40
2458312.255979387
  9
$TDUPDATE
 40
2458330.655545799
  9
$TDUUPDATE
 40
2458330.280545799
  9
$TDINDWG
 40
0.0012864005
  9
$TDUSRTIMER
 40
2458330.280505162
  9
$USRTIMER
 70
     1
  9
$ANGBASE
 50
0.0
  9
$ANGDIR
 70
     0
  9
$PDMODE
 70
     0
  9
$PDSIZE
 40
-1.0
  9
$PLINEWID
 40
0.0
  9
$SPLFRAME
 70
     0
  9
$SPLINETYPE
 70
     6
  9
$SPLINESEGS
 70
     8
  9
$HANDSEED
  5
20D
  9
$SURFTAB1
 70
     6
  9
$SURFTAB2
 70
     6
  9
$SURFTYPE
 70
     6
  9
$SURFU
 70
     6
  9
$SURFV
 70
     6
  9
$UCSBASE
  2

  9
$UCSNAME
  2

  9
$UCSORG
 10
0.0
 20
0.0
 30
0.0
  9
$UCSXDIR
 10
1.0
 20
0.0
 30
0.0
  9
$UCSYDIR
 10
0.0
 20
1.0
 30
0.0
  9
$UCSORTHOREF
  2

  9
$UCSORTHOVIEW
 70
     0
  9
$UCSORGTOP
 10
0.0
 20
0.0
 30
0.0
  9
$UCSORGBOTTOM
 10
0.0
 20
0.0
 30
0.0
  9
$UCSORGLEFT
 10
0.0
 20
0.0
 30
0.0
  9
$UCSORGRIGHT
 10
0.0
 20
0.0
 30
0.0
  9
$UCSORGFRONT
 10
0.0
 20
0.0
 30
0.0
  9
$UCSORGBACK
 10
0.0
 20
0.0
 30
0.0
  9
$PUCSBASE
  2

  9
$PUCSNAME
  2

  9
$PUCSORG
 10
0.0
 20
0.0
 30
0.0
  9
$PUCSXDIR
 10
1.0
 20
0.0
 30
0.0
  9
$PUCSYDIR
 10
0.0
 20
1.0
 30
0.0
  9
$PUCSORTHOREF
  2

  9
$PUCSORTHOVIEW
 70
     0
  9
$PUCSORGTOP
 10
0.0
 20
0.0
 30
0.0
  9
$PUCSORGBOTTOM
 10
0.0
 20
0.0
 30
0.0
  9
$PUCSORGLEFT
 10
0.0
 20
0.0
 30
0.0
  9
$PUCSORGRIGHT
 10
0.0
 20
0.0
 30
0.0
  9
$PUCSORGFRONT
 10
0.0
 20
0.0
 30
0.0
  9
$PUCSORGBACK
 10
0.0
 20
0.0
 30
0.0
  9
$USERI1
 70
     0
  9
$USERI2
 70
     0
  9
$USERI3
 70
     0
  9
$USERI4
 70
     0
  9
$USERI5
 70
     0
  9
$USERR1
 40
0.0
  9
$USERR2
 40
0.0
  9
$USERR3
 40
0.0
  9
$USERR4
 40
0.0
  9
$USERR5
 40
0.0
  9
$WORLDVIEW
 70
     1
  9
$SHADEDGE
 70
     3
  9
$SHADEDIF
 70
    70
  9
$TILEMODE
 70
     1
  9
$MAXACTVP
 70
    64
  9
$PINSBASE
 10
0.0
 20
0.0
 30
0.0
  9
$PLIMCHECK
 70
     0
  9
$PEXTMIN
 10
1.000000000000000E+20
 20
1.000000000000000E+20
 30
1.000000000000000E+20
  9
$PEXTMAX
 10
-1.000000000000000E+20
 20
-1.000000000000000E+20
 30
-1.000000000000000E+20
  9
$PLIMMIN
 10
0.0
 20
0.0
  9
$PLIMMAX
 10
0.0
 20
0.0
  9
$UNITMODE
 70
     0
  9
$VISRETAIN
 70
     1
  9
$PLINEGEN
 70
     0
  9
$PSLTSCALE
 70
     1
  9
$TREEDEPTH
 70
  3020
  9
$CMLSTYLE
  2
Standard
  9
$CMLJUST
 70
     0
  9
$CMLSCALE
 40
20.0
  9
$PROXYGRAPHICS
 70
     1
  9
$MEASUREMENT
 70
     1
  9
$CELWEIGHT
370
    -1
  9
$ENDCAPS
280
     0
  9
$JOINSTYLE
280
     0
  9
$LWDISPLAY
290
     1
  9
$INSUNITS
 70
     4
  9
$HYPERLINKBASE
  1

  9
$STYLESHEET
  1

  9
$XEDIT
290
     1
  9
$CEPSNTYPE
380
     0
  9
$PSTYLEMODE
290
     1
  9
$FINGERPRINTGUID
  2
{D512F028-9674-47E7-B918-590D535C2D53}
  9
$VERSIONGUID
  2
{FAEB1C32-E019-11D5-929B-00C0DF256EC4}
  9
$EXTNAMES
290
     1
  9
$PSVPSCALE
 40
0.0
  9
$OLESTARTUP
290
     0
  0
ENDSEC
  0
SECTION
  2
CLASSES
  0
CLASS
  1
ACDBDICTIONARYWDFLT
  2
AcDbDictionaryWithDefault
  3
ObjectDBX Classes
 90
        0
280
     0
281
     0
  0
CLASS
  1
VISUALSTYLE
  2
AcDbVisualStyle
  3
ObjectDBX Classes
 90
     4095
280
     0
281
     0
  0
CLASS
  1
MATERIAL
  2
AcDbMaterial
  3
ObjectDBX Classes
 90
     1153
280
     0
281
     0
  0
CLASS
  1
SCALE
  2
AcDbScale
  3
ObjectDBX Classes
 90
     1153
280
     0
281
     0
  0
CLASS
  1
SUN
  2
AcDbSun
  3
SCENEOE
 90
     1153
280
     0
281
     0
  0
CLASS
  1
ACDBPLACEHOLDER
  2
AcDbPlaceHolder
  3
ObjectDBX Classes
 90
        0
280
     0
281
     0
  0
CLASS
  1
LAYOUT
  2
AcDbLayout
  3
ObjectDBX Classes
 90
        0
280
     0
281
     0
  0
CLASS
  1
TABLESTYLE
  2
AcDbTableStyle
  3
ObjectDBX Classes
 90
     4095
280
     0
281
     0
  0
CLASS
  1
MLEADERSTYLE
  2
AcDbMLeaderStyle
  3
ACDB_MLEADERSTYLE_CLASS
 90
     4095
280
     0
281
     0
  0
CLASS
  1
DICTIONARYVAR
  2
AcDbDictionaryVar
  3
ObjectDBX Classes
 90
        0
280
     0
281
     0
  0
CLASS
  1
RASTERVARIABLES
  2
AcDbRasterVariables
  3
ISM
 90
        0
280
     0
281
     0
  0
ENDSEC
  0
SECTION
  2
TABLES
  0
TABLE
  2
VPORT
  5
8
330
0
100
AcDbSymbolTable
 70
     1
  0
VPORT
  5
29
330
8
100
AcDbSymbolTableRecord
100
AcDbViewportTableRecord
  2
*Active
 70
     0
 10
0.0
 20
0.0
 11
1.0
 21
1.0
 12
14.8501666666661
 22
-2.974498409277814
 13
0.0
 23
0.0
 14
10.0
 24
10.0
 15
10.0
 25
10.0
 16
0.0
 26
0.0
 36
1.0
 17
0.0
 27
0.0
 37
0.0
 40
95.87451031824924
 41
1.782762691853601
 42
50.0
 43
0.0
 44
0.0
 50
0.0
 51
0.0
 71
    16
 72
  2000
 73
     1
 74
     3
 75
     0
 76
     0
 77
     0
 78
     0
281
     0
 65
     1
110
0.0
120
0.0
130
0.0
111
1.0
121
0.0
131
0.0
112
0.0
122
1.0
132
0.0
 79
     0
146
0.0
  0
ENDTAB
  0
TABLE
  2
LTYPE
  5
5
330
0
100
AcDbSymbolTable
 70
     6
  0
LTYPE
  5
14
330
5
100
AcDbSymbolTableRecord
100
AcDbLinetypeTableRecord
  2
ByBlock
 70
     0
  3

 72
    65
 73
     0
 40
0.0
  0
LTYPE
  5
15
330
5
100
AcDbSymbolTableRecord
100
AcDbLinetypeTableRecord
  2
ByLayer
 70
     0
  3

 72
    65
 73
     0
 40
0.0
  0
LTYPE
  5
16
330
5
100
AcDbSymbolTableRecord
100
AcDbLinetypeTableRecord
  2
Continuous
 70
     0
  3
Solid line
 72
    65
 73
     0
 40
0.0
  0
LTYPE
  5
6A
330
5
100
AcDbSymbolTableRecord
100
AcDbLinetypeTableRecord
  2
HIDDEN
 70
     0
  3
Hidden __ __ __ __ __ __ __ __ __ __ __ __ __ __
 72
    65
 73
     2
 40
1.905
 49
1.27
 74
     0
 49
-0.635
 74
     0
  0
LTYPE
  5
6B
330
5
100
AcDbSymbolTableRecord
100
AcDbLinetypeTableRecord
  2
PHANTOM
 70
     0
  3
Phantom ______  __  __  ______  __  __  ______
 72
    65
 73
     6
 40
12.7
 49
6.35
 74
     0
 49
-1.27
 74
     0
 49
1.27
 74
     0
 49
-1.27
 74
     0
 49
1.27
 74
     0
 49
-1.27
 74
     0
  0
LTYPE
  5
6C
330
5
100
AcDbSymbolTableRecord
100
AcDbLinetypeTableRecord
  2
CENTER
 70
     0
  3
Center ____ _ ____ _ ____ _ ____ _ ____ _ ____
 72
    65
 73
     4
 40
10.16
 49
6.35
 74
     0
 49
-1.27
 74
     0
 49
1.27
 74
     0
 49
-1.27
 74
     0
  0
LTYPE
  5
6D
330
5
100
AcDbSymbolTableRecord
100
AcDbLinetypeTableRecord
  2
CENTERX2
 70
     0
  3
Center (2x) ________  __  ________  __  _____
 72
    65
 73
     4
 40
20.32
 49
12.7
 74
     0
 49
-2.54
 74
     0
 49
2.54
 74
     0
 49
-2.54
 74
     0
  0
LTYPE
  5
6E
330
5
100
AcDbSymbolTableRecord
100
AcDbLinetypeTableRecord
  2
DOT2
 70
     0
  3
Dot (.5x) ........................................
 72
    65
 73
     2
 40
0.635
 49
0.0
 74
     0
 49
-0.635
 74
     0
  0
ENDTAB
  0
TABLE
  2
LAYER
  5
2
102
{ACAD_XDICTIONARY
360
185
102
}
330
0
100
AcDbSymbolTable
 70
    18
  0
LAYER
  5
10
330
2
100
AcDbSymbolTableRecord
100
AcDbLayerTableRecord
  2
0
 70
     0
 62
     7
  6
Continuous
370
    -3
390
F
  0
LAYER
  5
6F
330
2
100
AcDbSymbolTableRecord
100
AcDbLayerTableRecord
  2
FORMAT
 70
     0
 62
     2
  6
Continuous
370
    -3
390
F
  0
LAYER
  5
70
330
2
100
AcDbSymbolTableRecord
100
AcDbLayerTableRecord
  2
외형선
 70
     0
 62
     4
  6
Continuous
370
    30
390
F
  0
LAYER
  5
71
330
2
100
AcDbSymbolTableRecord
100
AcDbLayerTableRecord
  2
숨은선
 70
     0
 62
     2
  6
HIDDEN
370
    15
390
F
  0
LAYER
  5
72
330
2
100
AcDbSymbolTableRecord
100
AcDbLayerTableRecord
  2
중심선
 70
     0
 62
     1
  6
CENTERX2
370
    -3
390
F
  0
LAYER
  5
73
330
2
100
AcDbSymbolTableRecord
100
AcDbLayerTableRecord
  2
파단선
 70
     0
 62
     4
  6
Continuous
370
    -3
390
F
  0
LAYER
  5
74
330
2
100
AcDbSymbolTableRecord
100
AcDbLayerTableRecord
  2
해칭선
 70
     0
 62
   100
  6
Continuous
370
    -3
390
F
  0
LAYER
  5
75
330
2
100
AcDbSymbolTableRecord
100
AcDbLayerTableRecord
  2
가는실선
 70
     0
 62
     4
  6
Continuous
370
    -3
390
F
  0
LAYER
  5
76
330
2
100
AcDbSymbolTableRecord
100
AcDbLayerTableRecord
  2
치수_보조선
 70
     0
 62
     4
  6
Continuous
370
    -3
390
F
  0
LAYER
  5
77
330
2
100
AcDbSymbolTableRecord
100
AcDbLayerTableRecord
  2
치수문자_일반주서
 70
     0
 62
     7
  6
Continuous
370
    15
390
F
  0
LAYER
  5
78
330
2
100
AcDbSymbolTableRecord
100
AcDbLayerTableRecord
  2
개별주서
 70
     0
 62
   100
  6
Continuous
370
    30
390
F
  0
LAYER
  5
79
330
2
100
AcDbSymbolTableRecord
100
AcDbLayerTableRecord
  2
중간선
 70
     0
 62
     2
  6
Continuous
370
    15
390
F
  0
LAYER
  5
7A
330
2
100
AcDbSymbolTableRecord
100
AcDbLayerTableRecord
  2
윤곽선
 70
     0
 62
     3
  6
Continuous
370
    40
390
F
  0
LAYER
  5
7B
330
2
100
AcDbSymbolTableRecord
100
AcDbLayerTableRecord
  2
중심마크
 70
     0
 62
   100
  6
Continuous
370
    30
390
F
  0
LAYER
  5
7C
330
2
100
AcDbSymbolTableRecord
100
AcDbLayerTableRecord
  2
가상선
 70
     0
 62
     4
  6
PHANTOM
370
    -3
390
F
  0
LAYER
  5
7D
330
2
100
AcDbSymbolTableRecord
100
AcDbLayerTableRecord
  2
특수지정선
 70
     0
 62
     5
  6
CENTERX2
370
    60
390
F
  0
LAYER
  5
7E
330
2
100
AcDbSymbolTableRecord
100
AcDbLayerTableRecord
  2
참조1
 70
     0
 62
    -4
  6
Continuous
370
    -3
390
F
  0
LAYER
  5
151
330
2
100
AcDbSymbolTableRecord
100
AcDbLayerTableRecord
  2
Defpoints
 70
     0
 62
     7
  6
Continuous
290
     0
370
    -3
390
F
  0
ENDTAB
  0
TABLE
  2
STYLE
  5
3
330
0
100
AcDbSymbolTable
 70
     2
  0
STYLE
  5
11
330
3
100
AcDbSymbolTableRecord
100
AcDbTextStyleTableRecord
  2
Standard
 70
     0
 40
0.0
 41
1.0
 50
0.0
 71
     0
 42
3.5
  3
txt
  4

  0
STYLE
  5
94
330
3
100
AcDbSymbolTableRecord
100
AcDbTextStyleTableRecord
  2
SLDTEXTSTYLE0
 70
     0
 40
0.0
 41
0.75
 50
0.0
 71
     0
 42
3.5
  3
TXT
  4

  0
ENDTAB
  0
TABLE
  2
VIEW
  5
6
330
0
100
AcDbSymbolTable
 70
     0
  0
ENDTAB
  0
TABLE
  2
UCS
  5
7
330
0
100
AcDbSymbolTable
 70
     0
  0
ENDTAB
  0
TABLE
  2
APPID
  5
9
330
0
100
AcDbSymbolTable
 70
     4
  0
APPID
  5
12
330
9
100
AcDbSymbolTableRecord
100
AcDbRegAppTableRecord
  2
ACAD
 70
     0
  0
APPID
  5
158
330
9
100
AcDbSymbolTableRecord
100
AcDbRegAppTableRecord
  2
PE_URL
 70
     0
  0
APPID
  5
1E7
330
9
100
AcDbSymbolTableRecord
100
AcDbRegAppTableRecord
  2
ACAD_DSTYLE_DIMFLIPARROW_SYMBOL
 70
     0
  0
APPID
  5
1E8
330
9
100
AcDbSymbolTableRecord
100
AcDbRegAppTableRecord
  2
ACAD_DSTYLE_DIMFLIPARROW_WHICH_SYMBOL
 70
     0
  0
ENDTAB
  0
TABLE
  2
DIMSTYLE
  5
A
330
0
100
AcDbSymbolTable
 70
     4
100
AcDbDimStyleTable
  0
DIMSTYLE
105
27
330
A
100
AcDbSymbolTableRecord
100
AcDbDimStyleTableRecord
  2
ISO-25
 70
     0
 41
2.5
 42
0.625
 43
3.75
 44
1.25
 73
     0
 74
     0
 77
     1
 78
     8
140
2.5
141
2.5
143
0.03937007874016
147
0.625
171
     3
172
     1
178
     0
271
     2
272
     2
274
     3
278
    44
283
     0
284
     8
340
11
  0
DIMSTYLE
105
D0
102
{ACAD_REACTORS
330
CF
330
F8
330
E4
330
10D
102
}
330
A
100
AcDbSymbolTableRecord
100
AcDbDimStyleTableRecord
  2
SLDDIMSTYLE0
 70
     0
 41
3.302
 44
0.0
 45
0.000000001
 73
     0
 74
     0
 77
     1
 78
     4
 79
     1
140
3.5
143
0.0393700787401575
147
0.875
148
0.000000001
170
     1
173
     1
178
     0
271
     2
272
     2
276
     2
284
    12
340
94
  0
DIMSTYLE
105
E5
330
A
100
AcDbSymbolTableRecord
100
AcDbDimStyleTableRecord
  2
SLDDIMSTYLE1
 70
     0
 41
3.302
 44
0.0
 45
0.000000001
 73
     0
 74
     0
 77
     1
 78
    12
 79
     3
140
3.5
143
0.0393700787401575
147
0.875
148
0.000000001
170
     1
173
     1
178
     0
271
     2
272
     2
276
     2
284
    12
340
94
  0
DIMSTYLE
105
F9
330
A
100
AcDbSymbolTableRecord
100
AcDbDimStyleTableRecord
  2
SLDDIMSTYLE2
 70
     0
 41
3.302
 44
0.0
 45
0.000000001
 73
     0
 74
     0
 77
     1
 78
    12
 79
     3
140
3.5
143
0.0393700787401575
147
0.875
148
0.000000001
170
     1
172
     1
173
     1
178
     0
271
     2
272
     2
276
     2
284
    12
289
     0
340
94
  0
ENDTAB
  0
TABLE
  2
BLOCK_RECORD
  5
1
330
0
100
AcDbSymbolTable
 70
     9
  0
BLOCK_RECORD
  5
1F
330
1
100
AcDbSymbolTableRecord
100
AcDbBlockTableRecord
  2
*Model_Space
340
22
  0
BLOCK_RECORD
  5
1B
330
1
100
AcDbSymbolTableRecord
100
AcDbBlockTableRecord
  2
*Paper_Space
340
1E
  0
BLOCK_RECORD
  5
23
330
1
100
AcDbSymbolTableRecord
100
AcDbBlockTableRecord
  2
*Paper_Space0
340
26
  0
BLOCK_RECORD
  5
7F
330
1
100
AcDbSymbolTableRecord
100
AcDbBlockTableRecord
  2
블럭10
340
0
102
{BLKREFS
331
C8
102
}
  0
BLOCK_RECORD
  5
D1
330
1
100
AcDbSymbolTableRecord
100
AcDbBlockTableRecord
  2
_D
340
0
  0
BLOCK_RECORD
  5
E6
330
1
100
AcDbSymbolTableRecord
100
AcDbBlockTableRecord
  2
_D_1
340
0
  0
BLOCK_RECORD
  5
FA
330
1
100
AcDbSymbolTableRecord
100
AcDbBlockTableRecord
  2
_D_2
340
0
  0
BLOCK_RECORD
  5
10E
330
1
100
AcDbSymbolTableRecord
100
AcDbBlockTableRecord
  2
_D_3
340
0
  0
BLOCK_RECORD
  5
127
330
1
100
AcDbSymbolTableRecord
100
AcDbBlockTableRecord
  2
SW_DOWELSYMBOL_0
340
0
102
{BLKREFS
331
12D
102
}
  0
BLOCK_RECORD
  5
189
330
1
100
AcDbSymbolTableRecord
100
AcDbBlockTableRecord
  2
*D7
340
0
  0
BLOCK_RECORD
  5
198
330
1
100
AcDbSymbolTableRecord
100
AcDbBlockTableRecord
  2
*D8
340
0
  0
ENDTAB
  0
ENDSEC
  0
SECTION
  2
BLOCKS
  0
BLOCK
  5
20
330
1F
100
AcDbEntity
  8
0
100
AcDbBlockBegin
  2
*Model_Space
 70
     0
 10
0.0
 20
0.0
 30
0.0
  3
*Model_Space
  1
*Model_Space
  0
ENDBLK
  5
21
330
1F
100
AcDbEntity
  8
0
100
AcDbBlockEnd
  0
BLOCK
  5
1C
330
1B
100
AcDbEntity
 67
     1
  8
0
100
AcDbBlockBegin
  2
*Paper_Space
 70
     0
 10
0.0
 20
0.0
 30
0.0
  3
*Paper_Space
  1
*Paper_Space
  0
ENDBLK
  5
1D
330
1B
100
AcDbEntity
 67
     1
  8
0
100
AcDbBlockEnd
  0
BLOCK
  5
24
330
23
100
AcDbEntity
  8
0
100
AcDbBlockBegin
  2
*Paper_Space0
 70
     0
 10
0.0
 20
0.0
 30
0.0
  3
*Paper_Space0
  1
*Paper_Space0
  0
ENDBLK
  5
25
330
23
100
AcDbEntity
  8
0
100
AcDbBlockEnd
  0
BLOCK
  5
80
330
7F
100
AcDbEntity
  8
0
100
AcDbBlockBegin
  2
블럭10
 70
     2
 10
0.0
 20
0.0
 30
0.0
  3
블럭10
  1
블럭10
  0
ELLIPSE
  5
82
330
7F
100
AcDbEntity
  8
중심선
100
AcDbEllipse
 10
20.54032771741204
 20
12.0471743016438
 30
0.0
 11
6.600054785286829
 21
-1.261213355974178E-13
 31
0.0
210
0.0
220
0.0
230
1.0
 40
0.636358354079598
 41
0.9219305317359503
 42
6.513795318482858
  0
ELLIPSE
  5
83
330
7F
100
AcDbEntity
  8
중심선
100
AcDbEllipse
 10
20.54032771746488
 20
12.04717430159265
 30
0.0
 11
3.960054785062283
 21
1.540847449632565E-10
 31
0.0
210
0.0
220
0.0
230
1.0
 40
0.3939339440162632
 41
1.131841032648279
 42
5.62031148352944
  0
LINE
  5
84
330
7F
100
AcDbEntity
  8
중심선
100
AcDbLine
 10
2.268634060543552
 20
16.24717430164393
 30
0.0
 11
5.714909304380834
 21
16.24717430164393
 31
0.0
  0
LINE
  5
85
330
7F
100
AcDbEntity
  8
중심선
100
AcDbLine
 10
5.245725140726316
 20
7.84717430164391
 30
0.0
 11
8.692000384563599
 21
7.84717430164391
 31
0.0
  0
LINE
  5
86
330
7F
100
AcDbEntity
  8
중심선
100
AcDbLine
 10
15.74043728645272
 20
16.24717430164393
 30
0.0
 11
8.692000384563599
 21
7.84717430164391
 31
0.0
  0
LINE
  5
87
330
7F
100
AcDbEntity
  8
중심선
100
AcDbLine
 10
0.1404042013395286
 20
13.71084872107135
 30
0.0
 11
3.58671253028996
 21
13.71088815037384
 31
0.0
  0
LINE
  5
88
330
7F
100
AcDbEntity
  8
중심선
100
AcDbLine
 10
2.750260043222114
 20
10.84717430164391
 30
0.0
 11
6.196535287059397
 21
10.84717430164391
 31
0.0
  0
LINE
  5
89
330
7F
100
AcDbEntity
  8
중심선
100
AcDbLine
 10
12.29416204261559
 20
16.24717430164393
 30
0.0
 11
5.245725140726316
 21
7.84717430164391
 31
0.0
  0
LINE
  5
8A
330
7F
100
AcDbEntity
  8
중심선
100
AcDbLine
 10
10.72767329541681
 20
16.24717430164393
 30
0.0
 11
6.196535287059397
 21
10.84717430164391
 31
0.0
  0
LINE
  5
8B
330
7F
100
AcDbEntity
  8
중심선
100
AcDbLine
 10
7.28139805157953
 20
16.24717430164393
 30
0.0
 11
2.750260043222114
 21
10.84717430164391
 31
0.0
  0
LINE
  5
8C
330
7F
100
AcDbEntity
  8
중심선
100
AcDbLine
 10
5.714909304380834
 20
16.24717430164393
 30
0.0
 11
3.58671253028996
 21
13.71088815037384
 31
0.0
  0
LINE
  5
8D
330
7F
100
AcDbEntity
  8
중심선
100
AcDbLine
 10
2.268634060543552
 20
16.24717430164393
 30
0.0
 11
0.1404042013395286
 21
13.71084872107135
 31
0.0
  0
LINE
  5
8E
330
7F
100
AcDbEntity
  8
중심선
100
AcDbLine
 10
7.28139805157953
 20
16.24717430164393
 30
0.0
 11
10.72767329541681
 21
16.24717430164393
 31
0.0
  0
LINE
  5
8F
330
7F
100
AcDbEntity
  8
중심선
100
AcDbLine
 10
12.29416204261559
 20
16.24717430164393
 30
0.0
 11
15.74043728645272
 21
16.24717430164393
 31
0.0
  0
LINE
  5
90
330
7F
100
AcDbEntity
  8
중심선
100
AcDbLine
 10
19.22036997980202
 20
11.08717430171403
 30
0.0
 11
23.66174974927406
 21
11.08717430171406
 31
0.0
  0
LINE
  5
91
330
7F
100
AcDbEntity
  8
중심선
100
AcDbLine
 10
19.22039502424796
 20
13.00717430171391
 30
0.0
 11
19.22036997980202
 21
11.08717430171403
 31
0.0
  0
LINE
  5
92
330
7F
100
AcDbEntity
  8
중심선
100
AcDbLine
 10
19.22039502424796
 20
13.00717430171391
 30
0.0
 11
26.96566020931264
 21
13.00717430171391
 31
0.0
  0
LINE
  5
93
330
7F
100
AcDbEntity
  8
중심선
100
AcDbLine
 10
22.22332737316547
 20
13.45928029700563
 30
0.0
 11
24.52862924686651
 21
15.39360700705356
 31
0.0
  0
ATTDEF
  5
95
330
7F
100
AcDbEntity
  8
FORMAT
 62
     2
100
AcDbText
 10
4.408487351596664
 20
2.075366912832191
 30
0.0
 40
4.233333333333333
  1
E1040040
 41
0.75
  7
SLDTEXTSTYLE0
 11
4.408487351596664
 21
-0.0412997538344756
 31
0.0
100
AcDbAttributeDefinition
  3

  2
AUTOATTR0
 70
     0
 74
     1
  0
ENDBLK
  5
81
330
7F
100
AcDbEntity
  8
0
100
AcDbBlockEnd
  0
BLOCK
  5
D2
330
D1
100
AcDbEntity
  8
0
100
AcDbBlockBegin
  2
_D
 70
     0
 10
0.0
 20
0.0
 30
0.0
  3
_D
  1
_D
  0
LINE
  5
D4
330
D1
100
AcDbEntity
  8
치수문자_일반주서
 62
     0
370
    -2
100
AcDbLine
 10
75.49999999999945
 20
8.000000000000007
 30
0.0
 11
75.49999999999945
 21
22.9375
 31
0.0
  0
LINE
  5
D5
330
D1
100
AcDbEntity
  8
치수문자_일반주서
 62
     0
370
    -2
100
AcDbLine
 10
11.99999999999944
 20
7.999758068935701
 30
0.0
 11
11.99999999999944
 21
22.9375
 31
0.0
  0
LINE
  5
D6
330
D1
100
AcDbEntity
  8
치수문자_일반주서
 62
     0
370
    -2
100
AcDbLine
 10
72.19799999999944
 20
22.9375
 30
0.0
 11
15.30199999999944
 21
22.9375
 31
0.0
  0
SOLID
  5
D7
330
D1
100
AcDbEntity
  8
치수문자_일반주서
 62
     0
100
AcDbTrace
 10
72.19799999999944
 20
22.38716666666666
 30
0.0
 11
72.19799999999944
 21
23.48783333333333
 31
0.0
 12
75.49999999999945
 22
22.9375
 32
0.0
 13
75.49999999999945
 23
22.9375
 33
0.0
  0
SOLID
  5
D8
330
D1
100
AcDbEntity
  8
치수문자_일반주서
 62
     0
100
AcDbTrace
 10
15.30199999999944
 20
23.48783333333333
 30
0.0
 11
15.30199999999944
 21
22.38716666666666
 31
0.0
 12
11.99999999999944
 22
22.9375
 32
0.0
 13
11.99999999999944
 23
22.9375
 33
0.0
  0
MTEXT
  5
D9
330
D1
100
AcDbEntity
  8
치수문자_일반주서
 62
     0
100
AcDbMText
 10
43.74999999999942
 20
27.3125
 30
0.0
 40
3.5
 41
0.0
 71
     2
 72
     1
  1
\A1;63.50 [2 1/2]
  7
SLDTEXTSTYLE0
 73
     1
 44
1.0
  0
POINT
  5
DA
330
D1
100
AcDbEntity
  8
Defpoints
 62
     0
100
AcDbPoint
 10
75.49999999999945
 20
7.937500000000007
 30
0.0
  0
POINT
  5
DB
330
D1
100
AcDbEntity
  8
Defpoints
 62
     0
100
AcDbPoint
 10
11.99999999999944
 20
7.937258068935701
 30
0.0
  0
POINT
  5
DC
330
D1
100
AcDbEntity
  8
Defpoints
 62
     0
100
AcDbPoint
 10
11.99999999999944
 20
22.9375
 30
0.0
  0
ENDBLK
  5
D3
330
D1
100
AcDbEntity
  8
0
100
AcDbBlockEnd
  0
BLOCK
  5
E7
330
E6
100
AcDbEntity
  8
0
100
AcDbBlockBegin
  2
_D_1
 70
     0
 10
0.0
 20
0.0
 30
0.0
  3
_D_1
  1
_D_1
  0
LINE
  5
E9
330
E6
100
AcDbEntity
  8
치수문자_일반주서
 62
     0
370
    -2
100
AcDbLine
 10
75.49999999999945
 20
8.000000000000007
 30
0.0
 11
75.49999999999945
 21
37.9375
 31
0.0
  0
LINE
  5
EA
330
E6
100
AcDbEntity
  8
치수문자_일반주서
 62
     0
370
    -2
100
AcDbLine
 10
-41.97500000000056
 20
6.412499999999999
 30
0.0
 11
-41.97500000000056
 21
37.9375
 31
0.0
  0
LINE
  5
EB
330
E6
100
AcDbEntity
  8
치수문자_일반주서
 62
     0
370
    -2
100
AcDbLine
 10
72.19799999999944
 20
37.9375
 30
0.0
 11
-38.67300000000056
 21
37.9375
 31
0.0
  0
SOLID
  5
EC
330
E6
100
AcDbEntity
  8
치수문자_일반주서
 62
     0
100
AcDbTrace
 10
72.19799999999944
 20
37.38716666666667
 30
0.0
 11
72.19799999999944
 21
38.48783333333333
 31
0.0
 12
75.49999999999945
 22
37.9375
 32
0.0
 13
75.49999999999945
 23
37.9375
 33
0.0
  0
SOLID
  5
ED
330
E6
100
AcDbEntity
  8
치수문자_일반주서
 62
     0
100
AcDbTrace
 10
-38.67300000000056
 20
38.48783333333333
 30
0.0
 11
-38.67300000000056
 21
37.38716666666667
 31
0.0
 12
-41.97500000000056
 22
37.9375
 32
0.0
 13
-41.97500000000056
 23
37.9375
 33
0.0
  0
MTEXT
  5
EE
330
E6
100
AcDbEntity
  8
치수문자_일반주서
 62
     0
100
AcDbMText
 10
16.76249999999945
 20
42.3125
 30
0.0
 40
3.5
 41
0.0
 71
     2
 72
     1
  1
\A1;117.48 [4 5/8]
  7
SLDTEXTSTYLE0
 73
     1
 44
1.0
  0
POINT
  5
EF
330
E6
100
AcDbEntity
  8
Defpoints
 62
     0
100
AcDbPoint
 10
75.49999999999945
 20
7.937500000000007
 30
0.0
  0
POINT
  5
F0
330
E6
100
AcDbEntity
  8
Defpoints
 62
     0
100
AcDbPoint
 10
-41.97500000000056
 20
6.349999999999999
 30
0.0
  0
POINT
  5
F1
330
E6
100
AcDbEntity
  8
Defpoints
 62
     0
100
AcDbPoint
 10
-41.97500000000056
 20
37.9375
 30
0.0
  0
ENDBLK
  5
E8
330
E6
100
AcDbEntity
  8
0
100
AcDbBlockEnd
  0
BLOCK
  5
FB
330
FA
100
AcDbEntity
  8
0
100
AcDbBlockBegin
  2
_D_2
 70
     0
 10
0.0
 20
0.0
 30
0.0
  3
_D_2
  1
_D_2
  0
LINE
  5
FD
330
FA
100
AcDbEntity
  8
치수문자_일반주서
 62
     0
370
    -2
100
AcDbLine
 10
-40.45000000000056
 20
7.93750000000001
 30
0.0
 11
-56.97500000000056
 21
7.937499999999947
 31
0.0
  0
LINE
  5
FE
330
FA
100
AcDbEntity
  8
치수문자_일반주서
 62
     0
370
    -2
100
AcDbLine
 10
-40.45000000000056
 20
-7.937500000000019
 30
0.0
 11
-56.9750000000005
 21
-7.937500000000082
 31
0.0
  0
LINE
  5
FF
330
FA
100
AcDbEntity
  8
치수문자_일반주서
 62
     0
370
    -2
100
AcDbLine
 10
-56.97500000000056
 20
7.937499999999947
 30
0.0
 11
-56.97500000000067
 21
39.23949999999995
 31
0.0
  0
LINE
  5
100
330
FA
100
AcDbEntity
  8
치수문자_일반주서
 62
     0
370
    -2
100
AcDbLine
 10
-56.97500000000056
 20
7.937499999999947
 30
0.0
 11
-56.9750000000005
 21
-7.937500000000082
 31
0.0
  0
LINE
  5
101
330
FA
100
AcDbEntity
  8
치수문자_일반주서
 62
     0
370
    -2
100
AcDbLine
 10
-56.97500000000057
 20
11.23949999999995
 30
0.0
 11
-56.97500000000058
 21
14.54149999999995
 31
0.0
  0
LINE
  5
102
330
FA
100
AcDbEntity
  8
치수문자_일반주서
 62
     0
370
    -2
100
AcDbLine
 10
-56.97500000000048
 20
-11.23950000000008
 30
0.0
 11
-56.97500000000047
 21
-14.54150000000008
 31
0.0
  0
SOLID
  5
103
330
FA
100
AcDbEntity
  8
치수문자_일반주서
 62
     0
100
AcDbTrace
 10
-57.5253333333339
 20
11.23949999999994
 30
0.0
 11
-56.42466666666724
 21
11.23949999999995
 31
0.0
 12
-56.97500000000056
 22
7.937499999999947
 32
0.0
 13
-56.97500000000056
 23
7.937499999999947
 33
0.0
  0
SOLID
  5
104
330
FA
100
AcDbEntity
  8
치수문자_일반주서
 62
     0
100
AcDbTrace
 10
-56.42466666666715
 20
-11.23950000000008
 30
0.0
 11
-57.52533333333382
 21
-11.23950000000008
 31
0.0
 12
-56.9750000000005
 22
-7.937500000000082
 32
0.0
 13
-56.9750000000005
 23
-7.937500000000082
 33
0.0
  0
MTEXT
  5
105
330
FA
100
AcDbEntity
  8
치수문자_일반주서
 62
     0
100
AcDbMText
 10
-61.35000000000062
 20
25.23949999999994
 30
0.0
 40
3.5
 41
0.0
 71
     2
 72
     1
  1
\A1;%%c15.88 [5/8]
  7
SLDTEXTSTYLE0
 11
-3.580687802255617E-15
 21
1.0
 31
0.0
 73
     1
 44
1.0
  0
POINT
  5
1DF
330
FA
100
AcDbEntity
  8
Defpoints
 62
     0
100
AcDbPoint
 10
-40.38750000000056
 20
7.93750000000001
 30
0.0
  0
POINT
  5
1E0
330
FA
100
AcDbEntity
  8
Defpoints
 62
     0
100
AcDbPoint
 10
-40.38750000000056
 20
-7.937500000000019
 30
0.0
  0
POINT
  5
1E1
330
FA
100
AcDbEntity
  8
Defpoints
 62
     0
100
AcDbPoint
 10
-56.97500000000051
 20
-7.937500000000081
 30
0.0
  0
ENDBLK
  5
FC
330
FA
100
AcDbEntity
  8
0
100
AcDbBlockEnd
  0
BLOCK
  5
10F
330
10E
100
AcDbEntity
  8
0
100
AcDbBlockBegin
  2
_D_3
 70
     0
 10
0.0
 20
0.0
 30
0.0
  3
_D_3
  1
_D_3
  0
LINE
  5
111
330
10E
100
AcDbEntity
  8
치수문자_일반주서
 62
     0
370
    -2
100
AcDbLine
 10
75.56249999999945
 20
-7.937499999999993
 30
0.0
 11
90.49999999999952
 21
-7.937499999999932
 31
0.0
  0
LINE
  5
112
330
10E
100
AcDbEntity
  8
치수문자_일반주서
 62
     0
370
    -2
100
AcDbLine
 10
75.56249999999945
 20
7.937500000000007
 30
0.0
 11
90.49999999999946
 21
7.937500000000064
 31
0.0
  0
LINE
  5
113
330
10E
100
AcDbEntity
  8
치수문자_일반주서
 62
     0
370
    -2
100
AcDbLine
 10
90.49999999999946
 20
7.937500000000064
 30
0.0
 11
90.49999999999932
 21
44.02281057025613
 31
0.0
  0
LINE
  5
114
330
10E
100
AcDbEntity
  8
치수문자_일반주서
 62
     0
370
    -2
100
AcDbLine
 10
90.49999999999952
 20
-7.937499999999932
 30
0.0
 11
90.49999999999946
 21
7.937500000000064
 31
0.0
  0
LINE
  5
115
330
10E
100
AcDbEntity
  8
치수문자_일반주서
 62
     0
370
    -2
100
AcDbLine
 10
90.49999999999953
 20
-11.23949999999993
 30
0.0
 11
90.49999999999955
 21
-14.54149999999993
 31
0.0
  0
LINE
  5
116
330
10E
100
AcDbEntity
  8
치수문자_일반주서
 62
     0
370
    -2
100
AcDbLine
 10
90.49999999999945
 20
11.23950000000006
 30
0.0
 11
90.49999999999943
 21
14.54150000000006
 31
0.0
  0
SOLID
  5
117
330
10E
100
AcDbEntity
  8
치수문자_일반주서
 62
     0
100
AcDbTrace
 10
91.05033333333286
 20
-11.23949999999993
 30
0.0
 11
89.9496666666662
 21
-11.23949999999993
 31
0.0
 12
90.49999999999952
 22
-7.937499999999932
 32
0.0
 13
90.49999999999952
 23
-7.937499999999932
 33
0.0
  0
SOLID
  5
118
330
10E
100
AcDbEntity
  8
치수문자_일반주서
 62
     0
100
AcDbTrace
 10
89.94966666666612
 20
11.23950000000006
 30
0.0
 11
91.05033333333277
 21
11.23950000000007
 31
0.0
 12
90.49999999999946
 22
7.937500000000064
 32
0.0
 13
90.49999999999946
 23
7.937500000000064
 33
0.0
  0
MTEXT
  5
119
330
10E
100
AcDbEntity
  8
치수문자_일반주서
 62
     0
100
AcDbMText
 10
86.12499999999937
 20
30.02281057025611
 30
0.0
 40
3.5
 41
0.0
 71
     2
 72
     1
  1
\A1;%%c15.88 [5/8]
  7
SLDTEXTSTYLE0
 11
-3.580687802255623E-15
 21
1.0
 31
0.0
 73
     1
 44
1.0
  0
POINT
  5
11A
330
10E
100
AcDbEntity
  8
Defpoints
 62
     0
100
AcDbPoint
 10
75.49999999999945
 20
-7.937499999999993
 30
0.0
  0
POINT
  5
1E2
330
10E
100
AcDbEntity
  8
Defpoints
 62
     0
100
AcDbPoint
 10
75.49999999999945
 20
7.937500000000007
 30
0.0
  0
POINT
  5
1E3
330
10E
100
AcDbEntity
  8
Defpoints
 62
     0
100
AcDbPoint
 10
90.49999999999946
 20
7.937500000000063
 30
0.0
  0
ENDBLK
  5
110
330
10E
100
AcDbEntity
  8
0
100
AcDbBlockEnd
  0
BLOCK
  5
128
330
127
100
AcDbEntity
  8
0
100
AcDbBlockBegin
  2
SW_DOWELSYMBOL_0
 70
     0
 10
0.0
 20
0.0
 30
0.0
  3
SW_DOWELSYMBOL_0
  1
SW_DOWELSYMBOL_0
  0
CIRCLE
  5
12A
330
127
100
AcDbEntity
  8
해칭선
 62
     0
100
AcDbCircle
 10
0.0
 20
0.0
 30
0.0
 40
3.000000000000001
  0
HATCH
  5
12B
330
127
100
AcDbEntity
  8
0
  6
Continuous
 62
     0
370
     0
100
AcDbHatch
 10
0.0
 20
0.0
 30
0.0
210
0.0
220
0.0
230
1.0
  2
SOLID
 70
     1
 71
     0
 91
        1
 92
        0
 93
        3
 72
     2
 10
0.0
 20
0.0
 40
3.000000000000001
 50
0.0
 51
90.0
 73
     1
 72
     1
 10
0.0
 20
3.000000000000001
 11
0.0
 21
0.0
 72
     1
 10
0.0
 20
0.0
 11
3.000000000000001
 21
0.0
 97
        0
 75
     0
 76
     1
 98
        1
 10
0.0
 20
0.0
  0
HATCH
  5
12C
330
127
100
AcDbEntity
  8
0
  6
Continuous
 62
     0
370
     0
100
AcDbHatch
 10
0.0
 20
0.0
 30
0.0
210
0.0
220
0.0
230
1.0
  2
SOLID
 70
     1
 71
     0
 91
        1
 92
        0
 93
        3
 72
     2
 10
0.0
 20
0.0
 40
3.000000000000001
 50
180.0
 51
270.0000000000007
 73
     1
 72
     1
 10
0.0
 20
-3.000000000000001
 11
0.0
 21
0.0
 72
     1
 10
0.0
 20
0.0
 11
-3.000000000000001
 21
0.0
 97
        0
 75
     0
 76
     1
 98
        1
 10
0.0
 20
0.0
  0
ENDBLK
  5
129
330
127
100
AcDbEntity
  8
0
100
AcDbBlockEnd
  0
BLOCK
  5
18A
330
189
100
AcDbEntity
  8
0
100
AcDbBlockBegin
  2
*D7
 70
     1
 10
0.0
 20
0.0
 30
0.0
  3
*D7
  1
*D7
  0
LINE
  5
18C
330
189
100
AcDbEntity
  8
치수문자_일반주서
 62
     0
370
    -2
100
AcDbLine
 10
34.925
 20
7.611078139986779
 30
0.0
 11
34.925
 21
18.35692285485875
 31
0.0
  0
LINE
  5
18D
330
189
100
AcDbEntity
  8
치수문자_일반주서
 62
     0
370
    -2
100
AcDbLine
 10
-0.0000000000000009
 20
7.223453614286712
 30
0.0
 11
0.0
 21
18.35692285485875
 31
0.0
  0
LINE
  5
18E
330
189
100
AcDbEntity
  8
치수문자_일반주서
 62
     0
370
    -2
100
AcDbLine
 10
31.623
 20
18.35692285485875
 30
0.0
 11
3.302
 21
18.35692285485875
 31
0.0
  0
SOLID
  5
18F
330
189
100
AcDbEntity
  8
치수문자_일반주서
 62
     0
100
AcDbTrace
 10
31.623
 20
17.80658952152542
 30
0.0
 11
31.623
 21
18.90725618819209
 31
0.0
 12
34.925
 22
18.35692285485875
 32
0.0
 13
34.925
 23
18.35692285485875
 33
0.0
  0
SOLID
  5
190
330
189
100
AcDbEntity
  8
치수문자_일반주서
 62
     0
100
AcDbTrace
 10
3.302
 20
18.90725618819209
 30
0.0
 11
3.302
 21
17.80658952152542
 31
0.0
 12
0.0
 22
18.35692285485875
 32
0.0
 13
0.0
 23
18.35692285485875
 33
0.0
  0
MTEXT
  5
191
330
189
100
AcDbEntity
  8
치수문자_일반주서
 62
     0
100
AcDbMText
 10
17.46249999999999
 20
22.73192285485875
 30
0.0
 40
3.5
 41
0.0
 71
     2
 72
     1
  1
\A1;34.93 [1 3/8]
  7
SLDTEXTSTYLE0
 73
     1
 44
1.0
  0
POINT
  5
192
330
189
100
AcDbEntity
  8
Defpoints
 62
     0
100
AcDbPoint
 10
34.925
 20
7.548578139986779
 30
0.0
  0
POINT
  5
193
330
189
100
AcDbEntity
  8
Defpoints
 62
     0
100
AcDbPoint
 10
-0.0000000000000009
 20
7.160953614286712
 30
0.0
  0
POINT
  5
194
330
189
100
AcDbEntity
  8
Defpoints
 62
     0
100
AcDbPoint
 10
-0.0000000000000009
 20
18.35692285485875
 30
0.0
  0
ENDBLK
  5
18B
330
189
100
AcDbEntity
  8
0
100
AcDbBlockEnd
  0
BLOCK
  5
199
330
198
100
AcDbEntity
  8
0
100
AcDbBlockBegin
  2
*D8
 70
     1
 10
0.0
 20
0.0
 30
0.0
  3
*D8
  1
*D8
  0
LINE
  5
19B
330
198
100
AcDbEntity
  8
치수문자_일반주서
 62
     0
370
    -2
100
AcDbLine
 10
190.6896426650271
 20
-24.94147471564751
 30
0.0
 11
190.6896426650271
 21
-14.19563000077554
 31
0.0
  0
LINE
  5
19C
330
198
100
AcDbEntity
  8
치수문자_일반주서
 62
     0
370
    -2
100
AcDbLine
 10
155.7646426650271
 20
-25.32909924134758
 30
0.0
 11
155.7646426650271
 21
-14.19563000077554
 31
0.0
  0
LINE
  5
19D
330
198
100
AcDbEntity
  8
치수문자_일반주서
 62
     0
370
    -2
100
AcDbLine
 10
187.3876426650271
 20
-14.19563000077554
 30
0.0
 11
159.0666426650271
 21
-14.19563000077554
 31
0.0
  0
SOLID
  5
19E
330
198
100
AcDbEntity
  8
치수문자_일반주서
 62
     0
100
AcDbTrace
 10
187.3876426650271
 20
-14.74596333410887
 30
0.0
 11
187.3876426650271
 21
-13.6452966674422
 31
0.0
 12
190.6896426650271
 22
-14.19563000077554
 32
0.0
 13
190.6896426650271
 23
-14.19563000077554
 33
0.0
  0
SOLID
  5
19F
330
198
100
AcDbEntity
  8
치수문자_일반주서
 62
     0
100
AcDbTrace
 10
159.0666426650271
 20
-13.6452966674422
 30
0.0
 11
159.0666426650271
 21
-14.74596333410887
 31
0.0
 12
155.7646426650271
 22
-14.19563000077554
 32
0.0
 13
155.7646426650271
 23
-14.19563000077554
 33
0.0
  0
MTEXT
  5
1A0
330
198
100
AcDbEntity
  8
치수문자_일반주서
 62
     0
100
AcDbMText
 10
173.2271426650271
 20
-9.820630000775537
 30
0.0
 40
3.5
 41
0.0
 71
     2
 72
     1
  1
\A1;34.93 [1 3/8]
  7
SLDTEXTSTYLE0
 73
     1
 44
1.0
  0
POINT
  5
1A1
330
198
100
AcDbEntity
  8
Defpoints
 62
     0
100
AcDbPoint
 10
190.6896426650271
 20
-25.00397471564751
 30
0.0
  0
POINT
  5
1A2
330
198
100
AcDbEntity
  8
Defpoints
 62
     0
100
AcDbPoint
 10
155.7646426650271
 20
-25.39159924134758
 30
0.0
  0
POINT
  5
1A3
330
198
100
AcDbEntity
  8
Defpoints
 62
     0
100
AcDbPoint
 10
155.7646426650271
 20
-14.19563000077554
 30
0.0
  0
ENDBLK
  5
19A
330
198
100
AcDbEntity
  8
0
100
AcDbBlockEnd
  0
ENDSEC
  0
SECTION
  2
ENTITIES
  0
LINE
  5
96
330
1F
100
AcDbEntity
  8
0
  6
Continuous
 62
     1
370
    15
100
AcDbLine
 10
64.029811987837
 20
-2.336176987399759
 30
0.0
 11
64.11336578122443
 21
-2.38125481237734
 31
0.0
1001
PE_URL
1000

  0
LINE
  5
97
330
1F
100
AcDbEntity
  8
0
  6
Continuous
 62
     1
370
    15
100
AcDbLine
 10
33.48669132663338
 20
-7.937500000000008
 30
0.0
 11
38.3267874425343
 21
-7.937500000000008
 31
0.0
1001
PE_URL
1000

  0
LINE
  5
98
330
1F
100
AcDbEntity
  8
0
  6
Continuous
 62
     1
370
    15
100
AcDbLine
 10
55.08267317700894
 20
-7.937500000000008
 30
0.0
 11
59.92230794948856
 21
-7.937500000000008
 31
0.0
1001
PE_URL
1000

  0
LINE
  5
99
330
1F
100
AcDbEntity
  8
0
  6
Continuous
 62
     1
370
    15
100
AcDbLine
 10
16.7327463871
 20
7.937499999999999
 30
0.0
 11
11.99999999999944
 21
7.937499999999999
 31
0.0
1001
PE_URL
1000

  0
LINE
  5
9A
330
1F
100
AcDbEntity
  8
0
  6
Continuous
 62
     1
370
    15
100
AcDbLine
 10
38.32678744253438
 20
7.937499999999999
 30
0.0
 11
33.48669132663341
 21
7.937499999999999
 31
0.0
1001
PE_URL
1000

  0
LINE
  5
9B
330
1F
100
AcDbEntity
  8
0
  6
Continuous
 62
     1
370
    15
100
AcDbLine
 10
11.99999999999944
 20
-7.937500000000008
 30
0.0
 11
16.73274638709999
 21
-7.937500000000008
 31
0.0
1001
PE_URL
1000

  0
LINE
  5
9C
330
1F
100
AcDbEntity
  8
0
  6
Continuous
 62
     1
370
    15
100
AcDbLine
 10
59.92230794948856
 20
7.937499999999999
 30
0.0
 11
55.08267317700907
 21
7.937499999999999
 31
0.0
1001
PE_URL
1000

  0
LINE
  5
9D
330
1F
100
AcDbEntity
  8
외형선
  6
Continuous
370
    15
100
AcDbLine
 10
11.8925256961188
 20
-7.937500000000004
 30
0.0
 11
11.99999999999944
 21
-7.937500000000004
 31
0.0
  0
LINE
  5
9E
330
1F
100
AcDbEntity
  8
외형선
  6
Continuous
370
    15
100
AcDbLine
 10
-40.38750000000056
 20
-7.937500000000004
 30
0.0
 11
11.49984901956878
 21
-7.937500000000004
 31
0.0
  0
LINE
  5
9F
330
1F
100
AcDbEntity
  8
외형선
  6
Continuous
370
    15
100
AcDbLine
 10
11.49984901956878
 20
7.937499999999996
 30
0.0
 11
-11.02192500000064
 21
7.937499999999996
 31
0.0
  0
LINE
  5
A0
330
1F
100
AcDbEntity
  8
외형선
  6
Continuous
370
    15
100
AcDbLine
 10
11.99999999999944
 20
7.937499999999996
 30
0.0
 11
11.89252569611871
 21
7.937499999999996
 31
0.0
  0
LINE
  5
A1
330
1F
100
AcDbEntity
  8
외형선
  6
Continuous
370
    15
100
AcDbLine
 10
-40.38750000000056
 20
7.937499999999994
 30
0.0
 11
-41.97500000000056
 21
6.349999999999999
 31
0.0
  0
LINE
  5
A2
330
1F
100
AcDbEntity
  8
외형선
  6
Continuous
370
    15
100
AcDbLine
 10
-41.97500000000056
 20
-6.350000000000008
 30
0.0
 11
-40.38750000000056
 21
-7.937500000000003
 31
0.0
  0
SPLINE
  5
A3
330
1F
100
AcDbEntity
  8
0
  6
Continuous
 62
     1
370
    15
100
AcDbSpline
210
0.0
220
0.0
230
1.0
 70
     8
 71
     3
 72
    21
 73
    17
 74
     0
 42
0.000000001
 43
0.00000001
 40
0.0
 40
0.0
 40
0.0
 40
0.0
 40
0.0744298968159606
 40
0.1488602543133751
 40
0.2232913709975337
 40
0.2977235451149743
 40
0.3721570745519747
 40
0.4465922567333083
 40
0.5234239959933178
 40
0.6002558979674909
 40
0.6770879693614846
 40
0.7539202168763335
 40
0.8307526472082709
 40
0.9075852670485441
 40
0.9844180830832356
 40
1.0
 40
1.0
 40
1.0
 40
1.0
 10
11.99999999999944
 20
2.678594424746415
 30
0.0
 10
12.86105201119257
 20
2.201470044317939
 30
0.0
 10
14.58316136303258
 20
1.247218330314971
 30
0.0
 10
17.16634020704971
 20
-0.253334744925395
 30
0.0
 10
19.7495511112301
 20
-1.738205375889749
 30
0.0
 10
22.33280410441415
 20
-3.163703896948532
 30
0.0
 10
24.91612088022491
 20
-4.477350153067055
 30
0.0
 10
27.52718154777195
 20
-5.64589228919332
 30
0.0
 10
30.16610854620345
 20
-6.62100001201563
 30
0.0
 10
32.83273403508626
 20
-7.357929216979849
 30
0.0
 10
35.49937536388983
 20
-7.81930754407384
 30
0.0
 10
38.16602168132367
 20
-7.985950190254437
 30
0.0
 10
40.8326762095441
 20
-7.858618752311726
 30
0.0
 10
43.4993385838882
 20
-7.415919664717772
 30
0.0
 10
45.45738580985849
 20
-6.943195819208379
 30
0.0
 10
46.52654603999218
 20
-6.554521202228518
 30
0.0
 10
46.70681562845058
 20
-6.488987326881861
 30
0.0
1001
PE_URL
1000

  0
SPLINE
  5
A4
330
1F
100
AcDbEntity
  8
0
  6
Continuous
 62
     1
370
    15
100
AcDbSpline
210
0.0
220
0.0
230
1.0
 70
     8
 71
     3
 72
    24
 73
    20
 74
     0
 42
0.000000001
 43
0.00000001
 40
0.0
 40
0.0
 40
0.0
 40
0.0
 40
0.0212750991898892
 40
0.0831713090096456
 40
0.1450673446449653
 40
0.2069632114687305
 40
0.2688589148584193
 40
0.3307544601959609
 40
0.3926498528675926
 40
0.4545450982637139
 40
0.5164402017787371
 40
0.5783351688109466
 40
0.6402300047623485
 40
0.7001941996966188
 40
0.7601570631975484
 40
0.820118834867385
 40
0.8800797546801612
 40
0.9400400629001319
 40
1.0
 40
1.0
 40
1.0
 40
1.0
 10
55.08267317700896
 20
-7.903852490039114
 30
0.0
 10
54.77713873897122
 20
-7.913014987064233
 30
0.0
 10
53.58270486431262
 20
-7.948834179471967
 30
0.0
 10
51.49937565091389
 20
-7.704852778963916
 30
0.0
 10
48.83268790913201
 20
-7.17946557520599
 30
0.0
 10
46.16600900388244
 20
-6.364487856446774
 30
0.0
 10
43.49933850572654
 20
-5.316264417944532
 30
0.0
 10
40.83267623048735
 20
-4.067201091863664
 30
0.0
 10
38.16602167571196
 20
-2.665994200946811
 30
0.0
 10
35.49937536539345
 20
-1.164698351570333
 30
0.0
 10
32.83273403468337
 20
0.3802470572635056
 30
0.0
 10
30.16610854631154
 20
1.910943805535825
 30
0.0
 10
27.52718154774397
 20
3.354778998410693
 30
0.0
 10
24.91612088023232
 20
4.661687558138723
 30
0.0
 10
22.33280410441218
 20
5.790233424975765
 30
0.0
 10
19.74955111123068
 20
6.716358756248771
 30
0.0
 10
17.1663402070496
 20
7.400655348067976
 30
0.0
 10
14.5831613630327
 20
7.844473448949817
 30
0.0
 10
12.86105201119268
 20
7.906329926082992
 30
0.0
 10
11.99999999999951
 20
7.937258068935206
 30
0.0
1001
PE_URL
1000

  0
SPLINE
  5
A5
330
1F
100
AcDbEntity
  8
외형선
  6
Continuous
370
    15
100
AcDbSpline
210
0.0
220
0.0
230
1.0
 70
    24
 71
     3
 72
    15
 73
    11
 74
     0
 42
0.000000001
 43
0.00000001
 40
0.0
 40
0.0
 40
0.0
 40
0.0
 40
0.142432068979855
 40
0.2893053770599763
 40
0.4269211476970534
 40
0.56852778500536
 40
0.7061435556424381
 40
0.8477501929507458
 40
0.9853659635878226
 40
1.0
 40
1.0
 40
1.0
 40
1.0
 10
11.99999999999944
 20
7.937258068935701
 30
0.0
 10
11.99999999999944
 20
7.6730960969803
 30
0.0
 10
11.99999999999944
 20
7.136535198519485
 30
0.0
 10
11.99999999999945
 20
6.312876341611996
 30
0.0
 10
11.99999999999947
 20
5.499251149770279
 30
0.0
 10
11.99999999999941
 20
4.730443077468609
 30
0.0
 10
11.99999999999946
 20
4.001494352221701
 30
0.0
 10
11.99999999999939
 20
3.360367699457466
 30
0.0
 10
11.99999999999939
 20
2.940820721361973
 30
0.0
 10
11.99999999999944
 20
2.776092252001932
 30
0.0
 10
11.99999999999944
 20
2.760258784193613
 30
0.0
  0
SPLINE
  5
A6
330
1F
100
AcDbEntity
  8
0
  6
Continuous
 62
     1
370
    15
100
AcDbSpline
210
0.0
220
0.0
230
1.0
 70
     8
 71
     3
 72
    28
 73
    24
 74
     0
 42
0.000000001
 43
0.00000001
 40
0.0
 40
0.0
 40
0.0
 40
0.0
 40
0.008408040374596
 40
0.0585011437573913
 40
0.1085949588064504
 40
0.1586896860030876
 40
0.2087855255180192
 40
0.260494278916996
 40
0.3122031418247077
 40
0.363912118754148
 40
0.4156212142151998
 40
0.4673304327145147
 40
0.5190397787553886
 40
0.5707492568376413
 40
0.6224588714574938
 40
0.67416862710745
 40
0.7258785282761698
 40
0.7775885794483545
 40
0.8292987851046221
 40
0.8810091497213892
 40
0.932719677770746
 40
0.9844303737203455
 40
1.0
 40
1.0
 40
1.0
 40
1.0
 10
16.7327463871
 20
7.917960591000268
 30
0.0
 10
16.8772750316222
 20
7.924157399336893
 30
0.0
 10
17.88287094143729
 20
7.967273316861897
 30
0.0
 10
19.74955138940915
 20
7.776683060982355
 30
0.0
 10
22.33280402987821
 20
7.335160207810374
 30
0.0
 10
24.91612090018308
 20
6.609666813306801
 30
0.0
 10
27.52718154220661
 20
5.648168250338527
 30
0.0
 10
30.16610854781345
 20
4.467751770423395
 30
0.0
 10
32.83273403428707
 20
3.107896410486169
 30
0.0
 10
35.49937536547667
 20
1.63134247766586
 30
0.0
 10
38.16602167577547
 20
0.093643007611855
 30
0.0
 10
40.83267623015014
 20
-1.447580066087878
 30
0.0
 10
43.49933850701191
 20
-2.934511521186514
 30
0.0
 10
46.16600899907816
 20
-4.31139091679962
 30
0.0
 10
48.8326879270636
 20
-5.526570110077355
 30
0.0
 10
51.49937558399141
 20
-6.534505415535873
 30
0.0
 10
54.16607224421517
 20
-7.297278954664844
 30
0.0
 10
56.83277818297128
 20
-7.786712731825272
 30
0.0
 10
59.499493689102
 20
-7.982844490144285
 30
0.0
 10
62.16621899456307
 20
-7.884308602615297
 30
0.0
 10
64.83295454362475
 20
-7.472439688105665
 30
0.0
 10
66.87842626386332
 20
-6.992043362001975
 30
0.0
 10
68.03498676889748
 20
-6.578674068750088
 30
0.0
 10
68.30263136744493
 20
-6.483014517812052
 30
0.0
1001
PE_URL
1000

  0
SPLINE
  5
A7
330
1F
100
AcDbEntity
  8
0
  6
Continuous
 62
     1
370
    15
100
AcDbSpline
210
0.0
220
0.0
230
1.0
 70
     8
 71
     3
 72
    26
 73
    22
 74
     0
 42
0.000000001
 43
0.00000001
 40
0.0
 40
0.0
 40
0.0
 40
0.0
 40
0.0529229277415106
 40
0.1058456699600243
 40
0.1587682312135029
 40
0.2116906160648233
 40
0.2646128290816503
 40
0.3175348748363216
 40
0.3704567579057198
 40
0.4233784828711527
 40
0.4763000543182285
 40
0.5292214768367327
 40
0.5821427550205068
 40
0.6350638934673216
 40
0.6879848967787537
 40
0.7409057695600632
 40
0.7938265164200689
 40
0.8467471419710203
 40
0.8996676508284778
 40
0.9525880476111841
 40
1.0
 40
1.0
 40
1.0
 40
1.0
 10
75.49999999999945
 20
-7.937499999999993
 30
0.0
 10
74.6110736743051
 20
-7.835619098608194
 30
0.0
 10
72.8332241390758
 20
-7.69023641013469
 30
0.0
 10
70.16645681231718
 20
-7.104265997579488
 30
0.0
 10
67.49970028749323
 20
-6.273146504682328
 30
0.0
 10
64.83295446297667
 20
-5.201049129511856
 30
0.0
 10
62.16621901617249
 20
-3.935418269031364
 30
0.0
 10
59.49949368331177
 20
-2.521783059271167
 30
0.0
 10
56.83277818452279
 20
-1.013681146879022
 30
0.0
 10
54.16607224379933
 20
0.5324659171022994
 30
0.0
 10
51.49937558410325
 20
2.058633355498699
 30
0.0
 10
48.83268792703201
 20
3.507594219174627
 30
0.0
 10
46.16600899909281
 20
4.825001455707038
 30
0.0
 10
43.49933850698504
 20
5.961457848129742
 30
0.0
 10
40.83267623024297
 20
6.874305745827456
 30
0.0
 10
38.16602167543103
 20
7.529446330301262
 30
0.0
 10
35.49937536676151
 20
7.901803201240208
 30
0.0
 10
32.83273402949196
 20
7.979303981761612
 30
0.0
 10
30.16610856570895
 20
7.751983348004175
 30
0.0
 10
27.59197841515784
 20
7.271967100402088
 30
0.0
 10
25.9068082153636
 20
6.74825322556554
 30
0.0
 10
25.11048270380693
 20
6.500772751878391
 30
0.0
1001
PE_URL
1000

  0
LINE
  5
A8
330
1F
100
AcDbEntity
  8
0
  6
Continuous
 62
     1
370
    15
100
AcDbLine
 10
75.49999999999945
 20
-7.188845709717488
 30
0.0
 11
75.49999999999945
 21
0.6800957097175747
 31
0.0
1001
PE_URL
1000

  0
SPLINE
  5
A9
330
1F
100
AcDbEntity
  8
0
  6
Continuous
 62
     1
370
    15
100
AcDbSpline
210
0.0
220
0.0
230
1.0
 70
     8
 71
     3
 72
    21
 73
    17
 74
     0
 42
0.000000001
 43
0.00000001
 40
0.0
 40
0.0
 40
0.0
 40
0.0
 40
0.0674113375801324
 40
0.1391476909844097
 40
0.2108842275696349
 40
0.282620953573413
 40
0.3543578752281932
 40
0.4260949987610911
 40
0.497832330393731
 40
0.5695698763420725
 40
0.6413076428162461
 40
0.7130456360203806
 40
0.7847838621524493
 40
0.8565223274040893
 40
0.9282610379604446
 40
1.0
 40
1.0
 40
1.0
 40
1.0
 10
38.32678744253438
 20
7.929062974828452
 30
0.0
 10
39.16208295402484
 20
7.907065415192886
 30
0.0
 10
40.88626535250314
 20
7.861658963689938
 30
0.0
 10
43.49933853220017
 20
7.424694211471658
 30
0.0
 10
46.16600899233639
 20
6.725015753278909
 30
0.0
 10
48.83268792884235
 20
5.766501334824359
 30
0.0
 10
51.49937558361819
 20
4.593490970791482
 30
0.0
 10
54.16607224392929
 20
3.247730299094414
 30
0.0
 10
56.83277818448795
 20
1.780284122816708
 30
0.0
 10
59.49949368332111
 20
0.2460601769630017
 30
0.0
 10
62.16621901617005
 20
-1.297484697559518
 30
0.0
 10
64.83295446297731
 20
-2.791999891354795
 30
0.0
 10
67.49970028749308
 20
-4.183192944669046
 30
0.0
 10
70.1664568123172
 20
-5.412311192282153
 30
0.0
 10
72.83322413907584
 20
-6.457800306635804
 30
0.0
 10
74.61107367430515
 20
-6.945163623945175
 30
0.0
 10
75.49999999999946
 20
-7.188845709717489
 30
0.0
1001
PE_URL
1000

  0
SPLINE
  5
AA
330
1F
100
AcDbEntity
  8
0
  6
Continuous
 62
     1
370
    15
100
AcDbSpline
210
0.0
220
0.0
230
1.0
 70
     8
 71
     3
 72
    18
 73
    14
 74
     0
 42
0.000000001
 43
0.00000001
 40
0.0
 40
0.0
 40
0.0
 40
0.0
 40
0.0926181019726132
 40
0.1852358792695408
 40
0.2778533398674727
 40
0.3704704917516999
 40
0.4630873429158932
 40
0.5557039013619006
 40
0.6483201750995246
 40
0.7409361721463112
 40
0.8335519005273334
 40
0.9261673682749736
 40
1.0
 40
1.0
 40
1.0
 40
1.0
 10
75.49999999999946
 20
0.6800957097175748
 30
0.0
 10
74.61107367430536
 20
1.188936543166187
 30
0.0
 10
72.83322413907649
 20
2.206616426305777
 30
0.0
 10
70.16645681231446
 20
3.643544668033647
 30
0.0
 10
67.49970028750313
 20
4.945648466307076
 30
0.0
 10
64.83295446293984
 20
6.0617846341699
 30
0.0
 10
62.16621901630988
 20
6.950666920857553
 30
0.0
 10
59.49949368279904
 20
7.578974383831814
 30
0.0
 10
56.83277818643643
 20
7.922509023962473
 30
0.0
 10
54.16607223665764
 20
7.970911019599601
 30
0.0
 10
51.49937561075616
 20
7.712908021515661
 30
0.0
 10
49.01295751517513
 20
7.228599606697133
 30
0.0
 10
47.41543892828612
 20
6.716252829207877
 30
0.0
 10
46.70681562845067
 20
6.488987326881849
 30
0.0
1001
PE_URL
1000

  0
SPLINE
  5
AB
330
1F
100
AcDbEntity
  8
0
  6
Continuous
 62
     1
370
    15
100
AcDbSpline
210
0.0
220
0.0
230
1.0
 70
     8
 71
     3
 72
    10
 73
     6
 74
     0
 42
0.000000001
 43
0.00000001
 40
0.0
 40
0.0
 40
0.0
 40
0.0
 40
0.3705210988481206
 40
0.7410408988228112
 40
1.0
 40
1.0
 40
1.0
 40
1.0
 10
75.49999999999945
 20
7.937500000000007
 30
0.0
 10
74.6110736867704
 20
7.83390446137418
 30
0.0
 10
72.8332241764715
 20
7.685092504443372
 30
0.0
 10
70.43410143290949
 20
7.181069974007189
 30
0.0
 10
68.92390552601515
 20
6.686481516110448
 30
0.0
 10
68.30263136744493
 20
6.483014517812044
 30
0.0
1001
PE_URL
1000

  0
SPLINE
  5
AC
330
1F
100
AcDbEntity
  8
0
  6
Continuous
 62
     1
370
    15
100
AcDbSpline
210
0.0
220
0.0
230
1.0
 70
     8
 71
     3
 72
    16
 73
    12
 74
     0
 42
0.000000001
 43
0.00000001
 40
0.0
 40
0.0
 40
0.0
 40
0.0
 40
0.0304346618320602
 40
0.1545376473619248
 40
0.2786403700671957
 40
0.3988720459701028
 40
0.5191010522722241
 40
0.6393278693899123
 40
0.7595529784849695
 40
0.8797768613011102
 40
1.0
 40
1.0
 40
1.0
 40
1.0
 10
33.48669132663339
 20
-7.909901697204504
 30
0.0
 10
33.26870540857196
 20
-7.918225648018261
 30
0.0
 10
32.16184142824824
 20
-7.960492054085548
 30
0.0
 10
30.16610882604706
 20
-7.740422334425536
 30
0.0
 10
27.52718147538735
 20
-7.250933410488113
 30
0.0
 10
24.91612089935943
 20
-6.481183953287939
 30
0.0
 10
22.33280409928735
 20
-5.497567355225667
 30
0.0
 10
19.74955111260335
 20
-4.318780622650551
 30
0.0
 10
17.16634020668359
 20
-2.988356680612677
 30
0.0
 10
14.58316136312419
 20
-1.552773499764859
 30
0.0
 10
12.86105201122317
 20
-0.5589051755836519
 30
0.0
 10
11.99999999999951
 20
-0.0619725513672971
 30
0.0
1001
PE_URL
1000

  0
LINE
  5
AD
330
1F
100
AcDbEntity
  8
외형선
  6
Continuous
370
    15
100
AcDbLine
 10
11.99999999999944
 20
-0.0619725513674234
 30
0.0
 11
11.99999999999944
 21
2.678594424746415
 31
0.0
  0
LINE
  5
AE
330
1F
100
AcDbEntity
  8
외형선
  6
Continuous
370
    15
100
AcDbLine
 10
11.99999999999944
 20
7.937258068935701
 30
0.0
 11
11.99999999999944
 21
7.937499999999999
 31
0.0
  0
LINE
  5
AF
330
1F
100
AcDbEntity
  8
0
  6
Continuous
 62
     1
370
    15
100
AcDbLine
 10
75.49999999999945
 20
-7.937499999999993
 30
0.0
 11
75.49999999999945
 21
-7.188845709717488
 31
0.0
1001
PE_URL
1000

  0
LINE
  5
B0
330
1F
100
AcDbEntity
  8
0
  6
Continuous
 62
     1
370
    15
100
AcDbLine
 10
75.49999999999945
 20
3.365175123507853
 30
0.0
 11
75.49999999999945
 21
7.937500000000007
 31
0.0
1001
PE_URL
1000

  0
SPLINE
  5
B1
330
1F
100
AcDbEntity
  8
0
  6
Continuous
 62
     1
370
    15
100
AcDbSpline
210
0.0
220
0.0
230
1.0
 70
     8
 71
     3
 72
    13
 73
     9
 74
     0
 42
0.000000001
 43
0.00000001
 40
0.0
 40
0.0
 40
0.0
 40
0.0
 40
0.1970306951370304
 40
0.3940626097892151
 40
0.5910965341592458
 40
0.7881332577648466
 40
0.9851735691700603
 40
1.0
 40
1.0
 40
1.0
 40
1.0
 10
11.99999999999944
 20
-7.471883173452174
 30
0.0
 10
12.86105199899757
 20
-7.614283578750174
 30
0.0
 10
14.58316132644751
 20
-7.899085270728905
 30
0.0
 10
17.16634035339169
 20
-7.976129650278851
 30
0.0
 10
19.74955056243817
 20
-7.797631251702575
 30
0.0
 10
22.3328061532848
 20
-7.315670630292682
 30
0.0
 10
24.1197870403597
 20
-6.866735502177201
 30
0.0
 10
25.04568816002331
 20
-6.524707841454662
 30
0.0
 10
25.11048270380694
 20
-6.500772751878401
 30
0.0
1001
PE_URL
1000

  0
SPLINE
  5
B2
330
1F
100
AcDbEntity
  8
0
  6
Continuous
 62
     1
370
    15
100
AcDbSpline
210
0.0
220
0.0
230
1.0
 70
     8
 71
     3
 72
    13
 73
     9
 74
     0
 42
0.000000001
 43
0.00000001
 40
0.0
 40
0.0
 40
0.0
 40
0.0
 40
0.1440465185451952
 40
0.3152360736217852
 40
0.4864261845381417
 40
0.6576168660694708
 40
0.8288081329754834
 40
1.0
 40
1.0
 40
1.0
 40
1.0
 10
59.92230794948854
 20
7.917616837021887
 30
0.0
 10
60.67027737090936
 20
7.90526931775412
 30
0.0
 10
62.30715791463369
 20
7.878247606072007
 30
0.0
 10
64.83295449136752
 20
7.478227071445139
 30
0.0
 10
67.49970027988851
 20
6.806722091561629
 30
0.0
 10
70.16645681434508
 20
5.869291804786876
 30
0.0
 10
72.8332241385689
 20
4.722983699848778
 30
0.0
 10
74.61107367413616
 20
3.817778511159991
 30
0.0
 10
75.49999999999946
 20
3.365175123507853
 30
0.0
1001
PE_URL
1000

  0
SPLINE
  5
B3
330
1F
100
AcDbEntity
  8
외형선
  6
Continuous
370
    15
100
AcDbSpline
210
0.0
220
0.0
230
1.0
 70
    24
 71
     3
 72
    21
 73
    17
 74
     0
 42
0.000000001
 43
0.00000001
 40
0.0
 40
0.0
 40
0.0
 40
0.0
 40
0.0232504634112825
 40
0.0987376646020468
 40
0.1742248657928111
 40
0.249712066983576
 40
0.3251992681743409
 40
0.4006864693651048
 40
0.4761736705558688
 40
0.5516608717466345
 40
0.6271480729374002
 40
0.7026352741281647
 40
0.778122475318929
 40
0.8536096765096939
 40
0.9290968777004588
 40
0.9999999999999999
 40
0.9999999999999999
 40
0.9999999999999999
 40
0.9999999999999999
 10
11.99999999999946
 20
0.1528190747494095
 30
0.0
 10
11.99999999999946
 20
0.1585068275637852
 30
0.0
 10
11.99999999999948
 20
0.1826609882697891
 30
0.0
 10
11.99999999999944
 20
0.083009983325244
 30
0.0
 10
11.99999999999943
 20
-0.1380827869334285
 30
0.0
 10
11.99999999999943
 20
-0.4985694600787721
 30
0.0
 10
11.99999999999938
 20
-0.9701519182361262
 30
0.0
 10
11.99999999999941
 20
-1.547457197118878
 30
0.0
 10
11.99999999999948
 20
-2.209261894877908
 30
0.0
 10
11.99999999999946
 20
-2.94019659752404
 30
0.0
 10
11.99999999999944
 20
-3.717119743270487
 30
0.0
 10
11.99999999999945
 20
-4.519340246663225
 30
0.0
 10
11.99999999999946
 20
-5.324025101452479
 30
0.0
 10
11.99999999999946
 20
-6.1060816005295
 30
0.0
 10
11.99999999999939
 20
-6.836501936088005
 30
0.0
 10
11.99999999999942
 20
-7.264557483457661
 30
0.0
 10
11.99999999999944
 20
-7.471883173452174
 30
0.0
  0
LINE
  5
B4
330
1F
100
AcDbEntity
  8
0
  6
Continuous
 62
     1
370
    15
100
AcDbLine
 10
75.49999999999945
 20
0.6800957097175743
 30
0.0
 11
75.49999999999945
 21
3.365175123507853
 31
0.0
1001
PE_URL
1000

  0
LINE
  5
B5
330
1F
100
AcDbEntity
  8
외형선
  6
Continuous
370
    15
100
AcDbLine
 10
11.99999999999944
 20
-7.937500000000008
 30
0.0
 11
11.99999999999944
 21
-7.471883173452174
 31
0.0
  0
SPLINE
  5
B6
330
1F
100
AcDbEntity
  8
외형선
  6
Continuous
370
    15
100
AcDbSpline
210
0.0
220
0.0
230
1.0
 70
    24
 71
     3
 72
    20
 73
    16
 74
     0
 42
0.000000001
 43
0.00000001
 40
0.0
 40
0.0
 40
0.0
 40
0.0
 40
0.0977217365134947
 40
0.1741222463464254
 40
0.2527383761402494
 40
0.3291388859731807
 40
0.4077550157670052
 40
0.4841555255999365
 40
0.5627716553937608
 40
0.6391721652266916
 40
0.7177882950205157
 40
0.7941888048534456
 40
0.8728049346472686
 40
0.9492054444802013
 40
0.9999999999999999
 40
0.9999999999999999
 40
0.9999999999999999
 40
0.9999999999999999
 10
11.99999999999944
 20
-7.471883173452172
 30
0.0
 10
11.99999999999946
 20
-7.190250487226253
 30
0.0
 10
11.9999999999995
 20
-6.688432593686642
 30
0.0
 10
11.99999999999941
 20
-5.860892798882388
 30
0.0
 10
11.99999999999943
 20
-5.073293822159892
 30
0.0
 10
11.99999999999946
 20
-4.263130166325697
 30
0.0
 10
11.99999999999944
 20
-3.470074049988975
 30
0.0
 10
11.99999999999944
 20
-2.701710690232355
 30
0.0
 10
11.99999999999942
 20
-1.993808423055634
 30
0.0
 10
11.99999999999948
 20
-1.353487531699805
 30
0.0
 10
11.99999999999944
 20
-0.8109082397524671
 30
0.0
 10
11.99999999999939
 20
-0.3697889183335187
 30
0.0
 10
11.9999999999994
 20
-0.0575244682640799
 30
0.0
 10
11.99999999999946
 20
0.1241679024105123
 30
0.0
 10
11.99999999999946
 20
0.1414395895378238
 30
0.0
 10
11.99999999999945
 20
0.1483369299989173
 30
0.0
  0
SPLINE
  5
B7
330
1F
100
AcDbEntity
  8
외형선
  6
Continuous
370
    15
100
AcDbSpline
210
0.0
220
0.0
230
1.0
 70
     8
 71
     3
 72
     8
 73
     4
 74
     0
 42
0.000000001
 43
0.00000001
 40
0.0
 40
0.0
 40
0.0
 40
0.0
 40
1.0
 40
1.0
 40
1.0
 40
1.0
 10
11.99999999999944
 20
-7.471883173452174
 30
0.0
 10
11.83320715512054
 20
-7.439438253975605
 30
0.0
 10
11.66643518006622
 20
-7.405349776113074
 30
0.0
 10
11.49984901956879
 20
-7.369653495820895
 30
0.0
  0
SPLINE
  5
B8
330
1F
100
AcDbEntity
  8
외형선
  6
Continuous
370
    15
100
AcDbSpline
210
0.0
220
0.0
230
1.0
 70
     8
 71
     3
 72
     8
 73
     4
 74
     0
 42
0.000000001
 43
0.00000001
 40
0.0
 40
0.0
 40
0.0
 40
0.0
 40
1.0
 40
1.0
 40
1.0
 40
1.0
 10
11.99999999999944
 20
-0.0619725513672684
 30
0.0
 10
11.83320715512053
 20
0.0341688041631558
 30
0.0
 10
11.66643518006621
 20
0.1303197772259644
 30
0.0
 10
11.49984901956878
 20
0.2263852435142826
 30
0.0
  0
LINE
  5
B9
330
1F
100
AcDbEntity
  8
외형선
  6
Continuous
370
    15
100
AcDbLine
 10
11.49984901956878
 20
-7.937500000000004
 30
0.0
 11
11.49984901956878
 21
-7.934269582777592
 31
0.0
  0
SPLINE
  5
BA
330
1F
100
AcDbEntity
  8
외형선
  6
Continuous
370
    15
100
AcDbSpline
210
0.0
220
0.0
230
1.0
 70
     8
 71
     3
 72
     8
 73
     4
 74
     0
 42
0.000000001
 43
0.00000001
 40
0.0
 40
0.0
 40
0.0
 40
0.0
 40
1.0
 40
1.0
 40
1.0
 40
1.0
 10
11.99999999999944
 20
7.937258068935202
 30
0.0
 10
11.83320715512053
 20
7.938008721747846
 30
0.0
 10
11.66643518006621
 20
7.937011975078232
 30
0.0
 10
11.49984901956878
 20
7.934270979209048
 30
0.0
  0
LINE
  5
BB
330
1F
100
AcDbEntity
  8
외형선
  6
Continuous
370
    15
100
AcDbLine
 10
11.49984901956879
 20
2.948184615955813
 30
0.0
 11
11.49984901956878
 21
7.937499999999996
 31
0.0
  0
SPLINE
  5
BC
330
1F
100
AcDbEntity
  8
외형선
  6
Continuous
370
    15
100
AcDbSpline
210
0.0
220
0.0
230
1.0
 70
     8
 71
     3
 72
     8
 73
     4
 74
     0
 42
0.000000001
 43
0.00000001
 40
0.0
 40
0.0
 40
0.0
 40
0.0
 40
1.0
 40
1.0
 40
1.0
 40
1.0
 10
11.99999999999944
 20
2.678594424746407
 30
0.0
 10
11.83320715512054
 20
2.769098849627355
 30
0.0
 10
11.66643518006622
 20
2.859009798915324
 30
0.0
 10
11.49984901956879
 20
2.948239067907335
 30
0.0
  0
LINE
  5
BD
330
1F
100
AcDbEntity
  8
외형선
  6
Continuous
370
    15
100
AcDbLine
 10
11.49984901956879
 20
-7.369675279158619
 30
0.0
 11
11.49984901956878
 21
0.2264341798632526
 31
0.0
  0
LINE
  5
BE
330
1F
100
AcDbEntity
  8
외형선
  6
Continuous
370
    15
100
AcDbLine
 10
11.89252569611881
 20
-7.936616191979037
 30
0.0
 11
11.49984901956878
 21
-7.934270979209058
 31
0.0
  0
LINE
  5
BF
330
1F
100
AcDbEntity
  8
외형선
  6
Continuous
370
    15
100
AcDbLine
 10
-40.38750000000056
 20
-0.0000000000000047
 30
0.0
 11
-40.38750000000056
 21
7.937499999999996
 31
0.0
  0
LINE
  5
C0
330
1F
100
AcDbEntity
  8
외형선
  6
Continuous
370
    15
100
AcDbLine
 10
-40.38750000000056
 20
-7.937500000000004
 30
0.0
 11
-40.38750000000056
 21
-0.0000000000000047
 31
0.0
  0
LINE
  5
C1
330
1F
100
AcDbEntity
  8
외형선
  6
Continuous
370
    15
100
AcDbLine
 10
-41.97500000000056
 20
-0.0000000000000047
 30
0.0
 11
-41.97500000000056
 21
6.349999999999999
 31
0.0
  0
LINE
  5
C2
330
1F
100
AcDbEntity
  8
외형선
  6
Continuous
370
    15
100
AcDbLine
 10
-41.97500000000056
 20
-6.350000000000008
 30
0.0
 11
-41.97500000000056
 21
-0.0000000000000047
 31
0.0
  0
SPLINE
  5
C3
330
1F
100
AcDbEntity
  8
외형선
  6
Continuous
370
    15
100
AcDbSpline
210
0.0
220
0.0
230
1.0
 70
    24
 71
     3
 72
    19
 73
    15
 74
     0
 42
0.000000001
 43
0.00000001
 40
0.0
 40
0.0
 40
0.0
 40
0.0
 40
0.1259552912423726
 40
0.1970548383090664
 40
0.2656567014283486
 40
0.4051912131220612
 40
0.4762907601887184
 40
0.5448926233080029
 40
0.6139708010768952
 40
0.6845512489039236
 40
0.7556507959705837
 40
0.8159289982711464
 40
0.9380510801951795
 40
0.9999999999999999
 40
0.9999999999999999
 40
0.9999999999999999
 40
0.9999999999999999
 10
11.99999999999944
 20
2.760268784193612
 30
0.0
 10
11.99999999999943
 20
2.917396068896876
 30
0.0
 10
11.99999999999941
 20
3.163218942836831
 30
0.0
 10
11.99999999999945
 20
3.556162065937849
 30
0.0
 10
11.99999999999942
 20
3.992535012958356
 30
0.0
 10
11.99999999999955
 20
4.467705842109386
 30
0.0
 10
11.99999999999938
 20
4.968441278612539
 30
0.0
 10
11.99999999999939
 20
5.353626295136485
 30
0.0
 10
11.99999999999948
 20
5.745620538036595
 30
0.0
 10
11.99999999999939
 20
6.147531387232484
 30
0.0
 10
11.99999999999946
 20
6.535021070728604
 30
0.0
 10
11.99999999999942
 20
7.020332771812257
 30
0.0
 10
11.99999999999952
 20
7.485284377827054
 30
0.0
 10
11.99999999999943
 20
7.823449066112283
 30
0.0
 10
11.99999999999942
 20
7.93725806893535
 30
0.0
  0
LINE
  5
C4
330
1F
100
AcDbEntity
  8
중심선
 62
     1
100
AcDbLine
 10
-48.97500000000056
 20
-0.0000000000000071
 30
0.0
 11
82.49999999999945
 21
0.0000000000000075
 31
0.0
  0
LINE
  5
C5
330
1F
100
AcDbEntity
  8
참조1
100
AcDbLine
 10
16.76249999999944
 20
-0.0000000000000086
 30
0.0
 11
16.76249999999945
 21
-40.00000000000001
 31
0.0
  0
LINE
  5
C6
330
1F
100
AcDbEntity
  8
참조1
100
AcDbLine
 10
16.76249999999945
 20
-40.00000000000001
 30
0.0
 11
-27.76510681430923
 21
-40.0
 31
0.0
  0
CIRCLE
  5
C7
330
1F
100
AcDbEntity
  8
해칭선
100
AcDbCircle
 10
0.0
 20
0.0
 30
0.0
 40
3.000000000000002
  0
INSERT
  5
C8
330
1F
100
AcDbEntity
  8
0
  6
Continuous
 62
     7
100
AcDbBlockReference
 66
     1
  2
블럭10
 10
2.822227067874239
 20
-52.04717430164393
 30
0.0
  0
ATTRIB
  5
C9
330
C8
100
AcDbEntity
  8
FORMAT
 62
     2
100
AcDbText
 10
-6.359068220867041
 20
-49.97180738881174
 30
0.0
 40
4.233333333333333
  1
E2040040 [ 4 FLUTE ]
 41
0.75
  7
SLDTEXTSTYLE0
 11
-6.359068220867041
 21
-52.08847405547841
 31
0.0
100
AcDbAttribute
  2
AUTOATTR0
 70
     0
 74
     1
  0
SEQEND
  5
CA
330
C8
100
AcDbEntity
  8
0
  6
Continuous
 62
     7
  0
HATCH
  5
CB
330
1F
100
AcDbEntity
  8
중심선
100
AcDbHatch
 10
0.0
 20
0.0
 30
0.0
210
0.0
220
0.0
230
1.0
  2
SOLID
 70
     1
 71
     0
 91
        1
 92
        0
 93
        4
 72
     1
 10
8.537136372255073
 20
-35.8
 11
5.09086112841779
 21
-35.8
 72
     1
 10
5.09086112841779
 20
-35.8
 11
2.962631269213768
 21
-38.3363255805726
 72
     1
 10
2.962631269213768
 20
-38.3363255805726
 11
6.408939598164199
 21
-38.33628615127011
 72
     1
 10
6.408939598164199
 20
-38.33628615127011
 11
8.537136372255073
 21
-35.8
 97
        0
 75
     0
 76
     1
 98
        1
 10
-7.611761314031728
 20
-0.0010749287238978
  0
HATCH
  5
CC
330
1F
100
AcDbEntity
  8
중심선
100
AcDbHatch
 10
0.0
 20
0.0
 30
0.0
210
0.0
220
0.0
230
1.0
  2
SOLID
 70
     1
 71
     0
 91
        1
 92
        0
 93
        4
 72
     1
 10
13.54990036329105
 20
-35.8
 11
10.10362511945377
 21
-35.79999999999998
 72
     1
 10
10.10362511945377
 20
-35.79999999999998
 11
5.572487111096352
 21
-41.20000000000002
 72
     1
 10
5.572487111096352
 20
-41.20000000000002
 11
9.018762354933635
 21
-41.20000000000002
 72
     1
 10
9.018762354933635
 20
-41.20000000000002
 11
13.54990036329105
 21
-35.8
 97
        0
 75
     0
 76
     1
 98
        1
 10
-7.611761314031728
 20
-0.0010749287238978
  0
HATCH
  5
CD
330
1F
100
AcDbEntity
  8
중심선
100
AcDbHatch
 10
0.0
 20
0.0
 30
0.0
210
0.0
220
0.0
230
1.0
  2
SOLID
 70
     1
 71
     0
 91
        1
 92
        0
 93
        4
 72
     1
 10
18.56266435432695
 20
-35.79999999999998
 11
15.1163891104898
 21
-35.8
 72
     1
 10
15.1163891104898
 20
-35.8
 11
8.067952208600554
 21
-44.20000000000002
 72
     1
 10
8.067952208600554
 20
-44.20000000000002
 11
11.51422745243784
 21
-44.20000000000002
 72
     1
 10
11.51422745243784
 20
-44.20000000000002
 11
18.56266435432695
 21
-35.79999999999998
 97
        0
 75
     0
 76
     1
 98
        1
 10
-7.611761314031728
 20
-0.0010749287238978
  0
HATCH
  5
CE
330
1F
100
AcDbEntity
  8
중심선
100
AcDbHatch
 10
0.0
 20
0.0
 30
0.0
210
0.0
220
0.0
230
1.0
  2
SOLID
 70
     1
 71
     0
 91
        1
 92
        0
 93
        6
 72
     3
 10
23.36255478533912
 20
-40.00000000005127
 11
3.960054785062283
 21
1.540882976769353E-10
 40
0.3939339440162628
 50
17.09539180608436
 51
320.0019657685075
 73
     0
 72
     1
 10
25.04555444103969
 20
-38.5878940046383
 11
27.35085631474075
 21
-36.65356729459038
 72
     3
 10
23.36255478528627
 20
-40.00000000000015
 11
6.600054785286833
 21
-1.278976924368180E-13
 40
0.6363583540795976
 50
39.99873849337412
 51
368.4976242363725
 73
     1
 72
     1
 10
29.78788727718688
 20
-39.03999999993002
 11
22.04262209212219
 21
-39.03999999993002
 72
     1
 10
22.04262209212219
 20
-39.03999999993002
 11
22.04259704767626
 21
-40.95999999992991
 72
     1
 10
22.04259704767626
 20
-40.95999999992991
 11
26.4839768171483
 21
-40.95999999992988
 97
        0
 75
     0
 76
     1
 98
        1
 10
-7.611761314031728
 20
-0.0010749287238978
  0
DIMENSION
  5
CF
330
1F
100
AcDbEntity
  8
치수문자_일반주서
100
AcDbDimension
  2
_D
 10
11.99999999999944
 20
22.9375
 30
0.0
 11
43.74999999999942
 21
22.9375
 31
0.0
 70
   160
  1
<>
 71
     2
 42
63.50000000000001
  3
SLDDIMSTYLE0
100
AcDbAlignedDimension
 13
75.49999999999945
 23
7.937500000000007
 33
0.0
 14
11.99999999999944
 24
7.937258068935701
 34
0.0
 50
0.0000000000000032
100
AcDbRotatedDimension
1001
PE_URL
1000

1001
ACAD
1000
DSTYLE
1002
{
1070
   171
1070
     8
1070
   273
1070
     7
1002
}
  0
DIMENSION
  5
E4
330
1F
100
AcDbEntity
  8
치수문자_일반주서
100
AcDbDimension
  2
_D_1
 10
-41.97500000000056
 20
37.9375
 30
0.0
 11
16.76249999999945
 21
37.9375
 31
0.0
 70
   160
  1
<>
 71
     2
 42
117.475
  3
SLDDIMSTYLE0
100
AcDbAlignedDimension
 13
75.49999999999945
 23
7.937500000000007
 33
0.0
 14
-41.97500000000056
 24
6.349999999999999
 34
0.0
 50
0.0000000000000035
100
AcDbRotatedDimension
1001
PE_URL
1000

1001
ACAD
1000
DSTYLE
1002
{
1070
   171
1070
     8
1070
   273
1070
     7
1002
}
  0
DIMENSION
  5
F8
330
1F
100
AcDbEntity
  8
치수문자_일반주서
100
AcDbDimension
  2
_D_2
 10
-56.9750000000005
 20
-7.937500000000082
 30
0.0
 11
-56.97500000000062
 21
25.23949999999995
 31
0.0
 70
   160
  1
%%c<>
 71
     2
 42
15.87500000000003
 52
-270.0
  3
SLDDIMSTYLE0
100
AcDbAlignedDimension
 13
-40.38750000000056
 23
7.93750000000001
 33
0.0
 14
-40.38750000000056
 24
-7.937500000000019
 34
0.0
 50
90.0000000000002
100
AcDbRotatedDimension
1001
PE_URL
1000

1001
ACAD
1000
DSTYLE
1002
{
1070
   171
1070
     8
1070
   273
1070
     7
1002
}
1001
ACAD_DSTYLE_DIMFLIPARROW_SYMBOL
1070
   385
1070
     0
1001
ACAD_DSTYLE_DIMFLIPARROW_WHICH_SYMBOL
1070
   386
1070
     3
  0
DIMENSION
  5
10D
330
1F
100
AcDbEntity
  8
치수문자_일반주서
100
AcDbDimension
  2
_D_3
 10
90.49999999999946
 20
7.937500000000064
 30
0.0
 11
90.49999999999937
 21
30.02281057025612
 31
0.0
 70
   160
  1
%%c<>
 71
     2
 42
15.875
 52
-270.0
  3
SLDDIMSTYLE0
100
AcDbAlignedDimension
 13
75.49999999999945
 23
-7.937499999999993
 33
0.0
 14
75.49999999999945
 24
7.937500000000007
 34
0.0
 50
90.0000000000002
100
AcDbRotatedDimension
1001
PE_URL
1000

1001
ACAD
1000
DSTYLE
1002
{
1070
   171
1070
     8
1070
   273
1070
     7
1002
}
1001
ACAD_DSTYLE_DIMFLIPARROW_SYMBOL
1070
   385
1070
     0
1001
ACAD_DSTYLE_DIMFLIPARROW_WHICH_SYMBOL
1070
   386
1070
     3
  0
LINE
  5
120
330
1F
100
AcDbEntity
  8
참조1
100
AcDbLine
 10
70.20723381534503
 20
7.439999999999998
 30
0.0
 11
70.20723381534503
 21
-7.440000000000007
 31
0.0
  0
LINE
  5
121
330
1F
100
AcDbEntity
  8
참조1
100
AcDbLine
 10
82.90723381534504
 20
5.439999999999998
 30
0.0
 11
70.20723381534503
 21
5.439999999999998
 31
0.0
  0
SOLID
  5
122
330
1F
100
AcDbEntity
  8
참조1
100
AcDbTrace
 10
70.20723381534503
 20
5.439999999999998
 30
0.0
 11
76.55723381534503
 21
4.423999999999998
 31
0.0
 12
76.55723381534503
 22
6.455999999999998
 32
0.0
 13
76.55723381534503
 23
6.455999999999998
 33
0.0
  0
LINE
  5
123
330
1F
100
AcDbEntity
  8
참조1
100
AcDbLine
 10
82.90723381534504
 20
-5.440000000000007
 30
0.0
 11
70.20723381534503
 21
-5.440000000000007
 31
0.0
  0
SOLID
  5
124
330
1F
100
AcDbEntity
  8
참조1
100
AcDbTrace
 10
70.20723381534503
 20
-5.440000000000007
 30
0.0
 11
76.55723381534503
 21
-6.456000000000007
 31
0.0
 12
76.55723381534503
 22
-4.424000000000007
 32
0.0
 13
76.55723381534503
 23
-4.424000000000007
 33
0.0
  0
MTEXT
  5
125
330
1F
100
AcDbEntity
  8
참조1
100
AcDbMText
 10
79.59158394797103
 20
11.01029177718832
 30
0.0
 40
3.5
 41
0.0
 71
     1
 72
     1
  1
A
  7
SLDTEXTSTYLE0
 73
     1
 44
1.0
  0
MTEXT
  5
126
330
1F
100
AcDbEntity
  8
참조1
100
AcDbMText
 10
79.59158394797103
 20
0.1302917771883223
 30
0.0
 40
3.5
 41
0.0
 71
     1
 72
     1
  1
A
  7
SLDTEXTSTYLE0
 73
     1
 44
1.0
  0
INSERT
  5
12D
330
1F
100
AcDbEntity
  8
해칭선
100
AcDbBlockReference
  2
SW_DOWELSYMBOL_0
 10
0.0
 20
0.0
 30
0.0
  0
LINE
  5
1CE
330
1F
100
AcDbEntity
  8
외형선
  6
Continuous
370
    15
100
AcDbLine
 10
-22.85832500000058
 20
6.286499999999958
 30
0.0
 11
-12.67292500000056
 21
6.286499999999958
 31
0.0
1001
PE_URL
1000

  0
LINE
  5
1CF
330
1F
100
AcDbEntity
  8
외형선
  6
Continuous
370
    15
100
AcDbLine
 10
-22.85832500000058
 20
6.286500000000058
 30
0.0
 11
-24.50932500000053
 21
7.937499999999969
 31
0.0
1001
PE_URL
1000

  0
LINE
  5
1D0
330
1F
100
AcDbEntity
  8
외형선
  6
Continuous
370
    15
100
AcDbLine
 10
-12.67292500000068
 20
6.286500000000058
 30
0.0
 11
-11.02192500000067
 21
7.937499999999969
 31
0.0
1001
PE_URL
1000

  0
LINE
  5
1DA
330
1F
100
AcDbEntity
  8
외형선
  6
Continuous
370
    15
100
AcDbLine
 10
-24.50932500000055
 20
7.937499999999996
 30
0.0
 11
-40.38750000000056
 21
7.937499999999996
 31
0.0
  0
ENDSEC
  0
SECTION
  2
OBJECTS
  0
DICTIONARY
  5
C
330
0
100
AcDbDictionary
281
     1
  3
ACAD_DETAILVIEWSTYLE
350
1D8
  3
ACAD_GROUP
350
D
  3
ACAD_IMAGE_VARS
350
20B
  3
ACAD_LAYOUT
350
1A
  3
ACAD_MLINESTYLE
350
17
  3
ACAD_PLOTSETTINGS
350
19
  3
ACAD_PLOTSTYLENAME
350
E
  3
ACAD_SCALELIST
350
47
  3
ACAD_SECTIONVIEWSTYLE
350
1D9
  3
AcDbVariableDictionary
350
1D3
  3
APPDATA
350
14F
  3
DWGPROPS
350
20C
  0
DICTIONARY
  5
185
330
2
100
AcDbDictionary
280
     1
281
     1
  3
ACAD_LAYERSTATES
360
186
  0
DICTIONARY
  5
1D8
102
{ACAD_REACTORS
330
C
102
}
330
C
100
AcDbDictionary
281
     1
  0
DICTIONARY
  5
D
102
{ACAD_REACTORS
330
C
102
}
330
C
100
AcDbDictionary
281
     1
  0
RASTERVARIABLES
  5
20B
102
{ACAD_REACTORS
330
C
102
}
330
C
100
AcDbRasterVariables
 90
        0
 70
     1
 71
     1
 72
     1
  0
DICTIONARY
  5
1A
102
{ACAD_REACTORS
330
C
102
}
330
C
100
AcDbDictionary
281
     1
  3
Layout1
350
1E
  3
Layout2
350
26
  3
Model
350
22
  0
DICTIONARY
  5
17
102
{ACAD_REACTORS
330
C
102
}
330
C
100
AcDbDictionary
281
     1
  3
Standard
350
18
  0
DICTIONARY
  5
19
102
{ACAD_REACTORS
330
C
102
}
330
C
100
AcDbDictionary
281
     1
  0
ACDBDICTIONARYWDFLT
  5
E
102
{ACAD_REACTORS
330
C
102
}
330
C
100
AcDbDictionary
281
     1
  3
Normal
350
F
100
AcDbDictionaryWithDefault
340
F
  0
DICTIONARY
  5
47
102
{ACAD_REACTORS
330
C
102
}
330
C
100
AcDbDictionary
281
     1
  3
A0
350
48
  3
A1
350
49
  3
A2
350
4A
  3
A3
350
4B
  3
A4
350
4C
  3
A5
350
4D
  3
A6
350
4E
  3
A7
350
4F
  3
A8
350
50
  3
A9
350
51
  3
B0
350
52
  3
B1
350
53
  3
B2
350
54
  3
B3
350
55
  3
B4
350
56
  3
B5
350
57
  3
B6
350
58
  3
B7
350
59
  3
B8
350
5A
  3
B9
350
5B
  3
C0
350
5C
  3
C1
350
5D
  3
C2
350
5E
  3
C3
350
5F
  3
C4
350
60
  3
C5
350
61
  3
C6
350
62
  3
C7
350
63
  3
C8
350
64
  3
C9
350
65
  3
D0
350
66
  3
D1
350
67
  3
D2
350
68
  0
DICTIONARY
  5
1D9
102
{ACAD_REACTORS
330
C
102
}
330
C
100
AcDbDictionary
281
     1
  0
DICTIONARY
  5
1D3
102
{ACAD_REACTORS
330
C
102
}
330
C
100
AcDbDictionary
281
     1
  0
DICTIONARY
  5
14F
102
{ACAD_REACTORS
330
C
102
}
330
C
100
AcDbDictionary
281
     1
  0
XRECORD
  5
20C
102
{ACAD_REACTORS
330
C
102
}
330
C
100
AcDbXrecord
280
     1
  1
DWGPROPS COOKIE
  2

  3

  4

  6

  7

  8
12016016
  9

300
=
301
=
302
=
303
=
304
=
305
=
306
=
307
=
308
=
309
=
 40
0.0
 41
2458312.255979387
 42
2458330.280545799
  1

 90
        0
  0
DICTIONARY
  5
186
102
{ACAD_REACTORS
330
185
102
}
330
185
100
AcDbDictionary
281
     1
  0
LAYOUT
  5
1E
102
{ACAD_REACTORS
330
1A
102
}
330
1A
100
AcDbPlotSettings
  1

  2
none_device
  4

  6

 40
0.0
 41
0.0
 42
0.0
 43
0.0
 44
0.0
 45
0.0
 46
0.0
 47
0.0
 48
0.0
 49
0.0
140
0.0
141
0.0
142
1.0
143
1.0
 70
   688
 72
     1
 73
     0
 74
     5
  7

 75
    16
147
1.0
148
0.0
149
0.0
100
AcDbLayout
  1
Layout1
 70
     1
 71
     1
 10
0.0
 20
0.0
 11
420.0
 21
297.0
 12
0.0
 22
0.0
 32
0.0
 14
1.000000000000000E+20
 24
1.000000000000000E+20
 34
1.000000000000000E+20
 15
-1.000000000000000E+20
 25
-1.000000000000000E+20
 35
-1.000000000000000E+20
146
0.0
 13
0.0
 23
0.0
 33
0.0
 16
1.0
 26
0.0
 36
0.0
 17
0.0
 27
1.0
 37
0.0
 76
     0
330
1B
  0
LAYOUT
  5
26
102
{ACAD_REACTORS
330
1A
102
}
330
1A
100
AcDbPlotSettings
  1

  2
none_device
  4

  6

 40
0.0
 41
0.0
 42
0.0
 43
0.0
 44
0.0
 45
0.0
 46
0.0
 47
0.0
 48
0.0
 49
0.0
140
0.0
141
0.0
142
1.0
143
1.0
 70
   688
 72
     1
 73
     0
 74
     5
  7

 75
    16
147
1.0
148
0.0
149
0.0
100
AcDbLayout
  1
Layout2
 70
     1
 71
     2
 10
0.0
 20
0.0
 11
0.0
 21
0.0
 12
0.0
 22
0.0
 32
0.0
 14
0.0
 24
0.0
 34
0.0
 15
0.0
 25
0.0
 35
0.0
146
0.0
 13
0.0
 23
0.0
 33
0.0
 16
1.0
 26
0.0
 36
0.0
 17
0.0
 27
1.0
 37
0.0
 76
     0
330
23
  0
LAYOUT
  5
22
102
{ACAD_REACTORS
330
1A
102
}
330
1A
100
AcDbPlotSettings
  1

  2
none_device
  4
ANSI_A_(11.00_x_8.50_Inches)
  6

 40
6.35
 41
19.05
 42
6.35000508
 43
19.05000254
 44
279.4
 45
215.9
 46
55.80320592852593
 47
55.4009508533868
 48
0.0
 49
0.0
140
0.0
141
0.0
142
0.0428501538111966
143
1.0
 70
  1696
 72
     0
 73
     0
 74
     0
  7

 75
     0
147
0.0235690232323232
148
0.0
149
0.0
100
AcDbLayout
  1
Model
 70
     1
 71
     0
 10
0.0
 20
0.0
 11
420.0
 21
297.0
 12
0.0
 22
0.0
 32
0.0
 14
-61.35000000000068
 24
-49.97180738881175
 34
0.0
 15
91.05033333333287
 25
44.02281057025613
 35
0.0
146
0.0
 13
0.0
 23
0.0
 33
0.0
 16
1.0
 26
0.0
 36
0.0
 17
0.0
 27
1.0
 37
0.0
 76
     0
330
1F
331
29
  0
MLINESTYLE
  5
18
102
{ACAD_REACTORS
330
17
102
}
330
17
100
AcDbMlineStyle
  2
Standard
 70
     0
  3

 62
   256
 51
90.0
 52
90.0
 71
     2
 49
0.5
 62
   256
  6
BYLAYER
 49
-0.5
 62
   256
  6
BYLAYER
  0
ACDBPLACEHOLDER
  5
F
102
{ACAD_REACTORS
330
E
102
}
330
E
  0
SCALE
  5
48
102
{ACAD_REACTORS
330
47
102
}
330
47
100
AcDbScale
 70
     0
300
1:1
140
1.0
141
1.0
290
     1
  0
SCALE
  5
49
102
{ACAD_REACTORS
330
47
102
}
330
47
100
AcDbScale
 70
     0
300
1:2
140
1.0
141
2.0
290
     0
  0
SCALE
  5
4A
102
{ACAD_REACTORS
330
47
102
}
330
47
100
AcDbScale
 70
     0
300
1:4
140
1.0
141
4.0
290
     0
  0
SCALE
  5
4B
102
{ACAD_REACTORS
330
47
102
}
330
47
100
AcDbScale
 70
     0
300
1:5
140
1.0
141
5.0
290
     0
  0
SCALE
  5
4C
102
{ACAD_REACTORS
330
47
102
}
330
47
100
AcDbScale
 70
     0
300
1:8
140
1.0
141
8.0
290
     0
  0
SCALE
  5
4D
102
{ACAD_REACTORS
330
47
102
}
330
47
100
AcDbScale
 70
     0
300
1:10
140
1.0
141
10.0
290
     0
  0
SCALE
  5
4E
102
{ACAD_REACTORS
330
47
102
}
330
47
100
AcDbScale
 70
     0
300
1:16
140
1.0
141
16.0
290
     0
  0
SCALE
  5
4F
102
{ACAD_REACTORS
330
47
102
}
330
47
100
AcDbScale
 70
     0
300
1:20
140
1.0
141
20.0
290
     0
  0
SCALE
  5
50
102
{ACAD_REACTORS
330
47
102
}
330
47
100
AcDbScale
 70
     0
300
1:30
140
1.0
141
30.0
290
     0
  0
SCALE
  5
51
102
{ACAD_REACTORS
330
47
102
}
330
47
100
AcDbScale
 70
     0
300
1:40
140
1.0
141
40.0
290
     0
  0
SCALE
  5
52
102
{ACAD_REACTORS
330
47
102
}
330
47
100
AcDbScale
 70
     0
300
1:50
140
1.0
141
50.0
290
     0
  0
SCALE
  5
53
102
{ACAD_REACTORS
330
47
102
}
330
47
100
AcDbScale
 70
     0
300
1:100
140
1.0
141
100.0
290
     0
  0
SCALE
  5
54
102
{ACAD_REACTORS
330
47
102
}
330
47
100
AcDbScale
 70
     0
300
2:1
140
2.0
141
1.0
290
     0
  0
SCALE
  5
55
102
{ACAD_REACTORS
330
47
102
}
330
47
100
AcDbScale
 70
     0
300
4:1
140
4.0
141
1.0
290
     0
  0
SCALE
  5
56
102
{ACAD_REACTORS
330
47
102
}
330
47
100
AcDbScale
 70
     0
300
8:1
140
8.0
141
1.0
290
     0
  0
SCALE
  5
57
102
{ACAD_REACTORS
330
47
102
}
330
47
100
AcDbScale
 70
     0
300
10:1
140
10.0
141
1.0
290
     0
  0
SCALE
  5
58
102
{ACAD_REACTORS
330
47
102
}
330
47
100
AcDbScale
 70
     0
300
100:1
140
100.0
141
1.0
290
     0
  0
SCALE
  5
59
102
{ACAD_REACTORS
330
47
102
}
330
47
100
AcDbScale
 70
     0
300
1/128" = 1'-0"
140
0.0078125
141
12.0
290
     0
  0
SCALE
  5
5A
102
{ACAD_REACTORS
330
47
102
}
330
47
100
AcDbScale
 70
     0
300
1/64" = 1'-0"
140
0.015625
141
12.0
290
     0
  0
SCALE
  5
5B
102
{ACAD_REACTORS
330
47
102
}
330
47
100
AcDbScale
 70
     0
300
1/32" = 1'-0"
140
0.03125
141
12.0
290
     0
  0
SCALE
  5
5C
102
{ACAD_REACTORS
330
47
102
}
330
47
100
AcDbScale
 70
     0
300
1/16" = 1'-0"
140
0.0625
141
12.0
290
     0
  0
SCALE
  5
5D
102
{ACAD_REACTORS
330
47
102
}
330
47
100
AcDbScale
 70
     0
300
3/32" = 1'-0"
140
0.09375
141
12.0
290
     0
  0
SCALE
  5
5E
102
{ACAD_REACTORS
330
47
102
}
330
47
100
AcDbScale
 70
     0
300
1/8" = 1'-0"
140
0.125
141
12.0
290
     0
  0
SCALE
  5
5F
102
{ACAD_REACTORS
330
47
102
}
330
47
100
AcDbScale
 70
     0
300
3/16" = 1'-0"
140
0.1875
141
12.0
290
     0
  0
SCALE
  5
60
102
{ACAD_REACTORS
330
47
102
}
330
47
100
AcDbScale
 70
     0
300
1/4" = 1'-0"
140
0.25
141
12.0
290
     0
  0
SCALE
  5
61
102
{ACAD_REACTORS
330
47
102
}
330
47
100
AcDbScale
 70
     0
300
3/8" = 1'-0"
140
0.375
141
12.0
290
     0
  0
SCALE
  5
62
102
{ACAD_REACTORS
330
47
102
}
330
47
100
AcDbScale
 70
     0
300
1/2" = 1'-0"
140
0.5
141
12.0
290
     0
  0
SCALE
  5
63
102
{ACAD_REACTORS
330
47
102
}
330
47
100
AcDbScale
 70
     0
300
3/4" = 1'-0"
140
0.75
141
12.0
290
     0
  0
SCALE
  5
64
102
{ACAD_REACTORS
330
47
102
}
330
47
100
AcDbScale
 70
     0
300
1" = 1'-0"
140
1.0
141
12.0
290
     0
  0
SCALE
  5
65
102
{ACAD_REACTORS
330
47
102
}
330
47
100
AcDbScale
 70
     0
300
1-1/2" = 1'-0"
140
1.5
141
12.0
290
     0
  0
SCALE
  5
66
102
{ACAD_REACTORS
330
47
102
}
330
47
100
AcDbScale
 70
     0
300
3" = 1'-0"
140
3.0
141
12.0
290
     0
  0
SCALE
  5
67
102
{ACAD_REACTORS
330
47
102
}
330
47
100
AcDbScale
 70
     0
300
6" = 1'-0"
140
6.0
141
12.0
290
     0
  0
SCALE
  5
68
102
{ACAD_REACTORS
330
47
102
}
330
47
100
AcDbScale
 70
     0
300
1'-0" = 1'-0"
140
12.0
141
12.0
290
     0
  0
ENDSEC
  0
EOF
