  0
SECTION
  2
HEADER
  9
$ACADVER
  1
AC1015
  9
$ACADMAINTVER
 70
     6
  9
$DWGCODEPAGE
  3
ANSI_949
  9
$INSBASE
 10
0.0
 20
0.0
 30
0.0
  9
$EXTMIN
 10
-65.02500000000012
 20
-49.97180738881174
 30
0.0
  9
$EXTMAX
 10
103.8666666666668
 20
53.98997268430735
 30
0.0
  9
$LIMMIN
 10
0.0
 20
0.0
  9
$LIMMAX
 10
420.0
 20
297.0
  9
$ORTHOMODE
 70
     1
  9
$REGENMODE
 70
     1
  9
$FILLMODE
 70
     1
  9
$QTEXTMODE
 70
     0
  9
$MIRRTEXT
 70
     1
  9
$LTSCALE
 40
1.0
  9
$ATTMODE
 70
     1
  9
$TEXTSIZE
 40
3.5
  9
$TRACEWID
 40
1.0
  9
$TEXTSTYLE
  7
Standard
  9
$CLAYER
  8
0
  9
$CELTYPE
  6
ByLayer
  9
$CECOLOR
 62
   256
  9
$CELTSCALE
 40
1.0
  9
$DISPSILH
 70
     0
  9
$DIMSCALE
 40
1.0
  9
$DIMASZ
 40
3.302
  9
$DIMEXO
 40
1.0
  9
$DIMDLI
 40
3.75
  9
$DIMRND
 40
0.0
  9
$DIMDLE
 40
0.0
  9
$DIMEXE
 40
1.0
  9
$DIMTP
 40
0.0
  9
$DIMTM
 40
0.0
  9
$DIMTXT
 40
3.5
  9
$DIMCEN
 40
2.5
  9
$DIMTSZ
 40
0.0
  9
$DIMTOL
 70
     0
  9
$DIMLIM
 70
     0
  9
$DIMTIH
 70
     1
  9
$DIMTOH
 70
     1
  9
$DIMSE1
 70
     0
  9
$DIMSE2
 70
     0
  9
$DIMTAD
 70
     1
  9
$DIMZIN
 70
     0
  9
$DIMBLK
  1

  9
$DIMASO
 70
     1
  9
$DIMSHO
 70
     1
  9
$DIMPOST
  1

  9
$DIMAPOST
  1

  9
$DIMALT
 70
     0
  9
$DIMALTD
 70
     3
  9
$DIMALTF
 40
0.0393700787401575
  9
$DIMLFAC
 40
1.0
  9
$DIMTOFL
 70
     1
  9
$DIMTVP
 40
0.0
  9
$DIMTIX
 70
     0
  9
$DIMSOXD
 70
     0
  9
$DIMSAH
 70
     0
  9
$DIMBLK1
  1

  9
$DIMBLK2
  1

  9
$DIMSTYLE
  2
ISO-25
  9
$DIMCLRD
 70
     0
  9
$DIMCLRE
 70
     0
  9
$DIMCLRT
 70
     0
  9
$DIMTFAC
 40
1.0
  9
$DIMGAP
 40
1.524
  9
$DIMJUST
 70
     0
  9
$DIMSD1
 70
     0
  9
$DIMSD2
 70
     0
  9
$DIMTOLJ
 70
     0
  9
$DIMTZIN
 70
     0
  9
$DIMALTZ
 70
     0
  9
$DIMALTTZ
 70
     0
  9
$DIMUPT
 70
     0
  9
$DIMDEC
 70
     2
  9
$DIMTDEC
 70
     2
  9
$DIMALTU
 70
     2
  9
$DIMALTTD
 70
     3
  9
$DIMTXSTY
  7
Standard
  9
$DIMAUNIT
 70
     0
  9
$DIMADEC
 70
     2
  9
$DIMALTRND
 40
0.0
  9
$DIMAZIN
 70
     0
  9
$DIMDSEP
 70
    44
  9
$DIMATFIT
 70
     3
  9
$DIMFRAC
 70
     0
  9
$DIMLDRBLK
  1

  9
$DIMLUNIT
 70
     2
  9
$DIMLWD
 70
    -2
  9
$DIMLWE
 70
    -2
  9
$DIMTMOVE
 70
     0
  9
$LUNITS
 70
     2
  9
$LUPREC
 70
     2
  9
$SKETCHINC
 40
1.0
  9
$FILLETRAD
 40
10.0
  9
$AUNITS
 70
     0
  9
$AUPREC
 70
     2
  9
$MENU
  1
.
  9
$ELEVATION
 40
0.0
  9
$PELEVATION
 40
0.0
  9
$THICKNESS
 40
0.0
  9
$LIMCHECK
 70
     0
  9
$CHAMFERA
 40
0.0
  9
$CHAMFERB
 40
0.0
  9
$CHAMFERC
 40
0.0
  9
$CHAMFERD
 40
0.0
  9
$SKPOLY
 70
     0
  9
$TDCREATE
 40
2458312.631191181
  9
$TDUCREATE
 40
2458312.256191181
  9
$TDUPDATE
 40
2458330.655497835
  9
$TDUUPDATE
 40
2458330.280497835
  9
$TDINDWG
 40
0.0016775231
  9
$TDUSRTIMER
 40
2458330.280459039
  9
$USRTIMER
 70
     1
  9
$ANGBASE
 50
0.0
  9
$ANGDIR
 70
     0
  9
$PDMODE
 70
     0
  9
$PDSIZE
 40
-1.0
  9
$PLINEWID
 40
0.0
  9
$SPLFRAME
 70
     0
  9
$SPLINETYPE
 70
     6
  9
$SPLINESEGS
 70
     8
  9
$HANDSEED
  5
2BD
  9
$SURFTAB1
 70
     6
  9
$SURFTAB2
 70
     6
  9
$SURFTYPE
 70
     6
  9
$SURFU
 70
     6
  9
$SURFV
 70
     6
  9
$UCSBASE
  2

  9
$UCSNAME
  2

  9
$UCSORG
 10
0.0
 20
0.0
 30
0.0
  9
$UCSXDIR
 10
1.0
 20
0.0
 30
0.0
  9
$UCSYDIR
 10
0.0
 20
1.0
 30
0.0
  9
$UCSORTHOREF
  2

  9
$UCSORTHOVIEW
 70
     0
  9
$UCSORGTOP
 10
0.0
 20
0.0
 30
0.0
  9
$UCSORGBOTTOM
 10
0.0
 20
0.0
 30
0.0
  9
$UCSORGLEFT
 10
0.0
 20
0.0
 30
0.0
  9
$UCSORGRIGHT
 10
0.0
 20
0.0
 30
0.0
  9
$UCSORGFRONT
 10
0.0
 20
0.0
 30
0.0
  9
$UCSORGBACK
 10
0.0
 20
0.0
 30
0.0
  9
$PUCSBASE
  2

  9
$PUCSNAME
  2

  9
$PUCSORG
 10
0.0
 20
0.0
 30
0.0
  9
$PUCSXDIR
 10
1.0
 20
0.0
 30
0.0
  9
$PUCSYDIR
 10
0.0
 20
1.0
 30
0.0
  9
$PUCSORTHOREF
  2

  9
$PUCSORTHOVIEW
 70
     0
  9
$PUCSORGTOP
 10
0.0
 20
0.0
 30
0.0
  9
$PUCSORGBOTTOM
 10
0.0
 20
0.0
 30
0.0
  9
$PUCSORGLEFT
 10
0.0
 20
0.0
 30
0.0
  9
$PUCSORGRIGHT
 10
0.0
 20
0.0
 30
0.0
  9
$PUCSORGFRONT
 10
0.0
 20
0.0
 30
0.0
  9
$PUCSORGBACK
 10
0.0
 20
0.0
 30
0.0
  9
$USERI1
 70
     0
  9
$USERI2
 70
     0
  9
$USERI3
 70
     0
  9
$USERI4
 70
     0
  9
$USERI5
 70
     0
  9
$USERR1
 40
0.0
  9
$USERR2
 40
0.0
  9
$USERR3
 40
0.0
  9
$USERR4
 40
0.0
  9
$USERR5
 40
0.0
  9
$WORLDVIEW
 70
     1
  9
$SHADEDGE
 70
     3
  9
$SHADEDIF
 70
    70
  9
$TILEMODE
 70
     1
  9
$MAXACTVP
 70
    64
  9
$PINSBASE
 10
0.0
 20
0.0
 30
0.0
  9
$PLIMCHECK
 70
     0
  9
$PEXTMIN
 10
1.000000000000000E+20
 20
1.000000000000000E+20
 30
1.000000000000000E+20
  9
$PEXTMAX
 10
-1.000000000000000E+20
 20
-1.000000000000000E+20
 30
-1.000000000000000E+20
  9
$PLIMMIN
 10
0.0
 20
0.0
  9
$PLIMMAX
 10
0.0
 20
0.0
  9
$UNITMODE
 70
     0
  9
$VISRETAIN
 70
     1
  9
$PLINEGEN
 70
     0
  9
$PSLTSCALE
 70
     1
  9
$TREEDEPTH
 70
  3020
  9
$CMLSTYLE
  2
Standard
  9
$CMLJUST
 70
     0
  9
$CMLSCALE
 40
20.0
  9
$PROXYGRAPHICS
 70
     1
  9
$MEASUREMENT
 70
     1
  9
$CELWEIGHT
370
    -1
  9
$ENDCAPS
280
     0
  9
$JOINSTYLE
280
     0
  9
$LWDISPLAY
290
     1
  9
$INSUNITS
 70
     4
  9
$HYPERLINKBASE
  1

  9
$STYLESHEET
  1

  9
$XEDIT
290
     1
  9
$CEPSNTYPE
380
     0
  9
$PSTYLEMODE
290
     1
  9
$FINGERPRINTGUID
  2
{37DB6552-1589-4C86-BA6A-BD29D022D4D2}
  9
$VERSIONGUID
  2
{FAEB1C32-E019-11D5-929B-00C0DF256EC4}
  9
$EXTNAMES
290
     1
  9
$PSVPSCALE
 40
0.0
  9
$OLESTARTUP
290
     0
  0
ENDSEC
  0
SECTION
  2
CLASSES
  0
CLASS
  1
ACDBDICTIONARYWDFLT
  2
AcDbDictionaryWithDefault
  3
ObjectDBX Classes
 90
        0
280
     0
281
     0
  0
CLASS
  1
VISUALSTYLE
  2
AcDbVisualStyle
  3
ObjectDBX Classes
 90
     4095
280
     0
281
     0
  0
CLASS
  1
MATERIAL
  2
AcDbMaterial
  3
ObjectDBX Classes
 90
     1153
280
     0
281
     0
  0
CLASS
  1
SCALE
  2
AcDbScale
  3
ObjectDBX Classes
 90
     1153
280
     0
281
     0
  0
CLASS
  1
SUN
  2
AcDbSun
  3
SCENEOE
 90
     1153
280
     0
281
     0
  0
CLASS
  1
ACDBPLACEHOLDER
  2
AcDbPlaceHolder
  3
ObjectDBX Classes
 90
        0
280
     0
281
     0
  0
CLASS
  1
LAYOUT
  2
AcDbLayout
  3
ObjectDBX Classes
 90
        0
280
     0
281
     0
  0
CLASS
  1
TABLESTYLE
  2
AcDbTableStyle
  3
ObjectDBX Classes
 90
     4095
280
     0
281
     0
  0
CLASS
  1
MLEADERSTYLE
  2
AcDbMLeaderStyle
  3
ACDB_MLEADERSTYLE_CLASS
 90
     4095
280
     0
281
     0
  0
CLASS
  1
DICTIONARYVAR
  2
AcDbDictionaryVar
  3
ObjectDBX Classes
 90
        0
280
     0
281
     0
  0
CLASS
  1
RASTERVARIABLES
  2
AcDbRasterVariables
  3
ISM
 90
        0
280
     0
281
     0
  0
ENDSEC
  0
SECTION
  2
TABLES
  0
TABLE
  2
VPORT
  5
8
330
0
100
AcDbSymbolTable
 70
     1
  0
VPORT
  5
29
330
8
100
AcDbSymbolTableRecord
100
AcDbViewportTableRecord
  2
*Active
 70
     0
 10
0.0
 20
0.0
 11
1.0
 21
1.0
 12
19.42083333333332
 22
2.009082647747803
 13
0.0
 23
0.0
 14
10.0
 24
10.0
 15
10.0
 25
10.0
 16
0.0
 26
0.0
 36
1.0
 17
0.0
 27
0.0
 37
0.0
 40
106.0410156745815
 41
1.782762691853601
 42
50.0
 43
0.0
 44
0.0
 50
0.0
 51
0.0
 71
    16
 72
  2000
 73
     1
 74
     3
 75
     0
 76
     0
 77
     0
 78
     0
281
     0
 65
     1
110
0.0
120
0.0
130
0.0
111
1.0
121
0.0
131
0.0
112
0.0
122
1.0
132
0.0
 79
     0
146
0.0
  0
ENDTAB
  0
TABLE
  2
LTYPE
  5
5
330
0
100
AcDbSymbolTable
 70
     6
  0
LTYPE
  5
14
330
5
100
AcDbSymbolTableRecord
100
AcDbLinetypeTableRecord
  2
ByBlock
 70
     0
  3

 72
    65
 73
     0
 40
0.0
  0
LTYPE
  5
15
330
5
100
AcDbSymbolTableRecord
100
AcDbLinetypeTableRecord
  2
ByLayer
 70
     0
  3

 72
    65
 73
     0
 40
0.0
  0
LTYPE
  5
16
330
5
100
AcDbSymbolTableRecord
100
AcDbLinetypeTableRecord
  2
Continuous
 70
     0
  3
Solid line
 72
    65
 73
     0
 40
0.0
  0
LTYPE
  5
6A
330
5
100
AcDbSymbolTableRecord
100
AcDbLinetypeTableRecord
  2
HIDDEN
 70
     0
  3
Hidden __ __ __ __ __ __ __ __ __ __ __ __ __ __
 72
    65
 73
     2
 40
1.905
 49
1.27
 74
     0
 49
-0.635
 74
     0
  0
LTYPE
  5
6B
330
5
100
AcDbSymbolTableRecord
100
AcDbLinetypeTableRecord
  2
PHANTOM
 70
     0
  3
Phantom ______  __  __  ______  __  __  ______
 72
    65
 73
     6
 40
12.7
 49
6.35
 74
     0
 49
-1.27
 74
     0
 49
1.27
 74
     0
 49
-1.27
 74
     0
 49
1.27
 74
     0
 49
-1.27
 74
     0
  0
LTYPE
  5
6C
330
5
100
AcDbSymbolTableRecord
100
AcDbLinetypeTableRecord
  2
CENTER
 70
     0
  3
Center ____ _ ____ _ ____ _ ____ _ ____ _ ____
 72
    65
 73
     4
 40
10.16
 49
6.35
 74
     0
 49
-1.27
 74
     0
 49
1.27
 74
     0
 49
-1.27
 74
     0
  0
LTYPE
  5
6D
330
5
100
AcDbSymbolTableRecord
100
AcDbLinetypeTableRecord
  2
CENTERX2
 70
     0
  3
Center (2x) ________  __  ________  __  _____
 72
    65
 73
     4
 40
20.32
 49
12.7
 74
     0
 49
-2.54
 74
     0
 49
2.54
 74
     0
 49
-2.54
 74
     0
  0
LTYPE
  5
6E
330
5
100
AcDbSymbolTableRecord
100
AcDbLinetypeTableRecord
  2
DOT2
 70
     0
  3
Dot (.5x) ........................................
 72
    65
 73
     2
 40
0.635
 49
0.0
 74
     0
 49
-0.635
 74
     0
  0
ENDTAB
  0
TABLE
  2
LAYER
  5
2
102
{ACAD_XDICTIONARY
360
184
102
}
330
0
100
AcDbSymbolTable
 70
    18
  0
LAYER
  5
10
330
2
100
AcDbSymbolTableRecord
100
AcDbLayerTableRecord
  2
0
 70
     0
 62
     7
  6
Continuous
370
    -3
390
F
  0
LAYER
  5
6F
330
2
100
AcDbSymbolTableRecord
100
AcDbLayerTableRecord
  2
FORMAT
 70
     0
 62
     2
  6
Continuous
370
    -3
390
F
  0
LAYER
  5
70
330
2
100
AcDbSymbolTableRecord
100
AcDbLayerTableRecord
  2
외형선
 70
     0
 62
     4
  6
Continuous
370
    30
390
F
  0
LAYER
  5
71
330
2
100
AcDbSymbolTableRecord
100
AcDbLayerTableRecord
  2
숨은선
 70
     0
 62
     2
  6
HIDDEN
370
    15
390
F
  0
LAYER
  5
72
330
2
100
AcDbSymbolTableRecord
100
AcDbLayerTableRecord
  2
중심선
 70
     0
 62
     1
  6
CENTERX2
370
    -3
390
F
  0
LAYER
  5
73
330
2
100
AcDbSymbolTableRecord
100
AcDbLayerTableRecord
  2
파단선
 70
     0
 62
     4
  6
Continuous
370
    -3
390
F
  0
LAYER
  5
74
330
2
100
AcDbSymbolTableRecord
100
AcDbLayerTableRecord
  2
해칭선
 70
     0
 62
   100
  6
Continuous
370
    -3
390
F
  0
LAYER
  5
75
330
2
100
AcDbSymbolTableRecord
100
AcDbLayerTableRecord
  2
가는실선
 70
     0
 62
     4
  6
Continuous
370
    -3
390
F
  0
LAYER
  5
76
330
2
100
AcDbSymbolTableRecord
100
AcDbLayerTableRecord
  2
치수_보조선
 70
     0
 62
     4
  6
Continuous
370
    -3
390
F
  0
LAYER
  5
77
330
2
100
AcDbSymbolTableRecord
100
AcDbLayerTableRecord
  2
치수문자_일반주서
 70
     0
 62
     7
  6
Continuous
370
    15
390
F
  0
LAYER
  5
78
330
2
100
AcDbSymbolTableRecord
100
AcDbLayerTableRecord
  2
개별주서
 70
     0
 62
   100
  6
Continuous
370
    30
390
F
  0
LAYER
  5
79
330
2
100
AcDbSymbolTableRecord
100
AcDbLayerTableRecord
  2
중간선
 70
     0
 62
     2
  6
Continuous
370
    15
390
F
  0
LAYER
  5
7A
330
2
100
AcDbSymbolTableRecord
100
AcDbLayerTableRecord
  2
윤곽선
 70
     0
 62
     3
  6
Continuous
370
    40
390
F
  0
LAYER
  5
7B
330
2
100
AcDbSymbolTableRecord
100
AcDbLayerTableRecord
  2
중심마크
 70
     0
 62
   100
  6
Continuous
370
    30
390
F
  0
LAYER
  5
7C
330
2
100
AcDbSymbolTableRecord
100
AcDbLayerTableRecord
  2
가상선
 70
     0
 62
     4
  6
PHANTOM
370
    -3
390
F
  0
LAYER
  5
7D
330
2
100
AcDbSymbolTableRecord
100
AcDbLayerTableRecord
  2
특수지정선
 70
     0
 62
     5
  6
CENTERX2
370
    60
390
F
  0
LAYER
  5
7E
330
2
100
AcDbSymbolTableRecord
100
AcDbLayerTableRecord
  2
참조1
 70
     0
 62
    -4
  6
Continuous
370
    -3
390
F
  0
LAYER
  5
151
330
2
100
AcDbSymbolTableRecord
100
AcDbLayerTableRecord
  2
Defpoints
 70
     0
 62
     7
  6
Continuous
290
     0
370
    -3
390
F
  0
ENDTAB
  0
TABLE
  2
STYLE
  5
3
330
0
100
AcDbSymbolTable
 70
     2
  0
STYLE
  5
11
330
3
100
AcDbSymbolTableRecord
100
AcDbTextStyleTableRecord
  2
Standard
 70
     0
 40
0.0
 41
1.0
 50
0.0
 71
     0
 42
3.5
  3
txt
  4

  0
STYLE
  5
94
330
3
100
AcDbSymbolTableRecord
100
AcDbTextStyleTableRecord
  2
SLDTEXTSTYLE0
 70
     0
 40
0.0
 41
0.75
 50
0.0
 71
     0
 42
3.5
  3
TXT
  4

  0
ENDTAB
  0
TABLE
  2
VIEW
  5
6
330
0
100
AcDbSymbolTable
 70
     0
  0
ENDTAB
  0
TABLE
  2
UCS
  5
7
330
0
100
AcDbSymbolTable
 70
     0
  0
ENDTAB
  0
TABLE
  2
APPID
  5
9
330
0
100
AcDbSymbolTable
 70
     2
  0
APPID
  5
12
330
9
100
AcDbSymbolTableRecord
100
AcDbRegAppTableRecord
  2
ACAD
 70
     0
  0
APPID
  5
288
330
9
100
AcDbSymbolTableRecord
100
AcDbRegAppTableRecord
  2
PE_URL
 70
     0
  0
ENDTAB
  0
TABLE
  2
DIMSTYLE
  5
A
330
0
100
AcDbSymbolTable
 70
     4
100
AcDbDimStyleTable
  0
DIMSTYLE
105
27
330
A
100
AcDbSymbolTableRecord
100
AcDbDimStyleTableRecord
  2
ISO-25
 70
     0
 41
2.5
 42
0.625
 43
3.75
 44
1.25
 73
     0
 74
     0
 77
     1
 78
     8
140
2.5
141
2.5
143
0.03937007874016
147
0.625
171
     3
172
     1
178
     0
271
     2
272
     2
274
     3
278
    44
283
     0
284
     8
340
11
  0
DIMSTYLE
105
D0
330
A
100
AcDbSymbolTableRecord
100
AcDbDimStyleTableRecord
  2
SLDDIMSTYLE0
 70
     0
 41
3.302
 44
0.0
 45
0.000000001
 73
     0
 74
     0
 77
     1
 78
     4
 79
     1
140
3.5
143
0.0393700787401575
147
0.875
148
0.000000001
170
     1
173
     1
178
     0
271
     2
272
     2
276
     2
284
    12
340
94
  0
DIMSTYLE
105
E5
330
A
100
AcDbSymbolTableRecord
100
AcDbDimStyleTableRecord
  2
SLDDIMSTYLE1
 70
     0
 41
3.302
 44
0.0
 45
0.000000001
 73
     0
 74
     0
 77
     1
 78
    12
 79
     3
140
3.5
143
0.0393700787401575
147
0.875
148
0.000000001
170
     1
173
     1
178
     0
271
     2
272
     2
276
     2
284
    12
340
94
  0
DIMSTYLE
105
F9
102
{ACAD_REACTORS
330
F8
330
CF
330
E4
330
10D
102
}
330
A
100
AcDbSymbolTableRecord
100
AcDbDimStyleTableRecord
  2
SLDDIMSTYLE2
 70
     0
 41
3.302
 44
0.0
 45
0.000000001
 73
     0
 74
     0
 77
     1
 78
    12
 79
     3
140
3.5
143
0.0393700787401575
147
0.875
148
0.000000001
170
     1
172
     1
173
     1
178
     0
271
     2
272
     2
276
     2
284
    12
289
     0
340
94
  0
ENDTAB
  0
TABLE
  2
BLOCK_RECORD
  5
1
330
0
100
AcDbSymbolTable
 70
     9
  0
BLOCK_RECORD
  5
1F
330
1
100
AcDbSymbolTableRecord
100
AcDbBlockTableRecord
  2
*Model_Space
340
22
  0
BLOCK_RECORD
  5
1B
330
1
100
AcDbSymbolTableRecord
100
AcDbBlockTableRecord
  2
*Paper_Space
340
1E
  0
BLOCK_RECORD
  5
23
330
1
100
AcDbSymbolTableRecord
100
AcDbBlockTableRecord
  2
*Paper_Space0
340
26
  0
BLOCK_RECORD
  5
7F
330
1
100
AcDbSymbolTableRecord
100
AcDbBlockTableRecord
  2
블럭10
340
0
102
{BLKREFS
331
C8
102
}
  0
BLOCK_RECORD
  5
D1
330
1
100
AcDbSymbolTableRecord
100
AcDbBlockTableRecord
  2
_D
340
0
  0
BLOCK_RECORD
  5
E6
330
1
100
AcDbSymbolTableRecord
100
AcDbBlockTableRecord
  2
_D_1
340
0
  0
BLOCK_RECORD
  5
FA
330
1
100
AcDbSymbolTableRecord
100
AcDbBlockTableRecord
  2
_D_2
340
0
  0
BLOCK_RECORD
  5
10E
330
1
100
AcDbSymbolTableRecord
100
AcDbBlockTableRecord
  2
_D_3
340
0
  0
BLOCK_RECORD
  5
127
330
1
100
AcDbSymbolTableRecord
100
AcDbBlockTableRecord
  2
SW_DOWELSYMBOL_0
340
0
102
{BLKREFS
331
12D
102
}
  0
BLOCK_RECORD
  5
26D
330
1
100
AcDbSymbolTableRecord
100
AcDbBlockTableRecord
  2
*D7
340
0
  0
BLOCK_RECORD
  5
27C
330
1
100
AcDbSymbolTableRecord
100
AcDbBlockTableRecord
  2
*D8
340
0
  0
ENDTAB
  0
ENDSEC
  0
SECTION
  2
BLOCKS
  0
BLOCK
  5
20
330
1F
100
AcDbEntity
  8
0
100
AcDbBlockBegin
  2
*Model_Space
 70
     0
 10
0.0
 20
0.0
 30
0.0
  3
*Model_Space
  1
*Model_Space
  0
ENDBLK
  5
21
330
1F
100
AcDbEntity
  8
0
100
AcDbBlockEnd
  0
BLOCK
  5
1C
330
1B
100
AcDbEntity
 67
     1
  8
0
100
AcDbBlockBegin
  2
*Paper_Space
 70
     0
 10
0.0
 20
0.0
 30
0.0
  3
*Paper_Space
  1
*Paper_Space
  0
ENDBLK
  5
1D
330
1B
100
AcDbEntity
 67
     1
  8
0
100
AcDbBlockEnd
  0
BLOCK
  5
24
330
23
100
AcDbEntity
  8
0
100
AcDbBlockBegin
  2
*Paper_Space0
 70
     0
 10
0.0
 20
0.0
 30
0.0
  3
*Paper_Space0
  1
*Paper_Space0
  0
ENDBLK
  5
25
330
23
100
AcDbEntity
  8
0
100
AcDbBlockEnd
  0
BLOCK
  5
80
330
7F
100
AcDbEntity
  8
0
100
AcDbBlockBegin
  2
블럭10
 70
     2
 10
0.0
 20
0.0
 30
0.0
  3
블럭10
  1
블럭10
  0
ELLIPSE
  5
82
330
7F
100
AcDbEntity
  8
중심선
100
AcDbEllipse
 10
20.54032771741204
 20
12.0471743016438
 30
0.0
 11
6.600054785286829
 21
-1.261213355974178E-13
 31
0.0
210
0.0
220
0.0
230
1.0
 40
0.636358354079598
 41
0.9219305317359503
 42
6.513795318482858
  0
ELLIPSE
  5
83
330
7F
100
AcDbEntity
  8
중심선
100
AcDbEllipse
 10
20.54032771746488
 20
12.04717430159265
 30
0.0
 11
3.960054785062283
 21
1.540847449632565E-10
 31
0.0
210
0.0
220
0.0
230
1.0
 40
0.3939339440162632
 41
1.131841032648279
 42
5.62031148352944
  0
LINE
  5
84
330
7F
100
AcDbEntity
  8
중심선
100
AcDbLine
 10
2.268634060543552
 20
16.24717430164393
 30
0.0
 11
5.714909304380834
 21
16.24717430164393
 31
0.0
  0
LINE
  5
85
330
7F
100
AcDbEntity
  8
중심선
100
AcDbLine
 10
5.245725140726316
 20
7.84717430164391
 30
0.0
 11
8.692000384563599
 21
7.84717430164391
 31
0.0
  0
LINE
  5
86
330
7F
100
AcDbEntity
  8
중심선
100
AcDbLine
 10
15.74043728645272
 20
16.24717430164393
 30
0.0
 11
8.692000384563599
 21
7.84717430164391
 31
0.0
  0
LINE
  5
87
330
7F
100
AcDbEntity
  8
중심선
100
AcDbLine
 10
0.1404042013395286
 20
13.71084872107135
 30
0.0
 11
3.58671253028996
 21
13.71088815037384
 31
0.0
  0
LINE
  5
88
330
7F
100
AcDbEntity
  8
중심선
100
AcDbLine
 10
2.750260043222114
 20
10.84717430164391
 30
0.0
 11
6.196535287059397
 21
10.84717430164391
 31
0.0
  0
LINE
  5
89
330
7F
100
AcDbEntity
  8
중심선
100
AcDbLine
 10
12.29416204261559
 20
16.24717430164393
 30
0.0
 11
5.245725140726316
 21
7.84717430164391
 31
0.0
  0
LINE
  5
8A
330
7F
100
AcDbEntity
  8
중심선
100
AcDbLine
 10
10.72767329541681
 20
16.24717430164393
 30
0.0
 11
6.196535287059397
 21
10.84717430164391
 31
0.0
  0
LINE
  5
8B
330
7F
100
AcDbEntity
  8
중심선
100
AcDbLine
 10
7.28139805157953
 20
16.24717430164393
 30
0.0
 11
2.750260043222114
 21
10.84717430164391
 31
0.0
  0
LINE
  5
8C
330
7F
100
AcDbEntity
  8
중심선
100
AcDbLine
 10
5.714909304380834
 20
16.24717430164393
 30
0.0
 11
3.58671253028996
 21
13.71088815037384
 31
0.0
  0
LINE
  5
8D
330
7F
100
AcDbEntity
  8
중심선
100
AcDbLine
 10
2.268634060543552
 20
16.24717430164393
 30
0.0
 11
0.1404042013395286
 21
13.71084872107135
 31
0.0
  0
LINE
  5
8E
330
7F
100
AcDbEntity
  8
중심선
100
AcDbLine
 10
7.28139805157953
 20
16.24717430164393
 30
0.0
 11
10.72767329541681
 21
16.24717430164393
 31
0.0
  0
LINE
  5
8F
330
7F
100
AcDbEntity
  8
중심선
100
AcDbLine
 10
12.29416204261559
 20
16.24717430164393
 30
0.0
 11
15.74043728645272
 21
16.24717430164393
 31
0.0
  0
LINE
  5
90
330
7F
100
AcDbEntity
  8
중심선
100
AcDbLine
 10
19.22036997980202
 20
11.08717430171403
 30
0.0
 11
23.66174974927406
 21
11.08717430171406
 31
0.0
  0
LINE
  5
91
330
7F
100
AcDbEntity
  8
중심선
100
AcDbLine
 10
19.22039502424796
 20
13.00717430171391
 30
0.0
 11
19.22036997980202
 21
11.08717430171403
 31
0.0
  0
LINE
  5
92
330
7F
100
AcDbEntity
  8
중심선
100
AcDbLine
 10
19.22039502424796
 20
13.00717430171391
 30
0.0
 11
26.96566020931264
 21
13.00717430171391
 31
0.0
  0
LINE
  5
93
330
7F
100
AcDbEntity
  8
중심선
100
AcDbLine
 10
22.22332737316547
 20
13.45928029700563
 30
0.0
 11
24.52862924686651
 21
15.39360700705356
 31
0.0
  0
ATTDEF
  5
95
330
7F
100
AcDbEntity
  8
FORMAT
 62
     2
100
AcDbText
 10
4.408487351596664
 20
2.075366912832191
 30
0.0
 40
4.233333333333333
  1
E1040048
 41
0.75
  7
SLDTEXTSTYLE0
 11
4.408487351596664
 21
-0.0412997538344756
 31
0.0
100
AcDbAttributeDefinition
  3

  2
AUTOATTR0
 70
     0
 74
     1
  0
ENDBLK
  5
81
330
7F
100
AcDbEntity
  8
0
100
AcDbBlockEnd
  0
BLOCK
  5
D2
330
D1
100
AcDbEntity
  8
0
100
AcDbBlockBegin
  2
_D
 70
     0
 10
0.0
 20
0.0
 30
0.0
  3
_D
  1
_D
  0
LINE
  5
D4
330
D1
100
AcDbEntity
  8
치수문자_일반주서
 62
     0
370
    -2
100
AcDbLine
 10
88.20000000000002
 20
9.58750000000001
 30
0.0
 11
88.20000000000002
 21
24.52500000000001
 31
0.0
  0
LINE
  5
D5
330
D1
100
AcDbEntity
  8
치수문자_일반주서
 62
     0
370
    -2
100
AcDbLine
 10
12.0
 20
9.587209982047103
 30
0.0
 11
12.00000000000001
 21
24.52500000000001
 31
0.0
  0
LINE
  5
D6
330
D1
100
AcDbEntity
  8
치수문자_일반주서
 62
     0
370
    -2
100
AcDbLine
 10
84.20000000000002
 20
24.52500000000001
 30
0.0
 11
16.00000000000001
 21
24.52500000000001
 31
0.0
  0
SOLID
  5
D7
330
D1
100
AcDbEntity
  8
치수문자_일반주서
 62
     0
100
AcDbTrace
 10
84.20000000000002
 20
23.85833333333334
 30
0.0
 11
84.20000000000002
 21
25.19166666666668
 31
0.0
 12
88.20000000000002
 22
24.52500000000001
 32
0.0
 13
88.20000000000002
 23
24.52500000000001
 33
0.0
  0
SOLID
  5
D8
330
D1
100
AcDbEntity
  8
치수문자_일반주서
 62
     0
100
AcDbTrace
 10
16.00000000000001
 20
25.19166666666668
 30
0.0
 11
16.00000000000001
 21
23.85833333333334
 31
0.0
 12
12.00000000000001
 22
24.52500000000001
 32
0.0
 13
12.00000000000001
 23
24.52500000000001
 33
0.0
  0
MTEXT
  5
D9
330
D1
100
AcDbEntity
  8
치수문자_일반주서
 62
     0
100
AcDbMText
 10
52.83893007191559
 20
29.40000000000001
 30
0.0
 40
4.0
 41
0.0
 71
     2
 72
     1
  1
\A1;76.2 [3]
  7
SLDTEXTSTYLE0
 73
     1
 44
1.0
  0
POINT
  5
DA
330
D1
100
AcDbEntity
  8
Defpoints
 62
     0
100
AcDbPoint
 10
88.20000000000002
 20
9.52500000000001
 30
0.0
  0
POINT
  5
DB
330
D1
100
AcDbEntity
  8
Defpoints
 62
     0
100
AcDbPoint
 10
12.0
 20
9.524709982047103
 30
0.0
  0
POINT
  5
DC
330
D1
100
AcDbEntity
  8
Defpoints
 62
     0
100
AcDbPoint
 10
12.0
 20
24.52500000000001
 30
0.0
  0
ENDBLK
  5
D3
330
D1
100
AcDbEntity
  8
0
100
AcDbBlockEnd
  0
BLOCK
  5
E7
330
E6
100
AcDbEntity
  8
0
100
AcDbBlockBegin
  2
_D_1
 70
     0
 10
0.0
 20
0.0
 30
0.0
  3
_D_1
  1
_D_1
  0
LINE
  5
E9
330
E6
100
AcDbEntity
  8
치수문자_일반주서
 62
     0
370
    -2
100
AcDbLine
 10
88.20000000000002
 20
9.58750000000001
 30
0.0
 11
88.20000000000002
 21
39.52500000000001
 31
0.0
  0
LINE
  5
EA
330
E6
100
AcDbEntity
  8
치수문자_일반주서
 62
     0
370
    -2
100
AcDbLine
 10
-45.14999999999998
 20
7.682500000000001
 30
0.0
 11
-45.14999999999998
 21
39.52500000000001
 31
0.0
  0
LINE
  5
EB
330
E6
100
AcDbEntity
  8
치수문자_일반주서
 62
     0
370
    -2
100
AcDbLine
 10
84.20000000000002
 20
39.52500000000001
 30
0.0
 11
-41.14999999999998
 21
39.52500000000001
 31
0.0
  0
SOLID
  5
EC
330
E6
100
AcDbEntity
  8
치수문자_일반주서
 62
     0
100
AcDbTrace
 10
84.20000000000002
 20
38.85833333333335
 30
0.0
 11
84.20000000000002
 21
40.19166666666668
 31
0.0
 12
88.20000000000002
 22
39.52500000000001
 32
0.0
 13
88.20000000000002
 23
39.52500000000001
 33
0.0
  0
SOLID
  5
ED
330
E6
100
AcDbEntity
  8
치수문자_일반주서
 62
     0
100
AcDbTrace
 10
-41.14999999999998
 20
40.19166666666668
 30
0.0
 11
-41.14999999999998
 21
38.85833333333335
 31
0.0
 12
-45.14999999999998
 22
39.52500000000001
 32
0.0
 13
-45.14999999999998
 23
39.52500000000001
 33
0.0
  0
MTEXT
  5
EE
330
E6
100
AcDbEntity
  8
치수문자_일반주서
 62
     0
100
AcDbMText
 10
21.52500000000003
 20
44.40000000000001
 30
0.0
 40
4.0
 41
0.0
 71
     2
 72
     1
  1
\A1;133.35 [5 1/4]
  7
SLDTEXTSTYLE0
 73
     1
 44
1.0
  0
POINT
  5
EF
330
E6
100
AcDbEntity
  8
Defpoints
 62
     0
100
AcDbPoint
 10
88.20000000000002
 20
9.52500000000001
 30
0.0
  0
POINT
  5
F0
330
E6
100
AcDbEntity
  8
Defpoints
 62
     0
100
AcDbPoint
 10
-45.14999999999998
 20
7.620000000000001
 30
0.0
  0
POINT
  5
F1
330
E6
100
AcDbEntity
  8
Defpoints
 62
     0
100
AcDbPoint
 10
-45.14999999999998
 20
39.52500000000001
 30
0.0
  0
ENDBLK
  5
E8
330
E6
100
AcDbEntity
  8
0
100
AcDbBlockEnd
  0
BLOCK
  5
FB
330
FA
100
AcDbEntity
  8
0
100
AcDbBlockBegin
  2
_D_2
 70
     0
 10
0.0
 20
0.0
 30
0.0
  3
_D_2
  1
_D_2
  0
LINE
  5
FD
330
FA
100
AcDbEntity
  8
치수문자_일반주서
 62
     0
370
    -2
100
AcDbLine
 10
-43.30749999999998
 20
9.525
 30
0.0
 11
-60.14999999999999
 21
9.524999999999935
 31
0.0
  0
LINE
  5
FE
330
FA
100
AcDbEntity
  8
치수문자_일반주서
 62
     0
370
    -2
100
AcDbLine
 10
-43.30749999999998
 20
-9.525000000000011
 30
0.0
 11
-60.14999999999993
 21
-9.525000000000077
 31
0.0
  0
LINE
  5
FF
330
FA
100
AcDbEntity
  8
치수문자_일반주서
 62
     0
370
    -2
100
AcDbLine
 10
-60.14999999999999
 20
9.524999999999935
 30
0.0
 11
-60.15000000000012
 21
48.77499999999995
 31
0.0
  0
LINE
  5
100
330
FA
100
AcDbEntity
  8
치수문자_일반주서
 62
     0
370
    -2
100
AcDbLine
 10
-60.14999999999999
 20
9.524999999999935
 30
0.0
 11
-60.14999999999993
 21
-9.525000000000077
 31
0.0
  0
LINE
  5
101
330
FA
100
AcDbEntity
  8
치수문자_일반주서
 62
     0
370
    -2
100
AcDbLine
 10
-60.15000000000001
 20
13.52499999999993
 30
0.0
 11
-60.15000000000002
 21
17.52499999999993
 31
0.0
  0
LINE
  5
102
330
FA
100
AcDbEntity
  8
치수문자_일반주서
 62
     0
370
    -2
100
AcDbLine
 10
-60.14999999999991
 20
-13.52500000000008
 30
0.0
 11
-60.1499999999999
 21
-17.52500000000008
 31
0.0
  0
SOLID
  5
103
330
FA
100
AcDbEntity
  8
치수문자_일반주서
 62
     0
100
AcDbTrace
 10
-60.81666666666667
 20
13.52499999999993
 30
0.0
 11
-59.48333333333334
 21
13.52499999999994
 31
0.0
 12
-60.14999999999999
 22
9.524999999999935
 32
0.0
 13
-60.14999999999999
 23
9.524999999999935
 33
0.0
  0
SOLID
  5
104
330
FA
100
AcDbEntity
  8
치수문자_일반주서
 62
     0
100
AcDbTrace
 10
-59.48333333333325
 20
-13.52500000000007
 30
0.0
 11
-60.81666666666658
 21
-13.52500000000008
 31
0.0
 12
-60.14999999999993
 22
-9.525000000000077
 32
0.0
 13
-60.14999999999993
 23
-9.525000000000077
 33
0.0
  0
MTEXT
  5
105
330
FA
100
AcDbEntity
  8
치수문자_일반주서
 62
     0
100
AcDbMText
 10
-65.02500000000006
 20
33.14999999999993
 30
0.0
 40
4.0
 41
0.0
 71
     2
 72
     1
  1
\A1;%%c19.05 [3/4]
  7
SLDTEXTSTYLE0
 11
-3.356894814614645E-15
 21
1.0
 31
0.0
 73
     1
 44
1.0
  0
POINT
  5
294
330
FA
100
AcDbEntity
  8
Defpoints
 62
     0
100
AcDbPoint
 10
-43.24499999999998
 20
9.525
 30
0.0
  0
POINT
  5
295
330
FA
100
AcDbEntity
  8
Defpoints
 62
     0
100
AcDbPoint
 10
-43.24499999999998
 20
-9.525000000000011
 30
0.0
  0
POINT
  5
296
330
FA
100
AcDbEntity
  8
Defpoints
 62
     0
100
AcDbPoint
 10
-60.14999999999993
 20
-9.525000000000075
 30
0.0
  0
ENDBLK
  5
FC
330
FA
100
AcDbEntity
  8
0
100
AcDbBlockEnd
  0
BLOCK
  5
10F
330
10E
100
AcDbEntity
  8
0
100
AcDbBlockBegin
  2
_D_3
 70
     0
 10
0.0
 20
0.0
 30
0.0
  3
_D_3
  1
_D_3
  0
LINE
  5
111
330
10E
100
AcDbEntity
  8
치수문자_일반주서
 62
     0
370
    -2
100
AcDbLine
 10
88.26250000000002
 20
-9.524999999999991
 30
0.0
 11
103.2000000000001
 21
-9.524999999999935
 31
0.0
  0
LINE
  5
112
330
10E
100
AcDbEntity
  8
치수문자_일반주서
 62
     0
370
    -2
100
AcDbLine
 10
88.26250000000002
 20
9.52500000000001
 30
0.0
 11
103.2
 21
9.525000000000066
 31
0.0
  0
LINE
  5
113
330
10E
100
AcDbEntity
  8
치수문자_일반주서
 62
     0
370
    -2
100
AcDbLine
 10
103.2
 20
9.525000000000066
 30
0.0
 11
103.1999999999998
 21
53.98997268430735
 31
0.0
  0
LINE
  5
114
330
10E
100
AcDbEntity
  8
치수문자_일반주서
 62
     0
370
    -2
100
AcDbLine
 10
103.2000000000001
 20
-9.524999999999935
 30
0.0
 11
103.2
 21
9.525000000000066
 31
0.0
  0
LINE
  5
115
330
10E
100
AcDbEntity
  8
치수문자_일반주서
 62
     0
370
    -2
100
AcDbLine
 10
103.2000000000001
 20
-13.52499999999993
 30
0.0
 11
103.2000000000001
 21
-17.52499999999993
 31
0.0
  0
LINE
  5
116
330
10E
100
AcDbEntity
  8
치수문자_일반주서
 62
     0
370
    -2
100
AcDbLine
 10
103.2
 20
13.52500000000007
 30
0.0
 11
103.2
 21
17.52500000000007
 31
0.0
  0
SOLID
  5
117
330
10E
100
AcDbEntity
  8
치수문자_일반주서
 62
     0
100
AcDbTrace
 10
103.8666666666668
 20
-13.52499999999993
 30
0.0
 11
102.5333333333334
 21
-13.52499999999994
 31
0.0
 12
103.2000000000001
 22
-9.524999999999935
 32
0.0
 13
103.2000000000001
 23
-9.524999999999935
 33
0.0
  0
SOLID
  5
118
330
10E
100
AcDbEntity
  8
치수문자_일반주서
 62
     0
100
AcDbTrace
 10
102.5333333333333
 20
13.52500000000006
 30
0.0
 11
103.8666666666667
 21
13.52500000000007
 31
0.0
 12
103.2
 22
9.525000000000066
 32
0.0
 13
103.2
 23
9.525000000000066
 33
0.0
  0
MTEXT
  5
119
330
10E
100
AcDbEntity
  8
치수문자_일반주서
 62
     0
100
AcDbMText
 10
98.3249999999999
 20
38.36497268430733
 30
0.0
 40
4.0
 41
0.0
 71
     2
 72
     1
  1
\A1;%%c19.05 [3/4]
  7
SLDTEXTSTYLE0
 11
-3.729883127349607E-15
 21
1.0
 31
0.0
 73
     1
 44
1.0
  0
POINT
  5
11A
330
10E
100
AcDbEntity
  8
Defpoints
 62
     0
100
AcDbPoint
 10
88.20000000000002
 20
-9.524999999999991
 30
0.0
  0
POINT
  5
11B
330
10E
100
AcDbEntity
  8
Defpoints
 62
     0
100
AcDbPoint
 10
88.20000000000002
 20
9.52500000000001
 30
0.0
  0
POINT
  5
11C
330
10E
100
AcDbEntity
  8
Defpoints
 62
     0
100
AcDbPoint
 10
103.2
 20
9.525000000000066
 30
0.0
  0
ENDBLK
  5
110
330
10E
100
AcDbEntity
  8
0
100
AcDbBlockEnd
  0
BLOCK
  5
128
330
127
100
AcDbEntity
  8
0
100
AcDbBlockBegin
  2
SW_DOWELSYMBOL_0
 70
     0
 10
0.0
 20
0.0
 30
0.0
  3
SW_DOWELSYMBOL_0
  1
SW_DOWELSYMBOL_0
  0
CIRCLE
  5
12A
330
127
100
AcDbEntity
  8
해칭선
 62
     0
100
AcDbCircle
 10
0.0
 20
0.0
 30
0.0
 40
3.000000000000001
  0
HATCH
  5
12B
330
127
100
AcDbEntity
  8
0
  6
Continuous
 62
     0
370
     0
100
AcDbHatch
 10
0.0
 20
0.0
 30
0.0
210
0.0
220
0.0
230
1.0
  2
SOLID
 70
     1
 71
     0
 91
        1
 92
        0
 93
        3
 72
     2
 10
0.0
 20
0.0
 40
3.000000000000001
 50
0.0
 51
90.0
 73
     1
 72
     1
 10
0.0
 20
3.000000000000001
 11
0.0
 21
0.0
 72
     1
 10
0.0
 20
0.0
 11
3.000000000000001
 21
0.0
 97
        0
 75
     0
 76
     1
 98
        1
 10
0.0
 20
0.0
  0
HATCH
  5
12C
330
127
100
AcDbEntity
  8
0
  6
Continuous
 62
     0
370
     0
100
AcDbHatch
 10
0.0
 20
0.0
 30
0.0
210
0.0
220
0.0
230
1.0
  2
SOLID
 70
     1
 71
     0
 91
        1
 92
        0
 93
        3
 72
     2
 10
0.0
 20
0.0
 40
3.000000000000001
 50
180.0
 51
270.0000000000007
 73
     1
 72
     1
 10
0.0
 20
-3.000000000000001
 11
0.0
 21
0.0
 72
     1
 10
0.0
 20
0.0
 11
-3.000000000000001
 21
0.0
 97
        0
 75
     0
 76
     1
 98
        1
 10
0.0
 20
0.0
  0
ENDBLK
  5
129
330
127
100
AcDbEntity
  8
0
100
AcDbBlockEnd
  0
BLOCK
  5
26E
330
26D
100
AcDbEntity
  8
0
100
AcDbBlockBegin
  2
*D7
 70
     1
 10
0.0
 20
0.0
 30
0.0
  3
*D7
  1
*D7
  0
LINE
  5
270
330
26D
100
AcDbEntity
  8
치수문자_일반주서
 62
     0
370
    -2
100
AcDbLine
 10
0.0
 20
1.183621269402728
 30
0.0
 11
0.0
 21
32.761592152052
 31
0.0
  0
LINE
  5
271
330
26D
100
AcDbEntity
  8
치수문자_일반주서
 62
     0
370
    -2
100
AcDbLine
 10
38.00011895067188
 20
11.59899254933891
 30
0.0
 11
38.00011895067188
 21
32.761592152052
 31
0.0
  0
LINE
  5
272
330
26D
100
AcDbEntity
  8
치수문자_일반주서
 62
     0
370
    -2
100
AcDbLine
 10
4.0
 20
32.761592152052
 30
0.0
 11
34.00011895067188
 21
32.761592152052
 31
0.0
  0
SOLID
  5
273
330
26D
100
AcDbEntity
  8
치수문자_일반주서
 62
     0
100
AcDbTrace
 10
4.0
 20
33.42825881871867
 30
0.0
 11
4.0
 21
32.09492548538534
 31
0.0
 12
0.0
 22
32.761592152052
 32
0.0
 13
0.0
 23
32.761592152052
 33
0.0
  0
SOLID
  5
274
330
26D
100
AcDbEntity
  8
치수문자_일반주서
 62
     0
100
AcDbTrace
 10
34.00011895067188
 20
32.09492548538534
 30
0.0
 11
34.00011895067188
 21
33.42825881871867
 31
0.0
 12
38.00011895067188
 22
32.761592152052
 32
0.0
 13
38.00011895067188
 23
32.761592152052
 33
0.0
  0
MTEXT
  5
275
330
26D
100
AcDbEntity
  8
치수문자_일반주서
 62
     0
100
AcDbMText
 10
19.06814435762387
 20
37.636592152052
 30
0.0
 40
4.0
 41
0.0
 71
     2
 72
     1
  1
\A1;38 [1.50]
  7
SLDTEXTSTYLE0
 73
     1
 44
1.0
  0
POINT
  5
276
330
26D
100
AcDbEntity
  8
Defpoints
 62
     0
100
AcDbPoint
 10
0.0
 20
1.121121269402728
 30
0.0
  0
POINT
  5
277
330
26D
100
AcDbEntity
  8
Defpoints
 62
     0
100
AcDbPoint
 10
38.00011895067188
 20
11.53649254933891
 30
0.0
  0
POINT
  5
278
330
26D
100
AcDbEntity
  8
Defpoints
 62
     0
100
AcDbPoint
 10
38.00011895067188
 20
32.761592152052
 30
0.0
  0
ENDBLK
  5
26F
330
26D
100
AcDbEntity
  8
0
100
AcDbBlockEnd
  0
BLOCK
  5
27D
330
27C
100
AcDbEntity
  8
0
100
AcDbBlockBegin
  2
*D8
 70
     1
 10
0.0
 20
0.0
 30
0.0
  3
*D8
  1
*D8
  0
LINE
  5
27F
330
27C
100
AcDbEntity
  8
치수문자_일반주서
 62
     0
370
    -2
100
AcDbLine
 10
180.8599839158754
 20
-52.36486032068547
 30
0.0
 11
180.8599839158754
 21
-20.7868894380362
 31
0.0
  0
LINE
  5
280
330
27C
100
AcDbEntity
  8
치수문자_일반주서
 62
     0
370
    -2
100
AcDbLine
 10
218.8601028665473
 20
-41.94948904074928
 30
0.0
 11
218.8601028665473
 21
-20.7868894380362
 31
0.0
  0
LINE
  5
281
330
27C
100
AcDbEntity
  8
치수문자_일반주서
 62
     0
370
    -2
100
AcDbLine
 10
184.8599839158754
 20
-20.7868894380362
 30
0.0
 11
214.8601028665473
 21
-20.7868894380362
 31
0.0
  0
SOLID
  5
282
330
27C
100
AcDbEntity
  8
치수문자_일반주서
 62
     0
100
AcDbTrace
 10
184.8599839158754
 20
-20.12022277136953
 30
0.0
 11
184.8599839158754
 21
-21.45355610470287
 31
0.0
 12
180.8599839158754
 22
-20.7868894380362
 32
0.0
 13
180.8599839158754
 23
-20.7868894380362
 33
0.0
  0
SOLID
  5
283
330
27C
100
AcDbEntity
  8
치수문자_일반주서
 62
     0
100
AcDbTrace
 10
214.8601028665473
 20
-21.45355610470287
 30
0.0
 11
214.8601028665473
 21
-20.12022277136953
 31
0.0
 12
218.8601028665473
 22
-20.7868894380362
 32
0.0
 13
218.8601028665473
 23
-20.7868894380362
 33
0.0
  0
MTEXT
  5
284
330
27C
100
AcDbEntity
  8
치수문자_일반주서
 62
     0
100
AcDbMText
 10
199.9281282734993
 20
-15.9118894380362
 30
0.0
 40
4.0
 41
0.0
 71
     2
 72
     1
  1
\A1;38 [1.50]
  7
SLDTEXTSTYLE0
 73
     1
 44
1.0
  0
POINT
  5
285
330
27C
100
AcDbEntity
  8
Defpoints
 62
     0
100
AcDbPoint
 10
180.8599839158754
 20
-52.42736032068547
 30
0.0
  0
POINT
  5
286
330
27C
100
AcDbEntity
  8
Defpoints
 62
     0
100
AcDbPoint
 10
218.8601028665473
 20
-42.01198904074928
 30
0.0
  0
POINT
  5
287
330
27C
100
AcDbEntity
  8
Defpoints
 62
     0
100
AcDbPoint
 10
218.8601028665473
 20
-20.7868894380362
 30
0.0
  0
ENDBLK
  5
27E
330
27C
100
AcDbEntity
  8
0
100
AcDbBlockEnd
  0
ENDSEC
  0
SECTION
  2
ENTITIES
  0
LINE
  5
96
330
1F
100
AcDbEntity
  8
0
  6
Continuous
 62
     1
370
    15
100
AcDbLine
 10
74.43286445922664
 20
-2.802070041656849
 30
0.0
 11
74.53511413863686
 21
-2.857505270264729
 31
0.0
1001
PE_URL
1000

  0
LINE
  5
97
330
1F
100
AcDbEntity
  8
0
  6
Continuous
 62
     1
370
    15
100
AcDbLine
 10
37.78419230549034
 20
-9.525000000000011
 30
0.0
 11
43.5925797197317
 21
-9.525000000000011
 31
0.0
1001
PE_URL
1000

  0
LINE
  5
98
330
1F
100
AcDbEntity
  8
0
  6
Continuous
 62
     1
370
    15
100
AcDbLine
 10
63.70041376862172
 20
-9.525000000000011
 30
0.0
 11
69.50814083759016
 21
-9.525000000000011
 31
0.0
1001
PE_URL
1000

  0
LINE
  5
99
330
1F
100
AcDbEntity
  8
0
  6
Continuous
 62
     1
370
    15
100
AcDbLine
 10
17.67948938543988
 20
9.525
 30
0.0
 11
12.00000000000001
 21
9.525
 31
0.0
1001
PE_URL
1000

  0
LINE
  5
9A
330
1F
100
AcDbEntity
  8
0
  6
Continuous
 62
     1
370
    15
100
AcDbLine
 10
43.59257971973176
 20
9.525
 30
0.0
 11
37.7841923054904
 21
9.525
 31
0.0
1001
PE_URL
1000

  0
LINE
  5
9B
330
1F
100
AcDbEntity
  8
0
  6
Continuous
 62
     1
370
    15
100
AcDbLine
 10
12.00000000000001
 20
-9.525000000000011
 30
0.0
 11
17.67948938543989
 21
-9.525000000000011
 31
0.0
1001
PE_URL
1000

  0
LINE
  5
9C
330
1F
100
AcDbEntity
  8
0
  6
Continuous
 62
     1
370
    15
100
AcDbLine
 10
69.50814083759016
 20
9.525
 30
0.0
 11
63.70041376862175
 21
9.525
 31
0.0
1001
PE_URL
1000

  0
LINE
  5
9D
330
1F
100
AcDbEntity
  8
외형선
  6
Continuous
370
    15
100
AcDbLine
 10
11.871478323907
 20
-9.525000000000006
 30
0.0
 11
12.00000000000001
 21
-9.525000000000006
 31
0.0
  0
LINE
  5
9E
330
1F
100
AcDbEntity
  8
외형선
  6
Continuous
370
    15
100
AcDbLine
 10
-43.24499999999998
 20
-9.525000000000006
 30
0.0
 11
11.50015971102347
 21
-9.525000000000006
 31
0.0
  0
LINE
  5
9F
330
1F
100
AcDbEntity
  8
외형선
  6
Continuous
370
    15
100
AcDbLine
 10
11.50015971102347
 20
9.524999999999995
 30
0.0
 11
-43.24499999999998
 21
9.524999999999995
 31
0.0
  0
LINE
  5
A0
330
1F
100
AcDbEntity
  8
외형선
  6
Continuous
370
    15
100
AcDbLine
 10
12.00000000000001
 20
9.524999999999995
 30
0.0
 11
11.87147832390687
 21
9.524999999999995
 31
0.0
  0
LINE
  5
A1
330
1F
100
AcDbEntity
  8
외형선
  6
Continuous
370
    15
100
AcDbLine
 10
-43.24499999999998
 20
9.524999999999995
 30
0.0
 11
-45.14999999999998
 21
7.620000000000001
 31
0.0
  0
LINE
  5
A2
330
1F
100
AcDbEntity
  8
외형선
  6
Continuous
370
    15
100
AcDbLine
 10
-45.14999999999998
 20
-7.62000000000001
 30
0.0
 11
-43.24499999999998
 21
-9.525000000000006
 31
0.0
  0
SPLINE
  5
A3
330
1F
100
AcDbEntity
  8
0
  6
Continuous
 62
     1
370
    15
100
AcDbSpline
210
0.0
220
0.0
230
1.0
 70
     8
 71
     3
 72
    21
 73
    17
 74
     0
 42
0.000000001
 43
0.00000001
 40
0.0
 40
0.0
 40
0.0
 40
0.0
 40
0.0747243165161586
 40
0.1494492736945361
 40
0.2241748435962657
 40
0.2989009982389296
 40
0.3736277095985256
 40
0.4483549496114368
 40
0.5250852375338583
 40
0.6018178561442928
 40
0.6785524558054192
 40
0.7552886861213045
 40
0.8320261960711111
 40
0.9087646341433152
 40
0.9855036484703293
 40
1.0
 40
1.0
 40
1.0
 40
1.0
 10
11.99999999999997
 20
3.214349407791088
 30
0.0
 10
13.03737091029741
 20
2.639490578364918
 30
0.0
 10
15.11212162497628
 20
1.489767990858151
 30
0.0
 10
18.22426735977573
 20
-0.3182339135267938
 30
0.0
 10
21.33644374725313
 20
-2.106762046622826
 30
0.0
 10
24.44864782149591
 20
-3.822733516087141
 30
0.0
 10
27.56088579934424
 20
-5.402483357704999
 30
0.0
 10
30.70092809495697
 20
-6.80307536835035
 30
0.0
 10
33.86890989494281
 20
-7.96756209643187
 30
0.0
 10
37.06476016740542
 20
-8.844069249478784
 30
0.0
 10
40.26071459167886
 20
-9.390231194971642
 30
0.0
 10
43.45674912255313
 20
-9.583298985557207
 30
0.0
 10
46.65284795153687
 20
-9.42462633459828
 30
0.0
 10
49.84899312810295
 20
-8.8881107733859
 30
0.0
 10
52.18102848619422
 20
-8.32283218447031
 30
0.0
 10
53.44767962066532
 20
-7.861399501414283
 30
0.0
 10
53.64893732307419
 20
-7.788082643219545
 30
0.0
1001
PE_URL
1000

  0
SPLINE
  5
A4
330
1F
100
AcDbEntity
  8
0
  6
Continuous
 62
     1
370
    15
100
AcDbSpline
210
0.0
220
0.0
230
1.0
 70
     8
 71
     3
 72
    24
 73
    20
 74
     0
 42
0.000000001
 43
0.00000001
 40
0.0
 40
0.0
 40
0.0
 40
0.0
 40
0.0206323201785253
 40
0.082451896683348
 40
0.1442718599777215
 40
0.2060919263941176
 40
0.2679118122254267
 40
0.3297312338338511
 40
0.3915499077597423
 40
0.4533675508302911
 40
0.5151838802679767
 40
0.5769986137986964
 40
0.6388114697594708
 40
0.6990106980998425
 40
0.7592095005644338
 40
0.8194078545455841
 40
0.8796057374675462
 40
0.9398031267880727
 40
1.0
 40
1.0
 40
1.0
 40
1.0
 10
63.70041376862169
 20
-9.485299581578007
 30
0.0
 10
63.34484129661436
 20
-9.496251000459742
 30
0.0
 10
61.92388502646555
 20
-9.540015601355792
 30
0.0
 10
59.43753057020866
 20
-9.251004316883034
 30
0.0
 10
56.241352272806
 20
-8.625769325284258
 30
0.0
 10
53.04516700910588
 20
-7.653086367318253
 30
0.0
 10
49.84899309360483
 20
-6.400728962261207
 30
0.0
 10
46.65284796078042
 20
-4.907143610986715
 30
0.0
 10
43.4567491200764
 20
-3.230464454664071
 30
0.0
 10
40.26071459234244
 20
-1.432818021832804
 30
0.0
 10
37.06476016722758
 20
0.4183787742619506
 30
0.0
 10
33.86890989499049
 20
2.253916401269157
 30
0.0
 10
30.70092809494459
 20
3.989890518349149
 30
0.0
 10
27.56088579934753
 20
5.565370101535152
 30
0.0
 10
24.44864782149507
 20
6.928978279411366
 30
0.0
 10
21.33644374725343
 20
8.04845289167196
 30
0.0
 10
18.2242673597758
 20
8.875838966889411
 30
0.0
 10
15.11212162497641
 20
9.412545397446054
 30
0.0
 10
13.03737091029751
 20
9.487321894030831
 30
0.0
 10
12.00000000000007
 20
9.52470998204651
 30
0.0
1001
PE_URL
1000

  0
SPLINE
  5
A5
330
1F
100
AcDbEntity
  8
외형선
  6
Continuous
370
    15
100
AcDbSpline
210
0.0
220
0.0
230
1.0
 70
    24
 71
     3
 72
    15
 73
    11
 74
     0
 42
0.000000001
 43
0.00000001
 40
0.0
 40
0.0
 40
0.0
 40
0.0
 40
0.1422893299779014
 40
0.2890180542716668
 40
0.4264577033017244
 40
0.5678831114644762
 40
0.7053227604945342
 40
0.8467481686572873
 40
0.9841878176873471
 40
0.9999999999999999
 40
0.9999999999999999
 40
0.9999999999999999
 40
0.9999999999999999
 10
12.0
 20
9.524709982047103
 30
0.0
 10
12.0
 20
9.207625602523485
 30
0.0
 10
12.00000000000002
 20
8.563563883882413
 30
0.0
 10
12.00000000000004
 20
7.57497184579553
 30
0.0
 10
12.00000000000004
 20
6.598537839552734
 30
0.0
 10
11.99999999999995
 20
5.675985353963527
 30
0.0
 10
12.00000000000007
 20
4.80133393624984
 30
0.0
 10
11.99999999999995
 20
4.031881982647413
 30
0.0
 10
12.00000000000007
 20
3.526834520278367
 30
0.0
 10
12.00000000000004
 20
3.327782383225699
 30
0.0
 10
12.00000000000004
 20
3.307244627472807
 30
0.0
  0
SPLINE
  5
A6
330
1F
100
AcDbEntity
  8
0
  6
Continuous
 62
     1
370
    15
100
AcDbSpline
210
0.0
220
0.0
230
1.0
 70
     8
 71
     3
 72
    28
 73
    24
 74
     0
 42
0.000000001
 43
0.00000001
 40
0.0
 40
0.0
 40
0.0
 40
0.0
 40
0.0088032654572225
 40
0.0590946811182426
 40
0.1093864903185752
 40
0.1596786741976514
 40
0.2099712138682412
 40
0.2616118344586366
 40
0.3132540236365957
 40
0.3648975460910212
 40
0.4165421660002588
 40
0.4681876471220844
 40
0.5198337528840342
 40
0.5714802464740089
 40
0.6231268909310779
 40
0.6747734492364045
 40
0.7264196844042196
 40
0.7780653595727681
 40
0.8297102380951521
 40
0.8813540836299986
 40
0.9329966602318719
 40
0.9846377324413592
 40
1.0
 40
1.0
 40
1.0
 40
1.0
 10
17.6794893854399
 20
9.500565849988657
 30
0.0
 10
17.86107947223812
 20
9.508285476923351
 30
0.0
 10
19.08005989782241
 20
9.560105894502987
 30
0.0
 10
21.33644407286256
 20
9.327872221003291
 30
0.0
 10
24.44864773425268
 20
8.791265211499121
 30
0.0
 10
27.56088582270431
 20
7.911974551887904
 30
0.0
 10
30.70092808849682
 20
6.74989895478324
 30
0.0
 10
33.86890989674632
 20
5.327739244378194
 30
0.0
 10
37.06476016672426
 20
3.694427229259032
 30
0.0
 10
40.26071459259991
 20
1.922724578986793
 30
0.0
 10
43.45674911955006
 20
0.0791240381410712
 30
0.0
 10
46.65284796262837
 20
-1.767461283543344
 30
0.0
 10
49.84899308673943
 20
-3.547930384210593
 30
0.0
 10
53.04516703471995
 20
-5.195677476013882
 30
0.0
 10
56.24135217721514
 20
-6.649044105070558
 30
0.0
 10
59.43753092695624
 20
-7.853693367610947
 30
0.0
 10
62.63368567378192
 20
-8.764418684110398
 30
0.0
 10
65.8297988722847
 20
-9.347668846575084
 30
0.0
 10
69.02585279821346
 20
-9.579695579873796
 30
0.0
 10
72.22183047714609
 20
-9.459039911891509
 30
0.0
 10
75.41771225537374
 20
-8.963303202470577
 30
0.0
 10
77.8651594455178
 20
-8.387553177360036
 30
0.0
 10
79.24730257504473
 20
-7.89324364678077
 30
0.0
 10
79.56419502598237
 20
-7.779910262328241
 30
0.0
1001
PE_URL
1000

  0
SPLINE
  5
A7
330
1F
100
AcDbEntity
  8
0
  6
Continuous
 62
     1
370
    15
100
AcDbSpline
210
0.0
220
0.0
230
1.0
 70
     8
 71
     3
 72
    26
 73
    22
 74
     0
 42
0.000000001
 43
0.00000001
 40
0.0
 40
0.0
 40
0.0
 40
0.0
 40
0.0528455750297304
 40
0.1056934087547065
 40
0.1585432622368828
 40
0.2113948957669625
 40
0.26424806895514
 40
0.3171025408224044
 40
0.3699580698923262
 40
0.4228144142832574
 40
0.4756713318008643
 40
0.5285285800309175
 40
0.581385916432268
 40
0.634243098429923
 40
0.6870998835081537
 40
0.7399560293035515
 40
0.7928112936979614
 40
0.8456654349112074
 40
0.8985182115935453
 40
0.9513693829177531
 40
1.0
 40
1.0
 40
1.0
 40
1.0
 10
88.20000000000002
 20
-9.524999999999991
 30
0.0
 10
87.13488988058472
 20
-9.402905884359896
 30
0.0
 10
85.00462411742868
 20
-9.228768563105902
 30
0.0
 10
81.8091266394666
 20
-8.527244753964242
 30
0.0
 10
78.613484813399
 20
-7.532225295175004
 30
0.0
 10
75.41771327780205
 20
-6.248601987437988
 30
0.0
 10
72.22183020317652
 20
-4.733044511787105
 30
0.0
 10
69.02585287162574
 20
-3.039923100168308
 30
0.0
 10
65.82979885261318
 20
-1.233197012863083
 30
0.0
 10
62.63368567905378
 20
0.6197096529675068
 30
0.0
 10
59.43753092554083
 20
2.449431202019619
 30
0.0
 10
56.24135217760467
 20
4.187525603667784
 30
0.0
 10
53.04516703457724
 20
5.768959530387945
 30
0.0
 10
49.84899308692064
 20
7.134579583016306
 30
0.0
 10
46.65284796204607
 20
8.233254134296315
 30
0.0
 10
43.4567491216979
 20
9.024038069804929
 30
0.0
 10
40.26071458459094
 20
9.476772364425432
 30
0.0
 10
37.0647601966112
 20
9.576691370729044
 30
0.0
 10
33.8689097852118
 20
9.31199160461063
 30
0.0
 10
30.75818826659515
 20
8.738403254974513
 30
0.0
 10
28.71280793438417
 20
8.106217367326181
 30
0.0
 10
27.73265071321931
 20
7.803270500604714
 30
0.0
1001
PE_URL
1000

  0
LINE
  5
A8
330
1F
100
AcDbEntity
  8
0
  6
Continuous
 62
     1
370
    15
100
AcDbLine
 10
88.20000000000002
 20
-8.626614851660989
 30
0.0
 11
88.20000000000002
 21
0.8161148516610899
 31
0.0
1001
PE_URL
1000

  0
SPLINE
  5
A9
330
1F
100
AcDbEntity
  8
0
  6
Continuous
 62
     1
370
    15
100
AcDbSpline
210
0.0
220
0.0
230
1.0
 70
     8
 71
     3
 72
    21
 73
    17
 74
     0
 42
0.000000001
 43
0.00000001
 40
0.0
 40
0.0
 40
0.0
 40
0.0
 40
0.0686036478177718
 40
0.1402535170603418
 40
0.2119039243459423
 40
0.2835545409330465
 40
0.355205037999792
 40
0.4268550867701926
 40
0.4985043586403094
 40
0.5701525253042797
 40
0.6417992588801034
 40
0.7134442320350731
 40
0.7850871181107529
 40
0.8567275912474084
 40
0.9283653265077598
 40
1.0
 40
1.0
 40
1.0
 40
1.0
 10
43.59257971973179
 20
9.517746341364557
 30
0.0
 10
44.61266471111736
 20
9.489091160840017
 30
0.0
 10
46.69812973073741
 20
9.430508418108305
 30
0.0
 10
49.8489932297347
 20
8.899165751379796
 30
0.0
 10
53.04516699631007
 20
8.05562871912567
 30
0.0
 10
56.24135218785835
 20
6.903122552975623
 30
0.0
 10
59.43753092279342
 20
5.494402187296842
 30
0.0
 10
62.63368567978994
 20
3.879593046284711
 30
0.0
 10
65.82979885241593
 20
2.119791832157117
 30
0.0
 10
69.02585287167864
 20
0.2806932414685933
 30
0.0
 10
72.2218302031624
 20
-1.568999964344283
 30
0.0
 10
75.41771327780583
 20
-3.359537701967787
 30
0.0
 10
78.61348481339803
 20
-5.02604420735051
 30
0.0
 10
81.80912663946691
 20
-6.498311811777473
 30
0.0
 10
85.00462411742865
 20
-7.750649962440138
 30
0.0
 10
87.13488988058475
 20
-8.334630715193512
 30
0.0
 10
88.20000000000002
 20
-8.626614851660987
 30
0.0
1001
PE_URL
1000

  0
SPLINE
  5
AA
330
1F
100
AcDbEntity
  8
0
  6
Continuous
 62
     1
370
    15
100
AcDbSpline
210
0.0
220
0.0
230
1.0
 70
     8
 71
     3
 72
    18
 73
    14
 74
     0
 42
0.000000001
 43
0.00000001
 40
0.0
 40
0.0
 40
0.0
 40
0.0
 40
0.0924842263554999
 40
0.1849724056187366
 40
0.2774641196279186
 40
0.369958948871501
 40
0.4624564726469896
 40
0.5549562692207316
 40
0.6474579159885498
 40
0.7399609896371003
 40
0.8324650663058122
 40
0.9249697217492793
 40
1.0
 40
1.0
 40
1.0
 40
1.0
 10
88.20000000000005
 20
0.816114851661089
 30
0.0
 10
87.13488988058495
 20
1.425907745046305
 30
0.0
 10
85.00462411742916
 20
2.645519595234695
 30
0.0
 10
81.80912663946467
 20
4.367778028302724
 30
0.0
 10
78.61348481340616
 20
5.928873227529611
 30
0.0
 10
75.41771327777522
 20
7.2676299886391
 30
0.0
 10
72.22183020327662
 20
8.33464622751727
 30
0.0
 10
69.02585287125234
 20
9.090007070340768
 30
0.0
 10
65.82979885400681
 20
9.5047081501206
 30
0.0
 10
62.63368567385259
 20
9.566163061194361
 30
0.0
 10
59.43753094495225
 20
9.26106123941675
 30
0.0
 10
56.44260977150859
 20
8.680888975147592
 30
0.0
 10
54.51307616419961
 20
8.064245523178519
 30
0.0
 10
53.64893732307427
 20
7.788082643219533
 30
0.0
1001
PE_URL
1000

  0
SPLINE
  5
AB
330
1F
100
AcDbEntity
  8
0
  6
Continuous
 62
     1
370
    15
100
AcDbSpline
210
0.0
220
0.0
230
1.0
 70
     8
 71
     3
 72
    10
 73
     6
 74
     0
 42
0.000000001
 43
0.00000001
 40
0.0
 40
0.0
 40
0.0
 40
0.0
 40
0.3700129622787494
 40
0.7400417394392238
 40
1.0
 40
1.0
 40
1.0
 40
1.0
 10
88.20000000000002
 20
9.52500000000001
 30
0.0
 10
87.13488972512025
 20
9.400867180938095
 30
0.0
 10
85.00462365102848
 20
9.222652365703425
 30
0.0
 10
82.12601874337773
 20
8.618246920181793
 30
0.0
 10
80.31251881478494
 20
8.024793335209953
 30
0.0
 10
79.56419502598237
 20
7.779910262328232
 30
0.0
1001
PE_URL
1000

  0
SPLINE
  5
AC
330
1F
100
AcDbEntity
  8
0
  6
Continuous
 62
     1
370
    15
100
AcDbSpline
210
0.0
220
0.0
230
1.0
 70
     8
 71
     3
 72
    16
 73
    12
 74
     0
 42
0.000000001
 43
0.00000001
 40
0.0
 40
0.0
 40
0.0
 40
0.0
 40
0.0279022567905728
 40
0.1518460790288243
 40
0.2757861365789138
 40
0.3964907328802297
 40
0.5171944752642189
 40
0.6378973184005897
 40
0.7585992170230408
 40
0.8793001259324393
 40
0.9999999999999999
 40
0.9999999999999999
 40
0.9999999999999999
 40
0.9999999999999999
 10
37.78419230549036
 20
-9.493870971059446
 30
0.0
 10
37.54437350800472
 20
-9.503403013905368
 30
0.0
 10
36.23926244301356
 20
-9.555277073489567
 30
0.0
 10
33.8689108321767
 20
-9.297349335513237
 30
0.0
 10
30.70092785111673
 20
-8.717964710922871
 30
0.0
 10
27.56088586394854
 20
-7.798446410268433
 30
0.0
 10
24.44864780418591
 20
-6.618010379892053
 30
0.0
 10
21.33644375188976
 20
-5.20070936482468
 30
0.0
 10
18.22426735853946
 20
-3.599373654423035
 30
0.0
 10
15.11212162528548
 20
-1.870370139346595
 30
0.0
 10
13.03737091040055
 20
-0.6730074789572886
 30
0.0
 10
12.00000000000007
 20
-0.0743287152020661
 30
0.0
1001
PE_URL
1000

  0
LINE
  5
AD
330
1F
100
AcDbEntity
  8
외형선
  6
Continuous
370
    15
100
AcDbLine
 10
12.0
 20
-0.0743287152022176
 30
0.0
 11
11.99999999999998
 21
3.214349407791082
 31
0.0
  0
LINE
  5
AE
330
1F
100
AcDbEntity
  8
외형선
  6
Continuous
370
    15
100
AcDbLine
 10
12.0
 20
9.524709982047103
 30
0.0
 11
12.00000000000001
 21
9.525
 31
0.0
  0
LINE
  5
AF
330
1F
100
AcDbEntity
  8
0
  6
Continuous
 62
     1
370
    15
100
AcDbLine
 10
88.20000000000002
 20
-9.524999999999991
 30
0.0
 11
88.20000000000002
 21
9.52500000000001
 31
0.0
1001
PE_URL
1000

  0
LINE
  5
B0
330
1F
100
AcDbEntity
  8
0
  6
Continuous
 62
     1
370
    15
100
AcDbLine
 10
88.20000000000002
 20
4.014885530555376
 30
0.0
 11
88.20000000000002
 21
9.52500000000001
 31
0.0
1001
PE_URL
1000

  0
SPLINE
  5
B1
330
1F
100
AcDbEntity
  8
0
  6
Continuous
 62
     1
370
    15
100
AcDbSpline
210
0.0
220
0.0
230
1.0
 70
     8
 71
     3
 72
    13
 73
     9
 74
     0
 42
0.000000001
 43
0.00000001
 40
0.0
 40
0.0
 40
0.0
 40
0.0
 40
0.1978130865255468
 40
0.3956278690367794
 40
0.5934442735728482
 40
0.7912622260576239
 40
0.9890816523048886
 40
1.0
 40
1.0
 40
1.0
 40
1.0
 10
12.00000000000004
 20
-8.966246867259105
 30
0.0
 10
13.03737090242983
 20
-9.13768796352596
 30
0.0
 10
15.11212160137343
 20
-9.480571625940408
 30
0.0
 10
18.22426745418857
 20
-9.571258987062816
 30
0.0
 10
21.33644339320084
 20
-9.353134168320361
 30
0.0
 10
24.44864914330643
 20
-8.767145770153185
 30
0.0
 10
26.58072115677339
 20
-8.230087973320403
 30
0.0
 10
27.67539227068746
 20
-7.824486124074346
 30
0.0
 10
27.73265071321932
 20
-7.803270500604722
 30
0.0
1001
PE_URL
1000

  0
SPLINE
  5
B2
330
1F
100
AcDbEntity
  8
0
  6
Continuous
 62
     1
370
    15
100
AcDbSpline
210
0.0
220
0.0
230
1.0
 70
     8
 71
     3
 72
    13
 73
     9
 74
     0
 42
0.000000001
 43
0.00000001
 40
0.0
 40
0.0
 40
0.0
 40
0.0
 40
0.1451792614948814
 40
0.3161549235525188
 40
0.4871256049430184
 40
0.6580905280251674
 40
0.8290489173591261
 40
1.0
 40
1.0
 40
1.0
 40
1.0
 10
69.50814083759016
 20
9.502144913544479
 30
0.0
 10
70.41271264536334
 20
9.486545895833263
 30
0.0
 10
72.3825864950411
 20
9.452576124936211
 30
0.0
 10
75.41771304974586
 20
8.97040668988377
 30
0.0
 10
78.61348487448257
 20
8.16402709570458
 30
0.0
 10
81.80912662317857
 20
7.039690177742354
 30
0.0
 10
85.00462412150051
 20
5.665473851539025
 30
0.0
 10
87.13488988194203
 20
4.580623654810337
 30
0.0
 10
88.20000000000005
 20
4.038210148209426
 30
0.0
1001
PE_URL
1000

  0
SPLINE
  5
B3
330
1F
100
AcDbEntity
  8
외형선
  6
Continuous
370
    15
100
AcDbSpline
210
0.0
220
0.0
230
1.0
 70
    24
 71
     3
 72
    21
 73
    17
 74
     0
 42
0.000000001
 43
0.00000001
 40
0.0
 40
0.0
 40
0.0
 40
0.0
 40
0.023308428243239
 40
0.0987946221517019
 40
0.1742808160601647
 40
0.2497670099686281
 40
0.3252532038770914
 40
0.4007393977855558
 40
0.4762255916940202
 40
0.5517117856024836
 40
0.627197979510947
 40
0.7026841734194109
 40
0.7781703673278748
 40
0.8536565612363387
 40
0.9291427551448026
 40
1.0
 40
1.0
 40
1.0
 40
1.0
 10
12.00000000000003
 20
0.1833775177588559
 30
0.0
 10
12.00000000000001
 20
0.1902157657218386
 30
0.0
 10
12.00000000000001
 20
0.2192002221867863
 30
0.0
 10
12.00000000000002
 20
0.0995276114301422
 30
0.0
 10
11.99999999999999
 20
-0.1658897627149034
 30
0.0
 10
11.99999999999998
 20
-0.5985620205737352
 30
0.0
 10
12.00000000000001
 20
-1.164543652388399
 30
0.0
 10
11.99999999999998
 20
-1.85738047744782
 30
0.0
 10
11.99999999999999
 20
-2.651603947862951
 30
0.0
 10
11.99999999999999
 20
-3.528768275022799
 30
0.0
 10
12.0
 20
-4.461103071092725
 30
0.0
 10
12.0
 20
-5.423777610969796
 30
0.0
 10
11.99999999999998
 20
-6.389392560163845
 30
0.0
 10
11.99999999999999
 20
-7.327836713423264
 30
0.0
 10
12.00000000000002
 20
-8.204123350026945
 30
0.0
 10
12.00000000000004
 20
-8.71761978298535
 30
0.0
 10
12.00000000000003
 20
-8.966246867259104
 30
0.0
  0
LINE
  5
B4
330
1F
100
AcDbEntity
  8
0
  6
Continuous
 62
     1
370
    15
100
AcDbLine
 10
88.20000000000002
 20
0.8161148516610894
 30
0.0
 11
88.20000000000002
 21
4.038210148209425
 31
0.0
1001
PE_URL
1000

  0
LINE
  5
B5
330
1F
100
AcDbEntity
  8
외형선
  6
Continuous
370
    15
100
AcDbLine
 10
12.00000000000001
 20
-9.525000000000011
 30
0.0
 11
12.00000000000003
 21
-8.966246867259104
 31
0.0
  0
SPLINE
  5
B6
330
1F
100
AcDbEntity
  8
외형선
  6
Continuous
370
    15
100
AcDbSpline
210
0.0
220
0.0
230
1.0
 70
    24
 71
     3
 72
    20
 73
    16
 74
     0
 42
0.000000001
 43
0.00000001
 40
0.0
 40
0.0
 40
0.0
 40
0.0
 40
0.0977677041037971
 40
0.1741695946654538
 40
0.2527871452292302
 40
0.3291890357908871
 40
0.4078065863546639
 40
0.4842084769163209
 40
0.5628260274800971
 40
0.639227918041754
 40
0.7178454686055304
 40
0.7942473591671868
 40
0.872864909730963
 40
0.9492668002926201
 40
1.0
 40
1.0
 40
1.0
 40
1.0
 10
12.00000000000003
 20
-8.966246867259102
 30
0.0
 10
12.00000000000001
 20
-8.628128574435786
 30
0.0
 10
12.00000000000002
 20
-8.025783182878975
 30
0.0
 10
12.0
 20
-7.032527167180331
 30
0.0
 10
11.99999999999997
 20
-6.087392293335902
 30
0.0
 10
12.0
 20
-5.115194445351537
 30
0.0
 10
12.00000000000002
 20
-4.163540729985905
 30
0.0
 10
12.00000000000002
 20
-3.241533150503612
 30
0.0
 10
12.00000000000005
 20
-2.392092482263146
 30
0.0
 10
11.99999999999997
 20
-1.62376238946555
 30
0.0
 10
11.99999999999995
 20
-0.9727334724549221
 30
0.0
 10
11.99999999999999
 20
-0.4434638184120782
 30
0.0
 10
12.00000000000009
 20
-0.0688361030710919
 30
0.0
 10
11.99999999999999
 20
0.1490766626696177
 30
0.0
 10
12.00000000000001
 20
0.169754271193258
 30
0.0
 10
12.00000000000001
 20
0.1780056614308465
 30
0.0
  0
SPLINE
  5
B7
330
1F
100
AcDbEntity
  8
외형선
  6
Continuous
370
    15
100
AcDbSpline
210
0.0
220
0.0
230
1.0
 70
     8
 71
     3
 72
     8
 73
     4
 74
     0
 42
0.000000001
 43
0.00000001
 40
0.0
 40
0.0
 40
0.0
 40
0.0
 40
1.0
 40
1.0
 40
1.0
 40
1.0
 10
12.00000000000003
 20
-8.966246867259102
 30
0.0
 10
11.83364950583638
 20
-8.933746938933758
 30
0.0
 10
11.6670508475865
 20
-8.899855909249263
 30
0.0
 10
11.50015971102348
 20
-8.86458197095417
 30
0.0
  0
SPLINE
  5
B8
330
1F
100
AcDbEntity
  8
외형선
  6
Continuous
370
    15
100
AcDbSpline
210
0.0
220
0.0
230
1.0
 70
     8
 71
     3
 72
     8
 73
     4
 74
     0
 42
0.000000001
 43
0.00000001
 40
0.0
 40
0.0
 40
0.0
 40
0.0
 40
1.0
 40
1.0
 40
1.0
 40
1.0
 10
12.00000000000001
 20
-0.0743287152020316
 30
0.0
 10
11.83364950583637
 20
0.0219745650156989
 30
0.0
 10
11.66705084758649
 20
0.1183370884007727
 30
0.0
 10
11.50015971102347
 20
0.2147229127423654
 30
0.0
  0
LINE
  5
B9
330
1F
100
AcDbEntity
  8
외형선
  6
Continuous
370
    15
100
AcDbLine
 10
11.50015971102347
 20
-9.525000000000006
 30
0.0
 11
11.50015971102347
 21
-9.522577990632579
 31
0.0
  0
SPLINE
  5
BA
330
1F
100
AcDbEntity
  8
외형선
  6
Continuous
370
    15
100
AcDbSpline
210
0.0
220
0.0
230
1.0
 70
     8
 71
     3
 72
     8
 73
     4
 74
     0
 42
0.000000001
 43
0.00000001
 40
0.0
 40
0.0
 40
0.0
 40
0.0
 40
1.0
 40
1.0
 40
1.0
 40
1.0
 10
12.00000000000001
 20
9.524709982046504
 30
0.0
 10
11.83364950583637
 20
9.525461511395093
 30
0.0
 10
11.66705084758649
 20
9.52475282011304
 30
0.0
 10
11.50015971102347
 20
9.522579433679894
 30
0.0
  0
LINE
  5
BB
330
1F
100
AcDbEntity
  8
외형선
  6
Continuous
370
    15
100
AcDbLine
 10
11.50015971102347
 20
3.484874461934568
 30
0.0
 11
11.50015971102347
 21
9.524999999999995
 31
0.0
  0
SPLINE
  5
BC
330
1F
100
AcDbEntity
  8
외형선
  6
Continuous
370
    15
100
AcDbSpline
210
0.0
220
0.0
230
1.0
 70
     8
 71
     3
 72
     8
 73
     4
 74
     0
 42
0.000000001
 43
0.00000001
 40
0.0
 40
0.0
 40
0.0
 40
0.0
 40
1.0
 40
1.0
 40
1.0
 40
1.0
 10
12.00000000000003
 20
3.214349407791054
 30
0.0
 10
11.83364950583638
 20
3.305006129747586
 30
0.0
 10
11.6670508475865
 20
3.39521497778034
 30
0.0
 10
11.50015971102348
 20
3.48494067097772
 30
0.0
  0
LINE
  5
BD
330
1F
100
AcDbEntity
  8
외형선
  6
Continuous
370
    15
100
AcDbLine
 10
11.50015971102347
 20
-8.864607999486303
 30
0.0
 11
11.50015971102347
 21
0.2147868997869396
 31
0.0
  0
LINE
  5
BE
330
1F
100
AcDbEntity
  8
외형선
  6
Continuous
370
    15
100
AcDbLine
 10
11.871478323907
 20
-9.524162163767132
 30
0.0
 11
11.50015971102347
 21
-9.522579433679903
 31
0.0
  0
LINE
  5
BF
330
1F
100
AcDbEntity
  8
외형선
  6
Continuous
370
    15
100
AcDbLine
 10
-43.24499999999998
 20
-0.0000000000000048
 30
0.0
 11
-43.24499999999998
 21
9.524999999999995
 31
0.0
  0
LINE
  5
C0
330
1F
100
AcDbEntity
  8
외형선
  6
Continuous
370
    15
100
AcDbLine
 10
-43.24499999999998
 20
-9.525000000000006
 30
0.0
 11
-43.24499999999998
 21
-0.0000000000000048
 31
0.0
  0
LINE
  5
C1
330
1F
100
AcDbEntity
  8
외형선
  6
Continuous
370
    15
100
AcDbLine
 10
-45.14999999999998
 20
-0.0000000000000048
 30
0.0
 11
-45.14999999999998
 21
7.620000000000007
 31
0.0
  0
LINE
  5
C2
330
1F
100
AcDbEntity
  8
외형선
  6
Continuous
370
    15
100
AcDbLine
 10
-45.14999999999998
 20
-7.620000000000026
 30
0.0
 11
-45.14999999999998
 21
-0.0000000000000048
 31
0.0
  0
SPLINE
  5
C3
330
1F
100
AcDbEntity
  8
외형선
  6
Continuous
370
    15
100
AcDbSpline
210
0.0
220
0.0
230
1.0
 70
    24
 71
     3
 72
    19
 73
    15
 74
     0
 42
0.000000001
 43
0.00000001
 40
0.0
 40
0.0
 40
0.0
 40
0.0
 40
0.1269789568902394
 40
0.1980017260283297
 40
0.2665295083810539
 40
0.405913341607485
 40
0.4769361107455391
 40
0.5454638930982644
 40
0.6144674757449696
 40
0.684971706200613
 40
0.7559944753386686
 40
0.816188423592205
 40
0.9381387812233069
 40
1.0
 40
1.0
 40
1.0
 40
1.0
 10
12.00000000000006
 20
3.307254627472807
 30
0.0
 10
12.00000000000008
 20
3.497543250937215
 30
0.0
 10
12.00000000000011
 20
3.794265454460087
 30
0.0
 10
11.9999999999999
 20
4.267824689640368
 30
0.0
 10
12.00000000000009
 20
4.791524222618428
 30
0.0
 10
12.0
 20
5.361749791638474
 30
0.0
 10
12.00000000000011
 20
5.962654710475898
 30
0.0
 10
11.99999999999993
 20
6.424888725223324
 30
0.0
 10
12.00000000000004
 20
6.895290506135607
 30
0.0
 10
11.99999999999999
 20
7.377588488774816
 30
0.0
 10
12.00000000000004
 20
7.842533052683404
 30
0.0
 10
12.00000000000004
 20
8.424768644402008
 30
0.0
 10
11.99999999999995
 20
8.982522014263461
 30
0.0
 10
12.00000000000001
 20
9.388185266446916
 30
0.0
 10
12.00000000000003
 20
9.524709982046502
 30
0.0
  0
LINE
  5
C4
330
1F
100
AcDbEntity
  8
중심선
 62
     1
100
AcDbLine
 10
-52.14999999999998
 20
-0.0000000000000089
 30
0.0
 11
95.20000000000002
 21
0.0000000000000094
 31
0.0
  0
LINE
  5
C5
330
1F
100
AcDbEntity
  8
참조1
100
AcDbLine
 10
21.52500000000003
 20
-0.0000000000000088
 30
0.0
 11
21.52500000000003
 21
-40.00000000000001
 31
0.0
  0
LINE
  5
C6
330
1F
100
AcDbEntity
  8
참조1
100
AcDbLine
 10
21.52500000000003
 20
-40.00000000000001
 30
0.0
 11
-30.94010681430865
 21
-40.0
 31
0.0
  0
CIRCLE
  5
C7
330
1F
100
AcDbEntity
  8
해칭선
100
AcDbCircle
 10
0.0
 20
0.0
 30
0.0
 40
3.000000000000002
  0
INSERT
  5
C8
330
1F
100
AcDbEntity
  8
0
  6
Continuous
 62
     7
100
AcDbBlockReference
 66
     1
  2
블럭10
 10
7.584727067874812
 20
-52.04717430164393
 30
0.0
  0
ATTRIB
  5
C9
330
C8
100
AcDbEntity
  8
FORMAT
 62
     2
100
AcDbText
 10
-1.596568220866466
 20
-49.97180738881174
 30
0.0
 40
4.233333333333333
  1
E2040048 [ 4 FLUTE ]
 41
0.75
  7
SLDTEXTSTYLE0
 11
-1.596568220866466
 21
-52.08847405547841
 31
0.0
100
AcDbAttribute
  2
AUTOATTR0
 70
     0
 74
     1
  0
SEQEND
  5
CA
330
C8
100
AcDbEntity
  8
0
  6
Continuous
 62
     7
  0
HATCH
  5
CB
330
1F
100
AcDbEntity
  8
중심선
100
AcDbHatch
 10
0.0
 20
0.0
 30
0.0
210
0.0
220
0.0
230
1.0
  2
SOLID
 70
     1
 71
     0
 91
        1
 92
        0
 93
        4
 72
     1
 10
13.29963637225567
 20
-35.8
 11
9.853361128418385
 21
-35.8
 72
     1
 10
9.853361128418385
 20
-35.8
 11
7.725131269214362
 21
-38.33632558057257
 72
     1
 10
7.725131269214362
 20
-38.33632558057257
 11
11.17143959816482
 21
-38.33628615127008
 72
     1
 10
11.17143959816482
 20
-38.33628615127008
 11
13.29963637225567
 21
-35.8
 97
        0
 75
     0
 76
     1
 98
        1
 10
-10.78676131403115
 20
-0.001074928723898
  0
HATCH
  5
CC
330
1F
100
AcDbEntity
  8
중심선
100
AcDbHatch
 10
0.0
 20
0.0
 30
0.0
210
0.0
220
0.0
230
1.0
  2
SOLID
 70
     1
 71
     0
 91
        1
 92
        0
 93
        4
 72
     1
 10
18.31240036329168
 20
-35.79999999999998
 11
14.86612511945439
 21
-35.79999999999998
 72
     1
 10
14.86612511945439
 20
-35.79999999999998
 11
10.33498711109695
 21
-41.20000000000002
 72
     1
 10
10.33498711109695
 20
-41.20000000000002
 11
13.78126235493423
 21
-41.20000000000002
 72
     1
 10
13.78126235493423
 20
-41.20000000000002
 11
18.31240036329168
 21
-35.79999999999998
 97
        0
 75
     0
 76
     1
 98
        1
 10
-10.78676131403115
 20
-0.001074928723898
  0
HATCH
  5
CD
330
1F
100
AcDbEntity
  8
중심선
100
AcDbHatch
 10
0.0
 20
0.0
 30
0.0
210
0.0
220
0.0
230
1.0
  2
SOLID
 70
     1
 71
     0
 91
        1
 92
        0
 93
        4
 72
     1
 10
23.32516435432751
 20
-35.79999999999998
 11
19.8788891104904
 21
-35.8
 72
     1
 10
19.8788891104904
 20
-35.8
 11
12.83045220860115
 21
-44.20000000000002
 72
     1
 10
12.83045220860115
 20
-44.20000000000002
 11
16.27672745243843
 21
-44.20000000000002
 72
     1
 10
16.27672745243843
 20
-44.20000000000002
 11
23.32516435432751
 21
-35.79999999999998
 97
        0
 75
     0
 76
     1
 98
        1
 10
-10.78676131403115
 20
-0.001074928723898
  0
HATCH
  5
CE
330
1F
100
AcDbEntity
  8
중심선
100
AcDbHatch
 10
0.0
 20
0.0
 30
0.0
210
0.0
220
0.0
230
1.0
  2
SOLID
 70
     1
 71
     0
 91
        1
 92
        0
 93
        6
 72
     3
 10
28.12505478533971
 20
-40.00000000005127
 11
3.960054785062283
 21
1.540882976769353E-10
 40
0.3939339440162628
 50
17.09539180608455
 51
320.0019657685075
 73
     0
 72
     1
 10
29.80805444104028
 20
-38.5878940046383
 11
32.11335631474127
 21
-36.65356729459038
 72
     3
 10
28.12505478528687
 20
-40.00000000000015
 11
6.600054785286829
 21
-1.278976924368180E-13
 40
0.636358354079598
 50
39.99873849337467
 51
368.4976242363724
 73
     1
 72
     1
 10
34.55038727718745
 20
-39.03999999993002
 11
26.80512209212277
 21
-39.03999999993002
 72
     1
 10
26.80512209212277
 20
-39.03999999993002
 11
26.80509704767686
 21
-40.95999999992991
 72
     1
 10
26.80509704767686
 20
-40.95999999992991
 11
31.24647681714887
 21
-40.95999999992988
 97
        0
 75
     0
 76
     1
 98
        1
 10
-10.78676131403115
 20
-0.001074928723898
  0
DIMENSION
  5
CF
330
1F
100
AcDbEntity
  8
치수문자_일반주서
100
AcDbDimension
  2
_D
 10
12.00000000000001
 20
24.52500000000001
 30
0.0
 11
52.83893007191559
 21
24.52500000000001
 31
0.0
 70
   160
  1
<>
 71
     2
 42
76.20000000000002
  3
SLDDIMSTYLE2
100
AcDbAlignedDimension
 13
88.20000000000002
 23
9.52500000000001
 33
0.0
 14
12.0
 24
9.524709982047103
 34
0.0
 50
0.0000000000000481
100
AcDbRotatedDimension
1001
PE_URL
1000

1001
ACAD
1000
DSTYLE
1002
{
1070
   171
1070
     8
1070
   273
1070
     7
1070
    41
1040
4.0
1070
   140
1040
4.0
1002
}
  0
DIMENSION
  5
E4
330
1F
100
AcDbEntity
  8
치수문자_일반주서
100
AcDbDimension
  2
_D_1
 10
-45.14999999999998
 20
39.52500000000001
 30
0.0
 11
21.52500000000003
 21
39.52500000000001
 31
0.0
 70
   160
  1
<>
 71
     2
 42
133.35
  3
SLDDIMSTYLE2
100
AcDbAlignedDimension
 13
88.20000000000002
 23
9.52500000000001
 33
0.0
 14
-45.14999999999998
 24
7.620000000000001
 34
0.0
 50
0.0000000000000061
100
AcDbRotatedDimension
1001
PE_URL
1000

1001
ACAD
1000
DSTYLE
1002
{
1070
   171
1070
     8
1070
   273
1070
     7
1070
    41
1040
4.0
1070
   140
1040
4.0
1002
}
  0
DIMENSION
  5
F8
330
1F
100
AcDbEntity
  8
치수문자_일반주서
100
AcDbDimension
  2
_D_2
 10
-60.14999999999993
 20
-9.525000000000077
 30
0.0
 11
-60.15000000000007
 21
33.14999999999995
 31
0.0
 70
   160
  1
%%c<>
 71
     2
 42
19.05000000000001
 52
-270.0
  3
SLDDIMSTYLE2
100
AcDbAlignedDimension
 13
-43.24499999999998
 23
9.525
 33
0.0
 14
-43.24499999999998
 24
-9.525000000000011
 34
0.0
 50
90.0000000000002
100
AcDbRotatedDimension
1001
PE_URL
1000

1001
ACAD
1000
DSTYLE
1002
{
1070
   171
1070
     8
1070
   273
1070
     7
1070
    41
1040
4.0
1070
   140
1040
4.0
1002
}
  0
DIMENSION
  5
10D
330
1F
100
AcDbEntity
  8
치수문자_일반주서
100
AcDbDimension
  2
_D_3
 10
103.2
 20
9.525000000000066
 30
0.0
 11
103.1999999999999
 21
38.36497268430735
 31
0.0
 70
   160
  1
%%c<>
 71
     2
 42
19.05
 52
-270.0
  3
SLDDIMSTYLE2
100
AcDbAlignedDimension
 13
88.20000000000002
 23
-9.524999999999991
 33
0.0
 14
88.20000000000002
 24
9.52500000000001
 34
0.0
 50
90.0000000000002
100
AcDbRotatedDimension
1001
PE_URL
1000

1001
ACAD
1000
DSTYLE
1002
{
1070
   171
1070
     8
1070
   273
1070
     7
1070
    41
1040
4.0
1070
   140
1040
4.0
1002
}
  0
LINE
  5
120
330
1F
100
AcDbEntity
  8
참조1
100
AcDbLine
 10
67.03223381534562
 20
7.439999999999998
 30
0.0
 11
67.03223381534562
 21
-7.440000000000007
 31
0.0
  0
LINE
  5
121
330
1F
100
AcDbEntity
  8
참조1
100
AcDbLine
 10
79.73223381534561
 20
5.439999999999998
 30
0.0
 11
67.03223381534562
 21
5.439999999999998
 31
0.0
  0
SOLID
  5
122
330
1F
100
AcDbEntity
  8
참조1
100
AcDbTrace
 10
67.03223381534562
 20
5.439999999999998
 30
0.0
 11
73.38223381534561
 21
4.423999999999998
 31
0.0
 12
73.38223381534561
 22
6.455999999999998
 32
0.0
 13
73.38223381534561
 23
6.455999999999998
 33
0.0
  0
LINE
  5
123
330
1F
100
AcDbEntity
  8
참조1
100
AcDbLine
 10
79.73223381534561
 20
-5.440000000000007
 30
0.0
 11
67.03223381534562
 21
-5.440000000000007
 31
0.0
  0
SOLID
  5
124
330
1F
100
AcDbEntity
  8
참조1
100
AcDbTrace
 10
67.03223381534562
 20
-5.440000000000007
 30
0.0
 11
73.38223381534561
 21
-6.456000000000007
 31
0.0
 12
73.38223381534561
 22
-4.424000000000007
 32
0.0
 13
73.38223381534561
 23
-4.424000000000007
 33
0.0
  0
MTEXT
  5
125
330
1F
100
AcDbEntity
  8
참조1
100
AcDbMText
 10
76.41658394797162
 20
11.01029177718832
 30
0.0
 40
3.5
 41
0.0
 71
     1
 72
     1
  1
A
  7
SLDTEXTSTYLE0
 73
     1
 44
1.0
  0
MTEXT
  5
126
330
1F
100
AcDbEntity
  8
참조1
100
AcDbMText
 10
76.41658394797162
 20
0.1302917771883221
 30
0.0
 40
3.5
 41
0.0
 71
     1
 72
     1
  1
A
  7
SLDTEXTSTYLE0
 73
     1
 44
1.0
  0
INSERT
  5
12D
330
1F
100
AcDbEntity
  8
해칭선
100
AcDbBlockReference
  2
SW_DOWELSYMBOL_0
 10
0.0
 20
0.0
 30
0.0
  0
ENDSEC
  0
SECTION
  2
OBJECTS
  0
DICTIONARY
  5
C
330
0
100
AcDbDictionary
281
     1
  3
ACAD_DETAILVIEWSTYLE
350
291
  3
ACAD_GROUP
350
D
  3
ACAD_IMAGE_VARS
350
2BB
  3
ACAD_LAYOUT
350
1A
  3
ACAD_MLINESTYLE
350
17
  3
ACAD_PLOTSETTINGS
350
19
  3
ACAD_PLOTSTYLENAME
350
E
  3
ACAD_SCALELIST
350
47
  3
ACAD_SECTIONVIEWSTYLE
350
292
  3
AcDbVariableDictionary
350
28C
  3
APPDATA
350
14F
  3
DWGPROPS
350
2BC
  0
DICTIONARY
  5
184
330
2
100
AcDbDictionary
280
     1
281
     1
  3
ACAD_LAYERSTATES
360
26A
  0
DICTIONARY
  5
291
102
{ACAD_REACTORS
330
C
102
}
330
C
100
AcDbDictionary
281
     1
  0
DICTIONARY
  5
D
102
{ACAD_REACTORS
330
C
102
}
330
C
100
AcDbDictionary
281
     1
  0
RASTERVARIABLES
  5
2BB
102
{ACAD_REACTORS
330
C
102
}
330
C
100
AcDbRasterVariables
 90
        0
 70
     1
 71
     1
 72
     1
  0
DICTIONARY
  5
1A
102
{ACAD_REACTORS
330
C
102
}
330
C
100
AcDbDictionary
281
     1
  3
Layout1
350
1E
  3
Layout2
350
26
  3
Model
350
22
  0
DICTIONARY
  5
17
102
{ACAD_REACTORS
330
C
102
}
330
C
100
AcDbDictionary
281
     1
  3
Standard
350
18
  0
DICTIONARY
  5
19
102
{ACAD_REACTORS
330
C
102
}
330
C
100
AcDbDictionary
281
     1
  0
ACDBDICTIONARYWDFLT
  5
E
102
{ACAD_REACTORS
330
C
102
}
330
C
100
AcDbDictionary
281
     1
  3
Normal
350
F
100
AcDbDictionaryWithDefault
340
F
  0
DICTIONARY
  5
47
102
{ACAD_REACTORS
330
C
102
}
330
C
100
AcDbDictionary
281
     1
  3
A0
350
48
  3
A1
350
49
  3
A2
350
4A
  3
A3
350
4B
  3
A4
350
4C
  3
A5
350
4D
  3
A6
350
4E
  3
A7
350
4F
  3
A8
350
50
  3
A9
350
51
  3
B0
350
52
  3
B1
350
53
  3
B2
350
54
  3
B3
350
55
  3
B4
350
56
  3
B5
350
57
  3
B6
350
58
  3
B7
350
59
  3
B8
350
5A
  3
B9
350
5B
  3
C0
350
5C
  3
C1
350
5D
  3
C2
350
5E
  3
C3
350
5F
  3
C4
350
60
  3
C5
350
61
  3
C6
350
62
  3
C7
350
63
  3
C8
350
64
  3
C9
350
65
  3
D0
350
66
  3
D1
350
67
  3
D2
350
68
  0
DICTIONARY
  5
292
102
{ACAD_REACTORS
330
C
102
}
330
C
100
AcDbDictionary
281
     1
  0
DICTIONARY
  5
28C
102
{ACAD_REACTORS
330
C
102
}
330
C
100
AcDbDictionary
281
     1
  0
DICTIONARY
  5
14F
102
{ACAD_REACTORS
330
C
102
}
330
C
100
AcDbDictionary
281
     1
  0
XRECORD
  5
2BC
102
{ACAD_REACTORS
330
C
102
}
330
C
100
AcDbXrecord
280
     1
  1
DWGPROPS COOKIE
  2

  3

  4

  6

  7

  8
12016016
  9

300
=
301
=
302
=
303
=
304
=
305
=
306
=
307
=
308
=
309
=
 40
0.0
 41
2458312.256191181
 42
2458330.280497835
  1

 90
        0
  0
DICTIONARY
  5
26A
102
{ACAD_REACTORS
330
184
102
}
330
184
100
AcDbDictionary
281
     1
  0
LAYOUT
  5
1E
102
{ACAD_REACTORS
330
1A
102
}
330
1A
100
AcDbPlotSettings
  1

  2
none_device
  4

  6

 40
0.0
 41
0.0
 42
0.0
 43
0.0
 44
0.0
 45
0.0
 46
0.0
 47
0.0
 48
0.0
 49
0.0
140
0.0
141
0.0
142
1.0
143
1.0
 70
   688
 72
     1
 73
     0
 74
     5
  7

 75
    16
147
1.0
148
0.0
149
0.0
100
AcDbLayout
  1
Layout1
 70
     1
 71
     1
 10
0.0
 20
0.0
 11
420.0
 21
297.0
 12
0.0
 22
0.0
 32
0.0
 14
1.000000000000000E+20
 24
1.000000000000000E+20
 34
1.000000000000000E+20
 15
-1.000000000000000E+20
 25
-1.000000000000000E+20
 35
-1.000000000000000E+20
146
0.0
 13
0.0
 23
0.0
 33
0.0
 16
1.0
 26
0.0
 36
0.0
 17
0.0
 27
1.0
 37
0.0
 76
     0
330
1B
  0
LAYOUT
  5
26
102
{ACAD_REACTORS
330
1A
102
}
330
1A
100
AcDbPlotSettings
  1

  2
none_device
  4

  6

 40
0.0
 41
0.0
 42
0.0
 43
0.0
 44
0.0
 45
0.0
 46
0.0
 47
0.0
 48
0.0
 49
0.0
140
0.0
141
0.0
142
1.0
143
1.0
 70
   688
 72
     1
 73
     0
 74
     5
  7

 75
    16
147
1.0
148
0.0
149
0.0
100
AcDbLayout
  1
Layout2
 70
     1
 71
     2
 10
0.0
 20
0.0
 11
0.0
 21
0.0
 12
0.0
 22
0.0
 32
0.0
 14
0.0
 24
0.0
 34
0.0
 15
0.0
 25
0.0
 35
0.0
146
0.0
 13
0.0
 23
0.0
 33
0.0
 16
1.0
 26
0.0
 36
0.0
 17
0.0
 27
1.0
 37
0.0
 76
     0
330
23
  0
LAYOUT
  5
22
102
{ACAD_REACTORS
330
1A
102
}
330
1A
100
AcDbPlotSettings
  1

  2
none_device
  4
ANSI_A_(11.00_x_8.50_Inches)
  6

 40
6.35
 41
19.05
 42
6.35000508
 43
19.05000254
 44
279.4
 45
215.9
 46
47.7787101720228
 47
49.79642662225732
 48
0.0
 49
0.0
140
0.0
141
0.0
142
0.0374033758481949
143
1.0
 70
  1696
 72
     0
 73
     0
 74
     0
  7

 75
     0
147
0.0235690232323232
148
0.0
149
0.0
100
AcDbLayout
  1
Model
 70
     1
 71
     0
 10
0.0
 20
0.0
 11
420.0
 21
297.0
 12
0.0
 22
0.0
 32
0.0
 14
-65.02500000000012
 24
-49.97180738881174
 34
0.0
 15
103.8666666666668
 25
53.98997268430735
 35
0.0
146
0.0
 13
0.0
 23
0.0
 33
0.0
 16
1.0
 26
0.0
 36
0.0
 17
0.0
 27
1.0
 37
0.0
 76
     0
330
1F
331
29
  0
MLINESTYLE
  5
18
102
{ACAD_REACTORS
330
17
102
}
330
17
100
AcDbMlineStyle
  2
Standard
 70
     0
  3

 62
   256
 51
90.0
 52
90.0
 71
     2
 49
0.5
 62
   256
  6
BYLAYER
 49
-0.5
 62
   256
  6
BYLAYER
  0
ACDBPLACEHOLDER
  5
F
102
{ACAD_REACTORS
330
E
102
}
330
E
  0
SCALE
  5
48
102
{ACAD_REACTORS
330
47
102
}
330
47
100
AcDbScale
 70
     0
300
1:1
140
1.0
141
1.0
290
     1
  0
SCALE
  5
49
102
{ACAD_REACTORS
330
47
102
}
330
47
100
AcDbScale
 70
     0
300
1:2
140
1.0
141
2.0
290
     0
  0
SCALE
  5
4A
102
{ACAD_REACTORS
330
47
102
}
330
47
100
AcDbScale
 70
     0
300
1:4
140
1.0
141
4.0
290
     0
  0
SCALE
  5
4B
102
{ACAD_REACTORS
330
47
102
}
330
47
100
AcDbScale
 70
     0
300
1:5
140
1.0
141
5.0
290
     0
  0
SCALE
  5
4C
102
{ACAD_REACTORS
330
47
102
}
330
47
100
AcDbScale
 70
     0
300
1:8
140
1.0
141
8.0
290
     0
  0
SCALE
  5
4D
102
{ACAD_REACTORS
330
47
102
}
330
47
100
AcDbScale
 70
     0
300
1:10
140
1.0
141
10.0
290
     0
  0
SCALE
  5
4E
102
{ACAD_REACTORS
330
47
102
}
330
47
100
AcDbScale
 70
     0
300
1:16
140
1.0
141
16.0
290
     0
  0
SCALE
  5
4F
102
{ACAD_REACTORS
330
47
102
}
330
47
100
AcDbScale
 70
     0
300
1:20
140
1.0
141
20.0
290
     0
  0
SCALE
  5
50
102
{ACAD_REACTORS
330
47
102
}
330
47
100
AcDbScale
 70
     0
300
1:30
140
1.0
141
30.0
290
     0
  0
SCALE
  5
51
102
{ACAD_REACTORS
330
47
102
}
330
47
100
AcDbScale
 70
     0
300
1:40
140
1.0
141
40.0
290
     0
  0
SCALE
  5
52
102
{ACAD_REACTORS
330
47
102
}
330
47
100
AcDbScale
 70
     0
300
1:50
140
1.0
141
50.0
290
     0
  0
SCALE
  5
53
102
{ACAD_REACTORS
330
47
102
}
330
47
100
AcDbScale
 70
     0
300
1:100
140
1.0
141
100.0
290
     0
  0
SCALE
  5
54
102
{ACAD_REACTORS
330
47
102
}
330
47
100
AcDbScale
 70
     0
300
2:1
140
2.0
141
1.0
290
     0
  0
SCALE
  5
55
102
{ACAD_REACTORS
330
47
102
}
330
47
100
AcDbScale
 70
     0
300
4:1
140
4.0
141
1.0
290
     0
  0
SCALE
  5
56
102
{ACAD_REACTORS
330
47
102
}
330
47
100
AcDbScale
 70
     0
300
8:1
140
8.0
141
1.0
290
     0
  0
SCALE
  5
57
102
{ACAD_REACTORS
330
47
102
}
330
47
100
AcDbScale
 70
     0
300
10:1
140
10.0
141
1.0
290
     0
  0
SCALE
  5
58
102
{ACAD_REACTORS
330
47
102
}
330
47
100
AcDbScale
 70
     0
300
100:1
140
100.0
141
1.0
290
     0
  0
SCALE
  5
59
102
{ACAD_REACTORS
330
47
102
}
330
47
100
AcDbScale
 70
     0
300
1/128" = 1'-0"
140
0.0078125
141
12.0
290
     0
  0
SCALE
  5
5A
102
{ACAD_REACTORS
330
47
102
}
330
47
100
AcDbScale
 70
     0
300
1/64" = 1'-0"
140
0.015625
141
12.0
290
     0
  0
SCALE
  5
5B
102
{ACAD_REACTORS
330
47
102
}
330
47
100
AcDbScale
 70
     0
300
1/32" = 1'-0"
140
0.03125
141
12.0
290
     0
  0
SCALE
  5
5C
102
{ACAD_REACTORS
330
47
102
}
330
47
100
AcDbScale
 70
     0
300
1/16" = 1'-0"
140
0.0625
141
12.0
290
     0
  0
SCALE
  5
5D
102
{ACAD_REACTORS
330
47
102
}
330
47
100
AcDbScale
 70
     0
300
3/32" = 1'-0"
140
0.09375
141
12.0
290
     0
  0
SCALE
  5
5E
102
{ACAD_REACTORS
330
47
102
}
330
47
100
AcDbScale
 70
     0
300
1/8" = 1'-0"
140
0.125
141
12.0
290
     0
  0
SCALE
  5
5F
102
{ACAD_REACTORS
330
47
102
}
330
47
100
AcDbScale
 70
     0
300
3/16" = 1'-0"
140
0.1875
141
12.0
290
     0
  0
SCALE
  5
60
102
{ACAD_REACTORS
330
47
102
}
330
47
100
AcDbScale
 70
     0
300
1/4" = 1'-0"
140
0.25
141
12.0
290
     0
  0
SCALE
  5
61
102
{ACAD_REACTORS
330
47
102
}
330
47
100
AcDbScale
 70
     0
300
3/8" = 1'-0"
140
0.375
141
12.0
290
     0
  0
SCALE
  5
62
102
{ACAD_REACTORS
330
47
102
}
330
47
100
AcDbScale
 70
     0
300
1/2" = 1'-0"
140
0.5
141
12.0
290
     0
  0
SCALE
  5
63
102
{ACAD_REACTORS
330
47
102
}
330
47
100
AcDbScale
 70
     0
300
3/4" = 1'-0"
140
0.75
141
12.0
290
     0
  0
SCALE
  5
64
102
{ACAD_REACTORS
330
47
102
}
330
47
100
AcDbScale
 70
     0
300
1" = 1'-0"
140
1.0
141
12.0
290
     0
  0
SCALE
  5
65
102
{ACAD_REACTORS
330
47
102
}
330
47
100
AcDbScale
 70
     0
300
1-1/2" = 1'-0"
140
1.5
141
12.0
290
     0
  0
SCALE
  5
66
102
{ACAD_REACTORS
330
47
102
}
330
47
100
AcDbScale
 70
     0
300
3" = 1'-0"
140
3.0
141
12.0
290
     0
  0
SCALE
  5
67
102
{ACAD_REACTORS
330
47
102
}
330
47
100
AcDbScale
 70
     0
300
6" = 1'-0"
140
6.0
141
12.0
290
     0
  0
SCALE
  5
68
102
{ACAD_REACTORS
330
47
102
}
330
47
100
AcDbScale
 70
     0
300
1'-0" = 1'-0"
140
12.0
141
12.0
290
     0
  0
ENDSEC
  0
EOF
