  0
SECTION
  2
HEADER
  9
$ACADVER
  1
AC1015
  9
$ACADMAINTVER
 70
     6
  9
$DWGCODEPAGE
  3
ANSI_949
  9
$INSBASE
 10
0.0
 20
0.0
 30
0.0
  9
$EXTMIN
 10
-65.02500000000015
 20
-49.97073246008776
 30
0.0
  9
$EXTMAX
 10
116.5666666666668
 20
57.32270972708255
 30
0.0
  9
$LIMMIN
 10
0.0
 20
0.0
  9
$LIMMAX
 10
420.0
 20
297.0
  9
$ORTHOMODE
 70
     1
  9
$REGENMODE
 70
     1
  9
$FILLMODE
 70
     1
  9
$QTEXTMODE
 70
     0
  9
$MIRRTEXT
 70
     1
  9
$LTSCALE
 40
1.0
  9
$ATTMODE
 70
     1
  9
$TEXTSIZE
 40
3.5
  9
$TRACEWID
 40
1.0
  9
$TEXTSTYLE
  7
Standard
  9
$CLAYER
  8
0
  9
$CELTYPE
  6
ByLayer
  9
$CECOLOR
 62
   256
  9
$CELTSCALE
 40
1.0
  9
$DISPSILH
 70
     0
  9
$DIMSCALE
 40
1.0
  9
$DIMASZ
 40
3.302
  9
$DIMEXO
 40
1.0
  9
$DIMDLI
 40
3.75
  9
$DIMRND
 40
0.0
  9
$DIMDLE
 40
0.0
  9
$DIMEXE
 40
1.0
  9
$DIMTP
 40
0.0
  9
$DIMTM
 40
0.0
  9
$DIMTXT
 40
3.5
  9
$DIMCEN
 40
2.5
  9
$DIMTSZ
 40
0.0
  9
$DIMTOL
 70
     0
  9
$DIMLIM
 70
     0
  9
$DIMTIH
 70
     1
  9
$DIMTOH
 70
     1
  9
$DIMSE1
 70
     0
  9
$DIMSE2
 70
     0
  9
$DIMTAD
 70
     1
  9
$DIMZIN
 70
     0
  9
$DIMBLK
  1

  9
$DIMASO
 70
     1
  9
$DIMSHO
 70
     1
  9
$DIMPOST
  1

  9
$DIMAPOST
  1

  9
$DIMALT
 70
     0
  9
$DIMALTD
 70
     3
  9
$DIMALTF
 40
0.0393700787401575
  9
$DIMLFAC
 40
1.0
  9
$DIMTOFL
 70
     1
  9
$DIMTVP
 40
0.0
  9
$DIMTIX
 70
     0
  9
$DIMSOXD
 70
     0
  9
$DIMSAH
 70
     0
  9
$DIMBLK1
  1

  9
$DIMBLK2
  1

  9
$DIMSTYLE
  2
ISO-25
  9
$DIMCLRD
 70
     0
  9
$DIMCLRE
 70
     0
  9
$DIMCLRT
 70
     0
  9
$DIMTFAC
 40
1.0
  9
$DIMGAP
 40
1.524
  9
$DIMJUST
 70
     0
  9
$DIMSD1
 70
     0
  9
$DIMSD2
 70
     0
  9
$DIMTOLJ
 70
     0
  9
$DIMTZIN
 70
     0
  9
$DIMALTZ
 70
     0
  9
$DIMALTTZ
 70
     0
  9
$DIMUPT
 70
     0
  9
$DIMDEC
 70
     2
  9
$DIMTDEC
 70
     2
  9
$DIMALTU
 70
     2
  9
$DIMALTTD
 70
     3
  9
$DIMTXSTY
  7
Standard
  9
$DIMAUNIT
 70
     0
  9
$DIMADEC
 70
     2
  9
$DIMALTRND
 40
0.0
  9
$DIMAZIN
 70
     0
  9
$DIMDSEP
 70
    44
  9
$DIMATFIT
 70
     3
  9
$DIMFRAC
 70
     0
  9
$DIMLDRBLK
  1

  9
$DIMLUNIT
 70
     2
  9
$DIMLWD
 70
    -2
  9
$DIMLWE
 70
    -2
  9
$DIMTMOVE
 70
     0
  9
$LUNITS
 70
     2
  9
$LUPREC
 70
     2
  9
$SKETCHINC
 40
1.0
  9
$FILLETRAD
 40
10.0
  9
$AUNITS
 70
     0
  9
$AUPREC
 70
     2
  9
$MENU
  1
.
  9
$ELEVATION
 40
0.0
  9
$PELEVATION
 40
0.0
  9
$THICKNESS
 40
0.0
  9
$LIMCHECK
 70
     0
  9
$CHAMFERA
 40
0.0
  9
$CHAMFERB
 40
0.0
  9
$CHAMFERC
 40
0.0
  9
$CHAMFERD
 40
0.0
  9
$SKPOLY
 70
     0
  9
$TDCREATE
 40
2458312.631402951
  9
$TDUCREATE
 40
2458312.256402951
  9
$TDUPDATE
 40
2458330.655452512
  9
$TDUUPDATE
 40
2458330.280452512
  9
$TDINDWG
 40
0.0002970139
  9
$TDUSRTIMER
 40
2458330.280415648
  9
$USRTIMER
 70
     1
  9
$ANGBASE
 50
0.0
  9
$ANGDIR
 70
     0
  9
$PDMODE
 70
     0
  9
$PDSIZE
 40
-1.0
  9
$PLINEWID
 40
0.0
  9
$SPLFRAME
 70
     0
  9
$SPLINETYPE
 70
     6
  9
$SPLINESEGS
 70
     8
  9
$HANDSEED
  5
208
  9
$SURFTAB1
 70
     6
  9
$SURFTAB2
 70
     6
  9
$SURFTYPE
 70
     6
  9
$SURFU
 70
     6
  9
$SURFV
 70
     6
  9
$UCSBASE
  2

  9
$UCSNAME
  2

  9
$UCSORG
 10
0.0
 20
0.0
 30
0.0
  9
$UCSXDIR
 10
1.0
 20
0.0
 30
0.0
  9
$UCSYDIR
 10
0.0
 20
1.0
 30
0.0
  9
$UCSORTHOREF
  2

  9
$UCSORTHOVIEW
 70
     0
  9
$UCSORGTOP
 10
0.0
 20
0.0
 30
0.0
  9
$UCSORGBOTTOM
 10
0.0
 20
0.0
 30
0.0
  9
$UCSORGLEFT
 10
0.0
 20
0.0
 30
0.0
  9
$UCSORGRIGHT
 10
0.0
 20
0.0
 30
0.0
  9
$UCSORGFRONT
 10
0.0
 20
0.0
 30
0.0
  9
$UCSORGBACK
 10
0.0
 20
0.0
 30
0.0
  9
$PUCSBASE
  2

  9
$PUCSNAME
  2

  9
$PUCSORG
 10
0.0
 20
0.0
 30
0.0
  9
$PUCSXDIR
 10
1.0
 20
0.0
 30
0.0
  9
$PUCSYDIR
 10
0.0
 20
1.0
 30
0.0
  9
$PUCSORTHOREF
  2

  9
$PUCSORTHOVIEW
 70
     0
  9
$PUCSORGTOP
 10
0.0
 20
0.0
 30
0.0
  9
$PUCSORGBOTTOM
 10
0.0
 20
0.0
 30
0.0
  9
$PUCSORGLEFT
 10
0.0
 20
0.0
 30
0.0
  9
$PUCSORGRIGHT
 10
0.0
 20
0.0
 30
0.0
  9
$PUCSORGFRONT
 10
0.0
 20
0.0
 30
0.0
  9
$PUCSORGBACK
 10
0.0
 20
0.0
 30
0.0
  9
$USERI1
 70
     0
  9
$USERI2
 70
     0
  9
$USERI3
 70
     0
  9
$USERI4
 70
     0
  9
$USERI5
 70
     0
  9
$USERR1
 40
0.0
  9
$USERR2
 40
0.0
  9
$USERR3
 40
0.0
  9
$USERR4
 40
0.0
  9
$USERR5
 40
0.0
  9
$WORLDVIEW
 70
     1
  9
$SHADEDGE
 70
     3
  9
$SHADEDIF
 70
    70
  9
$TILEMODE
 70
     1
  9
$MAXACTVP
 70
    64
  9
$PINSBASE
 10
0.0
 20
0.0
 30
0.0
  9
$PLIMCHECK
 70
     0
  9
$PEXTMIN
 10
1.000000000000000E+20
 20
1.000000000000000E+20
 30
1.000000000000000E+20
  9
$PEXTMAX
 10
-1.000000000000000E+20
 20
-1.000000000000000E+20
 30
-1.000000000000000E+20
  9
$PLIMMIN
 10
0.0
 20
0.0
  9
$PLIMMAX
 10
0.0
 20
0.0
  9
$UNITMODE
 70
     0
  9
$VISRETAIN
 70
     1
  9
$PLINEGEN
 70
     0
  9
$PSLTSCALE
 70
     1
  9
$TREEDEPTH
 70
  3020
  9
$CMLSTYLE
  2
Standard
  9
$CMLJUST
 70
     0
  9
$CMLSCALE
 40
20.0
  9
$PROXYGRAPHICS
 70
     1
  9
$MEASUREMENT
 70
     1
  9
$CELWEIGHT
370
    -1
  9
$ENDCAPS
280
     0
  9
$JOINSTYLE
280
     0
  9
$LWDISPLAY
290
     1
  9
$INSUNITS
 70
     4
  9
$HYPERLINKBASE
  1

  9
$STYLESHEET
  1

  9
$XEDIT
290
     1
  9
$CEPSNTYPE
380
     0
  9
$PSTYLEMODE
290
     1
  9
$FINGERPRINTGUID
  2
{FF2A3F0E-340F-42CC-9B9E-2BBA64737C78}
  9
$VERSIONGUID
  2
{FAEB1C32-E019-11D5-929B-00C0DF256EC4}
  9
$EXTNAMES
290
     1
  9
$PSVPSCALE
 40
0.0
  9
$OLESTARTUP
290
     0
  0
ENDSEC
  0
SECTION
  2
CLASSES
  0
CLASS
  1
ACDBDICTIONARYWDFLT
  2
AcDbDictionaryWithDefault
  3
ObjectDBX Classes
 90
        0
280
     0
281
     0
  0
CLASS
  1
VISUALSTYLE
  2
AcDbVisualStyle
  3
ObjectDBX Classes
 90
     4095
280
     0
281
     0
  0
CLASS
  1
MATERIAL
  2
AcDbMaterial
  3
ObjectDBX Classes
 90
     1153
280
     0
281
     0
  0
CLASS
  1
SCALE
  2
AcDbScale
  3
ObjectDBX Classes
 90
     1153
280
     0
281
     0
  0
CLASS
  1
SUN
  2
AcDbSun
  3
SCENEOE
 90
     1153
280
     0
281
     0
  0
CLASS
  1
ACDBPLACEHOLDER
  2
AcDbPlaceHolder
  3
ObjectDBX Classes
 90
        0
280
     0
281
     0
  0
CLASS
  1
LAYOUT
  2
AcDbLayout
  3
ObjectDBX Classes
 90
        0
280
     0
281
     0
  0
CLASS
  1
TABLESTYLE
  2
AcDbTableStyle
  3
ObjectDBX Classes
 90
     4095
280
     0
281
     0
  0
CLASS
  1
MLEADERSTYLE
  2
AcDbMLeaderStyle
  3
ACDB_MLEADERSTYLE_CLASS
 90
     4095
280
     0
281
     0
  0
CLASS
  1
DICTIONARYVAR
  2
AcDbDictionaryVar
  3
ObjectDBX Classes
 90
        0
280
     0
281
     0
  0
CLASS
  1
RASTERVARIABLES
  2
AcDbRasterVariables
  3
ISM
 90
        0
280
     0
281
     0
  0
ENDSEC
  0
SECTION
  2
TABLES
  0
TABLE
  2
VPORT
  5
8
330
0
100
AcDbSymbolTable
 70
     1
  0
VPORT
  5
29
330
8
100
AcDbSymbolTableRecord
100
AcDbViewportTableRecord
  2
*Active
 70
     0
 10
0.0
 20
0.0
 11
1.0
 21
1.0
 12
25.77083333333331
 22
3.675988633497397
 13
0.0
 23
0.0
 14
10.0
 24
10.0
 15
10.0
 25
10.0
 16
0.0
 26
0.0
 36
1.0
 17
0.0
 27
0.0
 37
0.0
 40
109.4393110309137
 41
1.782762691853601
 42
50.0
 43
0.0
 44
0.0
 50
0.0
 51
0.0
 71
    16
 72
  2000
 73
     1
 74
     3
 75
     0
 76
     0
 77
     0
 78
     0
281
     0
 65
     1
110
0.0
120
0.0
130
0.0
111
1.0
121
0.0
131
0.0
112
0.0
122
1.0
132
0.0
 79
     0
146
0.0
  0
ENDTAB
  0
TABLE
  2
LTYPE
  5
5
330
0
100
AcDbSymbolTable
 70
     6
  0
LTYPE
  5
14
330
5
100
AcDbSymbolTableRecord
100
AcDbLinetypeTableRecord
  2
ByBlock
 70
     0
  3

 72
    65
 73
     0
 40
0.0
  0
LTYPE
  5
15
330
5
100
AcDbSymbolTableRecord
100
AcDbLinetypeTableRecord
  2
ByLayer
 70
     0
  3

 72
    65
 73
     0
 40
0.0
  0
LTYPE
  5
16
330
5
100
AcDbSymbolTableRecord
100
AcDbLinetypeTableRecord
  2
Continuous
 70
     0
  3
Solid line
 72
    65
 73
     0
 40
0.0
  0
LTYPE
  5
6A
330
5
100
AcDbSymbolTableRecord
100
AcDbLinetypeTableRecord
  2
HIDDEN
 70
     0
  3
Hidden __ __ __ __ __ __ __ __ __ __ __ __ __ __
 72
    65
 73
     2
 40
1.905
 49
1.27
 74
     0
 49
-0.635
 74
     0
  0
LTYPE
  5
6B
330
5
100
AcDbSymbolTableRecord
100
AcDbLinetypeTableRecord
  2
PHANTOM
 70
     0
  3
Phantom ______  __  __  ______  __  __  ______
 72
    65
 73
     6
 40
12.7
 49
6.35
 74
     0
 49
-1.27
 74
     0
 49
1.27
 74
     0
 49
-1.27
 74
     0
 49
1.27
 74
     0
 49
-1.27
 74
     0
  0
LTYPE
  5
6C
330
5
100
AcDbSymbolTableRecord
100
AcDbLinetypeTableRecord
  2
CENTER
 70
     0
  3
Center ____ _ ____ _ ____ _ ____ _ ____ _ ____
 72
    65
 73
     4
 40
10.16
 49
6.35
 74
     0
 49
-1.27
 74
     0
 49
1.27
 74
     0
 49
-1.27
 74
     0
  0
LTYPE
  5
6D
330
5
100
AcDbSymbolTableRecord
100
AcDbLinetypeTableRecord
  2
CENTERX2
 70
     0
  3
Center (2x) ________  __  ________  __  _____
 72
    65
 73
     4
 40
20.32
 49
12.7
 74
     0
 49
-2.54
 74
     0
 49
2.54
 74
     0
 49
-2.54
 74
     0
  0
LTYPE
  5
6E
330
5
100
AcDbSymbolTableRecord
100
AcDbLinetypeTableRecord
  2
DOT2
 70
     0
  3
Dot (.5x) ........................................
 72
    65
 73
     2
 40
0.635
 49
0.0
 74
     0
 49
-0.635
 74
     0
  0
ENDTAB
  0
TABLE
  2
LAYER
  5
2
102
{ACAD_XDICTIONARY
360
185
102
}
330
0
100
AcDbSymbolTable
 70
    18
  0
LAYER
  5
10
330
2
100
AcDbSymbolTableRecord
100
AcDbLayerTableRecord
  2
0
 70
     0
 62
     7
  6
Continuous
370
    -3
390
F
  0
LAYER
  5
6F
330
2
100
AcDbSymbolTableRecord
100
AcDbLayerTableRecord
  2
FORMAT
 70
     0
 62
     2
  6
Continuous
370
    -3
390
F
  0
LAYER
  5
70
330
2
100
AcDbSymbolTableRecord
100
AcDbLayerTableRecord
  2
외형선
 70
     0
 62
     4
  6
Continuous
370
    30
390
F
  0
LAYER
  5
71
330
2
100
AcDbSymbolTableRecord
100
AcDbLayerTableRecord
  2
숨은선
 70
     0
 62
     2
  6
HIDDEN
370
    15
390
F
  0
LAYER
  5
72
330
2
100
AcDbSymbolTableRecord
100
AcDbLayerTableRecord
  2
중심선
 70
     0
 62
     1
  6
CENTERX2
370
    -3
390
F
  0
LAYER
  5
73
330
2
100
AcDbSymbolTableRecord
100
AcDbLayerTableRecord
  2
파단선
 70
     0
 62
     4
  6
Continuous
370
    -3
390
F
  0
LAYER
  5
74
330
2
100
AcDbSymbolTableRecord
100
AcDbLayerTableRecord
  2
해칭선
 70
     0
 62
   100
  6
Continuous
370
    -3
390
F
  0
LAYER
  5
75
330
2
100
AcDbSymbolTableRecord
100
AcDbLayerTableRecord
  2
가는실선
 70
     0
 62
     4
  6
Continuous
370
    -3
390
F
  0
LAYER
  5
76
330
2
100
AcDbSymbolTableRecord
100
AcDbLayerTableRecord
  2
치수_보조선
 70
     0
 62
     4
  6
Continuous
370
    -3
390
F
  0
LAYER
  5
77
330
2
100
AcDbSymbolTableRecord
100
AcDbLayerTableRecord
  2
치수문자_일반주서
 70
     0
 62
     7
  6
Continuous
370
    15
390
F
  0
LAYER
  5
78
330
2
100
AcDbSymbolTableRecord
100
AcDbLayerTableRecord
  2
개별주서
 70
     0
 62
   100
  6
Continuous
370
    30
390
F
  0
LAYER
  5
79
330
2
100
AcDbSymbolTableRecord
100
AcDbLayerTableRecord
  2
중간선
 70
     0
 62
     2
  6
Continuous
370
    15
390
F
  0
LAYER
  5
7A
330
2
100
AcDbSymbolTableRecord
100
AcDbLayerTableRecord
  2
윤곽선
 70
     0
 62
     3
  6
Continuous
370
    40
390
F
  0
LAYER
  5
7B
330
2
100
AcDbSymbolTableRecord
100
AcDbLayerTableRecord
  2
중심마크
 70
     0
 62
   100
  6
Continuous
370
    30
390
F
  0
LAYER
  5
7C
330
2
100
AcDbSymbolTableRecord
100
AcDbLayerTableRecord
  2
가상선
 70
     0
 62
     4
  6
PHANTOM
370
    -3
390
F
  0
LAYER
  5
7D
330
2
100
AcDbSymbolTableRecord
100
AcDbLayerTableRecord
  2
특수지정선
 70
     0
 62
     5
  6
CENTERX2
370
    60
390
F
  0
LAYER
  5
7E
330
2
100
AcDbSymbolTableRecord
100
AcDbLayerTableRecord
  2
참조1
 70
     0
 62
    -4
  6
Continuous
370
    -3
390
F
  0
LAYER
  5
151
330
2
100
AcDbSymbolTableRecord
100
AcDbLayerTableRecord
  2
Defpoints
 70
     0
 62
     7
  6
Continuous
290
     0
370
    -3
390
F
  0
ENDTAB
  0
TABLE
  2
STYLE
  5
3
330
0
100
AcDbSymbolTable
 70
     2
  0
STYLE
  5
11
330
3
100
AcDbSymbolTableRecord
100
AcDbTextStyleTableRecord
  2
Standard
 70
     0
 40
0.0
 41
1.0
 50
0.0
 71
     0
 42
3.5
  3
txt
  4

  0
STYLE
  5
94
330
3
100
AcDbSymbolTableRecord
100
AcDbTextStyleTableRecord
  2
SLDTEXTSTYLE0
 70
     0
 40
0.0
 41
0.75
 50
0.0
 71
     0
 42
3.5
  3
TXT
  4

  0
ENDTAB
  0
TABLE
  2
VIEW
  5
6
330
0
100
AcDbSymbolTable
 70
     0
  0
ENDTAB
  0
TABLE
  2
UCS
  5
7
330
0
100
AcDbSymbolTable
 70
     0
  0
ENDTAB
  0
TABLE
  2
APPID
  5
9
330
0
100
AcDbSymbolTable
 70
     2
  0
APPID
  5
12
330
9
100
AcDbSymbolTableRecord
100
AcDbRegAppTableRecord
  2
ACAD
 70
     0
  0
APPID
  5
158
330
9
100
AcDbSymbolTableRecord
100
AcDbRegAppTableRecord
  2
PE_URL
 70
     0
  0
ENDTAB
  0
TABLE
  2
DIMSTYLE
  5
A
330
0
100
AcDbSymbolTable
 70
     4
100
AcDbDimStyleTable
  0
DIMSTYLE
105
27
330
A
100
AcDbSymbolTableRecord
100
AcDbDimStyleTableRecord
  2
ISO-25
 70
     0
 41
2.5
 42
0.625
 43
3.75
 44
1.25
 73
     0
 74
     0
 77
     1
 78
     8
140
2.5
141
2.5
143
0.03937007874016
147
0.625
171
     3
172
     1
178
     0
271
     2
272
     2
274
     3
278
    44
283
     0
284
     8
340
11
  0
DIMSTYLE
105
D0
330
A
100
AcDbSymbolTableRecord
100
AcDbDimStyleTableRecord
  2
SLDDIMSTYLE0
 70
     0
 41
3.302
 44
0.0
 45
0.000000001
 73
     0
 74
     0
 77
     1
 78
     4
 79
     1
140
3.5
143
0.0393700787401575
147
0.875
148
0.000000001
170
     1
173
     1
178
     0
271
     2
272
     2
276
     2
284
    12
340
94
  0
DIMSTYLE
105
E5
330
A
100
AcDbSymbolTableRecord
100
AcDbDimStyleTableRecord
  2
SLDDIMSTYLE1
 70
     0
 41
3.302
 44
0.0
 45
0.000000001
 73
     0
 74
     0
 77
     1
 78
    12
 79
     3
140
3.5
143
0.0393700787401575
147
0.875
148
0.000000001
170
     1
173
     1
178
     0
271
     2
272
     2
276
     2
284
    12
340
94
  0
DIMSTYLE
105
F9
102
{ACAD_REACTORS
330
F8
330
CF
330
10D
330
E4
102
}
330
A
100
AcDbSymbolTableRecord
100
AcDbDimStyleTableRecord
  2
SLDDIMSTYLE2
 70
     0
 41
3.302
 44
0.0
 45
0.000000001
 73
     0
 74
     0
 77
     1
 78
    12
 79
     3
140
3.5
143
0.0393700787401575
147
0.875
148
0.000000001
170
     1
172
     1
173
     1
178
     0
271
     2
272
     2
276
     2
284
    12
289
     0
340
94
  0
ENDTAB
  0
TABLE
  2
BLOCK_RECORD
  5
1
330
0
100
AcDbSymbolTable
 70
     9
  0
BLOCK_RECORD
  5
1F
330
1
100
AcDbSymbolTableRecord
100
AcDbBlockTableRecord
  2
*Model_Space
340
22
  0
BLOCK_RECORD
  5
1B
330
1
100
AcDbSymbolTableRecord
100
AcDbBlockTableRecord
  2
*Paper_Space
340
1E
  0
BLOCK_RECORD
  5
23
330
1
100
AcDbSymbolTableRecord
100
AcDbBlockTableRecord
  2
*Paper_Space0
340
26
  0
BLOCK_RECORD
  5
7F
330
1
100
AcDbSymbolTableRecord
100
AcDbBlockTableRecord
  2
블럭10
340
0
102
{BLKREFS
331
C8
102
}
  0
BLOCK_RECORD
  5
D1
330
1
100
AcDbSymbolTableRecord
100
AcDbBlockTableRecord
  2
_D
340
0
  0
BLOCK_RECORD
  5
E6
330
1
100
AcDbSymbolTableRecord
100
AcDbBlockTableRecord
  2
_D_1
340
0
  0
BLOCK_RECORD
  5
FA
330
1
100
AcDbSymbolTableRecord
100
AcDbBlockTableRecord
  2
_D_2
340
0
  0
BLOCK_RECORD
  5
10E
330
1
100
AcDbSymbolTableRecord
100
AcDbBlockTableRecord
  2
_D_3
340
0
  0
BLOCK_RECORD
  5
127
330
1
100
AcDbSymbolTableRecord
100
AcDbBlockTableRecord
  2
SW_DOWELSYMBOL_0
340
0
102
{BLKREFS
331
12D
102
}
  0
BLOCK_RECORD
  5
189
330
1
100
AcDbSymbolTableRecord
100
AcDbBlockTableRecord
  2
*D7
340
0
  0
BLOCK_RECORD
  5
198
330
1
100
AcDbSymbolTableRecord
100
AcDbBlockTableRecord
  2
*D8
340
0
  0
ENDTAB
  0
ENDSEC
  0
SECTION
  2
BLOCKS
  0
BLOCK
  5
20
330
1F
100
AcDbEntity
  8
0
100
AcDbBlockBegin
  2
*Model_Space
 70
     0
 10
0.0
 20
0.0
 30
0.0
  3
*Model_Space
  1
*Model_Space
  0
ENDBLK
  5
21
330
1F
100
AcDbEntity
  8
0
100
AcDbBlockEnd
  0
BLOCK
  5
1C
330
1B
100
AcDbEntity
 67
     1
  8
0
100
AcDbBlockBegin
  2
*Paper_Space
 70
     0
 10
0.0
 20
0.0
 30
0.0
  3
*Paper_Space
  1
*Paper_Space
  0
ENDBLK
  5
1D
330
1B
100
AcDbEntity
 67
     1
  8
0
100
AcDbBlockEnd
  0
BLOCK
  5
24
330
23
100
AcDbEntity
  8
0
100
AcDbBlockBegin
  2
*Paper_Space0
 70
     0
 10
0.0
 20
0.0
 30
0.0
  3
*Paper_Space0
  1
*Paper_Space0
  0
ENDBLK
  5
25
330
23
100
AcDbEntity
  8
0
100
AcDbBlockEnd
  0
BLOCK
  5
80
330
7F
100
AcDbEntity
  8
0
100
AcDbBlockBegin
  2
블럭10
 70
     2
 10
0.0
 20
0.0
 30
0.0
  3
블럭10
  1
블럭10
  0
ELLIPSE
  5
82
330
7F
100
AcDbEntity
  8
중심선
100
AcDbEllipse
 10
20.54032771741204
 20
12.0471743016438
 30
0.0
 11
6.600054785286829
 21
-1.261213355974178E-13
 31
0.0
210
0.0
220
0.0
230
1.0
 40
0.636358354079598
 41
0.9219305317359503
 42
6.513795318482858
  0
ELLIPSE
  5
83
330
7F
100
AcDbEntity
  8
중심선
100
AcDbEllipse
 10
20.54032771746488
 20
12.04717430159265
 30
0.0
 11
3.960054785062283
 21
1.540847449632565E-10
 31
0.0
210
0.0
220
0.0
230
1.0
 40
0.3939339440162632
 41
1.131841032648279
 42
5.62031148352944
  0
LINE
  5
84
330
7F
100
AcDbEntity
  8
중심선
100
AcDbLine
 10
2.268634060543552
 20
16.24717430164393
 30
0.0
 11
5.714909304380834
 21
16.24717430164393
 31
0.0
  0
LINE
  5
85
330
7F
100
AcDbEntity
  8
중심선
100
AcDbLine
 10
5.245725140726316
 20
7.84717430164391
 30
0.0
 11
8.692000384563599
 21
7.84717430164391
 31
0.0
  0
LINE
  5
86
330
7F
100
AcDbEntity
  8
중심선
100
AcDbLine
 10
15.74043728645272
 20
16.24717430164393
 30
0.0
 11
8.692000384563599
 21
7.84717430164391
 31
0.0
  0
LINE
  5
87
330
7F
100
AcDbEntity
  8
중심선
100
AcDbLine
 10
0.1404042013395286
 20
13.71084872107135
 30
0.0
 11
3.58671253028996
 21
13.71088815037384
 31
0.0
  0
LINE
  5
88
330
7F
100
AcDbEntity
  8
중심선
100
AcDbLine
 10
2.750260043222114
 20
10.84717430164391
 30
0.0
 11
6.196535287059397
 21
10.84717430164391
 31
0.0
  0
LINE
  5
89
330
7F
100
AcDbEntity
  8
중심선
100
AcDbLine
 10
12.29416204261559
 20
16.24717430164393
 30
0.0
 11
5.245725140726316
 21
7.84717430164391
 31
0.0
  0
LINE
  5
8A
330
7F
100
AcDbEntity
  8
중심선
100
AcDbLine
 10
10.72767329541681
 20
16.24717430164393
 30
0.0
 11
6.196535287059397
 21
10.84717430164391
 31
0.0
  0
LINE
  5
8B
330
7F
100
AcDbEntity
  8
중심선
100
AcDbLine
 10
7.28139805157953
 20
16.24717430164393
 30
0.0
 11
2.750260043222114
 21
10.84717430164391
 31
0.0
  0
LINE
  5
8C
330
7F
100
AcDbEntity
  8
중심선
100
AcDbLine
 10
5.714909304380834
 20
16.24717430164393
 30
0.0
 11
3.58671253028996
 21
13.71088815037384
 31
0.0
  0
LINE
  5
8D
330
7F
100
AcDbEntity
  8
중심선
100
AcDbLine
 10
2.268634060543552
 20
16.24717430164393
 30
0.0
 11
0.1404042013395286
 21
13.71084872107135
 31
0.0
  0
LINE
  5
8E
330
7F
100
AcDbEntity
  8
중심선
100
AcDbLine
 10
7.28139805157953
 20
16.24717430164393
 30
0.0
 11
10.72767329541681
 21
16.24717430164393
 31
0.0
  0
LINE
  5
8F
330
7F
100
AcDbEntity
  8
중심선
100
AcDbLine
 10
12.29416204261559
 20
16.24717430164393
 30
0.0
 11
15.74043728645272
 21
16.24717430164393
 31
0.0
  0
LINE
  5
90
330
7F
100
AcDbEntity
  8
중심선
100
AcDbLine
 10
19.22036997980202
 20
11.08717430171403
 30
0.0
 11
23.66174974927406
 21
11.08717430171406
 31
0.0
  0
LINE
  5
91
330
7F
100
AcDbEntity
  8
중심선
100
AcDbLine
 10
19.22039502424796
 20
13.00717430171391
 30
0.0
 11
19.22036997980202
 21
11.08717430171403
 31
0.0
  0
LINE
  5
92
330
7F
100
AcDbEntity
  8
중심선
100
AcDbLine
 10
19.22039502424796
 20
13.00717430171391
 30
0.0
 11
26.96566020931264
 21
13.00717430171391
 31
0.0
  0
LINE
  5
93
330
7F
100
AcDbEntity
  8
중심선
100
AcDbLine
 10
22.22332737316547
 20
13.45928029700563
 30
0.0
 11
24.52862924686651
 21
15.39360700705356
 31
0.0
  0
ATTDEF
  5
95
330
7F
100
AcDbEntity
  8
FORMAT
 62
     2
100
AcDbText
 10
4.408487351596664
 20
2.075366912832191
 30
0.0
 40
4.233333333333333
  1
E1040056
 41
0.75
  7
SLDTEXTSTYLE0
 11
4.408487351596664
 21
-0.0412997538344756
 31
0.0
100
AcDbAttributeDefinition
  3

  2
AUTOATTR0
 70
     0
 74
     1
  0
ENDBLK
  5
81
330
7F
100
AcDbEntity
  8
0
100
AcDbBlockEnd
  0
BLOCK
  5
D2
330
D1
100
AcDbEntity
  8
0
100
AcDbBlockBegin
  2
_D
 70
     0
 10
0.0
 20
0.0
 30
0.0
  3
_D
  1
_D
  0
LINE
  5
D4
330
D1
100
AcDbEntity
  8
치수문자_일반주서
 62
     0
370
    -2
100
AcDbLine
 10
100.9
 20
11.17607492872401
 30
0.0
 11
100.9
 21
26.12439232790325
 31
0.0
  0
LINE
  5
D5
330
D1
100
AcDbEntity
  8
치수문자_일반주서
 62
     0
370
    -2
100
AcDbLine
 10
12.0
 20
11.17573755376628
 30
0.0
 11
12.00000000000001
 21
26.12439232790325
 31
0.0
  0
LINE
  5
D6
330
D1
100
AcDbEntity
  8
치수문자_일반주서
 62
     0
370
    -2
100
AcDbLine
 10
96.90000000000002
 20
26.12439232790325
 30
0.0
 11
16.00000000000001
 21
26.12439232790325
 31
0.0
  0
SOLID
  5
D7
330
D1
100
AcDbEntity
  8
치수문자_일반주서
 62
     0
100
AcDbTrace
 10
96.90000000000002
 20
25.45772566123658
 30
0.0
 11
96.90000000000002
 21
26.79105899456992
 31
0.0
 12
100.9
 22
26.12439232790325
 32
0.0
 13
100.9
 23
26.12439232790325
 33
0.0
  0
SOLID
  5
D8
330
D1
100
AcDbEntity
  8
치수문자_일반주서
 62
     0
100
AcDbTrace
 10
16.00000000000001
 20
26.79105899456992
 30
0.0
 11
16.00000000000001
 21
25.45772566123658
 31
0.0
 12
12.00000000000001
 22
26.12439232790325
 32
0.0
 13
12.00000000000001
 23
26.12439232790325
 33
0.0
  0
MTEXT
  5
D9
330
D1
100
AcDbEntity
  8
치수문자_일반주서
 62
     0
100
AcDbMText
 10
56.45000000000001
 20
30.99939232790325
 30
0.0
 40
4.0
 41
0.0
 71
     2
 72
     1
  1
\A1;88.9 [3 1/2]
  7
SLDTEXTSTYLE0
 73
     1
 44
1.0
  0
POINT
  5
DA
330
D1
100
AcDbEntity
  8
Defpoints
 62
     0
100
AcDbPoint
 10
100.9
 20
11.11357492872401
 30
0.0
  0
POINT
  5
DB
330
D1
100
AcDbEntity
  8
Defpoints
 62
     0
100
AcDbPoint
 10
12.0
 20
11.11323755376628
 30
0.0
  0
POINT
  5
DC
330
D1
100
AcDbEntity
  8
Defpoints
 62
     0
100
AcDbPoint
 10
12.0
 20
26.12439232790325
 30
0.0
  0
ENDBLK
  5
D3
330
D1
100
AcDbEntity
  8
0
100
AcDbBlockEnd
  0
BLOCK
  5
E7
330
E6
100
AcDbEntity
  8
0
100
AcDbBlockBegin
  2
_D_1
 70
     0
 10
0.0
 20
0.0
 30
0.0
  3
_D_1
  1
_D_1
  0
LINE
  5
E9
330
E6
100
AcDbEntity
  8
치수문자_일반주서
 62
     0
370
    -2
100
AcDbLine
 10
100.9
 20
11.17607492872401
 30
0.0
 11
100.9
 21
41.11357492872401
 31
0.0
  0
LINE
  5
EA
330
E6
100
AcDbEntity
  8
치수문자_일반주서
 62
     0
370
    -2
100
AcDbLine
 10
-45.14999999999999
 20
8.953574928724002
 30
0.0
 11
-45.15
 21
41.11357492872401
 31
0.0
  0
LINE
  5
EB
330
E6
100
AcDbEntity
  8
치수문자_일반주서
 62
     0
370
    -2
100
AcDbLine
 10
96.9
 20
41.11357492872401
 30
0.0
 11
-41.15
 21
41.11357492872401
 31
0.0
  0
SOLID
  5
EC
330
E6
100
AcDbEntity
  8
치수문자_일반주서
 62
     0
100
AcDbTrace
 10
96.9
 20
40.44690826205734
 30
0.0
 11
96.9
 21
41.78024159539067
 31
0.0
 12
100.9
 22
41.11357492872401
 32
0.0
 13
100.9
 23
41.11357492872401
 33
0.0
  0
SOLID
  5
ED
330
E6
100
AcDbEntity
  8
치수문자_일반주서
 62
     0
100
AcDbTrace
 10
-41.15
 20
41.78024159539067
 30
0.0
 11
-41.15
 21
40.44690826205734
 31
0.0
 12
-45.15
 22
41.11357492872401
 32
0.0
 13
-45.15
 23
41.11357492872401
 33
0.0
  0
MTEXT
  5
EE
330
E6
100
AcDbEntity
  8
치수문자_일반주서
 62
     0
100
AcDbMText
 10
30.19646281638229
 20
45.98857492872401
 30
0.0
 40
4.0
 41
0.0
 71
     2
 72
     1
  1
\A1;146.05 [5 3/4]
  7
SLDTEXTSTYLE0
 73
     1
 44
1.0
  0
POINT
  5
EF
330
E6
100
AcDbEntity
  8
Defpoints
 62
     0
100
AcDbPoint
 10
100.9
 20
11.11357492872401
 30
0.0
  0
POINT
  5
F0
330
E6
100
AcDbEntity
  8
Defpoints
 62
     0
100
AcDbPoint
 10
-45.14999999999999
 20
8.891074928724002
 30
0.0
  0
POINT
  5
F1
330
E6
100
AcDbEntity
  8
Defpoints
 62
     0
100
AcDbPoint
 10
-45.14999999999999
 20
41.11357492872401
 30
0.0
  0
ENDBLK
  5
E8
330
E6
100
AcDbEntity
  8
0
100
AcDbBlockEnd
  0
BLOCK
  5
FB
330
FA
100
AcDbEntity
  8
0
100
AcDbBlockBegin
  2
_D_2
 70
     0
 10
0.0
 20
0.0
 30
0.0
  3
_D_2
  1
_D_2
  0
LINE
  5
FD
330
FA
100
AcDbEntity
  8
치수문자_일반주서
 62
     0
370
    -2
100
AcDbLine
 10
-42.99
 20
11.11357492872399
 30
0.0
 11
-60.15
 21
11.11357492872393
 31
0.0
  0
LINE
  5
FE
330
FA
100
AcDbEntity
  8
치수문자_일반주서
 62
     0
370
    -2
100
AcDbLine
 10
-42.99
 20
-11.111425071276
 30
0.0
 11
-60.14999999999992
 21
-11.11142507127607
 31
0.0
  0
LINE
  5
FF
330
FA
100
AcDbEntity
  8
치수문자_일반주서
 62
     0
370
    -2
100
AcDbLine
 10
-60.15
 20
11.11357492872393
 30
0.0
 11
-60.15000000000014
 21
51.86357492872393
 31
0.0
  0
LINE
  5
100
330
FA
100
AcDbEntity
  8
치수문자_일반주서
 62
     0
370
    -2
100
AcDbLine
 10
-60.15
 20
11.11357492872393
 30
0.0
 11
-60.14999999999992
 21
-11.11142507127607
 31
0.0
  0
LINE
  5
101
330
FA
100
AcDbEntity
  8
치수문자_일반주서
 62
     0
370
    -2
100
AcDbLine
 10
-60.15000000000001
 20
15.11357492872393
 30
0.0
 11
-60.15000000000003
 21
19.11357492872393
 31
0.0
  0
LINE
  5
102
330
FA
100
AcDbEntity
  8
치수문자_일반주서
 62
     0
370
    -2
100
AcDbLine
 10
-60.14999999999991
 20
-15.11142507127607
 30
0.0
 11
-60.14999999999989
 21
-19.11142507127607
 31
0.0
  0
SOLID
  5
103
330
FA
100
AcDbEntity
  8
치수문자_일반주서
 62
     0
100
AcDbTrace
 10
-60.81666666666668
 20
15.11357492872393
 30
0.0
 11
-59.48333333333335
 21
15.11357492872393
 31
0.0
 12
-60.15
 22
11.11357492872393
 32
0.0
 13
-60.15
 23
11.11357492872393
 33
0.0
  0
SOLID
  5
104
330
FA
100
AcDbEntity
  8
치수문자_일반주서
 62
     0
100
AcDbTrace
 10
-59.48333333333324
 20
-15.11142507127606
 30
0.0
 11
-60.81666666666657
 21
-15.11142507127607
 31
0.0
 12
-60.14999999999992
 22
-11.11142507127607
 32
0.0
 13
-60.14999999999992
 23
-11.11142507127607
 33
0.0
  0
MTEXT
  5
105
330
FA
100
AcDbEntity
  8
치수문자_일반주서
 62
     0
100
AcDbMText
 10
-65.02500000000009
 20
35.48857492872392
 30
0.0
 40
4.0
 41
0.0
 71
     2
 72
     1
  1
\A1;%%c22.23 [7/8]
  7
SLDTEXTSTYLE0
 11
-3.516746948643917E-15
 21
1.0
 31
0.0
 73
     1
 44
1.0
  0
POINT
  5
1D8
330
FA
100
AcDbEntity
  8
Defpoints
 62
     0
100
AcDbPoint
 10
-42.9275
 20
11.11357492872399
 30
0.0
  0
POINT
  5
1D9
330
FA
100
AcDbEntity
  8
Defpoints
 62
     0
100
AcDbPoint
 10
-42.9275
 20
-11.111425071276
 30
0.0
  0
POINT
  5
1DA
330
FA
100
AcDbEntity
  8
Defpoints
 62
     0
100
AcDbPoint
 10
-60.14999999999992
 20
-11.11142507127607
 30
0.0
  0
ENDBLK
  5
FC
330
FA
100
AcDbEntity
  8
0
100
AcDbBlockEnd
  0
BLOCK
  5
10F
330
10E
100
AcDbEntity
  8
0
100
AcDbBlockBegin
  2
_D_3
 70
     0
 10
0.0
 20
0.0
 30
0.0
  3
_D_3
  1
_D_3
  0
LINE
  5
111
330
10E
100
AcDbEntity
  8
치수문자_일반주서
 62
     0
370
    -2
100
AcDbLine
 10
100.9625
 20
-11.11142507127599
 30
0.0
 11
115.9000000000001
 21
-11.11142507127594
 31
0.0
  0
LINE
  5
112
330
10E
100
AcDbEntity
  8
치수문자_일반주서
 62
     0
370
    -2
100
AcDbLine
 10
100.9625
 20
11.11357492872401
 30
0.0
 11
115.9
 21
11.11357492872406
 31
0.0
  0
LINE
  5
113
330
10E
100
AcDbEntity
  8
치수문자_일반주서
 62
     0
370
    -2
100
AcDbLine
 10
115.9
 20
11.11357492872406
 30
0.0
 11
115.8999999999999
 21
57.32270972708255
 31
0.0
  0
LINE
  5
114
330
10E
100
AcDbEntity
  8
치수문자_일반주서
 62
     0
370
    -2
100
AcDbLine
 10
115.9000000000001
 20
-11.11142507127594
 30
0.0
 11
115.9
 21
11.11357492872406
 31
0.0
  0
LINE
  5
115
330
10E
100
AcDbEntity
  8
치수문자_일반주서
 62
     0
370
    -2
100
AcDbLine
 10
115.9000000000001
 20
-15.11142507127594
 30
0.0
 11
115.9000000000001
 21
-19.11142507127594
 31
0.0
  0
LINE
  5
116
330
10E
100
AcDbEntity
  8
치수문자_일반주서
 62
     0
370
    -2
100
AcDbLine
 10
115.9
 20
15.11357492872406
 30
0.0
 11
115.9
 21
19.11357492872406
 31
0.0
  0
SOLID
  5
117
330
10E
100
AcDbEntity
  8
치수문자_일반주서
 62
     0
100
AcDbTrace
 10
116.5666666666668
 20
-15.11142507127594
 30
0.0
 11
115.2333333333334
 21
-15.11142507127594
 31
0.0
 12
115.9000000000001
 22
-11.11142507127594
 32
0.0
 13
115.9000000000001
 23
-11.11142507127594
 33
0.0
  0
SOLID
  5
118
330
10E
100
AcDbEntity
  8
치수문자_일반주서
 62
     0
100
AcDbTrace
 10
115.2333333333333
 20
15.11357492872406
 30
0.0
 11
116.5666666666667
 21
15.11357492872406
 31
0.0
 12
115.9
 22
11.11357492872406
 32
0.0
 13
115.9
 23
11.11357492872406
 33
0.0
  0
MTEXT
  5
119
330
10E
100
AcDbEntity
  8
치수문자_일반주서
 62
     0
100
AcDbMText
 10
111.0249999999999
 20
40.94770972708254
 30
0.0
 40
4.0
 41
0.0
 71
     2
 72
     1
  1
\A1;%%c22.23 [7/8]
  7
SLDTEXTSTYLE0
 11
-3.197042680585377E-15
 21
1.0
 31
0.0
 73
     1
 44
1.0
  0
POINT
  5
11A
330
10E
100
AcDbEntity
  8
Defpoints
 62
     0
100
AcDbPoint
 10
100.9
 20
-11.11142507127599
 30
0.0
  0
POINT
  5
11B
330
10E
100
AcDbEntity
  8
Defpoints
 62
     0
100
AcDbPoint
 10
100.9
 20
11.11357492872401
 30
0.0
  0
POINT
  5
11C
330
10E
100
AcDbEntity
  8
Defpoints
 62
     0
100
AcDbPoint
 10
115.9
 20
11.11357492872406
 30
0.0
  0
ENDBLK
  5
110
330
10E
100
AcDbEntity
  8
0
100
AcDbBlockEnd
  0
BLOCK
  5
128
330
127
100
AcDbEntity
  8
0
100
AcDbBlockBegin
  2
SW_DOWELSYMBOL_0
 70
     0
 10
0.0
 20
0.0
 30
0.0
  3
SW_DOWELSYMBOL_0
  1
SW_DOWELSYMBOL_0
  0
CIRCLE
  5
12A
330
127
100
AcDbEntity
  8
해칭선
 62
     0
100
AcDbCircle
 10
0.0
 20
0.0
 30
0.0
 40
3.000000000000001
  0
HATCH
  5
12B
330
127
100
AcDbEntity
  8
0
  6
Continuous
 62
     0
370
     0
100
AcDbHatch
 10
0.0
 20
0.0
 30
0.0
210
0.0
220
0.0
230
1.0
  2
SOLID
 70
     1
 71
     0
 91
        1
 92
        0
 93
        3
 72
     2
 10
0.0
 20
0.0
 40
3.000000000000001
 50
0.0
 51
90.0
 73
     1
 72
     1
 10
0.0
 20
3.000000000000001
 11
0.0
 21
0.0
 72
     1
 10
0.0
 20
0.0
 11
3.000000000000001
 21
0.0
 97
        0
 75
     0
 76
     1
 98
        1
 10
0.0
 20
0.0
  0
HATCH
  5
12C
330
127
100
AcDbEntity
  8
0
  6
Continuous
 62
     0
370
     0
100
AcDbHatch
 10
0.0
 20
0.0
 30
0.0
210
0.0
220
0.0
230
1.0
  2
SOLID
 70
     1
 71
     0
 91
        1
 92
        0
 93
        3
 72
     2
 10
0.0
 20
0.0
 40
3.000000000000001
 50
180.0
 51
270.0000000000007
 73
     1
 72
     1
 10
0.0
 20
-3.000000000000001
 11
0.0
 21
0.0
 72
     1
 10
0.0
 20
0.0
 11
-3.000000000000001
 21
0.0
 97
        0
 75
     0
 76
     1
 98
        1
 10
0.0
 20
0.0
  0
ENDBLK
  5
129
330
127
100
AcDbEntity
  8
0
100
AcDbBlockEnd
  0
BLOCK
  5
18A
330
189
100
AcDbEntity
  8
0
100
AcDbBlockBegin
  2
*D7
 70
     1
 10
0.0
 20
0.0
 30
0.0
  3
*D7
  1
*D7
  0
LINE
  5
18C
330
189
100
AcDbEntity
  8
치수문자_일반주서
 62
     0
370
    -2
100
AcDbLine
 10
76.20000000000002
 20
18.21411485166099
 30
0.0
 11
76.20000000000002
 21
33.15161485166099
 31
0.0
  0
LINE
  5
18D
330
189
100
AcDbEntity
  8
치수문자_일반주서
 62
     0
370
    -2
100
AcDbLine
 10
0.0
 20
18.21382483370809
 30
0.0
 11
0.0
 21
33.15161485166099
 31
0.0
  0
LINE
  5
18E
330
189
100
AcDbEntity
  8
치수문자_일반주서
 62
     0
370
    -2
100
AcDbLine
 10
72.20000000000002
 20
33.15161485166099
 30
0.0
 11
4.0
 21
33.15161485166099
 31
0.0
  0
SOLID
  5
18F
330
189
100
AcDbEntity
  8
치수문자_일반주서
 62
     0
100
AcDbTrace
 10
72.20000000000002
 20
32.48494818499433
 30
0.0
 11
72.20000000000002
 21
33.81828151832766
 31
0.0
 12
76.20000000000002
 22
33.15161485166099
 32
0.0
 13
76.20000000000002
 23
33.15161485166099
 33
0.0
  0
SOLID
  5
190
330
189
100
AcDbEntity
  8
치수문자_일반주서
 62
     0
100
AcDbTrace
 10
4.0
 20
33.81828151832766
 30
0.0
 11
4.0
 21
32.48494818499433
 31
0.0
 12
0.0
 22
33.15161485166099
 32
0.0
 13
0.0
 23
33.15161485166099
 33
0.0
  0
MTEXT
  5
191
330
189
100
AcDbEntity
  8
치수문자_일반주서
 62
     0
100
AcDbMText
 10
40.83893007191559
 20
38.02661485166099
 30
0.0
 40
4.0
 41
0.0
 71
     2
 72
     1
  1
\A1;76.2 [3]
  7
SLDTEXTSTYLE0
 73
     1
 44
1.0
  0
POINT
  5
192
330
189
100
AcDbEntity
  8
Defpoints
 62
     0
100
AcDbPoint
 10
76.20000000000002
 20
18.15161485166099
 30
0.0
  0
POINT
  5
193
330
189
100
AcDbEntity
  8
Defpoints
 62
     0
100
AcDbPoint
 10
0.0
 20
18.15132483370809
 30
0.0
  0
POINT
  5
194
330
189
100
AcDbEntity
  8
Defpoints
 62
     0
100
AcDbPoint
 10
0.0
 20
33.15161485166099
 30
0.0
  0
ENDBLK
  5
18B
330
189
100
AcDbEntity
  8
0
100
AcDbBlockEnd
  0
BLOCK
  5
199
330
198
100
AcDbEntity
  8
0
100
AcDbBlockBegin
  2
*D8
 70
     1
 10
0.0
 20
0.0
 30
0.0
  3
*D8
  1
*D8
  0
LINE
  5
19B
330
198
100
AcDbEntity
  8
치수문자_일반주서
 62
     0
370
    -2
100
AcDbLine
 10
263.5883378764543
 20
-15.0745246037464
 30
0.0
 11
263.5883378764543
 21
-0.1370246037463971
 31
0.0
  0
LINE
  5
19C
330
198
100
AcDbEntity
  8
치수문자_일반주서
 62
     0
370
    -2
100
AcDbLine
 10
187.3883378764542
 20
-15.0748146216993
 30
0.0
 11
187.3883378764542
 21
-0.1370246037463971
 31
0.0
  0
LINE
  5
19D
330
198
100
AcDbEntity
  8
치수문자_일반주서
 62
     0
370
    -2
100
AcDbLine
 10
259.5883378764543
 20
-0.1370246037463971
 30
0.0
 11
191.3883378764542
 21
-0.1370246037463971
 31
0.0
  0
SOLID
  5
19E
330
198
100
AcDbEntity
  8
치수문자_일반주서
 62
     0
100
AcDbTrace
 10
259.5883378764543
 20
-0.8036912704130638
 30
0.0
 11
259.5883378764543
 21
0.5296420629202695
 31
0.0
 12
263.5883378764543
 22
-0.1370246037463971
 32
0.0
 13
263.5883378764543
 23
-0.1370246037463971
 33
0.0
  0
SOLID
  5
19F
330
198
100
AcDbEntity
  8
치수문자_일반주서
 62
     0
100
AcDbTrace
 10
191.3883378764542
 20
0.5296420629202695
 30
0.0
 11
191.3883378764542
 21
-0.8036912704130638
 31
0.0
 12
187.3883378764542
 22
-0.1370246037463971
 32
0.0
 13
187.3883378764542
 23
-0.1370246037463971
 33
0.0
  0
MTEXT
  5
1A0
330
198
100
AcDbEntity
  8
치수문자_일반주서
 62
     0
100
AcDbMText
 10
228.2272679483698
 20
4.737975396253603
 30
0.0
 40
4.0
 41
0.0
 71
     2
 72
     1
  1
\A1;76.2 [3]
  7
SLDTEXTSTYLE0
 73
     1
 44
1.0
  0
POINT
  5
1A1
330
198
100
AcDbEntity
  8
Defpoints
 62
     0
100
AcDbPoint
 10
263.5883378764543
 20
-15.1370246037464
 30
0.0
  0
POINT
  5
1A2
330
198
100
AcDbEntity
  8
Defpoints
 62
     0
100
AcDbPoint
 10
187.3883378764542
 20
-15.1373146216993
 30
0.0
  0
POINT
  5
1A3
330
198
100
AcDbEntity
  8
Defpoints
 62
     0
100
AcDbPoint
 10
187.3883378764542
 20
-0.1370246037463971
 30
0.0
  0
ENDBLK
  5
19A
330
198
100
AcDbEntity
  8
0
100
AcDbBlockEnd
  0
ENDSEC
  0
SECTION
  2
ENTITIES
  0
LINE
  5
96
330
1F
100
AcDbEntity
  8
0
  6
Continuous
 62
     1
370
    15
100
AcDbLine
 10
96.76571024132511
 20
3.292502522474895
 30
0.0
 11
96.68741495679657
 21
3.334826858085118
 31
0.0
1001
PE_URL
1000

  0
LINE
  5
97
330
1F
100
AcDbEntity
  8
0
  6
Continuous
 62
     1
370
    15
100
AcDbLine
 10
42.08446070728748
 20
-11.11142507127601
 30
0.0
 11
48.86064149507747
 21
-11.11142507127601
 31
0.0
1001
PE_URL
1000

  0
LINE
  5
98
330
1F
100
AcDbEntity
  8
0
  6
Continuous
 62
     1
370
    15
100
AcDbLine
 10
72.31686133016095
 20
-11.11142507127601
 30
0.0
 11
79.09168866903107
 21
-11.11142507127601
 31
0.0
1001
PE_URL
1000

  0
LINE
  5
99
330
1F
100
AcDbEntity
  8
0
  6
Continuous
 62
     1
370
    15
100
AcDbLine
 10
18.62443527311463
 20
11.113574928724
 30
0.0
 11
12.00000000000001
 21
11.113574928724
 31
0.0
1001
PE_URL
1000

  0
LINE
  5
9A
330
1F
100
AcDbEntity
  8
0
  6
Continuous
 62
     1
370
    15
100
AcDbLine
 10
48.86064149507758
 20
11.113574928724
 30
0.0
 11
42.08446070728745
 21
11.113574928724
 31
0.0
1001
PE_URL
1000

  0
LINE
  5
9B
330
1F
100
AcDbEntity
  8
0
  6
Continuous
 62
     1
370
    15
100
AcDbLine
 10
12.00000000000001
 20
-11.11142507127601
 30
0.0
 11
18.62443527311463
 21
-11.11142507127601
 31
0.0
1001
PE_URL
1000

  0
LINE
  5
9C
330
1F
100
AcDbEntity
  8
0
  6
Continuous
 62
     1
370
    15
100
AcDbLine
 10
79.09168866903104
 20
11.113574928724
 30
0.0
 11
72.31686133016115
 21
11.113574928724
 31
0.0
1001
PE_URL
1000

  0
LINE
  5
9D
330
1F
100
AcDbEntity
  8
외형선
  6
Continuous
370
    15
100
AcDbLine
 10
11.84983740750349
 20
-11.11142507127601
 30
0.0
 11
12.00000000000001
 21
-11.11142507127601
 31
0.0
  0
LINE
  5
9E
330
1F
100
AcDbEntity
  8
외형선
  6
Continuous
370
    15
100
AcDbLine
 10
-42.92749999999999
 20
-11.11142507127601
 30
0.0
 11
11.4999079384839
 21
-11.11142507127601
 31
0.0
  0
LINE
  5
9F
330
1F
100
AcDbEntity
  8
외형선
  6
Continuous
370
    15
100
AcDbLine
 10
11.4999079384839
 20
11.11357492872399
 30
0.0
 11
-11.656925
 21
11.11357492872399
 31
0.0
1001
PE_URL
1000

  0
LINE
  5
A0
330
1F
100
AcDbEntity
  8
외형선
  6
Continuous
370
    15
100
AcDbLine
 10
12.00000000000001
 20
11.11357492872399
 30
0.0
 11
11.8498374075034
 21
11.11357492872399
 31
0.0
  0
LINE
  5
A1
330
1F
100
AcDbEntity
  8
외형선
  6
Continuous
370
    15
100
AcDbLine
 10
-42.92749999999999
 20
11.11357492872399
 30
0.0
 11
-45.14999999999999
 21
8.891074928724002
 31
0.0
  0
LINE
  5
A2
330
1F
100
AcDbEntity
  8
외형선
  6
Continuous
370
    15
100
AcDbLine
 10
-45.14999999999999
 20
-8.888925071276017
 30
0.0
 11
-42.92749999999999
 21
-11.11142507127601
 31
0.0
  0
SPLINE
  5
A3
330
1F
100
AcDbEntity
  8
0
  6
Continuous
 62
     1
370
    15
100
AcDbSpline
210
0.0
220
0.0
230
1.0
 70
     8
 71
     3
 72
    30
 73
    26
 74
     0
 42
0.000000001
 43
0.00000001
 40
0.0
 40
0.0
 40
0.0
 40
0.0
 40
0.0379385677014011
 40
0.0811736458877391
 40
0.1244109201264725
 40
0.16765101703988
 40
0.2108945612002525
 40
0.255125798322492
 40
0.2993563648864475
 40
0.3435850133766863
 40
0.3878119573518352
 40
0.4320374109778239
 40
0.4762615889521114
 40
0.5204847064275117
 40
0.5647069789356719
 40
0.6089286223102603
 40
0.6531498526099211
 40
0.6973708860410643
 40
0.7415919388805361
 40
0.7858132273982381
 40
0.8300349677797518
 40
0.8742573760490274
 40
0.9184806679911962
 40
0.9627050590755634
 40
1.0
 40
1.0
 40
1.0
 40
1.0
 10
18.62443527311463
 20
11.0978931395361
 30
0.0
 10
19.53740773889353
 20
11.08255698276522
 30
0.0
 10
21.49081051955929
 20
11.04974362595122
 30
0.0
 10
24.48472178531613
 20
10.64440916015586
 30
0.0
 10
27.60624298408685
 20
9.970329715190925
 30
0.0
 10
30.7280090818707
 20
9.027114451548663
 30
0.0
 10
33.87374503434067
 20
7.840059579190752
 30
0.0
 10
37.04337797900865
 20
6.431909651293957
 30
0.0
 10
40.2366960346241
 20
4.836803452228345
 30
0.0
 10
43.42988090886067
 20
3.10888386883003
 30
0.0
 10
46.62291873775987
 20
1.295677139889141
 30
0.0
 10
49.81582731772307
 20
-0.5530519868522374
 30
0.0
 10
53.0086254419069
 20
-2.386545382854973
 30
0.0
 10
56.20133169058064
 20
-4.154471917480177
 30
0.0
 10
59.39396474647652
 20
-5.808300540466091
 30
0.0
 10
62.58654330136599
 20
-7.302635030976182
 30
0.0
 10
65.77908607265366
 20
-8.596453536986667
 30
0.0
 10
68.97161178852406
 20
-9.654253571129631
 30
0.0
 10
72.16413918877171
 20
-10.44695288634155
 30
0.0
 10
75.35668699427958
 20
-10.95295974534765
 30
0.0
 10
78.54927398619029
 20
-11.15774866446655
 30
0.0
 10
81.74191867765674
 20
-11.0580535080133
 30
0.0
 10
84.93464050564975
 20
-10.64779613453813
 30
0.0
 10
87.96066495075888
 20
-10.00645561222906
 30
0.0
 10
89.92246133768629
 20
-9.38084485309674
 30
0.0
 10
90.81997949139651
 20
-9.094629108578472
 30
0.0
1001
PE_URL
1000

  0
SPLINE
  5
A4
330
1F
100
AcDbEntity
  8
0
  6
Continuous
 62
     1
370
    15
100
AcDbSpline
210
0.0
220
0.0
230
1.0
 70
     8
 71
     3
 72
    30
 73
    26
 74
     0
 42
0.000000001
 43
0.00000001
 40
0.0
 40
0.0
 40
0.0
 40
0.0
 40
0.0452646224441459
 40
0.0905272428375686
 40
0.1357880796101091
 40
0.1810473518269704
 40
0.2263052791112575
 40
0.271562081566089
 40
0.31681797969635
 40
0.3620731943301277
 40
0.4073279465399116
 40
0.4525824575636004
 40
0.4978369487253829
 40
0.5430916413565542
 40
0.5883467567163274
 40
0.633602515912698
 40
0.6788591398234258
 40
0.7241168490171916
 40
0.7693758636749901
 40
0.8146364035118194
 40
0.8598986876987255
 40
0.9051629347852598
 40
0.9504278681012093
 40
0.9946820257987428
 40
1.0
 40
1.0
 40
1.0
 40
1.0
 10
100.9
 20
-11.11142507127599
 30
0.0
 10
99.83553842721935
 20
-10.98852354519638
 30
0.0
 10
97.70666236271052
 20
-10.82445452478037
 30
0.0
 10
94.51345033890013
 20
-10.19966043672221
 30
0.0
 10
91.32038702835442
 20
-9.316628934369223
 30
0.0
 10
88.12745674197853
 20
-8.171942736170347
 30
0.0
 10
84.93464013264932
 20
-6.804450530955356
 30
0.0
 10
81.7419187775987
 20
-5.249713539733837
 30
0.0
 10
78.54927395941161
 20
-3.550948986932337
 30
0.0
 10
75.3566870014547
 20
-1.754650387375567
 30
0.0
 10
72.16413918684958
 20
0.0898324901293085
 30
0.0
 10
68.97161178903767
 20
1.93187694234033
 30
0.0
 10
65.77908607252138
 20
3.720914671831395
 30
0.0
 10
62.58654330138159
 20
5.407835946851137
 30
0.0
 10
59.39396474654645
 20
6.946331237233987
 30
0.0
 10
56.20133169028558
 20
8.294167850221541
 30
0.0
 10
53.00862544301723
 20
9.414330278444643
 30
0.0
 10
49.81582731357654
 20
10.27610391453428
 30
0.0
 10
46.62291875323623
 20
10.8556650615845
 30
0.0
 10
43.42988085109895
 20
11.13767964137861
 30
0.0
 10
40.23669625020666
 20
11.11219950521866
 30
0.0
 10
37.04337717440087
 20
10.78809650428341
 30
0.0
 10
33.87374800888284
 20
10.14852823868183
 30
0.0
 10
31.64354469838796
 20
9.568239180630284
 30
0.0
 10
30.47782260330494
 20
9.145972176624715
 30
0.0
 10
30.3527668554476
 20
9.100672429623147
 30
0.0
1001
PE_URL
1000

  0
SPLINE
  5
A5
330
1F
100
AcDbEntity
  8
0
  6
Continuous
 62
     1
370
    15
100
AcDbSpline
210
0.0
220
0.0
230
1.0
 70
     8
 71
     3
 72
    23
 73
    19
 74
     0
 42
0.000000001
 43
0.00000001
 40
0.0
 40
0.0
 40
0.0
 40
0.0
 40
0.0642353855304189
 40
0.1284712293334965
 40
0.192708467540096
 40
0.2569480352658865
 40
0.3211908659314585
 40
0.385437890585072
 40
0.4496900372290736
 40
0.5154097183746361
 40
0.5811284031909192
 40
0.6468442380938542
 40
0.7125575403932377
 40
0.77826862830121
 40
0.8439778208196675
 40
0.9096854376270833
 40
0.9753917989648083
 40
1.0
 40
1.0
 40
1.0
 40
1.0
 10
12.00000000000003
 20
3.751267458287427
 30
0.0
 10
13.04035776970219
 20
3.176290118594026
 30
0.0
 10
15.12108073130095
 20
2.026331337162971
 30
0.0
 10
18.24219467849355
 20
0.2218668777602504
 30
0.0
 10
21.36339024972511
 20
-1.581340991558477
 30
0.0
 10
24.48472153666484
 20
-3.344941279695133
 30
0.0
 10
27.60624305071729
 20
-5.020254695775516
 30
0.0
 10
30.72800906402102
 20
-6.563966394508904
 30
0.0
 10
33.87374503927341
 20
-7.945752351618272
 30
0.0
 10
37.04337797756695
 20
-9.124147682955764
 30
0.0
 10
40.23669603541049
 20
-10.06081905052352
 30
0.0
 10
43.429880907157
 20
-10.72114635416661
 30
0.0
 10
46.6229187437878
 20
-11.08738242624925
 30
0.0
 10
49.81582729531616
 20
-11.14802317157668
 30
0.0
 10
53.00862552550347
 20
-10.90688712339511
 30
0.0
 10
56.2013313786109
 20
-10.35017954036711
 30
0.0
 10
58.72833676287316
 20
-9.732194227114697
 30
0.0
 10
60.19110697286644
 20
-9.221089237313967
 30
0.0
 10
60.58967108534225
 20
-9.081827372907505
 30
0.0
1001
PE_URL
1000

  0
SPLINE
  5
A6
330
1F
100
AcDbEntity
  8
0
  6
Continuous
 62
     1
370
    15
100
AcDbSpline
210
0.0
220
0.0
230
1.0
 70
     8
 71
     3
 72
    27
 73
    23
 74
     0
 42
0.000000001
 43
0.00000001
 40
0.0
 40
0.0
 40
0.0
 40
0.0
 40
0.0025321051467418
 40
0.0554618340854442
 40
0.1083915397936377
 40
0.1613214811406638
 40
0.2142519169115562
 40
0.2671831057144848
 40
0.3201153058883354
 40
0.3730487754104943
 40
0.4259837718049105
 40
0.4789205520505022
 40
0.5318593724899804
 40
0.5848004887391559
 40
0.6377424076030569
 40
0.6895021221233377
 40
0.7412577105128336
 40
0.7930099203440237
 40
0.8447595016430879
 40
0.8965072063472898
 40
0.9482537877594
 40
1.0
 40
1.0
 40
1.0
 40
1.0
 10
72.31686133016098
 20
-11.1044749168297
 30
0.0
 10
72.26595224631328
 20
-11.10677516061376
 30
0.0
 10
71.15086776199163
 20
-11.15715843133671
 30
0.0
 10
68.97161210685911
 20
-10.97260990119751
 30
0.0
 10
65.77908598735567
 20
-10.53032834145431
 30
0.0
 10
62.58654332422173
 20
-9.764274974706614
 30
0.0
 10
59.39396474035242
 20
-8.739416604823386
 30
0.0
 10
56.20133169222118
 20
-7.472109263553395
 30
0.0
 10
53.008625441469
 20
-6.000292686971416
 30
0.0
 10
49.81582731783406
 20
-4.363520887461029
 30
0.0
 10
46.62291873775384
 20
-2.606948717506001
 30
0.0
 10
43.4298809087739
 20
-0.7787364910927166
 30
0.0
 10
40.23669603497723
 20
1.070915741852205
 30
0.0
 10
37.04337797768315
 20
2.891190406976781
 30
0.0
 10
33.87374503924302
 20
4.619195461565464
 30
0.0
 10
30.72800906402912
 20
6.21027477924707
 30
0.0
 10
27.60624305071514
 20
7.626509813570832
 30
0.0
 10
24.48472153666545
 20
8.842165013119388
 30
0.0
 10
21.36339024972499
 20
9.827277874252125
 30
0.0
 10
18.24219467849369
 20
10.54889686806229
 30
0.0
 10
15.121080731301
 20
11.01464598063893
 30
0.0
 10
13.04035776970226
 20
11.08037377420975
 30
0.0
 10
12.00000000000011
 20
11.1132375537656
 30
0.0
1001
PE_URL
1000

  0
SPLINE
  5
A7
330
1F
100
AcDbEntity
  8
외형선
  6
Continuous
370
    15
100
AcDbSpline
210
0.0
220
0.0
230
1.0
 70
    24
 71
     3
 72
    15
 73
    11
 74
     0
 42
0.000000001
 43
0.00000001
 40
0.0
 40
0.0
 40
0.0
 40
0.0
 40
0.1421298009933486
 40
0.2886962202097353
 40
0.4259495308233383
 40
0.5671831967429355
 40
0.7044365073565397
 40
0.8456701732761372
 40
0.982923483889742
 40
1.0
 40
1.0
 40
1.0
 40
1.0
 10
12.0
 20
11.11323755376628
 30
0.0
 10
12.00000000000001
 20
10.74321623198145
 30
0.0
 10
12.00000000000003
 20
9.991623277866992
 30
0.0
 10
12.00000000000004
 20
8.838066672870161
 30
0.0
 10
11.99999999999996
 20
7.69881287046721
 30
0.0
 10
11.99999999999998
 20
6.622518329465759
 30
0.0
 10
12.00000000000009
 20
5.602191891280705
 30
0.0
 10
11.99999999999993
 20
4.70436529480713
 30
0.0
 10
12.00000000000008
 20
4.11313303629381
 30
0.0
 10
12.00000000000002
 20
3.8791708511982
 30
0.0
 10
12.00000000000004
 20
3.853283055509006
 30
0.0
  0
LINE
  5
A8
330
1F
100
AcDbEntity
  8
0
  6
Continuous
 62
     1
370
    15
100
AcDbLine
 10
100.9
 20
-10.06330906488048
 30
0.0
 11
100.9
 21
0.9532089223286047
 31
0.0
1001
PE_URL
1000

  0
SPLINE
  5
A9
330
1F
100
AcDbEntity
  8
0
  6
Continuous
 62
     1
370
    15
100
AcDbSpline
210
0.0
220
0.0
230
1.0
 70
     8
 71
     3
 72
    24
 73
    20
 74
     0
 42
0.000000001
 43
0.00000001
 40
0.0
 40
0.0
 40
0.0
 40
0.0
 40
0.0183554600848586
 40
0.0797087943974438
 40
0.1410606574527723
 40
0.2024113482634161
 40
0.2637611662609491
 40
0.3251104111890595
 40
0.3864593829964355
 40
0.4478083817294823
 40
0.5091577074249719
 40
0.5705076600026959
 40
0.6318585391582107
 40
0.6932106442557536
 40
0.7545642742214084
 40
0.815919727436612
 40
0.877277301632072
 40
0.9386372937821786
 40
1.0
 40
1.0
 40
1.0
 40
1.0
 10
48.86064149507758
 20
11.0815449981384
 30
0.0
 10
49.17904617422199
 20
11.09074244694197
 30
0.0
 10
50.56172211847918
 20
11.13068247308547
 30
0.0
 10
53.00862453337493
 20
10.89228441481839
 30
0.0
 10
56.20133193401599
 20
10.36616070703884
 30
0.0
 10
59.39396468124057
 20
9.532990677002273
 30
0.0
 10
62.58654331888003
 20
8.444171676717529
 30
0.0
 10
65.77908606783271
 20
7.121954656886553
 30
0.0
 10
68.97161179029399
 20
5.604685159291591
 30
0.0
 10
72.16413918651295
 20
3.933464544233042
 30
0.0
 10
75.35668700154494
 20
2.154318199853676
 30
0.0
 10
78.54927395938745
 20
0.3160358452393958
 30
0.0
 10
81.74191877760512
 20
-1.530874794030754
 30
0.0
 10
84.93464013264756
 20
-3.33584542868226
 30
0.0
 10
88.12745674197905
 20
-5.048839730521826
 30
0.0
 10
91.32038702835428
 20
-6.624634161314108
 30
0.0
 10
94.51345033890016
 20
-8.013221850598
 30
0.0
 10
97.70666236271057
 20
-9.201627853275829
 30
0.0
 10
99.83553842721938
 20
-9.77607775960618
 30
0.0
 10
100.9
 20
-10.06330906488048
 30
0.0
1001
PE_URL
1000

  0
SPLINE
  5
AA
330
1F
100
AcDbEntity
  8
0
  6
Continuous
 62
     1
370
    15
100
AcDbSpline
210
0.0
220
0.0
230
1.0
 70
     8
 71
     3
 72
    20
 73
    16
 74
     0
 42
0.000000001
 43
0.00000001
 40
0.0
 40
0.0
 40
0.0
 40
0.0
 40
0.0792173731635657
 40
0.1584312425488899
 40
0.2376419904288666
 40
0.3168500001883338
 40
0.3960556561885104
 40
0.4752593436306849
 40
0.5544614484192749
 40
0.6336623570243323
 40
0.7128624563436362
 40
0.7920621335644478
 40
0.8712617760250434
 40
0.9504617710761369
 40
1.0
 40
1.0
 40
1.0
 40
1.0
 10
100.9
 20
0.9532089223286042
 30
0.0
 10
99.83553842721926
 20
1.562912404942033
 30
0.0
 10
97.7066623627102
 20
2.782292403031368
 30
0.0
 10
94.51345033890155
 20
4.528019485248638
 30
0.0
 10
91.32038702834899
 20
6.151299597878368
 30
0.0
 10
88.12745674199869
 20
7.605200545100944
 30
0.0
 10
84.93464013257417
 20
8.850446823010733
 30
0.0
 10
81.74191877787905
 20
9.852708777402142
 30
0.0
 10
78.54927395836555
 20
10.5844559643939
 30
0.0
 10
75.3566870053586
 20
11.02585210721199
 30
0.0
 10
72.16413917228016
 20
11.16382682820823
 30
0.0
 10
68.97161184341104
 20
10.99818227411253
 30
0.0
 10
65.77908586959694
 20
10.52007730660521
 30
0.0
 10
62.98510736687837
 20
9.883424996020091
 30
0.0
 10
61.25529836790115
 20
9.30612225166484
 30
0.0
 10
60.58967108534238
 20
9.08397723035549
 30
0.0
1001
PE_URL
1000

  0
SPLINE
  5
AB
330
1F
100
AcDbEntity
  8
0
  6
Continuous
 62
     1
370
    15
100
AcDbSpline
210
0.0
220
0.0
230
1.0
 70
     8
 71
     3
 72
    11
 73
     7
 74
     0
 42
0.000000001
 43
0.00000001
 40
0.0
 40
0.0
 40
0.0
 40
0.0
 40
0.3167998554436252
 40
0.6335856988543332
 40
0.9503590589876565
 40
1.0
 40
1.0
 40
1.0
 40
1.0
 10
100.9
 20
11.11357492872401
 30
0.0
 10
99.83553832401054
 20
10.99187548384647
 30
0.0
 10
97.70666205308862
 20
10.8302105726667
 30
0.0
 10
94.51345157730373
 20
10.18738651358369
 30
0.0
 10
92.21790730807439
 20
9.601814965640719
 30
0.0
 10
90.9867709297817
 20
9.157036498502013
 30
0.0
 10
90.81997949139651
 20
9.09677896602646
 30
0.0
1001
PE_URL
1000

  0
SPLINE
  5
AC
330
1F
100
AcDbEntity
  8
0
  6
Continuous
 62
     1
370
    15
100
AcDbSpline
210
0.0
220
0.0
230
1.0
 70
     8
 71
     3
 72
    17
 73
    13
 74
     0
 42
0.000000001
 43
0.00000001
 40
0.0
 40
0.0
 40
0.0
 40
0.0
 40
0.0614164020434731
 40
0.1675590020422787
 40
0.2737032112178415
 40
0.377477197556184
 40
0.4812429113404044
 40
0.5850018513920666
 40
0.6887555214522022
 40
0.7925054290934103
 40
0.8962530846260189
 40
1.0
 40
1.0
 40
1.0
 40
1.0
 10
42.08446070728748
 20
-11.074167553481
 30
0.0
 10
41.46855374939805
 20
-11.07883821257834
 30
0.0
 10
39.78820856828836
 20
-11.09158091568679
 30
0.0
 10
37.0433772170728
 20
-10.77320992033412
 30
0.0
 10
33.87374523798965
 20
-10.16354871891216
 30
0.0
 10
30.72800901128884
 20
-9.273057271430488
 30
0.0
 10
27.60624306484537
 20
-8.149479607497812
 30
0.0
 10
24.4847215328797
 20
-6.811054303065914
 30
0.0
 10
21.36339025073897
 20
-5.294150116987453
 30
0.0
 10
18.24219467822328
 20
-3.63819305876128
 30
0.0
 10
15.12108073136861
 20
-1.886928266671705
 30
0.0
 10
13.04035776972477
 20
-0.6859855419716416
 30
0.0
 10
12.00000000000011
 20
-0.0855163215767348
 30
0.0
1001
PE_URL
1000

  0
LINE
  5
AD
330
1F
100
AcDbEntity
  8
외형선
  6
Continuous
370
    15
100
AcDbLine
 10
12.0
 20
-0.0855163215769181
 30
0.0
 11
12.00000000000004
 21
3.75126745828743
 31
0.0
  0
LINE
  5
AE
330
1F
100
AcDbEntity
  8
외형선
  6
Continuous
370
    15
100
AcDbLine
 10
12.0
 20
11.11323755376628
 30
0.0
 11
12.00000000000001
 21
11.113574928724
 31
0.0
  0
LINE
  5
AF
330
1F
100
AcDbEntity
  8
0
  6
Continuous
 62
     1
370
    15
100
AcDbLine
 10
100.9
 20
-11.11142507127599
 30
0.0
 11
100.9
 21
11.11357492872401
 31
0.0
1001
PE_URL
1000

  0
LINE
  5
B0
330
1F
100
AcDbEntity
  8
0
  6
Continuous
 62
     1
370
    15
100
AcDbLine
 10
100.9
 20
4.712109852220145
 30
0.0
 11
100.9
 21
11.11357492872401
 31
0.0
1001
PE_URL
1000

  0
SPLINE
  5
B1
330
1F
100
AcDbEntity
  8
0
  6
Continuous
 62
     1
370
    15
100
AcDbSpline
210
0.0
220
0.0
230
1.0
 70
     8
 71
     3
 72
    13
 73
     9
 74
     0
 42
0.000000001
 43
0.00000001
 40
0.0
 40
0.0
 40
0.0
 40
0.0
 40
0.1700623032410499
 40
0.340125819752687
 40
0.5101930279285464
 40
0.6802664034745519
 40
0.8503484176089312
 40
1.0
 40
1.0
 40
1.0
 40
1.0
 10
12.00000000000001
 20
-10.45950403427834
 30
0.0
 10
13.04035776518026
 20
-10.6357200932957
 30
0.0
 10
15.12108071773517
 20
-10.98815346850357
 30
0.0
 10
18.24219473275745
 20
-11.1544611878191
 30
0.0
 10
21.3633900462275
 20
-11.0493636561543
 30
0.0
 10
24.48472229643551
 20
-10.64285064823443
 30
0.0
 10
27.48118621140739
 20
-10.00780090628297
 30
0.0
 10
29.43723605761511
 20
-9.388422951746694
 30
0.0
 10
30.3527668554476
 20
-9.098522572175161
 30
0.0
1001
PE_URL
1000

  0
SPLINE
  5
B2
330
1F
100
AcDbEntity
  8
0
  6
Continuous
 62
     1
370
    15
100
AcDbSpline
210
0.0
220
0.0
230
1.0
 70
     8
 71
     3
 72
    14
 73
    10
 74
     0
 42
0.000000001
 43
0.00000001
 40
0.0
 40
0.0
 40
0.0
 40
0.0
 40
0.1215250769903393
 40
0.267926098159772
 40
0.4143307580348098
 40
0.5607397686260193
 40
0.7071538403911675
 40
0.8535736819832654
 40
0.9999999999999999
 40
0.9999999999999999
 40
0.9999999999999999
 40
0.9999999999999999
 10
79.09168866903104
 20
11.09204105462767
 30
0.0
 10
79.97509167912526
 20
11.08041648030928
 30
0.0
 10
81.92272855752819
 20
11.05478780417897
 30
0.0
 10
84.93464031669589
 20
10.64892557363097
 30
0.0
 10
88.12745669266255
 20
9.958386988368215
 30
0.0
 10
91.32038704156469
 20
8.986501771420729
 30
0.0
 10
94.51345033537717
 20
7.767726635643807
 30
0.0
 10
97.70666236359142
 20
6.34435427197154
 30
0.0
 10
99.83553842751297
 20
5.256339512392554
 30
0.0
 10
100.9
 20
4.712320101634988
 30
0.0
1001
PE_URL
1000

  0
SPLINE
  5
B3
330
1F
100
AcDbEntity
  8
외형선
  6
Continuous
370
    15
100
AcDbSpline
210
0.0
220
0.0
230
1.0
 70
    24
 71
     3
 72
    21
 73
    17
 74
     0
 42
0.000000001
 43
0.00000001
 40
0.0
 40
0.0
 40
0.0
 40
0.0
 40
0.0233501231289918
 40
0.0988360301439137
 40
0.1743219371588356
 40
0.2498078441737581
 40
0.3252937511886805
 40
0.4007796582036036
 40
0.4762655652185268
 40
0.5517514722334496
 40
0.6272373792483724
 40
0.7027232862632948
 40
0.7782091932782172
 40
0.8536951002931404
 40
0.9291810073080637
 40
1.0
 40
1.0
 40
1.0
 40
1.0
 10
12.00000000000003
 20
0.2150881268265766
 30
0.0
 10
12.00000000000004
 20
0.2230748589296473
 30
0.0
 10
12.00000000000004
 20
0.2568809716653166
 30
0.0
 10
12.00000000000001
 20
0.117166468494409
 30
0.0
 10
11.99999999999996
 20
-0.1925983671053059
 30
0.0
 10
12.0
 20
-0.6974781942118466
 30
0.0
 10
12.00000000000002
 20
-1.357878724950207
 30
0.0
 10
11.99999999999999
 20
-2.166264127412583
 30
0.0
 10
12.00000000000004
 20
-3.092920284653189
 30
0.0
 10
12.00000000000002
 20
-4.116324516148313
 30
0.0
 10
12.00000000000001
 20
-5.204077463638928
 30
0.0
 10
12.00000000000004
 20
-6.327208420433018
 30
0.0
 10
12.00000000000004
 20
-7.453751808414513
 30
0.0
 10
12.00000000000004
 20
-8.548577860308493
 30
0.0
 10
12.00000000000007
 20
-9.57069412791314
 30
0.0
 10
12.00000000000003
 20
-10.16960216503685
 30
0.0
 10
12.00000000000001
 20
-10.45950403427834
 30
0.0
  0
LINE
  5
B4
330
1F
100
AcDbEntity
  8
0
  6
Continuous
 62
     1
370
    15
100
AcDbLine
 10
100.9
 20
0.9532089223286044
 30
0.0
 11
100.9
 21
4.712320101634988
 31
0.0
1001
PE_URL
1000

  0
LINE
  5
B5
330
1F
100
AcDbEntity
  8
외형선
  6
Continuous
370
    15
100
AcDbLine
 10
12.00000000000001
 20
-11.11142507127601
 30
0.0
 11
12.00000000000001
 21
-10.45950403427834
 31
0.0
  0
SPLINE
  5
B6
330
1F
100
AcDbEntity
  8
외형선
  6
Continuous
370
    15
100
AcDbSpline
210
0.0
220
0.0
230
1.0
 70
    24
 71
     3
 72
    20
 73
    16
 74
     0
 42
0.000000001
 43
0.00000001
 40
0.0
 40
0.0
 40
0.0
 40
0.0
 40
0.097803543113817
 40
0.1742070227292356
 40
0.2528262084294406
 40
0.329229688044859
 40
0.4078488737450637
 40
0.4842523533604822
 40
0.5628715390606872
 40
0.6392750186761048
 40
0.717894204376309
 40
0.7942976839917267
 40
0.8729168696919307
 40
0.9493203493073504
 40
1.0
 40
1.0
 40
1.0
 40
1.0
 10
12.00000000000002
 20
-10.45950403427833
 30
0.0
 10
12.00000000000002
 20
-10.06489292192648
 30
0.0
 10
11.99999999999997
 20
-9.362014224181458
 30
0.0
 10
12.00000000000008
 20
-8.203033114500217
 30
0.0
 10
11.99999999999998
 20
-7.100363113693802
 30
0.0
 10
12.00000000000009
 20
-5.96613113209109
 30
0.0
 10
11.99999999999995
 20
-4.855879218479291
 30
0.0
 10
11.99999999999999
 20
-3.780226150315045
 30
0.0
 10
12.00000000000008
 20
-2.789245217008223
 30
0.0
 10
12.00000000000003
 20
-1.892903437222001
 30
0.0
 10
11.99999999999997
 20
-1.133422069700177
 30
0.0
 10
12.0000000000001
 20
-0.5159983249242119
 30
0.0
 10
11.99999999999993
 20
-0.0790051437905521
 30
0.0
 10
11.99999999999997
 20
0.1751237074195471
 30
0.0
 10
12.00000000000001
 20
0.1992095328664097
 30
0.0
 10
12.00000000000001
 20
0.2088147512563884
 30
0.0
  0
SPLINE
  5
B7
330
1F
100
AcDbEntity
  8
외형선
  6
Continuous
370
    15
100
AcDbSpline
210
0.0
220
0.0
230
1.0
 70
     8
 71
     3
 72
     8
 73
     4
 74
     0
 42
0.000000001
 43
0.00000001
 40
0.0
 40
0.0
 40
0.0
 40
0.0
 40
1.0
 40
1.0
 40
1.0
 40
1.0
 10
12.00000000000001
 20
-10.45950403427833
 30
0.0
 10
11.83329506095295
 20
-10.42706358060876
 30
0.0
 10
11.66656964408399
 20
-10.39344747866511
 30
0.0
 10
11.4999079384839
 20
-10.35867300687939
 30
0.0
  0
SPLINE
  5
B8
330
1F
100
AcDbEntity
  8
외형선
  6
Continuous
370
    15
100
AcDbSpline
210
0.0
220
0.0
230
1.0
 70
     8
 71
     3
 72
     8
 73
     4
 74
     0
 42
0.000000001
 43
0.00000001
 40
0.0
 40
0.0
 40
0.0
 40
0.0
 40
1.0
 40
1.0
 40
1.0
 40
1.0
 10
11.99999999999999
 20
-0.0855163215766791
 30
0.0
 10
11.83329506095293
 20
0.010607702447332
 30
0.0
 10
11.66656964408399
 20
0.1067453804824519
 30
0.0
 10
11.49990793848391
 20
0.2028481667001048
 30
0.0
  0
LINE
  5
B9
330
1F
100
AcDbEntity
  8
외형선
  6
Continuous
370
    15
100
AcDbLine
 10
11.4999079384839
 20
-11.11142507127601
 30
0.0
 11
11.4999079384839
 21
-11.10959167285686
 31
0.0
  0
SPLINE
  5
BA
330
1F
100
AcDbEntity
  8
외형선
  6
Continuous
370
    15
100
AcDbSpline
210
0.0
220
0.0
230
1.0
 70
     8
 71
     3
 72
     8
 73
     4
 74
     0
 42
0.000000001
 43
0.00000001
 40
0.0
 40
0.0
 40
0.0
 40
0.0
 40
1.0
 40
1.0
 40
1.0
 40
1.0
 10
11.99999999999999
 20
11.11323755376559
 30
0.0
 10
11.83329506095293
 20
11.11398659782705
 30
0.0
 10
11.66656964408399
 20
11.11348820384411
 30
0.0
 10
11.49990793848391
 20
11.11174294691429
 30
0.0
  0
LINE
  5
BB
330
1F
100
AcDbEntity
  8
외형선
  6
Continuous
370
    15
100
AcDbLine
 10
11.4999079384839
 20
4.021356204516145
 30
0.0
 11
11.4999079384839
 21
11.11357492872399
 31
0.0
  0
SPLINE
  5
BC
330
1F
100
AcDbEntity
  8
외형선
  6
Continuous
370
    15
100
AcDbSpline
210
0.0
220
0.0
230
1.0
 70
     8
 71
     3
 72
     8
 73
     4
 74
     0
 42
0.000000001
 43
0.00000001
 40
0.0
 40
0.0
 40
0.0
 40
0.0
 40
1.0
 40
1.0
 40
1.0
 40
1.0
 10
12.00000000000001
 20
3.751267458287431
 30
0.0
 10
11.83329506095295
 20
3.841755059798839
 30
0.0
 10
11.66656964408399
 20
3.931825361367452
 30
0.0
 10
11.4999079384839
 20
4.021432992474248
 30
0.0
  0
LINE
  5
BD
330
1F
100
AcDbEntity
  8
외형선
  6
Continuous
370
    15
100
AcDbLine
 10
11.4999079384839
 20
-10.35870280603052
 30
0.0
 11
11.4999079384839
 21
0.2029261573946591
 31
0.0
  0
LINE
  5
BE
330
1F
100
AcDbEntity
  8
외형선
  6
Continuous
370
    15
100
AcDbLine
 10
11.84983740750351
 20
-11.11063891087024
 30
0.0
 11
11.49990793848391
 21
-11.10959308946631
 31
0.0
  0
LINE
  5
BF
330
1F
100
AcDbEntity
  8
외형선
  6
Continuous
370
    15
100
AcDbLine
 10
-42.92749999999999
 20
0.0010749287239921
 30
0.0
 11
-42.92749999999999
 21
11.11357492872399
 31
0.0
  0
LINE
  5
C0
330
1F
100
AcDbEntity
  8
외형선
  6
Continuous
370
    15
100
AcDbLine
 10
-42.92749999999999
 20
-11.11142507127601
 30
0.0
 11
-42.92749999999999
 21
0.0010749287239921
 31
0.0
  0
LINE
  5
C1
330
1F
100
AcDbEntity
  8
외형선
  6
Continuous
370
    15
100
AcDbLine
 10
-45.14999999999999
 20
0.0010749287239921
 30
0.0
 11
-45.14999999999999
 21
8.891074928724002
 31
0.0
  0
LINE
  5
C2
330
1F
100
AcDbEntity
  8
외형선
  6
Continuous
370
    15
100
AcDbLine
 10
-45.14999999999999
 20
-8.888925071276017
 30
0.0
 11
-45.14999999999999
 21
0.0010749287239921
 31
0.0
  0
SPLINE
  5
C3
330
1F
100
AcDbEntity
  8
외형선
  6
Continuous
370
    15
100
AcDbSpline
210
0.0
220
0.0
230
1.0
 70
    24
 71
     3
 72
    19
 73
    15
 74
     0
 42
0.000000001
 43
0.00000001
 40
0.0
 40
0.0
 40
0.0
 40
0.0
 40
0.1280385967676699
 40
0.1989801214308288
 40
0.2674295133777297
 40
0.4066539024360187
 40
0.4775954270991414
 40
0.5460448190460443
 40
0.6149694670087257
 40
0.6853930461570031
 40
0.7563345708201284
 40
0.8164450235775075
 40
0.9382254382049404
 40
1.0
 40
1.0
 40
1.0
 40
1.0
 10
12.00000000000006
 20
3.853293055509006
 30
0.0
 10
12.00000000000004
 20
4.077394463382355
 30
0.0
 10
11.99999999999999
 20
4.425662301965215
 30
0.0
 10
12.00000000000001
 20
4.980593700889497
 30
0.0
 10
11.99999999999999
 20
5.591624674738719
 30
0.0
 10
12.00000000000006
 20
6.256900968714098
 30
0.0
 10
11.99999999999994
 20
6.957974882882838
 30
0.0
 10
12.00000000000006
 20
7.497257256400454
 30
0.0
 10
11.99999999999996
 20
8.046066211542438
 30
0.0
 10
12.00000000000004
 20
8.608751095948247
 30
0.0
 10
12.00000000000005
 20
9.151147885712296
 30
0.0
 10
12.00000000000004
 20
9.830299512696111
 30
0.0
 10
12.00000000000004
 20
10.48084438937743
 30
0.0
 10
12.00000000000003
 20
10.9539994493934
 30
0.0
 10
12.00000000000003
 20
11.1132375537656
 30
0.0
  0
LINE
  5
C4
330
1F
100
AcDbEntity
  8
중심선
 62
     1
100
AcDbLine
 10
-52.14999999999999
 20
0.0010749287239886
 30
0.0
 11
107.9
 21
0.0010749287240082
 31
0.0
  0
LINE
  5
C5
330
1F
100
AcDbEntity
  8
참조1
100
AcDbLine
 10
27.87500000000002
 20
0.0010749287239882
 30
0.0
 11
27.87500000000003
 21
-39.99892507127601
 31
0.0
  0
LINE
  5
C6
330
1F
100
AcDbEntity
  8
참조1
100
AcDbLine
 10
27.87500000000003
 20
-39.99892507127601
 30
0.0
 11
-30.94010681430866
 21
-39.99892507127601
 31
0.0
  0
CIRCLE
  5
C7
330
1F
100
AcDbEntity
  8
해칭선
100
AcDbCircle
 10
0.0
 20
0.0
 30
0.0
 40
3.000000000000002
  0
INSERT
  5
C8
330
1F
100
AcDbEntity
  8
0
  6
Continuous
 62
     7
100
AcDbBlockReference
 66
     1
  2
블럭10
 10
13.93472706787481
 20
-52.04609937291994
 30
0.0
  0
ATTRIB
  5
C9
330
C8
100
AcDbEntity
  8
FORMAT
 62
     2
100
AcDbText
 10
4.753431779133535
 20
-49.97073246008775
 30
0.0
 40
4.233333333333333
  1
E2040056 [ 4 FLUTE ]
 41
0.75
  7
SLDTEXTSTYLE0
 11
4.753431779133535
 21
-52.08739912675442
 31
0.0
100
AcDbAttribute
  2
AUTOATTR0
 70
     0
 74
     1
  0
SEQEND
  5
CA
330
C8
100
AcDbEntity
  8
0
  6
Continuous
 62
     7
  0
HATCH
  5
CB
330
1F
100
AcDbEntity
  8
중심선
100
AcDbHatch
 10
0.0
 20
0.0
 30
0.0
210
0.0
220
0.0
230
1.0
  2
SOLID
 70
     1
 71
     0
 91
        1
 92
        0
 93
        4
 72
     1
 10
19.64963637225565
 20
-35.798925071276
 11
16.20336112841836
 21
-35.798925071276
 72
     1
 10
16.20336112841836
 20
-35.798925071276
 11
14.07513126921434
 21
-38.3352506518486
 72
     1
 10
14.07513126921434
 20
-38.3352506518486
 11
17.52143959816478
 21
-38.33521122254611
 72
     1
 10
17.52143959816478
 20
-38.33521122254611
 11
19.64963637225565
 21
-35.798925071276
 97
        0
 75
     0
 76
     1
 98
        1
 10
-10.78676131403116
 20
0.000000000000099
  0
HATCH
  5
CC
330
1F
100
AcDbEntity
  8
중심선
100
AcDbHatch
 10
0.0
 20
0.0
 30
0.0
210
0.0
220
0.0
230
1.0
  2
SOLID
 70
     1
 71
     0
 91
        1
 92
        0
 93
        4
 72
     1
 10
24.66240036329162
 20
-35.79892507127598
 11
21.21612511945435
 21
-35.798925071276
 72
     1
 10
21.21612511945435
 20
-35.798925071276
 11
16.68498711109693
 21
-41.19892507127602
 72
     1
 10
16.68498711109693
 20
-41.19892507127602
 11
20.13126235493421
 21
-41.19892507127602
 72
     1
 10
20.13126235493421
 20
-41.19892507127602
 11
24.66240036329162
 21
-35.79892507127598
 97
        0
 75
     0
 76
     1
 98
        1
 10
-10.78676131403116
 20
0.000000000000099
  0
HATCH
  5
CD
330
1F
100
AcDbEntity
  8
중심선
100
AcDbHatch
 10
0.0
 20
0.0
 30
0.0
210
0.0
220
0.0
230
1.0
  2
SOLID
 70
     1
 71
     0
 91
        1
 92
        0
 93
        4
 72
     1
 10
29.67516435432752
 20
-35.79892507127598
 11
26.22888911049035
 21
-35.79892507127603
 72
     1
 10
26.22888911049035
 20
-35.79892507127603
 11
19.18045220860113
 21
-44.19892507127602
 72
     1
 10
19.18045220860113
 20
-44.19892507127602
 11
22.62672745243842
 21
-44.19892507127602
 72
     1
 10
22.62672745243842
 20
-44.19892507127602
 11
29.67516435432752
 21
-35.79892507127598
 97
        0
 75
     0
 76
     1
 98
        1
 10
-10.78676131403116
 20
0.000000000000099
  0
HATCH
  5
CE
330
1F
100
AcDbEntity
  8
중심선
100
AcDbHatch
 10
0.0
 20
0.0
 30
0.0
210
0.0
220
0.0
230
1.0
  2
SOLID
 70
     1
 71
     0
 91
        1
 92
        0
 93
        6
 72
     3
 10
34.47505478533967
 20
-39.99892507132728
 11
3.960054785062283
 21
1.540882976769353E-10
 40
0.3939339440162628
 50
17.0953918060842
 51
320.001965768509
 73
     0
 72
     1
 10
36.15805444104035
 20
-38.58681907591428
 11
38.46335631474133
 21
-36.65249236586639
 72
     3
 10
34.47505478528682
 20
-39.99892507127615
 11
6.600054785286829
 21
-1.278976924368180E-13
 40
0.636358354079598
 50
39.99873849337392
 51
368.4976242363724
 73
     1
 72
     1
 10
40.90038727718746
 20
-39.03892507120603
 11
33.15512209212282
 21
-39.03892507120603
 72
     1
 10
33.15512209212282
 20
-39.03892507120603
 11
33.15509704767681
 21
-40.95892507120592
 72
     1
 10
33.15509704767681
 20
-40.95892507120592
 11
37.59647681714888
 21
-40.95892507120589
 97
        0
 75
     0
 76
     1
 98
        1
 10
-10.78676131403116
 20
0.000000000000099
  0
DIMENSION
  5
CF
330
1F
100
AcDbEntity
  8
치수문자_일반주서
100
AcDbDimension
  2
_D
 10
12.00000000000001
 20
26.12439232790325
 30
0.0
 11
56.45000000000001
 21
26.12439232790325
 31
0.0
 70
   160
  1
<>
 71
     2
 42
88.90000000000002
  3
SLDDIMSTYLE2
100
AcDbAlignedDimension
 13
100.9
 23
11.11357492872401
 33
0.0
 14
12.0
 24
11.11323755376628
 34
0.0
 50
0.0000000000000389
100
AcDbRotatedDimension
1001
PE_URL
1000

1001
ACAD
1000
DSTYLE
1002
{
1070
   171
1070
     8
1070
   273
1070
     7
1070
    41
1040
4.0
1070
   140
1040
4.0
1002
}
  0
DIMENSION
  5
E4
330
1F
100
AcDbEntity
  8
치수문자_일반주서
100
AcDbDimension
  2
_D_1
 10
-45.15
 20
41.11357492872401
 30
0.0
 11
30.19646281638229
 21
41.11357492872401
 31
0.0
 70
   160
  1
<>
 71
     2
 42
146.05
  3
SLDDIMSTYLE2
100
AcDbAlignedDimension
 13
100.9
 23
11.11357492872401
 33
0.0
 14
-45.14999999999999
 24
8.891074928724002
 34
0.0
 50
0.0000000000000028
100
AcDbRotatedDimension
1001
PE_URL
1000

1001
ACAD
1000
DSTYLE
1002
{
1070
   171
1070
     8
1070
   273
1070
     7
1070
    41
1040
4.0
1070
   140
1040
4.0
1002
}
  0
DIMENSION
  5
F8
330
1F
100
AcDbEntity
  8
치수문자_일반주서
100
AcDbDimension
  2
_D_2
 10
-60.14999999999992
 20
-11.11142507127607
 30
0.0
 11
-60.15000000000008
 21
35.48857492872393
 31
0.0
 70
   160
  1
%%c<>
 71
     2
 42
22.22499999999999
 52
-270.0
  3
SLDDIMSTYLE2
100
AcDbAlignedDimension
 13
-42.9275
 23
11.11357492872399
 33
0.0
 14
-42.9275
 24
-11.111425071276
 34
0.0
 50
90.0000000000002
100
AcDbRotatedDimension
1001
PE_URL
1000

1001
ACAD
1000
DSTYLE
1002
{
1070
   171
1070
     8
1070
   273
1070
     7
1070
    41
1040
4.0
1070
   140
1040
4.0
1002
}
  0
DIMENSION
  5
10D
330
1F
100
AcDbEntity
  8
치수문자_일반주서
100
AcDbDimension
  2
_D_3
 10
115.9
 20
11.11357492872406
 30
0.0
 11
115.8999999999999
 21
40.94770972708255
 31
0.0
 70
   160
  1
%%c<>
 71
     2
 42
22.225
 52
-270.0
  3
SLDDIMSTYLE2
100
AcDbAlignedDimension
 13
100.9
 23
-11.11142507127599
 33
0.0
 14
100.9
 24
11.11357492872401
 34
0.0
 50
90.0000000000002
100
AcDbRotatedDimension
1001
PE_URL
1000

1001
ACAD
1000
DSTYLE
1002
{
1070
   171
1070
     8
1070
   273
1070
     7
1070
    41
1040
4.0
1070
   140
1040
4.0
1002
}
  0
LINE
  5
120
330
1F
100
AcDbEntity
  8
참조1
100
AcDbLine
 10
67.03223381534559
 20
7.441074928723994
 30
0.0
 11
67.03223381534559
 21
-7.43892507127601
 31
0.0
  0
LINE
  5
121
330
1F
100
AcDbEntity
  8
참조1
100
AcDbLine
 10
79.73223381534561
 20
5.441074928723994
 30
0.0
 11
67.03223381534559
 21
5.441074928723994
 31
0.0
  0
SOLID
  5
122
330
1F
100
AcDbEntity
  8
참조1
100
AcDbTrace
 10
67.03223381534559
 20
5.441074928723994
 30
0.0
 11
73.38223381534559
 21
4.425074928723994
 31
0.0
 12
73.38223381534559
 22
6.457074928723994
 32
0.0
 13
73.38223381534559
 23
6.457074928723994
 33
0.0
  0
LINE
  5
123
330
1F
100
AcDbEntity
  8
참조1
100
AcDbLine
 10
79.73223381534561
 20
-5.43892507127601
 30
0.0
 11
67.03223381534559
 21
-5.43892507127601
 31
0.0
  0
SOLID
  5
124
330
1F
100
AcDbEntity
  8
참조1
100
AcDbTrace
 10
67.03223381534559
 20
-5.43892507127601
 30
0.0
 11
73.38223381534559
 21
-6.45492507127601
 31
0.0
 12
73.38223381534559
 22
-4.42292507127601
 32
0.0
 13
73.38223381534559
 23
-4.42292507127601
 33
0.0
  0
MTEXT
  5
125
330
1F
100
AcDbEntity
  8
참조1
100
AcDbMText
 10
76.41658394797159
 20
11.01136670591232
 30
0.0
 40
3.5
 41
0.0
 71
     1
 72
     1
  1
A
  7
SLDTEXTSTYLE0
 73
     1
 44
1.0
  0
MTEXT
  5
126
330
1F
100
AcDbEntity
  8
참조1
100
AcDbMText
 10
76.41658394797159
 20
0.1313667059123191
 30
0.0
 40
3.5
 41
0.0
 71
     1
 72
     1
  1
A
  7
SLDTEXTSTYLE0
 73
     1
 44
1.0
  0
INSERT
  5
12D
330
1F
100
AcDbEntity
  8
해칭선
100
AcDbBlockReference
  2
SW_DOWELSYMBOL_0
 10
0.0
 20
0.0
 30
0.0
  0
LINE
  5
1CE
330
1F
100
AcDbEntity
  8
외형선
  6
Continuous
370
    15
100
AcDbLine
 10
-25.14432499999998
 20
9.208574928723978
 30
0.0
 11
-13.56192499999997
 21
9.208574928723978
 31
0.0
1001
PE_URL
1000

  0
LINE
  5
1CF
330
1F
100
AcDbEntity
  8
외형선
  6
Continuous
370
    15
100
AcDbLine
 10
-25.14432499999998
 20
9.208574928723964
 30
0.0
 11
-27.04932500000012
 21
11.11357492872399
 31
0.0
1001
PE_URL
1000

  0
LINE
  5
1D0
330
1F
100
AcDbEntity
  8
외형선
  6
Continuous
370
    15
100
AcDbLine
 10
-13.56192499999997
 20
9.208574928723964
 30
0.0
 11
-11.656925
 21
11.11357492872399
 31
0.0
1001
PE_URL
1000

  0
LINE
  5
1D3
330
1F
100
AcDbEntity
  8
외형선
  6
Continuous
370
    15
100
AcDbLine
 10
-27.04932500000012
 20
11.11357492872399
 30
0.0
 11
-42.92749999999999
 21
11.11357492872399
 31
0.0
  0
ENDSEC
  0
SECTION
  2
OBJECTS
  0
DICTIONARY
  5
C
330
0
100
AcDbDictionary
281
     1
  3
ACAD_DETAILVIEWSTYLE
350
1E1
  3
ACAD_GROUP
350
D
  3
ACAD_IMAGE_VARS
350
206
  3
ACAD_LAYOUT
350
1A
  3
ACAD_MLINESTYLE
350
17
  3
ACAD_PLOTSETTINGS
350
19
  3
ACAD_PLOTSTYLENAME
350
E
  3
ACAD_SCALELIST
350
47
  3
ACAD_SECTIONVIEWSTYLE
350
1E2
  3
AcDbVariableDictionary
350
1DC
  3
APPDATA
350
14F
  3
DWGPROPS
350
207
  0
DICTIONARY
  5
185
330
2
100
AcDbDictionary
280
     1
281
     1
  3
ACAD_LAYERSTATES
360
186
  0
DICTIONARY
  5
1E1
102
{ACAD_REACTORS
330
C
102
}
330
C
100
AcDbDictionary
281
     1
  0
DICTIONARY
  5
D
102
{ACAD_REACTORS
330
C
102
}
330
C
100
AcDbDictionary
281
     1
  0
RASTERVARIABLES
  5
206
102
{ACAD_REACTORS
330
C
102
}
330
C
100
AcDbRasterVariables
 90
        0
 70
     1
 71
     1
 72
     1
  0
DICTIONARY
  5
1A
102
{ACAD_REACTORS
330
C
102
}
330
C
100
AcDbDictionary
281
     1
  3
Layout1
350
1E
  3
Layout2
350
26
  3
Model
350
22
  0
DICTIONARY
  5
17
102
{ACAD_REACTORS
330
C
102
}
330
C
100
AcDbDictionary
281
     1
  3
Standard
350
18
  0
DICTIONARY
  5
19
102
{ACAD_REACTORS
330
C
102
}
330
C
100
AcDbDictionary
281
     1
  0
ACDBDICTIONARYWDFLT
  5
E
102
{ACAD_REACTORS
330
C
102
}
330
C
100
AcDbDictionary
281
     1
  3
Normal
350
F
100
AcDbDictionaryWithDefault
340
F
  0
DICTIONARY
  5
47
102
{ACAD_REACTORS
330
C
102
}
330
C
100
AcDbDictionary
281
     1
  3
A0
350
48
  3
A1
350
49
  3
A2
350
4A
  3
A3
350
4B
  3
A4
350
4C
  3
A5
350
4D
  3
A6
350
4E
  3
A7
350
4F
  3
A8
350
50
  3
A9
350
51
  3
B0
350
52
  3
B1
350
53
  3
B2
350
54
  3
B3
350
55
  3
B4
350
56
  3
B5
350
57
  3
B6
350
58
  3
B7
350
59
  3
B8
350
5A
  3
B9
350
5B
  3
C0
350
5C
  3
C1
350
5D
  3
C2
350
5E
  3
C3
350
5F
  3
C4
350
60
  3
C5
350
61
  3
C6
350
62
  3
C7
350
63
  3
C8
350
64
  3
C9
350
65
  3
D0
350
66
  3
D1
350
67
  3
D2
350
68
  0
DICTIONARY
  5
1E2
102
{ACAD_REACTORS
330
C
102
}
330
C
100
AcDbDictionary
281
     1
  0
DICTIONARY
  5
1DC
102
{ACAD_REACTORS
330
C
102
}
330
C
100
AcDbDictionary
281
     1
  0
DICTIONARY
  5
14F
102
{ACAD_REACTORS
330
C
102
}
330
C
100
AcDbDictionary
281
     1
  0
XRECORD
  5
207
102
{ACAD_REACTORS
330
C
102
}
330
C
100
AcDbXrecord
280
     1
  1
DWGPROPS COOKIE
  2

  3

  4

  6

  7

  8
12016016
  9

300
=
301
=
302
=
303
=
304
=
305
=
306
=
307
=
308
=
309
=
 40
0.0
 41
2458312.256402951
 42
2458330.280452512
  1

 90
        0
  0
DICTIONARY
  5
186
102
{ACAD_REACTORS
330
185
102
}
330
185
100
AcDbDictionary
281
     1
  0
LAYOUT
  5
1E
102
{ACAD_REACTORS
330
1A
102
}
330
1A
100
AcDbPlotSettings
  1

  2
none_device
  4

  6

 40
0.0
 41
0.0
 42
0.0
 43
0.0
 44
0.0
 45
0.0
 46
0.0
 47
0.0
 48
0.0
 49
0.0
140
0.0
141
0.0
142
1.0
143
1.0
 70
   688
 72
     1
 73
     0
 74
     5
  7

 75
    16
147
1.0
148
0.0
149
0.0
100
AcDbLayout
  1
Layout1
 70
     1
 71
     1
 10
0.0
 20
0.0
 11
420.0
 21
297.0
 12
0.0
 22
0.0
 32
0.0
 14
1.000000000000000E+20
 24
1.000000000000000E+20
 34
1.000000000000000E+20
 15
-1.000000000000000E+20
 25
-1.000000000000000E+20
 35
-1.000000000000000E+20
146
0.0
 13
0.0
 23
0.0
 33
0.0
 16
1.0
 26
0.0
 36
0.0
 17
0.0
 27
1.0
 37
0.0
 76
     0
330
1B
  0
LAYOUT
  5
26
102
{ACAD_REACTORS
330
1A
102
}
330
1A
100
AcDbPlotSettings
  1

  2
none_device
  4

  6

 40
0.0
 41
0.0
 42
0.0
 43
0.0
 44
0.0
 45
0.0
 46
0.0
 47
0.0
 48
0.0
 49
0.0
140
0.0
141
0.0
142
1.0
143
1.0
 70
   688
 72
     1
 73
     0
 74
     5
  7

 75
    16
147
1.0
148
0.0
149
0.0
100
AcDbLayout
  1
Layout2
 70
     1
 71
     2
 10
0.0
 20
0.0
 11
0.0
 21
0.0
 12
0.0
 22
0.0
 32
0.0
 14
0.0
 24
0.0
 34
0.0
 15
0.0
 25
0.0
 35
0.0
146
0.0
 13
0.0
 23
0.0
 33
0.0
 16
1.0
 26
0.0
 36
0.0
 17
0.0
 27
1.0
 37
0.0
 76
     0
330
23
  0
LAYOUT
  5
22
102
{ACAD_REACTORS
330
1A
102
}
330
1A
100
AcDbPlotSettings
  1

  2
none_device
  4
ANSI_A_(11.00_x_8.50_Inches)
  6

 40
6.35
 41
19.05
 42
6.35000508
 43
19.05000254
 44
279.4
 45
215.9
 46
42.01862928729955
 47
45.03158887029501
 48
0.0
 49
0.0
140
0.0
141
0.0
142
0.0335093485976394
143
1.0
 70
  1696
 72
     0
 73
     0
 74
     0
  7

 75
     0
147
0.0235690232323232
148
0.0
149
0.0
100
AcDbLayout
  1
Model
 70
     1
 71
     0
 10
0.0
 20
0.0
 11
420.0
 21
297.0
 12
0.0
 22
0.0
 32
0.0
 14
-65.02500000000015
 24
-49.97073246008776
 34
0.0
 15
116.5666666666668
 25
57.32270972708255
 35
0.0
146
0.0
 13
0.0
 23
0.0
 33
0.0
 16
1.0
 26
0.0
 36
0.0
 17
0.0
 27
1.0
 37
0.0
 76
     0
330
1F
331
29
  0
MLINESTYLE
  5
18
102
{ACAD_REACTORS
330
17
102
}
330
17
100
AcDbMlineStyle
  2
Standard
 70
     0
  3

 62
   256
 51
90.0
 52
90.0
 71
     2
 49
0.5
 62
   256
  6
BYLAYER
 49
-0.5
 62
   256
  6
BYLAYER
  0
ACDBPLACEHOLDER
  5
F
102
{ACAD_REACTORS
330
E
102
}
330
E
  0
SCALE
  5
48
102
{ACAD_REACTORS
330
47
102
}
330
47
100
AcDbScale
 70
     0
300
1:1
140
1.0
141
1.0
290
     1
  0
SCALE
  5
49
102
{ACAD_REACTORS
330
47
102
}
330
47
100
AcDbScale
 70
     0
300
1:2
140
1.0
141
2.0
290
     0
  0
SCALE
  5
4A
102
{ACAD_REACTORS
330
47
102
}
330
47
100
AcDbScale
 70
     0
300
1:4
140
1.0
141
4.0
290
     0
  0
SCALE
  5
4B
102
{ACAD_REACTORS
330
47
102
}
330
47
100
AcDbScale
 70
     0
300
1:5
140
1.0
141
5.0
290
     0
  0
SCALE
  5
4C
102
{ACAD_REACTORS
330
47
102
}
330
47
100
AcDbScale
 70
     0
300
1:8
140
1.0
141
8.0
290
     0
  0
SCALE
  5
4D
102
{ACAD_REACTORS
330
47
102
}
330
47
100
AcDbScale
 70
     0
300
1:10
140
1.0
141
10.0
290
     0
  0
SCALE
  5
4E
102
{ACAD_REACTORS
330
47
102
}
330
47
100
AcDbScale
 70
     0
300
1:16
140
1.0
141
16.0
290
     0
  0
SCALE
  5
4F
102
{ACAD_REACTORS
330
47
102
}
330
47
100
AcDbScale
 70
     0
300
1:20
140
1.0
141
20.0
290
     0
  0
SCALE
  5
50
102
{ACAD_REACTORS
330
47
102
}
330
47
100
AcDbScale
 70
     0
300
1:30
140
1.0
141
30.0
290
     0
  0
SCALE
  5
51
102
{ACAD_REACTORS
330
47
102
}
330
47
100
AcDbScale
 70
     0
300
1:40
140
1.0
141
40.0
290
     0
  0
SCALE
  5
52
102
{ACAD_REACTORS
330
47
102
}
330
47
100
AcDbScale
 70
     0
300
1:50
140
1.0
141
50.0
290
     0
  0
SCALE
  5
53
102
{ACAD_REACTORS
330
47
102
}
330
47
100
AcDbScale
 70
     0
300
1:100
140
1.0
141
100.0
290
     0
  0
SCALE
  5
54
102
{ACAD_REACTORS
330
47
102
}
330
47
100
AcDbScale
 70
     0
300
2:1
140
2.0
141
1.0
290
     0
  0
SCALE
  5
55
102
{ACAD_REACTORS
330
47
102
}
330
47
100
AcDbScale
 70
     0
300
4:1
140
4.0
141
1.0
290
     0
  0
SCALE
  5
56
102
{ACAD_REACTORS
330
47
102
}
330
47
100
AcDbScale
 70
     0
300
8:1
140
8.0
141
1.0
290
     0
  0
SCALE
  5
57
102
{ACAD_REACTORS
330
47
102
}
330
47
100
AcDbScale
 70
     0
300
10:1
140
10.0
141
1.0
290
     0
  0
SCALE
  5
58
102
{ACAD_REACTORS
330
47
102
}
330
47
100
AcDbScale
 70
     0
300
100:1
140
100.0
141
1.0
290
     0
  0
SCALE
  5
59
102
{ACAD_REACTORS
330
47
102
}
330
47
100
AcDbScale
 70
     0
300
1/128" = 1'-0"
140
0.0078125
141
12.0
290
     0
  0
SCALE
  5
5A
102
{ACAD_REACTORS
330
47
102
}
330
47
100
AcDbScale
 70
     0
300
1/64" = 1'-0"
140
0.015625
141
12.0
290
     0
  0
SCALE
  5
5B
102
{ACAD_REACTORS
330
47
102
}
330
47
100
AcDbScale
 70
     0
300
1/32" = 1'-0"
140
0.03125
141
12.0
290
     0
  0
SCALE
  5
5C
102
{ACAD_REACTORS
330
47
102
}
330
47
100
AcDbScale
 70
     0
300
1/16" = 1'-0"
140
0.0625
141
12.0
290
     0
  0
SCALE
  5
5D
102
{ACAD_REACTORS
330
47
102
}
330
47
100
AcDbScale
 70
     0
300
3/32" = 1'-0"
140
0.09375
141
12.0
290
     0
  0
SCALE
  5
5E
102
{ACAD_REACTORS
330
47
102
}
330
47
100
AcDbScale
 70
     0
300
1/8" = 1'-0"
140
0.125
141
12.0
290
     0
  0
SCALE
  5
5F
102
{ACAD_REACTORS
330
47
102
}
330
47
100
AcDbScale
 70
     0
300
3/16" = 1'-0"
140
0.1875
141
12.0
290
     0
  0
SCALE
  5
60
102
{ACAD_REACTORS
330
47
102
}
330
47
100
AcDbScale
 70
     0
300
1/4" = 1'-0"
140
0.25
141
12.0
290
     0
  0
SCALE
  5
61
102
{ACAD_REACTORS
330
47
102
}
330
47
100
AcDbScale
 70
     0
300
3/8" = 1'-0"
140
0.375
141
12.0
290
     0
  0
SCALE
  5
62
102
{ACAD_REACTORS
330
47
102
}
330
47
100
AcDbScale
 70
     0
300
1/2" = 1'-0"
140
0.5
141
12.0
290
     0
  0
SCALE
  5
63
102
{ACAD_REACTORS
330
47
102
}
330
47
100
AcDbScale
 70
     0
300
3/4" = 1'-0"
140
0.75
141
12.0
290
     0
  0
SCALE
  5
64
102
{ACAD_REACTORS
330
47
102
}
330
47
100
AcDbScale
 70
     0
300
1" = 1'-0"
140
1.0
141
12.0
290
     0
  0
SCALE
  5
65
102
{ACAD_REACTORS
330
47
102
}
330
47
100
AcDbScale
 70
     0
300
1-1/2" = 1'-0"
140
1.5
141
12.0
290
     0
  0
SCALE
  5
66
102
{ACAD_REACTORS
330
47
102
}
330
47
100
AcDbScale
 70
     0
300
3" = 1'-0"
140
3.0
141
12.0
290
     0
  0
SCALE
  5
67
102
{ACAD_REACTORS
330
47
102
}
330
47
100
AcDbScale
 70
     0
300
6" = 1'-0"
140
6.0
141
12.0
290
     0
  0
SCALE
  5
68
102
{ACAD_REACTORS
330
47
102
}
330
47
100
AcDbScale
 70
     0
300
1'-0" = 1'-0"
140
12.0
141
12.0
290
     0
  0
ENDSEC
  0
EOF
