  0
SECTION
  2
HEADER
  9
$ACADVER
  1
AC1015
  9
$ACADMAINTVER
 70
     6
  9
$DWGCODEPAGE
  3
ANSI_949
  9
$INSBASE
 10
0.0
 20
0.0
 30
0.0
  9
$EXTMIN
 10
-51.48786934298448
 20
-49.97073246008786
 30
0.0
  9
$EXTMAX
 10
87.7693644723612
 20
35.14339915682635
 30
0.0
  9
$LIMMIN
 10
0.0
 20
0.0
  9
$LIMMAX
 10
420.0
 20
297.0
  9
$ORTHOMODE
 70
     1
  9
$REGENMODE
 70
     1
  9
$FILLMODE
 70
     1
  9
$QTEXTMODE
 70
     0
  9
$MIRRTEXT
 70
     1
  9
$LTSCALE
 40
1.0
  9
$ATTMODE
 70
     1
  9
$TEXTSIZE
 40
3.5
  9
$TRACEWID
 40
1.0
  9
$TEXTSTYLE
  7
Standard
  9
$CLAYER
  8
0
  9
$CELTYPE
  6
ByLayer
  9
$CECOLOR
 62
   256
  9
$CELTSCALE
 40
1.0
  9
$DISPSILH
 70
     0
  9
$DIMSCALE
 40
1.0
  9
$DIMASZ
 40
3.302
  9
$DIMEXO
 40
1.0
  9
$DIMDLI
 40
3.75
  9
$DIMRND
 40
0.0
  9
$DIMDLE
 40
0.0
  9
$DIMEXE
 40
1.0
  9
$DIMTP
 40
0.0
  9
$DIMTM
 40
0.0
  9
$DIMTXT
 40
3.5
  9
$DIMCEN
 40
2.5
  9
$DIMTSZ
 40
0.0
  9
$DIMTOL
 70
     0
  9
$DIMLIM
 70
     0
  9
$DIMTIH
 70
     1
  9
$DIMTOH
 70
     1
  9
$DIMSE1
 70
     0
  9
$DIMSE2
 70
     0
  9
$DIMTAD
 70
     1
  9
$DIMZIN
 70
     0
  9
$DIMBLK
  1

  9
$DIMASO
 70
     1
  9
$DIMSHO
 70
     1
  9
$DIMPOST
  1

  9
$DIMAPOST
  1

  9
$DIMALT
 70
     0
  9
$DIMALTD
 70
     3
  9
$DIMALTF
 40
0.0393700787401575
  9
$DIMLFAC
 40
1.0
  9
$DIMTOFL
 70
     1
  9
$DIMTVP
 40
0.0
  9
$DIMTIX
 70
     0
  9
$DIMSOXD
 70
     0
  9
$DIMSAH
 70
     0
  9
$DIMBLK1
  1

  9
$DIMBLK2
  1

  9
$DIMSTYLE
  2
ISO-25
  9
$DIMCLRD
 70
     0
  9
$DIMCLRE
 70
     0
  9
$DIMCLRT
 70
     0
  9
$DIMTFAC
 40
1.0
  9
$DIMGAP
 40
1.524
  9
$DIMJUST
 70
     0
  9
$DIMSD1
 70
     0
  9
$DIMSD2
 70
     0
  9
$DIMTOLJ
 70
     0
  9
$DIMTZIN
 70
     0
  9
$DIMALTZ
 70
     0
  9
$DIMALTTZ
 70
     0
  9
$DIMUPT
 70
     0
  9
$DIMDEC
 70
     2
  9
$DIMTDEC
 70
     2
  9
$DIMALTU
 70
     2
  9
$DIMALTTD
 70
     3
  9
$DIMTXSTY
  7
Standard
  9
$DIMAUNIT
 70
     0
  9
$DIMADEC
 70
     2
  9
$DIMALTRND
 40
0.0
  9
$DIMAZIN
 70
     0
  9
$DIMDSEP
 70
    44
  9
$DIMATFIT
 70
     3
  9
$DIMFRAC
 70
     0
  9
$DIMLDRBLK
  1

  9
$DIMLUNIT
 70
     2
  9
$DIMLWD
 70
    -2
  9
$DIMLWE
 70
    -2
  9
$DIMTMOVE
 70
     0
  9
$LUNITS
 70
     2
  9
$LUPREC
 70
     2
  9
$SKETCHINC
 40
1.0
  9
$FILLETRAD
 40
10.0
  9
$AUNITS
 70
     0
  9
$AUPREC
 70
     2
  9
$MENU
  1
.
  9
$ELEVATION
 40
0.0
  9
$PELEVATION
 40
0.0
  9
$THICKNESS
 40
0.0
  9
$LIMCHECK
 70
     0
  9
$CHAMFERA
 40
0.0
  9
$CHAMFERB
 40
0.0
  9
$CHAMFERC
 40
0.0
  9
$CHAMFERD
 40
0.0
  9
$SKPOLY
 70
     0
  9
$TDCREATE
 40
2458312.632038345
  9
$TDUCREATE
 40
2458312.257038345
  9
$TDUPDATE
 40
2458330.687867604
  9
$TDUUPDATE
 40
2458330.312867604
  9
$TDINDWG
 40
0.0004460764
  9
$TDUSRTIMER
 40
2458330.31282375
  9
$USRTIMER
 70
     1
  9
$ANGBASE
 50
0.0
  9
$ANGDIR
 70
     0
  9
$PDMODE
 70
     0
  9
$PDSIZE
 40
-1.0
  9
$PLINEWID
 40
0.0
  9
$SPLFRAME
 70
     0
  9
$SPLINETYPE
 70
     6
  9
$SPLINESEGS
 70
     8
  9
$HANDSEED
  5
26C
  9
$SURFTAB1
 70
     6
  9
$SURFTAB2
 70
     6
  9
$SURFTYPE
 70
     6
  9
$SURFU
 70
     6
  9
$SURFV
 70
     6
  9
$UCSBASE
  2

  9
$UCSNAME
  2

  9
$UCSORG
 10
0.0
 20
0.0
 30
0.0
  9
$UCSXDIR
 10
1.0
 20
0.0
 30
0.0
  9
$UCSYDIR
 10
0.0
 20
1.0
 30
0.0
  9
$UCSORTHOREF
  2

  9
$UCSORTHOVIEW
 70
     0
  9
$UCSORGTOP
 10
0.0
 20
0.0
 30
0.0
  9
$UCSORGBOTTOM
 10
0.0
 20
0.0
 30
0.0
  9
$UCSORGLEFT
 10
0.0
 20
0.0
 30
0.0
  9
$UCSORGRIGHT
 10
0.0
 20
0.0
 30
0.0
  9
$UCSORGFRONT
 10
0.0
 20
0.0
 30
0.0
  9
$UCSORGBACK
 10
0.0
 20
0.0
 30
0.0
  9
$PUCSBASE
  2

  9
$PUCSNAME
  2

  9
$PUCSORG
 10
0.0
 20
0.0
 30
0.0
  9
$PUCSXDIR
 10
1.0
 20
0.0
 30
0.0
  9
$PUCSYDIR
 10
0.0
 20
1.0
 30
0.0
  9
$PUCSORTHOREF
  2

  9
$PUCSORTHOVIEW
 70
     0
  9
$PUCSORGTOP
 10
0.0
 20
0.0
 30
0.0
  9
$PUCSORGBOTTOM
 10
0.0
 20
0.0
 30
0.0
  9
$PUCSORGLEFT
 10
0.0
 20
0.0
 30
0.0
  9
$PUCSORGRIGHT
 10
0.0
 20
0.0
 30
0.0
  9
$PUCSORGFRONT
 10
0.0
 20
0.0
 30
0.0
  9
$PUCSORGBACK
 10
0.0
 20
0.0
 30
0.0
  9
$USERI1
 70
     0
  9
$USERI2
 70
     0
  9
$USERI3
 70
     0
  9
$USERI4
 70
     0
  9
$USERI5
 70
     0
  9
$USERR1
 40
0.0
  9
$USERR2
 40
0.0
  9
$USERR3
 40
0.0
  9
$USERR4
 40
0.0
  9
$USERR5
 40
0.0
  9
$WORLDVIEW
 70
     1
  9
$SHADEDGE
 70
     3
  9
$SHADEDIF
 70
    70
  9
$TILEMODE
 70
     1
  9
$MAXACTVP
 70
    64
  9
$PINSBASE
 10
0.0
 20
0.0
 30
0.0
  9
$PLIMCHECK
 70
     0
  9
$PEXTMIN
 10
1.000000000000000E+20
 20
1.000000000000000E+20
 30
1.000000000000000E+20
  9
$PEXTMAX
 10
-1.000000000000000E+20
 20
-1.000000000000000E+20
 30
-1.000000000000000E+20
  9
$PLIMMIN
 10
0.0
 20
0.0
  9
$PLIMMAX
 10
0.0
 20
0.0
  9
$UNITMODE
 70
     0
  9
$VISRETAIN
 70
     1
  9
$PLINEGEN
 70
     0
  9
$PSLTSCALE
 70
     1
  9
$TREEDEPTH
 70
  3020
  9
$CMLSTYLE
  2
Standard
  9
$CMLJUST
 70
     0
  9
$CMLSCALE
 40
20.0
  9
$PROXYGRAPHICS
 70
     1
  9
$MEASUREMENT
 70
     1
  9
$CELWEIGHT
370
    -1
  9
$ENDCAPS
280
     0
  9
$JOINSTYLE
280
     0
  9
$LWDISPLAY
290
     1
  9
$INSUNITS
 70
     4
  9
$HYPERLINKBASE
  1

  9
$STYLESHEET
  1

  9
$XEDIT
290
     1
  9
$CEPSNTYPE
380
     0
  9
$PSTYLEMODE
290
     1
  9
$FINGERPRINTGUID
  2
{F6A5D02D-B163-4EA9-A911-EBEA49B5DF97}
  9
$VERSIONGUID
  2
{FAEB1C32-E019-11D5-929B-00C0DF256EC4}
  9
$EXTNAMES
290
     1
  9
$PSVPSCALE
 40
0.0
  9
$OLESTARTUP
290
     0
  0
ENDSEC
  0
SECTION
  2
CLASSES
  0
CLASS
  1
ACDBDICTIONARYWDFLT
  2
AcDbDictionaryWithDefault
  3
ObjectDBX Classes
 90
        0
280
     0
281
     0
  0
CLASS
  1
VISUALSTYLE
  2
AcDbVisualStyle
  3
ObjectDBX Classes
 90
     4095
280
     0
281
     0
  0
CLASS
  1
MATERIAL
  2
AcDbMaterial
  3
ObjectDBX Classes
 90
     1153
280
     0
281
     0
  0
CLASS
  1
SCALE
  2
AcDbScale
  3
ObjectDBX Classes
 90
     1153
280
     0
281
     0
  0
CLASS
  1
SUN
  2
AcDbSun
  3
SCENEOE
 90
     1153
280
     0
281
     0
  0
CLASS
  1
ACDBPLACEHOLDER
  2
AcDbPlaceHolder
  3
ObjectDBX Classes
 90
        0
280
     0
281
     0
  0
CLASS
  1
LAYOUT
  2
AcDbLayout
  3
ObjectDBX Classes
 90
        0
280
     0
281
     0
  0
CLASS
  1
TABLESTYLE
  2
AcDbTableStyle
  3
ObjectDBX Classes
 90
     4095
280
     0
281
     0
  0
CLASS
  1
MLEADERSTYLE
  2
AcDbMLeaderStyle
  3
ACDB_MLEADERSTYLE_CLASS
 90
     4095
280
     0
281
     0
  0
CLASS
  1
DICTIONARYVAR
  2
AcDbDictionaryVar
  3
ObjectDBX Classes
 90
        0
280
     0
281
     0
  0
CLASS
  1
RASTERVARIABLES
  2
AcDbRasterVariables
  3
ISM
 90
        0
280
     0
281
     0
  0
ENDSEC
  0
SECTION
  2
TABLES
  0
TABLE
  2
VPORT
  5
8
330
0
100
AcDbSymbolTable
 70
     1
  0
VPORT
  5
29
330
8
100
AcDbSymbolTableRecord
100
AcDbViewportTableRecord
  2
*Active
 70
     0
 10
0.0
 20
0.0
 11
1.0
 21
1.0
 12
18.14074756468835
 22
-7.413666651630756
 13
0.0
 23
0.0
 14
10.0
 24
10.0
 15
10.0
 25
10.0
 16
0.0
 26
0.0
 36
1.0
 17
0.0
 27
0.0
 37
0.0
 40
86.8164142492525
 41
1.782762691853601
 42
50.0
 43
0.0
 44
0.0
 50
0.0
 51
0.0
 71
    16
 72
  2000
 73
     1
 74
     3
 75
     0
 76
     0
 77
     0
 78
     0
281
     0
 65
     1
110
0.0
120
0.0
130
0.0
111
1.0
121
0.0
131
0.0
112
0.0
122
1.0
132
0.0
 79
     0
146
0.0
  0
ENDTAB
  0
TABLE
  2
LTYPE
  5
5
330
0
100
AcDbSymbolTable
 70
     6
  0
LTYPE
  5
14
330
5
100
AcDbSymbolTableRecord
100
AcDbLinetypeTableRecord
  2
ByBlock
 70
     0
  3

 72
    65
 73
     0
 40
0.0
  0
LTYPE
  5
15
330
5
100
AcDbSymbolTableRecord
100
AcDbLinetypeTableRecord
  2
ByLayer
 70
     0
  3

 72
    65
 73
     0
 40
0.0
  0
LTYPE
  5
16
330
5
100
AcDbSymbolTableRecord
100
AcDbLinetypeTableRecord
  2
Continuous
 70
     0
  3
Solid line
 72
    65
 73
     0
 40
0.0
  0
LTYPE
  5
6A
330
5
100
AcDbSymbolTableRecord
100
AcDbLinetypeTableRecord
  2
HIDDEN
 70
     0
  3
Hidden __ __ __ __ __ __ __ __ __ __ __ __ __ __
 72
    65
 73
     2
 40
1.905
 49
1.27
 74
     0
 49
-0.635
 74
     0
  0
LTYPE
  5
6B
330
5
100
AcDbSymbolTableRecord
100
AcDbLinetypeTableRecord
  2
PHANTOM
 70
     0
  3
Phantom ______  __  __  ______  __  __  ______
 72
    65
 73
     6
 40
12.7
 49
6.35
 74
     0
 49
-1.27
 74
     0
 49
1.27
 74
     0
 49
-1.27
 74
     0
 49
1.27
 74
     0
 49
-1.27
 74
     0
  0
LTYPE
  5
6C
330
5
100
AcDbSymbolTableRecord
100
AcDbLinetypeTableRecord
  2
CENTER
 70
     0
  3
Center ____ _ ____ _ ____ _ ____ _ ____ _ ____
 72
    65
 73
     4
 40
10.16
 49
6.35
 74
     0
 49
-1.27
 74
     0
 49
1.27
 74
     0
 49
-1.27
 74
     0
  0
LTYPE
  5
6D
330
5
100
AcDbSymbolTableRecord
100
AcDbLinetypeTableRecord
  2
CENTERX2
 70
     0
  3
Center (2x) ________  __  ________  __  _____
 72
    65
 73
     4
 40
20.32
 49
12.7
 74
     0
 49
-2.54
 74
     0
 49
2.54
 74
     0
 49
-2.54
 74
     0
  0
LTYPE
  5
6E
330
5
100
AcDbSymbolTableRecord
100
AcDbLinetypeTableRecord
  2
DOT2
 70
     0
  3
Dot (.5x) ........................................
 72
    65
 73
     2
 40
0.635
 49
0.0
 74
     0
 49
-0.635
 74
     0
  0
ENDTAB
  0
TABLE
  2
LAYER
  5
2
102
{ACAD_XDICTIONARY
360
192
102
}
330
0
100
AcDbSymbolTable
 70
    18
  0
LAYER
  5
10
330
2
100
AcDbSymbolTableRecord
100
AcDbLayerTableRecord
  2
0
 70
     0
 62
     7
  6
Continuous
370
    -3
390
F
  0
LAYER
  5
6F
330
2
100
AcDbSymbolTableRecord
100
AcDbLayerTableRecord
  2
FORMAT
 70
     0
 62
     2
  6
Continuous
370
    -3
390
F
  0
LAYER
  5
70
330
2
100
AcDbSymbolTableRecord
100
AcDbLayerTableRecord
  2
외형선
 70
     0
 62
     4
  6
Continuous
370
    30
390
F
  0
LAYER
  5
71
330
2
100
AcDbSymbolTableRecord
100
AcDbLayerTableRecord
  2
숨은선
 70
     0
 62
     2
  6
HIDDEN
370
    15
390
F
  0
LAYER
  5
72
330
2
100
AcDbSymbolTableRecord
100
AcDbLayerTableRecord
  2
중심선
 70
     0
 62
     1
  6
CENTERX2
370
    -3
390
F
  0
LAYER
  5
73
330
2
100
AcDbSymbolTableRecord
100
AcDbLayerTableRecord
  2
파단선
 70
     0
 62
     4
  6
Continuous
370
    -3
390
F
  0
LAYER
  5
74
330
2
100
AcDbSymbolTableRecord
100
AcDbLayerTableRecord
  2
해칭선
 70
     0
 62
   100
  6
Continuous
370
    -3
390
F
  0
LAYER
  5
75
330
2
100
AcDbSymbolTableRecord
100
AcDbLayerTableRecord
  2
가는실선
 70
     0
 62
     4
  6
Continuous
370
    -3
390
F
  0
LAYER
  5
76
330
2
100
AcDbSymbolTableRecord
100
AcDbLayerTableRecord
  2
치수_보조선
 70
     0
 62
     4
  6
Continuous
370
    -3
390
F
  0
LAYER
  5
77
330
2
100
AcDbSymbolTableRecord
100
AcDbLayerTableRecord
  2
치수문자_일반주서
 70
     0
 62
     7
  6
Continuous
370
    15
390
F
  0
LAYER
  5
78
330
2
100
AcDbSymbolTableRecord
100
AcDbLayerTableRecord
  2
개별주서
 70
     0
 62
   100
  6
Continuous
370
    30
390
F
  0
LAYER
  5
79
330
2
100
AcDbSymbolTableRecord
100
AcDbLayerTableRecord
  2
중간선
 70
     0
 62
     2
  6
Continuous
370
    15
390
F
  0
LAYER
  5
7A
330
2
100
AcDbSymbolTableRecord
100
AcDbLayerTableRecord
  2
윤곽선
 70
     0
 62
     3
  6
Continuous
370
    40
390
F
  0
LAYER
  5
7B
330
2
100
AcDbSymbolTableRecord
100
AcDbLayerTableRecord
  2
중심마크
 70
     0
 62
   100
  6
Continuous
370
    30
390
F
  0
LAYER
  5
7C
330
2
100
AcDbSymbolTableRecord
100
AcDbLayerTableRecord
  2
가상선
 70
     0
 62
     4
  6
PHANTOM
370
    -3
390
F
  0
LAYER
  5
7D
330
2
100
AcDbSymbolTableRecord
100
AcDbLayerTableRecord
  2
특수지정선
 70
     0
 62
     5
  6
CENTERX2
370
    60
390
F
  0
LAYER
  5
7E
330
2
100
AcDbSymbolTableRecord
100
AcDbLayerTableRecord
  2
참조1
 70
     0
 62
    -4
  6
Continuous
370
    -3
390
F
  0
LAYER
  5
15F
330
2
100
AcDbSymbolTableRecord
100
AcDbLayerTableRecord
  2
Defpoints
 70
     0
 62
     7
  6
Continuous
290
     0
370
    -3
390
F
  0
ENDTAB
  0
TABLE
  2
STYLE
  5
3
330
0
100
AcDbSymbolTable
 70
     2
  0
STYLE
  5
11
330
3
100
AcDbSymbolTableRecord
100
AcDbTextStyleTableRecord
  2
Standard
 70
     0
 40
0.0
 41
1.0
 50
0.0
 71
     0
 42
3.5
  3
txt
  4

  0
STYLE
  5
94
330
3
100
AcDbSymbolTableRecord
100
AcDbTextStyleTableRecord
  2
SLDTEXTSTYLE0
 70
     0
 40
0.0
 41
0.75
 50
0.0
 71
     0
 42
3.5
  3
TXT
  4

  0
ENDTAB
  0
TABLE
  2
VIEW
  5
6
330
0
100
AcDbSymbolTable
 70
     0
  0
ENDTAB
  0
TABLE
  2
UCS
  5
7
330
0
100
AcDbSymbolTable
 70
     0
  0
ENDTAB
  0
TABLE
  2
APPID
  5
9
330
0
100
AcDbSymbolTable
 70
     4
  0
APPID
  5
12
330
9
100
AcDbSymbolTableRecord
100
AcDbRegAppTableRecord
  2
ACAD
 70
     0
  0
APPID
  5
1B1
330
9
100
AcDbSymbolTableRecord
100
AcDbRegAppTableRecord
  2
PE_URL
 70
     0
  0
APPID
  5
1EC
330
9
100
AcDbSymbolTableRecord
100
AcDbRegAppTableRecord
  2
ACAD_DSTYLE_DIMFLIPARROW_SYMBOL
 70
     0
  0
APPID
  5
1ED
330
9
100
AcDbSymbolTableRecord
100
AcDbRegAppTableRecord
  2
ACAD_DSTYLE_DIMFLIPARROW_WHICH_SYMBOL
 70
     0
  0
ENDTAB
  0
TABLE
  2
DIMSTYLE
  5
A
330
0
100
AcDbSymbolTable
 70
     3
100
AcDbDimStyleTable
  0
DIMSTYLE
105
27
330
A
100
AcDbSymbolTableRecord
100
AcDbDimStyleTableRecord
  2
ISO-25
 70
     0
 41
2.5
 42
0.625
 43
3.75
 44
1.25
 73
     0
 74
     0
 77
     1
 78
     8
140
2.5
141
2.5
143
0.03937007874016
147
0.625
171
     3
172
     1
178
     0
271
     2
272
     2
274
     3
278
    44
283
     0
284
     8
340
11
  0
DIMSTYLE
105
DE
102
{ACAD_REACTORS
330
DD
330
F2
330
11A
330
105
102
}
330
A
100
AcDbSymbolTableRecord
100
AcDbDimStyleTableRecord
  2
SLDDIMSTYLE0
 70
     0
 41
3.302
 44
0.0
 45
0.000000001
 73
     0
 74
     0
 77
     1
 78
    12
 79
     3
140
3.5
143
0.0393700787401575
147
0.875
148
0.000000001
170
     1
173
     1
178
     0
271
     2
272
     2
276
     2
284
    12
340
94
  0
DIMSTYLE
105
106
330
A
100
AcDbSymbolTableRecord
100
AcDbDimStyleTableRecord
  2
SLDDIMSTYLE1
 70
     0
 41
3.302
 44
0.0
 45
0.000000001
 73
     0
 74
     0
 77
     1
 78
    12
 79
     3
140
3.5
143
0.0393700787401575
147
0.875
148
0.000000001
170
     1
172
     1
173
     1
178
     0
271
     2
272
     2
276
     2
284
    12
289
     0
340
94
  0
ENDTAB
  0
TABLE
  2
BLOCK_RECORD
  5
1
330
0
100
AcDbSymbolTable
 70
     9
  0
BLOCK_RECORD
  5
1F
330
1
100
AcDbSymbolTableRecord
100
AcDbBlockTableRecord
  2
*Model_Space
340
22
  0
BLOCK_RECORD
  5
1B
330
1
100
AcDbSymbolTableRecord
100
AcDbBlockTableRecord
  2
*Paper_Space
340
1E
  0
BLOCK_RECORD
  5
23
330
1
100
AcDbSymbolTableRecord
100
AcDbBlockTableRecord
  2
*Paper_Space0
340
26
  0
BLOCK_RECORD
  5
7F
330
1
100
AcDbSymbolTableRecord
100
AcDbBlockTableRecord
  2
블럭10
340
0
102
{BLKREFS
331
D6
102
}
  0
BLOCK_RECORD
  5
DF
330
1
100
AcDbSymbolTableRecord
100
AcDbBlockTableRecord
  2
_D
340
0
  0
BLOCK_RECORD
  5
F3
330
1
100
AcDbSymbolTableRecord
100
AcDbBlockTableRecord
  2
_D_1
340
0
  0
BLOCK_RECORD
  5
107
330
1
100
AcDbSymbolTableRecord
100
AcDbBlockTableRecord
  2
_D_2
340
0
  0
BLOCK_RECORD
  5
11B
330
1
100
AcDbSymbolTableRecord
100
AcDbBlockTableRecord
  2
_D_3
340
0
  0
BLOCK_RECORD
  5
135
330
1
100
AcDbSymbolTableRecord
100
AcDbBlockTableRecord
  2
SW_DOWELSYMBOL_0
340
0
102
{BLKREFS
331
13B
102
}
  0
BLOCK_RECORD
  5
196
330
1
100
AcDbSymbolTableRecord
100
AcDbBlockTableRecord
  2
*D7
340
0
  0
BLOCK_RECORD
  5
1A5
330
1
100
AcDbSymbolTableRecord
100
AcDbBlockTableRecord
  2
*D8
340
0
  0
ENDTAB
  0
ENDSEC
  0
SECTION
  2
BLOCKS
  0
BLOCK
  5
20
330
1F
100
AcDbEntity
  8
0
100
AcDbBlockBegin
  2
*Model_Space
 70
     0
 10
0.0
 20
0.0
 30
0.0
  3
*Model_Space
  1
*Model_Space
  0
ENDBLK
  5
21
330
1F
100
AcDbEntity
  8
0
100
AcDbBlockEnd
  0
BLOCK
  5
1C
330
1B
100
AcDbEntity
 67
     1
  8
0
100
AcDbBlockBegin
  2
*Paper_Space
 70
     0
 10
0.0
 20
0.0
 30
0.0
  3
*Paper_Space
  1
*Paper_Space
  0
ENDBLK
  5
1D
330
1B
100
AcDbEntity
 67
     1
  8
0
100
AcDbBlockEnd
  0
BLOCK
  5
24
330
23
100
AcDbEntity
  8
0
100
AcDbBlockBegin
  2
*Paper_Space0
 70
     0
 10
0.0
 20
0.0
 30
0.0
  3
*Paper_Space0
  1
*Paper_Space0
  0
ENDBLK
  5
25
330
23
100
AcDbEntity
  8
0
100
AcDbBlockEnd
  0
BLOCK
  5
80
330
7F
100
AcDbEntity
  8
0
100
AcDbBlockBegin
  2
블럭10
 70
     2
 10
0.0
 20
0.0
 30
0.0
  3
블럭10
  1
블럭10
  0
ELLIPSE
  5
82
330
7F
100
AcDbEntity
  8
중심선
100
AcDbEllipse
 10
20.54032771741204
 20
12.0471743016438
 30
0.0
 11
6.600054785286829
 21
-1.261213355974178E-13
 31
0.0
210
0.0
220
0.0
230
1.0
 40
0.636358354079598
 41
0.9219305317359503
 42
6.513795318482858
  0
ELLIPSE
  5
83
330
7F
100
AcDbEntity
  8
중심선
100
AcDbEllipse
 10
20.54032771746488
 20
12.04717430159265
 30
0.0
 11
3.960054785062283
 21
1.540847449632565E-10
 31
0.0
210
0.0
220
0.0
230
1.0
 40
0.3939339440162632
 41
1.131841032648279
 42
5.62031148352944
  0
LINE
  5
84
330
7F
100
AcDbEntity
  8
중심선
100
AcDbLine
 10
2.268634060543552
 20
16.24717430164393
 30
0.0
 11
5.714909304380834
 21
16.24717430164393
 31
0.0
  0
LINE
  5
85
330
7F
100
AcDbEntity
  8
중심선
100
AcDbLine
 10
5.245725140726316
 20
7.84717430164391
 30
0.0
 11
8.692000384563599
 21
7.84717430164391
 31
0.0
  0
LINE
  5
86
330
7F
100
AcDbEntity
  8
중심선
100
AcDbLine
 10
15.74043728645272
 20
16.24717430164393
 30
0.0
 11
8.692000384563599
 21
7.84717430164391
 31
0.0
  0
LINE
  5
87
330
7F
100
AcDbEntity
  8
중심선
100
AcDbLine
 10
0.1404042013395286
 20
13.71084872107135
 30
0.0
 11
3.58671253028996
 21
13.71088815037384
 31
0.0
  0
LINE
  5
88
330
7F
100
AcDbEntity
  8
중심선
100
AcDbLine
 10
2.750260043222114
 20
10.84717430164391
 30
0.0
 11
6.196535287059397
 21
10.84717430164391
 31
0.0
  0
LINE
  5
89
330
7F
100
AcDbEntity
  8
중심선
100
AcDbLine
 10
12.29416204261559
 20
16.24717430164393
 30
0.0
 11
5.245725140726316
 21
7.84717430164391
 31
0.0
  0
LINE
  5
8A
330
7F
100
AcDbEntity
  8
중심선
100
AcDbLine
 10
10.72767329541681
 20
16.24717430164393
 30
0.0
 11
6.196535287059397
 21
10.84717430164391
 31
0.0
  0
LINE
  5
8B
330
7F
100
AcDbEntity
  8
중심선
100
AcDbLine
 10
7.28139805157953
 20
16.24717430164393
 30
0.0
 11
2.750260043222114
 21
10.84717430164391
 31
0.0
  0
LINE
  5
8C
330
7F
100
AcDbEntity
  8
중심선
100
AcDbLine
 10
5.714909304380834
 20
16.24717430164393
 30
0.0
 11
3.58671253028996
 21
13.71088815037384
 31
0.0
  0
LINE
  5
8D
330
7F
100
AcDbEntity
  8
중심선
100
AcDbLine
 10
2.268634060543552
 20
16.24717430164393
 30
0.0
 11
0.1404042013395286
 21
13.71084872107135
 31
0.0
  0
LINE
  5
8E
330
7F
100
AcDbEntity
  8
중심선
100
AcDbLine
 10
7.28139805157953
 20
16.24717430164393
 30
0.0
 11
10.72767329541681
 21
16.24717430164393
 31
0.0
  0
LINE
  5
8F
330
7F
100
AcDbEntity
  8
중심선
100
AcDbLine
 10
12.29416204261559
 20
16.24717430164393
 30
0.0
 11
15.74043728645272
 21
16.24717430164393
 31
0.0
  0
LINE
  5
90
330
7F
100
AcDbEntity
  8
중심선
100
AcDbLine
 10
19.22036997980202
 20
11.08717430171403
 30
0.0
 11
23.66174974927406
 21
11.08717430171406
 31
0.0
  0
LINE
  5
91
330
7F
100
AcDbEntity
  8
중심선
100
AcDbLine
 10
19.22039502424796
 20
13.00717430171391
 30
0.0
 11
19.22036997980202
 21
11.08717430171403
 31
0.0
  0
LINE
  5
92
330
7F
100
AcDbEntity
  8
중심선
100
AcDbLine
 10
19.22039502424796
 20
13.00717430171391
 30
0.0
 11
26.96566020931264
 21
13.00717430171391
 31
0.0
  0
LINE
  5
93
330
7F
100
AcDbEntity
  8
중심선
100
AcDbLine
 10
22.22332737316547
 20
13.45928029700563
 30
0.0
 11
24.52862924686651
 21
15.39360700705356
 31
0.0
  0
ATTDEF
  5
95
330
7F
100
AcDbEntity
  8
FORMAT
 62
     2
100
AcDbText
 10
4.408487351596664
 20
2.075366912832191
 30
0.0
 40
4.233333333333333
  1
E1041016
 41
0.75
  7
SLDTEXTSTYLE0
 11
4.408487351596664
 21
-0.0412997538344756
 31
0.0
100
AcDbAttributeDefinition
  3

  2
AUTOATTR0
 70
     0
 74
     1
  0
ENDBLK
  5
81
330
7F
100
AcDbEntity
  8
0
100
AcDbBlockEnd
  0
BLOCK
  5
E0
330
DF
100
AcDbEntity
  8
0
100
AcDbBlockBegin
  2
_D
 70
     0
 10
0.0
 20
0.0
 30
0.0
  3
_D
  1
_D
  0
LINE
  5
E2
330
DF
100
AcDbEntity
  8
치수문자_일반주서
 62
     0
370
    -2
100
AcDbLine
 10
53.37463065701561
 20
3.226899156826322
 30
0.0
 11
53.3746306570156
 21
14.76357492872389
 31
0.0
  0
LINE
  5
E3
330
DF
100
AcDbEntity
  8
치수문자_일반주서
 62
     0
370
    -2
100
AcDbLine
 10
8.924630657015587
 20
3.082761117015418
 30
0.0
 11
8.92463065701558
 21
14.76357492872389
 31
0.0
  0
LINE
  5
E4
330
DF
100
AcDbEntity
  8
치수문자_일반주서
 62
     0
370
    -2
100
AcDbLine
 10
50.0726306570156
 20
14.76357492872389
 30
0.0
 11
12.22663065701558
 21
14.76357492872389
 31
0.0
  0
SOLID
  5
E5
330
DF
100
AcDbEntity
  8
치수문자_일반주서
 62
     0
100
AcDbTrace
 10
50.0726306570156
 20
14.21324159539056
 30
0.0
 11
50.0726306570156
 21
15.31390826205723
 31
0.0
 12
53.3746306570156
 22
14.76357492872389
 32
0.0
 13
53.3746306570156
 23
14.76357492872389
 33
0.0
  0
SOLID
  5
E6
330
DF
100
AcDbEntity
  8
치수문자_일반주서
 62
     0
100
AcDbTrace
 10
12.22663065701558
 20
15.31390826205723
 30
0.0
 11
12.22663065701558
 21
14.21324159539056
 31
0.0
 12
8.92463065701558
 22
14.76357492872389
 32
0.0
 13
8.92463065701558
 23
14.76357492872389
 33
0.0
  0
MTEXT
  5
E7
330
DF
100
AcDbEntity
  8
치수문자_일반주서
 62
     0
100
AcDbMText
 10
31.1496306570156
 20
19.13857492872389
 30
0.0
 40
3.5
 41
0.0
 71
     2
 72
     1
  1
\A1;44.45 [1 3/4]
  7
SLDTEXTSTYLE0
 73
     1
 44
1.0
  0
POINT
  5
E8
330
DF
100
AcDbEntity
  8
Defpoints
 62
     0
100
AcDbPoint
 10
53.37463065701561
 20
3.164399156826322
 30
0.0
  0
POINT
  5
E9
330
DF
100
AcDbEntity
  8
Defpoints
 62
     0
100
AcDbPoint
 10
8.924630657015587
 20
3.020261117015418
 30
0.0
  0
POINT
  5
EA
330
DF
100
AcDbEntity
  8
Defpoints
 62
     0
100
AcDbPoint
 10
8.924630657015587
 20
14.76357492872389
 30
0.0
  0
ENDBLK
  5
E1
330
DF
100
AcDbEntity
  8
0
100
AcDbBlockEnd
  0
BLOCK
  5
F4
330
F3
100
AcDbEntity
  8
0
100
AcDbBlockBegin
  2
_D_1
 70
     0
 10
0.0
 20
0.0
 30
0.0
  3
_D_1
  1
_D_1
  0
LINE
  5
F6
330
F3
100
AcDbEntity
  8
치수문자_일반주서
 62
     0
370
    -2
100
AcDbLine
 10
53.37463065701561
 20
3.226899156826322
 30
0.0
 11
53.37463065701562
 21
24.76357492872389
 31
0.0
  0
LINE
  5
F7
330
F3
100
AcDbEntity
  8
치수문자_일반주서
 62
     0
370
    -2
100
AcDbLine
 10
-37.1128693429844
 20
3.873574928723895
 30
0.0
 11
-37.11286934298439
 21
24.76357492872389
 31
0.0
  0
LINE
  5
F8
330
F3
100
AcDbEntity
  8
치수문자_일반주서
 62
     0
370
    -2
100
AcDbLine
 10
50.07263065701562
 20
24.76357492872389
 30
0.0
 11
-33.81086934298439
 21
24.76357492872389
 31
0.0
  0
SOLID
  5
F9
330
F3
100
AcDbEntity
  8
치수문자_일반주서
 62
     0
100
AcDbTrace
 10
50.07263065701562
 20
24.21324159539056
 30
0.0
 11
50.07263065701562
 21
25.31390826205723
 31
0.0
 12
53.37463065701562
 22
24.76357492872389
 32
0.0
 13
53.37463065701562
 23
24.76357492872389
 33
0.0
  0
SOLID
  5
FA
330
F3
100
AcDbEntity
  8
치수문자_일반주서
 62
     0
100
AcDbTrace
 10
-33.81086934298439
 20
25.31390826205723
 30
0.0
 11
-33.81086934298439
 21
24.21324159539056
 31
0.0
 12
-37.11286934298439
 22
24.76357492872389
 32
0.0
 13
-37.11286934298439
 23
24.76357492872389
 33
0.0
  0
MTEXT
  5
FB
330
F3
100
AcDbEntity
  8
치수문자_일반주서
 62
     0
100
AcDbMText
 10
8.130880657015616
 20
29.13857492872389
 30
0.0
 40
3.5
 41
0.0
 71
     2
 72
     1
  1
\A1;90.49 [3 9/16]
  7
SLDTEXTSTYLE0
 73
     1
 44
1.0
  0
POINT
  5
FC
330
F3
100
AcDbEntity
  8
Defpoints
 62
     0
100
AcDbPoint
 10
53.37463065701561
 20
3.164399156826322
 30
0.0
  0
POINT
  5
FD
330
F3
100
AcDbEntity
  8
Defpoints
 62
     0
100
AcDbPoint
 10
-37.1128693429844
 20
3.811074928723895
 30
0.0
  0
POINT
  5
FE
330
F3
100
AcDbEntity
  8
Defpoints
 62
     0
100
AcDbPoint
 10
-37.1128693429844
 20
24.76357492872389
 30
0.0
  0
ENDBLK
  5
F5
330
F3
100
AcDbEntity
  8
0
100
AcDbBlockEnd
  0
BLOCK
  5
108
330
107
100
AcDbEntity
  8
0
100
AcDbBlockBegin
  2
_D_2
 70
     0
 10
0.0
 20
0.0
 30
0.0
  3
_D_2
  1
_D_2
  0
LINE
  5
10A
330
107
100
AcDbEntity
  8
치수문자_일반주서
 62
     0
370
    -2
100
AcDbLine
 10
-36.2228693429844
 20
4.763574928723896
 30
0.0
 11
-47.11286934298438
 21
4.763574928723852
 31
0.0
  0
LINE
  5
10B
330
107
100
AcDbEntity
  8
치수문자_일반주서
 62
     0
370
    -2
100
AcDbLine
 10
-36.2228693429844
 20
-4.761425071276109
 30
0.0
 11
-47.11286934298435
 21
-4.761425071276154
 31
0.0
  0
LINE
  5
10C
330
107
100
AcDbEntity
  8
치수문자_일반주서
 62
     0
370
    -2
100
AcDbLine
 10
-47.11286934298438
 20
4.763574928723852
 30
0.0
 11
-47.1128693429845
 21
34.31557492872386
 31
0.0
  0
LINE
  5
10D
330
107
100
AcDbEntity
  8
치수문자_일반주서
 62
     0
370
    -2
100
AcDbLine
 10
-47.11286934298438
 20
4.763574928723852
 30
0.0
 11
-47.11286934298435
 21
-4.761425071276154
 31
0.0
  0
LINE
  5
10E
330
107
100
AcDbEntity
  8
치수문자_일반주서
 62
     0
370
    -2
100
AcDbLine
 10
-47.1128693429844
 20
8.065574928723851
 30
0.0
 11
-47.11286934298441
 21
11.36757492872385
 31
0.0
  0
LINE
  5
10F
330
107
100
AcDbEntity
  8
치수문자_일반주서
 62
     0
370
    -2
100
AcDbLine
 10
-47.11286934298433
 20
-8.063425071276153
 30
0.0
 11
-47.11286934298432
 21
-11.36542507127615
 31
0.0
  0
SOLID
  5
110
330
107
100
AcDbEntity
  8
치수문자_일반주서
 62
     0
100
AcDbTrace
 10
-47.66320267631773
 20
8.06557492872385
 30
0.0
 11
-46.56253600965106
 21
8.065574928723853
 31
0.0
 12
-47.11286934298438
 22
4.763574928723852
 32
0.0
 13
-47.11286934298438
 23
4.763574928723852
 33
0.0
  0
SOLID
  5
111
330
107
100
AcDbEntity
  8
치수문자_일반주서
 62
     0
100
AcDbTrace
 10
-46.562536009651
 20
-8.063425071276152
 30
0.0
 11
-47.66320267631767
 21
-8.063425071276155
 31
0.0
 12
-47.11286934298435
 22
-4.761425071276154
 32
0.0
 13
-47.11286934298435
 23
-4.761425071276154
 33
0.0
  0
MTEXT
  5
112
330
107
100
AcDbEntity
  8
치수문자_일반주서
 62
     0
100
AcDbMText
 10
-51.48786934298445
 20
21.19057492872384
 30
0.0
 40
3.5
 41
0.0
 71
     2
 72
     1
  1
\A1;%%c9.53 [3/8]
  7
SLDTEXTSTYLE0
 11
-3.729883127349605E-15
 21
1.0
 31
0.0
 73
     1
 44
1.0
  0
POINT
  5
1B2
330
107
100
AcDbEntity
  8
Defpoints
 62
     0
100
AcDbPoint
 10
-36.1603693429844
 20
4.763574928723896
 30
0.0
  0
POINT
  5
1B3
330
107
100
AcDbEntity
  8
Defpoints
 62
     0
100
AcDbPoint
 10
-36.1603693429844
 20
-4.761425071276109
 30
0.0
  0
POINT
  5
1B4
330
107
100
AcDbEntity
  8
Defpoints
 62
     0
100
AcDbPoint
 10
-47.11286934298435
 20
-4.76142507127615
 30
0.0
  0
ENDBLK
  5
109
330
107
100
AcDbEntity
  8
0
100
AcDbBlockEnd
  0
BLOCK
  5
11C
330
11B
100
AcDbEntity
  8
0
100
AcDbBlockBegin
  2
_D_3
 70
     0
 10
0.0
 20
0.0
 30
0.0
  3
_D_3
  1
_D_3
  0
LINE
  5
11E
330
11B
100
AcDbEntity
  8
치수문자_일반주서
 62
     0
370
    -2
100
AcDbLine
 10
53.43713065701561
 20
-3.162249299378535
 30
0.0
 11
63.37463065701548
 21
-3.162249299378498
 31
0.0
  0
LINE
  5
11F
330
11B
100
AcDbEntity
  8
치수문자_일반주서
 62
     0
370
    -2
100
AcDbLine
 10
53.43713065701561
 20
3.164399156826323
 30
0.0
 11
63.37463065701546
 21
3.164399156826359
 31
0.0
  0
LINE
  5
120
330
11B
100
AcDbEntity
  8
치수문자_일반주서
 62
     0
370
    -2
100
AcDbLine
 10
63.37463065701546
 20
3.164399156826359
 30
0.0
 11
63.37463065701535
 21
35.14339915682635
 31
0.0
  0
LINE
  5
121
330
11B
100
AcDbEntity
  8
치수문자_일반주서
 62
     0
370
    -2
100
AcDbLine
 10
63.37463065701549
 20
-6.464249299378498
 30
0.0
 11
63.37463065701551
 21
-9.766249299378497
 31
0.0
  0
LINE
  5
122
330
11B
100
AcDbEntity
  8
치수문자_일반주서
 62
     0
370
    -2
100
AcDbLine
 10
63.37463065701544
 20
6.466399156826359
 30
0.0
 11
63.37463065701543
 21
9.768399156826359
 31
0.0
  0
SOLID
  5
123
330
11B
100
AcDbEntity
  8
치수문자_일반주서
 62
     0
100
AcDbTrace
 10
63.92496399034883
 20
-6.464249299378496
 30
0.0
 11
62.82429732368216
 21
-6.464249299378499
 31
0.0
 12
63.37463065701548
 22
-3.162249299378498
 32
0.0
 13
63.37463065701548
 23
-3.162249299378498
 33
0.0
  0
SOLID
  5
124
330
11B
100
AcDbEntity
  8
치수문자_일반주서
 62
     0
100
AcDbTrace
 10
62.82429732368211
 20
6.466399156826357
 30
0.0
 11
63.92496399034878
 21
6.466399156826361
 31
0.0
 12
63.37463065701546
 22
3.164399156826359
 32
0.0
 13
63.37463065701546
 23
3.164399156826359
 33
0.0
  0
MTEXT
  5
125
330
11B
100
AcDbEntity
  8
치수문자_일반주서
 62
     0
100
AcDbMText
 10
58.99963065701539
 20
22.45589915682634
 30
0.0
 40
3.5
 41
0.0
 71
     2
 72
     1
  1
\A1;%%c6.33 [1/4]
  7
SLDTEXTSTYLE0
 11
-3.369285052008393E-15
 21
1.0
 31
0.0
 73
     1
 44
1.0
  0
POINT
  5
126
330
11B
100
AcDbEntity
  8
Defpoints
 62
     0
100
AcDbPoint
 10
53.37463065701561
 20
-3.162249299378536
 30
0.0
  0
POINT
  5
127
330
11B
100
AcDbEntity
  8
Defpoints
 62
     0
100
AcDbPoint
 10
53.37463065701561
 20
3.164399156826322
 30
0.0
  0
POINT
  5
128
330
11B
100
AcDbEntity
  8
Defpoints
 62
     0
100
AcDbPoint
 10
63.37463065701548
 20
3.164399156826359
 30
0.0
  0
ENDBLK
  5
11D
330
11B
100
AcDbEntity
  8
0
100
AcDbBlockEnd
  0
BLOCK
  5
136
330
135
100
AcDbEntity
  8
0
100
AcDbBlockBegin
  2
SW_DOWELSYMBOL_0
 70
     0
 10
0.0
 20
0.0
 30
0.0
  3
SW_DOWELSYMBOL_0
  1
SW_DOWELSYMBOL_0
  0
CIRCLE
  5
138
330
135
100
AcDbEntity
  8
해칭선
 62
     0
100
AcDbCircle
 10
0.0
 20
0.0
 30
0.0
 40
3.000000000000001
  0
HATCH
  5
139
330
135
100
AcDbEntity
  8
0
  6
Continuous
 62
     0
370
     0
100
AcDbHatch
 10
0.0
 20
0.0
 30
0.0
210
0.0
220
0.0
230
1.0
  2
SOLID
 70
     1
 71
     0
 91
        1
 92
        0
 93
        3
 72
     2
 10
0.0
 20
0.0
 40
3.000000000000001
 50
0.0
 51
90.0
 73
     1
 72
     1
 10
0.0
 20
3.000000000000001
 11
0.0
 21
0.0
 72
     1
 10
0.0
 20
0.0
 11
3.000000000000001
 21
0.0
 97
        0
 75
     0
 76
     1
 98
        1
 10
0.0
 20
0.0
  0
HATCH
  5
13A
330
135
100
AcDbEntity
  8
0
  6
Continuous
 62
     0
370
     0
100
AcDbHatch
 10
0.0
 20
0.0
 30
0.0
210
0.0
220
0.0
230
1.0
  2
SOLID
 70
     1
 71
     0
 91
        1
 92
        0
 93
        3
 72
     2
 10
0.0
 20
0.0
 40
3.000000000000001
 50
180.0
 51
270.0000000000007
 73
     1
 72
     1
 10
0.0
 20
-3.000000000000001
 11
0.0
 21
0.0
 72
     1
 10
0.0
 20
0.0
 11
-3.000000000000001
 21
0.0
 97
        0
 75
     0
 76
     1
 98
        1
 10
0.0
 20
0.0
  0
ENDBLK
  5
137
330
135
100
AcDbEntity
  8
0
100
AcDbBlockEnd
  0
BLOCK
  5
197
330
196
100
AcDbEntity
  8
0
100
AcDbBlockBegin
  2
*D7
 70
     1
 10
0.0
 20
0.0
 30
0.0
  3
*D7
  1
*D7
  0
LINE
  5
199
330
196
100
AcDbEntity
  8
치수문자_일반주서
 62
     0
370
    -2
100
AcDbLine
 10
0.0
 20
0.5121961990748796
 30
0.0
 11
0.0
 21
33.79272327212171
 31
0.0
  0
LINE
  5
19A
330
196
100
AcDbEntity
  8
치수문자_일반주서
 62
     0
370
    -2
100
AcDbLine
 10
25.99995813577124
 20
8.175743682859753
 30
0.0
 11
25.99995813577124
 21
33.79272327212171
 31
0.0
  0
LINE
  5
19B
330
196
100
AcDbEntity
  8
치수문자_일반주서
 62
     0
370
    -2
100
AcDbLine
 10
3.302
 20
33.79272327212171
 30
0.0
 11
22.69795813577124
 21
33.79272327212171
 31
0.0
  0
SOLID
  5
19C
330
196
100
AcDbEntity
  8
치수문자_일반주서
 62
     0
100
AcDbTrace
 10
3.302
 20
34.34305660545504
 30
0.0
 11
3.302
 21
33.24238993878837
 31
0.0
 12
0.0
 22
33.79272327212171
 32
0.0
 13
0.0
 23
33.79272327212171
 33
0.0
  0
SOLID
  5
19D
330
196
100
AcDbEntity
  8
치수문자_일반주서
 62
     0
100
AcDbTrace
 10
22.69795813577124
 20
33.24238993878837
 30
0.0
 11
22.69795813577124
 21
34.34305660545504
 31
0.0
 12
25.99995813577124
 22
33.79272327212171
 32
0.0
 13
25.99995813577124
 23
33.79272327212171
 33
0.0
  0
MTEXT
  5
19E
330
196
100
AcDbEntity
  8
치수문자_일반주서
 62
     0
100
AcDbMText
 10
13.04655386270326
 20
38.16772327212171
 30
0.0
 40
3.5
 41
0.0
 71
     2
 72
     1
  1
\A1;26 [1.02]
  7
SLDTEXTSTYLE0
 73
     1
 44
1.0
  0
POINT
  5
19F
330
196
100
AcDbEntity
  8
Defpoints
 62
     0
100
AcDbPoint
 10
0.0
 20
0.4496961990748796
 30
0.0
  0
POINT
  5
1A0
330
196
100
AcDbEntity
  8
Defpoints
 62
     0
100
AcDbPoint
 10
25.99995813577124
 20
8.113243682859753
 30
0.0
  0
POINT
  5
1A1
330
196
100
AcDbEntity
  8
Defpoints
 62
     0
100
AcDbPoint
 10
25.99995813577124
 20
33.79272327212171
 30
0.0
  0
ENDBLK
  5
198
330
196
100
AcDbEntity
  8
0
100
AcDbBlockEnd
  0
BLOCK
  5
1A6
330
1A5
100
AcDbEntity
  8
0
100
AcDbBlockBegin
  2
*D8
 70
     1
 10
0.0
 20
0.0
 30
0.0
  3
*D8
  1
*D8
  0
LINE
  5
1A8
330
1A5
100
AcDbEntity
  8
치수문자_일반주서
 62
     0
370
    -2
100
AcDbLine
 10
106.6239880626677
 20
-35.87152790138055
 30
0.0
 11
106.6239880626677
 21
-2.591000828333719
 31
0.0
  0
LINE
  5
1A9
330
1A5
100
AcDbEntity
  8
치수문자_일반주서
 62
     0
370
    -2
100
AcDbLine
 10
132.6239461984389
 20
-28.20798041759567
 30
0.0
 11
132.6239461984389
 21
-2.591000828333719
 31
0.0
  0
LINE
  5
1AA
330
1A5
100
AcDbEntity
  8
치수문자_일반주서
 62
     0
370
    -2
100
AcDbLine
 10
109.9259880626677
 20
-2.591000828333719
 30
0.0
 11
129.321946198439
 21
-2.591000828333719
 31
0.0
  0
SOLID
  5
1AB
330
1A5
100
AcDbEntity
  8
치수문자_일반주서
 62
     0
100
AcDbTrace
 10
109.9259880626677
 20
-2.040667495000386
 30
0.0
 11
109.9259880626677
 21
-3.141334161667052
 31
0.0
 12
106.6239880626677
 22
-2.591000828333719
 32
0.0
 13
106.6239880626677
 23
-2.591000828333719
 33
0.0
  0
SOLID
  5
1AC
330
1A5
100
AcDbEntity
  8
치수문자_일반주서
 62
     0
100
AcDbTrace
 10
129.321946198439
 20
-3.141334161667052
 30
0.0
 11
129.321946198439
 21
-2.040667495000386
 31
0.0
 12
132.6239461984389
 22
-2.591000828333719
 32
0.0
 13
132.6239461984389
 23
-2.591000828333719
 33
0.0
  0
MTEXT
  5
1AD
330
1A5
100
AcDbEntity
  8
치수문자_일반주서
 62
     0
100
AcDbMText
 10
119.670541925371
 20
1.783999171666281
 30
0.0
 40
3.5
 41
0.0
 71
     2
 72
     1
  1
\A1;26 [1.02]
  7
SLDTEXTSTYLE0
 73
     1
 44
1.0
  0
POINT
  5
1AE
330
1A5
100
AcDbEntity
  8
Defpoints
 62
     0
100
AcDbPoint
 10
106.6239880626677
 20
-35.93402790138055
 30
0.0
  0
POINT
  5
1AF
330
1A5
100
AcDbEntity
  8
Defpoints
 62
     0
100
AcDbPoint
 10
132.6239461984389
 20
-28.27048041759567
 30
0.0
  0
POINT
  5
1B0
330
1A5
100
AcDbEntity
  8
Defpoints
 62
     0
100
AcDbPoint
 10
132.6239461984389
 20
-2.591000828333719
 30
0.0
  0
ENDBLK
  5
1A7
330
1A5
100
AcDbEntity
  8
0
100
AcDbBlockEnd
  0
ENDSEC
  0
SECTION
  2
ENTITIES
  0
LINE
  5
96
330
1F
100
AcDbEntity
  8
0
  6
Continuous
 62
     1
370
    15
100
AcDbLine
 10
22.85037030594529
 20
-0.9216726178128473
 30
0.0
 11
22.90596221384552
 21
-0.9515476757907673
 31
0.0
1001
PE_URL
1000

  0
LINE
  5
97
330
1F
100
AcDbEntity
  8
0
  6
Continuous
 62
     1
370
    15
100
AcDbLine
 10
45.20879570980937
 20
-3.173925071276109
 30
0.0
 11
47.14484370086024
 21
-3.173925071276109
 31
0.0
1001
PE_URL
1000

  0
LINE
  5
98
330
1F
100
AcDbEntity
  8
0
  6
Continuous
 62
     1
370
    15
100
AcDbLine
 10
10.65445504228486
 20
-3.173925071276109
 30
0.0
 11
12.59216715233201
 21
-3.173925071276109
 31
0.0
1001
PE_URL
1000

  0
LINE
  5
99
330
1F
100
AcDbEntity
  8
0
  6
Continuous
 62
     1
370
    15
100
AcDbLine
 10
29.86716648995034
 20
3.176074928723895
 30
0.0
 11
27.93271755981443
 21
3.176074928723895
 31
0.0
1001
PE_URL
1000

  0
LINE
  5
9A
330
1F
100
AcDbEntity
  8
0
  6
Continuous
 62
     1
370
    15
100
AcDbLine
 10
19.29451183700147
 20
-3.173925071276109
 30
0.0
 11
21.22859581486258
 21
-3.173925071276109
 31
0.0
1001
PE_URL
1000

  0
LINE
  5
9B
330
1F
100
AcDbEntity
  8
0
  6
Continuous
 62
     1
370
    15
100
AcDbLine
 10
38.5059957059175
 20
3.176074928723895
 30
0.0
 11
36.57088441619873
 21
3.176074928723895
 31
0.0
1001
PE_URL
1000

  0
LINE
  5
9C
330
1F
100
AcDbEntity
  8
0
  6
Continuous
 62
     1
370
    15
100
AcDbLine
 10
36.57088441619873
 20
-3.173925071276109
 30
0.0
 11
38.50599570591744
 21
-3.173925071276109
 31
0.0
1001
PE_URL
1000

  0
LINE
  5
9D
330
1F
100
AcDbEntity
  8
0
  6
Continuous
 62
     1
370
    15
100
AcDbLine
 10
21.22859581486255
 20
3.176074928723895
 30
0.0
 11
19.29451183700151
 21
3.176074928723895
 31
0.0
1001
PE_URL
1000

  0
LINE
  5
9E
330
1F
100
AcDbEntity
  8
0
  6
Continuous
 62
     1
370
    15
100
AcDbLine
 10
27.93271755981451
 20
-3.173925071276109
 30
0.0
 11
29.86716648995035
 21
-3.173925071276109
 31
0.0
1001
PE_URL
1000

  0
LINE
  5
9F
330
1F
100
AcDbEntity
  8
0
  6
Continuous
 62
     1
370
    15
100
AcDbLine
 10
12.592167152332
 20
3.176074928723895
 30
0.0
 11
10.65445504228497
 21
3.176074928723895
 31
0.0
1001
PE_URL
1000

  0
LINE
  5
A0
330
1F
100
AcDbEntity
  8
0
  6
Continuous
 62
     1
370
    15
100
AcDbLine
 10
47.14484370086023
 20
3.176074928723895
 30
0.0
 11
45.20879570980939
 21
3.176074928723895
 31
0.0
1001
PE_URL
1000

  0
LINE
  5
A1
330
1F
100
AcDbEntity
  8
외형선
  6
Continuous
370
    15
100
AcDbLine
 10
1.999999999999996
 20
-4.761425071276111
 30
0.0
 11
7.924630657015598
 21
-3.173925071276107
 31
0.0
  0
LINE
  5
A2
330
1F
100
AcDbEntity
  8
외형선
  6
Continuous
370
    15
100
AcDbLine
 10
7.924630657015598
 20
3.176074928723893
 30
0.0
 11
1.999999999999996
 21
4.763574928723898
 31
0.0
  0
LINE
  5
A3
330
1F
100
AcDbEntity
  8
외형선
  6
Continuous
370
    15
100
AcDbLine
 10
-36.1603693429844
 20
-4.761425071276109
 30
0.0
 11
1.999999999999996
 21
-4.761425071276109
 31
0.0
  0
LINE
  5
A4
330
1F
100
AcDbEntity
  8
외형선
  6
Continuous
370
    15
100
AcDbLine
 10
1.999999999999996
 20
4.763574928723895
 30
0.0
 11
-12.43041934298428
 21
4.763574928723895
 31
0.0
  0
LINE
  5
A5
330
1F
100
AcDbEntity
  8
외형선
  6
Continuous
370
    15
100
AcDbLine
 10
-36.1603693429844
 20
4.763574928723893
 30
0.0
 11
-37.1128693429844
 21
3.811074928723895
 31
0.0
  0
LINE
  5
A6
330
1F
100
AcDbEntity
  8
외형선
  6
Continuous
370
    15
100
AcDbLine
 10
-37.1128693429844
 20
-3.808925071276108
 30
0.0
 11
-36.1603693429844
 21
-4.761425071276106
 31
0.0
  0
LINE
  5
A7
330
1F
100
AcDbEntity
  8
외형선
  6
Continuous
370
    15
100
AcDbLine
 10
7.924630657015598
 20
-3.173925071276107
 30
0.0
 11
8.424790509526972
 21
-3.173925071276107
 31
0.0
  0
LINE
  5
A8
330
1F
100
AcDbEntity
  8
외형선
  6
Continuous
370
    15
100
AcDbLine
 10
8.424790509526972
 20
3.176074928723893
 30
0.0
 11
7.924630657015598
 21
3.176074928723893
 31
0.0
  0
LINE
  5
A9
330
1F
100
AcDbEntity
  8
0
  6
Continuous
 62
     1
370
    15
100
AcDbLine
 10
53.37463065701561
 20
1.340852399550515
 30
0.0
 11
53.37463065701561
 21
3.164399156826322
 31
0.0
1001
PE_URL
1000

  0
SPLINE
  5
AA
330
1F
100
AcDbEntity
  8
0
  6
Continuous
 62
     1
370
    15
100
AcDbSpline
210
0.0
220
0.0
230
1.0
 70
     8
 71
     3
 72
    24
 73
    20
 74
     0
 42
0.000000001
 43
0.00000001
 40
0.0
 40
0.0
 40
0.0
 40
0.0
 40
0.0174601282163566
 40
0.0825435715003079
 40
0.1476172358786378
 40
0.2126829740091424
 40
0.2777426504593841
 40
0.3427981389244116
 40
0.4038006861395775
 40
0.464807289293061
 40
0.5258299026949858
 40
0.5868803984526152
 40
0.6479643068946683
 40
0.7079366798761235
 40
0.7678715938107527
 40
0.8277858962679343
 40
0.8876965682230368
 40
0.9487104285988428
 40
1.0
 40
1.0
 40
1.0
 40
1.0
 10
12.592167152332
 20
3.157551745698135
 30
0.0
 10
12.7122067487216
 20
3.163028446417655
 30
0.0
 10
13.27969954629275
 20
3.188919804821538
 30
0.0
 10
14.29452925664752
 20
3.04613839776531
 30
0.0
 10
15.63660790876963
 20
2.731166646109957
 30
0.0
 10
16.97849239624693
 20
2.239891461320431
 30
0.0
 10
18.32020619814019
 20
1.6198791525226
 30
0.0
 10
19.63405121033347
 20
0.9178359819321316
 30
0.0
 10
20.91974265727416
 20
0.1812201178804989
 30
0.0
 10
22.17779678312292
 20
-0.5489307444888492
 30
0.0
 10
23.43623397277894
 20
-1.250456959348185
 30
0.0
 10
24.69530449877349
 20
-1.88682252264164
 30
0.0
 10
25.94738225593005
 20
-2.42132548116333
 30
0.0
 10
27.19160333792993
 20
-2.828914371664105
 30
0.0
 10
28.42761824337838
 20
-3.091359403755512
 30
0.0
 10
29.66313005364906
 20
-3.199171329293891
 30
0.0
 10
30.9060287619348
 20
-3.141958922915558
 30
0.0
 10
32.08975023350972
 20
-2.947945918708406
 30
0.0
 10
32.86174186219833
 20
-2.705108838740671
 30
0.0
 10
33.21431452301744
 20
-2.594203859660517
 30
0.0
1001
PE_URL
1000

  0
SPLINE
  5
AB
330
1F
100
AcDbEntity
  8
0
  6
Continuous
 62
     1
370
    15
100
AcDbSpline
210
0.0
220
0.0
230
1.0
 70
     8
 71
     3
 72
    13
 73
     9
 74
     0
 42
0.000000001
 43
0.00000001
 40
0.0
 40
0.0
 40
0.0
 40
0.0
 40
0.0044229616681344
 40
0.2063666496910063
 40
0.404673716005956
 40
0.603010985929691
 40
0.801434564820005
 40
1.0
 40
1.0
 40
1.0
 40
1.0
 10
47.14484370086023
 20
3.174301440742497
 30
0.0
 10
47.15402860263944
 20
3.17489101560366
 30
0.0
 10
47.58257796619667
 20
3.202399413362793
 30
0.0
 10
48.42287615573161
 20
3.105105884622669
 30
0.0
 10
49.66576690795315
 20
2.875488248711762
 30
0.0
 10
50.90139971068732
 20
2.482238556628867
 30
0.0
 10
52.13765697995061
 20
1.973988045841778
 30
0.0
 10
52.96220788559345
 20
1.556142437027772
 30
0.0
 10
53.37463065701562
 20
1.347144978127037
 30
0.0
1001
PE_URL
1000

  0
SPLINE
  5
AC
330
1F
100
AcDbEntity
  8
0
  6
Continuous
 62
     1
370
    15
100
AcDbSpline
210
0.0
220
0.0
230
1.0
 70
     8
 71
     3
 72
    10
 73
     6
 74
     0
 42
0.000000001
 43
0.00000001
 40
0.0
 40
0.0
 40
0.0
 40
0.0
 40
0.4370780492420975
 40
0.8739029588443394
 40
0.9999999999999999
 40
0.9999999999999999
 40
0.9999999999999999
 40
0.9999999999999999
 10
53.37463065701561
 20
3.164399156826322
 30
0.0
 10
52.95473928030559
 20
3.125776936279101
 30
0.0
 10
52.11519971263253
 20
3.048554863763948
 30
0.0
 10
51.15465807527327
 20
2.830255010622852
 30
0.0
 10
50.6139915441667
 20
2.634267896252111
 30
0.0
 10
50.49287981680796
 20
2.590365903811573
 30
0.0
1001
PE_URL
1000

  0
SPLINE
  5
AD
330
1F
100
AcDbEntity
  8
0
  6
Continuous
 62
     1
370
    15
100
AcDbSpline
210
0.0
220
0.0
230
1.0
 70
     8
 71
     3
 72
    24
 73
    20
 74
     0
 42
0.000000001
 43
0.00000001
 40
0.0
 40
0.0
 40
0.0
 40
0.0
 40
0.0351978397016052
 40
0.0951607522861623
 40
0.1551455367580816
 40
0.2150870317241709
 40
0.2749982413045015
 40
0.3359884493428554
 40
0.3969800437371485
 40
0.4579849862141895
 40
0.5190151699307783
 40
0.5800814336199579
 40
0.6400503666298565
 40
0.6999785343929992
 40
0.7598827415104757
 40
0.819779947570178
 40
0.8848215004378382
 40
0.9498672403936
 40
1.0
 40
1.0
 40
1.0
 40
1.0
 10
36.57088441619874
 20
-3.153652269565188
 30
0.0
 10
36.32889055035417
 20
-3.156247272215961
 30
0.0
 10
35.67463680871462
 20
-3.1632631120097
 30
0.0
 10
34.60784357232977
 20
-2.994425622125264
 30
0.0
 10
33.37075430512763
 20
-2.675576179703981
 30
0.0
 10
32.13429640046014
 20
-2.214516499943362
 30
0.0
 10
30.89104822683101
 20
-1.640568386050657
 30
0.0
 10
29.64056741783757
 20
-0.9781715564345789
 30
0.0
 10
28.38257831931152
 20
-0.2608815340991977
 30
0.0
 10
27.12425001016816
 20
0.4701652250517799
 30
0.0
 10
25.86532426272744
 20
1.176871121683356
 30
0.0
 10
24.61329905546302
 20
1.818275428871746
 30
0.0
 10
23.36893942016473
 20
2.362832544032156
 30
0.0
 10
22.13278397219043
 20
2.785408750467033
 30
0.0
 10
20.89718856131066
 20
3.067490965406714
 30
0.0
 10
19.62655522120051
 20
3.200188189097925
 30
0.0
 10
18.32020150498513
 20
3.154455909685377
 30
0.0
 10
17.08107404879528
 20
2.95571054582684
 30
0.0
 10
16.28911293484244
 20
2.701538207525017
 30
0.0
 10
15.9444027997535
 20
2.590906789481541
 30
0.0
1001
PE_URL
1000

  0
SPLINE
  5
AE
330
1F
100
AcDbEntity
  8
0
  6
Continuous
 62
     1
370
    15
100
AcDbSpline
210
0.0
220
0.0
230
1.0
 70
     8
 71
     3
 72
    13
 73
     9
 74
     0
 42
0.000000001
 43
0.00000001
 40
0.0
 40
0.0
 40
0.0
 40
0.0
 40
0.191228828988786
 40
0.3824925042011407
 40
0.5737464658386314
 40
0.764966296161936
 40
0.9561573953582545
 40
1.0
 40
1.0
 40
1.0
 40
1.0
 10
8.92463065701564
 20
-2.494226426989303
 30
0.0
 10
9.372087242428837
 20
-2.639605463841401
 30
0.0
 10
10.26708194997903
 20
-2.930390028898637
 30
0.0
 10
11.60967165286175
 20
-3.152306587089283
 30
0.0
 10
12.95221451557469
 20
-3.201279608562917
 30
0.0
 10
14.29452955432471
 20
-3.045211704040149
 30
0.0
 10
15.29189616136464
 20
-2.830043805678502
 30
0.0
 10
15.84182115440348
 20
-2.626690039597156
 30
0.0
 10
15.94440279975351
 20
-2.588756932033753
 30
0.0
1001
PE_URL
1000

  0
SPLINE
  5
AF
330
1F
100
AcDbEntity
  8
0
  6
Continuous
 62
     1
370
    15
100
AcDbSpline
210
0.0
220
0.0
230
1.0
 70
     8
 71
     3
 72
    24
 73
    20
 74
     0
 42
0.000000001
 43
0.00000001
 40
0.0
 40
0.0
 40
0.0
 40
0.0
 40
0.0500064421234098
 40
0.1110083744911488
 40
0.1720328042509823
 40
0.2330915307789775
 40
0.2941573823410776
 40
0.3551871927946391
 40
0.4151006797002226
 40
0.474999915033233
 40
0.5349018981948815
 40
0.5948236107705528
 40
0.6558653001247114
 40
0.7169379525286218
 40
0.7779828681120295
 40
0.8389977552010466
 40
0.8999944620348391
 40
0.9598927341992677
 40
0.9999999999999999
 40
0.9999999999999999
 40
0.9999999999999999
 40
0.9999999999999999
 10
29.86716648995034
 20
3.165047407236157
 30
0.0
 10
30.21092758995955
 20
3.158697110742444
 30
0.0
 10
30.97403648763191
 20
3.144600205196471
 30
0.0
 10
32.15675530770802
 20
2.927346672112122
 30
0.0
 10
33.4155198069386
 20
2.560643642467529
 30
0.0
 10
34.67490839771748
 20
2.055864388207116
 30
0.0
 10
35.93438102584309
 20
1.445203856187354
 30
0.0
 10
37.18578252113691
 20
0.762842820474766
 30
0.0
 10
38.42901744695031
 20
0.0460968384260279
 30
0.0
 10
39.66444377005811
 20
-0.668582873922689
 30
0.0
 10
40.89993747312781
 20
-1.349579238510504
 30
0.0
 10
42.14336533554405
 20
-1.966400194946866
 30
0.0
 10
43.39500294919984
 20
-2.486067564059162
 30
0.0
 10
44.65456072152951
 20
-2.879082365178695
 30
0.0
 10
45.91374511775505
 20
-3.121604645928776
 30
0.0
 10
47.17228213439567
 20
-3.202602762670231
 30
0.0
 10
48.42288375468199
 20
-3.111832005408021
 30
0.0
 10
49.52964819341495
 20
-2.907035565663324
 30
0.0
 10
50.21715493151025
 20
-2.679478078521627
 30
0.0
 10
50.49287981680796
 20
-2.588216046363786
 30
0.0
1001
PE_URL
1000

  0
SPLINE
  5
B0
330
1F
100
AcDbEntity
  8
외형선
  6
Continuous
370
    15
100
AcDbSpline
210
0.0
220
0.0
230
1.0
 70
    24
 71
     3
 72
    22
 73
    18
 74
     0
 42
0.000000001
 43
0.00000001
 40
0.0
 40
0.0
 40
0.0
 40
0.0
 40
0.1249999999999998
 40
0.1249999999999998
 40
0.2499999999999996
 40
0.2499999999999996
 40
0.3749999999999996
 40
0.3749999999999996
 40
0.4999999999999997
 40
0.4999999999999997
 40
0.6249999999999998
 40
0.6249999999999998
 40
0.7499999999999999
 40
0.7499999999999999
 40
0.875
 40
0.875
 40
1.0
 40
1.0
 40
1.0
 40
1.0
 10
8.924630657015605
 20
0.9834901975536215
 30
0.0
 10
8.924630657015605
 20
0.9819731354049671
 30
0.0
 10
8.924630657015605
 20
0.9624042882597453
 30
0.0
 10
8.924630657015598
 20
0.9051325002724784
 30
0.0
 10
8.924630657015598
 20
0.8616132556803274
 30
0.0
 10
8.924630657015598
 20
0.7284725311338817
 30
0.0
 10
8.924630657015612
 20
0.6385701883724996
 30
0.0
 10
8.924630657015605
 20
0.3963015927329118
 30
0.0
 10
8.924630657015605
 20
0.2433437605828138
 30
0.0
 10
8.92463065701559
 20
-0.1282382166764914
 30
0.0
 10
8.92463065701559
 20
-0.3472818374528726
 30
0.0
 10
8.92463065701559
 20
-0.8231647789829006
 30
0.0
 10
8.924630657015586
 20
-1.079266443620112
 30
0.0
 10
8.924630657015605
 20
-1.571746427099842
 30
0.0
 10
8.924630657015578
 20
-1.806703455383502
 30
0.0
 10
8.92463065701559
 20
-2.206364520644167
 30
0.0
 10
8.924630657015605
 20
-2.370760862038449
 30
0.0
 10
8.92463065701559
 20
-2.494226426989288
 30
0.0
  0
SPLINE
  5
B1
330
1F
100
AcDbEntity
  8
0
  6
Continuous
 62
     1
370
    15
100
AcDbSpline
210
0.0
220
0.0
230
1.0
 70
     8
 71
     3
 72
    24
 73
    20
 74
     0
 42
0.000000001
 43
0.00000001
 40
0.0
 40
0.0
 40
0.0
 40
0.0
 40
0.0624730272063313
 40
0.1249098723174165
 40
0.1873225934606201
 40
0.2497233723761933
 40
0.3121244521695833
 40
0.3734237314061025
 40
0.4347561445659116
 40
0.496130224177431
 40
0.5574736045231471
 40
0.6198957834572602
 40
0.6823004734529706
 40
0.7446998975060521
 40
0.8071063056911262
 40
0.8695319121733898
 40
0.9308811642237589
 40
0.9922527938384053
 40
1.0
 40
1.0
 40
1.0
 40
1.0
 10
53.37463065701561
 20
-3.162249299378536
 30
0.0
 10
52.95473824547609
 20
-3.125475257606789
 30
0.0
 10
52.11519660874334
 20
-3.051948472244951
 30
0.0
 10
50.85636554296737
 20
-2.738154834548374
 30
0.0
 10
49.59810246281195
 20
-2.293386828081041
 30
0.0
 10
48.34013561822884
 20
-1.725841642804148
 30
0.0
 10
47.08963358341001
 20
-1.073008744699042
 30
0.0
 10
45.84631487049633
 20
-0.3691255938559402
 30
0.0
 10
44.60976445923163
 20
0.3492193590376453
 30
0.0
 10
43.37264212380682
 20
1.049768448714033
 30
0.0
 10
42.12842581489554
 20
1.701729904577912
 30
0.0
 10
40.87738241312614
 20
2.270356767383381
 30
0.0
 10
39.61931830442369
 20
2.72388581937088
 30
0.0
 10
38.36137973746769
 20
3.035677398137401
 30
0.0
 10
37.10327409661621
 20
3.18832932122218
 30
0.0
 10
35.85214295087805
 20
3.178247654433392
 30
0.0
 10
34.60786012067606
 20
2.993392001642381
 30
0.0
 10
33.73086377475752
 20
2.789425583076037
 30
0.0
 10
33.26637670086555
 20
2.615813123524278
 30
0.0
 10
33.21431452301742
 20
2.596353717108302
 30
0.0
1001
PE_URL
1000

  0
SPLINE
  5
B2
330
1F
100
AcDbEntity
  8
0
  6
Continuous
 62
     1
370
    15
100
AcDbSpline
210
0.0
220
0.0
230
1.0
 70
     8
 71
     3
 72
    15
 73
    11
 74
     0
 42
0.000000001
 43
0.00000001
 40
0.0
 40
0.0
 40
0.0
 40
0.0
 40
0.0939580305424477
 40
0.2233514798102095
 40
0.3527569848052716
 40
0.4821782538588407
 40
0.6116189716154676
 40
0.7410827935752463
 40
0.8705531908577834
 40
1.0
 40
1.0
 40
1.0
 40
1.0
 10
19.29451183700147
 20
-3.155168859316008
 30
0.0
 10
18.96975711114871
 20
-3.153034239084942
 30
0.0
 10
18.19776936113083
 20
-3.147959945970356
 30
0.0
 10
16.97848864916142
 20
-2.921356455437648
 30
0.0
 10
15.63660838839811
 20
-2.523133595865279
 30
0.0
 10
14.29453108621058
 20
-1.968876728438671
 30
0.0
 10
12.95221410514103
 20
-1.299283285698456
 30
0.0
 10
11.60967176232587
 20
-0.5532715167347924
 30
0.0
 10
10.26708192261824
 20
0.22961747764104
 30
0.0
 10
9.372087233309124
 20
0.7322145536204718
 30
0.0
 10
8.924630657015648
 20
0.9834901975535963
 30
0.0
1001
PE_URL
1000

  0
LINE
  5
B3
330
1F
100
AcDbEntity
  8
0
  6
Continuous
 62
     1
370
    15
100
AcDbLine
 10
53.37463065701561
 20
-2.874463355163101
 30
0.0
 11
53.37463065701561
 21
0.2731132126109247
 31
0.0
1001
PE_URL
1000

  0
SPLINE
  5
B4
330
1F
100
AcDbEntity
  8
0
  6
Continuous
 62
     1
370
    15
100
AcDbSpline
210
0.0
220
0.0
230
1.0
 70
     8
 71
     3
 72
    19
 73
    15
 74
     0
 42
0.000000001
 43
0.00000001
 40
0.0
 40
0.0
 40
0.0
 40
0.0
 40
0.0857765994881375
 40
0.1715688294153603
 40
0.2573567022724434
 40
0.3431292653664396
 40
0.4288889409769684
 40
0.5146381706959239
 40
0.600379411810919
 40
0.6861151336385515
 40
0.7665095406627657
 40
0.8469092929515771
 40
0.927330144923738
 40
1.0
 40
1.0
 40
1.0
 40
1.0
 10
8.924630657015648
 20
1.96426013246194
 30
0.0
 10
9.372087231634637
 20
1.749954916652512
 30
0.0
 10
10.26708191759445
 20
1.321305433769775
 30
0.0
 10
11.60967178242489
 20
0.5690136233233059
 30
0.0
 10
12.95221402978012
 20
-0.2086114478485512
 30
0.0
 10
14.29453136748461
 20
-0.9760444753680593
 30
0.0
 10
15.63660733886648
 20
-1.68492846785849
 30
0.0
 10
16.97849256540973
 20
-2.29401692212141
 30
0.0
 10
18.3202060913177
 20
-2.767132060307213
 30
0.0
 10
19.63405146088381
 20
-3.069552515526511
 30
0.0
 10
20.91974181937929
 20
-3.197240853008388
 30
0.0
 10
22.17779990830582
 20
-3.152109208957308
 30
0.0
 10
23.39560417276843
 20
-2.961234152818855
 30
0.0
 10
24.19417536740414
 20
-2.715233940801292
 30
0.0
 10
24.57324509737736
 20
-2.598461341727779
 30
0.0
1001
PE_URL
1000

  0
SPLINE
  5
B5
330
1F
100
AcDbEntity
  8
0
  6
Continuous
 62
     1
370
    15
100
AcDbSpline
210
0.0
220
0.0
230
1.0
 70
     8
 71
     3
 72
    19
 73
    15
 74
     0
 42
0.000000001
 43
0.00000001
 40
0.0
 40
0.0
 40
0.0
 40
0.0
 40
0.0779198775570679
 40
0.1610154060287759
 40
0.2441383029780891
 40
0.3288148223180552
 40
0.4135342933408606
 40
0.4982152880789734
 40
0.5828546275416026
 40
0.6674687475067145
 40
0.7505591281142139
 40
0.8336621639911211
 40
0.9168013632030833
 40
0.9999999999999999
 40
0.9999999999999999
 40
0.9999999999999999
 40
0.9999999999999999
 10
38.50599570591748
 20
3.171411276861167
 30
0.0
 10
38.89213956509094
 20
3.159700558034209
 30
0.0
 10
39.69007601237032
 20
3.135501262476661
 30
0.0
 10
40.89993680676585
 20
2.901861329047378
 30
0.0
 10
42.14336552018928
 20
2.52836472811556
 30
0.0
 10
43.39500289032626
 20
2.018894849449664
 30
0.0
 10
44.65456077078283
 20
1.402286140230715
 30
0.0
 10
45.91374497970627
 20
0.7121491787743853
 30
0.0
 10
47.17228263704187
 20
-0.014978845620372
 30
0.0
 10
48.422881896897
 20
-0.7366535658140988
 30
0.0
 10
49.66576538173329
 20
-1.41687070080498
 30
0.0
 10
50.90140011789354
 20
-2.018907697668959
 30
0.0
 10
52.13765687804569
 20
-2.529791434171124
 30
0.0
 10
52.96220785161706
 20
-2.759545348804068
 30
0.0
 10
53.37463065701562
 20
-2.874463355163101
 30
0.0
1001
PE_URL
1000

  0
SPLINE
  5
B6
330
1F
100
AcDbEntity
  8
외형선
  6
Continuous
370
    15
100
AcDbSpline
210
0.0
220
0.0
230
1.0
 70
    24
 71
     3
 72
    10
 73
     6
 74
     0
 42
0.000000001
 43
0.00000001
 40
0.0
 40
0.0
 40
0.0
 40
0.0
 40
0.4850116680623678
 40
0.7863204150477519
 40
1.0
 40
1.0
 40
1.0
 40
1.0
 10
8.924630657015605
 20
3.020261117015391
 30
0.0
 10
8.924630657015626
 20
2.850436011095127
 30
0.0
 10
8.92463065701564
 20
2.57510872194715
 30
0.0
 10
8.924630657015543
 20
2.243276645082406
 30
0.0
 10
8.924630657015578
 20
2.090209290492498
 30
0.0
 10
8.924630657015598
 20
2.026698397584596
 30
0.0
  0
SPLINE
  5
B7
330
1F
100
AcDbEntity
  8
0
  6
Continuous
 62
     1
370
    15
100
AcDbSpline
210
0.0
220
0.0
230
1.0
 70
     8
 71
     3
 72
    17
 73
    13
 74
     0
 42
0.000000001
 43
0.00000001
 40
0.0
 40
0.0
 40
0.0
 40
0.0
 40
0.1093398494406987
 40
0.2186163732347372
 40
0.3278506754311673
 40
0.437064076425439
 40
0.5462780040139331
 40
0.6535635680767723
 40
0.7609071228973178
 40
0.8683236020463369
 40
0.9756863515579272
 40
0.9999999999999999
 40
0.9999999999999999
 40
0.9999999999999999
 40
0.9999999999999999
 10
53.37463065701562
 20
0.2731132126109243
 30
0.0
 10
52.95473824532911
 20
0.5131114936010099
 30
0.0
 10
52.1151966083025
 20
0.9929690573438614
 30
0.0
 10
50.85636554472928
 20
1.657378227281717
 30
0.0
 10
49.59810245620793
 20
2.236310216597998
 30
0.0
 10
48.34013564287903
 20
2.698322139003377
 30
0.0
 10
47.08963349209736
 20
3.018061995167316
 30
0.0
 10
45.8463152046651
 20
3.180969015426636
 30
0.0
 10
44.60976321024636
 20
3.185767503873169
 30
0.0
 10
43.37264678773713
 20
3.019519948770252
 30
0.0
 10
42.45455745846517
 20
2.813329457612492
 30
0.0
 10
41.94898563371459
 20
2.627298662197704
 30
0.0
 10
41.85563332608593
 20
2.592948638735594
 30
0.0
1001
PE_URL
1000

  0
SPLINE
  5
B8
330
1F
100
AcDbEntity
  8
0
  6
Continuous
 62
     1
370
    15
100
AcDbSpline
210
0.0
220
0.0
230
1.0
 70
     8
 71
     3
 72
    22
 73
    18
 74
     0
 42
0.000000001
 43
0.00000001
 40
0.0
 40
0.0
 40
0.0
 40
0.0
 40
0.0425288622893297
 40
0.1087586569976387
 40
0.1750276055972234
 40
0.2401057338323567
 40
0.3051396237290245
 40
0.3701475115960913
 40
0.4351478019336916
 40
0.5057307238848814
 40
0.5763181896530566
 40
0.6469122321315902
 40
0.7175148743108547
 40
0.7881281262595402
 40
0.8587539821472837
 40
0.929383425043278
 40
1.0
 40
1.0
 40
1.0
 40
1.0
 10
27.93271755981453
 20
-3.154851843786963
 30
0.0
 10
27.66328442630711
 20
-3.155752616656839
 30
0.0
 10
26.97426562416805
 20
-3.158056154591173
 30
0.0
 10
25.86532241680208
 20
-2.973922043326756
 30
0.0
 10
24.61329953953541
 20
-2.636855119471758
 30
0.0
 10
23.3689392944319
 20
-2.160554224229918
 30
0.0
 10
22.13278399508993
 20
-1.580024396751432
 30
0.0
 10
20.89718859533672
 20
-0.9195896366210475
 30
0.0
 10
19.62655505669472
 20
-0.1927867177637584
 30
0.0
 10
18.32020218825609
 20
0.5659819124634637
 30
0.0
 10
16.97849361136408
 20
1.31185444936216
 30
0.0
 10
15.63660705855682
 20
1.980147064444085
 30
0.0
 10
14.29453144260746
 20
2.530954563548708
 30
0.0
 10
12.95221400965267
 20
2.932789427176216
 30
0.0
 10
11.60967178779292
 20
3.157426905016832
 30
0.0
 10
10.2670819162527
 20
3.20785608873674
 30
0.0
 10
9.372087231187411
 20
3.08278897625849
 30
0.0
 10
8.924630657015648
 20
3.020261117015404
 30
0.0
1001
PE_URL
1000

  0
SPLINE
  5
B9
330
1F
100
AcDbEntity
  8
0
  6
Continuous
 62
     1
370
    15
100
AcDbSpline
210
0.0
220
0.0
230
1.0
 70
     8
 71
     3
 72
    24
 73
    20
 74
     0
 42
0.000000001
 43
0.00000001
 40
0.0
 40
0.0
 40
0.0
 40
0.0
 40
0.0460157734099592
 40
0.1070225655720905
 40
0.1680572328609106
 40
0.2291253041712987
 40
0.2890821282071903
 40
0.3490015029082058
 40
0.4089002714756801
 40
0.4687954104823501
 40
0.5297934518877462
 40
0.5908139892502577
 40
0.6518688211933373
 40
0.712930777716057
 40
0.773956695429093
 40
0.8338663607980082
 40
0.8937617755033763
 40
0.9536599378621141
 40
0.9999999999999999
 40
0.9999999999999999
 40
0.9999999999999999
 40
0.9999999999999999
 10
21.22859581486255
 20
3.160705638595071
 30
0.0
 10
21.54495969362444
 20
3.157727675284566
 30
0.0
 10
22.28075247619467
 20
3.150801587770395
 30
0.0
 10
23.43623544474039
 20
2.945862003923449
 30
0.0
 10
24.69530410723217
 20
2.589284574720718
 30
0.0
 10
25.94738234602951
 20
2.095338893568491
 30
0.0
 10
27.19160336038661
 20
1.498901774807416
 30
0.0
 10
28.42761806408695
 20
0.8303026938551434
 30
0.0
 10
29.66313074811263
 20
0.1201908222802554
 30
0.0
 10
30.90602614323122
 20
-0.6002723426445035
 30
0.0
 10
32.15675522016201
 20
-1.294406912813121
 30
0.0
 10
33.41551982692745
 20
-1.925270475810701
 30
0.0
 10
34.67490840538318
 20
-2.455576319921041
 30
0.0
 10
35.93438097519103
 20
-2.857802675772628
 30
0.0
 10
37.18578271445186
 20
-3.109151672564097
 30
0.0
 10
38.42901673870431
 20
-3.201155477454271
 30
0.0
 10
39.66444641466172
 20
-3.127326263378921
 30
0.0
 10
40.80658268670553
 20
-2.928054067426492
 30
0.0
 10
41.53702264505812
 20
-2.693227713088791
 30
0.0
 10
41.8556333260859
 20
-2.590798781287808
 30
0.0
1001
PE_URL
1000

  0
SPLINE
  5
BA
330
1F
100
AcDbEntity
  8
0
  6
Continuous
 62
     1
370
    15
100
AcDbSpline
210
0.0
220
0.0
230
1.0
 70
     8
 71
     3
 72
    25
 73
    21
 74
     0
 42
0.000000001
 43
0.00000001
 40
0.0
 40
0.0
 40
0.0
 40
0.0
 40
0.0290169498699225
 40
0.0889776955553583
 40
0.1489084489234965
 40
0.2098931581018744
 40
0.2708607810804347
 40
0.3318232593814898
 40
0.3927925609826236
 40
0.4537806187789243
 40
0.513717108636989
 40
0.5736754607445436
 40
0.6335905424218388
 40
0.6934753520586653
 40
0.754438684691602
 40
0.8154034030695786
 40
0.8763814636484549
 40
0.9373847543442978
 40
0.9984241091140501
 40
0.9999999999999999
 40
0.9999999999999999
 40
0.9999999999999999
 40
0.9999999999999999
 10
45.20879570980937
 20
-3.153908695830766
 30
0.0
 10
45.00920225924663
 20
-3.157967581541842
 30
0.0
 10
44.39716807375753
 20
-3.170413765538197
 30
0.0
 10
43.37263523680753
 20
-3.018793879593116
 30
0.0
 10
42.12842769129709
 20
-2.713846009465101
 30
0.0
 10
40.87738192490068
 20
-2.258744494948986
 30
0.0
 10
39.61931836780334
 20
-1.685509319948938
 30
0.0
 10
38.36137997205832
 20
-1.023716543044047
 30
0.0
 10
37.10327309460339
 20
-0.3086341644444702
 30
0.0
 10
35.85214669810626
 20
0.4184373143845209
 30
0.0
 10
34.60784639330154
 20
1.119595867782435
 30
0.0
 10
33.37075355300958
 20
1.760063489306918
 30
0.0
 10
32.13429658958357
 20
2.31226971744138
 30
0.0
 10
30.89104822062301
 20
2.750620894531093
 30
0.0
 10
29.6405672460585
 20
3.050708179003352
 30
0.0
 10
28.38257901173514
 20
3.192507183480791
 30
0.0
 10
27.12424741118584
 20
3.171887005496024
 30
0.0
 10
25.86533397276814
 20
2.9709332689231
 30
0.0
 10
25.01482957723015
 20
2.768271097329816
 30
0.0
 10
24.58408598592779
 20
2.604727245715246
 30
0.0
 10
24.57324509737731
 20
2.600611199175563
 30
0.0
1001
PE_URL
1000

  0
SPLINE
  5
BB
330
1F
100
AcDbEntity
  8
0
  6
Continuous
 62
     1
370
    15
100
AcDbSpline
210
0.0
220
0.0
230
1.0
 70
     8
 71
     3
 72
     9
 73
     5
 74
     0
 42
0.000000001
 43
0.00000001
 40
0.0
 40
0.0
 40
0.0
 40
0.0
 40
0.2239709682970593
 40
1.0
 40
1.0
 40
1.0
 40
1.0
 10
10.65445504228487
 20
-3.154548012386534
 30
0.0
 10
10.52530739537053
 20
-3.160397744523228
 30
0.0
 10
9.948680666038976
 20
-3.186516005211977
 30
0.0
 10
9.37208535664732
 20
-3.091695063302667
 30
0.0
 10
8.924630657015648
 20
-3.018111259567624
 30
0.0
1001
PE_URL
1000

  0
LINE
  5
BC
330
1F
100
AcDbEntity
  8
외형선
  6
Continuous
370
    15
100
AcDbLine
 10
8.924630657015598
 20
-3.018111259567611
 30
0.0
 11
8.924630657015605
 21
-2.494226426989284
 31
0.0
  0
LINE
  5
BD
330
1F
100
AcDbEntity
  8
0
  6
Continuous
 62
     1
370
    15
100
AcDbLine
 10
53.37463065701561
 20
-3.162249299378536
 30
0.0
 11
53.37463065701561
 21
-2.874463355163101
 31
0.0
1001
PE_URL
1000

  0
LINE
  5
BE
330
1F
100
AcDbEntity
  8
외형선
  6
Continuous
370
    15
100
AcDbLine
 10
8.924630657015598
 20
0.9834901975536215
 30
0.0
 11
8.924630657015612
 21
1.964260132461961
 31
0.0
  0
LINE
  5
BF
330
1F
100
AcDbEntity
  8
0
  6
Continuous
 62
     1
370
    15
100
AcDbLine
 10
53.37463065701561
 20
0.2731132126109246
 30
0.0
 11
53.37463065701561
 21
1.347144978127036
 31
0.0
1001
PE_URL
1000

  0
LINE
  5
C0
330
1F
100
AcDbEntity
  8
외형선
  6
Continuous
370
    15
100
AcDbLine
 10
7.924630657015598
 20
0.0010749287238931
 30
0.0
 11
7.924630657015598
 21
3.176074928723894
 31
0.0
  0
LINE
  5
C1
330
1F
100
AcDbEntity
  8
외형선
  6
Continuous
370
    15
100
AcDbLine
 10
7.924630657015598
 20
-3.173925071276108
 30
0.0
 11
7.924630657015598
 21
0.0010749287238931
 31
0.0
  0
LINE
  5
C2
330
1F
100
AcDbEntity
  8
외형선
  6
Continuous
370
    15
100
AcDbLine
 10
1.999999999999996
 20
0.0010749287238931
 30
0.0
 11
1.999999999999996
 21
4.763574928723898
 31
0.0
  0
LINE
  5
C3
330
1F
100
AcDbEntity
  8
외형선
  6
Continuous
370
    15
100
AcDbLine
 10
1.999999999999996
 20
-4.761425071276111
 30
0.0
 11
1.999999999999996
 21
0.0010749287238931
 31
0.0
  0
LINE
  5
C4
330
1F
100
AcDbEntity
  8
외형선
  6
Continuous
370
    15
100
AcDbLine
 10
-36.1603693429844
 20
0.0010749287238931
 30
0.0
 11
-36.1603693429844
 21
4.763574928723895
 31
0.0
  0
LINE
  5
C5
330
1F
100
AcDbEntity
  8
외형선
  6
Continuous
370
    15
100
AcDbLine
 10
-36.1603693429844
 20
-4.761425071276109
 30
0.0
 11
-36.1603693429844
 21
0.0010749287238931
 31
0.0
  0
LINE
  5
C6
330
1F
100
AcDbEntity
  8
외형선
  6
Continuous
370
    15
100
AcDbLine
 10
-37.1128693429844
 20
0.0010749287238931
 30
0.0
 11
-37.1128693429844
 21
3.811074928723895
 31
0.0
  0
LINE
  5
C7
330
1F
100
AcDbEntity
  8
외형선
  6
Continuous
370
    15
100
AcDbLine
 10
-37.1128693429844
 20
-3.808925071276108
 30
0.0
 11
-37.1128693429844
 21
0.0010749287238931
 31
0.0
  0
LINE
  5
C8
330
1F
100
AcDbEntity
  8
외형선
  6
Continuous
370
    15
100
AcDbLine
 10
8.424790509526979
 20
2.183244745194699
 30
0.0
 11
8.424790509526972
 21
3.176074928723893
 31
0.0
  0
SPLINE
  5
C9
330
1F
100
AcDbEntity
  8
외형선
  6
Continuous
370
    15
100
AcDbSpline
210
0.0
220
0.0
230
1.0
 70
     8
 71
     3
 72
     8
 73
     4
 74
     0
 42
0.000000001
 43
0.00000001
 40
0.0
 40
0.0
 40
0.0
 40
0.0
 40
1.0
 40
1.0
 40
1.0
 40
1.0
 10
8.924630657015648
 20
1.964260132461942
 30
0.0
 10
8.757768957010937
 20
2.040121185723378
 30
0.0
 10
8.592191332045392
 20
2.113075906809101
 30
0.0
 10
8.424790509526972
 20
2.183264090770482
 30
0.0
  0
SPLINE
  5
CA
330
1F
100
AcDbEntity
  8
외형선
  6
Continuous
370
    15
100
AcDbSpline
210
0.0
220
0.0
230
1.0
 70
     8
 71
     3
 72
     8
 73
     4
 74
     0
 42
0.000000001
 43
0.00000001
 40
0.0
 40
0.0
 40
0.0
 40
0.0
 40
1.0
 40
1.0
 40
1.0
 40
1.0
 10
8.924630657015655
 20
0.9834901975536007
 30
0.0
 10
8.75776895701095
 20
1.075278166855092
 30
0.0
 10
8.592191332045392
 20
1.165474134417353
 30
0.0
 10
8.424790509526979
 20
1.254257394860793
 30
0.0
  0
LINE
  5
CB
330
1F
100
AcDbEntity
  8
외형선
  6
Continuous
370
    15
100
AcDbLine
 10
8.424790509526979
 20
-2.305168747057977
 30
0.0
 11
8.424790509526972
 21
1.254277867148015
 31
0.0
  0
SPLINE
  5
CC
330
1F
100
AcDbEntity
  8
외형선
  6
Continuous
370
    15
100
AcDbSpline
210
0.0
220
0.0
230
1.0
 70
     8
 71
     3
 72
     8
 73
     4
 74
     0
 42
0.000000001
 43
0.00000001
 40
0.0
 40
0.0
 40
0.0
 40
0.0
 40
1.0
 40
1.0
 40
1.0
 40
1.0
 10
8.924630657015648
 20
-2.494226426989302
 30
0.0
 10
8.757768957010937
 20
-2.434542534716391
 30
0.0
 10
8.592191332045392
 20
-2.371563680064113
 30
0.0
 10
8.424790509526972
 20
-2.305150442103191
 30
0.0
  0
SPLINE
  5
CD
330
1F
100
AcDbEntity
  8
외형선
  6
Continuous
370
    15
100
AcDbSpline
210
0.0
220
0.0
230
1.0
 70
     8
 71
     3
 72
     8
 73
     4
 74
     0
 42
0.000000001
 43
0.00000001
 40
0.0
 40
0.0
 40
0.0
 40
0.0
 40
1.0
 40
1.0
 40
1.0
 40
1.0
 10
8.924630657015655
 20
-3.01811125956762
 30
0.0
 10
8.75776895701095
 20
-2.988244303072405
 30
0.0
 10
8.592191332045392
 20
-2.954282340562625
 30
0.0
 10
8.424790509526979
 20
-2.916142702267497
 30
0.0
  0
LINE
  5
CE
330
1F
100
AcDbEntity
  8
외형선
  6
Continuous
370
    15
100
AcDbLine
 10
8.424790509526972
 20
-3.173925071276107
 30
0.0
 11
8.424790509526972
 21
-2.916133907668373
 31
0.0
  0
SPLINE
  5
CF
330
1F
100
AcDbEntity
  8
외형선
  6
Continuous
370
    15
100
AcDbSpline
210
0.0
220
0.0
230
1.0
 70
     8
 71
     3
 72
     8
 73
     4
 74
     0
 42
0.000000001
 43
0.00000001
 40
0.0
 40
0.0
 40
0.0
 40
0.0
 40
1.0
 40
1.0
 40
1.0
 40
1.0
 10
8.924630657015655
 20
3.0202611170154
 30
0.0
 10
8.75776895701095
 20
2.990394160520184
 30
0.0
 10
8.592191332045392
 20
2.956432198010404
 30
0.0
 10
8.424790509526979
 20
2.918292559715274
 30
0.0
  0
SPLINE
  5
D0
330
1F
100
AcDbEntity
  8
외형선
  6
Continuous
370
    15
100
AcDbSpline
210
0.0
220
0.0
230
1.0
 70
    24
 71
     3
 72
    22
 73
    18
 74
     0
 42
0.000000001
 43
0.00000001
 40
0.0
 40
0.0
 40
0.0
 40
0.0
 40
0.125
 40
0.125
 40
0.2499999999999999
 40
0.2499999999999999
 40
0.3749999999999999
 40
0.3749999999999999
 40
0.4999999999999999
 40
0.4999999999999999
 40
0.625
 40
0.625
 40
0.75
 40
0.75
 40
0.875
 40
0.875
 40
1.0
 40
1.0
 40
1.0
 40
1.0
 10
8.924630657015598
 20
-2.494226426989285
 30
0.0
 10
8.924630657015605
 20
-2.370760862038445
 30
0.0
 10
8.92463065701559
 20
-2.206364520644162
 30
0.0
 10
8.924630657015586
 20
-1.806703455383492
 30
0.0
 10
8.924630657015598
 20
-1.571746427099827
 30
0.0
 10
8.924630657015586
 20
-1.079266443620093
 30
0.0
 10
8.924630657015598
 20
-0.8231647789828788
 30
0.0
 10
8.924630657015605
 20
-0.3472818374528495
 30
0.0
 10
8.924630657015598
 20
-0.1282382166764707
 30
0.0
 10
8.924630657015578
 20
0.2433437605828321
 30
0.0
 10
8.924630657015605
 20
0.3963015927329282
 30
0.0
 10
8.92463065701559
 20
0.6385701883725122
 30
0.0
 10
8.924630657015598
 20
0.7284725311338938
 30
0.0
 10
8.92463065701559
 20
0.8616132556803356
 30
0.0
 10
8.924630657015605
 20
0.9051325002724843
 30
0.0
 10
8.924630657015605
 20
0.9624042882597486
 30
0.0
 10
8.924630657015586
 20
0.9819731354049701
 30
0.0
 10
8.92463065701559
 20
0.983490197553622
 30
0.0
  0
SPLINE
  5
D1
330
1F
100
AcDbEntity
  8
외형선
  6
Continuous
370
    15
100
AcDbSpline
210
0.0
220
0.0
230
1.0
 70
    24
 71
     3
 72
    14
 73
    10
 74
     0
 42
0.000000001
 43
0.00000001
 40
0.0
 40
0.0
 40
0.0
 40
0.0
 40
0.1067592706519414
 40
0.2571403769287367
 40
0.4085656053428477
 40
0.5632839372237886
 40
0.7191401786945514
 40
0.8591494543290477
 40
1.0
 40
1.0
 40
1.0
 40
1.0
 10
8.924630657015626
 20
2.026698397584596
 30
0.0
 10
8.924630657015598
 20
2.058348137359503
 30
0.0
 10
8.92463065701555
 20
2.134579699880656
 30
0.0
 10
8.924630657015634
 20
2.263428360330708
 30
0.0
 10
8.924630657015605
 20
2.411810646586836
 30
0.0
 10
8.924630657015634
 20
2.566737986328407
 30
0.0
 10
8.924630657015626
 20
2.721117096393485
 30
0.0
 10
8.92463065701559
 20
2.872780808720804
 30
0.0
 10
8.92463065701559
 20
2.971002944758584
 30
0.0
 10
8.924630657015586
 20
3.020261117015418
 30
0.0
  0
LINE
  5
D2
330
1F
100
AcDbEntity
  8
중심선
 62
     1
100
AcDbLine
 10
-40.1128693429844
 20
0.0010749287238892
 30
0.0
 11
56.37463065701561
 21
0.0010749287239011
 31
0.0
  0
LINE
  5
D3
330
1F
100
AcDbEntity
  8
참조1
100
AcDbLine
 10
8.130880657015606
 20
0.0010749287238892
 30
0.0
 11
8.130880657015613
 21
-39.99892507127612
 31
0.0
  0
LINE
  5
D4
330
1F
100
AcDbEntity
  8
참조1
100
AcDbLine
 10
8.130880657015613
 20
-39.99892507127612
 30
0.0
 11
-22.90297615729307
 21
-39.9989250712761
 31
0.0
  0
CIRCLE
  5
D5
330
1F
100
AcDbEntity
  8
해칭선
100
AcDbCircle
 10
0.0
 20
0.0
 30
0.0
 40
3.000000000000001
  0
INSERT
  5
D6
330
1F
100
AcDbEntity
  8
0
  6
Continuous
 62
     7
100
AcDbBlockReference
 66
     1
  2
블럭10
 10
-5.8093922751096
 20
-52.04609937292005
 30
0.0
  0
ATTRIB
  5
D7
330
D6
100
AcDbEntity
  8
FORMAT
 62
     2
100
AcDbText
 10
-14.99068756385088
 20
-49.97073246008787
 30
0.0
 40
4.233333333333333
  1
E2041016 [ 4 FLUTE ]
 41
0.75
  7
SLDTEXTSTYLE0
 11
-14.99068756385088
 21
-52.08739912675453
 31
0.0
100
AcDbAttribute
  2
AUTOATTR0
 70
     0
 74
     1
  0
SEQEND
  5
D8
330
D6
100
AcDbEntity
  8
0
  6
Continuous
 62
     7
  0
HATCH
  5
D9
330
1F
100
AcDbEntity
  8
중심선
100
AcDbHatch
 10
0.0
 20
0.0
 30
0.0
210
0.0
220
0.0
230
1.0
  2
SOLID
 70
     1
 71
     0
 91
        1
 92
        0
 93
        4
 72
     1
 10
-0.0944829707287629
 20
-35.7989250712761
 11
-3.540758214566046
 21
-35.7989250712761
 72
     1
 10
-3.540758214566045
 20
-35.7989250712761
 11
-5.668988073770068
 21
-38.3352506518487
 72
     1
 10
-5.668988073770068
 20
-38.3352506518487
 11
-2.222679744819636
 21
-38.33521122254621
 72
     1
 10
-2.222679744819636
 20
-38.33521122254621
 11
-0.0944829707287624
 21
-35.7989250712761
 97
        0
 75
     0
 76
     1
 98
        1
 10
-2.749630657015565
 20
0.0
  0
HATCH
  5
DA
330
1F
100
AcDbEntity
  8
중심선
100
AcDbHatch
 10
0.0
 20
0.0
 30
0.0
210
0.0
220
0.0
230
1.0
  2
SOLID
 70
     1
 71
     0
 91
        1
 92
        0
 93
        4
 72
     1
 10
4.918281020307244
 20
-35.7989250712761
 11
1.472005776469934
 21
-35.7989250712761
 72
     1
 10
1.472005776469933
 20
-35.7989250712761
 11
-3.059132231887483
 21
-41.19892507127612
 72
     1
 10
-3.059132231887483
 20
-41.19892507127612
 11
0.3871430119497998
 21
-41.19892507127612
 72
     1
 10
0.3871430119497998
 20
-41.19892507127612
 11
4.918281020307244
 21
-35.7989250712761
 97
        0
 75
     0
 76
     1
 98
        1
 10
-2.749630657015565
 20
0.0
  0
HATCH
  5
DB
330
1F
100
AcDbEntity
  8
중심선
100
AcDbHatch
 10
0.0
 20
0.0
 30
0.0
210
0.0
220
0.0
230
1.0
  2
SOLID
 70
     1
 71
     0
 91
        1
 92
        0
 93
        4
 72
     1
 10
9.931045011343084
 20
-35.79892507127608
 11
6.484769767505995
 21
-35.79892507127608
 72
     1
 10
6.484769767505995
 20
-35.79892507127608
 11
-0.563667134383282
 21
-44.19892507127612
 72
     1
 10
-0.5636671343832811
 20
-44.19892507127612
 11
2.882608109454001
 21
-44.19892507127612
 72
     1
 10
2.882608109454001
 20
-44.19892507127612
 11
9.931045011343084
 21
-35.79892507127608
 97
        0
 75
     0
 76
     1
 98
        1
 10
-2.749630657015565
 20
0.0
  0
HATCH
  5
DC
330
1F
100
AcDbEntity
  8
중심선
100
AcDbHatch
 10
0.0
 20
0.0
 30
0.0
210
0.0
220
0.0
230
1.0
  2
SOLID
 70
     1
 71
     0
 91
        1
 92
        0
 93
        6
 72
     3
 10
14.73093544235528
 20
-39.99892507132738
 11
3.960054785062283
 21
1.540882976769353E-10
 40
0.3939339440162628
 50
17.09539180608436
 51
320.0019657685078
 73
     0
 72
     1
 10
16.41393509805588
 20
-38.58681907591441
 11
18.71923697175692
 21
-36.65249236586646
 72
     3
 10
14.73093544230244
 20
-39.99892507127625
 11
6.600054785286829
 21
-1.278976924368180E-13
 40
0.636358354079598
 50
39.99873849337429
 51
368.4976242363724
 73
     1
 72
     1
 10
21.15626793420304
 20
-39.03892507120613
 11
13.41100274913836
 21
-39.03892507120613
 72
     1
 10
13.41100274913836
 20
-39.03892507120613
 11
13.41097770469242
 21
-40.95892507120602
 72
     1
 10
13.41097770469242
 20
-40.95892507120602
 11
17.85235747416446
 21
-40.95892507120599
 97
        0
 75
     0
 76
     1
 98
        1
 10
-2.749630657015565
 20
0.0
  0
DIMENSION
  5
DD
330
1F
100
AcDbEntity
  8
치수문자_일반주서
100
AcDbDimension
  2
_D
 10
8.92463065701558
 20
14.76357492872389
 30
0.0
 11
31.1496306570156
 21
14.76357492872389
 31
0.0
 70
   160
  1
<>
 71
     2
 42
44.45000000000002
  3
SLDDIMSTYLE0
100
AcDbAlignedDimension
 13
53.37463065701561
 23
3.164399156826322
 33
0.0
 14
8.924630657015587
 24
3.020261117015418
 34
0.0
 50
0.0000000000000046
100
AcDbRotatedDimension
1001
PE_URL
1000

1001
ACAD
1000
DSTYLE
1002
{
1070
   171
1070
     8
1070
   273
1070
     7
1002
}
  0
DIMENSION
  5
F2
330
1F
100
AcDbEntity
  8
치수문자_일반주서
100
AcDbDimension
  2
_D_1
 10
-37.11286934298439
 20
24.76357492872389
 30
0.0
 11
8.130880657015616
 21
24.76357492872389
 31
0.0
 70
   160
  1
<>
 71
     2
 42
90.48750000000001
  3
SLDDIMSTYLE0
100
AcDbAlignedDimension
 13
53.37463065701561
 23
3.164399156826322
 33
0.0
 14
-37.1128693429844
 24
3.811074928723895
 34
0.0
 50
0.0000000000000045
100
AcDbRotatedDimension
1001
PE_URL
1000

1001
ACAD
1000
DSTYLE
1002
{
1070
   171
1070
     8
1070
   273
1070
     7
1002
}
  0
DIMENSION
  5
105
330
1F
100
AcDbEntity
  8
치수문자_일반주서
100
AcDbDimension
  2
_D_2
 10
-47.11286934298435
 20
-4.761425071276154
 30
0.0
 11
-47.11286934298445
 21
21.19057492872386
 31
0.0
 70
   160
  1
%%c<>
 71
     2
 42
9.525000000000006
 52
-270.0
  3
SLDDIMSTYLE0
100
AcDbAlignedDimension
 13
-36.1603693429844
 23
4.763574928723896
 33
0.0
 14
-36.1603693429844
 24
-4.761425071276109
 34
0.0
 50
90.0000000000002
100
AcDbRotatedDimension
1001
PE_URL
1000

1001
ACAD
1000
DSTYLE
1002
{
1070
   171
1070
     8
1070
   273
1070
     7
1002
}
1001
ACAD_DSTYLE_DIMFLIPARROW_SYMBOL
1070
   385
1070
     0
1001
ACAD_DSTYLE_DIMFLIPARROW_WHICH_SYMBOL
1070
   386
1070
     3
  0
DIMENSION
  5
11A
330
1F
100
AcDbEntity
  8
치수문자_일반주서
100
AcDbDimension
  2
_D_3
 10
63.37463065701546
 20
3.164399156826359
 30
0.0
 11
63.37463065701539
 21
22.45589915682636
 31
0.0
 70
   160
  1
%%c<>
 71
     2
 42
6.326648456204857
 52
-270.0
  3
SLDDIMSTYLE0
100
AcDbAlignedDimension
 13
53.37463065701561
 23
-3.162249299378536
 33
0.0
 14
53.37463065701561
 24
3.164399156826322
 34
0.0
 50
90.0000000000002
100
AcDbRotatedDimension
1001
PE_URL
1000

1001
ACAD
1000
DSTYLE
1002
{
1070
   171
1070
     8
1070
   273
1070
     7
1002
}
  0
LINE
  5
12E
330
1F
100
AcDbEntity
  8
참조1
100
AcDbLine
 10
75.0693644723612
 20
7.441074928723896
 30
0.0
 11
75.0693644723612
 21
-7.438925071276109
 31
0.0
  0
LINE
  5
12F
330
1F
100
AcDbEntity
  8
참조1
100
AcDbLine
 10
87.7693644723612
 20
5.441074928723896
 30
0.0
 11
75.0693644723612
 21
5.441074928723896
 31
0.0
  0
SOLID
  5
130
330
1F
100
AcDbEntity
  8
참조1
100
AcDbTrace
 10
75.0693644723612
 20
5.441074928723896
 30
0.0
 11
81.4193644723612
 21
4.425074928723896
 31
0.0
 12
81.4193644723612
 22
6.457074928723896
 32
0.0
 13
81.4193644723612
 23
6.457074928723896
 33
0.0
  0
LINE
  5
131
330
1F
100
AcDbEntity
  8
참조1
100
AcDbLine
 10
87.7693644723612
 20
-5.438925071276109
 30
0.0
 11
75.0693644723612
 21
-5.438925071276109
 31
0.0
  0
SOLID
  5
132
330
1F
100
AcDbEntity
  8
참조1
100
AcDbTrace
 10
75.0693644723612
 20
-5.438925071276109
 30
0.0
 11
81.4193644723612
 21
-6.454925071276109
 31
0.0
 12
81.4193644723612
 22
-4.422925071276109
 32
0.0
 13
81.4193644723612
 23
-4.422925071276109
 33
0.0
  0
MTEXT
  5
133
330
1F
100
AcDbEntity
  8
참조1
100
AcDbMText
 10
84.4537146049872
 20
11.01136670591222
 30
0.0
 40
3.5
 41
0.0
 71
     1
 72
     1
  1
A
  7
SLDTEXTSTYLE0
 73
     1
 44
1.0
  0
MTEXT
  5
134
330
1F
100
AcDbEntity
  8
참조1
100
AcDbMText
 10
84.4537146049872
 20
0.1313667059122201
 30
0.0
 40
3.5
 41
0.0
 71
     1
 72
     1
  1
A
  7
SLDTEXTSTYLE0
 73
     1
 44
1.0
  0
INSERT
  5
13B
330
1F
100
AcDbEntity
  8
해칭선
100
AcDbBlockReference
  2
SW_DOWELSYMBOL_0
 10
0.0
 20
0.0
 30
0.0
  0
LINE
  5
1E4
330
1F
100
AcDbEntity
  8
외형선
  6
Continuous
370
    15
100
AcDbLine
 10
-20.83781934298452
 20
3.493574928723898
 30
0.0
 11
-13.70041934298439
 21
3.493574928723898
 31
0.0
1001
PE_URL
1000

  0
LINE
  5
1E5
330
1F
100
AcDbEntity
  8
외형선
  6
Continuous
370
    15
100
AcDbLine
 10
-20.83781934298452
 20
3.493574928723898
 30
0.0
 11
-22.1078193429845
 21
4.76357492872388
 31
0.0
1001
PE_URL
1000

  0
LINE
  5
1E6
330
1F
100
AcDbEntity
  8
외형선
  6
Continuous
370
    15
100
AcDbLine
 10
-13.70041934298439
 20
3.493574928723898
 30
0.0
 11
-12.43041934298429
 21
4.76357492872388
 31
0.0
1001
PE_URL
1000

  0
LINE
  5
1EA
330
1F
100
AcDbEntity
  8
외형선
  6
Continuous
370
    15
100
AcDbLine
 10
-22.10781934298451
 20
4.763574928723895
 30
0.0
 11
-36.1603693429844
 21
4.763574928723895
 31
0.0
  0
ENDSEC
  0
SECTION
  2
OBJECTS
  0
DICTIONARY
  5
C
330
0
100
AcDbDictionary
281
     1
  3
ACAD_DETAILVIEWSTYLE
350
214
  3
ACAD_GROUP
350
D
  3
ACAD_IMAGE_VARS
350
26A
  3
ACAD_LAYOUT
350
1A
  3
ACAD_MLINESTYLE
350
17
  3
ACAD_PLOTSETTINGS
350
19
  3
ACAD_PLOTSTYLENAME
350
E
  3
ACAD_SCALELIST
350
47
  3
ACAD_SECTIONVIEWSTYLE
350
215
  3
AcDbVariableDictionary
350
20F
  3
APPDATA
350
15D
  3
DWGPROPS
350
26B
  0
DICTIONARY
  5
192
330
2
100
AcDbDictionary
280
     1
281
     1
  3
ACAD_LAYERSTATES
360
193
  0
DICTIONARY
  5
214
102
{ACAD_REACTORS
330
C
102
}
330
C
100
AcDbDictionary
281
     1
  0
DICTIONARY
  5
D
102
{ACAD_REACTORS
330
C
102
}
330
C
100
AcDbDictionary
281
     1
  0
RASTERVARIABLES
  5
26A
102
{ACAD_REACTORS
330
C
102
}
330
C
100
AcDbRasterVariables
 90
        0
 70
     1
 71
     1
 72
     1
  0
DICTIONARY
  5
1A
102
{ACAD_REACTORS
330
C
102
}
330
C
100
AcDbDictionary
281
     1
  3
Layout1
350
1E
  3
Layout2
350
26
  3
Model
350
22
  0
DICTIONARY
  5
17
102
{ACAD_REACTORS
330
C
102
}
330
C
100
AcDbDictionary
281
     1
  3
Standard
350
18
  0
DICTIONARY
  5
19
102
{ACAD_REACTORS
330
C
102
}
330
C
100
AcDbDictionary
281
     1
  0
ACDBDICTIONARYWDFLT
  5
E
102
{ACAD_REACTORS
330
C
102
}
330
C
100
AcDbDictionary
281
     1
  3
Normal
350
F
100
AcDbDictionaryWithDefault
340
F
  0
DICTIONARY
  5
47
102
{ACAD_REACTORS
330
C
102
}
330
C
100
AcDbDictionary
281
     1
  3
A0
350
48
  3
A1
350
49
  3
A2
350
4A
  3
A3
350
4B
  3
A4
350
4C
  3
A5
350
4D
  3
A6
350
4E
  3
A7
350
4F
  3
A8
350
50
  3
A9
350
51
  3
B0
350
52
  3
B1
350
53
  3
B2
350
54
  3
B3
350
55
  3
B4
350
56
  3
B5
350
57
  3
B6
350
58
  3
B7
350
59
  3
B8
350
5A
  3
B9
350
5B
  3
C0
350
5C
  3
C1
350
5D
  3
C2
350
5E
  3
C3
350
5F
  3
C4
350
60
  3
C5
350
61
  3
C6
350
62
  3
C7
350
63
  3
C8
350
64
  3
C9
350
65
  3
D0
350
66
  3
D1
350
67
  3
D2
350
68
  0
DICTIONARY
  5
215
102
{ACAD_REACTORS
330
C
102
}
330
C
100
AcDbDictionary
281
     1
  0
DICTIONARY
  5
20F
102
{ACAD_REACTORS
330
C
102
}
330
C
100
AcDbDictionary
281
     1
  0
DICTIONARY
  5
15D
102
{ACAD_REACTORS
330
C
102
}
330
C
100
AcDbDictionary
281
     1
  0
XRECORD
  5
26B
102
{ACAD_REACTORS
330
C
102
}
330
C
100
AcDbXrecord
280
     1
  1
DWGPROPS COOKIE
  2

  3

  4

  6

  7

  8
12016016
  9

300
=
301
=
302
=
303
=
304
=
305
=
306
=
307
=
308
=
309
=
 40
0.0
 41
2458312.257038345
 42
2458330.312867604
  1

 90
        0
  0
DICTIONARY
  5
193
102
{ACAD_REACTORS
330
192
102
}
330
192
100
AcDbDictionary
281
     1
  0
LAYOUT
  5
1E
102
{ACAD_REACTORS
330
1A
102
}
330
1A
100
AcDbPlotSettings
  1

  2
none_device
  4

  6

 40
0.0
 41
0.0
 42
0.0
 43
0.0
 44
0.0
 45
0.0
 46
0.0
 47
0.0
 48
0.0
 49
0.0
140
0.0
141
0.0
142
1.0
143
1.0
 70
   688
 72
     1
 73
     0
 74
     5
  7

 75
    16
147
1.0
148
0.0
149
0.0
100
AcDbLayout
  1
Layout1
 70
     1
 71
     1
 10
0.0
 20
0.0
 11
420.0
 21
297.0
 12
0.0
 22
0.0
 32
0.0
 14
1.000000000000000E+20
 24
1.000000000000000E+20
 34
1.000000000000000E+20
 15
-1.000000000000000E+20
 25
-1.000000000000000E+20
 35
-1.000000000000000E+20
146
0.0
 13
0.0
 23
0.0
 33
0.0
 16
1.0
 26
0.0
 36
0.0
 17
0.0
 27
1.0
 37
0.0
 76
     0
330
1B
  0
LAYOUT
  5
26
102
{ACAD_REACTORS
330
1A
102
}
330
1A
100
AcDbPlotSettings
  1

  2
none_device
  4

  6

 40
0.0
 41
0.0
 42
0.0
 43
0.0
 44
0.0
 45
0.0
 46
0.0
 47
0.0
 48
0.0
 49
0.0
140
0.0
141
0.0
142
1.0
143
1.0
 70
   688
 72
     1
 73
     0
 74
     5
  7

 75
    16
147
1.0
148
0.0
149
0.0
100
AcDbLayout
  1
Layout2
 70
     1
 71
     2
 10
0.0
 20
0.0
 11
0.0
 21
0.0
 12
0.0
 22
0.0
 32
0.0
 14
0.0
 24
0.0
 34
0.0
 15
0.0
 25
0.0
 35
0.0
146
0.0
 13
0.0
 23
0.0
 33
0.0
 16
1.0
 26
0.0
 36
0.0
 17
0.0
 27
1.0
 37
0.0
 76
     0
330
23
  0
LAYOUT
  5
22
102
{ACAD_REACTORS
330
1A
102
}
330
1A
100
AcDbPlotSettings
  1

  2
none_device
  4
ANSI_A_(11.00_x_8.50_Inches)
  6

 40
6.35
 41
19.05
 42
6.35000508
 43
19.05000254
 44
279.4
 45
215.9
 46
74.88008188454033
 47
90.33081583660345
 48
0.0
 49
0.0
140
0.0
141
0.0
142
0.0556714094505985
143
1.0
 70
  1696
 72
     0
 73
     0
 74
     0
  7

 75
     0
147
0.0235690232323232
148
0.0
149
0.0
100
AcDbLayout
  1
Model
 70
     1
 71
     0
 10
0.0
 20
0.0
 11
420.0
 21
297.0
 12
0.0
 22
0.0
 32
0.0
 14
-51.48786934298448
 24
-49.97073246008786
 34
0.0
 15
87.7693644723612
 25
35.14339915682635
 35
0.0
146
0.0
 13
0.0
 23
0.0
 33
0.0
 16
1.0
 26
0.0
 36
0.0
 17
0.0
 27
1.0
 37
0.0
 76
     0
330
1F
331
29
  0
MLINESTYLE
  5
18
102
{ACAD_REACTORS
330
17
102
}
330
17
100
AcDbMlineStyle
  2
Standard
 70
     0
  3

 62
   256
 51
90.0
 52
90.0
 71
     2
 49
0.5
 62
   256
  6
BYLAYER
 49
-0.5
 62
   256
  6
BYLAYER
  0
ACDBPLACEHOLDER
  5
F
102
{ACAD_REACTORS
330
E
102
}
330
E
  0
SCALE
  5
48
102
{ACAD_REACTORS
330
47
102
}
330
47
100
AcDbScale
 70
     0
300
1:1
140
1.0
141
1.0
290
     1
  0
SCALE
  5
49
102
{ACAD_REACTORS
330
47
102
}
330
47
100
AcDbScale
 70
     0
300
1:2
140
1.0
141
2.0
290
     0
  0
SCALE
  5
4A
102
{ACAD_REACTORS
330
47
102
}
330
47
100
AcDbScale
 70
     0
300
1:4
140
1.0
141
4.0
290
     0
  0
SCALE
  5
4B
102
{ACAD_REACTORS
330
47
102
}
330
47
100
AcDbScale
 70
     0
300
1:5
140
1.0
141
5.0
290
     0
  0
SCALE
  5
4C
102
{ACAD_REACTORS
330
47
102
}
330
47
100
AcDbScale
 70
     0
300
1:8
140
1.0
141
8.0
290
     0
  0
SCALE
  5
4D
102
{ACAD_REACTORS
330
47
102
}
330
47
100
AcDbScale
 70
     0
300
1:10
140
1.0
141
10.0
290
     0
  0
SCALE
  5
4E
102
{ACAD_REACTORS
330
47
102
}
330
47
100
AcDbScale
 70
     0
300
1:16
140
1.0
141
16.0
290
     0
  0
SCALE
  5
4F
102
{ACAD_REACTORS
330
47
102
}
330
47
100
AcDbScale
 70
     0
300
1:20
140
1.0
141
20.0
290
     0
  0
SCALE
  5
50
102
{ACAD_REACTORS
330
47
102
}
330
47
100
AcDbScale
 70
     0
300
1:30
140
1.0
141
30.0
290
     0
  0
SCALE
  5
51
102
{ACAD_REACTORS
330
47
102
}
330
47
100
AcDbScale
 70
     0
300
1:40
140
1.0
141
40.0
290
     0
  0
SCALE
  5
52
102
{ACAD_REACTORS
330
47
102
}
330
47
100
AcDbScale
 70
     0
300
1:50
140
1.0
141
50.0
290
     0
  0
SCALE
  5
53
102
{ACAD_REACTORS
330
47
102
}
330
47
100
AcDbScale
 70
     0
300
1:100
140
1.0
141
100.0
290
     0
  0
SCALE
  5
54
102
{ACAD_REACTORS
330
47
102
}
330
47
100
AcDbScale
 70
     0
300
2:1
140
2.0
141
1.0
290
     0
  0
SCALE
  5
55
102
{ACAD_REACTORS
330
47
102
}
330
47
100
AcDbScale
 70
     0
300
4:1
140
4.0
141
1.0
290
     0
  0
SCALE
  5
56
102
{ACAD_REACTORS
330
47
102
}
330
47
100
AcDbScale
 70
     0
300
8:1
140
8.0
141
1.0
290
     0
  0
SCALE
  5
57
102
{ACAD_REACTORS
330
47
102
}
330
47
100
AcDbScale
 70
     0
300
10:1
140
10.0
141
1.0
290
     0
  0
SCALE
  5
58
102
{ACAD_REACTORS
330
47
102
}
330
47
100
AcDbScale
 70
     0
300
100:1
140
100.0
141
1.0
290
     0
  0
SCALE
  5
59
102
{ACAD_REACTORS
330
47
102
}
330
47
100
AcDbScale
 70
     0
300
1/128" = 1'-0"
140
0.0078125
141
12.0
290
     0
  0
SCALE
  5
5A
102
{ACAD_REACTORS
330
47
102
}
330
47
100
AcDbScale
 70
     0
300
1/64" = 1'-0"
140
0.015625
141
12.0
290
     0
  0
SCALE
  5
5B
102
{ACAD_REACTORS
330
47
102
}
330
47
100
AcDbScale
 70
     0
300
1/32" = 1'-0"
140
0.03125
141
12.0
290
     0
  0
SCALE
  5
5C
102
{ACAD_REACTORS
330
47
102
}
330
47
100
AcDbScale
 70
     0
300
1/16" = 1'-0"
140
0.0625
141
12.0
290
     0
  0
SCALE
  5
5D
102
{ACAD_REACTORS
330
47
102
}
330
47
100
AcDbScale
 70
     0
300
3/32" = 1'-0"
140
0.09375
141
12.0
290
     0
  0
SCALE
  5
5E
102
{ACAD_REACTORS
330
47
102
}
330
47
100
AcDbScale
 70
     0
300
1/8" = 1'-0"
140
0.125
141
12.0
290
     0
  0
SCALE
  5
5F
102
{ACAD_REACTORS
330
47
102
}
330
47
100
AcDbScale
 70
     0
300
3/16" = 1'-0"
140
0.1875
141
12.0
290
     0
  0
SCALE
  5
60
102
{ACAD_REACTORS
330
47
102
}
330
47
100
AcDbScale
 70
     0
300
1/4" = 1'-0"
140
0.25
141
12.0
290
     0
  0
SCALE
  5
61
102
{ACAD_REACTORS
330
47
102
}
330
47
100
AcDbScale
 70
     0
300
3/8" = 1'-0"
140
0.375
141
12.0
290
     0
  0
SCALE
  5
62
102
{ACAD_REACTORS
330
47
102
}
330
47
100
AcDbScale
 70
     0
300
1/2" = 1'-0"
140
0.5
141
12.0
290
     0
  0
SCALE
  5
63
102
{ACAD_REACTORS
330
47
102
}
330
47
100
AcDbScale
 70
     0
300
3/4" = 1'-0"
140
0.75
141
12.0
290
     0
  0
SCALE
  5
64
102
{ACAD_REACTORS
330
47
102
}
330
47
100
AcDbScale
 70
     0
300
1" = 1'-0"
140
1.0
141
12.0
290
     0
  0
SCALE
  5
65
102
{ACAD_REACTORS
330
47
102
}
330
47
100
AcDbScale
 70
     0
300
1-1/2" = 1'-0"
140
1.5
141
12.0
290
     0
  0
SCALE
  5
66
102
{ACAD_REACTORS
330
47
102
}
330
47
100
AcDbScale
 70
     0
300
3" = 1'-0"
140
3.0
141
12.0
290
     0
  0
SCALE
  5
67
102
{ACAD_REACTORS
330
47
102
}
330
47
100
AcDbScale
 70
     0
300
6" = 1'-0"
140
6.0
141
12.0
290
     0
  0
SCALE
  5
68
102
{ACAD_REACTORS
330
47
102
}
330
47
100
AcDbScale
 70
     0
300
1'-0" = 1'-0"
140
12.0
141
12.0
290
     0
  0
ENDSEC
  0
EOF
