  0
SECTION
  2
HEADER
  9
$ACADVER
  1
AC1015
  9
$ACADMAINTVER
 70
     6
  9
$DWGCODEPAGE
  3
ANSI_949
  9
$INSBASE
 10
0.0
 20
0.0
 30
0.0
  9
$EXTMIN
 10
-48.8250000000001
 20
-49.97180738881175
 30
0.0
  9
$EXTMAX
 10
90.43223381534558
 20
34.31449999999996
 30
0.0
  9
$LIMMIN
 10
0.0
 20
0.0
  9
$LIMMAX
 10
420.0
 20
297.0
  9
$ORTHOMODE
 70
     1
  9
$REGENMODE
 70
     1
  9
$FILLMODE
 70
     1
  9
$QTEXTMODE
 70
     0
  9
$MIRRTEXT
 70
     1
  9
$LTSCALE
 40
1.0
  9
$ATTMODE
 70
     1
  9
$TEXTSIZE
 40
3.5
  9
$TRACEWID
 40
1.0
  9
$TEXTSTYLE
  7
Standard
  9
$CLAYER
  8
0
  9
$CELTYPE
  6
ByLayer
  9
$CECOLOR
 62
   256
  9
$CELTSCALE
 40
1.0
  9
$DISPSILH
 70
     0
  9
$DIMSCALE
 40
1.0
  9
$DIMASZ
 40
3.302
  9
$DIMEXO
 40
1.0
  9
$DIMDLI
 40
3.75
  9
$DIMRND
 40
0.0
  9
$DIMDLE
 40
0.0
  9
$DIMEXE
 40
1.0
  9
$DIMTP
 40
0.0
  9
$DIMTM
 40
0.0
  9
$DIMTXT
 40
3.5
  9
$DIMCEN
 40
2.5
  9
$DIMTSZ
 40
0.0
  9
$DIMTOL
 70
     0
  9
$DIMLIM
 70
     0
  9
$DIMTIH
 70
     1
  9
$DIMTOH
 70
     1
  9
$DIMSE1
 70
     0
  9
$DIMSE2
 70
     0
  9
$DIMTAD
 70
     1
  9
$DIMZIN
 70
     0
  9
$DIMBLK
  1

  9
$DIMASO
 70
     1
  9
$DIMSHO
 70
     1
  9
$DIMPOST
  1

  9
$DIMAPOST
  1

  9
$DIMALT
 70
     0
  9
$DIMALTD
 70
     3
  9
$DIMALTF
 40
0.0393700787401575
  9
$DIMLFAC
 40
1.0
  9
$DIMTOFL
 70
     1
  9
$DIMTVP
 40
0.0
  9
$DIMTIX
 70
     0
  9
$DIMSOXD
 70
     0
  9
$DIMSAH
 70
     0
  9
$DIMBLK1
  1

  9
$DIMBLK2
  1

  9
$DIMSTYLE
  2
ISO-25
  9
$DIMCLRD
 70
     0
  9
$DIMCLRE
 70
     0
  9
$DIMCLRT
 70
     0
  9
$DIMTFAC
 40
1.0
  9
$DIMGAP
 40
1.524
  9
$DIMJUST
 70
     0
  9
$DIMSD1
 70
     0
  9
$DIMSD2
 70
     0
  9
$DIMTOLJ
 70
     0
  9
$DIMTZIN
 70
     0
  9
$DIMALTZ
 70
     0
  9
$DIMALTTZ
 70
     0
  9
$DIMUPT
 70
     0
  9
$DIMDEC
 70
     2
  9
$DIMTDEC
 70
     2
  9
$DIMALTU
 70
     2
  9
$DIMALTTD
 70
     3
  9
$DIMTXSTY
  7
Standard
  9
$DIMAUNIT
 70
     0
  9
$DIMADEC
 70
     2
  9
$DIMALTRND
 40
0.0
  9
$DIMAZIN
 70
     0
  9
$DIMDSEP
 70
    44
  9
$DIMATFIT
 70
     3
  9
$DIMFRAC
 70
     0
  9
$DIMLDRBLK
  1

  9
$DIMLUNIT
 70
     2
  9
$DIMLWD
 70
    -2
  9
$DIMLWE
 70
    -2
  9
$DIMTMOVE
 70
     0
  9
$LUNITS
 70
     2
  9
$LUPREC
 70
     2
  9
$SKETCHINC
 40
1.0
  9
$FILLETRAD
 40
10.0
  9
$AUNITS
 70
     0
  9
$AUPREC
 70
     2
  9
$MENU
  1
.
  9
$ELEVATION
 40
0.0
  9
$PELEVATION
 40
0.0
  9
$THICKNESS
 40
0.0
  9
$LIMCHECK
 70
     0
  9
$CHAMFERA
 40
0.0
  9
$CHAMFERB
 40
0.0
  9
$CHAMFERC
 40
0.0
  9
$CHAMFERD
 40
0.0
  9
$SKPOLY
 70
     0
  9
$TDCREATE
 40
2458312.632673542
  9
$TDUCREATE
 40
2458312.257673542
  9
$TDUPDATE
 40
2458330.687723252
  9
$TDUUPDATE
 40
2458330.312723252
  9
$TDINDWG
 40
0.0029019329
  9
$TDUSRTIMER
 40
2458330.312687709
  9
$USRTIMER
 70
     1
  9
$ANGBASE
 50
0.0
  9
$ANGDIR
 70
     0
  9
$PDMODE
 70
     0
  9
$PDSIZE
 40
-1.0
  9
$PLINEWID
 40
0.0
  9
$SPLFRAME
 70
     0
  9
$SPLINETYPE
 70
     6
  9
$SPLINESEGS
 70
     8
  9
$HANDSEED
  5
210
  9
$SURFTAB1
 70
     6
  9
$SURFTAB2
 70
     6
  9
$SURFTYPE
 70
     6
  9
$SURFU
 70
     6
  9
$SURFV
 70
     6
  9
$UCSBASE
  2

  9
$UCSNAME
  2

  9
$UCSORG
 10
0.0
 20
0.0
 30
0.0
  9
$UCSXDIR
 10
1.0
 20
0.0
 30
0.0
  9
$UCSYDIR
 10
0.0
 20
1.0
 30
0.0
  9
$UCSORTHOREF
  2

  9
$UCSORTHOVIEW
 70
     0
  9
$UCSORGTOP
 10
0.0
 20
0.0
 30
0.0
  9
$UCSORGBOTTOM
 10
0.0
 20
0.0
 30
0.0
  9
$UCSORGLEFT
 10
0.0
 20
0.0
 30
0.0
  9
$UCSORGRIGHT
 10
0.0
 20
0.0
 30
0.0
  9
$UCSORGFRONT
 10
0.0
 20
0.0
 30
0.0
  9
$UCSORGBACK
 10
0.0
 20
0.0
 30
0.0
  9
$PUCSBASE
  2

  9
$PUCSNAME
  2

  9
$PUCSORG
 10
0.0
 20
0.0
 30
0.0
  9
$PUCSXDIR
 10
1.0
 20
0.0
 30
0.0
  9
$PUCSYDIR
 10
0.0
 20
1.0
 30
0.0
  9
$PUCSORTHOREF
  2

  9
$PUCSORTHOVIEW
 70
     0
  9
$PUCSORGTOP
 10
0.0
 20
0.0
 30
0.0
  9
$PUCSORGBOTTOM
 10
0.0
 20
0.0
 30
0.0
  9
$PUCSORGLEFT
 10
0.0
 20
0.0
 30
0.0
  9
$PUCSORGRIGHT
 10
0.0
 20
0.0
 30
0.0
  9
$PUCSORGFRONT
 10
0.0
 20
0.0
 30
0.0
  9
$PUCSORGBACK
 10
0.0
 20
0.0
 30
0.0
  9
$USERI1
 70
     0
  9
$USERI2
 70
     0
  9
$USERI3
 70
     0
  9
$USERI4
 70
     0
  9
$USERI5
 70
     0
  9
$USERR1
 40
0.0
  9
$USERR2
 40
0.0
  9
$USERR3
 40
0.0
  9
$USERR4
 40
0.0
  9
$USERR5
 40
0.0
  9
$WORLDVIEW
 70
     1
  9
$SHADEDGE
 70
     3
  9
$SHADEDIF
 70
    70
  9
$TILEMODE
 70
     1
  9
$MAXACTVP
 70
    64
  9
$PINSBASE
 10
0.0
 20
0.0
 30
0.0
  9
$PLIMCHECK
 70
     0
  9
$PEXTMIN
 10
1.000000000000000E+20
 20
1.000000000000000E+20
 30
1.000000000000000E+20
  9
$PEXTMAX
 10
-1.000000000000000E+20
 20
-1.000000000000000E+20
 30
-1.000000000000000E+20
  9
$PLIMMIN
 10
0.0
 20
0.0
  9
$PLIMMAX
 10
0.0
 20
0.0
  9
$UNITMODE
 70
     0
  9
$VISRETAIN
 70
     1
  9
$PLINEGEN
 70
     0
  9
$PSLTSCALE
 70
     1
  9
$TREEDEPTH
 70
  3020
  9
$CMLSTYLE
  2
Standard
  9
$CMLJUST
 70
     0
  9
$CMLSCALE
 40
20.0
  9
$PROXYGRAPHICS
 70
     1
  9
$MEASUREMENT
 70
     1
  9
$CELWEIGHT
370
    -1
  9
$ENDCAPS
280
     0
  9
$JOINSTYLE
280
     0
  9
$LWDISPLAY
290
     1
  9
$INSUNITS
 70
     4
  9
$HYPERLINKBASE
  1

  9
$STYLESHEET
  1

  9
$XEDIT
290
     1
  9
$CEPSNTYPE
380
     0
  9
$PSTYLEMODE
290
     1
  9
$FINGERPRINTGUID
  2
{D2305070-D643-434F-96B6-41D2859BF02E}
  9
$VERSIONGUID
  2
{FAEB1C32-E019-11D5-929B-00C0DF256EC4}
  9
$EXTNAMES
290
     1
  9
$PSVPSCALE
 40
0.0
  9
$OLESTARTUP
290
     0
  0
ENDSEC
  0
SECTION
  2
CLASSES
  0
CLASS
  1
ACDBDICTIONARYWDFLT
  2
AcDbDictionaryWithDefault
  3
ObjectDBX Classes
 90
        0
280
     0
281
     0
  0
CLASS
  1
VISUALSTYLE
  2
AcDbVisualStyle
  3
ObjectDBX Classes
 90
     4095
280
     0
281
     0
  0
CLASS
  1
MATERIAL
  2
AcDbMaterial
  3
ObjectDBX Classes
 90
     1153
280
     0
281
     0
  0
CLASS
  1
SCALE
  2
AcDbScale
  3
ObjectDBX Classes
 90
     1153
280
     0
281
     0
  0
CLASS
  1
SUN
  2
AcDbSun
  3
SCENEOE
 90
     1153
280
     0
281
     0
  0
CLASS
  1
ACDBPLACEHOLDER
  2
AcDbPlaceHolder
  3
ObjectDBX Classes
 90
        0
280
     0
281
     0
  0
CLASS
  1
LAYOUT
  2
AcDbLayout
  3
ObjectDBX Classes
 90
        0
280
     0
281
     0
  0
CLASS
  1
TABLESTYLE
  2
AcDbTableStyle
  3
ObjectDBX Classes
 90
     4095
280
     0
281
     0
  0
CLASS
  1
MLEADERSTYLE
  2
AcDbMLeaderStyle
  3
ACDB_MLEADERSTYLE_CLASS
 90
     4095
280
     0
281
     0
  0
CLASS
  1
DICTIONARYVAR
  2
AcDbDictionaryVar
  3
ObjectDBX Classes
 90
        0
280
     0
281
     0
  0
CLASS
  1
RASTERVARIABLES
  2
AcDbRasterVariables
  3
ISM
 90
        0
280
     0
281
     0
  0
ENDSEC
  0
SECTION
  2
TABLES
  0
TABLE
  2
VPORT
  5
8
330
0
100
AcDbSymbolTable
 70
     1
  0
VPORT
  5
29
330
8
100
AcDbSymbolTableRecord
100
AcDbViewportTableRecord
  2
*Active
 70
     0
 10
0.0
 20
0.0
 11
1.0
 21
1.0
 12
20.80361690767273
 22
-7.828653694405894
 13
0.0
 23
0.0
 14
10.0
 24
10.0
 15
10.0
 25
10.0
 16
0.0
 26
0.0
 36
1.0
 17
0.0
 27
0.0
 37
0.0
 40
85.97203353658794
 41
1.782762691853601
 42
50.0
 43
0.0
 44
0.0
 50
0.0
 51
0.0
 71
    16
 72
  2000
 73
     1
 74
     3
 75
     0
 76
     0
 77
     0
 78
     0
281
     0
 65
     1
110
0.0
120
0.0
130
0.0
111
1.0
121
0.0
131
0.0
112
0.0
122
1.0
132
0.0
 79
     0
146
0.0
  0
ENDTAB
  0
TABLE
  2
LTYPE
  5
5
330
0
100
AcDbSymbolTable
 70
     6
  0
LTYPE
  5
14
330
5
100
AcDbSymbolTableRecord
100
AcDbLinetypeTableRecord
  2
ByBlock
 70
     0
  3

 72
    65
 73
     0
 40
0.0
  0
LTYPE
  5
15
330
5
100
AcDbSymbolTableRecord
100
AcDbLinetypeTableRecord
  2
ByLayer
 70
     0
  3

 72
    65
 73
     0
 40
0.0
  0
LTYPE
  5
16
330
5
100
AcDbSymbolTableRecord
100
AcDbLinetypeTableRecord
  2
Continuous
 70
     0
  3
Solid line
 72
    65
 73
     0
 40
0.0
  0
LTYPE
  5
6A
330
5
100
AcDbSymbolTableRecord
100
AcDbLinetypeTableRecord
  2
HIDDEN
 70
     0
  3
Hidden __ __ __ __ __ __ __ __ __ __ __ __ __ __
 72
    65
 73
     2
 40
1.905
 49
1.27
 74
     0
 49
-0.635
 74
     0
  0
LTYPE
  5
6B
330
5
100
AcDbSymbolTableRecord
100
AcDbLinetypeTableRecord
  2
PHANTOM
 70
     0
  3
Phantom ______  __  __  ______  __  __  ______
 72
    65
 73
     6
 40
12.7
 49
6.35
 74
     0
 49
-1.27
 74
     0
 49
1.27
 74
     0
 49
-1.27
 74
     0
 49
1.27
 74
     0
 49
-1.27
 74
     0
  0
LTYPE
  5
6C
330
5
100
AcDbSymbolTableRecord
100
AcDbLinetypeTableRecord
  2
CENTER
 70
     0
  3
Center ____ _ ____ _ ____ _ ____ _ ____ _ ____
 72
    65
 73
     4
 40
10.16
 49
6.35
 74
     0
 49
-1.27
 74
     0
 49
1.27
 74
     0
 49
-1.27
 74
     0
  0
LTYPE
  5
6D
330
5
100
AcDbSymbolTableRecord
100
AcDbLinetypeTableRecord
  2
CENTERX2
 70
     0
  3
Center (2x) ________  __  ________  __  _____
 72
    65
 73
     4
 40
20.32
 49
12.7
 74
     0
 49
-2.54
 74
     0
 49
2.54
 74
     0
 49
-2.54
 74
     0
  0
LTYPE
  5
6E
330
5
100
AcDbSymbolTableRecord
100
AcDbLinetypeTableRecord
  2
DOT2
 70
     0
  3
Dot (.5x) ........................................
 72
    65
 73
     2
 40
0.635
 49
0.0
 74
     0
 49
-0.635
 74
     0
  0
ENDTAB
  0
TABLE
  2
LAYER
  5
2
102
{ACAD_XDICTIONARY
360
188
102
}
330
0
100
AcDbSymbolTable
 70
    18
  0
LAYER
  5
10
330
2
100
AcDbSymbolTableRecord
100
AcDbLayerTableRecord
  2
0
 70
     0
 62
     7
  6
Continuous
370
    -3
390
F
  0
LAYER
  5
6F
330
2
100
AcDbSymbolTableRecord
100
AcDbLayerTableRecord
  2
FORMAT
 70
     0
 62
     2
  6
Continuous
370
    -3
390
F
  0
LAYER
  5
70
330
2
100
AcDbSymbolTableRecord
100
AcDbLayerTableRecord
  2
외형선
 70
     0
 62
     4
  6
Continuous
370
    30
390
F
  0
LAYER
  5
71
330
2
100
AcDbSymbolTableRecord
100
AcDbLayerTableRecord
  2
숨은선
 70
     0
 62
     2
  6
HIDDEN
370
    15
390
F
  0
LAYER
  5
72
330
2
100
AcDbSymbolTableRecord
100
AcDbLayerTableRecord
  2
중심선
 70
     0
 62
     1
  6
CENTERX2
370
    -3
390
F
  0
LAYER
  5
73
330
2
100
AcDbSymbolTableRecord
100
AcDbLayerTableRecord
  2
파단선
 70
     0
 62
     4
  6
Continuous
370
    -3
390
F
  0
LAYER
  5
74
330
2
100
AcDbSymbolTableRecord
100
AcDbLayerTableRecord
  2
해칭선
 70
     0
 62
   100
  6
Continuous
370
    -3
390
F
  0
LAYER
  5
75
330
2
100
AcDbSymbolTableRecord
100
AcDbLayerTableRecord
  2
가는실선
 70
     0
 62
     4
  6
Continuous
370
    -3
390
F
  0
LAYER
  5
76
330
2
100
AcDbSymbolTableRecord
100
AcDbLayerTableRecord
  2
치수_보조선
 70
     0
 62
     4
  6
Continuous
370
    -3
390
F
  0
LAYER
  5
77
330
2
100
AcDbSymbolTableRecord
100
AcDbLayerTableRecord
  2
치수문자_일반주서
 70
     0
 62
     7
  6
Continuous
370
    15
390
F
  0
LAYER
  5
78
330
2
100
AcDbSymbolTableRecord
100
AcDbLayerTableRecord
  2
개별주서
 70
     0
 62
   100
  6
Continuous
370
    30
390
F
  0
LAYER
  5
79
330
2
100
AcDbSymbolTableRecord
100
AcDbLayerTableRecord
  2
중간선
 70
     0
 62
     2
  6
Continuous
370
    15
390
F
  0
LAYER
  5
7A
330
2
100
AcDbSymbolTableRecord
100
AcDbLayerTableRecord
  2
윤곽선
 70
     0
 62
     3
  6
Continuous
370
    40
390
F
  0
LAYER
  5
7B
330
2
100
AcDbSymbolTableRecord
100
AcDbLayerTableRecord
  2
중심마크
 70
     0
 62
   100
  6
Continuous
370
    30
390
F
  0
LAYER
  5
7C
330
2
100
AcDbSymbolTableRecord
100
AcDbLayerTableRecord
  2
가상선
 70
     0
 62
     4
  6
PHANTOM
370
    -3
390
F
  0
LAYER
  5
7D
330
2
100
AcDbSymbolTableRecord
100
AcDbLayerTableRecord
  2
특수지정선
 70
     0
 62
     5
  6
CENTERX2
370
    60
390
F
  0
LAYER
  5
7E
330
2
100
AcDbSymbolTableRecord
100
AcDbLayerTableRecord
  2
참조1
 70
     0
 62
    -4
  6
Continuous
370
    -3
390
F
  0
LAYER
  5
154
330
2
100
AcDbSymbolTableRecord
100
AcDbLayerTableRecord
  2
Defpoints
 70
     0
 62
     7
  6
Continuous
290
     0
370
    -3
390
F
  0
ENDTAB
  0
TABLE
  2
STYLE
  5
3
330
0
100
AcDbSymbolTable
 70
     2
  0
STYLE
  5
11
330
3
100
AcDbSymbolTableRecord
100
AcDbTextStyleTableRecord
  2
Standard
 70
     0
 40
0.0
 41
1.0
 50
0.0
 71
     0
 42
3.5
  3
txt
  4

  0
STYLE
  5
94
330
3
100
AcDbSymbolTableRecord
100
AcDbTextStyleTableRecord
  2
SLDTEXTSTYLE0
 70
     0
 40
0.0
 41
0.75
 50
0.0
 71
     0
 42
3.5
  3
TXT
  4

  0
ENDTAB
  0
TABLE
  2
VIEW
  5
6
330
0
100
AcDbSymbolTable
 70
     0
  0
ENDTAB
  0
TABLE
  2
UCS
  5
7
330
0
100
AcDbSymbolTable
 70
     0
  0
ENDTAB
  0
TABLE
  2
APPID
  5
9
330
0
100
AcDbSymbolTable
 70
     4
  0
APPID
  5
12
330
9
100
AcDbSymbolTableRecord
100
AcDbRegAppTableRecord
  2
ACAD
 70
     0
  0
APPID
  5
15B
330
9
100
AcDbSymbolTableRecord
100
AcDbRegAppTableRecord
  2
PE_URL
 70
     0
  0
APPID
  5
1EA
330
9
100
AcDbSymbolTableRecord
100
AcDbRegAppTableRecord
  2
ACAD_DSTYLE_DIMFLIPARROW_SYMBOL
 70
     0
  0
APPID
  5
1EB
330
9
100
AcDbSymbolTableRecord
100
AcDbRegAppTableRecord
  2
ACAD_DSTYLE_DIMFLIPARROW_WHICH_SYMBOL
 70
     0
  0
ENDTAB
  0
TABLE
  2
DIMSTYLE
  5
A
330
0
100
AcDbSymbolTable
 70
     4
100
AcDbDimStyleTable
  0
DIMSTYLE
105
27
330
A
100
AcDbSymbolTableRecord
100
AcDbDimStyleTableRecord
  2
ISO-25
 70
     0
 41
2.5
 42
0.625
 43
3.75
 44
1.25
 73
     0
 74
     0
 77
     1
 78
     8
140
2.5
141
2.5
143
0.03937007874016
147
0.625
171
     3
172
     1
178
     0
271
     2
272
     2
274
     3
278
    44
283
     0
284
     8
340
11
  0
DIMSTYLE
105
D3
102
{ACAD_REACTORS
330
D2
330
110
330
E7
330
FB
102
}
330
A
100
AcDbSymbolTableRecord
100
AcDbDimStyleTableRecord
  2
SLDDIMSTYLE0
 70
     0
 41
3.302
 44
0.0
 45
0.000000001
 73
     0
 74
     0
 77
     1
 78
     4
 79
     1
140
3.5
143
0.0393700787401575
147
0.875
148
0.000000001
170
     1
173
     1
178
     0
271
     2
272
     2
276
     2
284
    12
340
94
  0
DIMSTYLE
105
E8
330
A
100
AcDbSymbolTableRecord
100
AcDbDimStyleTableRecord
  2
SLDDIMSTYLE1
 70
     0
 41
3.302
 44
0.0
 45
0.000000001
 73
     0
 74
     0
 77
     1
 78
    12
 79
     3
140
3.5
143
0.0393700787401575
147
0.875
148
0.000000001
170
     1
173
     1
178
     0
271
     2
272
     2
276
     2
284
    12
340
94
  0
DIMSTYLE
105
FC
330
A
100
AcDbSymbolTableRecord
100
AcDbDimStyleTableRecord
  2
SLDDIMSTYLE2
 70
     0
 41
3.302
 44
0.0
 45
0.000000001
 73
     0
 74
     0
 77
     1
 78
    12
 79
     3
140
3.5
143
0.0393700787401575
147
0.875
148
0.000000001
170
     1
172
     1
173
     1
178
     0
271
     2
272
     2
276
     2
284
    12
289
     0
340
94
  0
ENDTAB
  0
TABLE
  2
BLOCK_RECORD
  5
1
330
0
100
AcDbSymbolTable
 70
     9
  0
BLOCK_RECORD
  5
1F
330
1
100
AcDbSymbolTableRecord
100
AcDbBlockTableRecord
  2
*Model_Space
340
22
  0
BLOCK_RECORD
  5
1B
330
1
100
AcDbSymbolTableRecord
100
AcDbBlockTableRecord
  2
*Paper_Space
340
1E
  0
BLOCK_RECORD
  5
23
330
1
100
AcDbSymbolTableRecord
100
AcDbBlockTableRecord
  2
*Paper_Space0
340
26
  0
BLOCK_RECORD
  5
7F
330
1
100
AcDbSymbolTableRecord
100
AcDbBlockTableRecord
  2
블럭10
340
0
102
{BLKREFS
331
CB
102
}
  0
BLOCK_RECORD
  5
D4
330
1
100
AcDbSymbolTableRecord
100
AcDbBlockTableRecord
  2
_D
340
0
  0
BLOCK_RECORD
  5
E9
330
1
100
AcDbSymbolTableRecord
100
AcDbBlockTableRecord
  2
_D_1
340
0
  0
BLOCK_RECORD
  5
FD
330
1
100
AcDbSymbolTableRecord
100
AcDbBlockTableRecord
  2
_D_2
340
0
  0
BLOCK_RECORD
  5
111
330
1
100
AcDbSymbolTableRecord
100
AcDbBlockTableRecord
  2
_D_3
340
0
  0
BLOCK_RECORD
  5
12A
330
1
100
AcDbSymbolTableRecord
100
AcDbBlockTableRecord
  2
SW_DOWELSYMBOL_0
340
0
102
{BLKREFS
331
130
102
}
  0
BLOCK_RECORD
  5
18C
330
1
100
AcDbSymbolTableRecord
100
AcDbBlockTableRecord
  2
*D7
340
0
  0
BLOCK_RECORD
  5
19B
330
1
100
AcDbSymbolTableRecord
100
AcDbBlockTableRecord
  2
*D8
340
0
  0
ENDTAB
  0
ENDSEC
  0
SECTION
  2
BLOCKS
  0
BLOCK
  5
20
330
1F
100
AcDbEntity
  8
0
100
AcDbBlockBegin
  2
*Model_Space
 70
     0
 10
0.0
 20
0.0
 30
0.0
  3
*Model_Space
  1
*Model_Space
  0
ENDBLK
  5
21
330
1F
100
AcDbEntity
  8
0
100
AcDbBlockEnd
  0
BLOCK
  5
1C
330
1B
100
AcDbEntity
 67
     1
  8
0
100
AcDbBlockBegin
  2
*Paper_Space
 70
     0
 10
0.0
 20
0.0
 30
0.0
  3
*Paper_Space
  1
*Paper_Space
  0
ENDBLK
  5
1D
330
1B
100
AcDbEntity
 67
     1
  8
0
100
AcDbBlockEnd
  0
BLOCK
  5
24
330
23
100
AcDbEntity
  8
0
100
AcDbBlockBegin
  2
*Paper_Space0
 70
     0
 10
0.0
 20
0.0
 30
0.0
  3
*Paper_Space0
  1
*Paper_Space0
  0
ENDBLK
  5
25
330
23
100
AcDbEntity
  8
0
100
AcDbBlockEnd
  0
BLOCK
  5
80
330
7F
100
AcDbEntity
  8
0
100
AcDbBlockBegin
  2
블럭10
 70
     2
 10
0.0
 20
0.0
 30
0.0
  3
블럭10
  1
블럭10
  0
ELLIPSE
  5
82
330
7F
100
AcDbEntity
  8
중심선
100
AcDbEllipse
 10
20.54032771741204
 20
12.0471743016438
 30
0.0
 11
6.600054785286829
 21
-1.261213355974178E-13
 31
0.0
210
0.0
220
0.0
230
1.0
 40
0.636358354079598
 41
0.9219305317359503
 42
6.513795318482858
  0
ELLIPSE
  5
83
330
7F
100
AcDbEntity
  8
중심선
100
AcDbEllipse
 10
20.54032771746488
 20
12.04717430159265
 30
0.0
 11
3.960054785062283
 21
1.540847449632565E-10
 31
0.0
210
0.0
220
0.0
230
1.0
 40
0.3939339440162632
 41
1.131841032648279
 42
5.62031148352944
  0
LINE
  5
84
330
7F
100
AcDbEntity
  8
중심선
100
AcDbLine
 10
2.268634060543552
 20
16.24717430164393
 30
0.0
 11
5.714909304380834
 21
16.24717430164393
 31
0.0
  0
LINE
  5
85
330
7F
100
AcDbEntity
  8
중심선
100
AcDbLine
 10
5.245725140726316
 20
7.84717430164391
 30
0.0
 11
8.692000384563599
 21
7.84717430164391
 31
0.0
  0
LINE
  5
86
330
7F
100
AcDbEntity
  8
중심선
100
AcDbLine
 10
15.74043728645272
 20
16.24717430164393
 30
0.0
 11
8.692000384563599
 21
7.84717430164391
 31
0.0
  0
LINE
  5
87
330
7F
100
AcDbEntity
  8
중심선
100
AcDbLine
 10
0.1404042013395286
 20
13.71084872107135
 30
0.0
 11
3.58671253028996
 21
13.71088815037384
 31
0.0
  0
LINE
  5
88
330
7F
100
AcDbEntity
  8
중심선
100
AcDbLine
 10
2.750260043222114
 20
10.84717430164391
 30
0.0
 11
6.196535287059397
 21
10.84717430164391
 31
0.0
  0
LINE
  5
89
330
7F
100
AcDbEntity
  8
중심선
100
AcDbLine
 10
12.29416204261559
 20
16.24717430164393
 30
0.0
 11
5.245725140726316
 21
7.84717430164391
 31
0.0
  0
LINE
  5
8A
330
7F
100
AcDbEntity
  8
중심선
100
AcDbLine
 10
10.72767329541681
 20
16.24717430164393
 30
0.0
 11
6.196535287059397
 21
10.84717430164391
 31
0.0
  0
LINE
  5
8B
330
7F
100
AcDbEntity
  8
중심선
100
AcDbLine
 10
7.28139805157953
 20
16.24717430164393
 30
0.0
 11
2.750260043222114
 21
10.84717430164391
 31
0.0
  0
LINE
  5
8C
330
7F
100
AcDbEntity
  8
중심선
100
AcDbLine
 10
5.714909304380834
 20
16.24717430164393
 30
0.0
 11
3.58671253028996
 21
13.71088815037384
 31
0.0
  0
LINE
  5
8D
330
7F
100
AcDbEntity
  8
중심선
100
AcDbLine
 10
2.268634060543552
 20
16.24717430164393
 30
0.0
 11
0.1404042013395286
 21
13.71084872107135
 31
0.0
  0
LINE
  5
8E
330
7F
100
AcDbEntity
  8
중심선
100
AcDbLine
 10
7.28139805157953
 20
16.24717430164393
 30
0.0
 11
10.72767329541681
 21
16.24717430164393
 31
0.0
  0
LINE
  5
8F
330
7F
100
AcDbEntity
  8
중심선
100
AcDbLine
 10
12.29416204261559
 20
16.24717430164393
 30
0.0
 11
15.74043728645272
 21
16.24717430164393
 31
0.0
  0
LINE
  5
90
330
7F
100
AcDbEntity
  8
중심선
100
AcDbLine
 10
19.22036997980202
 20
11.08717430171403
 30
0.0
 11
23.66174974927406
 21
11.08717430171406
 31
0.0
  0
LINE
  5
91
330
7F
100
AcDbEntity
  8
중심선
100
AcDbLine
 10
19.22039502424796
 20
13.00717430171391
 30
0.0
 11
19.22036997980202
 21
11.08717430171403
 31
0.0
  0
LINE
  5
92
330
7F
100
AcDbEntity
  8
중심선
100
AcDbLine
 10
19.22039502424796
 20
13.00717430171391
 30
0.0
 11
26.96566020931264
 21
13.00717430171391
 31
0.0
  0
LINE
  5
93
330
7F
100
AcDbEntity
  8
중심선
100
AcDbLine
 10
22.22332737316547
 20
13.45928029700563
 30
0.0
 11
24.52862924686651
 21
15.39360700705356
 31
0.0
  0
ATTDEF
  5
95
330
7F
100
AcDbEntity
  8
FORMAT
 62
     2
100
AcDbText
 10
4.408487351596664
 20
2.075366912832191
 30
0.0
 40
4.233333333333333
  1
E1041024
 41
0.75
  7
SLDTEXTSTYLE0
 11
4.408487351596664
 21
-0.0412997538344756
 31
0.0
100
AcDbAttributeDefinition
  3

  2
AUTOATTR0
 70
     0
 74
     1
  0
ENDBLK
  5
81
330
7F
100
AcDbEntity
  8
0
100
AcDbBlockEnd
  0
BLOCK
  5
D5
330
D4
100
AcDbEntity
  8
0
100
AcDbBlockBegin
  2
_D
 70
     0
 10
0.0
 20
0.0
 30
0.0
  3
_D
  1
_D
  0
LINE
  5
D7
330
D4
100
AcDbEntity
  8
치수문자_일반주서
 62
     0
370
    -2
100
AcDbLine
 10
73.5
 20
4.80748634215364
 30
0.0
 11
73.5
 21
14.78499317107682
 31
0.0
  0
LINE
  5
D8
330
D4
100
AcDbEntity
  8
치수문자_일반주서
 62
     0
370
    -2
100
AcDbLine
 10
10.00000000000002
 20
4.813298759051921
 30
0.0
 11
10.00000000000002
 21
14.78499317107682
 31
0.0
  0
LINE
  5
D9
330
D4
100
AcDbEntity
  8
치수문자_일반주서
 62
     0
370
    -2
100
AcDbLine
 10
70.19800000000001
 20
14.78499317107682
 30
0.0
 11
13.30200000000002
 21
14.78499317107682
 31
0.0
  0
SOLID
  5
DA
330
D4
100
AcDbEntity
  8
치수문자_일반주서
 62
     0
100
AcDbTrace
 10
70.19800000000001
 20
14.23465983774348
 30
0.0
 11
70.19800000000001
 21
15.33532650441015
 31
0.0
 12
73.5
 22
14.78499317107682
 32
0.0
 13
73.5
 23
14.78499317107682
 33
0.0
  0
SOLID
  5
DB
330
D4
100
AcDbEntity
  8
치수문자_일반주서
 62
     0
100
AcDbTrace
 10
13.30200000000002
 20
15.33532650441015
 30
0.0
 11
13.30200000000002
 21
14.23465983774348
 31
0.0
 12
10.00000000000002
 22
14.78499317107682
 32
0.0
 13
10.00000000000002
 23
14.78499317107682
 33
0.0
  0
MTEXT
  5
DC
330
D4
100
AcDbEntity
  8
치수문자_일반주서
 62
     0
100
AcDbMText
 10
41.75000000000003
 20
19.15999317107682
 30
0.0
 40
3.5
 41
0.0
 71
     2
 72
     1
  1
\A1;63.50 [2 1/2]
  7
SLDTEXTSTYLE0
 73
     1
 44
1.0
  0
POINT
  5
DD
330
D4
100
AcDbEntity
  8
Defpoints
 62
     0
100
AcDbPoint
 10
73.5
 20
4.74498634215364
 30
0.0
  0
POINT
  5
DE
330
D4
100
AcDbEntity
  8
Defpoints
 62
     0
100
AcDbPoint
 10
10.00000000000002
 20
4.750798759051921
 30
0.0
  0
POINT
  5
DF
330
D4
100
AcDbEntity
  8
Defpoints
 62
     0
100
AcDbPoint
 10
10.00000000000002
 20
14.78499317107682
 30
0.0
  0
ENDBLK
  5
D6
330
D4
100
AcDbEntity
  8
0
100
AcDbBlockEnd
  0
BLOCK
  5
EA
330
E9
100
AcDbEntity
  8
0
100
AcDbBlockBegin
  2
_D_1
 70
     0
 10
0.0
 20
0.0
 30
0.0
  3
_D_1
  1
_D_1
  0
LINE
  5
EC
330
E9
100
AcDbEntity
  8
치수문자_일반주서
 62
     0
370
    -2
100
AcDbLine
 10
73.5
 20
4.80748634215364
 30
0.0
 11
73.5
 21
24.7625
 31
0.0
  0
LINE
  5
ED
330
E9
100
AcDbEntity
  8
치수문자_일반주서
 62
     0
370
    -2
100
AcDbLine
 10
-34.45000000000001
 20
3.8725
 30
0.0
 11
-34.45000000000001
 21
24.7625
 31
0.0
  0
LINE
  5
EE
330
E9
100
AcDbEntity
  8
치수문자_일반주서
 62
     0
370
    -2
100
AcDbLine
 10
70.19800000000001
 20
24.7625
 30
0.0
 11
-31.14800000000001
 21
24.7625
 31
0.0
  0
SOLID
  5
EF
330
E9
100
AcDbEntity
  8
치수문자_일반주서
 62
     0
100
AcDbTrace
 10
70.19800000000001
 20
24.21216666666666
 30
0.0
 11
70.19800000000001
 21
25.31283333333333
 31
0.0
 12
73.5
 22
24.7625
 32
0.0
 13
73.5
 23
24.7625
 33
0.0
  0
SOLID
  5
F0
330
E9
100
AcDbEntity
  8
치수문자_일반주서
 62
     0
100
AcDbTrace
 10
-31.14800000000001
 20
25.31283333333333
 30
0.0
 11
-31.14800000000001
 21
24.21216666666666
 31
0.0
 12
-34.45000000000001
 22
24.7625
 32
0.0
 13
-34.45000000000001
 23
24.7625
 33
0.0
  0
MTEXT
  5
F1
330
E9
100
AcDbEntity
  8
치수문자_일반주서
 62
     0
100
AcDbMText
 10
19.52499999999999
 20
29.1375
 30
0.0
 40
3.5
 41
0.0
 71
     2
 72
     1
  1
\A1;107.95 [4 1/4]
  7
SLDTEXTSTYLE0
 73
     1
 44
1.0
  0
POINT
  5
F2
330
E9
100
AcDbEntity
  8
Defpoints
 62
     0
100
AcDbPoint
 10
73.5
 20
4.74498634215364
 30
0.0
  0
POINT
  5
F3
330
E9
100
AcDbEntity
  8
Defpoints
 62
     0
100
AcDbPoint
 10
-34.45000000000001
 20
3.81
 30
0.0
  0
POINT
  5
F4
330
E9
100
AcDbEntity
  8
Defpoints
 62
     0
100
AcDbPoint
 10
-34.45000000000001
 20
24.7625
 30
0.0
  0
ENDBLK
  5
EB
330
E9
100
AcDbEntity
  8
0
100
AcDbBlockEnd
  0
BLOCK
  5
FE
330
FD
100
AcDbEntity
  8
0
100
AcDbBlockBegin
  2
_D_2
 70
     0
 10
0.0
 20
0.0
 30
0.0
  3
_D_2
  1
_D_2
  0
LINE
  5
100
330
FD
100
AcDbEntity
  8
치수문자_일반주서
 62
     0
370
    -2
100
AcDbLine
 10
-33.56000000000001
 20
4.762500000000001
 30
0.0
 11
-44.45
 21
4.76249999999996
 31
0.0
  0
LINE
  5
101
330
FD
100
AcDbEntity
  8
치수문자_일반주서
 62
     0
370
    -2
100
AcDbLine
 10
-33.56000000000001
 20
-4.762500000000005
 30
0.0
 11
-44.44999999999996
 21
-4.762500000000045
 31
0.0
  0
LINE
  5
102
330
FD
100
AcDbEntity
  8
치수문자_일반주서
 62
     0
370
    -2
100
AcDbLine
 10
-44.45
 20
4.76249999999996
 30
0.0
 11
-44.45000000000011
 21
34.31449999999996
 31
0.0
  0
LINE
  5
103
330
FD
100
AcDbEntity
  8
치수문자_일반주서
 62
     0
370
    -2
100
AcDbLine
 10
-44.45
 20
4.76249999999996
 30
0.0
 11
-44.44999999999996
 21
-4.762500000000045
 31
0.0
  0
LINE
  5
104
330
FD
100
AcDbEntity
  8
치수문자_일반주서
 62
     0
370
    -2
100
AcDbLine
 10
-44.45000000000001
 20
8.06449999999996
 30
0.0
 11
-44.45000000000002
 21
11.36649999999996
 31
0.0
  0
LINE
  5
105
330
FD
100
AcDbEntity
  8
치수문자_일반주서
 62
     0
370
    -2
100
AcDbLine
 10
-44.44999999999995
 20
-8.064500000000045
 30
0.0
 11
-44.44999999999993
 21
-11.36650000000004
 31
0.0
  0
SOLID
  5
106
330
FD
100
AcDbEntity
  8
치수문자_일반주서
 62
     0
100
AcDbTrace
 10
-45.00033333333334
 20
8.064499999999958
 30
0.0
 11
-43.89966666666668
 21
8.064499999999962
 31
0.0
 12
-44.45
 22
4.76249999999996
 32
0.0
 13
-44.45
 23
4.76249999999996
 33
0.0
  0
SOLID
  5
107
330
FD
100
AcDbEntity
  8
치수문자_일반주서
 62
     0
100
AcDbTrace
 10
-43.89966666666661
 20
-8.064500000000043
 30
0.0
 11
-45.00033333333328
 21
-8.064500000000047
 31
0.0
 12
-44.44999999999996
 22
-4.762500000000045
 32
0.0
 13
-44.44999999999996
 23
-4.762500000000045
 33
0.0
  0
MTEXT
  5
108
330
FD
100
AcDbEntity
  8
치수문자_일반주서
 62
     0
100
AcDbMText
 10
-48.82500000000006
 20
21.18949999999994
 30
0.0
 40
3.5
 41
0.0
 71
     2
 72
     1
  1
\A1;%%c9.53 [3/8]
  7
SLDTEXTSTYLE0
 11
-3.729883127349605E-15
 21
1.0
 31
0.0
 73
     1
 44
1.0
  0
POINT
  5
1E4
330
FD
100
AcDbEntity
  8
Defpoints
 62
     0
100
AcDbPoint
 10
-33.49750000000001
 20
4.762500000000001
 30
0.0
  0
POINT
  5
1E5
330
FD
100
AcDbEntity
  8
Defpoints
 62
     0
100
AcDbPoint
 10
-33.49750000000001
 20
-4.762500000000005
 30
0.0
  0
POINT
  5
1E6
330
FD
100
AcDbEntity
  8
Defpoints
 62
     0
100
AcDbPoint
 10
-44.44999999999997
 20
-4.762500000000045
 30
0.0
  0
ENDBLK
  5
FF
330
FD
100
AcDbEntity
  8
0
100
AcDbBlockEnd
  0
BLOCK
  5
112
330
111
100
AcDbEntity
  8
0
100
AcDbBlockBegin
  2
_D_3
 70
     0
 10
0.0
 20
0.0
 30
0.0
  3
_D_3
  1
_D_3
  0
LINE
  5
114
330
111
100
AcDbEntity
  8
치수문자_일반주서
 62
     0
370
    -2
100
AcDbLine
 10
73.5625
 20
-4.744986342153645
 30
0.0
 11
83.50000000000001
 21
-4.744986342153606
 31
0.0
  0
LINE
  5
115
330
111
100
AcDbEntity
  8
치수문자_일반주서
 62
     0
370
    -2
100
AcDbLine
 10
73.5625
 20
4.74498634215364
 30
0.0
 11
83.49999999999999
 21
4.74498634215368
 31
0.0
  0
LINE
  5
116
330
111
100
AcDbEntity
  8
치수문자_일반주서
 62
     0
370
    -2
100
AcDbLine
 10
83.49999999999999
 20
4.74498634215368
 30
0.0
 11
83.4999999999999
 21
34.29698634215368
 31
0.0
  0
LINE
  5
117
330
111
100
AcDbEntity
  8
치수문자_일반주서
 62
     0
370
    -2
100
AcDbLine
 10
83.50000000000001
 20
-4.744986342153606
 30
0.0
 11
83.49999999999999
 21
4.74498634215368
 31
0.0
  0
LINE
  5
118
330
111
100
AcDbEntity
  8
치수문자_일반주서
 62
     0
370
    -2
100
AcDbLine
 10
83.50000000000003
 20
-8.046986342153605
 30
0.0
 11
83.50000000000004
 21
-11.34898634215361
 31
0.0
  0
LINE
  5
119
330
111
100
AcDbEntity
  8
치수문자_일반주서
 62
     0
370
    -2
100
AcDbLine
 10
83.49999999999997
 20
8.04698634215368
 30
0.0
 11
83.49999999999996
 21
11.34898634215368
 31
0.0
  0
SOLID
  5
11A
330
111
100
AcDbEntity
  8
치수문자_일반주서
 62
     0
100
AcDbTrace
 10
84.05033333333336
 20
-8.046986342153604
 30
0.0
 11
82.9496666666667
 21
-8.046986342153607
 31
0.0
 12
83.50000000000001
 22
-4.744986342153606
 32
0.0
 13
83.50000000000001
 23
-4.744986342153606
 33
0.0
  0
SOLID
  5
11B
330
111
100
AcDbEntity
  8
치수문자_일반주서
 62
     0
100
AcDbTrace
 10
82.94966666666664
 20
8.046986342153678
 30
0.0
 11
84.0503333333333
 21
8.046986342153682
 31
0.0
 12
83.49999999999999
 22
4.74498634215368
 32
0.0
 13
83.49999999999999
 23
4.74498634215368
 33
0.0
  0
MTEXT
  5
11C
330
111
100
AcDbEntity
  8
치수문자_일반주서
 62
     0
100
AcDbMText
 10
79.12499999999994
 20
21.17198634215367
 30
0.0
 40
3.5
 41
0.0
 71
     2
 72
     1
  1
\A1;%%c9.49 [3/8]
  7
SLDTEXTSTYLE0
 11
-2.994920046229684E-15
 21
1.0
 31
0.0
 73
     1
 44
1.0
  0
POINT
  5
11D
330
111
100
AcDbEntity
  8
Defpoints
 62
     0
100
AcDbPoint
 10
73.5
 20
-4.744986342153645
 30
0.0
  0
POINT
  5
1E7
330
111
100
AcDbEntity
  8
Defpoints
 62
     0
100
AcDbPoint
 10
73.5
 20
4.74498634215364
 30
0.0
  0
POINT
  5
1E8
330
111
100
AcDbEntity
  8
Defpoints
 62
     0
100
AcDbPoint
 10
83.49999999999999
 20
4.744986342153678
 30
0.0
  0
ENDBLK
  5
113
330
111
100
AcDbEntity
  8
0
100
AcDbBlockEnd
  0
BLOCK
  5
12B
330
12A
100
AcDbEntity
  8
0
100
AcDbBlockBegin
  2
SW_DOWELSYMBOL_0
 70
     0
 10
0.0
 20
0.0
 30
0.0
  3
SW_DOWELSYMBOL_0
  1
SW_DOWELSYMBOL_0
  0
CIRCLE
  5
12D
330
12A
100
AcDbEntity
  8
해칭선
 62
     0
100
AcDbCircle
 10
0.0
 20
0.0
 30
0.0
 40
3.000000000000001
  0
HATCH
  5
12E
330
12A
100
AcDbEntity
  8
0
  6
Continuous
 62
     0
370
     0
100
AcDbHatch
 10
0.0
 20
0.0
 30
0.0
210
0.0
220
0.0
230
1.0
  2
SOLID
 70
     1
 71
     0
 91
        1
 92
        0
 93
        3
 72
     2
 10
0.0
 20
0.0
 40
3.000000000000001
 50
0.0
 51
90.0
 73
     1
 72
     1
 10
0.0
 20
3.000000000000001
 11
0.0
 21
0.0
 72
     1
 10
0.0
 20
0.0
 11
3.000000000000001
 21
0.0
 97
        0
 75
     0
 76
     1
 98
        1
 10
0.0
 20
0.0
  0
HATCH
  5
12F
330
12A
100
AcDbEntity
  8
0
  6
Continuous
 62
     0
370
     0
100
AcDbHatch
 10
0.0
 20
0.0
 30
0.0
210
0.0
220
0.0
230
1.0
  2
SOLID
 70
     1
 71
     0
 91
        1
 92
        0
 93
        3
 72
     2
 10
0.0
 20
0.0
 40
3.000000000000001
 50
180.0
 51
270.0000000000007
 73
     1
 72
     1
 10
0.0
 20
-3.000000000000001
 11
0.0
 21
0.0
 72
     1
 10
0.0
 20
0.0
 11
-3.000000000000001
 21
0.0
 97
        0
 75
     0
 76
     1
 98
        1
 10
0.0
 20
0.0
  0
ENDBLK
  5
12C
330
12A
100
AcDbEntity
  8
0
100
AcDbBlockEnd
  0
BLOCK
  5
18D
330
18C
100
AcDbEntity
  8
0
100
AcDbBlockBegin
  2
*D7
 70
     1
 10
0.0
 20
0.0
 30
0.0
  3
*D7
  1
*D7
  0
LINE
  5
18F
330
18C
100
AcDbEntity
  8
치수문자_일반주서
 62
     0
370
    -2
100
AcDbLine
 10
44.45000000000003
 20
6.38055142639151
 30
0.0
 11
44.45000000000003
 21
17.91722719828908
 31
0.0
  0
LINE
  5
190
330
18C
100
AcDbEntity
  8
치수문자_일반주서
 62
     0
370
    -2
100
AcDbLine
 10
0.0000000000000071
 20
6.236413386580606
 30
0.0
 11
0.0000000000000071
 21
17.91722719828908
 31
0.0
  0
LINE
  5
191
330
18C
100
AcDbEntity
  8
치수문자_일반주서
 62
     0
370
    -2
100
AcDbLine
 10
41.14800000000003
 20
17.91722719828908
 30
0.0
 11
3.302000000000007
 21
17.91722719828908
 31
0.0
  0
SOLID
  5
192
330
18C
100
AcDbEntity
  8
치수문자_일반주서
 62
     0
100
AcDbTrace
 10
41.14800000000003
 20
17.36689386495575
 30
0.0
 11
41.14800000000003
 21
18.46756053162241
 31
0.0
 12
44.45000000000003
 22
17.91722719828908
 32
0.0
 13
44.45000000000003
 23
17.91722719828908
 33
0.0
  0
SOLID
  5
193
330
18C
100
AcDbEntity
  8
치수문자_일반주서
 62
     0
100
AcDbTrace
 10
3.302000000000007
 20
18.46756053162241
 30
0.0
 11
3.302000000000007
 21
17.36689386495575
 31
0.0
 12
0.0000000000000071
 22
17.91722719828908
 32
0.0
 13
0.0000000000000071
 23
17.91722719828908
 33
0.0
  0
MTEXT
  5
194
330
18C
100
AcDbEntity
  8
치수문자_일반주서
 62
     0
100
AcDbMText
 10
22.22500000000002
 20
22.29222719828908
 30
0.0
 40
3.5
 41
0.0
 71
     2
 72
     1
  1
\A1;44.45 [1 3/4]
  7
SLDTEXTSTYLE0
 73
     1
 44
1.0
  0
POINT
  5
195
330
18C
100
AcDbEntity
  8
Defpoints
 62
     0
100
AcDbPoint
 10
44.45000000000003
 20
6.31805142639151
 30
0.0
  0
POINT
  5
196
330
18C
100
AcDbEntity
  8
Defpoints
 62
     0
100
AcDbPoint
 10
0.0000000000000071
 20
6.173913386580606
 30
0.0
  0
POINT
  5
197
330
18C
100
AcDbEntity
  8
Defpoints
 62
     0
100
AcDbPoint
 10
0.0000000000000071
 20
17.91722719828908
 30
0.0
  0
ENDBLK
  5
18E
330
18C
100
AcDbEntity
  8
0
100
AcDbBlockEnd
  0
BLOCK
  5
19C
330
19B
100
AcDbEntity
  8
0
100
AcDbBlockBegin
  2
*D8
 70
     1
 10
0.0
 20
0.0
 30
0.0
  3
*D8
  1
*D8
  0
LINE
  5
19E
330
19B
100
AcDbEntity
  8
치수문자_일반주서
 62
     0
370
    -2
100
AcDbLine
 10
176.5541116403625
 20
-4.567888682218341
 30
0.0
 11
176.5541116403625
 21
6.968787089679228
 31
0.0
  0
LINE
  5
19F
330
19B
100
AcDbEntity
  8
치수문자_일반주서
 62
     0
370
    -2
100
AcDbLine
 10
132.1041116403625
 20
-4.712026722029245
 30
0.0
 11
132.1041116403625
 21
6.968787089679228
 31
0.0
  0
LINE
  5
1A0
330
19B
100
AcDbEntity
  8
치수문자_일반주서
 62
     0
370
    -2
100
AcDbLine
 10
173.2521116403625
 20
6.968787089679228
 30
0.0
 11
135.4061116403625
 21
6.968787089679228
 31
0.0
  0
SOLID
  5
1A1
330
19B
100
AcDbEntity
  8
치수문자_일반주서
 62
     0
100
AcDbTrace
 10
173.2521116403625
 20
6.418453756345895
 30
0.0
 11
173.2521116403625
 21
7.519120423012562
 31
0.0
 12
176.5541116403625
 22
6.968787089679228
 32
0.0
 13
176.5541116403625
 23
6.968787089679228
 33
0.0
  0
SOLID
  5
1A2
330
19B
100
AcDbEntity
  8
치수문자_일반주서
 62
     0
100
AcDbTrace
 10
135.4061116403625
 20
7.519120423012562
 30
0.0
 11
135.4061116403625
 21
6.418453756345895
 31
0.0
 12
132.1041116403625
 22
6.968787089679228
 32
0.0
 13
132.1041116403625
 23
6.968787089679228
 33
0.0
  0
MTEXT
  5
1A3
330
19B
100
AcDbEntity
  8
치수문자_일반주서
 62
     0
100
AcDbMText
 10
154.3291116403625
 20
11.34378708967923
 30
0.0
 40
3.5
 41
0.0
 71
     2
 72
     1
  1
\A1;44.45 [1 3/4]
  7
SLDTEXTSTYLE0
 73
     1
 44
1.0
  0
POINT
  5
1A4
330
19B
100
AcDbEntity
  8
Defpoints
 62
     0
100
AcDbPoint
 10
176.5541116403625
 20
-4.630388682218341
 30
0.0
  0
POINT
  5
1A5
330
19B
100
AcDbEntity
  8
Defpoints
 62
     0
100
AcDbPoint
 10
132.1041116403625
 20
-4.774526722029245
 30
0.0
  0
POINT
  5
1A6
330
19B
100
AcDbEntity
  8
Defpoints
 62
     0
100
AcDbPoint
 10
132.1041116403625
 20
6.968787089679228
 30
0.0
  0
ENDBLK
  5
19D
330
19B
100
AcDbEntity
  8
0
100
AcDbBlockEnd
  0
ENDSEC
  0
SECTION
  2
ENTITIES
  0
LINE
  5
96
330
1F
100
AcDbEntity
  8
0
  6
Continuous
 62
     1
370
    15
100
AcDbLine
 10
48.29365332749062
 20
-4.762500000000005
 30
0.0
 11
51.19666753756054
 21
-4.762500000000005
 31
0.0
1001
PE_URL
1000

  0
LINE
  5
97
330
1F
100
AcDbEntity
  8
0
  6
Continuous
 62
     1
370
    15
100
AcDbLine
 10
25.2821908702108
 20
4.762500000000001
 30
0.0
 11
22.37698524752174
 21
4.762500000000001
 31
0.0
1001
PE_URL
1000

  0
LINE
  5
98
330
1F
100
AcDbEntity
  8
0
  6
Continuous
 62
     1
370
    15
100
AcDbLine
 10
35.33659252921347
 20
-4.762500000000005
 30
0.0
 11
38.23962744311361
 21
-4.762500000000005
 31
0.0
1001
PE_URL
1000

  0
LINE
  5
99
330
1F
100
AcDbEntity
  8
0
  6
Continuous
 62
     1
370
    15
100
AcDbLine
 10
12.32476608170677
 20
4.762500000000001
 30
0.0
 11
9.999999999999993
 21
4.762500000000001
 31
0.0
1001
PE_URL
1000

  0
LINE
  5
9A
330
1F
100
AcDbEntity
  8
0
  6
Continuous
 62
     1
370
    15
100
AcDbLine
 10
64.15401561230446
 20
4.762500000000001
 30
0.0
 11
61.24902854809661
 21
4.762500000000001
 31
0.0
1001
PE_URL
1000

  0
LINE
  5
9B
330
1F
100
AcDbEntity
  8
0
  6
Continuous
 62
     1
370
    15
100
AcDbLine
 10
61.24902854809651
 20
-4.762500000000005
 30
0.0
 11
64.15401561230449
 21
-4.762500000000005
 31
0.0
1001
PE_URL
1000

  0
LINE
  5
9C
330
1F
100
AcDbEntity
  8
0
  6
Continuous
 62
     1
370
    15
100
AcDbLine
 10
9.999999999999993
 20
-4.762500000000005
 30
0.0
 11
12.32476608170685
 21
-4.762500000000005
 31
0.0
1001
PE_URL
1000

  0
LINE
  5
9D
330
1F
100
AcDbEntity
  8
0
  6
Continuous
 62
     1
370
    15
100
AcDbLine
 10
38.23962744311365
 20
4.762500000000001
 30
0.0
 11
35.33659252921344
 21
4.762500000000001
 31
0.0
1001
PE_URL
1000

  0
LINE
  5
9E
330
1F
100
AcDbEntity
  8
0
  6
Continuous
 62
     1
370
    15
100
AcDbLine
 10
22.37698524752172
 20
-4.762500000000005
 30
0.0
 11
25.28219087021091
 21
-4.762500000000005
 31
0.0
1001
PE_URL
1000

  0
LINE
  5
9F
330
1F
100
AcDbEntity
  8
0
  6
Continuous
 62
     1
370
    15
100
AcDbLine
 10
51.19666753756062
 20
4.762500000000001
 30
0.0
 11
48.29365332749064
 21
4.762500000000001
 31
0.0
1001
PE_URL
1000

  0
LINE
  5
A0
330
1F
100
AcDbEntity
  8
외형선
  6
Continuous
370
    15
100
AcDbLine
 10
-33.49750000000001
 20
-4.762500000000001
 30
0.0
 11
9.999999999999993
 21
-4.762500000000001
 31
0.0
  0
LINE
  5
A1
330
1F
100
AcDbEntity
  8
외형선
  6
Continuous
370
    15
100
AcDbLine
 10
9.999999999999993
 20
4.762499999999998
 30
0.0
 11
-9.767549999999904
 21
4.762499999999998
 31
0.0
  0
LINE
  5
A2
330
1F
100
AcDbEntity
  8
외형선
  6
Continuous
370
    15
100
AcDbLine
 10
-33.49750000000001
 20
4.762499999999998
 30
0.0
 11
-34.45000000000001
 21
3.81
 31
0.0
  0
LINE
  5
A3
330
1F
100
AcDbEntity
  8
외형선
  6
Continuous
370
    15
100
AcDbLine
 10
-34.45000000000001
 20
-3.810000000000004
 30
0.0
 11
-33.49750000000001
 21
-4.762500000000001
 31
0.0
  0
LINE
  5
A4
330
1F
100
AcDbEntity
  8
0
  6
Continuous
 62
     1
370
    15
100
AcDbLine
 10
73.5
 20
2.019105074104713
 30
0.0
 11
73.5
 21
4.74498634215364
 31
0.0
1001
PE_URL
1000

  0
SPLINE
  5
A5
330
1F
100
AcDbEntity
  8
0
  6
Continuous
 62
     1
370
    15
100
AcDbSpline
210
0.0
220
0.0
230
1.0
 70
     8
 71
     3
 72
    25
 73
    21
 74
     0
 42
0.000000001
 43
0.00000001
 40
0.0
 40
0.0
 40
0.0
 40
0.0
 40
0.037071600906896
 40
0.0931755993125489
 40
0.1492794760908735
 40
0.2053841366337295
 40
0.2604878224517432
 40
0.3155960789271539
 40
0.3707107476017551
 40
0.4258336604776948
 40
0.483757610645945
 40
0.5416833296049509
 40
0.599609587634424
 40
0.6575340869937629
 40
0.7154568993712485
 40
0.7723466224216693
 40
0.8292330635890831
 40
0.8861166673665539
 40
0.9429978798951448
 40
1.0
 40
1.0
 40
1.0
 40
1.0
 10
12.32476608170679
 20
4.73888649562145
 30
0.0
 10
12.70708342563617
 20
4.739338901442938
 30
0.0
 10
13.6679981629756
 20
4.740475976252728
 30
0.0
 10
15.20750158784151
 20
4.502630075634561
 30
0.0
 10
16.94328640747443
 20
4.066551238053474
 30
0.0
 10
18.66877872844824
 20
3.44647936858029
 30
0.0
 10
20.38394318682212
 20
2.68351213316113
 30
0.0
 10
22.08894671196715
 20
1.810307891128052
 30
0.0
 10
23.79418334296791
 20
0.8601136582042223
 30
0.0
 10
25.52850966906189
 20
-0.1433836756112678
 30
0.0
 10
27.29190205071451
 20
-1.158116125018953
 30
0.0
 10
29.0842020416736
 20
-2.134961976023836
 30
0.0
 10
30.87651884366599
 20
-3.011452352559202
 30
0.0
 10
32.66878682910553
 20
-3.746349769564468
 30
0.0
 10
34.45036326122404
 20
-4.301869928923964
 30
0.0
 10
36.22119424894732
 20
-4.65558843415179
 30
0.0
 10
37.98129000045348
 20
-4.797009991134046
 30
0.0
 10
39.74128392558339
 20
-4.717292895513323
 30
0.0
 10
41.50243911158608
 20
-4.436817754329386
 30
0.0
 10
42.676976754308
 20
-4.082004486500148
 30
0.0
 10
43.264869066817
 20
-3.904409503635565
 30
0.0
1001
PE_URL
1000

  0
SPLINE
  5
A6
330
1F
100
AcDbEntity
  8
0
  6
Continuous
 62
     1
370
    15
100
AcDbSpline
210
0.0
220
0.0
230
1.0
 70
     8
 71
     3
 72
    13
 73
     9
 74
     0
 42
0.000000001
 43
0.00000001
 40
0.0
 40
0.0
 40
0.0
 40
0.0
 40
0.0548817724455991
 40
0.2466219136026374
 40
0.434949019841789
 40
0.6232867599634704
 40
0.8116366002558864
 40
1.0
 40
1.0
 40
1.0
 40
1.0
 10
64.15401561230446
 20
4.739575678690869
 30
0.0
 10
64.3249884327394
 20
4.746244004832333
 30
0.0
 10
65.09328803879711
 20
4.776209424683963
 30
0.0
 10
66.44829713011428
 20
4.604446108271845
 30
0.0
 10
68.21902399348266
 20
4.230674294079494
 30
0.0
 10
69.9792250681404
 20
3.64912183089523
 30
0.0
 10
71.7395556552251
 20
2.912986181060077
 30
0.0
 10
72.91317113733312
 20
2.317072592879698
 30
0.0
 10
73.5
 20
2.019105074104713
 30
0.0
1001
PE_URL
1000

  0
SPLINE
  5
A7
330
1F
100
AcDbEntity
  8
0
  6
Continuous
 62
     1
370
    15
100
AcDbSpline
210
0.0
220
0.0
230
1.0
 70
     8
 71
     3
 72
    10
 73
     6
 74
     0
 42
0.000000001
 43
0.00000001
 40
0.0
 40
0.0
 40
0.0
 40
0.0
 40
0.4149157617860398
 40
0.8298187176698784
 40
1.0
 40
1.0
 40
1.0
 40
1.0
 10
73.50000000000001
 20
4.744986342153641
 30
0.0
 10
72.90255721227054
 20
4.691729940087221
 30
0.0
 10
71.70769007620252
 20
4.585218779652546
 30
0.0
 10
70.26778638692667
 20
4.265373055851784
 30
0.0
 10
69.42532726810443
 20
3.969261640217202
 30
0.0
 10
69.18028430883837
 20
3.883132811009445
 30
0.0
1001
PE_URL
1000

  0
SPLINE
  5
A8
330
1F
100
AcDbEntity
  8
0
  6
Continuous
 62
     1
370
    15
100
AcDbSpline
210
0.0
220
0.0
230
1.0
 70
     8
 71
     3
 72
    25
 73
    21
 74
     0
 42
0.000000001
 43
0.00000001
 40
0.0
 40
0.0
 40
0.0
 40
0.0
 40
0.0489114254397413
 40
0.1057941826047619
 40
0.162677985399964
 40
0.2195632834074636
 40
0.2774845020858379
 40
0.3354066606623277
 40
0.3933298810786077
 40
0.4512542850162026
 40
0.509179993866919
 40
0.5660766112709512
 40
0.6229770607310374
 40
0.679881055800279
 40
0.7367823227312108
 40
0.7929108337703
 40
0.8490339905643731
 40
0.9051526862643522
 40
0.9612678181418616
 40
1.0
 40
1.0
 40
1.0
 40
1.0
 10
48.29365332749062
 20
-4.749471498248568
 30
0.0
 10
47.78927813141824
 20
-4.739286074980842
 30
0.0
 10
46.69832727249602
 20
-4.717255260720066
 30
0.0
 10
45.02078727440561
 20
-4.422446109687225
 30
0.0
 10
43.2610096675887
 20
-3.934020560020726
 30
0.0
 10
41.49053084449142
 20
-3.257397473755948
 30
0.0
 10
39.70926836017587
 20
-2.427174873847488
 30
0.0
 10
37.91731596863539
 20
-1.477451483188989
 30
0.0
 10
36.1253184639214
 20
-0.4583818545824909
 30
0.0
 10
34.33328035894727
 20
0.5822699049910924
 30
0.0
 10
32.55181351338443
 20
1.589559718179834
 30
0.0
 10
30.78092423868561
 20
2.517340629147148
 30
0.0
 10
29.02053903478226
 20
3.325411528124389
 30
0.0
 10
27.26007557865477
 20
3.982594551051802
 30
0.0
 10
25.50759516120269
 20
4.45714179702597
 30
0.0
 10
23.76320897812072
 20
4.729978567118559
 30
0.0
 10
22.02692530180252
 20
4.794546058968074
 30
0.0
 10
20.29080785285355
 20
4.641025853825619
 30
0.0
 10
18.73404632177945
 20
4.341357609927663
 30
0.0
 10
17.755991880089
 20
4.019632638884318
 30
0.0
 10
17.35659013626842
 20
3.888251900769941
 30
0.0
1001
PE_URL
1000

  0
LINE
  5
A9
330
1F
100
AcDbEntity
  8
0
  6
Continuous
 62
     1
370
    15
100
AcDbLine
 10
73.5
 20
-4.313307425830494
 30
0.0
 11
73.5
 21
0.4080574258305454
 31
0.0
1001
PE_URL
1000

  0
SPLINE
  5
AA
330
1F
100
AcDbEntity
  8
0
  6
Continuous
 62
     1
370
    15
100
AcDbSpline
210
0.0
220
0.0
230
1.0
 70
     8
 71
     3
 72
    19
 73
    15
 74
     0
 42
0.000000001
 43
0.00000001
 40
0.0
 40
0.0
 40
0.0
 40
0.0
 40
0.0854957956177775
 40
0.1709886484222162
 40
0.2564799364264648
 40
0.3419710390949575
 40
0.4274633360640559
 40
0.5114303474756487
 40
0.595404323656224
 40
0.6793880707476669
 40
0.763384380355348
 40
0.8516489113496072
 40
0.9399161376277001
 40
1.0
 40
1.0
 40
1.0
 40
1.0
 10
9.999999999999993
 20
1.324893029647468
 30
0.0
 10
10.57863245767732
 20
0.9983147176300302
 30
0.0
 10
11.73587745617757
 20
0.3451693346042087
 30
0.0
 10
13.47170740752852
 20
-0.6654629551204462
 30
0.0
 10
15.2075018733991
 20
-1.642522481667924
 30
0.0
 10
16.94328633085713
 20
-2.548222956244995
 30
0.0
 10
18.66877874877584
 20
-3.336457887639127
 30
0.0
 10
20.38394318066668
 20
-3.975660756317951
 30
0.0
 10
22.08894671641958
 20
-4.441865892593222
 30
0.0
 10
23.79418333131243
 20
-4.718495880496436
 30
0.0
 10
25.52850971214913
 20
-4.797284708558015
 30
0.0
 10
27.29190188118472
 20
-4.653905337961064
 30
0.0
 10
28.89343766224471
 20
-4.351616172942072
 30
0.0
 10
29.89755732508186
 20
-4.020541787555031
 30
0.0
 10
30.30423710192803
 20
-3.886452931264485
 30
0.0
1001
PE_URL
1000

  0
SPLINE
  5
AB
330
1F
100
AcDbEntity
  8
0
  6
Continuous
 62
     1
370
    15
100
AcDbSpline
210
0.0
220
0.0
230
1.0
 70
     8
 71
     3
 72
    20
 73
    16
 74
     0
 42
0.000000001
 43
0.00000001
 40
0.0
 40
0.0
 40
0.0
 40
0.0
 40
0.0458905016694143
 40
0.1247918106564635
 40
0.2036936955017583
 40
0.2825967809045339
 40
0.3629372888019682
 40
0.44327873422862
 40
0.5236212869686211
 40
0.6039651165343912
 40
0.684310392125255
 40
0.7632254964988449
 40
0.8421450568106502
 40
0.9210696874825091
 40
1.0
 40
1.0
 40
1.0
 40
1.0
 10
51.19666753756062
 20
4.736151645052611
 30
0.0
 10
51.53782690244958
 20
4.739372102669608
 30
0.0
 10
52.46555471797002
 20
4.748129617243375
 30
0.0
 10
53.97985323044504
 20
4.52206708648452
 30
0.0
 10
55.73958184652249
 20
4.090810126554712
 30
0.0
 10
57.50999555159911
 20
3.460473811205473
 30
0.0
 10
59.29119354908185
 20
2.668537632869949
 30
0.0
 10
61.08307576322801
 20
1.74567947055675
 30
0.0
 10
62.87499424817268
 20
0.7409716726815428
 30
0.0
 10
64.66694205388681
 20
-0.298697431178941
 30
0.0
 10
66.4482965929279
 20
-1.317960787393352
 30
0.0
 10
68.21902413628686
 20
-2.271179801014136
 30
0.0
 10
69.97922503005574
 20
-3.111921297705048
 30
0.0
 10
71.73955566474729
 20
-3.825584408545574
 30
0.0
 10
72.91317114050725
 20
-4.150729185638317
 30
0.0
 10
73.5
 20
-4.313307425830493
 30
0.0
1001
PE_URL
1000

  0
SPLINE
  5
AC
330
1F
100
AcDbEntity
  8
외형선
  6
Continuous
370
    15
100
AcDbSpline
210
0.0
220
0.0
230
1.0
 70
    24
 71
     3
 72
    15
 73
    11
 74
     0
 42
0.000000001
 43
0.00000001
 40
0.0
 40
0.0
 40
0.0
 40
0.0
 40
0.1288047025607012
 40
0.2615059268165886
 40
0.3877534416254462
 40
0.5176621429163758
 40
0.6439096577252361
 40
0.7738183590161666
 40
0.9000658738250248
 40
1.0
 40
1.0
 40
1.0
 40
1.0
 10
10.00000000000002
 20
4.750798759051921
 30
0.0
 10
10.00000000000002
 20
4.597526300523386
 30
0.0
 10
10.00000000000004
 20
4.286344678066143
 30
0.0
 10
9.999999999999902
 20
3.799611311015756
 30
0.0
 10
10.00000000000009
 20
3.311266894544082
 30
0.0
 10
9.999999999999973
 20
2.841494726783446
 30
0.0
 10
10.00000000000005
 20
2.391658331865348
 30
0.0
 10
9.999999999999966
 20
1.985039193335717
 30
0.0
 10
9.999999999999986
 20
1.644623794986588
 30
0.0
 10
10.0
 20
1.474382686608506
 30
0.0
 10
10.00000000000001
 20
1.399164838109304
 30
0.0
  0
SPLINE
  5
AD
330
1F
100
AcDbEntity
  8
0
  6
Continuous
 62
     1
370
    15
100
AcDbSpline
210
0.0
220
0.0
230
1.0
 70
     8
 71
     3
 72
    17
 73
    13
 74
     0
 42
0.000000001
 43
0.00000001
 40
0.0
 40
0.0
 40
0.0
 40
0.0
 40
0.103756082258662
 40
0.2075089622040725
 40
0.3112588546425873
 40
0.4150059751086855
 40
0.5187505398132632
 40
0.6206424324523491
 40
0.7225295623008476
 40
0.8244127295314456
 40
0.9262927366223831
 40
1.0
 40
1.0
 40
1.0
 40
1.0
 10
73.5
 20
0.4080574258305449
 30
0.0
 10
72.90255708643065
 20
0.749813277478651
 30
0.0
 10
71.70768969868675
 20
1.433314432869925
 30
0.0
 10
69.91542945870923
 20
2.386048447745876
 30
0.0
 10
68.12322936467758
 20
3.227983491172195
 30
0.0
 10
66.33109035921294
 20
3.917756494569054
 30
0.0
 10
64.54964578235351
 20
4.420567494997414
 30
0.0
 10
62.77896572290084
 20
4.716231728729714
 30
0.0
 10
61.01901199884388
 20
4.79798303553777
 30
0.0
 10
59.25913694699477
 20
4.65567389429315
 30
0.0
 10
57.66154559191121
 20
4.356743350980937
 30
0.0
 10
56.65052988457958
 20
4.025825700862905
 30
0.0
 10
56.22613009283875
 20
3.886914523939518
 30
0.0
1001
PE_URL
1000

  0
SPLINE
  5
AE
330
1F
100
AcDbEntity
  8
0
  6
Continuous
 62
     1
370
    15
100
AcDbSpline
210
0.0
220
0.0
230
1.0
 70
     8
 71
     3
 72
    22
 73
    18
 74
     0
 42
0.000000001
 43
0.00000001
 40
0.0
 40
0.0
 40
0.0
 40
0.0
 40
0.0395976636487489
 40
0.1103263135761182
 40
0.1797984186960107
 40
0.2492752028462772
 40
0.3187563162685318
 40
0.3882340985698854
 40
0.4567683277919956
 40
0.525296019355286
 40
0.5938182638179929
 40
0.6623361567698273
 40
0.7308507978262473
 40
0.7981376402850132
 40
0.8654232792861658
 40
0.9327099784964368
 40
1.0
 40
1.0
 40
1.0
 40
1.0
 10
35.33659252921347
 20
-4.734835906980796
 30
0.0
 10
35.00215913541265
 20
-4.73881273524856
 30
0.0
 10
34.07036669932125
 20
-4.749892904179728
 30
0.0
 10
32.55181324019666
 20
-4.522087421069205
 30
0.0
 10
30.78092431090027
 20
-4.087213076597788
 30
0.0
 10
29.02053901705947
 20
-3.45929680180149
 30
0.0
 10
27.26007557732363
 20
-2.677255842088521
 30
0.0
 10
25.50759518413779
 20
-1.777080769064056
 30
0.0
 10
23.76320888912453
 20
-0.8021084069891109
 30
0.0
 10
22.02692563531765
 20
0.2038873707628658
 30
0.0
 10
20.29080660791637
 20
1.20081233966202
 30
0.0
 10
18.55482544570645
 20
2.144800669303579
 30
0.0
 10
16.82927311068174
 20
2.988761833196838
 30
0.0
 10
15.11421535691526
 20
3.699349947212758
 30
0.0
 10
13.40951464910697
 20
4.244275398641435
 30
0.0
 10
11.70478865511441
 20
4.623038902131092
 30
0.0
 10
10.56827223742557
 20
4.708211439193549
 30
0.0
 10
10.0000000000001
 20
4.750798759051287
 30
0.0
1001
PE_URL
1000

  0
SPLINE
  5
AF
330
1F
100
AcDbEntity
  8
0
  6
Continuous
 62
     1
370
    15
100
AcDbSpline
210
0.0
220
0.0
230
1.0
 70
     8
 71
     3
 72
    26
 73
    22
 74
     0
 42
0.000000001
 43
0.00000001
 40
0.0
 40
0.0
 40
0.0
 40
0.0
 40
0.0070269791609085
 40
0.0649444269543122
 40
0.1228636433399123
 40
0.1807833987354651
 40
0.2387013956583069
 40
0.296617705788671
 40
0.3535010425635856
 40
0.4103810978239077
 40
0.467258316012804
 40
0.5241331432212551
 40
0.5820409039811313
 40
0.6399479695395286
 40
0.6978544624131705
 40
0.7557605052594369
 40
0.8136662208462841
 40
0.8705358923525062
 40
0.9274055284135252
 40
0.9842755795354511
 40
1.0
 40
1.0
 40
1.0
 40
1.0
 10
25.28219087021082
 20
4.751206628710361
 30
0.0
 10
25.3546714406073
 20
4.754844165997762
 30
0.0
 10
26.02454806923143
 20
4.788462847545793
 30
0.0
 10
27.29190615409061
 20
4.64506778255872
 30
0.0
 10
29.08420094223082
 20
4.302733592707986
 30
0.0
 10
30.87651913795257
 20
3.736995112194479
 30
0.0
 10
32.66878675137387
 20
3.001230564177715
 30
0.0
 10
34.45036327731629
 20
2.128057888738053
 30
0.0
 10
36.22119426044976
 20
1.162860474403227
 30
0.0
 10
37.98128993838561
 20
0.1506075482155455
 30
0.0
 10
39.74128416233643
 20
-0.8684207003304262
 30
0.0
 10
41.51184533080582
 20
-1.854003161103881
 30
0.0
 10
43.29308760956215
 20
-2.759909092270412
 30
0.0
 10
45.08494912909418
 20
-3.541516392616301
 30
0.0
 10
46.87679567246045
 20
-4.156580193430217
 30
0.0
 10
48.66861813625597
 20
-4.576523950073685
 30
0.0
 10
50.44976731218302
 20
-4.779149635544544
 30
0.0
 10
52.22014145003148
 20
-4.76411422694316
 30
0.0
 10
53.97985546770209
 20
-4.519883285490625
 30
0.0
 10
55.31518151843698
 20
-4.216590343691336
 30
0.0
 10
56.06394352014937
 20
-3.945610473202308
 30
0.0
 10
56.22613009283869
 20
-3.886914523939523
 30
0.0
1001
PE_URL
1000

  0
SPLINE
  5
B0
330
1F
100
AcDbEntity
  8
0
  6
Continuous
 62
     1
370
    15
100
AcDbSpline
210
0.0
220
0.0
230
1.0
 70
     8
 71
     3
 72
    26
 73
    22
 74
     0
 42
0.000000001
 43
0.00000001
 40
0.0
 40
0.0
 40
0.0
 40
0.0
 40
0.0074338445683349
 40
0.0643057386722834
 40
0.1211758687642462
 40
0.1790801422683939
 40
0.2369839852642812
 40
0.2948875205301257
 40
0.3527908709197815
 40
0.4106941593325524
 40
0.467561806098218
 40
0.5244300481503673
 40
0.5812993355658784
 40
0.6381701178121449
 40
0.6960765563872214
 40
0.7539839346205741
 40
0.811892374422761
 40
0.8698019974442566
 40
0.9277129250458912
 40
0.9845950238002523
 40
1.0
 40
1.0
 40
1.0
 40
1.0
 10
61.24902854809654
 20
-4.750214062731459
 30
0.0
 10
61.17234930542075
 20
-4.754177464371245
 30
0.0
 10
60.50904308536609
 20
-4.788462479044153
 30
0.0
 10
59.25913780479272
 20
-4.646475265037562
 30
0.0
 10
57.48866748147171
 20
-4.312767749123617
 30
0.0
 10
55.70748340305907
 20
-3.755784918012972
 30
0.0
 10
53.91566261131214
 20
-3.024744353712093
 30
0.0
 10
52.12384631162891
 20
-2.149968440238535
 30
0.0
 10
50.33204437190926
 20
-1.174550999395576
 30
0.0
 10
48.55090498524295
 20
-0.1499638755392642
 30
0.0
 10
46.78052532465315
 20
0.8750925281838507
 30
0.0
 10
45.02078631167224
 20
1.854288263729226
 30
0.0
 10
43.2610099248844
 20
2.749399756217388
 30
0.0
 10
41.49053077611181
 20
3.524529829591434
 30
0.0
 10
39.70926837115131
 20
4.141234960415538
 30
0.0
 10
37.91731599359084
 20
4.567233543519554
 30
0.0
 10
36.12531835312068
 20
4.777552555470243
 30
0.0
 10
34.33328077720714
 20
4.766971628208462
 30
0.0
 10
32.55181196283974
 20
4.520018279800953
 30
0.0
 10
31.20880923869626
 20
4.214199223046041
 30
0.0
 10
30.46314446074231
 20
3.944028546819328
 30
0.0
 10
30.30423710192798
 20
3.886452931264481
 30
0.0
1001
PE_URL
1000

  0
SPLINE
  5
B1
330
1F
100
AcDbEntity
  8
0
  6
Continuous
 62
     1
370
    15
100
AcDbSpline
210
0.0
220
0.0
230
1.0
 70
     8
 71
     3
 72
    12
 73
     8
 74
     0
 42
0.000000001
 43
0.00000001
 40
0.0
 40
0.0
 40
0.0
 40
0.0
 40
0.2359628674674076
 40
0.4719176129602923
 40
0.7078680397058373
 40
0.9438179549366804
 40
1.0
 40
1.0
 40
1.0
 40
1.0
 10
9.999999999999993
 20
-4.574501580499425
 30
0.0
 10
10.57863244664802
 20
-4.647686488920048
 30
0.0
 10
11.73587742309001
 20
-4.794053786695611
 30
0.0
 10
13.47170753987235
 20
-4.751362986508609
 30
0.0
 10
15.20750137711971
 20
-4.499880851878541
 30
0.0
 10
16.50245629509316
 20
-4.199308484992684
 30
0.0
 10
17.21882080969262
 20
-3.938424431197221
 30
0.0
 10
17.35659013626841
 20
-3.888251900769947
 30
0.0
1001
PE_URL
1000

  0
SPLINE
  5
B2
330
1F
100
AcDbEntity
  8
0
  6
Continuous
 62
     1
370
    15
100
AcDbSpline
210
0.0
220
0.0
230
1.0
 70
     8
 71
     3
 72
    25
 73
    21
 74
     0
 42
0.000000001
 43
0.00000001
 40
0.0
 40
0.0
 40
0.0
 40
0.0
 40
0.048534037284173
 40
0.1054142577109436
 40
0.1633275096382043
 40
0.2212400662980629
 40
0.2791520502188607
 40
0.3370635840696086
 40
0.3949747906299046
 40
0.451849854865551
 40
0.5087248836526334
 40
0.565600327539981
 40
0.6224766368342802
 40
0.6803890942839457
 40
0.7383022275399053
 40
0.796216158988942
 40
0.854131010821979
 40
0.9120469050042478
 40
0.9689318780244068
 40
0.9999999999999999
 40
0.9999999999999999
 40
0.9999999999999999
 40
0.9999999999999999
 10
38.23962744311364
 20
4.748957262447591
 30
0.0
 10
38.7401876773843
 20
4.739211348709175
 30
0.0
 10
39.82738726942122
 20
4.718043559670019
 30
0.0
 10
41.51184502081548
 20
4.423167512076748
 30
0.0
 10
43.29308769282468
 20
3.928330252532986
 30
0.0
 10
45.08494910838277
 20
3.239909551389282
 30
0.0
 10
46.87679567204489
 20
2.400797630958039
 30
0.0
 10
48.66861815862901
 20
1.448408195826786
 30
0.0
 10
50.4497672237718
 20
0.4341433888893741
 30
0.0
 10
52.22014177485713
 20
-0.5937909334863499
 30
0.0
 10
53.97985425431359
 20
-1.588585025156958
 30
0.0
 10
55.73958157260031
 20
-2.511345587555828
 30
0.0
 10
57.50999562549851
 20
-3.325151613646934
 30
0.0
 10
59.29119353290002
 20
-3.990031236384697
 30
0.0
 10
61.08307575351431
 20
-4.47151481121937
 30
0.0
 10
62.87499430321096
 20
-4.742178236527888
 30
0.0
 10
64.66694184344254
 20
-4.792286387268453
 30
0.0
 10
66.44829737376386
 20
-4.609407657716968
 30
0.0
 10
67.95272472588096
 20
-4.302053691177796
 30
0.0
 10
68.85985428950146
 20
-3.992483776613558
 30
0.0
 10
69.18028430883835
 20
-3.883132811009448
 30
0.0
1001
PE_URL
1000

  0
SPLINE
  5
B3
330
1F
100
AcDbEntity
  8
외형선
  6
Continuous
370
    15
100
AcDbSpline
210
0.0
220
0.0
230
1.0
 70
    24
 71
     3
 72
    20
 73
    16
 74
     0
 42
0.000000001
 43
0.00000001
 40
0.0
 40
0.0
 40
0.0
 40
0.0
 40
0.0636964140391212
 40
0.1429426490341868
 40
0.2199555059611504
 40
0.2992017409562168
 40
0.3762145978831794
 40
0.4554608328782449
 40
0.5324736898052087
 40
0.6117199248002759
 40
0.6887327817272386
 40
0.7679790167223046
 40
0.8449918736492679
 40
0.9242381086443344
 40
0.9999999999999999
 40
0.9999999999999999
 40
0.9999999999999999
 40
0.9999999999999999
 10
9.999999999999973
 20
-0.1409162376682835
 30
0.0
 10
9.999999999999973
 20
-0.1436569804403221
 30
0.0
 10
9.999999999999973
 20
-0.1498075469685396
 30
0.0
 10
10.00000000000003
 20
-0.2559582962744733
 30
0.0
 10
10.00000000000004
 20
-0.43896102238458
 30
0.0
 10
9.99999999999996
 20
-0.6947457842055192
 30
0.0
 10
10.00000000000001
 20
-1.017768475465034
 30
0.0
 10
10.00000000000004
 20
-1.39385105438255
 30
0.0
 10
9.999999999999979
 20
-1.81890307313967
 30
0.0
 10
10.00000000000004
 20
-2.273319854206728
 30
0.0
 10
9.999999999999979
 20
-2.75232527581945
 30
0.0
 10
9.999999999999979
 20
-3.234032961579212
 30
0.0
 10
10.0
 20
-3.712395984889597
 30
0.0
 10
10.00000000000003
 20
-4.166841581594055
 30
0.0
 10
10.0
 20
-4.44066663584724
 30
0.0
 10
10.0
 20
-4.574501580499426
 30
0.0
  0
SPLINE
  5
B4
330
1F
100
AcDbEntity
  8
0
  6
Continuous
 62
     1
370
    15
100
AcDbSpline
210
0.0
220
0.0
230
1.0
 70
     8
 71
     3
 72
    24
 73
    20
 74
     0
 42
0.000000001
 43
0.00000001
 40
0.0
 40
0.0
 40
0.0
 40
0.0
 40
0.0592770446841264
 40
0.1185522598498134
 40
0.1778257682184058
 40
0.2370976929272335
 40
0.2963681575000716
 40
0.3545801691859029
 40
0.4127894598346218
 40
0.4709964865940994
 40
0.5292017079293956
 40
0.5884653503743554
 40
0.647728552204382
 40
0.7069914390800515
 40
0.7662541367393525
 40
0.8255167709667908
 40
0.8837194506768691
 40
0.9419227396484611
 40
1.0
 40
1.0
 40
1.0
 40
1.0
 10
73.5
 20
-4.744986342153645
 30
0.0
 10
72.90255708642272
 20
-4.693801221478011
 30
0.0
 10
71.70768969866286
 20
-4.591432559897166
 30
0.0
 10
69.91542945880465
 20
-4.162249768399984
 30
0.0
 10
68.12322936431967
 20
-3.553411205785447
 30
0.0
 10
66.331090360549
 20
-2.773242261817775
 30
0.0
 10
64.54964577740493
 20
-1.869255973689683
 30
0.0
 10
62.7789657410021
 20
-0.8846294410351296
 30
0.0
 10
61.0190119312531
 20
0.1341149419717206
 30
0.0
 10
59.25913719924396
 20
1.14677851686096
 30
0.0
 10
57.48866764703816
 20
2.113254823880389
 30
0.0
 10
55.70748335826561
 20
2.98793615959636
 30
0.0
 10
53.91566262366085
 20
3.727388797565925
 30
0.0
 10
52.12384630702703
 20
4.291701635900226
 30
0.0
 10
50.33204437796815
 20
4.654031327872902
 30
0.0
 10
48.55090496576251
 20
4.797676801409627
 30
0.0
 10
46.78052539514307
 20
4.716156663633628
 30
0.0
 10
45.0220669595602
 20
4.434253431265797
 30
0.0
 10
43.85017832079558
 20
4.080896486283942
 30
0.0
 10
43.26486906681698
 20
3.904409503635561
 30
0.0
1001
PE_URL
1000

  0
SPLINE
  5
B5
330
1F
100
AcDbEntity
  8
0
  6
Continuous
 62
     1
370
    15
100
AcDbSpline
210
0.0
220
0.0
230
1.0
 70
     8
 71
     3
 72
    15
 73
    11
 74
     0
 42
0.000000001
 43
0.00000001
 40
0.0
 40
0.0
 40
0.0
 40
0.0
 40
0.028285066840279
 40
0.1685495072344859
 40
0.3088050401236603
 40
0.4490539164111123
 40
0.5867894996129813
 40
0.7245226193475485
 40
0.8622579093209901
 40
1.0
 40
1.0
 40
1.0
 40
1.0
 10
22.37698524752173
 20
-4.745550676830752
 30
0.0
 10
22.26028469593854
 20
-4.750822120919309
 30
0.0
 10
21.56487108513073
 20
-4.782234431470235
 30
0.0
 10
20.29080817040241
 20
-4.6336529059485
 30
0.0
 10
18.55482502682144
 20
-4.294782190012279
 30
0.0
 10
16.82927322067978
 20
-3.751376729050509
 30
0.0
 10
15.11421532767756
 20
-3.054167521525116
 30
0.0
 10
13.40951465690377
 20
-2.229604919477647
 30
0.0
 10
11.70478865316508
 20
-1.311474547758426
 30
0.0
 10
10.56827223677579
 20
-0.6595919633711315
 30
0.0
 10
10.0000000000001
 20
-0.3336426246701609
 30
0.0
1001
PE_URL
1000

  0
LINE
  5
B6
330
1F
100
AcDbEntity
  8
외형선
  6
Continuous
370
    15
100
AcDbLine
 10
10.00000000000002
 20
4.750798759051921
 30
0.0
 11
9.999999999999993
 21
4.762500000000001
 31
0.0
  0
LINE
  5
B7
330
1F
100
AcDbEntity
  8
0
  6
Continuous
 62
     1
370
    15
100
AcDbLine
 10
73.5
 20
0.4080574258305453
 30
0.0
 11
73.5
 21
2.019105074104713
 31
0.0
1001
PE_URL
1000

  0
LINE
  5
B8
330
1F
100
AcDbEntity
  8
외형선
  6
Continuous
370
    15
100
AcDbLine
 10
9.999999999999993
 20
-4.762500000000005
 30
0.0
 11
9.999999999999993
 21
-4.574501580499425
 31
0.0
  0
LINE
  5
B9
330
1F
100
AcDbEntity
  8
0
  6
Continuous
 62
     1
370
    15
100
AcDbLine
 10
73.5
 20
-4.744986342153645
 30
0.0
 11
73.5
 21
-4.313307425830494
 31
0.0
1001
PE_URL
1000

  0
LINE
  5
BA
330
1F
100
AcDbEntity
  8
외형선
  6
Continuous
370
    15
100
AcDbLine
 10
10.00000000000002
 20
-0.3336426246703557
 30
0.0
 11
9.999999999999993
 21
1.32489302964747
 31
0.0
  0
LINE
  5
BB
330
1F
100
AcDbEntity
  8
외형선
  6
Continuous
370
    15
100
AcDbLine
 10
9.499942525596728
 20
1.599064989842852
 30
0.0
 11
9.499942525596735
 21
4.762280683755657
 31
0.0
  0
SPLINE
  5
BC
330
1F
100
AcDbEntity
  8
외형선
  6
Continuous
370
    15
100
AcDbSpline
210
0.0
220
0.0
230
1.0
 70
     8
 71
     3
 72
     8
 73
     4
 74
     0
 42
0.000000001
 43
0.00000001
 40
0.0
 40
0.0
 40
0.0
 40
0.0
 40
1.0
 40
1.0
 40
1.0
 40
1.0
 10
9.999999999999986
 20
1.324893029647467
 30
0.0
 10
9.83349213161831
 20
1.417125992914011
 30
0.0
 10
9.666653780825705
 20
1.50861129065413
 30
0.0
 10
9.499942525596735
 20
1.599096878016404
 30
0.0
  0
SPLINE
  5
BD
330
1F
100
AcDbEntity
  8
외형선
  6
Continuous
370
    15
100
AcDbSpline
210
0.0
220
0.0
230
1.0
 70
     8
 71
     3
 72
     8
 73
     4
 74
     0
 42
0.000000001
 43
0.00000001
 40
0.0
 40
0.0
 40
0.0
 40
0.0
 40
1.0
 40
1.0
 40
1.0
 40
1.0
 10
9.999999999999979
 20
-0.3336426246700939
 30
0.0
 10
9.833492131618303
 20
-0.2378550859143474
 30
0.0
 10
9.666653780825712
 20
-0.1418005882718161
 30
0.0
 10
9.499942525596742
 20
-0.0457424813317389
 30
0.0
  0
LINE
  5
BE
330
1F
100
AcDbEntity
  8
외형선
  6
Continuous
370
    15
100
AcDbLine
 10
9.499942525596728
 20
-4.48602244847917
 30
0.0
 11
9.499942525596735
 21
-0.0457049136060552
 31
0.0
  0
SPLINE
  5
BF
330
1F
100
AcDbEntity
  8
외형선
  6
Continuous
370
    15
100
AcDbSpline
210
0.0
220
0.0
230
1.0
 70
     8
 71
     3
 72
     8
 73
     4
 74
     0
 42
0.000000001
 43
0.00000001
 40
0.0
 40
0.0
 40
0.0
 40
0.0
 40
1.0
 40
1.0
 40
1.0
 40
1.0
 10
9.999999999999986
 20
-4.574501580499422
 30
0.0
 10
9.83349213161831
 20
-4.547788547836695
 30
0.0
 10
9.666653780825705
 20
-4.51826584376241
 30
0.0
 10
9.499942525596735
 20
-4.48601108165354
 30
0.0
  0
SPLINE
  5
C0
330
1F
100
AcDbEntity
  8
외형선
  6
Continuous
370
    15
100
AcDbSpline
210
0.0
220
0.0
230
1.0
 70
     8
 71
     3
 72
     8
 73
     4
 74
     0
 42
0.000000001
 43
0.00000001
 40
0.0
 40
0.0
 40
0.0
 40
0.0
 40
1.0
 40
1.0
 40
1.0
 40
1.0
 10
9.999999999999979
 20
4.75079875905129
 30
0.0
 10
9.833492131618303
 20
4.757525797484619
 30
0.0
 10
9.666653780825712
 20
4.761357669233089
 30
0.0
 10
9.499942525596742
 20
4.7622803230597
 30
0.0
  0
LINE
  5
C1
330
1F
100
AcDbEntity
  8
외형선
  6
Continuous
370
    15
100
AcDbLine
 10
-33.49750000000001
 20
-0.0000000000000019
 30
0.0
 11
-33.49750000000001
 21
4.762499999999998
 31
0.0
  0
LINE
  5
C2
330
1F
100
AcDbEntity
  8
외형선
  6
Continuous
370
    15
100
AcDbLine
 10
-33.49750000000001
 20
-4.762500000000001
 30
0.0
 11
-33.49750000000001
 21
-0.0000000000000019
 31
0.0
  0
LINE
  5
C3
330
1F
100
AcDbEntity
  8
외형선
  6
Continuous
370
    15
100
AcDbLine
 10
-34.45000000000001
 20
-0.0000000000000019
 30
0.0
 11
-34.45000000000001
 21
3.81
 31
0.0
  0
LINE
  5
C4
330
1F
100
AcDbEntity
  8
외형선
  6
Continuous
370
    15
100
AcDbLine
 10
-34.45000000000001
 20
-3.810000000000005
 30
0.0
 11
-34.45000000000001
 21
-0.0000000000000019
 31
0.0
  0
SPLINE
  5
C5
330
1F
100
AcDbEntity
  8
외형선
  6
Continuous
370
    15
100
AcDbSpline
210
0.0
220
0.0
230
1.0
 70
    24
 71
     3
 72
    20
 73
    16
 74
     0
 42
0.000000001
 43
0.00000001
 40
0.0
 40
0.0
 40
0.0
 40
0.0
 40
0.1229632351266957
 40
0.201828475587144
 40
0.2806937160475926
 40
0.3595589565080414
 40
0.4384241969684904
 40
0.5172894374289393
 40
0.5961546778893881
 40
0.6750199183498365
 40
0.7538851588102851
 40
0.8327503992707306
 40
0.9116156397311761
 40
0.9904808801916274
 40
1.0
 40
1.0
 40
1.0
 40
1.0
 10
9.999999999999986
 20
-4.574501580499422
 30
0.0
 10
9.999999999999993
 20
-4.355109085080977
 30
0.0
 10
10.0
 20
-3.995004271150695
 30
0.0
 10
10.00000000000002
 20
-3.433846385992783
 30
0.0
 10
9.999999999999986
 20
-2.952141040257425
 30
0.0
 10
9.999999999999993
 20
-2.470659555620157
 30
0.0
 10
9.999999999999966
 20
-2.003952194575785
 30
0.0
 10
9.999999999999966
 20
-1.565813046221435
 30
0.0
 10
9.999999999999938
 20
-1.167406467696802
 30
0.0
 10
9.999999999999979
 20
-0.8217237107277072
 30
0.0
 10
9.999999999999993
 20
-0.5369813920599238
 30
0.0
 10
10.0
 20
-0.321226314014818
 30
0.0
 10
9.999999999999986
 20
-0.1878119179951475
 30
0.0
 10
9.999999999999986
 20
-0.1296726609752761
 30
0.0
 10
9.999999999999966
 20
-0.1392672614271833
 30
0.0
 10
9.999999999999966
 20
-0.1403006133792411
 30
0.0
  0
SPLINE
  5
C6
330
1F
100
AcDbEntity
  8
외형선
  6
Continuous
370
    15
100
AcDbSpline
210
0.0
220
0.0
230
1.0
 70
    24
 71
     3
 72
    15
 73
    11
 74
     0
 42
0.000000001
 43
0.00000001
 40
0.0
 40
0.0
 40
0.0
 40
0.0
 40
0.0467050008830363
 40
0.1746995506657944
 40
0.3026941004485525
 40
0.4306886502313058
 40
0.5586832000140594
 40
0.6866777497968221
 40
0.8146722995795848
 40
1.0
 40
1.0
 40
1.0
 40
1.0
 10
9.99999999999996
 20
1.399164838109304
 30
0.0
 10
9.999999999999952
 20
1.431493549484556
 30
0.0
 10
9.999999999999945
 20
1.552418744733018
 30
0.0
 10
9.999999999999993
 20
1.829440167822428
 30
0.0
 10
9.999999999999993
 20
2.216666203836255
 30
0.0
 10
9.999999999999979
 20
2.651336680720481
 30
0.0
 10
9.999999999999986
 20
3.114280457917984
 30
0.0
 10
9.999999999999979
 20
3.594043971691968
 30
0.0
 10
9.99999999999996
 20
4.151453066443356
 30
0.0
 10
9.999999999999973
 20
4.528046588256966
 30
0.0
 10
9.999999999999979
 20
4.750798759051358
 30
0.0
  0
LINE
  5
C7
330
1F
100
AcDbEntity
  8
중심선
 62
     1
100
AcDbLine
 10
-37.45000000000001
 20
-0.0000000000000058
 30
0.0
 11
76.5
 21
0.0000000000000081
 31
0.0
  0
LINE
  5
C8
330
1F
100
AcDbEntity
  8
참조1
100
AcDbLine
 10
19.525
 20
-0.0000000000000059
 30
0.0
 11
19.525
 21
-40.00000000000001
 31
0.0
  0
LINE
  5
C9
330
1F
100
AcDbEntity
  8
참조1
100
AcDbLine
 10
19.525
 20
-40.00000000000001
 30
0.0
 11
-20.24010681430868
 21
-40.0
 31
0.0
  0
CIRCLE
  5
CA
330
1F
100
AcDbEntity
  8
해칭선
100
AcDbCircle
 10
0.0
 20
0.0
 30
0.0
 40
3.000000000000002
  0
INSERT
  5
CB
330
1F
100
AcDbEntity
  8
0
  6
Continuous
 62
     7
100
AcDbBlockReference
 66
     1
  2
블럭10
 10
5.584727067874792
 20
-52.04717430164393
 30
0.0
  0
ATTRIB
  5
CC
330
CB
100
AcDbEntity
  8
FORMAT
 62
     2
100
AcDbText
 10
-3.596568220866488
 20
-49.97180738881174
 30
0.0
 40
4.233333333333333
  1
E2041024 [ 4 FLUTE ]
 41
0.75
  7
SLDTEXTSTYLE0
 11
-3.596568220866488
 21
-52.08847405547841
 31
0.0
100
AcDbAttribute
  2
AUTOATTR0
 70
     0
 74
     1
  0
SEQEND
  5
CD
330
CB
100
AcDbEntity
  8
0
  6
Continuous
 62
     7
  0
HATCH
  5
CE
330
1F
100
AcDbEntity
  8
중심선
100
AcDbHatch
 10
0.0
 20
0.0
 30
0.0
210
0.0
220
0.0
230
1.0
  2
SOLID
 70
     1
 71
     0
 91
        1
 92
        0
 93
        4
 72
     1
 10
11.29963637225565
 20
-35.8
 11
7.853361128418364
 21
-35.8
 72
     1
 10
7.853361128418364
 20
-35.8
 11
5.725131269214342
 21
-38.3363255805726
 72
     1
 10
5.725131269214342
 20
-38.3363255805726
 11
9.1714395981648
 21
-38.33628615127011
 72
     1
 10
9.1714395981648
 20
-38.33628615127011
 11
11.29963637225565
 21
-35.8
 97
        0
 75
     0
 76
     1
 98
        1
 10
-0.0867613140311789
 20
-0.0010749287238951
  0
HATCH
  5
CF
330
1F
100
AcDbEntity
  8
중심선
100
AcDbHatch
 10
0.0
 20
0.0
 30
0.0
210
0.0
220
0.0
230
1.0
  2
SOLID
 70
     1
 71
     0
 91
        1
 92
        0
 93
        4
 72
     1
 10
16.31240036329165
 20
-35.8
 11
12.86612511945437
 21
-35.79999999999998
 72
     1
 10
12.86612511945437
 20
-35.79999999999998
 11
8.334987111096927
 21
-41.20000000000002
 72
     1
 10
8.334987111096927
 20
-41.20000000000002
 11
11.78126235493421
 21
-41.20000000000002
 72
     1
 10
11.78126235493421
 20
-41.20000000000002
 11
16.31240036329165
 21
-35.8
 97
        0
 75
     0
 76
     1
 98
        1
 10
-0.0867613140311789
 20
-0.0010749287238951
  0
HATCH
  5
D0
330
1F
100
AcDbEntity
  8
중심선
100
AcDbHatch
 10
0.0
 20
0.0
 30
0.0
210
0.0
220
0.0
230
1.0
  2
SOLID
 70
     1
 71
     0
 91
        1
 92
        0
 93
        4
 72
     1
 10
21.32516435432749
 20
-35.8
 11
17.87888911049043
 21
-35.79999999999998
 72
     1
 10
17.87888911049043
 20
-35.79999999999998
 11
10.83045220860113
 21
-44.20000000000002
 72
     1
 10
10.83045220860113
 20
-44.20000000000002
 11
14.27672745243841
 21
-44.20000000000002
 72
     1
 10
14.27672745243841
 20
-44.20000000000002
 11
21.32516435432749
 21
-35.8
 97
        0
 75
     0
 76
     1
 98
        1
 10
-0.0867613140311789
 20
-0.0010749287238951
  0
HATCH
  5
D1
330
1F
100
AcDbEntity
  8
중심선
100
AcDbHatch
 10
0.0
 20
0.0
 30
0.0
210
0.0
220
0.0
230
1.0
  2
SOLID
 70
     1
 71
     0
 91
        1
 92
        0
 93
        6
 72
     3
 10
26.12505478533969
 20
-40.00000000005127
 11
3.960054785062283
 21
1.540882976769353E-10
 40
0.3939339440162628
 50
17.09539180608436
 51
320.0019657685075
 73
     0
 72
     1
 10
27.80805444104029
 20
-38.58789400463827
 11
30.11335631474135
 21
-36.65356729459038
 72
     3
 10
26.12505478528685
 20
-40.00000000000015
 11
6.600054785286833
 21
-1.278976924368180E-13
 40
0.6363583540795976
 50
39.99873849337387
 51
368.4976242363725
 73
     1
 72
     1
 10
32.55038727718745
 20
-39.03999999993002
 11
24.8051220921228
 21
-39.03999999993
 72
     1
 10
24.8051220921228
 20
-39.03999999993
 11
24.80509704767683
 21
-40.95999999992991
 72
     1
 10
24.80509704767683
 20
-40.95999999992991
 11
29.24647681714887
 21
-40.95999999992988
 97
        0
 75
     0
 76
     1
 98
        1
 10
-0.0867613140311789
 20
-0.0010749287238951
  0
DIMENSION
  5
D2
330
1F
100
AcDbEntity
  8
치수문자_일반주서
100
AcDbDimension
  2
_D
 10
10.00000000000002
 20
14.78499317107682
 30
0.0
 11
41.75000000000003
 21
14.78499317107682
 31
0.0
 70
   160
  1
<>
 71
     2
 42
63.49999999999997
  3
SLDDIMSTYLE0
100
AcDbAlignedDimension
 13
73.5
 23
4.74498634215364
 33
0.0
 14
10.00000000000002
 24
4.750798759051921
 34
0.0
 50
-0.0000000000001635
100
AcDbRotatedDimension
1001
PE_URL
1000

1001
ACAD
1000
DSTYLE
1002
{
1070
   171
1070
     8
1070
   273
1070
     7
1002
}
  0
DIMENSION
  5
E7
330
1F
100
AcDbEntity
  8
치수문자_일반주서
100
AcDbDimension
  2
_D_1
 10
-34.45000000000001
 20
24.7625
 30
0.0
 11
19.52499999999999
 21
24.7625
 31
0.0
 70
   160
  1
<>
 71
     2
 42
107.95
  3
SLDDIMSTYLE0
100
AcDbAlignedDimension
 13
73.5
 23
4.74498634215364
 33
0.0
 14
-34.45000000000001
 24
3.81
 34
0.0
100
AcDbRotatedDimension
1001
PE_URL
1000

1001
ACAD
1000
DSTYLE
1002
{
1070
   171
1070
     8
1070
   273
1070
     7
1002
}
  0
DIMENSION
  5
FB
330
1F
100
AcDbEntity
  8
치수문자_일반주서
100
AcDbDimension
  2
_D_2
 10
-44.44999999999996
 20
-4.762500000000045
 30
0.0
 11
-44.45000000000006
 21
21.18949999999996
 31
0.0
 70
   160
  1
%%c<>
 71
     2
 42
9.525000000000006
 52
-270.0
  3
SLDDIMSTYLE0
100
AcDbAlignedDimension
 13
-33.49750000000001
 23
4.762500000000001
 33
0.0
 14
-33.49750000000001
 24
-4.762500000000005
 34
0.0
 50
90.0000000000002
100
AcDbRotatedDimension
1001
PE_URL
1000

1001
ACAD
1000
DSTYLE
1002
{
1070
   171
1070
     8
1070
   273
1070
     7
1002
}
1001
ACAD_DSTYLE_DIMFLIPARROW_SYMBOL
1070
   385
1070
     0
1001
ACAD_DSTYLE_DIMFLIPARROW_WHICH_SYMBOL
1070
   386
1070
     3
  0
DIMENSION
  5
110
330
1F
100
AcDbEntity
  8
치수문자_일반주서
100
AcDbDimension
  2
_D_3
 10
83.49999999999999
 20
4.74498634215368
 30
0.0
 11
83.49999999999994
 21
21.17198634215368
 31
0.0
 70
   160
  1
%%c<>
 71
     2
 42
9.489972684307286
 52
-270.0
  3
SLDDIMSTYLE0
100
AcDbAlignedDimension
 13
73.5
 23
-4.744986342153645
 33
0.0
 14
73.5
 24
4.74498634215364
 34
0.0
 50
90.0000000000002
100
AcDbRotatedDimension
1001
PE_URL
1000

1001
ACAD
1000
DSTYLE
1002
{
1070
   171
1070
     8
1070
   273
1070
     7
1002
}
1001
ACAD_DSTYLE_DIMFLIPARROW_SYMBOL
1070
   385
1070
     0
1001
ACAD_DSTYLE_DIMFLIPARROW_WHICH_SYMBOL
1070
   386
1070
     3
  0
LINE
  5
123
330
1F
100
AcDbEntity
  8
참조1
100
AcDbLine
 10
77.73223381534558
 20
7.44
 30
0.0
 11
77.73223381534558
 21
-7.440000000000004
 31
0.0
  0
LINE
  5
124
330
1F
100
AcDbEntity
  8
참조1
100
AcDbLine
 10
90.43223381534558
 20
5.44
 30
0.0
 11
77.73223381534558
 21
5.44
 31
0.0
  0
SOLID
  5
125
330
1F
100
AcDbEntity
  8
참조1
100
AcDbTrace
 10
77.73223381534558
 20
5.44
 30
0.0
 11
84.08223381534557
 21
4.424
 31
0.0
 12
84.08223381534557
 22
6.456
 32
0.0
 13
84.08223381534557
 23
6.456
 33
0.0
  0
LINE
  5
126
330
1F
100
AcDbEntity
  8
참조1
100
AcDbLine
 10
90.43223381534558
 20
-5.440000000000004
 30
0.0
 11
77.73223381534558
 21
-5.440000000000004
 31
0.0
  0
SOLID
  5
127
330
1F
100
AcDbEntity
  8
참조1
100
AcDbTrace
 10
77.73223381534558
 20
-5.440000000000004
 30
0.0
 11
84.08223381534557
 21
-6.456000000000004
 31
0.0
 12
84.08223381534557
 22
-4.424000000000004
 32
0.0
 13
84.08223381534557
 23
-4.424000000000004
 33
0.0
  0
MTEXT
  5
128
330
1F
100
AcDbEntity
  8
참조1
100
AcDbMText
 10
87.11658394797158
 20
11.01029177718833
 30
0.0
 40
3.5
 41
0.0
 71
     1
 72
     1
  1
A
  7
SLDTEXTSTYLE0
 73
     1
 44
1.0
  0
MTEXT
  5
129
330
1F
100
AcDbEntity
  8
참조1
100
AcDbMText
 10
87.11658394797158
 20
0.130291777188325
 30
0.0
 40
3.5
 41
0.0
 71
     1
 72
     1
  1
A
  7
SLDTEXTSTYLE0
 73
     1
 44
1.0
  0
INSERT
  5
130
330
1F
100
AcDbEntity
  8
해칭선
100
AcDbBlockReference
  2
SW_DOWELSYMBOL_0
 10
0.0
 20
0.0
 30
0.0
  0
LINE
  5
1D2
330
1F
100
AcDbEntity
  8
외형선
  6
Continuous
370
    15
100
AcDbLine
 10
-18.17495000000013
 20
3.492500000000003
 30
0.0
 11
-11.03755
 21
3.492500000000003
 31
0.0
1001
PE_URL
1000

  0
LINE
  5
1D3
330
1F
100
AcDbEntity
  8
외형선
  6
Continuous
370
    15
100
AcDbLine
 10
-18.17495000000013
 20
3.492500000000003
 30
0.0
 11
-19.44495000000011
 21
4.762499999999985
 31
0.0
1001
PE_URL
1000

  0
LINE
  5
1D4
330
1F
100
AcDbEntity
  8
외형선
  6
Continuous
370
    15
100
AcDbLine
 10
-11.03755
 20
3.492500000000003
 30
0.0
 11
-9.767549999999908
 21
4.762499999999985
 31
0.0
1001
PE_URL
1000

  0
LINE
  5
1DF
330
1F
100
AcDbEntity
  8
외형선
  6
Continuous
370
    15
100
AcDbLine
 10
-19.44495000000012
 20
4.762499999999998
 30
0.0
 11
-33.49750000000001
 21
4.762499999999998
 31
0.0
  0
ENDSEC
  0
SECTION
  2
OBJECTS
  0
DICTIONARY
  5
C
330
0
100
AcDbDictionary
281
     1
  3
ACAD_DETAILVIEWSTYLE
350
1DD
  3
ACAD_GROUP
350
D
  3
ACAD_IMAGE_VARS
350
20E
  3
ACAD_LAYOUT
350
1A
  3
ACAD_MLINESTYLE
350
17
  3
ACAD_PLOTSETTINGS
350
19
  3
ACAD_PLOTSTYLENAME
350
E
  3
ACAD_SCALELIST
350
47
  3
ACAD_SECTIONVIEWSTYLE
350
1DE
  3
AcDbVariableDictionary
350
1D8
  3
APPDATA
350
152
  3
DWGPROPS
350
20F
  0
DICTIONARY
  5
188
330
2
100
AcDbDictionary
280
     1
281
     1
  3
ACAD_LAYERSTATES
360
189
  0
DICTIONARY
  5
1DD
102
{ACAD_REACTORS
330
C
102
}
330
C
100
AcDbDictionary
281
     1
  0
DICTIONARY
  5
D
102
{ACAD_REACTORS
330
C
102
}
330
C
100
AcDbDictionary
281
     1
  0
RASTERVARIABLES
  5
20E
102
{ACAD_REACTORS
330
C
102
}
330
C
100
AcDbRasterVariables
 90
        0
 70
     1
 71
     1
 72
     1
  0
DICTIONARY
  5
1A
102
{ACAD_REACTORS
330
C
102
}
330
C
100
AcDbDictionary
281
     1
  3
Layout1
350
1E
  3
Layout2
350
26
  3
Model
350
22
  0
DICTIONARY
  5
17
102
{ACAD_REACTORS
330
C
102
}
330
C
100
AcDbDictionary
281
     1
  3
Standard
350
18
  0
DICTIONARY
  5
19
102
{ACAD_REACTORS
330
C
102
}
330
C
100
AcDbDictionary
281
     1
  0
ACDBDICTIONARYWDFLT
  5
E
102
{ACAD_REACTORS
330
C
102
}
330
C
100
AcDbDictionary
281
     1
  3
Normal
350
F
100
AcDbDictionaryWithDefault
340
F
  0
DICTIONARY
  5
47
102
{ACAD_REACTORS
330
C
102
}
330
C
100
AcDbDictionary
281
     1
  3
A0
350
48
  3
A1
350
49
  3
A2
350
4A
  3
A3
350
4B
  3
A4
350
4C
  3
A5
350
4D
  3
A6
350
4E
  3
A7
350
4F
  3
A8
350
50
  3
A9
350
51
  3
B0
350
52
  3
B1
350
53
  3
B2
350
54
  3
B3
350
55
  3
B4
350
56
  3
B5
350
57
  3
B6
350
58
  3
B7
350
59
  3
B8
350
5A
  3
B9
350
5B
  3
C0
350
5C
  3
C1
350
5D
  3
C2
350
5E
  3
C3
350
5F
  3
C4
350
60
  3
C5
350
61
  3
C6
350
62
  3
C7
350
63
  3
C8
350
64
  3
C9
350
65
  3
D0
350
66
  3
D1
350
67
  3
D2
350
68
  0
DICTIONARY
  5
1DE
102
{ACAD_REACTORS
330
C
102
}
330
C
100
AcDbDictionary
281
     1
  0
DICTIONARY
  5
1D8
102
{ACAD_REACTORS
330
C
102
}
330
C
100
AcDbDictionary
281
     1
  0
DICTIONARY
  5
152
102
{ACAD_REACTORS
330
C
102
}
330
C
100
AcDbDictionary
281
     1
  0
XRECORD
  5
20F
102
{ACAD_REACTORS
330
C
102
}
330
C
100
AcDbXrecord
280
     1
  1
DWGPROPS COOKIE
  2

  3

  4

  6

  7

  8
12016016
  9

300
=
301
=
302
=
303
=
304
=
305
=
306
=
307
=
308
=
309
=
 40
0.0
 41
2458312.257673542
 42
2458330.312723252
  1

 90
        0
  0
DICTIONARY
  5
189
102
{ACAD_REACTORS
330
188
102
}
330
188
100
AcDbDictionary
281
     1
  0
LAYOUT
  5
1E
102
{ACAD_REACTORS
330
1A
102
}
330
1A
100
AcDbPlotSettings
  1

  2
none_device
  4

  6

 40
0.0
 41
0.0
 42
0.0
 43
0.0
 44
0.0
 45
0.0
 46
0.0
 47
0.0
 48
0.0
 49
0.0
140
0.0
141
0.0
142
1.0
143
1.0
 70
   688
 72
     1
 73
     0
 74
     5
  7

 75
    16
147
1.0
148
0.0
149
0.0
100
AcDbLayout
  1
Layout1
 70
     1
 71
     1
 10
0.0
 20
0.0
 11
420.0
 21
297.0
 12
0.0
 22
0.0
 32
0.0
 14
1.000000000000000E+20
 24
1.000000000000000E+20
 34
1.000000000000000E+20
 15
-1.000000000000000E+20
 25
-1.000000000000000E+20
 35
-1.000000000000000E+20
146
0.0
 13
0.0
 23
0.0
 33
0.0
 16
1.0
 26
0.0
 36
0.0
 17
0.0
 27
1.0
 37
0.0
 76
     0
330
1B
  0
LAYOUT
  5
26
102
{ACAD_REACTORS
330
1A
102
}
330
1A
100
AcDbPlotSettings
  1

  2
none_device
  4

  6

 40
0.0
 41
0.0
 42
0.0
 43
0.0
 44
0.0
 45
0.0
 46
0.0
 47
0.0
 48
0.0
 49
0.0
140
0.0
141
0.0
142
1.0
143
1.0
 70
   688
 72
     1
 73
     0
 74
     5
  7

 75
    16
147
1.0
148
0.0
149
0.0
100
AcDbLayout
  1
Layout2
 70
     1
 71
     2
 10
0.0
 20
0.0
 11
0.0
 21
0.0
 12
0.0
 22
0.0
 32
0.0
 14
0.0
 24
0.0
 34
0.0
 15
0.0
 25
0.0
 35
0.0
146
0.0
 13
0.0
 23
0.0
 33
0.0
 16
1.0
 26
0.0
 36
0.0
 17
0.0
 27
1.0
 37
0.0
 76
     0
330
23
  0
LAYOUT
  5
22
102
{ACAD_REACTORS
330
1A
102
}
330
1A
100
AcDbPlotSettings
  1

  2
none_device
  4
ANSI_A_(11.00_x_8.50_Inches)
  6

 40
6.35
 41
19.05
 42
6.35000508
 43
19.05000254
 44
279.4
 45
215.9
 46
58.72171066489339
 47
78.33275850729068
 48
0.0
 49
0.0
140
0.0
141
0.0
142
0.0444034081362561
143
1.0
 70
  1696
 72
     0
 73
     0
 74
     0
  7

 75
     0
147
0.0235690232323232
148
0.0
149
0.0
100
AcDbLayout
  1
Model
 70
     1
 71
     0
 10
0.0
 20
0.0
 11
420.0
 21
297.0
 12
0.0
 22
0.0
 32
0.0
 14
-48.8250000000001
 24
-49.97180738881175
 34
0.0
 15
90.43223381534558
 25
34.31449999999996
 35
0.0
146
0.0
 13
0.0
 23
0.0
 33
0.0
 16
1.0
 26
0.0
 36
0.0
 17
0.0
 27
1.0
 37
0.0
 76
     0
330
1F
331
29
  0
MLINESTYLE
  5
18
102
{ACAD_REACTORS
330
17
102
}
330
17
100
AcDbMlineStyle
  2
Standard
 70
     0
  3

 62
   256
 51
90.0
 52
90.0
 71
     2
 49
0.5
 62
   256
  6
BYLAYER
 49
-0.5
 62
   256
  6
BYLAYER
  0
ACDBPLACEHOLDER
  5
F
102
{ACAD_REACTORS
330
E
102
}
330
E
  0
SCALE
  5
48
102
{ACAD_REACTORS
330
47
102
}
330
47
100
AcDbScale
 70
     0
300
1:1
140
1.0
141
1.0
290
     1
  0
SCALE
  5
49
102
{ACAD_REACTORS
330
47
102
}
330
47
100
AcDbScale
 70
     0
300
1:2
140
1.0
141
2.0
290
     0
  0
SCALE
  5
4A
102
{ACAD_REACTORS
330
47
102
}
330
47
100
AcDbScale
 70
     0
300
1:4
140
1.0
141
4.0
290
     0
  0
SCALE
  5
4B
102
{ACAD_REACTORS
330
47
102
}
330
47
100
AcDbScale
 70
     0
300
1:5
140
1.0
141
5.0
290
     0
  0
SCALE
  5
4C
102
{ACAD_REACTORS
330
47
102
}
330
47
100
AcDbScale
 70
     0
300
1:8
140
1.0
141
8.0
290
     0
  0
SCALE
  5
4D
102
{ACAD_REACTORS
330
47
102
}
330
47
100
AcDbScale
 70
     0
300
1:10
140
1.0
141
10.0
290
     0
  0
SCALE
  5
4E
102
{ACAD_REACTORS
330
47
102
}
330
47
100
AcDbScale
 70
     0
300
1:16
140
1.0
141
16.0
290
     0
  0
SCALE
  5
4F
102
{ACAD_REACTORS
330
47
102
}
330
47
100
AcDbScale
 70
     0
300
1:20
140
1.0
141
20.0
290
     0
  0
SCALE
  5
50
102
{ACAD_REACTORS
330
47
102
}
330
47
100
AcDbScale
 70
     0
300
1:30
140
1.0
141
30.0
290
     0
  0
SCALE
  5
51
102
{ACAD_REACTORS
330
47
102
}
330
47
100
AcDbScale
 70
     0
300
1:40
140
1.0
141
40.0
290
     0
  0
SCALE
  5
52
102
{ACAD_REACTORS
330
47
102
}
330
47
100
AcDbScale
 70
     0
300
1:50
140
1.0
141
50.0
290
     0
  0
SCALE
  5
53
102
{ACAD_REACTORS
330
47
102
}
330
47
100
AcDbScale
 70
     0
300
1:100
140
1.0
141
100.0
290
     0
  0
SCALE
  5
54
102
{ACAD_REACTORS
330
47
102
}
330
47
100
AcDbScale
 70
     0
300
2:1
140
2.0
141
1.0
290
     0
  0
SCALE
  5
55
102
{ACAD_REACTORS
330
47
102
}
330
47
100
AcDbScale
 70
     0
300
4:1
140
4.0
141
1.0
290
     0
  0
SCALE
  5
56
102
{ACAD_REACTORS
330
47
102
}
330
47
100
AcDbScale
 70
     0
300
8:1
140
8.0
141
1.0
290
     0
  0
SCALE
  5
57
102
{ACAD_REACTORS
330
47
102
}
330
47
100
AcDbScale
 70
     0
300
10:1
140
10.0
141
1.0
290
     0
  0
SCALE
  5
58
102
{ACAD_REACTORS
330
47
102
}
330
47
100
AcDbScale
 70
     0
300
100:1
140
100.0
141
1.0
290
     0
  0
SCALE
  5
59
102
{ACAD_REACTORS
330
47
102
}
330
47
100
AcDbScale
 70
     0
300
1/128" = 1'-0"
140
0.0078125
141
12.0
290
     0
  0
SCALE
  5
5A
102
{ACAD_REACTORS
330
47
102
}
330
47
100
AcDbScale
 70
     0
300
1/64" = 1'-0"
140
0.015625
141
12.0
290
     0
  0
SCALE
  5
5B
102
{ACAD_REACTORS
330
47
102
}
330
47
100
AcDbScale
 70
     0
300
1/32" = 1'-0"
140
0.03125
141
12.0
290
     0
  0
SCALE
  5
5C
102
{ACAD_REACTORS
330
47
102
}
330
47
100
AcDbScale
 70
     0
300
1/16" = 1'-0"
140
0.0625
141
12.0
290
     0
  0
SCALE
  5
5D
102
{ACAD_REACTORS
330
47
102
}
330
47
100
AcDbScale
 70
     0
300
3/32" = 1'-0"
140
0.09375
141
12.0
290
     0
  0
SCALE
  5
5E
102
{ACAD_REACTORS
330
47
102
}
330
47
100
AcDbScale
 70
     0
300
1/8" = 1'-0"
140
0.125
141
12.0
290
     0
  0
SCALE
  5
5F
102
{ACAD_REACTORS
330
47
102
}
330
47
100
AcDbScale
 70
     0
300
3/16" = 1'-0"
140
0.1875
141
12.0
290
     0
  0
SCALE
  5
60
102
{ACAD_REACTORS
330
47
102
}
330
47
100
AcDbScale
 70
     0
300
1/4" = 1'-0"
140
0.25
141
12.0
290
     0
  0
SCALE
  5
61
102
{ACAD_REACTORS
330
47
102
}
330
47
100
AcDbScale
 70
     0
300
3/8" = 1'-0"
140
0.375
141
12.0
290
     0
  0
SCALE
  5
62
102
{ACAD_REACTORS
330
47
102
}
330
47
100
AcDbScale
 70
     0
300
1/2" = 1'-0"
140
0.5
141
12.0
290
     0
  0
SCALE
  5
63
102
{ACAD_REACTORS
330
47
102
}
330
47
100
AcDbScale
 70
     0
300
3/4" = 1'-0"
140
0.75
141
12.0
290
     0
  0
SCALE
  5
64
102
{ACAD_REACTORS
330
47
102
}
330
47
100
AcDbScale
 70
     0
300
1" = 1'-0"
140
1.0
141
12.0
290
     0
  0
SCALE
  5
65
102
{ACAD_REACTORS
330
47
102
}
330
47
100
AcDbScale
 70
     0
300
1-1/2" = 1'-0"
140
1.5
141
12.0
290
     0
  0
SCALE
  5
66
102
{ACAD_REACTORS
330
47
102
}
330
47
100
AcDbScale
 70
     0
300
3" = 1'-0"
140
3.0
141
12.0
290
     0
  0
SCALE
  5
67
102
{ACAD_REACTORS
330
47
102
}
330
47
100
AcDbScale
 70
     0
300
6" = 1'-0"
140
6.0
141
12.0
290
     0
  0
SCALE
  5
68
102
{ACAD_REACTORS
330
47
102
}
330
47
100
AcDbScale
 70
     0
300
1'-0" = 1'-0"
140
12.0
141
12.0
290
     0
  0
ENDSEC
  0
EOF
