  0
SECTION
  2
HEADER
  9
$ACADVER
  1
AC1015
  9
$ACADMAINTVER
 70
     6
  9
$DWGCODEPAGE
  3
ANSI_949
  9
$INSBASE
 10
0.0
 20
0.0
 30
0.0
  9
$EXTMIN
 10
-53.73823868596892
 20
-49.97073246008786
 30
0.0
  9
$EXTMAX
 10
136.7620946473645
 20
44.02388549898003
 30
0.0
  9
$LIMMIN
 10
0.0
 20
0.0
  9
$LIMMAX
 10
420.0
 20
297.0
  9
$ORTHOMODE
 70
     1
  9
$REGENMODE
 70
     1
  9
$FILLMODE
 70
     1
  9
$QTEXTMODE
 70
     0
  9
$MIRRTEXT
 70
     1
  9
$LTSCALE
 40
1.0
  9
$ATTMODE
 70
     1
  9
$TEXTSIZE
 40
3.5
  9
$TRACEWID
 40
1.0
  9
$TEXTSTYLE
  7
Standard
  9
$CLAYER
  8
0
  9
$CELTYPE
  6
ByLayer
  9
$CECOLOR
 62
   256
  9
$CELTSCALE
 40
1.0
  9
$DISPSILH
 70
     0
  9
$DIMSCALE
 40
1.0
  9
$DIMASZ
 40
3.302
  9
$DIMEXO
 40
1.0
  9
$DIMDLI
 40
3.75
  9
$DIMRND
 40
0.0
  9
$DIMDLE
 40
0.0
  9
$DIMEXE
 40
1.0
  9
$DIMTP
 40
0.0
  9
$DIMTM
 40
0.0
  9
$DIMTXT
 40
3.5
  9
$DIMCEN
 40
2.5
  9
$DIMTSZ
 40
0.0
  9
$DIMTOL
 70
     0
  9
$DIMLIM
 70
     0
  9
$DIMTIH
 70
     1
  9
$DIMTOH
 70
     1
  9
$DIMSE1
 70
     0
  9
$DIMSE2
 70
     0
  9
$DIMTAD
 70
     1
  9
$DIMZIN
 70
     0
  9
$DIMBLK
  1

  9
$DIMASO
 70
     1
  9
$DIMSHO
 70
     1
  9
$DIMPOST
  1

  9
$DIMAPOST
  1

  9
$DIMALT
 70
     0
  9
$DIMALTD
 70
     3
  9
$DIMALTF
 40
0.0393700787401575
  9
$DIMLFAC
 40
1.0
  9
$DIMTOFL
 70
     1
  9
$DIMTVP
 40
0.0
  9
$DIMTIX
 70
     0
  9
$DIMSOXD
 70
     0
  9
$DIMSAH
 70
     0
  9
$DIMBLK1
  1

  9
$DIMBLK2
  1

  9
$DIMSTYLE
  2
ISO-25
  9
$DIMCLRD
 70
     0
  9
$DIMCLRE
 70
     0
  9
$DIMCLRT
 70
     0
  9
$DIMTFAC
 40
1.0
  9
$DIMGAP
 40
1.524
  9
$DIMJUST
 70
     0
  9
$DIMSD1
 70
     0
  9
$DIMSD2
 70
     0
  9
$DIMTOLJ
 70
     0
  9
$DIMTZIN
 70
     0
  9
$DIMALTZ
 70
     0
  9
$DIMALTTZ
 70
     0
  9
$DIMUPT
 70
     0
  9
$DIMDEC
 70
     2
  9
$DIMTDEC
 70
     2
  9
$DIMALTU
 70
     2
  9
$DIMALTTD
 70
     3
  9
$DIMTXSTY
  7
Standard
  9
$DIMAUNIT
 70
     0
  9
$DIMADEC
 70
     2
  9
$DIMALTRND
 40
0.0
  9
$DIMAZIN
 70
     0
  9
$DIMDSEP
 70
    44
  9
$DIMATFIT
 70
     3
  9
$DIMFRAC
 70
     0
  9
$DIMLDRBLK
  1

  9
$DIMLUNIT
 70
     2
  9
$DIMLWD
 70
    -2
  9
$DIMLWE
 70
    -2
  9
$DIMTMOVE
 70
     0
  9
$LUNITS
 70
     2
  9
$LUPREC
 70
     2
  9
$SKETCHINC
 40
1.0
  9
$FILLETRAD
 40
10.0
  9
$AUNITS
 70
     0
  9
$AUPREC
 70
     2
  9
$MENU
  1
.
  9
$ELEVATION
 40
0.0
  9
$PELEVATION
 40
0.0
  9
$THICKNESS
 40
0.0
  9
$LIMCHECK
 70
     0
  9
$CHAMFERA
 40
0.0
  9
$CHAMFERB
 40
0.0
  9
$CHAMFERC
 40
0.0
  9
$CHAMFERD
 40
0.0
  9
$SKPOLY
 70
     0
  9
$TDCREATE
 40
2458312.633309086
  9
$TDUCREATE
 40
2458312.258309086
  9
$TDUPDATE
 40
2458330.688319595
  9
$TDUUPDATE
 40
2458330.313319595
  9
$TDINDWG
 40
0.0004258681
  9
$TDUSRTIMER
 40
2458330.313261725
  9
$USRTIMER
 70
     1
  9
$ANGBASE
 50
0.0
  9
$ANGDIR
 70
     0
  9
$PDMODE
 70
     0
  9
$PDSIZE
 40
-1.0
  9
$PLINEWID
 40
0.0
  9
$SPLFRAME
 70
     0
  9
$SPLINETYPE
 70
     6
  9
$SPLINESEGS
 70
     8
  9
$HANDSEED
  5
211
  9
$SURFTAB1
 70
     6
  9
$SURFTAB2
 70
     6
  9
$SURFTYPE
 70
     6
  9
$SURFU
 70
     6
  9
$SURFV
 70
     6
  9
$UCSBASE
  2

  9
$UCSNAME
  2

  9
$UCSORG
 10
0.0
 20
0.0
 30
0.0
  9
$UCSXDIR
 10
1.0
 20
0.0
 30
0.0
  9
$UCSYDIR
 10
0.0
 20
1.0
 30
0.0
  9
$UCSORTHOREF
  2

  9
$UCSORTHOVIEW
 70
     0
  9
$UCSORGTOP
 10
0.0
 20
0.0
 30
0.0
  9
$UCSORGBOTTOM
 10
0.0
 20
0.0
 30
0.0
  9
$UCSORGLEFT
 10
0.0
 20
0.0
 30
0.0
  9
$UCSORGRIGHT
 10
0.0
 20
0.0
 30
0.0
  9
$UCSORGFRONT
 10
0.0
 20
0.0
 30
0.0
  9
$UCSORGBACK
 10
0.0
 20
0.0
 30
0.0
  9
$PUCSBASE
  2

  9
$PUCSNAME
  2

  9
$PUCSORG
 10
0.0
 20
0.0
 30
0.0
  9
$PUCSXDIR
 10
1.0
 20
0.0
 30
0.0
  9
$PUCSYDIR
 10
0.0
 20
1.0
 30
0.0
  9
$PUCSORTHOREF
  2

  9
$PUCSORTHOVIEW
 70
     0
  9
$PUCSORGTOP
 10
0.0
 20
0.0
 30
0.0
  9
$PUCSORGBOTTOM
 10
0.0
 20
0.0
 30
0.0
  9
$PUCSORGLEFT
 10
0.0
 20
0.0
 30
0.0
  9
$PUCSORGRIGHT
 10
0.0
 20
0.0
 30
0.0
  9
$PUCSORGFRONT
 10
0.0
 20
0.0
 30
0.0
  9
$PUCSORGBACK
 10
0.0
 20
0.0
 30
0.0
  9
$USERI1
 70
     0
  9
$USERI2
 70
     0
  9
$USERI3
 70
     0
  9
$USERI4
 70
     0
  9
$USERI5
 70
     0
  9
$USERR1
 40
0.0
  9
$USERR2
 40
0.0
  9
$USERR3
 40
0.0
  9
$USERR4
 40
0.0
  9
$USERR5
 40
0.0
  9
$WORLDVIEW
 70
     1
  9
$SHADEDGE
 70
     3
  9
$SHADEDIF
 70
    70
  9
$TILEMODE
 70
     1
  9
$MAXACTVP
 70
    64
  9
$PINSBASE
 10
0.0
 20
0.0
 30
0.0
  9
$PLIMCHECK
 70
     0
  9
$PEXTMIN
 10
1.000000000000000E+20
 20
1.000000000000000E+20
 30
1.000000000000000E+20
  9
$PEXTMAX
 10
-1.000000000000000E+20
 20
-1.000000000000000E+20
 30
-1.000000000000000E+20
  9
$PLIMMIN
 10
0.0
 20
0.0
  9
$PLIMMAX
 10
0.0
 20
0.0
  9
$UNITMODE
 70
     0
  9
$VISRETAIN
 70
     1
  9
$PLINEGEN
 70
     0
  9
$PSLTSCALE
 70
     1
  9
$TREEDEPTH
 70
  3020
  9
$CMLSTYLE
  2
Standard
  9
$CMLJUST
 70
     0
  9
$CMLSCALE
 40
20.0
  9
$PROXYGRAPHICS
 70
     1
  9
$MEASUREMENT
 70
     1
  9
$CELWEIGHT
370
    -1
  9
$ENDCAPS
280
     0
  9
$JOINSTYLE
280
     0
  9
$LWDISPLAY
290
     1
  9
$INSUNITS
 70
     4
  9
$HYPERLINKBASE
  1

  9
$STYLESHEET
  1

  9
$XEDIT
290
     1
  9
$CEPSNTYPE
380
     0
  9
$PSTYLEMODE
290
     1
  9
$FINGERPRINTGUID
  2
{5D4E5787-2871-4A7E-A147-FE4BEA8CC6F2}
  9
$VERSIONGUID
  2
{FAEB1C32-E019-11D5-929B-00C0DF256EC4}
  9
$EXTNAMES
290
     1
  9
$PSVPSCALE
 40
0.0
  9
$OLESTARTUP
290
     0
  0
ENDSEC
  0
SECTION
  2
CLASSES
  0
CLASS
  1
ACDBDICTIONARYWDFLT
  2
AcDbDictionaryWithDefault
  3
ObjectDBX Classes
 90
        0
280
     0
281
     0
  0
CLASS
  1
VISUALSTYLE
  2
AcDbVisualStyle
  3
ObjectDBX Classes
 90
     4095
280
     0
281
     0
  0
CLASS
  1
MATERIAL
  2
AcDbMaterial
  3
ObjectDBX Classes
 90
     1153
280
     0
281
     0
  0
CLASS
  1
SCALE
  2
AcDbScale
  3
ObjectDBX Classes
 90
     1153
280
     0
281
     0
  0
CLASS
  1
SUN
  2
AcDbSun
  3
SCENEOE
 90
     1153
280
     0
281
     0
  0
CLASS
  1
ACDBPLACEHOLDER
  2
AcDbPlaceHolder
  3
ObjectDBX Classes
 90
        0
280
     0
281
     0
  0
CLASS
  1
LAYOUT
  2
AcDbLayout
  3
ObjectDBX Classes
 90
        0
280
     0
281
     0
  0
CLASS
  1
TABLESTYLE
  2
AcDbTableStyle
  3
ObjectDBX Classes
 90
     4095
280
     0
281
     0
  0
CLASS
  1
MLEADERSTYLE
  2
AcDbMLeaderStyle
  3
ACDB_MLEADERSTYLE_CLASS
 90
     4095
280
     0
281
     0
  0
CLASS
  1
DICTIONARYVAR
  2
AcDbDictionaryVar
  3
ObjectDBX Classes
 90
        0
280
     0
281
     0
  0
CLASS
  1
RASTERVARIABLES
  2
AcDbRasterVariables
  3
ISM
 90
        0
280
     0
281
     0
  0
ENDSEC
  0
SECTION
  2
TABLES
  0
TABLE
  2
VPORT
  5
8
330
0
100
AcDbSymbolTable
 70
     1
  0
VPORT
  5
29
330
8
100
AcDbSymbolTableRecord
100
AcDbViewportTableRecord
  2
*Active
 70
     0
 10
0.0
 20
0.0
 11
1.0
 21
1.0
 12
41.51192798069781
 22
-2.973423480553919
 13
0.0
 23
0.0
 14
10.0
 24
10.0
 15
10.0
 25
10.0
 16
0.0
 26
0.0
 36
1.0
 17
0.0
 27
0.0
 37
0.0
 40
108.9939456821193
 41
1.782762691853601
 42
50.0
 43
0.0
 44
0.0
 50
0.0
 51
0.0
 71
    16
 72
  2000
 73
     1
 74
     3
 75
     0
 76
     0
 77
     0
 78
     0
281
     0
 65
     1
110
0.0
120
0.0
130
0.0
111
1.0
121
0.0
131
0.0
112
0.0
122
1.0
132
0.0
 79
     0
146
0.0
  0
ENDTAB
  0
TABLE
  2
LTYPE
  5
5
330
0
100
AcDbSymbolTable
 70
     6
  0
LTYPE
  5
14
330
5
100
AcDbSymbolTableRecord
100
AcDbLinetypeTableRecord
  2
ByBlock
 70
     0
  3

 72
    65
 73
     0
 40
0.0
  0
LTYPE
  5
15
330
5
100
AcDbSymbolTableRecord
100
AcDbLinetypeTableRecord
  2
ByLayer
 70
     0
  3

 72
    65
 73
     0
 40
0.0
  0
LTYPE
  5
16
330
5
100
AcDbSymbolTableRecord
100
AcDbLinetypeTableRecord
  2
Continuous
 70
     0
  3
Solid line
 72
    65
 73
     0
 40
0.0
  0
LTYPE
  5
6A
330
5
100
AcDbSymbolTableRecord
100
AcDbLinetypeTableRecord
  2
HIDDEN
 70
     0
  3
Hidden __ __ __ __ __ __ __ __ __ __ __ __ __ __
 72
    65
 73
     2
 40
1.905
 49
1.27
 74
     0
 49
-0.635
 74
     0
  0
LTYPE
  5
6B
330
5
100
AcDbSymbolTableRecord
100
AcDbLinetypeTableRecord
  2
PHANTOM
 70
     0
  3
Phantom ______  __  __  ______  __  __  ______
 72
    65
 73
     6
 40
12.7
 49
6.35
 74
     0
 49
-1.27
 74
     0
 49
1.27
 74
     0
 49
-1.27
 74
     0
 49
1.27
 74
     0
 49
-1.27
 74
     0
  0
LTYPE
  5
6C
330
5
100
AcDbSymbolTableRecord
100
AcDbLinetypeTableRecord
  2
CENTER
 70
     0
  3
Center ____ _ ____ _ ____ _ ____ _ ____ _ ____
 72
    65
 73
     4
 40
10.16
 49
6.35
 74
     0
 49
-1.27
 74
     0
 49
1.27
 74
     0
 49
-1.27
 74
     0
  0
LTYPE
  5
6D
330
5
100
AcDbSymbolTableRecord
100
AcDbLinetypeTableRecord
  2
CENTERX2
 70
     0
  3
Center (2x) ________  __  ________  __  _____
 72
    65
 73
     4
 40
20.32
 49
12.7
 74
     0
 49
-2.54
 74
     0
 49
2.54
 74
     0
 49
-2.54
 74
     0
  0
LTYPE
  5
6E
330
5
100
AcDbSymbolTableRecord
100
AcDbLinetypeTableRecord
  2
DOT2
 70
     0
  3
Dot (.5x) ........................................
 72
    65
 73
     2
 40
0.635
 49
0.0
 74
     0
 49
-0.635
 74
     0
  0
ENDTAB
  0
TABLE
  2
LAYER
  5
2
102
{ACAD_XDICTIONARY
360
187
102
}
330
0
100
AcDbSymbolTable
 70
    18
  0
LAYER
  5
10
330
2
100
AcDbSymbolTableRecord
100
AcDbLayerTableRecord
  2
0
 70
     0
 62
     7
  6
Continuous
370
    -3
390
F
  0
LAYER
  5
6F
330
2
100
AcDbSymbolTableRecord
100
AcDbLayerTableRecord
  2
FORMAT
 70
     0
 62
     2
  6
Continuous
370
    -3
390
F
  0
LAYER
  5
70
330
2
100
AcDbSymbolTableRecord
100
AcDbLayerTableRecord
  2
외형선
 70
     0
 62
     4
  6
Continuous
370
    30
390
F
  0
LAYER
  5
71
330
2
100
AcDbSymbolTableRecord
100
AcDbLayerTableRecord
  2
숨은선
 70
     0
 62
     2
  6
HIDDEN
370
    15
390
F
  0
LAYER
  5
72
330
2
100
AcDbSymbolTableRecord
100
AcDbLayerTableRecord
  2
중심선
 70
     0
 62
     1
  6
CENTERX2
370
    -3
390
F
  0
LAYER
  5
73
330
2
100
AcDbSymbolTableRecord
100
AcDbLayerTableRecord
  2
파단선
 70
     0
 62
     4
  6
Continuous
370
    -3
390
F
  0
LAYER
  5
74
330
2
100
AcDbSymbolTableRecord
100
AcDbLayerTableRecord
  2
해칭선
 70
     0
 62
   100
  6
Continuous
370
    -3
390
F
  0
LAYER
  5
75
330
2
100
AcDbSymbolTableRecord
100
AcDbLayerTableRecord
  2
가는실선
 70
     0
 62
     4
  6
Continuous
370
    -3
390
F
  0
LAYER
  5
76
330
2
100
AcDbSymbolTableRecord
100
AcDbLayerTableRecord
  2
치수_보조선
 70
     0
 62
     4
  6
Continuous
370
    -3
390
F
  0
LAYER
  5
77
330
2
100
AcDbSymbolTableRecord
100
AcDbLayerTableRecord
  2
치수문자_일반주서
 70
     0
 62
     7
  6
Continuous
370
    15
390
F
  0
LAYER
  5
78
330
2
100
AcDbSymbolTableRecord
100
AcDbLayerTableRecord
  2
개별주서
 70
     0
 62
   100
  6
Continuous
370
    30
390
F
  0
LAYER
  5
79
330
2
100
AcDbSymbolTableRecord
100
AcDbLayerTableRecord
  2
중간선
 70
     0
 62
     2
  6
Continuous
370
    15
390
F
  0
LAYER
  5
7A
330
2
100
AcDbSymbolTableRecord
100
AcDbLayerTableRecord
  2
윤곽선
 70
     0
 62
     3
  6
Continuous
370
    40
390
F
  0
LAYER
  5
7B
330
2
100
AcDbSymbolTableRecord
100
AcDbLayerTableRecord
  2
중심마크
 70
     0
 62
   100
  6
Continuous
370
    30
390
F
  0
LAYER
  5
7C
330
2
100
AcDbSymbolTableRecord
100
AcDbLayerTableRecord
  2
가상선
 70
     0
 62
     4
  6
PHANTOM
370
    -3
390
F
  0
LAYER
  5
7D
330
2
100
AcDbSymbolTableRecord
100
AcDbLayerTableRecord
  2
특수지정선
 70
     0
 62
     5
  6
CENTERX2
370
    60
390
F
  0
LAYER
  5
7E
330
2
100
AcDbSymbolTableRecord
100
AcDbLayerTableRecord
  2
참조1
 70
     0
 62
    -4
  6
Continuous
370
    -3
390
F
  0
LAYER
  5
153
330
2
100
AcDbSymbolTableRecord
100
AcDbLayerTableRecord
  2
Defpoints
 70
     0
 62
     7
  6
Continuous
290
     0
370
    -3
390
F
  0
ENDTAB
  0
TABLE
  2
STYLE
  5
3
330
0
100
AcDbSymbolTable
 70
     2
  0
STYLE
  5
11
330
3
100
AcDbSymbolTableRecord
100
AcDbTextStyleTableRecord
  2
Standard
 70
     0
 40
0.0
 41
1.0
 50
0.0
 71
     0
 42
3.5
  3
txt
  4

  0
STYLE
  5
94
330
3
100
AcDbSymbolTableRecord
100
AcDbTextStyleTableRecord
  2
SLDTEXTSTYLE0
 70
     0
 40
0.0
 41
0.75
 50
0.0
 71
     0
 42
3.5
  3
TXT
  4

  0
ENDTAB
  0
TABLE
  2
VIEW
  5
6
330
0
100
AcDbSymbolTable
 70
     0
  0
ENDTAB
  0
TABLE
  2
UCS
  5
7
330
0
100
AcDbSymbolTable
 70
     0
  0
ENDTAB
  0
TABLE
  2
APPID
  5
9
330
0
100
AcDbSymbolTable
 70
     4
  0
APPID
  5
12
330
9
100
AcDbSymbolTableRecord
100
AcDbRegAppTableRecord
  2
ACAD
 70
     0
  0
APPID
  5
15A
330
9
100
AcDbSymbolTableRecord
100
AcDbRegAppTableRecord
  2
PE_URL
 70
     0
  0
APPID
  5
1EB
330
9
100
AcDbSymbolTableRecord
100
AcDbRegAppTableRecord
  2
ACAD_DSTYLE_DIMFLIPARROW_SYMBOL
 70
     0
  0
APPID
  5
1EC
330
9
100
AcDbSymbolTableRecord
100
AcDbRegAppTableRecord
  2
ACAD_DSTYLE_DIMFLIPARROW_WHICH_SYMBOL
 70
     0
  0
ENDTAB
  0
TABLE
  2
DIMSTYLE
  5
A
330
0
100
AcDbSymbolTable
 70
     4
100
AcDbDimStyleTable
  0
DIMSTYLE
105
27
330
A
100
AcDbSymbolTableRecord
100
AcDbDimStyleTableRecord
  2
ISO-25
 70
     0
 41
2.5
 42
0.625
 43
3.75
 44
1.25
 73
     0
 74
     0
 77
     1
 78
     8
140
2.5
141
2.5
143
0.03937007874016
147
0.625
171
     3
172
     1
178
     0
271
     2
272
     2
274
     3
278
    44
283
     0
284
     8
340
11
  0
DIMSTYLE
105
D2
102
{ACAD_REACTORS
330
D1
330
10F
330
E6
330
FA
102
}
330
A
100
AcDbSymbolTableRecord
100
AcDbDimStyleTableRecord
  2
SLDDIMSTYLE0
 70
     0
 41
3.302
 44
0.0
 45
0.000000001
 73
     0
 74
     0
 77
     1
 78
     4
 79
     1
140
3.5
143
0.0393700787401575
147
0.875
148
0.000000001
170
     1
173
     1
178
     0
271
     2
272
     2
276
     2
284
    12
340
94
  0
DIMSTYLE
105
E7
330
A
100
AcDbSymbolTableRecord
100
AcDbDimStyleTableRecord
  2
SLDDIMSTYLE1
 70
     0
 41
3.302
 44
0.0
 45
0.000000001
 73
     0
 74
     0
 77
     1
 78
    12
 79
     3
140
3.5
143
0.0393700787401575
147
0.875
148
0.000000001
170
     1
173
     1
178
     0
271
     2
272
     2
276
     2
284
    12
340
94
  0
DIMSTYLE
105
FB
330
A
100
AcDbSymbolTableRecord
100
AcDbDimStyleTableRecord
  2
SLDDIMSTYLE2
 70
     0
 41
3.302
 44
0.0
 45
0.000000001
 73
     0
 74
     0
 77
     1
 78
    12
 79
     3
140
3.5
143
0.0393700787401575
147
0.875
148
0.000000001
170
     1
172
     1
173
     1
178
     0
271
     2
272
     2
276
     2
284
    12
289
     0
340
94
  0
ENDTAB
  0
TABLE
  2
BLOCK_RECORD
  5
1
330
0
100
AcDbSymbolTable
 70
     9
  0
BLOCK_RECORD
  5
1F
330
1
100
AcDbSymbolTableRecord
100
AcDbBlockTableRecord
  2
*Model_Space
340
22
  0
BLOCK_RECORD
  5
1B
330
1
100
AcDbSymbolTableRecord
100
AcDbBlockTableRecord
  2
*Paper_Space
340
1E
  0
BLOCK_RECORD
  5
23
330
1
100
AcDbSymbolTableRecord
100
AcDbBlockTableRecord
  2
*Paper_Space0
340
26
  0
BLOCK_RECORD
  5
7F
330
1
100
AcDbSymbolTableRecord
100
AcDbBlockTableRecord
  2
블럭10
340
0
102
{BLKREFS
331
CA
102
}
  0
BLOCK_RECORD
  5
D3
330
1
100
AcDbSymbolTableRecord
100
AcDbBlockTableRecord
  2
_D
340
0
  0
BLOCK_RECORD
  5
E8
330
1
100
AcDbSymbolTableRecord
100
AcDbBlockTableRecord
  2
_D_1
340
0
  0
BLOCK_RECORD
  5
FC
330
1
100
AcDbSymbolTableRecord
100
AcDbBlockTableRecord
  2
_D_2
340
0
  0
BLOCK_RECORD
  5
110
330
1
100
AcDbSymbolTableRecord
100
AcDbBlockTableRecord
  2
_D_3
340
0
  0
BLOCK_RECORD
  5
129
330
1
100
AcDbSymbolTableRecord
100
AcDbBlockTableRecord
  2
SW_DOWELSYMBOL_0
340
0
102
{BLKREFS
331
12F
102
}
  0
BLOCK_RECORD
  5
18B
330
1
100
AcDbSymbolTableRecord
100
AcDbBlockTableRecord
  2
*D7
340
0
  0
BLOCK_RECORD
  5
19A
330
1
100
AcDbSymbolTableRecord
100
AcDbBlockTableRecord
  2
*D8
340
0
  0
ENDTAB
  0
ENDSEC
  0
SECTION
  2
BLOCKS
  0
BLOCK
  5
20
330
1F
100
AcDbEntity
  8
0
100
AcDbBlockBegin
  2
*Model_Space
 70
     0
 10
0.0
 20
0.0
 30
0.0
  3
*Model_Space
  1
*Model_Space
  0
ENDBLK
  5
21
330
1F
100
AcDbEntity
  8
0
100
AcDbBlockEnd
  0
BLOCK
  5
1C
330
1B
100
AcDbEntity
 67
     1
  8
0
100
AcDbBlockBegin
  2
*Paper_Space
 70
     0
 10
0.0
 20
0.0
 30
0.0
  3
*Paper_Space
  1
*Paper_Space
  0
ENDBLK
  5
1D
330
1B
100
AcDbEntity
 67
     1
  8
0
100
AcDbBlockEnd
  0
BLOCK
  5
24
330
23
100
AcDbEntity
  8
0
100
AcDbBlockBegin
  2
*Paper_Space0
 70
     0
 10
0.0
 20
0.0
 30
0.0
  3
*Paper_Space0
  1
*Paper_Space0
  0
ENDBLK
  5
25
330
23
100
AcDbEntity
  8
0
100
AcDbBlockEnd
  0
BLOCK
  5
80
330
7F
100
AcDbEntity
  8
0
100
AcDbBlockBegin
  2
블럭10
 70
     2
 10
0.0
 20
0.0
 30
0.0
  3
블럭10
  1
블럭10
  0
ELLIPSE
  5
82
330
7F
100
AcDbEntity
  8
중심선
100
AcDbEllipse
 10
20.54032771741204
 20
12.0471743016438
 30
0.0
 11
6.600054785286829
 21
-1.261213355974178E-13
 31
0.0
210
0.0
220
0.0
230
1.0
 40
0.636358354079598
 41
0.9219305317359503
 42
6.513795318482858
  0
ELLIPSE
  5
83
330
7F
100
AcDbEntity
  8
중심선
100
AcDbEllipse
 10
20.54032771746488
 20
12.04717430159265
 30
0.0
 11
3.960054785062283
 21
1.540847449632565E-10
 31
0.0
210
0.0
220
0.0
230
1.0
 40
0.3939339440162632
 41
1.131841032648279
 42
5.62031148352944
  0
LINE
  5
84
330
7F
100
AcDbEntity
  8
중심선
100
AcDbLine
 10
2.268634060543552
 20
16.24717430164393
 30
0.0
 11
5.714909304380834
 21
16.24717430164393
 31
0.0
  0
LINE
  5
85
330
7F
100
AcDbEntity
  8
중심선
100
AcDbLine
 10
5.245725140726316
 20
7.84717430164391
 30
0.0
 11
8.692000384563599
 21
7.84717430164391
 31
0.0
  0
LINE
  5
86
330
7F
100
AcDbEntity
  8
중심선
100
AcDbLine
 10
15.74043728645272
 20
16.24717430164393
 30
0.0
 11
8.692000384563599
 21
7.84717430164391
 31
0.0
  0
LINE
  5
87
330
7F
100
AcDbEntity
  8
중심선
100
AcDbLine
 10
0.1404042013395286
 20
13.71084872107135
 30
0.0
 11
3.58671253028996
 21
13.71088815037384
 31
0.0
  0
LINE
  5
88
330
7F
100
AcDbEntity
  8
중심선
100
AcDbLine
 10
2.750260043222114
 20
10.84717430164391
 30
0.0
 11
6.196535287059397
 21
10.84717430164391
 31
0.0
  0
LINE
  5
89
330
7F
100
AcDbEntity
  8
중심선
100
AcDbLine
 10
12.29416204261559
 20
16.24717430164393
 30
0.0
 11
5.245725140726316
 21
7.84717430164391
 31
0.0
  0
LINE
  5
8A
330
7F
100
AcDbEntity
  8
중심선
100
AcDbLine
 10
10.72767329541681
 20
16.24717430164393
 30
0.0
 11
6.196535287059397
 21
10.84717430164391
 31
0.0
  0
LINE
  5
8B
330
7F
100
AcDbEntity
  8
중심선
100
AcDbLine
 10
7.28139805157953
 20
16.24717430164393
 30
0.0
 11
2.750260043222114
 21
10.84717430164391
 31
0.0
  0
LINE
  5
8C
330
7F
100
AcDbEntity
  8
중심선
100
AcDbLine
 10
5.714909304380834
 20
16.24717430164393
 30
0.0
 11
3.58671253028996
 21
13.71088815037384
 31
0.0
  0
LINE
  5
8D
330
7F
100
AcDbEntity
  8
중심선
100
AcDbLine
 10
2.268634060543552
 20
16.24717430164393
 30
0.0
 11
0.1404042013395286
 21
13.71084872107135
 31
0.0
  0
LINE
  5
8E
330
7F
100
AcDbEntity
  8
중심선
100
AcDbLine
 10
7.28139805157953
 20
16.24717430164393
 30
0.0
 11
10.72767329541681
 21
16.24717430164393
 31
0.0
  0
LINE
  5
8F
330
7F
100
AcDbEntity
  8
중심선
100
AcDbLine
 10
12.29416204261559
 20
16.24717430164393
 30
0.0
 11
15.74043728645272
 21
16.24717430164393
 31
0.0
  0
LINE
  5
90
330
7F
100
AcDbEntity
  8
중심선
100
AcDbLine
 10
19.22036997980202
 20
11.08717430171403
 30
0.0
 11
23.66174974927406
 21
11.08717430171406
 31
0.0
  0
LINE
  5
91
330
7F
100
AcDbEntity
  8
중심선
100
AcDbLine
 10
19.22039502424796
 20
13.00717430171391
 30
0.0
 11
19.22036997980202
 21
11.08717430171403
 31
0.0
  0
LINE
  5
92
330
7F
100
AcDbEntity
  8
중심선
100
AcDbLine
 10
19.22039502424796
 20
13.00717430171391
 30
0.0
 11
26.96566020931264
 21
13.00717430171391
 31
0.0
  0
LINE
  5
93
330
7F
100
AcDbEntity
  8
중심선
100
AcDbLine
 10
22.22332737316547
 20
13.45928029700563
 30
0.0
 11
24.52862924686651
 21
15.39360700705356
 31
0.0
  0
ATTDEF
  5
95
330
7F
100
AcDbEntity
  8
FORMAT
 62
     2
100
AcDbText
 10
4.408487351596664
 20
2.075366912832191
 30
0.0
 40
4.233333333333333
  1
E1041040
 41
0.75
  7
SLDTEXTSTYLE0
 11
4.408487351596664
 21
-0.0412997538344756
 31
0.0
100
AcDbAttributeDefinition
  3

  2
AUTOATTR0
 70
     0
 74
     1
  0
ENDBLK
  5
81
330
7F
100
AcDbEntity
  8
0
100
AcDbBlockEnd
  0
BLOCK
  5
D4
330
D3
100
AcDbEntity
  8
0
100
AcDbBlockBegin
  2
_D
 70
     0
 10
0.0
 20
0.0
 30
0.0
  3
_D
  1
_D
  0
LINE
  5
D6
330
D3
100
AcDbEntity
  8
치수문자_일반주서
 62
     0
370
    -2
100
AcDbLine
 10
121.2117613140312
 20
7.999274928723908
 30
0.0
 11
121.2117613140312
 21
22.95523021385194
 31
0.0
  0
LINE
  5
D7
330
D3
100
AcDbEntity
  8
치수문자_일반주서
 62
     0
370
    -2
100
AcDbLine
 10
19.61176131403118
 20
7.998366141439379
 30
0.0
 11
19.61176131403118
 21
22.95523021385194
 31
0.0
  0
LINE
  5
D8
330
D3
100
AcDbEntity
  8
치수문자_일반주서
 62
     0
370
    -2
100
AcDbLine
 10
117.9097613140312
 20
22.95523021385194
 30
0.0
 11
22.91376131403118
 21
22.95523021385194
 31
0.0
  0
SOLID
  5
D9
330
D3
100
AcDbEntity
  8
치수문자_일반주서
 62
     0
100
AcDbTrace
 10
117.9097613140312
 20
22.4048968805186
 30
0.0
 11
117.9097613140312
 21
23.50556354718527
 31
0.0
 12
121.2117613140312
 22
22.95523021385194
 32
0.0
 13
121.2117613140312
 23
22.95523021385194
 33
0.0
  0
SOLID
  5
DA
330
D3
100
AcDbEntity
  8
치수문자_일반주서
 62
     0
100
AcDbTrace
 10
22.91376131403118
 20
23.50556354718527
 30
0.0
 11
22.91376131403118
 21
22.4048968805186
 31
0.0
 12
19.61176131403118
 22
22.95523021385194
 32
0.0
 13
19.61176131403118
 23
22.95523021385194
 33
0.0
  0
MTEXT
  5
DB
330
D3
100
AcDbEntity
  8
치수문자_일반주서
 62
     0
100
AcDbMText
 10
70.41176131403115
 20
27.33023021385194
 30
0.0
 40
3.5
 41
0.0
 71
     2
 72
     1
  1
\A1;101.60 [4]
  7
SLDTEXTSTYLE0
 73
     1
 44
1.0
  0
POINT
  5
DC
330
D3
100
AcDbEntity
  8
Defpoints
 62
     0
100
AcDbPoint
 10
121.2117613140312
 20
7.936774928723908
 30
0.0
  0
POINT
  5
DD
330
D3
100
AcDbEntity
  8
Defpoints
 62
     0
100
AcDbPoint
 10
19.61176131403118
 20
7.935866141439379
 30
0.0
  0
POINT
  5
DE
330
D3
100
AcDbEntity
  8
Defpoints
 62
     0
100
AcDbPoint
 10
19.61176131403118
 20
22.95523021385194
 30
0.0
  0
ENDBLK
  5
D5
330
D3
100
AcDbEntity
  8
0
100
AcDbBlockEnd
  0
BLOCK
  5
E9
330
E8
100
AcDbEntity
  8
0
100
AcDbBlockBegin
  2
_D_1
 70
     0
 10
0.0
 20
0.0
 30
0.0
  3
_D_1
  1
_D_1
  0
LINE
  5
EB
330
E8
100
AcDbEntity
  8
치수문자_일반주서
 62
     0
370
    -2
100
AcDbLine
 10
121.2117613140312
 20
7.999274928723908
 30
0.0
 11
121.2117613140312
 21
37.9385749287239
 31
0.0
  0
LINE
  5
EC
330
E8
100
AcDbEntity
  8
치수문자_일반주서
 62
     0
370
    -2
100
AcDbLine
 10
-34.36323868596883
 20
6.413574928723897
 30
0.0
 11
-34.36323868596885
 21
37.9385749287239
 31
0.0
  0
LINE
  5
ED
330
E8
100
AcDbEntity
  8
치수문자_일반주서
 62
     0
370
    -2
100
AcDbLine
 10
117.9097613140312
 20
37.9385749287239
 30
0.0
 11
-31.06123868596885
 21
37.9385749287239
 31
0.0
  0
SOLID
  5
EE
330
E8
100
AcDbEntity
  8
치수문자_일반주서
 62
     0
100
AcDbTrace
 10
117.9097613140312
 20
37.38824159539057
 30
0.0
 11
117.9097613140312
 21
38.48890826205724
 31
0.0
 12
121.2117613140312
 22
37.9385749287239
 32
0.0
 13
121.2117613140312
 23
37.9385749287239
 33
0.0
  0
SOLID
  5
EF
330
E8
100
AcDbEntity
  8
치수문자_일반주서
 62
     0
100
AcDbTrace
 10
-31.06123868596885
 20
38.48890826205724
 30
0.0
 11
-31.06123868596885
 21
37.38824159539057
 31
0.0
 12
-34.36323868596885
 22
37.9385749287239
 32
0.0
 13
-34.36323868596885
 23
37.9385749287239
 33
0.0
  0
MTEXT
  5
F0
330
E8
100
AcDbEntity
  8
치수문자_일반주서
 62
     0
100
AcDbMText
 10
43.42426131403118
 20
42.3135749287239
 30
0.0
 40
3.5
 41
0.0
 71
     2
 72
     1
  1
\A1;155.58 [6 1/8]
  7
SLDTEXTSTYLE0
 73
     1
 44
1.0
  0
POINT
  5
F1
330
E8
100
AcDbEntity
  8
Defpoints
 62
     0
100
AcDbPoint
 10
121.2117613140312
 20
7.936774928723908
 30
0.0
  0
POINT
  5
F2
330
E8
100
AcDbEntity
  8
Defpoints
 62
     0
100
AcDbPoint
 10
-34.36323868596883
 20
6.351074928723897
 30
0.0
  0
POINT
  5
F3
330
E8
100
AcDbEntity
  8
Defpoints
 62
     0
100
AcDbPoint
 10
-34.36323868596883
 20
37.9385749287239
 30
0.0
  0
ENDBLK
  5
EA
330
E8
100
AcDbEntity
  8
0
100
AcDbBlockEnd
  0
BLOCK
  5
FD
330
FC
100
AcDbEntity
  8
0
100
AcDbBlockBegin
  2
_D_2
 70
     0
 10
0.0
 20
0.0
 30
0.0
  3
_D_2
  1
_D_2
  0
LINE
  5
FF
330
FC
100
AcDbEntity
  8
치수문자_일반주서
 62
     0
370
    -2
100
AcDbLine
 10
-32.83823868596883
 20
7.938574928723908
 30
0.0
 11
-49.36323868596883
 21
7.938574928723849
 31
0.0
  0
LINE
  5
100
330
FC
100
AcDbEntity
  8
치수문자_일반주서
 62
     0
370
    -2
100
AcDbLine
 10
-32.83823868596883
 20
-7.936425071276121
 30
0.0
 11
-49.36323868596877
 21
-7.936425071276176
 31
0.0
  0
LINE
  5
101
330
FC
100
AcDbEntity
  8
치수문자_일반주서
 62
     0
370
    -2
100
AcDbLine
 10
-49.36323868596883
 20
7.938574928723849
 30
0.0
 11
-49.36323868596894
 21
39.24057492872385
 31
0.0
  0
LINE
  5
102
330
FC
100
AcDbEntity
  8
치수문자_일반주서
 62
     0
370
    -2
100
AcDbLine
 10
-49.36323868596883
 20
7.938574928723849
 30
0.0
 11
-49.36323868596877
 21
-7.936425071276176
 31
0.0
  0
LINE
  5
103
330
FC
100
AcDbEntity
  8
치수문자_일반주서
 62
     0
370
    -2
100
AcDbLine
 10
-49.36323868596885
 20
11.24057492872385
 30
0.0
 11
-49.36323868596886
 21
14.54257492872385
 31
0.0
  0
LINE
  5
104
330
FC
100
AcDbEntity
  8
치수문자_일반주서
 62
     0
370
    -2
100
AcDbLine
 10
-49.36323868596876
 20
-11.23842507127618
 30
0.0
 11
-49.36323868596875
 21
-14.54042507127618
 31
0.0
  0
SOLID
  5
105
330
FC
100
AcDbEntity
  8
치수문자_일반주서
 62
     0
100
AcDbTrace
 10
-49.91357201930218
 20
11.24057492872385
 30
0.0
 11
-48.81290535263551
 21
11.24057492872385
 31
0.0
 12
-49.36323868596883
 22
7.938574928723849
 32
0.0
 13
-49.36323868596883
 23
7.938574928723849
 33
0.0
  0
SOLID
  5
106
330
FC
100
AcDbEntity
  8
치수문자_일반주서
 62
     0
100
AcDbTrace
 10
-48.81290535263543
 20
-11.23842507127617
 30
0.0
 11
-49.91357201930209
 21
-11.23842507127618
 31
0.0
 12
-49.36323868596877
 22
-7.936425071276176
 32
0.0
 13
-49.36323868596877
 23
-7.936425071276176
 33
0.0
  0
MTEXT
  5
107
330
FC
100
AcDbEntity
  8
치수문자_일반주서
 62
     0
100
AcDbMText
 10
-53.73823868596889
 20
25.24057492872383
 30
0.0
 40
3.5
 41
0.0
 71
     2
 72
     1
  1
\A1;%%c15.88 [5/8]
  7
SLDTEXTSTYLE0
 11
-3.580687802255617E-15
 21
1.0
 31
0.0
 73
     1
 44
1.0
  0
POINT
  5
1B1
330
FC
100
AcDbEntity
  8
Defpoints
 62
     0
100
AcDbPoint
 10
-32.77573868596883
 20
7.938574928723908
 30
0.0
  0
POINT
  5
1B2
330
FC
100
AcDbEntity
  8
Defpoints
 62
     0
100
AcDbPoint
 10
-32.77573868596883
 20
-7.936425071276121
 30
0.0
  0
POINT
  5
1B3
330
FC
100
AcDbEntity
  8
Defpoints
 62
     0
100
AcDbPoint
 10
-49.36323868596877
 20
-7.936425071276179
 30
0.0
  0
ENDBLK
  5
FE
330
FC
100
AcDbEntity
  8
0
100
AcDbBlockEnd
  0
BLOCK
  5
111
330
110
100
AcDbEntity
  8
0
100
AcDbBlockBegin
  2
_D_3
 70
     0
 10
0.0
 20
0.0
 30
0.0
  3
_D_3
  1
_D_3
  0
LINE
  5
113
330
110
100
AcDbEntity
  8
치수문자_일반주서
 62
     0
370
    -2
100
AcDbLine
 10
121.2742613140312
 20
-7.934625071276093
 30
0.0
 11
136.2117613140312
 21
-7.934625071276045
 31
0.0
  0
LINE
  5
114
330
110
100
AcDbEntity
  8
치수문자_일반주서
 62
     0
370
    -2
100
AcDbLine
 10
121.2742613140312
 20
7.936774928723908
 30
0.0
 11
136.2117613140312
 21
7.936774928723956
 31
0.0
  0
LINE
  5
115
330
110
100
AcDbEntity
  8
치수문자_일반주서
 62
     0
370
    -2
100
AcDbLine
 10
136.2117613140312
 20
7.936774928723956
 30
0.0
 11
136.211761314031
 21
44.02388549898002
 31
0.0
  0
LINE
  5
116
330
110
100
AcDbEntity
  8
치수문자_일반주서
 62
     0
370
    -2
100
AcDbLine
 10
136.2117613140312
 20
-7.934625071276045
 30
0.0
 11
136.2117613140312
 21
7.936774928723956
 31
0.0
  0
LINE
  5
117
330
110
100
AcDbEntity
  8
치수문자_일반주서
 62
     0
370
    -2
100
AcDbLine
 10
136.2117613140312
 20
-11.23662507127604
 30
0.0
 11
136.2117613140312
 21
-14.53862507127604
 31
0.0
  0
LINE
  5
118
330
110
100
AcDbEntity
  8
치수문자_일반주서
 62
     0
370
    -2
100
AcDbLine
 10
136.2117613140312
 20
11.23877492872396
 30
0.0
 11
136.2117613140312
 21
14.54077492872396
 31
0.0
  0
SOLID
  5
119
330
110
100
AcDbEntity
  8
치수문자_일반주서
 62
     0
100
AcDbTrace
 10
136.7620946473645
 20
-11.23662507127604
 30
0.0
 11
135.6614279806979
 21
-11.23662507127605
 31
0.0
 12
136.2117613140312
 22
-7.934625071276045
 32
0.0
 13
136.2117613140312
 23
-7.934625071276045
 33
0.0
  0
SOLID
  5
11A
330
110
100
AcDbEntity
  8
치수문자_일반주서
 62
     0
100
AcDbTrace
 10
135.6614279806978
 20
11.23877492872395
 30
0.0
 11
136.7620946473645
 21
11.23877492872396
 31
0.0
 12
136.2117613140312
 22
7.936774928723956
 32
0.0
 13
136.2117613140312
 23
7.936774928723956
 33
0.0
  0
MTEXT
  5
11B
330
110
100
AcDbEntity
  8
치수문자_일반주서
 62
     0
100
AcDbMText
 10
131.8367613140311
 20
30.02388549898
 30
0.0
 40
3.5
 41
0.0
 71
     2
 72
     1
  1
\A1;%%c15.87 [5/8]
  7
SLDTEXTSTYLE0
 11
-3.581499984929370E-15
 21
1.0
 31
0.0
 73
     1
 44
1.0
  0
POINT
  5
11C
330
110
100
AcDbEntity
  8
Defpoints
 62
     0
100
AcDbPoint
 10
121.2117613140312
 20
-7.934625071276093
 30
0.0
  0
POINT
  5
1B4
330
110
100
AcDbEntity
  8
Defpoints
 62
     0
100
AcDbPoint
 10
121.2117613140312
 20
7.936774928723908
 30
0.0
  0
POINT
  5
1B5
330
110
100
AcDbEntity
  8
Defpoints
 62
     0
100
AcDbPoint
 10
136.2117613140312
 20
7.936774928723961
 30
0.0
  0
ENDBLK
  5
112
330
110
100
AcDbEntity
  8
0
100
AcDbBlockEnd
  0
BLOCK
  5
12A
330
129
100
AcDbEntity
  8
0
100
AcDbBlockBegin
  2
SW_DOWELSYMBOL_0
 70
     0
 10
0.0
 20
0.0
 30
0.0
  3
SW_DOWELSYMBOL_0
  1
SW_DOWELSYMBOL_0
  0
CIRCLE
  5
12C
330
129
100
AcDbEntity
  8
해칭선
 62
     0
100
AcDbCircle
 10
0.0
 20
0.0
 30
0.0
 40
3.000000000000001
  0
HATCH
  5
12D
330
129
100
AcDbEntity
  8
0
  6
Continuous
 62
     0
370
     0
100
AcDbHatch
 10
0.0
 20
0.0
 30
0.0
210
0.0
220
0.0
230
1.0
  2
SOLID
 70
     1
 71
     0
 91
        1
 92
        0
 93
        3
 72
     2
 10
0.0
 20
0.0
 40
3.000000000000001
 50
0.0
 51
90.0
 73
     1
 72
     1
 10
0.0
 20
3.000000000000001
 11
0.0
 21
0.0
 72
     1
 10
0.0
 20
0.0
 11
3.000000000000001
 21
0.0
 97
        0
 75
     0
 76
     1
 98
        1
 10
0.0
 20
0.0
  0
HATCH
  5
12E
330
129
100
AcDbEntity
  8
0
  6
Continuous
 62
     0
370
     0
100
AcDbHatch
 10
0.0
 20
0.0
 30
0.0
210
0.0
220
0.0
230
1.0
  2
SOLID
 70
     1
 71
     0
 91
        1
 92
        0
 93
        3
 72
     2
 10
0.0
 20
0.0
 40
3.000000000000001
 50
180.0
 51
270.0000000000007
 73
     1
 72
     1
 10
0.0
 20
-3.000000000000001
 11
0.0
 21
0.0
 72
     1
 10
0.0
 20
0.0
 11
-3.000000000000001
 21
0.0
 97
        0
 75
     0
 76
     1
 98
        1
 10
0.0
 20
0.0
  0
ENDBLK
  5
12B
330
129
100
AcDbEntity
  8
0
100
AcDbBlockEnd
  0
BLOCK
  5
18C
330
18B
100
AcDbEntity
  8
0
100
AcDbBlockBegin
  2
*D7
 70
     1
 10
0.0
 20
0.0
 30
0.0
  3
*D7
  1
*D7
  0
LINE
  5
18E
330
18B
100
AcDbEntity
  8
치수문자_일반주서
 62
     0
370
    -2
100
AcDbLine
 10
76.20000000000002
 20
11.92946899703016
 30
0.0
 11
76.20000000000002
 21
22.28573606933811
 31
0.0
  0
LINE
  5
18F
330
18B
100
AcDbEntity
  8
치수문자_일반주서
 62
     0
370
    -2
100
AcDbLine
 10
0.0
 20
11.94934610869505
 30
0.0
 11
0.0
 21
22.28573606933811
 31
0.0
  0
LINE
  5
190
330
18B
100
AcDbEntity
  8
치수문자_일반주서
 62
     0
370
    -2
100
AcDbLine
 10
72.89800000000002
 20
22.28573606933811
 30
0.0
 11
3.302
 21
22.28573606933811
 31
0.0
  0
SOLID
  5
191
330
18B
100
AcDbEntity
  8
치수문자_일반주서
 62
     0
100
AcDbTrace
 10
72.89800000000002
 20
21.73540273600477
 30
0.0
 11
72.89800000000002
 21
22.83606940267144
 31
0.0
 12
76.20000000000002
 22
22.28573606933811
 32
0.0
 13
76.20000000000002
 23
22.28573606933811
 33
0.0
  0
SOLID
  5
192
330
18B
100
AcDbEntity
  8
치수문자_일반주서
 62
     0
100
AcDbTrace
 10
3.302
 20
22.83606940267144
 30
0.0
 11
3.302
 21
21.73540273600477
 31
0.0
 12
0.0
 22
22.28573606933811
 32
0.0
 13
0.0
 23
22.28573606933811
 33
0.0
  0
MTEXT
  5
193
330
18B
100
AcDbEntity
  8
치수문자_일반주서
 62
     0
100
AcDbMText
 10
38.10000000000001
 20
26.66073606933811
 30
0.0
 40
3.5
 41
0.0
 71
     2
 72
     1
  1
\A1;76.20 [3]
  7
SLDTEXTSTYLE0
 73
     1
 44
1.0
  0
POINT
  5
194
330
18B
100
AcDbEntity
  8
Defpoints
 62
     0
100
AcDbPoint
 10
76.20000000000002
 20
11.86696899703016
 30
0.0
  0
POINT
  5
195
330
18B
100
AcDbEntity
  8
Defpoints
 62
     0
100
AcDbPoint
 10
0.0
 20
11.88684610869505
 30
0.0
  0
POINT
  5
196
330
18B
100
AcDbEntity
  8
Defpoints
 62
     0
100
AcDbPoint
 10
0.0
 20
22.28573606933811
 30
0.0
  0
ENDBLK
  5
18D
330
18B
100
AcDbEntity
  8
0
100
AcDbBlockEnd
  0
BLOCK
  5
19B
330
19A
100
AcDbEntity
  8
0
100
AcDbBlockBegin
  2
*D8
 70
     1
 10
0.0
 20
0.0
 30
0.0
  3
*D8
  1
*D8
  0
LINE
  5
19D
330
19A
100
AcDbEntity
  8
치수문자_일반주서
 62
     0
370
    -2
100
AcDbLine
 10
206.7455723121513
 20
-44.75703391112117
 30
0.0
 11
206.7455723121513
 21
-34.40076683881322
 31
0.0
  0
LINE
  5
19E
330
19A
100
AcDbEntity
  8
치수문자_일반주서
 62
     0
370
    -2
100
AcDbLine
 10
130.5455723121513
 20
-44.73715679945627
 30
0.0
 11
130.5455723121513
 21
-34.40076683881322
 31
0.0
  0
LINE
  5
19F
330
19A
100
AcDbEntity
  8
치수문자_일반주서
 62
     0
370
    -2
100
AcDbLine
 10
203.4435723121513
 20
-34.40076683881322
 30
0.0
 11
133.8475723121513
 21
-34.40076683881322
 31
0.0
  0
SOLID
  5
1A0
330
19A
100
AcDbEntity
  8
치수문자_일반주서
 62
     0
100
AcDbTrace
 10
203.4435723121513
 20
-34.95110017214655
 30
0.0
 11
203.4435723121513
 21
-33.85043350547988
 31
0.0
 12
206.7455723121513
 22
-34.40076683881322
 32
0.0
 13
206.7455723121513
 23
-34.40076683881322
 33
0.0
  0
SOLID
  5
1A1
330
19A
100
AcDbEntity
  8
치수문자_일반주서
 62
     0
100
AcDbTrace
 10
133.8475723121513
 20
-33.85043350547988
 30
0.0
 11
133.8475723121513
 21
-34.95110017214655
 31
0.0
 12
130.5455723121513
 22
-34.40076683881322
 32
0.0
 13
130.5455723121513
 23
-34.40076683881322
 33
0.0
  0
MTEXT
  5
1A2
330
19A
100
AcDbEntity
  8
치수문자_일반주서
 62
     0
100
AcDbMText
 10
168.6455723121513
 20
-30.02576683881322
 30
0.0
 40
3.5
 41
0.0
 71
     2
 72
     1
  1
\A1;76.20 [3]
  7
SLDTEXTSTYLE0
 73
     1
 44
1.0
  0
POINT
  5
1A3
330
19A
100
AcDbEntity
  8
Defpoints
 62
     0
100
AcDbPoint
 10
206.7455723121513
 20
-44.81953391112117
 30
0.0
  0
POINT
  5
1A4
330
19A
100
AcDbEntity
  8
Defpoints
 62
     0
100
AcDbPoint
 10
130.5455723121513
 20
-44.79965679945627
 30
0.0
  0
POINT
  5
1A5
330
19A
100
AcDbEntity
  8
Defpoints
 62
     0
100
AcDbPoint
 10
130.5455723121513
 20
-34.40076683881322
 30
0.0
  0
ENDBLK
  5
19C
330
19A
100
AcDbEntity
  8
0
100
AcDbBlockEnd
  0
ENDSEC
  0
SECTION
  2
ENTITIES
  0
LINE
  5
96
330
1F
100
AcDbEntity
  8
0
  6
Continuous
 62
     1
370
    15
100
AcDbLine
 10
31.91728402037998
 20
2.330028537777281
 30
0.0
 11
31.82090797291874
 21
2.382205549377407
 31
0.0
1001
PE_URL
1000

  0
LINE
  5
97
330
1F
100
AcDbEntity
  8
0
  6
Continuous
 62
     1
370
    15
100
AcDbLine
 10
57.60584340219754
 20
-7.936425071276114
 30
0.0
 11
62.44347770871525
 21
-7.936425071276114
 31
0.0
1001
PE_URL
1000

  0
LINE
  5
98
330
1F
100
AcDbEntity
  8
0
  6
Continuous
 62
     1
370
    15
100
AcDbLine
 10
105.6360208540285
 20
7.9385749287239
 30
0.0
 11
100.7970231982571
 21
7.9385749287239
 31
0.0
1001
PE_URL
1000

  0
LINE
  5
99
330
1F
100
AcDbEntity
  8
0
  6
Continuous
 62
     1
370
    15
100
AcDbLine
 10
36.0096330702677
 20
-7.936425071276114
 30
0.0
 11
40.84965026299253
 21
-7.936425071276114
 31
0.0
1001
PE_URL
1000

  0
LINE
  5
9A
330
1F
100
AcDbEntity
  8
0
  6
Continuous
 62
     1
370
    15
100
AcDbLine
 10
84.04017852616474
 20
7.9385749287239
 30
0.0
 11
79.19830055068327
 21
7.9385749287239
 31
0.0
1001
PE_URL
1000

  0
LINE
  5
9B
330
1F
100
AcDbEntity
  8
0
  6
Continuous
 62
     1
370
    15
100
AcDbLine
 10
100.797023198257
 20
-7.936425071276114
 30
0.0
 11
105.6360208540285
 21
-7.936425071276114
 31
0.0
1001
PE_URL
1000

  0
LINE
  5
9C
330
1F
100
AcDbEntity
  8
0
  6
Continuous
 62
     1
370
    15
100
AcDbLine
 10
62.44347770871522
 20
7.9385749287239
 30
0.0
 11
57.60584340219743
 21
7.9385749287239
 31
0.0
1001
PE_URL
1000

  0
LINE
  5
9D
330
1F
100
AcDbEntity
  8
0
  6
Continuous
 62
     1
370
    15
100
AcDbLine
 10
79.19830055068323
 20
-7.936425071276114
 30
0.0
 11
84.04017852616471
 21
-7.936425071276114
 31
0.0
1001
PE_URL
1000

  0
LINE
  5
9E
330
1F
100
AcDbEntity
  8
0
  6
Continuous
 62
     1
370
    15
100
AcDbLine
 10
40.84965026299239
 20
7.9385749287239
 30
0.0
 11
36.00963307026771
 21
7.9385749287239
 31
0.0
1001
PE_URL
1000

  0
LINE
  5
9F
330
1F
100
AcDbEntity
  8
외형선
  6
Continuous
370
    15
100
AcDbLine
 10
-32.77573868596883
 20
-7.936425071276107
 30
0.0
 11
19.25238042517047
 21
-7.936425071276107
 31
0.0
  0
LINE
  5
A0
330
1F
100
AcDbEntity
  8
외형선
  6
Continuous
370
    15
100
AcDbLine
 10
19.25238042517046
 20
7.938574928723893
 30
0.0
 11
-3.410163685968897
 21
7.938574928723893
 31
0.0
  0
LINE
  5
A1
330
1F
100
AcDbEntity
  8
외형선
  6
Continuous
370
    15
100
AcDbLine
 10
-32.77573868596883
 20
7.938574928723892
 30
0.0
 11
-34.36323868596883
 21
6.351074928723897
 31
0.0
  0
LINE
  5
A2
330
1F
100
AcDbEntity
  8
외형선
  6
Continuous
370
    15
100
AcDbLine
 10
-34.36323868596883
 20
-6.34892507127611
 30
0.0
 11
-32.77573868596883
 21
-7.936425071276105
 31
0.0
  0
SPLINE
  5
A3
330
1F
100
AcDbEntity
  8
0
  6
Continuous
 62
     1
370
    15
100
AcDbSpline
210
0.0
220
0.0
230
1.0
 70
     8
 71
     3
 72
    26
 73
    22
 74
     0
 42
0.000000001
 43
0.00000001
 40
0.0
 40
0.0
 40
0.0
 40
0.0
 40
0.0200891070749792
 40
0.0734768810567606
 40
0.1289215502835151
 40
0.184364524110841
 40
0.2398052841377478
 40
0.2952433133971245
 40
0.3506780966884791
 40
0.4051234419567419
 40
0.4595669850810036
 40
0.5140112732905517
 40
0.5684573888283894
 40
0.6238931790725408
 40
0.6793320641281392
 40
0.7347735282413025
 40
0.7902170539890496
 40
0.8456621226126684
 40
0.9001171876370939
 40
0.9545725618748007
 40
1.0
 40
1.0
 40
1.0
 40
1.0
 10
40.84965026299241
 20
7.901268494743968
 30
0.0
 10
41.19493813974059
 20
7.910950558103945
 30
0.0
 10
42.4578452543015
 20
7.946363173270455
 30
0.0
 10
44.67368222339843
 20
7.673279107272267
 30
0.0
 10
47.49737890297766
 20
7.082993570277591
 30
0.0
 10
50.35628346208767
 20
6.158526536040712
 30
0.0
 10
53.21506841273524
 20
4.974597173214143
 30
0.0
 10
56.0736780840199
 20
3.574878840361592
 30
0.0
 10
58.9151532920093
 20
2.030821651394454
 30
0.0
 10
61.73947196732758
 20
0.410774410336832
 30
0.0
 10
64.5467508815014
 20
-1.216572422710138
 30
0.0
 10
67.35405650589522
 20
-2.793305915710096
 30
0.0
 10
70.17842418366878
 20
-4.262729025814561
 30
0.0
 10
73.01995650367238
 20
-5.560480812261888
 30
0.0
 10
75.8786191627161
 20
-6.626331489173378
 30
0.0
 10
78.73744591569488
 20
-7.406834963269026
 30
0.0
 10
81.59639157925403
 20
-7.867620633633225
 30
0.0
 10
84.43842821349664
 20
-7.990754227017796
 30
0.0
 10
87.26338130703394
 20
-7.768238003025699
 30
0.0
 10
89.91617954576304
 20
-7.281212423545345
 30
0.0
 10
91.63298715105888
 20
-6.737093159812765
 30
0.0
 10
92.41380388436315
 20
-6.489623714357699
 30
0.0
1001
PE_URL
1000

  0
SPLINE
  5
A4
330
1F
100
AcDbEntity
  8
0
  6
Continuous
 62
     1
370
    15
100
AcDbSpline
210
0.0
220
0.0
230
1.0
 70
     8
 71
     3
 72
    26
 73
    22
 74
     0
 42
0.000000001
 43
0.00000001
 40
0.0
 40
0.0
 40
0.0
 40
0.0
 40
0.0446295846434789
 40
0.0990746025777608
 40
0.1545107458525759
 40
0.2099467605354566
 40
0.2653821260332724
 40
0.3208163221742449
 40
0.3762488295452346
 40
0.4306903404718554
 40
0.4851306697024071
 40
0.5395696552666076
 40
0.5940071355948495
 40
0.6494288291367782
 40
0.7048474713156763
 40
0.7602691178440377
 40
0.8156943784858971
 40
0.8711227396110561
 40
0.9255641675933887
 40
0.9800066271259679
 40
1.0
 40
1.0
 40
1.0
 40
1.0
 10
100.797023198257
 20
-7.912009678074829
 30
0.0
 10
100.0297753557874
 20
-7.900395989169763
 30
0.0
 10
98.3265380149391
 20
-7.874614400075383
 30
0.0
 10
95.67029369429473
 20
-7.437620858809637
 30
0.0
 10
92.82815828780713
 20
-6.690095351408328
 30
0.0
 10
89.96902851809999
 20
-5.640009889107617
 30
0.0
 10
87.10992931519849
 20
-4.349498244061079
 30
0.0
 10
84.25091049682905
 20
-2.870852296619088
 30
0.0
 10
81.40897267728134
 20
-1.278192845996972
 30
0.0
 10
78.58422377903882
 20
0.3585089828469532
 30
0.0
 10
75.77654318865929
 20
1.970468210249757
 30
0.0
 10
72.96894970791126
 20
3.50056866445659
 30
0.0
 10
70.14450890455014
 20
4.893540924078543
 30
0.0
 10
67.30320870756056
 20
6.087649174821359
 30
0.0
 10
64.44505536794898
 20
7.026605880275653
 30
0.0
 10
61.58678486526367
 20
7.663237515669808
 30
0.0
 10
58.72831926546293
 20
7.968512641094438
 30
0.0
 10
55.88664960722132
 20
7.935567860318043
 30
0.0
 10
53.06193284016538
 20
7.550448137480283
 30
0.0
 10
50.84636253583773
 20
7.052455918623473
 30
0.0
 10
49.56670929741058
 20
6.599069930675055
 30
0.0
 10
49.22299601419535
 20
6.477291012916771
 30
0.0
1001
PE_URL
1000

  0
LINE
  5
A5
330
1F
100
AcDbEntity
  8
0
  6
Continuous
 62
     1
370
    15
100
AcDbLine
 10
121.2117613140312
 20
-7.187770780993592
 30
0.0
 11
121.2117613140312
 21
0.6811706384414707
 31
0.0
1001
PE_URL
1000

  0
SPLINE
  5
A6
330
1F
100
AcDbEntity
  8
0
  6
Continuous
 62
     1
370
    15
100
AcDbSpline
210
0.0
220
0.0
230
1.0
 70
     8
 71
     3
 72
    18
 73
    14
 74
     0
 42
0.000000001
 43
0.00000001
 40
0.0
 40
0.0
 40
0.0
 40
0.0
 40
0.0946597606493968
 40
0.1893201599000956
 40
0.2839809503394833
 40
0.3786418844482751
 40
0.4733027146680103
 40
0.5662712522966404
 40
0.6592396625028706
 40
0.7522079113480663
 40
0.8451759649052755
 40
0.9417258412850934
 40
1.0
 40
1.0
 40
1.0
 40
1.0
 10
19.61176131403118
 20
-0.2062766100046869
 30
0.0
 10
20.54609571187732
 20
-0.7446673201978122
 30
0.0
 10
22.41477081085159
 20
-1.821452372718839
 30
0.0
 10
25.21779514979588
 20
-3.358835529410056
 30
0.0
 10
28.0208350461566
 20
-4.757665086762731
 30
0.0
 10
30.8238725162855
 20
-5.959239265425362
 30
0.0
 10
33.61023436207552
 20
-6.908223092943233
 30
0.0
 10
36.37978389935141
 20
-7.571275943127037
 30
0.0
 10
39.13265076620315
 20
-7.92692448237773
 30
0.0
 10
41.88551927044
 20
-7.968897093351553
 30
0.0
 10
44.67368235667305
 20
-7.677087793989662
 30
0.0
 10
47.11959817051933
 20
-7.182416965405903
 30
0.0
 10
48.64779761578729
 20
-6.66855388256276
 30
0.0
 10
49.22299601419545
 20
-6.475141155468985
 30
0.0
1001
PE_URL
1000

  0
SPLINE
  5
A7
330
1F
100
AcDbEntity
  8
0
  6
Continuous
 62
     1
370
    15
100
AcDbSpline
210
0.0
220
0.0
230
1.0
 70
     8
 71
     3
 72
    21
 73
    17
 74
     0
 42
0.000000001
 43
0.00000001
 40
0.0
 40
0.0
 40
0.0
 40
0.0
 40
0.0111709063626062
 40
0.086710906085522
 40
0.1622513347487239
 40
0.2377919656587126
 40
0.313332572061447
 40
0.3902475312574764
 40
0.4671612243856823
 40
0.5440729302021339
 40
0.6209819287517869
 40
0.6978875018339903
 40
0.7734190548538687
 40
0.8489484710420123
 40
0.9244755269921175
 40
1.0
 40
1.0
 40
1.0
 40
1.0
 10
84.04017852616475
 20
7.917317884406295
 30
0.0
 10
84.17859530265211
 20
7.924140967630472
 30
0.0
 10
85.25301520351454
 20
7.977103163307435
 30
0.0
 10
87.26337894491093
 20
7.755122319546414
 30
0.0
 10
90.07135591157899
 20
7.242330363771298
 30
0.0
 10
92.87933799113284
 20
6.396516628456241
 30
0.0
 10
95.70432514431299
 20
5.286760097580071
 30
0.0
 10
98.54643298303878
 20
3.943313905813814
 30
0.0
 10
101.4054899955905
 20
2.422587994545777
 30
0.0
 10
104.2644676385663
 20
0.7974087169481647
 30
0.0
 10
107.1233181936214
 20
-0.8621202577559162
 30
0.0
 10
109.9650585245093
 20
-2.474406853333287
 30
0.0
 10
112.7896177270815
 20
-3.973678469286843
 30
0.0
 10
115.5970997509885
 20
-5.29298619156949
 30
0.0
 10
118.4044728907022
 20
-6.413701254346858
 30
0.0
 10
120.2760091738509
 20
-6.929750546881324
 30
0.0
 10
121.2117613140312
 20
-7.187770780993593
 30
0.0
1001
PE_URL
1000

  0
SPLINE
  5
A8
330
1F
100
AcDbEntity
  8
외형선
  6
Continuous
370
    15
100
AcDbSpline
210
0.0
220
0.0
230
1.0
 70
    24
 71
     3
 72
    21
 73
    17
 74
     0
 42
0.000000001
 43
0.00000001
 40
0.0
 40
0.0
 40
0.0
 40
0.0
 40
0.079396844642269
 40
0.1541255514285877
 40
0.2310213957741881
 40
0.3057501025605041
 40
0.3826459469061054
 40
0.4573746536924216
 40
0.5342704980380235
 40
0.6089992048243406
 40
0.6858950491699419
 40
0.7606237559562582
 40
0.8375196003018597
 40
0.9122483070881668
 40
0.9891441514337789
 40
1.0
 40
1.0
 40
1.0
 40
1.0
 10
19.61176131403118
 20
7.377779576752395
 30
0.0
 10
19.61176131403114
 20
7.151164295931008
 30
0.0
 10
19.61176131403106
 20
6.711257580795053
 30
0.0
 10
19.61176131403121
 20
5.959695150758798
 30
0.0
 10
19.61176131403109
 20
5.184304943668105
 30
0.0
 10
19.61176131403124
 20
4.377019596566777
 30
0.0
 10
19.61176131403108
 20
3.577335998046472
 30
0.0
 10
19.61176131403118
 20
2.792933357725026
 30
0.0
 10
19.6117613140311
 20
2.06026219101396
 30
0.0
 10
19.61176131403121
 20
1.386914837528556
 30
0.0
 10
19.61176131403118
 20
0.8037758056815987
 30
0.0
 10
19.61176131403114
 20
0.3179911396120492
 30
0.0
 10
19.6117613140312
 20
-0.0521868070608168
 30
0.0
 10
19.61176131403112
 20
-0.2870796087692078
 30
0.0
 10
19.61176131403111
 20
-0.393188943432893
 30
0.0
 10
19.61176131403115
 20
-0.3813811205279003
 30
0.0
 10
19.61176131403115
 20
-0.3799203630986147
 30
0.0
  0
SPLINE
  5
A9
330
1F
100
AcDbEntity
  8
0
  6
Continuous
 62
     1
370
    15
100
AcDbSpline
210
0.0
220
0.0
230
1.0
 70
     8
 71
     3
 72
    18
 73
    14
 74
     0
 42
0.000000001
 43
0.00000001
 40
0.0
 40
0.0
 40
0.0
 40
0.0
 40
0.0992509300355003
 40
0.1985087854097577
 40
0.2977726482535748
 40
0.3970415968182573
 40
0.4963147060659383
 40
0.59381740222695
 40
0.69132129980248
 40
0.7888261066678443
 40
0.8863315304263129
 40
0.9856119576652305
 40
1.0
 40
1.0
 40
1.0
 40
1.0
 10
121.2117613140312
 20
0.681170638441472
 30
0.0
 10
120.2590530871325
 20
1.226436740198611
 30
0.0
 10
118.3535701571096
 20
2.317006990232615
 30
0.0
 10
115.4952034212596
 20
3.84521172283451
 30
0.0
 10
112.6366304645112
 20
5.209947512907355
 30
0.0
 10
109.7778881750446
 20
6.349774984953006
 30
0.0
 10
106.9360015226494
 20
7.210951033188865
 30
0.0
 10
104.1111388899056
 20
7.763033117626662
 30
0.0
 10
101.3032222732297
 20
7.987374092923259
 30
0.0
 10
98.49527218993568
 20
7.886528538784276
 30
0.0
 10
95.6702947787229
 20
7.429898971048658
 30
0.0
 10
93.6430919838391
 20
6.945906561620365
 30
0.0
 10
92.5519229768896
 20
6.54279858088697
 30
0.0
 10
92.41380388436323
 20
6.491773571805488
 30
0.0
1001
PE_URL
1000

  0
SPLINE
  5
AA
330
1F
100
AcDbEntity
  8
0
  6
Continuous
 62
     1
370
    15
100
AcDbSpline
210
0.0
220
0.0
230
1.0
 70
     8
 71
     3
 72
    21
 73
    17
 74
     0
 42
0.000000001
 43
0.00000001
 40
0.0
 40
0.0
 40
0.0
 40
0.0
 40
0.0456950259855235
 40
0.1195947936566867
 40
0.1934959615725972
 40
0.2673983090085556
 40
0.3413016148873313
 40
0.4150759321442247
 40
0.4888507282611251
 40
0.5626258104034957
 40
0.6364009856588029
 40
0.7101760610891231
 40
0.7826322287459379
 40
0.855088292081056
 40
0.92754422464556
 40
1.0
 40
1.0
 40
1.0
 40
1.0
 10
57.60584340219754
 20
-7.895544051812843
 30
0.0
 10
57.02712528428538
 20
-7.899413031572388
 30
0.0
 10
55.51248178853555
 20
-7.909539075403748
 30
0.0
 10
53.06193297985858
 20
-7.550249479634018
 30
0.0
 10
50.25412129605437
 20
-6.87857632497871
 30
0.0
 10
47.44626128968984
 20
-5.906520847101034
 30
0.0
 10
44.63999657230467
 20
-4.693488068688419
 30
0.0
 10
41.83535208272382
 20
-3.285426985130389
 30
0.0
 10
39.03232573679279
 20
-1.742328093291777
 30
0.0
 10
36.22928501139676
 20
-0.1269705554910801
 30
0.0
 10
33.42624754414957
 20
1.493785113843867
 30
0.0
 10
30.63988609629602
 20
3.043007649209342
 30
0.0
 10
27.8703382207412
 20
4.460731175310073
 30
0.0
 10
25.11746923280831
 20
5.686035971755967
 30
0.0
 10
22.36461360279874
 20
6.705342314250752
 30
0.0
 10
20.52937807995763
 20
7.153633984697604
 30
0.0
 10
19.61176131403116
 20
7.377779576752404
 30
0.0
1001
PE_URL
1000

  0
LINE
  5
AB
330
1F
100
AcDbEntity
  8
0
  6
Continuous
 62
     1
370
    15
100
AcDbLine
 10
121.2117613140312
 20
3.35523266039275
 30
0.0
 11
121.2117613140312
 21
7.936774928723908
 31
0.0
1001
PE_URL
1000

  0
SPLINE
  5
AC
330
1F
100
AcDbEntity
  8
0
  6
Continuous
 62
     1
370
    15
100
AcDbSpline
210
0.0
220
0.0
230
1.0
 70
     8
 71
     3
 72
    26
 73
    22
 74
     0
 42
0.000000001
 43
0.00000001
 40
0.0
 40
0.0
 40
0.0
 40
0.0
 40
0.0547340389916412
 40
0.1094684472344651
 40
0.1642030816698844
 40
0.2189377991776325
 40
0.2736724566147907
 40
0.3274285989148794
 40
0.38118466753696
 40
0.4349406428570811
 40
0.4886965052580463
 40
0.5445234444152686
 40
0.6003486764839272
 40
0.656171679488854
 40
0.711991932898646
 40
0.7678089179606996
 40
0.8226296432003871
 40
0.8774485538709752
 40
0.93226821476393
 40
0.9870897155839083
 40
1.0
 40
1.0
 40
1.0
 40
1.0
 10
19.61176131403118
 20
7.935866141439388
 30
0.0
 10
20.5460957118856
 20
7.889929895486396
 30
0.0
 10
22.41477081087644
 20
7.79805709368161
 30
0.0
 10
25.21779514969645
 20
7.249230927147831
 30
0.0
 10
28.02083504652944
 20
6.423779979466875
 30
0.0
 10
30.82387251489355
 20
5.325974032828335
 30
0.0
 10
33.61023436723126
 20
4.017150024212453
 30
0.0
 10
36.37978388049233
 20
2.553140282763371
 30
0.0
 10
39.13265083662839
 20
0.9961092635610315
 30
0.0
 10
41.88551900759874
 20
-0.6007130507791292
 30
0.0
 10
44.67368335358407
 20
-2.193680806475525
 30
0.0
 10
47.49737859508301
 20
-3.715985789716151
 30
0.0
 10
50.35628354550717
 20
-5.097188740314297
 30
0.0
 10
53.21506838693656
 20
-6.258751559781698
 30
0.0
 10
56.07367810379927
 20
-7.150491761128164
 30
0.0
 10
58.91515323912657
 20
-7.73109946000216
 30
0.0
 10
61.73947215549443
 20
-7.980284604371971
 30
0.0
 10
64.5467501802865
 20
-7.902206582631936
 30
0.0
 10
67.35405912267379
 20
-7.473551199072648
 30
0.0
 10
69.4459881229004
 20
-6.984165143919676
 30
0.0
 10
70.60218865978898
 20
-6.563238294332963
 30
0.0
 10
70.8225708292718
 20
-6.483005869813315
 30
0.0
1001
PE_URL
1000

  0
SPLINE
  5
AD
330
1F
100
AcDbEntity
  8
0
  6
Continuous
 62
     1
370
    15
100
AcDbSpline
210
0.0
220
0.0
230
1.0
 70
     8
 71
     3
 72
    13
 73
     9
 74
     0
 42
0.000000001
 43
0.00000001
 40
0.0
 40
0.0
 40
0.0
 40
0.0
 40
0.095487856283756
 40
0.2790200676720488
 40
0.4592732326866695
 40
0.639521298234009
 40
0.8197637311634612
 40
1.0
 40
1.0
 40
1.0
 40
1.0
 10
105.6360208540285
 20
7.895782553549187
 30
0.0
 10
106.1318005979281
 20
7.903378597462988
 30
0.0
 10
107.5804926418906
 20
7.925574599859052
 30
0.0
 10
109.9650579656252
 20
7.591189650418913
 30
0.0
 10
112.789617875636
 20
6.93939252275385
 30
0.0
 10
115.5970997113758
 20
5.983675074548457
 30
0.0
 10
118.4044729006049
 20
4.793855794447886
 30
0.0
 10
120.2760091771517
 20
3.84211320811947
 30
0.0
 10
121.2117613140312
 20
3.366250052231754
 30
0.0
1001
PE_URL
1000

  0
SPLINE
  5
AE
330
1F
100
AcDbEntity
  8
0
  6
Continuous
 62
     1
370
    15
100
AcDbSpline
210
0.0
220
0.0
230
1.0
 70
     8
 71
     3
 72
    10
 73
     6
 74
     0
 42
0.000000001
 43
0.00000001
 40
0.0
 40
0.0
 40
0.0
 40
0.0
 40
0.3972548129290309
 40
0.7945373447333555
 40
1.0
 40
1.0
 40
1.0
 40
1.0
 10
121.2117613140312
 20
7.936774928723908
 30
0.0
 10
120.2590528127042
 20
7.826559172788699
 30
0.0
 10
118.3535693338057
 20
7.660900741111527
 30
0.0
 10
115.9553000913796
 20
7.139027737191832
 30
0.0
 10
114.5097345093903
 20
6.644286181778447
 30
0.0
 10
114.0169728097392
 20
6.475639603047629
 30
0.0
1001
PE_URL
1000

  0
SPLINE
  5
AF
330
1F
100
AcDbEntity
  8
0
  6
Continuous
 62
     1
370
    15
100
AcDbSpline
210
0.0
220
0.0
230
1.0
 70
     8
 71
     3
 72
    27
 73
    23
 74
     0
 42
0.000000001
 43
0.00000001
 40
0.0
 40
0.0
 40
0.0
 40
0.0
 40
0.0119062700737125
 40
0.0663423198616348
 40
0.1207770260888286
 40
0.1752102271983873
 40
0.2306275641546507
 40
0.2860418499877448
 40
0.3414591399341366
 40
0.3968800437099282
 40
0.4523040477252968
 40
0.5067411961786292
 40
0.5611793761011202
 40
0.6156184248992516
 40
0.670058179719818
 40
0.7244029170189565
 40
0.778748007063092
 40
0.8330933078035726
 40
0.8874386771342927
 40
0.9417839729304429
 40
0.9951577152220942
 40
0.9999999999999999
 40
0.9999999999999999
 40
0.9999999999999999
 40
0.9999999999999999
 10
79.19830055068324
 20
-7.908187284095342
 30
0.0
 10
78.99360081419893
 20
-7.916871853382369
 30
0.0
 10
77.85300385903514
 20
-7.965262698704505
 30
0.0
 10
75.77654490062118
 20
-7.727946180497178
 30
0.0
 10
72.96894924945941
 20
-7.189648327664928
 30
0.0
 10
70.14450902996242
 20
-6.319502806817762
 30
0.0
 10
67.30320867333509
 20
-5.183117699482513
 30
0.0
 10
64.44505537849601
 20
-3.814527938702596
 30
0.0
 10
61.58678485730139
 20
-2.282156706383303
 30
0.0
 10
58.72831928676606
 20
-0.6512494322489731
 30
0.0
 10
55.88664953055216
 20
0.9978936734718772
 30
0.0
 10
53.06193312005431
 20
2.594694785440423
 30
0.0
 10
50.25412125857913
 20
4.074120189809084
 30
0.0
 10
47.44626129939169
 20
5.384248104441779
 30
0.0
 10
44.63999657097975
 20
6.47003418868827
 30
0.0
 10
41.83535207835042
 20
7.286691678596735
 30
0.0
 10
39.03232575561333
 20
7.801621701149487
 30
0.0
 10
36.22928494048777
 20
7.991511100226813
 30
0.0
 10
33.42624780896507
 20
7.857673364112248
 30
0.0
 10
30.63988511541226
 20
7.374289840427746
 30
0.0
 10
28.70470461683236
 20
6.898668502740522
 30
0.0
 10
27.7038314305454
 20
6.527063683906113
 30
0.0
 10
27.6205809368492
 20
6.496154388850847
 30
0.0
1001
PE_URL
1000

  0
SPLINE
  5
B0
330
1F
100
AcDbEntity
  8
0
  6
Continuous
 62
     1
370
    15
100
AcDbSpline
210
0.0
220
0.0
230
1.0
 70
     8
 71
     3
 72
    10
 73
     6
 74
     0
 42
0.000000001
 43
0.00000001
 40
0.0
 40
0.0
 40
0.0
 40
0.0
 40
0.3499900431806132
 40
0.6999824474922471
 40
1.0
 40
1.0
 40
1.0
 40
1.0
 10
19.61176131403118
 20
-7.933716283991601
 30
0.0
 10
20.54609568964793
 20
-7.886371483867094
 30
0.0
 10
22.41477074416324
 20
-7.791681564216774
 30
0.0
 10
25.08437831272335
 20
-7.289101034322219
 30
0.0
 10
26.81965117799109
 20
-6.745095057173444
 30
0.0
 10
27.62058093684923
 20
-6.494004531403058
 30
0.0
1001
PE_URL
1000

  0
SPLINE
  5
B1
330
1F
100
AcDbEntity
  8
0
  6
Continuous
 62
     1
370
    15
100
AcDbSpline
210
0.0
220
0.0
230
1.0
 70
     8
 71
     3
 72
    26
 73
    22
 74
     0
 42
0.000000001
 43
0.00000001
 40
0.0
 40
0.0
 40
0.0
 40
0.0
 40
0.0407834651297783
 40
0.0952181990218533
 40
0.1496547599215436
 40
0.2050808218515452
 40
0.2605099780498916
 40
0.3159417128532093
 40
0.3713755089293188
 40
0.4268108476105437
 40
0.4812563564262948
 40
0.5357021744010638
 40
0.590148138145349
 40
0.644594084226013
 40
0.7000305960651861
 40
0.7554661953850702
 40
0.8109003623485862
 40
0.8663325780476213
 40
0.9217623248385427
 40
0.9762017456870399
 40
1.0
 40
1.0
 40
1.0
 40
1.0
 10
62.44347770871522
 20
7.907525112610623
 30
0.0
 10
63.14456491119305
 20
7.902022866874575
 30
0.0
 10
64.78141113219903
 20
7.889176633041945
 30
0.0
 10
67.35405638377654
 20
7.482692495912782
 30
0.0
 10
70.17842421717421
 20
6.764761002859141
 30
0.0
 10
73.01995649416567
 20
5.744061781202996
 30
0.0
 10
75.87861916697842
 20
4.472862007295141
 30
0.0
 10
78.73744590815261
 20
3.008170830306136
 30
0.0
 10
81.596391605162
 20
1.414115885870436
 30
0.0
 10
84.43842811813084
 20
-0.2310328057186361
 30
0.0
 10
87.26338165572244
 20
-1.856118083084106
 30
0.0
 10
90.07135518527478
 20
-3.394224253483744
 30
0.0
 10
92.87933818552385
 20
-4.79119576763046
 30
0.0
 10
95.70432509156404
 20
-5.996266637948531
 30
0.0
 10
98.5464329957772
 20
-6.95419790126008
 30
0.0
 10
101.4054899977769
 20
-7.618501214113047
 30
0.0
 10
104.2644676170834
 20
-7.953351843286882
 30
0.0
 10
107.123318277362
 20
-7.94980987171428
 30
0.0
 10
109.9650582134092
 20
-7.589758589399315
 30
0.0
 10
112.2629008454935
 20
-7.086056244884039
 30
0.0
 10
113.6078634802768
 20
-6.616361118543233
 30
0.0
 10
114.0169728097392
 20
-6.473489745599844
 30
0.0
1001
PE_URL
1000

  0
SPLINE
  5
B2
330
1F
100
AcDbEntity
  8
외형선
  6
Continuous
370
    15
100
AcDbSpline
210
0.0
220
0.0
230
1.0
 70
    24
 71
     3
 72
    14
 73
    10
 74
     0
 42
0.000000001
 43
0.00000001
 40
0.0
 40
0.0
 40
0.0
 40
0.0
 40
0.1133093002392404
 40
0.2598537614445717
 40
0.4106480219524843
 40
0.5571924831577975
 40
0.7079867436657307
 40
0.8519811023572001
 40
1.0
 40
1.0
 40
1.0
 40
1.0
 10
19.61176131403118
 20
-3.036783194697815
 30
0.0
 10
19.61176131403118
 20
-3.172448987804358
 30
0.0
 10
19.61176131403118
 20
-3.483573198823779
 30
0.0
 10
19.61176131403113
 20
-4.086000636713896
 30
0.0
 10
19.61176131403121
 20
-4.796727479621095
 30
0.0
 10
19.6117613140311
 20
-5.569625433729007
 30
0.0
 10
19.61176131403116
 20
-6.35919202792373
 30
0.0
 10
19.61176131403113
 20
-7.161102650613733
 30
0.0
 10
19.61176131403116
 20
-7.673822961917802
 30
0.0
 10
19.61176131403118
 20
-7.933716283991601
 30
0.0
  0
SPLINE
  5
B3
330
1F
100
AcDbEntity
  8
0
  6
Continuous
 62
     1
370
    15
100
AcDbSpline
210
0.0
220
0.0
230
1.0
 70
     8
 71
     3
 72
    25
 73
    21
 74
     0
 42
0.000000001
 43
0.00000001
 40
0.0
 40
0.0
 40
0.0
 40
0.0
 40
0.0567230450566328
 40
0.1134500480238082
 40
0.1701804843287508
 40
0.2269138271815079
 40
0.2836495479123273
 40
0.3393734572551015
 40
0.3950980532200548
 40
0.4508231688545791
 40
0.5065486370505892
 40
0.5632885400973474
 40
0.6200283115279168
 40
0.6767674185057401
 40
0.7335053286255211
 40
0.7902415102584442
 40
0.845963388968193
 40
0.9016840581904767
 40
0.9574033521457596
 40
0.9999999999999999
 40
0.9999999999999999
 40
0.9999999999999999
 40
0.9999999999999999
 10
121.2117613140312
 20
-7.934625071276095
 30
0.0
 10
120.2590530871232
 20
-7.827080981733457
 30
0.0
 10
118.3535701570816
 20
-7.666766069259726
 30
0.0
 10
115.4952034213713
 20
-7.004695555180436
 30
0.0
 10
112.6366304640924
 20
-6.065261284505233
 30
0.0
 10
109.7778881766085
 20
-4.857903328880543
 30
0.0
 10
106.9360015168563
 20
-3.451363533201093
 30
0.0
 10
104.1111389110972
 20
-1.907479810947784
 30
0.0
 10
101.3032221940927
 20
-0.2936750933900573
 30
0.0
 10
98.4952724852953
 20
1.332417471044007
 30
0.0
 10
95.67029366793398
 20
2.912704068596075
 30
0.0
 10
92.82815829489114
 20
4.379295469490926
 30
0.0
 10
89.96902851632525
 20
5.666046475878422
 30
0.0
 10
87.10992931521362
 20
6.70866322680105
 30
0.0
 10
84.25091049854326
 20
7.462448091122642
 30
0.0
 10
81.4089726704607
 20
7.891532595079005
 30
0.0
 10
78.58422380410966
 20
7.987426133140841
 30
0.0
 10
75.77654309500747
 20
7.741992277787818
 30
0.0
 10
73.18933308921977
 20
7.249700721746707
 30
0.0
 10
71.53802243499611
 20
6.716271016367171
 30
0.0
 10
70.8225708292718
 20
6.485155727261101
 30
0.0
1001
PE_URL
1000

  0
SPLINE
  5
B4
330
1F
100
AcDbEntity
  8
0
  6
Continuous
 62
     1
370
    15
100
AcDbSpline
210
0.0
220
0.0
230
1.0
 70
     8
 71
     3
 72
    13
 73
     9
 74
     0
 42
0.000000001
 43
0.00000001
 40
0.0
 40
0.0
 40
0.0
 40
0.0
 40
0.1575418458808643
 40
0.3284785410191645
 40
0.4963593296107042
 40
0.6642398764890917
 40
0.8321201203722401
 40
0.9999999999999999
 40
0.9999999999999999
 40
0.9999999999999999
 40
0.9999999999999999
 10
36.0096330702677
 20
-7.924543710989119
 30
0.0
 10
35.1485038746485
 20
-7.902357295198895
 30
0.0
 10
33.35302877262447
 20
-7.856098084203435
 30
0.0
 10
30.63988612595035
 20
-7.384151220287035
 30
0.0
 10
27.87033821285873
 20
-6.631645349570168
 30
0.0
 10
25.11746923491029
 20
-5.608989344804307
 30
0.0
 10
22.36461360227324
 20
-4.372549232990725
 30
0.0
 10
20.52937807978248
 20
-3.410500750103416
 30
0.0
 10
19.61176131403116
 20
-2.929477030507532
 30
0.0
1001
PE_URL
1000

  0
LINE
  5
B5
330
1F
100
AcDbEntity
  8
외형선
  6
Continuous
370
    15
100
AcDbLine
 10
19.61176131403118
 20
7.377779576752395
 30
0.0
 11
19.61176131403118
 21
7.935866141439388
 31
0.0
  0
LINE
  5
B6
330
1F
100
AcDbEntity
  8
0
  6
Continuous
 62
     1
370
    15
100
AcDbLine
 10
121.2117613140312
 20
0.6811706384414712
 30
0.0
 11
121.2117613140312
 21
3.366250052231754
 31
0.0
1001
PE_URL
1000

  0
LINE
  5
B7
330
1F
100
AcDbEntity
  8
0
  6
Continuous
 62
     1
370
    15
100
AcDbLine
 10
121.2117613140312
 20
-7.934625071276093
 30
0.0
 11
121.2117613140312
 21
-7.187770780993592
 31
0.0
1001
PE_URL
1000

  0
LINE
  5
B8
330
1F
100
AcDbEntity
  8
외형선
  6
Continuous
370
    15
100
AcDbLine
 10
19.61176131403118
 20
-2.929477030507525
 30
0.0
 11
19.61176131403118
 21
-0.2062766100046868
 31
0.0
  0
LINE
  5
B9
330
1F
100
AcDbEntity
  8
외형선
  6
Continuous
370
    15
100
AcDbLine
 10
19.11159600849036
 20
0.0822673606933035
 30
0.0
 11
19.11159600849037
 21
7.479448382888402
 31
0.0
  0
SPLINE
  5
BA
330
1F
100
AcDbEntity
  8
외형선
  6
Continuous
370
    15
100
AcDbSpline
210
0.0
220
0.0
230
1.0
 70
     8
 71
     3
 72
     8
 73
     4
 74
     0
 42
0.000000001
 43
0.00000001
 40
0.0
 40
0.0
 40
0.0
 40
0.0
 40
1.0
 40
1.0
 40
1.0
 40
1.0
 10
19.61176131403118
 20
-0.206276610004689
 30
0.0
 10
19.44486181341192
 20
-0.1100697868911815
 30
0.0
 10
19.27808507968079
 20
-0.0138408358418201
 30
0.0
 10
19.11159600849037
 20
0.0823148711173865
 30
0.0
  0
SPLINE
  5
BB
330
1F
100
AcDbEntity
  8
외형선
  6
Continuous
370
    15
100
AcDbSpline
210
0.0
220
0.0
230
1.0
 70
     8
 71
     3
 72
     8
 73
     4
 74
     0
 42
0.000000001
 43
0.00000001
 40
0.0
 40
0.0
 40
0.0
 40
0.0
 40
1.0
 40
1.0
 40
1.0
 40
1.0
 10
19.61176131403116
 20
-2.929477030507517
 30
0.0
 10
19.4448618134119
 20
-2.840036829724898
 30
0.0
 10
19.27808507968079
 20
-2.749972144388045
 30
0.0
 10
19.11159600849037
 20
-2.659373720841557
 30
0.0
  0
LINE
  5
BC
330
1F
100
AcDbEntity
  8
외형선
  6
Continuous
370
    15
100
AcDbLine
 10
19.11159600849036
 20
-7.936009803026858
 30
0.0
 11
19.11159600849037
 21
-2.65934547603322
 31
0.0
  0
SPLINE
  5
BD
330
1F
100
AcDbEntity
  8
외형선
  6
Continuous
370
    15
100
AcDbSpline
210
0.0
220
0.0
230
1.0
 70
     8
 71
     3
 72
     8
 73
     4
 74
     0
 42
0.000000001
 43
0.00000001
 40
0.0
 40
0.0
 40
0.0
 40
0.0
 40
1.0
 40
1.0
 40
1.0
 40
1.0
 10
19.61176131403118
 20
-7.933716283991592
 30
0.0
 10
19.44486181341192
 20
-7.936230355537271
 30
0.0
 10
19.27808507968079
 20
-7.936993517604806
 30
0.0
 10
19.11159600849037
 20
-7.936009316876625
 30
0.0
  0
LINE
  5
BE
330
1F
100
AcDbEntity
  8
외형선
  6
Continuous
370
    15
100
AcDbLine
 10
19.25238042517046
 20
7.937513741117487
 30
0.0
 11
19.61176131403118
 21
7.935866141439379
 31
0.0
  0
SPLINE
  5
BF
330
1F
100
AcDbEntity
  8
외형선
  6
Continuous
370
    15
100
AcDbSpline
210
0.0
220
0.0
230
1.0
 70
     8
 71
     3
 72
     8
 73
     4
 74
     0
 42
0.000000001
 43
0.00000001
 40
0.0
 40
0.0
 40
0.0
 40
0.0
 40
1.0
 40
1.0
 40
1.0
 40
1.0
 10
19.61176131403116
 20
7.377779576752401
 30
0.0
 10
19.4448618134119
 20
7.413311588422084
 30
0.0
 10
19.27808507968079
 20
7.447207692793747
 30
0.0
 10
19.11159600849037
 20
7.47943833477911
 30
0.0
  0
LINE
  5
C0
330
1F
100
AcDbEntity
  8
외형선
  6
Continuous
370
    15
100
AcDbLine
 10
-32.77573868596883
 20
0.0010749287238931
 30
0.0
 11
-32.77573868596883
 21
7.938574928723893
 31
0.0
  0
LINE
  5
C1
330
1F
100
AcDbEntity
  8
외형선
  6
Continuous
370
    15
100
AcDbLine
 10
-32.77573868596883
 20
-7.936425071276107
 30
0.0
 11
-32.77573868596883
 21
0.0010749287238931
 31
0.0
  0
SPLINE
  5
C2
330
1F
100
AcDbEntity
  8
외형선
  6
Continuous
370
    15
100
AcDbSpline
210
0.0
220
0.0
230
1.0
 70
    24
 71
     3
 72
    21
 73
    17
 74
     0
 42
0.000000001
 43
0.00000001
 40
0.0
 40
0.0
 40
0.0
 40
0.0
 40
0.0174733415240285
 40
0.0923111782255214
 40
0.1693193172612319
 40
0.2441571539627375
 40
0.3211652929984625
 40
0.3960031296999622
 40
0.4730112687356809
 40
0.5478491054371801
 40
0.6248572444728979
 40
0.6996950811743914
 40
0.7767032202101032
 40
0.8515410569116091
 40
0.9285491959473341
 40
1.0
 40
1.0
 40
1.0
 40
1.0
 10
19.61176131403113
 20
-0.37465448154172
 30
0.0
 10
19.61176131403114
 20
-0.3766526472537577
 30
0.0
 10
19.61176131403115
 20
-0.3872089012429779
 30
0.0
 10
19.6117613140311
 20
-0.2694603056077046
 30
0.0
 10
19.61176131403121
 20
-0.0245931719570997
 30
0.0
 10
19.61176131403121
 20
0.3599431108282384
 30
0.0
 10
19.61176131403114
 20
0.8512420179782371
 30
0.0
 10
19.61176131403119
 20
1.448293226436373
 30
0.0
 10
19.61176131403112
 20
2.122370153098745
 30
0.0
 10
19.61176131403118
 20
2.866805845345941
 30
0.0
 10
19.61176131403113
 20
3.647091759156207
 30
0.0
 10
19.61176131403121
 20
4.45506087658187
 30
0.0
 10
19.61176131403112
 20
5.253838974715699
 30
0.0
 10
19.61176131403119
 20
6.033164628004412
 30
0.0
 10
19.61176131403116
 20
6.753586961682841
 30
0.0
 10
19.61176131403118
 20
7.174973358245717
 30
0.0
 10
19.61176131403119
 20
7.377779576752519
 30
0.0
  0
LINE
  5
C3
330
1F
100
AcDbEntity
  8
외형선
  6
Continuous
370
    15
100
AcDbLine
 10
-34.36323868596883
 20
0.0010749287238931
 30
0.0
 11
-34.36323868596883
 21
6.351074928723897
 31
0.0
  0
LINE
  5
C4
330
1F
100
AcDbEntity
  8
외형선
  6
Continuous
370
    15
100
AcDbLine
 10
-34.36323868596883
 20
-6.348925071276114
 30
0.0
 11
-34.36323868596883
 21
0.0010749287238931
 31
0.0
  0
SPLINE
  5
C5
330
1F
100
AcDbEntity
  8
외형선
  6
Continuous
370
    15
100
AcDbSpline
210
0.0
220
0.0
230
1.0
 70
    24
 71
     3
 72
    20
 73
    16
 74
     0
 42
0.000000001
 43
0.00000001
 40
0.0
 40
0.0
 40
0.0
 40
0.0
 40
0.0755580405589723
 40
0.1516773462886629
 40
0.2295732541053192
 40
0.3080846610270378
 40
0.3814296738347963
 40
0.4552876777727801
 40
0.5299401947338265
 40
0.6056810457290444
 40
0.7522220081359112
 40
0.8274098736371038
 40
0.9031507246323354
 40
0.9762308454893792
 40
1.0
 40
1.0
 40
1.0
 40
1.0
 10
19.61176131403118
 20
-7.933716283991592
 30
0.0
 10
19.61176131403118
 20
-7.802052306954116
 30
0.0
 10
19.61176131403116
 20
-7.537746317927453
 30
0.0
 10
19.61176131403111
 20
-7.128279347134275
 30
0.0
 10
19.6117613140312
 20
-6.710358927296538
 30
0.0
 10
19.61176131403114
 20
-6.296553091024562
 30
0.0
 10
19.61176131403111
 20
-5.892571108657227
 30
0.0
 10
19.61176131403128
 20
-5.500584643842762
 30
0.0
 10
19.61176131403113
 20
-5.112355614387299
 30
0.0
 10
19.61176131403123
 20
-4.612786883802544
 30
0.0
 10
19.61176131403124
 20
-4.138748069711403
 30
0.0
 10
19.61176131403111
 20
-3.700739957660182
 30
0.0
 10
19.61176131403116
 20
-3.396109075006888
 30
0.0
 10
19.61176131403118
 20
-3.167089092732309
 30
0.0
 10
19.61176131403116
 20
-3.062461368648119
 30
0.0
 10
19.61176131403116
 20
-3.036783194697815
 30
0.0
  0
LINE
  5
C6
330
1F
100
AcDbEntity
  8
중심선
 62
     1
100
AcDbLine
 10
-41.36323868596883
 20
0.0010749287238891
 30
0.0
 11
128.2117613140312
 21
0.0010749287239087
 31
0.0
  0
LINE
  5
C7
330
1F
100
AcDbEntity
  8
참조1
100
AcDbLine
 10
43.42426131403118
 20
0.0010749287238892
 30
0.0
 11
43.42426131403119
 21
-39.99892507127611
 31
0.0
  0
LINE
  5
C8
330
1F
100
AcDbEntity
  8
참조1
100
AcDbLine
 10
43.42426131403119
 20
-39.99892507127611
 30
0.0
 11
-20.1533455002775
 21
-39.9989250712761
 31
0.0
  0
CIRCLE
  5
C9
330
1F
100
AcDbEntity
  8
해칭선
100
AcDbCircle
 10
11.95560364977725
 20
0.0
 30
0.0
 40
3.000000000000003
  0
INSERT
  5
CA
330
1F
100
AcDbEntity
  8
0
  6
Continuous
 62
     7
100
AcDbBlockReference
 66
     1
  2
블럭10
 10
29.48398838190598
 20
-52.04609937292004
 30
0.0
  0
ATTRIB
  5
CB
330
CA
100
AcDbEntity
  8
FORMAT
 62
     2
100
AcDbText
 10
20.3026930931647
 20
-49.97073246008785
 30
0.0
 40
4.233333333333333
  1
E2041040 [ 4 FLUTE ]
 41
0.75
  7
SLDTEXTSTYLE0
 11
20.3026930931647
 21
-52.08739912675452
 31
0.0
100
AcDbAttribute
  2
AUTOATTR0
 70
     0
 74
     1
  0
SEQEND
  5
CC
330
CA
100
AcDbEntity
  8
0
  6
Continuous
 62
     7
  0
HATCH
  5
CD
330
1F
100
AcDbEntity
  8
중심선
100
AcDbHatch
 10
0.0
 20
0.0
 30
0.0
210
0.0
220
0.0
230
1.0
  2
SOLID
 70
     1
 71
     0
 91
        1
 92
        0
 93
        4
 72
     1
 10
35.19889768628684
 20
-35.7989250712761
 11
31.75262244244956
 21
-35.7989250712761
 72
     1
 10
31.75262244244956
 20
-35.7989250712761
 11
29.62439258324553
 21
-38.3352506518487
 72
     1
 10
29.62439258324553
 20
-38.3352506518487
 11
33.07070091219597
 21
-38.33521122254621
 72
     1
 10
33.07070091219597
 20
-38.33521122254621
 11
35.19889768628684
 21
-35.7989250712761
 97
        0
 75
     0
 76
     1
 98
        1
 10
0.0
 20
0.0
  0
HATCH
  5
CE
330
1F
100
AcDbEntity
  8
중심선
100
AcDbHatch
 10
0.0
 20
0.0
 30
0.0
210
0.0
220
0.0
230
1.0
  2
SOLID
 70
     1
 71
     0
 91
        1
 92
        0
 93
        4
 72
     1
 10
40.21166167732284
 20
-35.79892507127608
 11
36.76538643348551
 21
-35.7989250712761
 72
     1
 10
36.76538643348551
 20
-35.7989250712761
 11
32.23424842512812
 21
-41.19892507127612
 72
     1
 10
32.23424842512812
 20
-41.19892507127612
 11
35.6805236689654
 21
-41.19892507127612
 72
     1
 10
35.6805236689654
 20
-41.19892507127612
 11
40.21166167732284
 21
-35.79892507127608
 97
        0
 75
     0
 76
     1
 98
        1
 10
0.0
 20
0.0
  0
HATCH
  5
CF
330
1F
100
AcDbEntity
  8
중심선
100
AcDbHatch
 10
0.0
 20
0.0
 30
0.0
210
0.0
220
0.0
230
1.0
  2
SOLID
 70
     1
 71
     0
 91
        1
 92
        0
 93
        4
 72
     1
 10
45.22442566835874
 20
-35.79892507127608
 11
41.77815042452157
 21
-35.79892507127608
 72
     1
 10
41.77815042452157
 20
-35.79892507127608
 11
34.72971352263232
 21
-44.19892507127612
 72
     1
 10
34.72971352263232
 20
-44.19892507127612
 11
38.17598876646958
 21
-44.19892507127612
 72
     1
 10
38.17598876646958
 20
-44.19892507127612
 11
45.22442566835874
 21
-35.79892507127608
 97
        0
 75
     0
 76
     1
 98
        1
 10
0.0
 20
0.0
  0
HATCH
  5
D0
330
1F
100
AcDbEntity
  8
중심선
100
AcDbHatch
 10
0.0
 20
0.0
 30
0.0
210
0.0
220
0.0
230
1.0
  2
SOLID
 70
     1
 71
     0
 91
        1
 92
        0
 93
        6
 72
     3
 10
50.02431609937089
 20
-39.99892507132738
 11
3.960054785062284
 21
1.540850780301639E-10
 40
0.3939339440162633
 50
17.09539180608447
 51
320.0019657685082
 73
     0
 72
     1
 10
51.70731575507146
 20
-38.58681907591443
 11
54.01261762877244
 21
-36.65249236586654
 72
     3
 10
50.02431609931804
 20
-39.99892507127625
 11
6.600054785286829
 21
-1.249000902703301E-13
 40
0.6363583540795982
 50
39.99873849337418
 51
368.4976242363724
 73
     1
 72
     1
 10
56.44964859121862
 20
-39.03892507120613
 11
48.70438340615394
 21
-39.0389250712061
 72
     1
 10
48.70438340615394
 20
-39.0389250712061
 11
48.70435836170802
 21
-40.95892507120602
 72
     1
 10
48.70435836170802
 20
-40.95892507120602
 11
53.14573813118004
 21
-40.95892507120599
 97
        0
 75
     0
 76
     1
 98
        1
 10
0.0
 20
0.0
  0
DIMENSION
  5
D1
330
1F
100
AcDbEntity
  8
치수문자_일반주서
100
AcDbDimension
  2
_D
 10
19.61176131403118
 20
22.95523021385194
 30
0.0
 11
70.41176131403115
 21
22.95523021385194
 31
0.0
 70
   160
  1
<>
 71
     2
 42
101.6
  3
SLDDIMSTYLE0
100
AcDbAlignedDimension
 13
121.2117613140312
 23
7.936774928723908
 33
0.0
 14
19.61176131403118
 24
7.935866141439379
 34
0.0
 50
0.000000000000004
100
AcDbRotatedDimension
1001
PE_URL
1000

1001
ACAD
1000
DSTYLE
1002
{
1070
   171
1070
     8
1070
   273
1070
     7
1002
}
  0
DIMENSION
  5
E6
330
1F
100
AcDbEntity
  8
치수문자_일반주서
100
AcDbDimension
  2
_D_1
 10
-34.36323868596885
 20
37.9385749287239
 30
0.0
 11
43.42426131403118
 21
37.9385749287239
 31
0.0
 70
   160
  1
<>
 71
     2
 42
155.575
  3
SLDDIMSTYLE0
100
AcDbAlignedDimension
 13
121.2117613140312
 23
7.936774928723908
 33
0.0
 14
-34.36323868596883
 24
6.351074928723897
 34
0.0
 50
0.0000000000000026
100
AcDbRotatedDimension
1001
PE_URL
1000

1001
ACAD
1000
DSTYLE
1002
{
1070
   171
1070
     8
1070
   273
1070
     7
1002
}
  0
DIMENSION
  5
FA
330
1F
100
AcDbEntity
  8
치수문자_일반주서
100
AcDbDimension
  2
_D_2
 10
-49.36323868596877
 20
-7.936425071276176
 30
0.0
 11
-49.36323868596889
 21
25.24057492872385
 31
0.0
 70
   160
  1
%%c<>
 71
     2
 42
15.87500000000003
  3
SLDDIMSTYLE0
100
AcDbAlignedDimension
 13
-32.77573868596883
 23
7.938574928723908
 33
0.0
 14
-32.77573868596883
 24
-7.936425071276121
 34
0.0
 50
90.0000000000002
100
AcDbRotatedDimension
1001
PE_URL
1000

1001
ACAD
1000
DSTYLE
1002
{
1070
   171
1070
     8
1070
   273
1070
     7
1002
}
1001
ACAD_DSTYLE_DIMFLIPARROW_SYMBOL
1070
   385
1070
     0
1001
ACAD_DSTYLE_DIMFLIPARROW_WHICH_SYMBOL
1070
   386
1070
     3
  0
DIMENSION
  5
10F
330
1F
100
AcDbEntity
  8
치수문자_일반주서
100
AcDbDimension
  2
_D_3
 10
136.2117613140312
 20
7.936774928723956
 30
0.0
 11
136.2117613140311
 21
30.02388549898002
 31
0.0
 70
   160
  1
%%c<>
 71
     2
 42
15.8714
  3
SLDDIMSTYLE0
100
AcDbAlignedDimension
 13
121.2117613140312
 23
-7.934625071276093
 33
0.0
 14
121.2117613140312
 24
7.936774928723908
 34
0.0
 50
90.0000000000002
100
AcDbRotatedDimension
1001
PE_URL
1000

1001
ACAD
1000
DSTYLE
1002
{
1070
   171
1070
     8
1070
   273
1070
     7
1002
}
1001
ACAD_DSTYLE_DIMFLIPARROW_SYMBOL
1070
   385
1070
     0
1001
ACAD_DSTYLE_DIMFLIPARROW_WHICH_SYMBOL
1070
   386
1070
     3
  0
LINE
  5
122
330
1F
100
AcDbEntity
  8
참조1
100
AcDbLine
 10
77.81899512937676
 20
7.441074928723896
 30
0.0
 11
77.81899512937676
 21
-7.438925071276109
 31
0.0
  0
LINE
  5
123
330
1F
100
AcDbEntity
  8
참조1
100
AcDbLine
 10
90.51899512937676
 20
5.441074928723896
 30
0.0
 11
77.81899512937676
 21
5.441074928723896
 31
0.0
  0
SOLID
  5
124
330
1F
100
AcDbEntity
  8
참조1
100
AcDbTrace
 10
77.81899512937676
 20
5.441074928723896
 30
0.0
 11
84.16899512937675
 21
4.425074928723896
 31
0.0
 12
84.16899512937675
 22
6.457074928723896
 32
0.0
 13
84.16899512937675
 23
6.457074928723896
 33
0.0
  0
LINE
  5
125
330
1F
100
AcDbEntity
  8
참조1
100
AcDbLine
 10
90.51899512937676
 20
-5.438925071276109
 30
0.0
 11
77.81899512937676
 21
-5.438925071276109
 31
0.0
  0
SOLID
  5
126
330
1F
100
AcDbEntity
  8
참조1
100
AcDbTrace
 10
77.81899512937676
 20
-5.438925071276109
 30
0.0
 11
84.16899512937675
 21
-6.454925071276109
 31
0.0
 12
84.16899512937675
 22
-4.422925071276109
 32
0.0
 13
84.16899512937675
 23
-4.422925071276109
 33
0.0
  0
MTEXT
  5
127
330
1F
100
AcDbEntity
  8
참조1
100
AcDbMText
 10
87.20334526200276
 20
11.01136670591222
 30
0.0
 40
3.5
 41
0.0
 71
     1
 72
     1
  1
A
  7
SLDTEXTSTYLE0
 73
     1
 44
1.0
  0
MTEXT
  5
128
330
1F
100
AcDbEntity
  8
참조1
100
AcDbMText
 10
87.20334526200276
 20
0.1313667059122201
 30
0.0
 40
3.5
 41
0.0
 71
     1
 72
     1
  1
A
  7
SLDTEXTSTYLE0
 73
     1
 44
1.0
  0
INSERT
  5
12F
330
1F
100
AcDbEntity
  8
해칭선
100
AcDbBlockReference
  2
SW_DOWELSYMBOL_0
 10
11.95560364977725
 20
0.0
 30
0.0
  0
LINE
  5
1E6
330
1F
100
AcDbEntity
  8
외형선
  6
Continuous
370
    15
100
AcDbLine
 10
-15.24656368596884
 20
6.287574928723853
 30
0.0
 11
-5.061163685968829
 21
6.287574928723853
 31
0.0
1001
PE_URL
1000

  0
LINE
  5
1E7
330
1F
100
AcDbEntity
  8
외형선
  6
Continuous
370
    15
100
AcDbLine
 10
-15.24656368596884
 20
6.287574928723952
 30
0.0
 11
-16.8975636859688
 21
7.938574928723863
 31
0.0
1001
PE_URL
1000

  0
LINE
  5
1E8
330
1F
100
AcDbEntity
  8
외형선
  6
Continuous
370
    15
100
AcDbLine
 10
-5.061163685968943
 20
6.287574928723952
 30
0.0
 11
-3.410163685968932
 21
7.938574928723863
 31
0.0
1001
PE_URL
1000

  0
LINE
  5
1E9
330
1F
100
AcDbEntity
  8
외형선
  6
Continuous
370
    15
100
AcDbLine
 10
-16.89756368596883
 20
7.938574928723893
 30
0.0
 11
-32.77573868596883
 21
7.938574928723893
 31
0.0
  0
ENDSEC
  0
SECTION
  2
OBJECTS
  0
DICTIONARY
  5
C
330
0
100
AcDbDictionary
281
     1
  3
ACAD_DETAILVIEWSTYLE
350
1AB
  3
ACAD_GROUP
350
D
  3
ACAD_IMAGE_VARS
350
20F
  3
ACAD_LAYOUT
350
1A
  3
ACAD_MLINESTYLE
350
17
  3
ACAD_PLOTSETTINGS
350
19
  3
ACAD_PLOTSTYLENAME
350
E
  3
ACAD_SCALELIST
350
47
  3
ACAD_SECTIONVIEWSTYLE
350
1AC
  3
AcDbVariableDictionary
350
1A6
  3
APPDATA
350
151
  3
DWGPROPS
350
210
  0
DICTIONARY
  5
187
330
2
100
AcDbDictionary
280
     1
281
     1
  3
ACAD_LAYERSTATES
360
188
  0
DICTIONARY
  5
1AB
102
{ACAD_REACTORS
330
C
102
}
330
C
100
AcDbDictionary
281
     1
  0
DICTIONARY
  5
D
102
{ACAD_REACTORS
330
C
102
}
330
C
100
AcDbDictionary
281
     1
  0
RASTERVARIABLES
  5
20F
102
{ACAD_REACTORS
330
C
102
}
330
C
100
AcDbRasterVariables
 90
        0
 70
     1
 71
     1
 72
     1
  0
DICTIONARY
  5
1A
102
{ACAD_REACTORS
330
C
102
}
330
C
100
AcDbDictionary
281
     1
  3
Layout1
350
1E
  3
Layout2
350
26
  3
Model
350
22
  0
DICTIONARY
  5
17
102
{ACAD_REACTORS
330
C
102
}
330
C
100
AcDbDictionary
281
     1
  3
Standard
350
18
  0
DICTIONARY
  5
19
102
{ACAD_REACTORS
330
C
102
}
330
C
100
AcDbDictionary
281
     1
  0
ACDBDICTIONARYWDFLT
  5
E
102
{ACAD_REACTORS
330
C
102
}
330
C
100
AcDbDictionary
281
     1
  3
Normal
350
F
100
AcDbDictionaryWithDefault
340
F
  0
DICTIONARY
  5
47
102
{ACAD_REACTORS
330
C
102
}
330
C
100
AcDbDictionary
281
     1
  3
A0
350
48
  3
A1
350
49
  3
A2
350
4A
  3
A3
350
4B
  3
A4
350
4C
  3
A5
350
4D
  3
A6
350
4E
  3
A7
350
4F
  3
A8
350
50
  3
A9
350
51
  3
B0
350
52
  3
B1
350
53
  3
B2
350
54
  3
B3
350
55
  3
B4
350
56
  3
B5
350
57
  3
B6
350
58
  3
B7
350
59
  3
B8
350
5A
  3
B9
350
5B
  3
C0
350
5C
  3
C1
350
5D
  3
C2
350
5E
  3
C3
350
5F
  3
C4
350
60
  3
C5
350
61
  3
C6
350
62
  3
C7
350
63
  3
C8
350
64
  3
C9
350
65
  3
D0
350
66
  3
D1
350
67
  3
D2
350
68
  0
DICTIONARY
  5
1AC
102
{ACAD_REACTORS
330
C
102
}
330
C
100
AcDbDictionary
281
     1
  0
DICTIONARY
  5
1A6
102
{ACAD_REACTORS
330
C
102
}
330
C
100
AcDbDictionary
281
     1
  0
DICTIONARY
  5
151
102
{ACAD_REACTORS
330
C
102
}
330
C
100
AcDbDictionary
281
     1
  0
XRECORD
  5
210
102
{ACAD_REACTORS
330
C
102
}
330
C
100
AcDbXrecord
280
     1
  1
DWGPROPS COOKIE
  2

  3

  4

  6

  7

  8
12016016
  9

300
=
301
=
302
=
303
=
304
=
305
=
306
=
307
=
308
=
309
=
 40
0.0
 41
2458312.258309086
 42
2458330.313319595
  1

 90
        0
  0
DICTIONARY
  5
188
102
{ACAD_REACTORS
330
187
102
}
330
187
100
AcDbDictionary
281
     1
  0
LAYOUT
  5
1E
102
{ACAD_REACTORS
330
1A
102
}
330
1A
100
AcDbPlotSettings
  1

  2
none_device
  4

  6

 40
0.0
 41
0.0
 42
0.0
 43
0.0
 44
0.0
 45
0.0
 46
0.0
 47
0.0
 48
0.0
 49
0.0
140
0.0
141
0.0
142
1.0
143
1.0
 70
   688
 72
     1
 73
     0
 74
     5
  7

 75
    16
147
1.0
148
0.0
149
0.0
100
AcDbLayout
  1
Layout1
 70
     1
 71
     1
 10
0.0
 20
0.0
 11
420.0
 21
297.0
 12
0.0
 22
0.0
 32
0.0
 14
1.000000000000000E+20
 24
1.000000000000000E+20
 34
1.000000000000000E+20
 15
-1.000000000000000E+20
 25
-1.000000000000000E+20
 35
-1.000000000000000E+20
146
0.0
 13
0.0
 23
0.0
 33
0.0
 16
1.0
 26
0.0
 36
0.0
 17
0.0
 27
1.0
 37
0.0
 76
     0
330
1B
  0
LAYOUT
  5
26
102
{ACAD_REACTORS
330
1A
102
}
330
1A
100
AcDbPlotSettings
  1

  2
none_device
  4

  6

 40
0.0
 41
0.0
 42
0.0
 43
0.0
 44
0.0
 45
0.0
 46
0.0
 47
0.0
 48
0.0
 49
0.0
140
0.0
141
0.0
142
1.0
143
1.0
 70
   688
 72
     1
 73
     0
 74
     5
  7

 75
    16
147
1.0
148
0.0
149
0.0
100
AcDbLayout
  1
Layout2
 70
     1
 71
     2
 10
0.0
 20
0.0
 11
0.0
 21
0.0
 12
0.0
 22
0.0
 32
0.0
 14
0.0
 24
0.0
 34
0.0
 15
0.0
 25
0.0
 35
0.0
146
0.0
 13
0.0
 23
0.0
 33
0.0
 16
1.0
 26
0.0
 36
0.0
 17
0.0
 27
1.0
 37
0.0
 76
     0
330
23
  0
LAYOUT
  5
22
102
{ACAD_REACTORS
330
1A
102
}
330
1A
100
AcDbPlotSettings
  1

  2
none_device
  4
ANSI_A_(11.00_x_8.50_Inches)
  6

 40
6.35
 41
19.05
 42
6.35000508
 43
19.05000254
 44
279.4
 45
215.9
 46
38.29230291474862
 47
65.05590782334215
 48
0.0
 49
0.0
140
0.0
141
0.0
142
0.0305000597808555
143
1.0
 70
  1696
 72
     0
 73
     0
 74
     0
  7

 75
     0
147
0.0235690232323232
148
0.0
149
0.0
100
AcDbLayout
  1
Model
 70
     1
 71
     0
 10
0.0
 20
0.0
 11
420.0
 21
297.0
 12
0.0
 22
0.0
 32
0.0
 14
-53.73823868596892
 24
-49.97073246008786
 34
0.0
 15
136.7620946473645
 25
44.02388549898003
 35
0.0
146
0.0
 13
0.0
 23
0.0
 33
0.0
 16
1.0
 26
0.0
 36
0.0
 17
0.0
 27
1.0
 37
0.0
 76
     0
330
1F
331
29
  0
MLINESTYLE
  5
18
102
{ACAD_REACTORS
330
17
102
}
330
17
100
AcDbMlineStyle
  2
Standard
 70
     0
  3

 62
   256
 51
90.0
 52
90.0
 71
     2
 49
0.5
 62
   256
  6
BYLAYER
 49
-0.5
 62
   256
  6
BYLAYER
  0
ACDBPLACEHOLDER
  5
F
102
{ACAD_REACTORS
330
E
102
}
330
E
  0
SCALE
  5
48
102
{ACAD_REACTORS
330
47
102
}
330
47
100
AcDbScale
 70
     0
300
1:1
140
1.0
141
1.0
290
     1
  0
SCALE
  5
49
102
{ACAD_REACTORS
330
47
102
}
330
47
100
AcDbScale
 70
     0
300
1:2
140
1.0
141
2.0
290
     0
  0
SCALE
  5
4A
102
{ACAD_REACTORS
330
47
102
}
330
47
100
AcDbScale
 70
     0
300
1:4
140
1.0
141
4.0
290
     0
  0
SCALE
  5
4B
102
{ACAD_REACTORS
330
47
102
}
330
47
100
AcDbScale
 70
     0
300
1:5
140
1.0
141
5.0
290
     0
  0
SCALE
  5
4C
102
{ACAD_REACTORS
330
47
102
}
330
47
100
AcDbScale
 70
     0
300
1:8
140
1.0
141
8.0
290
     0
  0
SCALE
  5
4D
102
{ACAD_REACTORS
330
47
102
}
330
47
100
AcDbScale
 70
     0
300
1:10
140
1.0
141
10.0
290
     0
  0
SCALE
  5
4E
102
{ACAD_REACTORS
330
47
102
}
330
47
100
AcDbScale
 70
     0
300
1:16
140
1.0
141
16.0
290
     0
  0
SCALE
  5
4F
102
{ACAD_REACTORS
330
47
102
}
330
47
100
AcDbScale
 70
     0
300
1:20
140
1.0
141
20.0
290
     0
  0
SCALE
  5
50
102
{ACAD_REACTORS
330
47
102
}
330
47
100
AcDbScale
 70
     0
300
1:30
140
1.0
141
30.0
290
     0
  0
SCALE
  5
51
102
{ACAD_REACTORS
330
47
102
}
330
47
100
AcDbScale
 70
     0
300
1:40
140
1.0
141
40.0
290
     0
  0
SCALE
  5
52
102
{ACAD_REACTORS
330
47
102
}
330
47
100
AcDbScale
 70
     0
300
1:50
140
1.0
141
50.0
290
     0
  0
SCALE
  5
53
102
{ACAD_REACTORS
330
47
102
}
330
47
100
AcDbScale
 70
     0
300
1:100
140
1.0
141
100.0
290
     0
  0
SCALE
  5
54
102
{ACAD_REACTORS
330
47
102
}
330
47
100
AcDbScale
 70
     0
300
2:1
140
2.0
141
1.0
290
     0
  0
SCALE
  5
55
102
{ACAD_REACTORS
330
47
102
}
330
47
100
AcDbScale
 70
     0
300
4:1
140
4.0
141
1.0
290
     0
  0
SCALE
  5
56
102
{ACAD_REACTORS
330
47
102
}
330
47
100
AcDbScale
 70
     0
300
8:1
140
8.0
141
1.0
290
     0
  0
SCALE
  5
57
102
{ACAD_REACTORS
330
47
102
}
330
47
100
AcDbScale
 70
     0
300
10:1
140
10.0
141
1.0
290
     0
  0
SCALE
  5
58
102
{ACAD_REACTORS
330
47
102
}
330
47
100
AcDbScale
 70
     0
300
100:1
140
100.0
141
1.0
290
     0
  0
SCALE
  5
59
102
{ACAD_REACTORS
330
47
102
}
330
47
100
AcDbScale
 70
     0
300
1/128" = 1'-0"
140
0.0078125
141
12.0
290
     0
  0
SCALE
  5
5A
102
{ACAD_REACTORS
330
47
102
}
330
47
100
AcDbScale
 70
     0
300
1/64" = 1'-0"
140
0.015625
141
12.0
290
     0
  0
SCALE
  5
5B
102
{ACAD_REACTORS
330
47
102
}
330
47
100
AcDbScale
 70
     0
300
1/32" = 1'-0"
140
0.03125
141
12.0
290
     0
  0
SCALE
  5
5C
102
{ACAD_REACTORS
330
47
102
}
330
47
100
AcDbScale
 70
     0
300
1/16" = 1'-0"
140
0.0625
141
12.0
290
     0
  0
SCALE
  5
5D
102
{ACAD_REACTORS
330
47
102
}
330
47
100
AcDbScale
 70
     0
300
3/32" = 1'-0"
140
0.09375
141
12.0
290
     0
  0
SCALE
  5
5E
102
{ACAD_REACTORS
330
47
102
}
330
47
100
AcDbScale
 70
     0
300
1/8" = 1'-0"
140
0.125
141
12.0
290
     0
  0
SCALE
  5
5F
102
{ACAD_REACTORS
330
47
102
}
330
47
100
AcDbScale
 70
     0
300
3/16" = 1'-0"
140
0.1875
141
12.0
290
     0
  0
SCALE
  5
60
102
{ACAD_REACTORS
330
47
102
}
330
47
100
AcDbScale
 70
     0
300
1/4" = 1'-0"
140
0.25
141
12.0
290
     0
  0
SCALE
  5
61
102
{ACAD_REACTORS
330
47
102
}
330
47
100
AcDbScale
 70
     0
300
3/8" = 1'-0"
140
0.375
141
12.0
290
     0
  0
SCALE
  5
62
102
{ACAD_REACTORS
330
47
102
}
330
47
100
AcDbScale
 70
     0
300
1/2" = 1'-0"
140
0.5
141
12.0
290
     0
  0
SCALE
  5
63
102
{ACAD_REACTORS
330
47
102
}
330
47
100
AcDbScale
 70
     0
300
3/4" = 1'-0"
140
0.75
141
12.0
290
     0
  0
SCALE
  5
64
102
{ACAD_REACTORS
330
47
102
}
330
47
100
AcDbScale
 70
     0
300
1" = 1'-0"
140
1.0
141
12.0
290
     0
  0
SCALE
  5
65
102
{ACAD_REACTORS
330
47
102
}
330
47
100
AcDbScale
 70
     0
300
1-1/2" = 1'-0"
140
1.5
141
12.0
290
     0
  0
SCALE
  5
66
102
{ACAD_REACTORS
330
47
102
}
330
47
100
AcDbScale
 70
     0
300
3" = 1'-0"
140
3.0
141
12.0
290
     0
  0
SCALE
  5
67
102
{ACAD_REACTORS
330
47
102
}
330
47
100
AcDbScale
 70
     0
300
6" = 1'-0"
140
6.0
141
12.0
290
     0
  0
SCALE
  5
68
102
{ACAD_REACTORS
330
47
102
}
330
47
100
AcDbScale
 70
     0
300
1'-0" = 1'-0"
140
12.0
141
12.0
290
     0
  0
ENDSEC
  0
EOF
