  0
SECTION
  2
HEADER
  9
$ACADVER
  1
AC1015
  9
$ACADMAINTVER
 70
     6
  9
$DWGCODEPAGE
  3
ANSI_949
  9
$INSBASE
 10
0.0
 20
0.0
 30
0.0
  9
$EXTMIN
 10
-65.02500000000012
 20
-49.97180738881174
 30
0.0
  9
$EXTMAX
 10
129.2666666666667
 20
53.98997268430735
 30
0.0
  9
$LIMMIN
 10
0.0
 20
0.0
  9
$LIMMAX
 10
420.0
 20
297.0
  9
$ORTHOMODE
 70
     1
  9
$REGENMODE
 70
     1
  9
$FILLMODE
 70
     1
  9
$QTEXTMODE
 70
     0
  9
$MIRRTEXT
 70
     1
  9
$LTSCALE
 40
1.0
  9
$ATTMODE
 70
     1
  9
$TEXTSIZE
 40
3.5
  9
$TRACEWID
 40
1.0
  9
$TEXTSTYLE
  7
Standard
  9
$CLAYER
  8
0
  9
$CELTYPE
  6
ByLayer
  9
$CECOLOR
 62
   256
  9
$CELTSCALE
 40
1.0
  9
$DISPSILH
 70
     0
  9
$DIMSCALE
 40
1.0
  9
$DIMASZ
 40
3.302
  9
$DIMEXO
 40
1.0
  9
$DIMDLI
 40
3.75
  9
$DIMRND
 40
0.0
  9
$DIMDLE
 40
0.0
  9
$DIMEXE
 40
1.0
  9
$DIMTP
 40
0.0
  9
$DIMTM
 40
0.0
  9
$DIMTXT
 40
3.5
  9
$DIMCEN
 40
2.5
  9
$DIMTSZ
 40
0.0
  9
$DIMTOL
 70
     0
  9
$DIMLIM
 70
     0
  9
$DIMTIH
 70
     1
  9
$DIMTOH
 70
     1
  9
$DIMSE1
 70
     0
  9
$DIMSE2
 70
     0
  9
$DIMTAD
 70
     1
  9
$DIMZIN
 70
     0
  9
$DIMBLK
  1

  9
$DIMASO
 70
     1
  9
$DIMSHO
 70
     1
  9
$DIMPOST
  1

  9
$DIMAPOST
  1

  9
$DIMALT
 70
     0
  9
$DIMALTD
 70
     3
  9
$DIMALTF
 40
0.0393700787401575
  9
$DIMLFAC
 40
1.0
  9
$DIMTOFL
 70
     1
  9
$DIMTVP
 40
0.0
  9
$DIMTIX
 70
     0
  9
$DIMSOXD
 70
     0
  9
$DIMSAH
 70
     0
  9
$DIMBLK1
  1

  9
$DIMBLK2
  1

  9
$DIMSTYLE
  2
ISO-25
  9
$DIMCLRD
 70
     0
  9
$DIMCLRE
 70
     0
  9
$DIMCLRT
 70
     0
  9
$DIMTFAC
 40
1.0
  9
$DIMGAP
 40
1.524
  9
$DIMJUST
 70
     0
  9
$DIMSD1
 70
     0
  9
$DIMSD2
 70
     0
  9
$DIMTOLJ
 70
     0
  9
$DIMTZIN
 70
     0
  9
$DIMALTZ
 70
     0
  9
$DIMALTTZ
 70
     0
  9
$DIMUPT
 70
     0
  9
$DIMDEC
 70
     2
  9
$DIMTDEC
 70
     2
  9
$DIMALTU
 70
     2
  9
$DIMALTTD
 70
     3
  9
$DIMTXSTY
  7
Standard
  9
$DIMAUNIT
 70
     0
  9
$DIMADEC
 70
     2
  9
$DIMALTRND
 40
0.0
  9
$DIMAZIN
 70
     0
  9
$DIMDSEP
 70
    44
  9
$DIMATFIT
 70
     3
  9
$DIMFRAC
 70
     0
  9
$DIMLDRBLK
  1

  9
$DIMLUNIT
 70
     2
  9
$DIMLWD
 70
    -2
  9
$DIMLWE
 70
    -2
  9
$DIMTMOVE
 70
     0
  9
$LUNITS
 70
     2
  9
$LUPREC
 70
     2
  9
$SKETCHINC
 40
1.0
  9
$FILLETRAD
 40
10.0
  9
$AUNITS
 70
     0
  9
$AUPREC
 70
     2
  9
$MENU
  1
.
  9
$ELEVATION
 40
0.0
  9
$PELEVATION
 40
0.0
  9
$THICKNESS
 40
0.0
  9
$LIMCHECK
 70
     0
  9
$CHAMFERA
 40
0.0
  9
$CHAMFERB
 40
0.0
  9
$CHAMFERC
 40
0.0
  9
$CHAMFERD
 40
0.0
  9
$SKPOLY
 70
     0
  9
$TDCREATE
 40
2458312.6335225
  9
$TDUCREATE
 40
2458312.2585225
  9
$TDUPDATE
 40
2458330.688247778
  9
$TDUUPDATE
 40
2458330.313247778
  9
$TDINDWG
 40
0.0005228588
  9
$TDUSRTIMER
 40
2458330.313168345
  9
$USRTIMER
 70
     1
  9
$ANGBASE
 50
0.0
  9
$ANGDIR
 70
     0
  9
$PDMODE
 70
     0
  9
$PDSIZE
 40
-1.0
  9
$PLINEWID
 40
0.0
  9
$SPLFRAME
 70
     0
  9
$SPLINETYPE
 70
     6
  9
$SPLINESEGS
 70
     8
  9
$HANDSEED
  5
202
  9
$SURFTAB1
 70
     6
  9
$SURFTAB2
 70
     6
  9
$SURFTYPE
 70
     6
  9
$SURFU
 70
     6
  9
$SURFV
 70
     6
  9
$UCSBASE
  2

  9
$UCSNAME
  2

  9
$UCSORG
 10
0.0
 20
0.0
 30
0.0
  9
$UCSXDIR
 10
1.0
 20
0.0
 30
0.0
  9
$UCSYDIR
 10
0.0
 20
1.0
 30
0.0
  9
$UCSORTHOREF
  2

  9
$UCSORTHOVIEW
 70
     0
  9
$UCSORGTOP
 10
0.0
 20
0.0
 30
0.0
  9
$UCSORGBOTTOM
 10
0.0
 20
0.0
 30
0.0
  9
$UCSORGLEFT
 10
0.0
 20
0.0
 30
0.0
  9
$UCSORGRIGHT
 10
0.0
 20
0.0
 30
0.0
  9
$UCSORGFRONT
 10
0.0
 20
0.0
 30
0.0
  9
$UCSORGBACK
 10
0.0
 20
0.0
 30
0.0
  9
$PUCSBASE
  2

  9
$PUCSNAME
  2

  9
$PUCSORG
 10
0.0
 20
0.0
 30
0.0
  9
$PUCSXDIR
 10
1.0
 20
0.0
 30
0.0
  9
$PUCSYDIR
 10
0.0
 20
1.0
 30
0.0
  9
$PUCSORTHOREF
  2

  9
$PUCSORTHOVIEW
 70
     0
  9
$PUCSORGTOP
 10
0.0
 20
0.0
 30
0.0
  9
$PUCSORGBOTTOM
 10
0.0
 20
0.0
 30
0.0
  9
$PUCSORGLEFT
 10
0.0
 20
0.0
 30
0.0
  9
$PUCSORGRIGHT
 10
0.0
 20
0.0
 30
0.0
  9
$PUCSORGFRONT
 10
0.0
 20
0.0
 30
0.0
  9
$PUCSORGBACK
 10
0.0
 20
0.0
 30
0.0
  9
$USERI1
 70
     0
  9
$USERI2
 70
     0
  9
$USERI3
 70
     0
  9
$USERI4
 70
     0
  9
$USERI5
 70
     0
  9
$USERR1
 40
0.0
  9
$USERR2
 40
0.0
  9
$USERR3
 40
0.0
  9
$USERR4
 40
0.0
  9
$USERR5
 40
0.0
  9
$WORLDVIEW
 70
     1
  9
$SHADEDGE
 70
     3
  9
$SHADEDIF
 70
    70
  9
$TILEMODE
 70
     1
  9
$MAXACTVP
 70
    64
  9
$PINSBASE
 10
0.0
 20
0.0
 30
0.0
  9
$PLIMCHECK
 70
     0
  9
$PEXTMIN
 10
1.000000000000000E+20
 20
1.000000000000000E+20
 30
1.000000000000000E+20
  9
$PEXTMAX
 10
-1.000000000000000E+20
 20
-1.000000000000000E+20
 30
-1.000000000000000E+20
  9
$PLIMMIN
 10
0.0
 20
0.0
  9
$PLIMMAX
 10
0.0
 20
0.0
  9
$UNITMODE
 70
     0
  9
$VISRETAIN
 70
     1
  9
$PLINEGEN
 70
     0
  9
$PSLTSCALE
 70
     1
  9
$TREEDEPTH
 70
  3020
  9
$CMLSTYLE
  2
Standard
  9
$CMLJUST
 70
     0
  9
$CMLSCALE
 40
20.0
  9
$PROXYGRAPHICS
 70
     1
  9
$MEASUREMENT
 70
     1
  9
$CELWEIGHT
370
    -1
  9
$ENDCAPS
280
     0
  9
$JOINSTYLE
280
     0
  9
$LWDISPLAY
290
     1
  9
$INSUNITS
 70
     4
  9
$HYPERLINKBASE
  1

  9
$STYLESHEET
  1

  9
$XEDIT
290
     1
  9
$CEPSNTYPE
380
     0
  9
$PSTYLEMODE
290
     1
  9
$FINGERPRINTGUID
  2
{5C282FF3-6B6E-4B9D-B7BE-F6B4C4E32B91}
  9
$VERSIONGUID
  2
{FAEB1C32-E019-11D5-929B-00C0DF256EC4}
  9
$EXTNAMES
290
     1
  9
$PSVPSCALE
 40
0.0
  9
$OLESTARTUP
290
     0
  0
ENDSEC
  0
SECTION
  2
CLASSES
  0
CLASS
  1
ACDBDICTIONARYWDFLT
  2
AcDbDictionaryWithDefault
  3
ObjectDBX Classes
 90
        0
280
     0
281
     0
  0
CLASS
  1
VISUALSTYLE
  2
AcDbVisualStyle
  3
ObjectDBX Classes
 90
     4095
280
     0
281
     0
  0
CLASS
  1
MATERIAL
  2
AcDbMaterial
  3
ObjectDBX Classes
 90
     1153
280
     0
281
     0
  0
CLASS
  1
SCALE
  2
AcDbScale
  3
ObjectDBX Classes
 90
     1153
280
     0
281
     0
  0
CLASS
  1
SUN
  2
AcDbSun
  3
SCENEOE
 90
     1153
280
     0
281
     0
  0
CLASS
  1
ACDBPLACEHOLDER
  2
AcDbPlaceHolder
  3
ObjectDBX Classes
 90
        0
280
     0
281
     0
  0
CLASS
  1
LAYOUT
  2
AcDbLayout
  3
ObjectDBX Classes
 90
        0
280
     0
281
     0
  0
CLASS
  1
TABLESTYLE
  2
AcDbTableStyle
  3
ObjectDBX Classes
 90
     4095
280
     0
281
     0
  0
CLASS
  1
MLEADERSTYLE
  2
AcDbMLeaderStyle
  3
ACDB_MLEADERSTYLE_CLASS
 90
     4095
280
     0
281
     0
  0
CLASS
  1
RASTERVARIABLES
  2
AcDbRasterVariables
  3
ISM
 90
        0
280
     0
281
     0
  0
ENDSEC
  0
SECTION
  2
TABLES
  0
TABLE
  2
VPORT
  5
8
330
0
100
AcDbSymbolTable
 70
     1
  0
VPORT
  5
29
330
8
100
AcDbSymbolTableRecord
100
AcDbViewportTableRecord
  2
*Active
 70
     0
 10
0.0
 20
0.0
 11
1.0
 21
1.0
 12
32.12083333333328
 22
2.009082647747803
 13
0.0
 23
0.0
 14
10.0
 24
10.0
 15
10.0
 25
10.0
 16
0.0
 26
0.0
 36
1.0
 17
0.0
 27
0.0
 37
0.0
 40
111.1631407284769
 41
1.782762691853601
 42
50.0
 43
0.0
 44
0.0
 50
0.0
 51
0.0
 71
    16
 72
  2000
 73
     1
 74
     3
 75
     0
 76
     0
 77
     0
 78
     0
281
     0
 65
     1
110
0.0
120
0.0
130
0.0
111
1.0
121
0.0
131
0.0
112
0.0
122
1.0
132
0.0
 79
     0
146
0.0
  0
ENDTAB
  0
TABLE
  2
LTYPE
  5
5
330
0
100
AcDbSymbolTable
 70
     6
  0
LTYPE
  5
14
330
5
100
AcDbSymbolTableRecord
100
AcDbLinetypeTableRecord
  2
ByBlock
 70
     0
  3

 72
    65
 73
     0
 40
0.0
  0
LTYPE
  5
15
330
5
100
AcDbSymbolTableRecord
100
AcDbLinetypeTableRecord
  2
ByLayer
 70
     0
  3

 72
    65
 73
     0
 40
0.0
  0
LTYPE
  5
16
330
5
100
AcDbSymbolTableRecord
100
AcDbLinetypeTableRecord
  2
Continuous
 70
     0
  3
Solid line
 72
    65
 73
     0
 40
0.0
  0
LTYPE
  5
6A
330
5
100
AcDbSymbolTableRecord
100
AcDbLinetypeTableRecord
  2
HIDDEN
 70
     0
  3
Hidden __ __ __ __ __ __ __ __ __ __ __ __ __ __
 72
    65
 73
     2
 40
1.905
 49
1.27
 74
     0
 49
-0.635
 74
     0
  0
LTYPE
  5
6B
330
5
100
AcDbSymbolTableRecord
100
AcDbLinetypeTableRecord
  2
PHANTOM
 70
     0
  3
Phantom ______  __  __  ______  __  __  ______
 72
    65
 73
     6
 40
12.7
 49
6.35
 74
     0
 49
-1.27
 74
     0
 49
1.27
 74
     0
 49
-1.27
 74
     0
 49
1.27
 74
     0
 49
-1.27
 74
     0
  0
LTYPE
  5
6C
330
5
100
AcDbSymbolTableRecord
100
AcDbLinetypeTableRecord
  2
CENTER
 70
     0
  3
Center ____ _ ____ _ ____ _ ____ _ ____ _ ____
 72
    65
 73
     4
 40
10.16
 49
6.35
 74
     0
 49
-1.27
 74
     0
 49
1.27
 74
     0
 49
-1.27
 74
     0
  0
LTYPE
  5
6D
330
5
100
AcDbSymbolTableRecord
100
AcDbLinetypeTableRecord
  2
CENTERX2
 70
     0
  3
Center (2x) ________  __  ________  __  _____
 72
    65
 73
     4
 40
20.32
 49
12.7
 74
     0
 49
-2.54
 74
     0
 49
2.54
 74
     0
 49
-2.54
 74
     0
  0
LTYPE
  5
6E
330
5
100
AcDbSymbolTableRecord
100
AcDbLinetypeTableRecord
  2
DOT2
 70
     0
  3
Dot (.5x) ........................................
 72
    65
 73
     2
 40
0.635
 49
0.0
 74
     0
 49
-0.635
 74
     0
  0
ENDTAB
  0
TABLE
  2
LAYER
  5
2
102
{ACAD_XDICTIONARY
360
185
102
}
330
0
100
AcDbSymbolTable
 70
    18
  0
LAYER
  5
10
330
2
100
AcDbSymbolTableRecord
100
AcDbLayerTableRecord
  2
0
 70
     0
 62
     7
  6
Continuous
370
    -3
390
F
  0
LAYER
  5
6F
330
2
100
AcDbSymbolTableRecord
100
AcDbLayerTableRecord
  2
FORMAT
 70
     0
 62
     2
  6
Continuous
370
    -3
390
F
  0
LAYER
  5
70
330
2
100
AcDbSymbolTableRecord
100
AcDbLayerTableRecord
  2
외형선
 70
     0
 62
     4
  6
Continuous
370
    30
390
F
  0
LAYER
  5
71
330
2
100
AcDbSymbolTableRecord
100
AcDbLayerTableRecord
  2
숨은선
 70
     0
 62
     2
  6
HIDDEN
370
    15
390
F
  0
LAYER
  5
72
330
2
100
AcDbSymbolTableRecord
100
AcDbLayerTableRecord
  2
중심선
 70
     0
 62
     1
  6
CENTERX2
370
    -3
390
F
  0
LAYER
  5
73
330
2
100
AcDbSymbolTableRecord
100
AcDbLayerTableRecord
  2
파단선
 70
     0
 62
     4
  6
Continuous
370
    -3
390
F
  0
LAYER
  5
74
330
2
100
AcDbSymbolTableRecord
100
AcDbLayerTableRecord
  2
해칭선
 70
     0
 62
   100
  6
Continuous
370
    -3
390
F
  0
LAYER
  5
75
330
2
100
AcDbSymbolTableRecord
100
AcDbLayerTableRecord
  2
가는실선
 70
     0
 62
     4
  6
Continuous
370
    -3
390
F
  0
LAYER
  5
76
330
2
100
AcDbSymbolTableRecord
100
AcDbLayerTableRecord
  2
치수_보조선
 70
     0
 62
     4
  6
Continuous
370
    -3
390
F
  0
LAYER
  5
77
330
2
100
AcDbSymbolTableRecord
100
AcDbLayerTableRecord
  2
치수문자_일반주서
 70
     0
 62
     7
  6
Continuous
370
    15
390
F
  0
LAYER
  5
78
330
2
100
AcDbSymbolTableRecord
100
AcDbLayerTableRecord
  2
개별주서
 70
     0
 62
   100
  6
Continuous
370
    30
390
F
  0
LAYER
  5
79
330
2
100
AcDbSymbolTableRecord
100
AcDbLayerTableRecord
  2
중간선
 70
     0
 62
     2
  6
Continuous
370
    15
390
F
  0
LAYER
  5
7A
330
2
100
AcDbSymbolTableRecord
100
AcDbLayerTableRecord
  2
윤곽선
 70
     0
 62
     3
  6
Continuous
370
    40
390
F
  0
LAYER
  5
7B
330
2
100
AcDbSymbolTableRecord
100
AcDbLayerTableRecord
  2
중심마크
 70
     0
 62
   100
  6
Continuous
370
    30
390
F
  0
LAYER
  5
7C
330
2
100
AcDbSymbolTableRecord
100
AcDbLayerTableRecord
  2
가상선
 70
     0
 62
     4
  6
PHANTOM
370
    -3
390
F
  0
LAYER
  5
7D
330
2
100
AcDbSymbolTableRecord
100
AcDbLayerTableRecord
  2
특수지정선
 70
     0
 62
     5
  6
CENTERX2
370
    60
390
F
  0
LAYER
  5
7E
330
2
100
AcDbSymbolTableRecord
100
AcDbLayerTableRecord
  2
참조1
 70
     0
 62
    -4
  6
Continuous
370
    -3
390
F
  0
LAYER
  5
152
330
2
100
AcDbSymbolTableRecord
100
AcDbLayerTableRecord
  2
Defpoints
 70
     0
 62
     7
  6
Continuous
290
     0
370
    -3
390
F
  0
ENDTAB
  0
TABLE
  2
STYLE
  5
3
330
0
100
AcDbSymbolTable
 70
     2
  0
STYLE
  5
11
330
3
100
AcDbSymbolTableRecord
100
AcDbTextStyleTableRecord
  2
Standard
 70
     0
 40
0.0
 41
1.0
 50
0.0
 71
     0
 42
3.5
  3
txt
  4

  0
STYLE
  5
94
330
3
100
AcDbSymbolTableRecord
100
AcDbTextStyleTableRecord
  2
SLDTEXTSTYLE0
 70
     0
 40
0.0
 41
0.75
 50
0.0
 71
     0
 42
3.5
  3
TXT
  4

  0
ENDTAB
  0
TABLE
  2
VIEW
  5
6
330
0
100
AcDbSymbolTable
 70
     0
  0
ENDTAB
  0
TABLE
  2
UCS
  5
7
330
0
100
AcDbSymbolTable
 70
     0
  0
ENDTAB
  0
TABLE
  2
APPID
  5
9
330
0
100
AcDbSymbolTable
 70
     2
  0
APPID
  5
12
330
9
100
AcDbSymbolTableRecord
100
AcDbRegAppTableRecord
  2
ACAD
 70
     0
  0
APPID
  5
1A4
330
9
100
AcDbSymbolTableRecord
100
AcDbRegAppTableRecord
  2
PE_URL
 70
     0
  0
ENDTAB
  0
TABLE
  2
DIMSTYLE
  5
A
330
0
100
AcDbSymbolTable
 70
     4
100
AcDbDimStyleTable
  0
DIMSTYLE
105
27
330
A
100
AcDbSymbolTableRecord
100
AcDbDimStyleTableRecord
  2
ISO-25
 70
     0
 41
2.5
 42
0.625
 43
3.75
 44
1.25
 73
     0
 74
     0
 77
     1
 78
     8
140
2.5
141
2.5
143
0.03937007874016
147
0.625
171
     3
172
     1
178
     0
271
     2
272
     2
274
     3
278
    44
283
     0
284
     8
340
11
  0
DIMSTYLE
105
D1
330
A
100
AcDbSymbolTableRecord
100
AcDbDimStyleTableRecord
  2
SLDDIMSTYLE0
 70
     0
 41
3.302
 44
0.0
 45
0.000000001
 73
     0
 74
     0
 77
     1
 78
     4
 79
     1
140
3.5
143
0.0393700787401575
147
0.875
148
0.000000001
170
     1
173
     1
178
     0
271
     2
272
     2
276
     2
284
    12
340
94
  0
DIMSTYLE
105
E6
330
A
100
AcDbSymbolTableRecord
100
AcDbDimStyleTableRecord
  2
SLDDIMSTYLE1
 70
     0
 41
3.302
 44
0.0
 45
0.000000001
 73
     0
 74
     0
 77
     1
 78
    12
 79
     3
140
3.5
143
0.0393700787401575
147
0.875
148
0.000000001
170
     1
173
     1
178
     0
271
     2
272
     2
276
     2
284
    12
340
94
  0
DIMSTYLE
105
FA
102
{ACAD_REACTORS
330
F9
330
D0
330
10E
330
E5
102
}
330
A
100
AcDbSymbolTableRecord
100
AcDbDimStyleTableRecord
  2
SLDDIMSTYLE2
 70
     0
 41
3.302
 44
0.0
 45
0.000000001
 73
     0
 74
     0
 77
     1
 78
    12
 79
     3
140
3.5
143
0.0393700787401575
147
0.875
148
0.000000001
170
     1
172
     1
173
     1
178
     0
271
     2
272
     2
276
     2
284
    12
289
     0
340
94
  0
ENDTAB
  0
TABLE
  2
BLOCK_RECORD
  5
1
330
0
100
AcDbSymbolTable
 70
     9
  0
BLOCK_RECORD
  5
1F
330
1
100
AcDbSymbolTableRecord
100
AcDbBlockTableRecord
  2
*Model_Space
340
22
  0
BLOCK_RECORD
  5
1B
330
1
100
AcDbSymbolTableRecord
100
AcDbBlockTableRecord
  2
*Paper_Space
340
1E
  0
BLOCK_RECORD
  5
23
330
1
100
AcDbSymbolTableRecord
100
AcDbBlockTableRecord
  2
*Paper_Space0
340
26
  0
BLOCK_RECORD
  5
7F
330
1
100
AcDbSymbolTableRecord
100
AcDbBlockTableRecord
  2
블럭10
340
0
102
{BLKREFS
331
C9
102
}
  0
BLOCK_RECORD
  5
D2
330
1
100
AcDbSymbolTableRecord
100
AcDbBlockTableRecord
  2
_D
340
0
  0
BLOCK_RECORD
  5
E7
330
1
100
AcDbSymbolTableRecord
100
AcDbBlockTableRecord
  2
_D_1
340
0
  0
BLOCK_RECORD
  5
FB
330
1
100
AcDbSymbolTableRecord
100
AcDbBlockTableRecord
  2
_D_2
340
0
  0
BLOCK_RECORD
  5
10F
330
1
100
AcDbSymbolTableRecord
100
AcDbBlockTableRecord
  2
_D_3
340
0
  0
BLOCK_RECORD
  5
128
330
1
100
AcDbSymbolTableRecord
100
AcDbBlockTableRecord
  2
SW_DOWELSYMBOL_0
340
0
102
{BLKREFS
331
12E
102
}
  0
BLOCK_RECORD
  5
189
330
1
100
AcDbSymbolTableRecord
100
AcDbBlockTableRecord
  2
*D7
340
0
  0
BLOCK_RECORD
  5
198
330
1
100
AcDbSymbolTableRecord
100
AcDbBlockTableRecord
  2
*D8
340
0
  0
ENDTAB
  0
ENDSEC
  0
SECTION
  2
BLOCKS
  0
BLOCK
  5
20
330
1F
100
AcDbEntity
  8
0
100
AcDbBlockBegin
  2
*Model_Space
 70
     0
 10
0.0
 20
0.0
 30
0.0
  3
*Model_Space
  1
*Model_Space
  0
ENDBLK
  5
21
330
1F
100
AcDbEntity
  8
0
100
AcDbBlockEnd
  0
BLOCK
  5
1C
330
1B
100
AcDbEntity
 67
     1
  8
0
100
AcDbBlockBegin
  2
*Paper_Space
 70
     0
 10
0.0
 20
0.0
 30
0.0
  3
*Paper_Space
  1
*Paper_Space
  0
ENDBLK
  5
1D
330
1B
100
AcDbEntity
 67
     1
  8
0
100
AcDbBlockEnd
  0
BLOCK
  5
24
330
23
100
AcDbEntity
  8
0
100
AcDbBlockBegin
  2
*Paper_Space0
 70
     0
 10
0.0
 20
0.0
 30
0.0
  3
*Paper_Space0
  1
*Paper_Space0
  0
ENDBLK
  5
25
330
23
100
AcDbEntity
  8
0
100
AcDbBlockEnd
  0
BLOCK
  5
80
330
7F
100
AcDbEntity
  8
0
100
AcDbBlockBegin
  2
블럭10
 70
     2
 10
0.0
 20
0.0
 30
0.0
  3
블럭10
  1
블럭10
  0
ELLIPSE
  5
82
330
7F
100
AcDbEntity
  8
중심선
100
AcDbEllipse
 10
20.54032771741204
 20
12.0471743016438
 30
0.0
 11
6.600054785286829
 21
-1.261213355974178E-13
 31
0.0
210
0.0
220
0.0
230
1.0
 40
0.636358354079598
 41
0.9219305317359503
 42
6.513795318482858
  0
ELLIPSE
  5
83
330
7F
100
AcDbEntity
  8
중심선
100
AcDbEllipse
 10
20.54032771746488
 20
12.04717430159265
 30
0.0
 11
3.960054785062283
 21
1.540847449632565E-10
 31
0.0
210
0.0
220
0.0
230
1.0
 40
0.3939339440162632
 41
1.131841032648279
 42
5.62031148352944
  0
LINE
  5
84
330
7F
100
AcDbEntity
  8
중심선
100
AcDbLine
 10
2.268634060543552
 20
16.24717430164393
 30
0.0
 11
5.714909304380834
 21
16.24717430164393
 31
0.0
  0
LINE
  5
85
330
7F
100
AcDbEntity
  8
중심선
100
AcDbLine
 10
5.245725140726316
 20
7.84717430164391
 30
0.0
 11
8.692000384563599
 21
7.84717430164391
 31
0.0
  0
LINE
  5
86
330
7F
100
AcDbEntity
  8
중심선
100
AcDbLine
 10
15.74043728645272
 20
16.24717430164393
 30
0.0
 11
8.692000384563599
 21
7.84717430164391
 31
0.0
  0
LINE
  5
87
330
7F
100
AcDbEntity
  8
중심선
100
AcDbLine
 10
0.1404042013395286
 20
13.71084872107135
 30
0.0
 11
3.58671253028996
 21
13.71088815037384
 31
0.0
  0
LINE
  5
88
330
7F
100
AcDbEntity
  8
중심선
100
AcDbLine
 10
2.750260043222114
 20
10.84717430164391
 30
0.0
 11
6.196535287059397
 21
10.84717430164391
 31
0.0
  0
LINE
  5
89
330
7F
100
AcDbEntity
  8
중심선
100
AcDbLine
 10
12.29416204261559
 20
16.24717430164393
 30
0.0
 11
5.245725140726316
 21
7.84717430164391
 31
0.0
  0
LINE
  5
8A
330
7F
100
AcDbEntity
  8
중심선
100
AcDbLine
 10
10.72767329541681
 20
16.24717430164393
 30
0.0
 11
6.196535287059397
 21
10.84717430164391
 31
0.0
  0
LINE
  5
8B
330
7F
100
AcDbEntity
  8
중심선
100
AcDbLine
 10
7.28139805157953
 20
16.24717430164393
 30
0.0
 11
2.750260043222114
 21
10.84717430164391
 31
0.0
  0
LINE
  5
8C
330
7F
100
AcDbEntity
  8
중심선
100
AcDbLine
 10
5.714909304380834
 20
16.24717430164393
 30
0.0
 11
3.58671253028996
 21
13.71088815037384
 31
0.0
  0
LINE
  5
8D
330
7F
100
AcDbEntity
  8
중심선
100
AcDbLine
 10
2.268634060543552
 20
16.24717430164393
 30
0.0
 11
0.1404042013395286
 21
13.71084872107135
 31
0.0
  0
LINE
  5
8E
330
7F
100
AcDbEntity
  8
중심선
100
AcDbLine
 10
7.28139805157953
 20
16.24717430164393
 30
0.0
 11
10.72767329541681
 21
16.24717430164393
 31
0.0
  0
LINE
  5
8F
330
7F
100
AcDbEntity
  8
중심선
100
AcDbLine
 10
12.29416204261559
 20
16.24717430164393
 30
0.0
 11
15.74043728645272
 21
16.24717430164393
 31
0.0
  0
LINE
  5
90
330
7F
100
AcDbEntity
  8
중심선
100
AcDbLine
 10
19.22036997980202
 20
11.08717430171403
 30
0.0
 11
23.66174974927406
 21
11.08717430171406
 31
0.0
  0
LINE
  5
91
330
7F
100
AcDbEntity
  8
중심선
100
AcDbLine
 10
19.22039502424796
 20
13.00717430171391
 30
0.0
 11
19.22036997980202
 21
11.08717430171403
 31
0.0
  0
LINE
  5
92
330
7F
100
AcDbEntity
  8
중심선
100
AcDbLine
 10
19.22039502424796
 20
13.00717430171391
 30
0.0
 11
26.96566020931264
 21
13.00717430171391
 31
0.0
  0
LINE
  5
93
330
7F
100
AcDbEntity
  8
중심선
100
AcDbLine
 10
22.22332737316547
 20
13.45928029700563
 30
0.0
 11
24.52862924686651
 21
15.39360700705356
 31
0.0
  0
ATTDEF
  5
95
330
7F
100
AcDbEntity
  8
FORMAT
 62
     2
100
AcDbText
 10
4.408487351596664
 20
2.075366912832191
 30
0.0
 40
4.233333333333333
  1
E1041048
 41
0.75
  7
SLDTEXTSTYLE0
 11
4.408487351596664
 21
-0.0412997538344756
 31
0.0
100
AcDbAttributeDefinition
  3

  2
AUTOATTR0
 70
     0
 74
     1
  0
ENDBLK
  5
81
330
7F
100
AcDbEntity
  8
0
100
AcDbBlockEnd
  0
BLOCK
  5
D3
330
D2
100
AcDbEntity
  8
0
100
AcDbBlockBegin
  2
_D
 70
     0
 10
0.0
 20
0.0
 30
0.0
  3
_D
  1
_D
  0
LINE
  5
D5
330
D2
100
AcDbEntity
  8
치수문자_일반주서
 62
     0
370
    -2
100
AcDbLine
 10
113.6
 20
9.587500000000015
 30
0.0
 11
113.6
 21
24.53873634215365
 31
0.0
  0
LINE
  5
D6
330
D2
100
AcDbEntity
  8
치수문자_일반주서
 62
     0
370
    -2
100
AcDbLine
 10
12.0
 20
9.58027367922918
 30
0.0
 11
12.00000000000001
 21
24.53873634215365
 31
0.0
  0
LINE
  5
D7
330
D2
100
AcDbEntity
  8
치수문자_일반주서
 62
     0
370
    -2
100
AcDbLine
 10
109.6
 20
24.53873634215365
 30
0.0
 11
16.00000000000001
 21
24.53873634215365
 31
0.0
  0
SOLID
  5
D8
330
D2
100
AcDbEntity
  8
치수문자_일반주서
 62
     0
100
AcDbTrace
 10
109.6
 20
23.87206967548698
 30
0.0
 11
109.6
 21
25.20540300882032
 31
0.0
 12
113.6
 22
24.53873634215365
 32
0.0
 13
113.6
 23
24.53873634215365
 33
0.0
  0
SOLID
  5
D9
330
D2
100
AcDbEntity
  8
치수문자_일반주서
 62
     0
100
AcDbTrace
 10
16.00000000000001
 20
25.20540300882032
 30
0.0
 11
16.00000000000001
 21
23.87206967548698
 31
0.0
 12
12.00000000000001
 22
24.53873634215365
 32
0.0
 13
12.00000000000001
 23
24.53873634215365
 33
0.0
  0
MTEXT
  5
DA
330
D2
100
AcDbEntity
  8
치수문자_일반주서
 62
     0
100
AcDbMText
 10
62.79999999999999
 20
29.41373634215365
 30
0.0
 40
4.0
 41
0.0
 71
     2
 72
     1
  1
\A1;101.6 [4]
  7
SLDTEXTSTYLE0
 73
     1
 44
1.0
  0
POINT
  5
DB
330
D2
100
AcDbEntity
  8
Defpoints
 62
     0
100
AcDbPoint
 10
113.6
 20
9.525000000000015
 30
0.0
  0
POINT
  5
DC
330
D2
100
AcDbEntity
  8
Defpoints
 62
     0
100
AcDbPoint
 10
12.0
 20
9.51777367922918
 30
0.0
  0
POINT
  5
DD
330
D2
100
AcDbEntity
  8
Defpoints
 62
     0
100
AcDbPoint
 10
12.0
 20
24.53873634215365
 30
0.0
  0
ENDBLK
  5
D4
330
D2
100
AcDbEntity
  8
0
100
AcDbBlockEnd
  0
BLOCK
  5
E8
330
E7
100
AcDbEntity
  8
0
100
AcDbBlockBegin
  2
_D_1
 70
     0
 10
0.0
 20
0.0
 30
0.0
  3
_D_1
  1
_D_1
  0
LINE
  5
EA
330
E7
100
AcDbEntity
  8
치수문자_일반주서
 62
     0
370
    -2
100
AcDbLine
 10
113.6
 20
9.587500000000015
 30
0.0
 11
113.6
 21
39.52500000000001
 31
0.0
  0
LINE
  5
EB
330
E7
100
AcDbEntity
  8
치수문자_일반주서
 62
     0
370
    -2
100
AcDbLine
 10
-45.15000000000001
 20
7.682500000000002
 30
0.0
 11
-45.15000000000001
 21
39.52500000000001
 31
0.0
  0
LINE
  5
EC
330
E7
100
AcDbEntity
  8
치수문자_일반주서
 62
     0
370
    -2
100
AcDbLine
 10
109.6
 20
39.52500000000001
 30
0.0
 11
-41.15000000000001
 21
39.52500000000001
 31
0.0
  0
SOLID
  5
ED
330
E7
100
AcDbEntity
  8
치수문자_일반주서
 62
     0
100
AcDbTrace
 10
109.6
 20
38.85833333333335
 30
0.0
 11
109.6
 21
40.19166666666668
 31
0.0
 12
113.6
 22
39.52500000000001
 32
0.0
 13
113.6
 23
39.52500000000001
 33
0.0
  0
SOLID
  5
EE
330
E7
100
AcDbEntity
  8
치수문자_일반주서
 62
     0
100
AcDbTrace
 10
-41.15000000000001
 20
40.19166666666668
 30
0.0
 11
-41.15000000000001
 21
38.85833333333335
 31
0.0
 12
-45.15000000000001
 22
39.52500000000001
 32
0.0
 13
-45.15000000000001
 23
39.52500000000001
 33
0.0
  0
MTEXT
  5
EF
330
E7
100
AcDbEntity
  8
치수문자_일반주서
 62
     0
100
AcDbMText
 10
34.22500000000002
 20
44.40000000000001
 30
0.0
 40
4.0
 41
0.0
 71
     2
 72
     1
  1
\A1;158.75 [6 1/4]
  7
SLDTEXTSTYLE0
 73
     1
 44
1.0
  0
POINT
  5
F0
330
E7
100
AcDbEntity
  8
Defpoints
 62
     0
100
AcDbPoint
 10
113.6
 20
9.525000000000015
 30
0.0
  0
POINT
  5
F1
330
E7
100
AcDbEntity
  8
Defpoints
 62
     0
100
AcDbPoint
 10
-45.15000000000001
 20
7.620000000000002
 30
0.0
  0
POINT
  5
F2
330
E7
100
AcDbEntity
  8
Defpoints
 62
     0
100
AcDbPoint
 10
-45.15000000000001
 20
39.52500000000001
 30
0.0
  0
ENDBLK
  5
E9
330
E7
100
AcDbEntity
  8
0
100
AcDbBlockEnd
  0
BLOCK
  5
FC
330
FB
100
AcDbEntity
  8
0
100
AcDbBlockBegin
  2
_D_2
 70
     0
 10
0.0
 20
0.0
 30
0.0
  3
_D_2
  1
_D_2
  0
LINE
  5
FE
330
FB
100
AcDbEntity
  8
치수문자_일반주서
 62
     0
370
    -2
100
AcDbLine
 10
-43.30750000000001
 20
9.525000000000002
 30
0.0
 11
-60.15000000000002
 21
9.524999999999938
 31
0.0
  0
LINE
  5
FF
330
FB
100
AcDbEntity
  8
치수문자_일반주서
 62
     0
370
    -2
100
AcDbLine
 10
-43.30750000000001
 20
-9.52500000000001
 30
0.0
 11
-60.14999999999996
 21
-9.52500000000007
 31
0.0
  0
LINE
  5
100
330
FB
100
AcDbEntity
  8
치수문자_일반주서
 62
     0
370
    -2
100
AcDbLine
 10
-60.15000000000002
 20
9.524999999999938
 30
0.0
 11
-60.15000000000015
 21
48.77499999999995
 31
0.0
  0
LINE
  5
101
330
FB
100
AcDbEntity
  8
치수문자_일반주서
 62
     0
370
    -2
100
AcDbLine
 10
-60.15000000000002
 20
9.524999999999938
 30
0.0
 11
-60.14999999999996
 21
-9.52500000000007
 31
0.0
  0
LINE
  5
102
330
FB
100
AcDbEntity
  8
치수문자_일반주서
 62
     0
370
    -2
100
AcDbLine
 10
-60.15000000000003
 20
13.52499999999994
 30
0.0
 11
-60.15000000000005
 21
17.52499999999994
 31
0.0
  0
LINE
  5
103
330
FB
100
AcDbEntity
  8
치수문자_일반주서
 62
     0
370
    -2
100
AcDbLine
 10
-60.14999999999994
 20
-13.52500000000007
 30
0.0
 11
-60.14999999999993
 21
-17.52500000000007
 31
0.0
  0
SOLID
  5
104
330
FB
100
AcDbEntity
  8
치수문자_일반주서
 62
     0
100
AcDbTrace
 10
-60.8166666666667
 20
13.52499999999994
 30
0.0
 11
-59.48333333333337
 21
13.52499999999994
 31
0.0
 12
-60.15000000000002
 22
9.524999999999938
 32
0.0
 13
-60.15000000000002
 23
9.524999999999938
 33
0.0
  0
SOLID
  5
105
330
FB
100
AcDbEntity
  8
치수문자_일반주서
 62
     0
100
AcDbTrace
 10
-59.48333333333328
 20
-13.52500000000007
 30
0.0
 11
-60.81666666666661
 21
-13.52500000000007
 31
0.0
 12
-60.14999999999996
 22
-9.52500000000007
 32
0.0
 13
-60.14999999999996
 23
-9.52500000000007
 33
0.0
  0
MTEXT
  5
106
330
FB
100
AcDbEntity
  8
치수문자_일반주서
 62
     0
100
AcDbMText
 10
-65.02500000000009
 20
33.14999999999993
 30
0.0
 40
4.0
 41
0.0
 71
     2
 72
     1
  1
\A1;%%c19.05 [3/4]
  7
SLDTEXTSTYLE0
 11
-3.356894814614645E-15
 21
1.0
 31
0.0
 73
     1
 44
1.0
  0
POINT
  5
1A5
330
FB
100
AcDbEntity
  8
Defpoints
 62
     0
100
AcDbPoint
 10
-43.24500000000001
 20
9.525000000000002
 30
0.0
  0
POINT
  5
1A6
330
FB
100
AcDbEntity
  8
Defpoints
 62
     0
100
AcDbPoint
 10
-43.24500000000001
 20
-9.52500000000001
 30
0.0
  0
POINT
  5
1A7
330
FB
100
AcDbEntity
  8
Defpoints
 62
     0
100
AcDbPoint
 10
-60.14999999999996
 20
-9.525000000000073
 30
0.0
  0
ENDBLK
  5
FD
330
FB
100
AcDbEntity
  8
0
100
AcDbBlockEnd
  0
BLOCK
  5
110
330
10F
100
AcDbEntity
  8
0
100
AcDbBlockBegin
  2
_D_3
 70
     0
 10
0.0
 20
0.0
 30
0.0
  3
_D_3
  1
_D_3
  0
LINE
  5
112
330
10F
100
AcDbEntity
  8
치수문자_일반주서
 62
     0
370
    -2
100
AcDbLine
 10
113.6625
 20
-9.524999999999986
 30
0.0
 11
128.6
 21
-9.524999999999928
 31
0.0
  0
LINE
  5
113
330
10F
100
AcDbEntity
  8
치수문자_일반주서
 62
     0
370
    -2
100
AcDbLine
 10
113.6625
 20
9.525000000000015
 30
0.0
 11
128.6
 21
9.52500000000007
 31
0.0
  0
LINE
  5
114
330
10F
100
AcDbEntity
  8
치수문자_일반주서
 62
     0
370
    -2
100
AcDbLine
 10
128.6
 20
9.52500000000007
 30
0.0
 11
128.5999999999998
 21
53.98997268430735
 31
0.0
  0
LINE
  5
115
330
10F
100
AcDbEntity
  8
치수문자_일반주서
 62
     0
370
    -2
100
AcDbLine
 10
128.6
 20
-9.524999999999928
 30
0.0
 11
128.6
 21
9.52500000000007
 31
0.0
  0
LINE
  5
116
330
10F
100
AcDbEntity
  8
치수문자_일반주서
 62
     0
370
    -2
100
AcDbLine
 10
128.6
 20
-13.52499999999993
 30
0.0
 11
128.6
 21
-17.52499999999993
 31
0.0
  0
LINE
  5
117
330
10F
100
AcDbEntity
  8
치수문자_일반주서
 62
     0
370
    -2
100
AcDbLine
 10
128.6
 20
13.52500000000007
 30
0.0
 11
128.6
 21
17.52500000000007
 31
0.0
  0
SOLID
  5
118
330
10F
100
AcDbEntity
  8
치수문자_일반주서
 62
     0
100
AcDbTrace
 10
129.2666666666667
 20
-13.52499999999993
 30
0.0
 11
127.9333333333334
 21
-13.52499999999993
 31
0.0
 12
128.6
 22
-9.524999999999928
 32
0.0
 13
128.6
 23
-9.524999999999928
 33
0.0
  0
SOLID
  5
119
330
10F
100
AcDbEntity
  8
치수문자_일반주서
 62
     0
100
AcDbTrace
 10
127.9333333333333
 20
13.52500000000007
 30
0.0
 11
129.2666666666666
 21
13.52500000000007
 31
0.0
 12
128.6
 22
9.52500000000007
 32
0.0
 13
128.6
 23
9.52500000000007
 33
0.0
  0
MTEXT
  5
11A
330
10F
100
AcDbEntity
  8
치수문자_일반주서
 62
     0
100
AcDbMText
 10
123.7249999999999
 20
38.36497268430733
 30
0.0
 40
4.0
 41
0.0
 71
     2
 72
     1
  1
\A1;%%c19.05 [3/4]
  7
SLDTEXTSTYLE0
 11
-2.983906501879686E-15
 21
1.0
 31
0.0
 73
     1
 44
1.0
  0
POINT
  5
11B
330
10F
100
AcDbEntity
  8
Defpoints
 62
     0
100
AcDbPoint
 10
113.6
 20
-9.524999999999986
 30
0.0
  0
POINT
  5
11C
330
10F
100
AcDbEntity
  8
Defpoints
 62
     0
100
AcDbPoint
 10
113.6
 20
9.525000000000015
 30
0.0
  0
POINT
  5
11D
330
10F
100
AcDbEntity
  8
Defpoints
 62
     0
100
AcDbPoint
 10
128.6
 20
9.525000000000071
 30
0.0
  0
ENDBLK
  5
111
330
10F
100
AcDbEntity
  8
0
100
AcDbBlockEnd
  0
BLOCK
  5
129
330
128
100
AcDbEntity
  8
0
100
AcDbBlockBegin
  2
SW_DOWELSYMBOL_0
 70
     0
 10
0.0
 20
0.0
 30
0.0
  3
SW_DOWELSYMBOL_0
  1
SW_DOWELSYMBOL_0
  0
CIRCLE
  5
12B
330
128
100
AcDbEntity
  8
해칭선
 62
     0
100
AcDbCircle
 10
0.0
 20
0.0
 30
0.0
 40
3.000000000000001
  0
HATCH
  5
12C
330
128
100
AcDbEntity
  8
0
  6
Continuous
 62
     0
370
     0
100
AcDbHatch
 10
0.0
 20
0.0
 30
0.0
210
0.0
220
0.0
230
1.0
  2
SOLID
 70
     1
 71
     0
 91
        1
 92
        0
 93
        3
 72
     2
 10
0.0
 20
0.0
 40
3.000000000000001
 50
0.0
 51
90.0
 73
     1
 72
     1
 10
0.0
 20
3.000000000000001
 11
0.0
 21
0.0
 72
     1
 10
0.0
 20
0.0
 11
3.000000000000001
 21
0.0
 97
        0
 75
     0
 76
     1
 98
        1
 10
0.0
 20
0.0
  0
HATCH
  5
12D
330
128
100
AcDbEntity
  8
0
  6
Continuous
 62
     0
370
     0
100
AcDbHatch
 10
0.0
 20
0.0
 30
0.0
210
0.0
220
0.0
230
1.0
  2
SOLID
 70
     1
 71
     0
 91
        1
 92
        0
 93
        3
 72
     2
 10
0.0
 20
0.0
 40
3.000000000000001
 50
180.0
 51
270.0000000000007
 73
     1
 72
     1
 10
0.0
 20
-3.000000000000001
 11
0.0
 21
0.0
 72
     1
 10
0.0
 20
0.0
 11
-3.000000000000001
 21
0.0
 97
        0
 75
     0
 76
     1
 98
        1
 10
0.0
 20
0.0
  0
ENDBLK
  5
12A
330
128
100
AcDbEntity
  8
0
100
AcDbBlockEnd
  0
BLOCK
  5
18A
330
189
100
AcDbEntity
  8
0
100
AcDbBlockBegin
  2
*D7
 70
     1
 10
0.0
 20
0.0
 30
0.0
  3
*D7
  1
*D7
  0
LINE
  5
18C
330
189
100
AcDbEntity
  8
치수문자_일반주서
 62
     0
370
    -2
100
AcDbLine
 10
0.0
 20
0.0625000000000001
 30
0.0
 11
0.0
 21
31.64047088264928
 31
0.0
  0
LINE
  5
18D
330
189
100
AcDbEntity
  8
치수문자_일반주서
 62
     0
370
    -2
100
AcDbLine
 10
38.00011895067188
 20
10.47787127993619
 30
0.0
 11
38.00011895067188
 21
31.64047088264928
 31
0.0
  0
LINE
  5
18E
330
189
100
AcDbEntity
  8
치수문자_일반주서
 62
     0
370
    -2
100
AcDbLine
 10
4.0
 20
31.64047088264928
 30
0.0
 11
34.00011895067188
 21
31.64047088264928
 31
0.0
  0
SOLID
  5
18F
330
189
100
AcDbEntity
  8
치수문자_일반주서
 62
     0
100
AcDbTrace
 10
4.0
 20
32.30713754931594
 30
0.0
 11
4.0
 21
30.97380421598261
 31
0.0
 12
0.0
 22
31.64047088264928
 32
0.0
 13
0.0
 23
31.64047088264928
 33
0.0
  0
SOLID
  5
190
330
189
100
AcDbEntity
  8
치수문자_일반주서
 62
     0
100
AcDbTrace
 10
34.00011895067188
 20
30.97380421598261
 30
0.0
 11
34.00011895067188
 21
32.30713754931594
 31
0.0
 12
38.00011895067188
 22
31.64047088264928
 32
0.0
 13
38.00011895067188
 23
31.64047088264928
 33
0.0
  0
MTEXT
  5
191
330
189
100
AcDbEntity
  8
치수문자_일반주서
 62
     0
100
AcDbMText
 10
19.06814435762387
 20
36.51547088264928
 30
0.0
 40
4.0
 41
0.0
 71
     2
 72
     1
  1
\A1;38 [1.50]
  7
SLDTEXTSTYLE0
 73
     1
 44
1.0
  0
POINT
  5
192
330
189
100
AcDbEntity
  8
Defpoints
 62
     0
100
AcDbPoint
 10
0.0
 20
0.0000000000000001
 30
0.0
  0
POINT
  5
193
330
189
100
AcDbEntity
  8
Defpoints
 62
     0
100
AcDbPoint
 10
38.00011895067188
 20
10.41537127993619
 30
0.0
  0
POINT
  5
194
330
189
100
AcDbEntity
  8
Defpoints
 62
     0
100
AcDbPoint
 10
38.00011895067188
 20
31.64047088264928
 30
0.0
  0
ENDBLK
  5
18B
330
189
100
AcDbEntity
  8
0
100
AcDbBlockEnd
  0
BLOCK
  5
199
330
198
100
AcDbEntity
  8
0
100
AcDbBlockBegin
  2
*D8
 70
     1
 10
0.0
 20
0.0
 30
0.0
  3
*D8
  1
*D8
  0
LINE
  5
19B
330
198
100
AcDbEntity
  8
치수문자_일반주서
 62
     0
370
    -2
100
AcDbLine
 10
187.6585745144592
 20
-38.59820715525065
 30
0.0
 11
187.6585745144592
 21
-7.020236272601373
 31
0.0
  0
LINE
  5
19C
330
198
100
AcDbEntity
  8
치수문자_일반주서
 62
     0
370
    -2
100
AcDbLine
 10
225.6586934651311
 20
-28.18283587531446
 30
0.0
 11
225.6586934651311
 21
-7.020236272601373
 31
0.0
  0
LINE
  5
19D
330
198
100
AcDbEntity
  8
치수문자_일반주서
 62
     0
370
    -2
100
AcDbLine
 10
191.6585745144592
 20
-7.020236272601373
 30
0.0
 11
221.6586934651311
 21
-7.020236272601373
 31
0.0
  0
SOLID
  5
19E
330
198
100
AcDbEntity
  8
치수문자_일반주서
 62
     0
100
AcDbTrace
 10
191.6585745144592
 20
-6.353569605934706
 30
0.0
 11
191.6585745144592
 21
-7.68690293926804
 31
0.0
 12
187.6585745144592
 22
-7.020236272601373
 32
0.0
 13
187.6585745144592
 23
-7.020236272601373
 33
0.0
  0
SOLID
  5
19F
330
198
100
AcDbEntity
  8
치수문자_일반주서
 62
     0
100
AcDbTrace
 10
221.6586934651311
 20
-7.68690293926804
 30
0.0
 11
221.6586934651311
 21
-6.353569605934706
 31
0.0
 12
225.6586934651311
 22
-7.020236272601373
 32
0.0
 13
225.6586934651311
 23
-7.020236272601373
 33
0.0
  0
MTEXT
  5
1A0
330
198
100
AcDbEntity
  8
치수문자_일반주서
 62
     0
100
AcDbMText
 10
206.726718872083
 20
-2.145236272601373
 30
0.0
 40
4.0
 41
0.0
 71
     2
 72
     1
  1
\A1;38 [1.50]
  7
SLDTEXTSTYLE0
 73
     1
 44
1.0
  0
POINT
  5
1A1
330
198
100
AcDbEntity
  8
Defpoints
 62
     0
100
AcDbPoint
 10
187.6585745144592
 20
-38.66070715525065
 30
0.0
  0
POINT
  5
1A2
330
198
100
AcDbEntity
  8
Defpoints
 62
     0
100
AcDbPoint
 10
225.6586934651311
 20
-28.24533587531446
 30
0.0
  0
POINT
  5
1A3
330
198
100
AcDbEntity
  8
Defpoints
 62
     0
100
AcDbPoint
 10
225.6586934651311
 20
-7.020236272601373
 30
0.0
  0
ENDBLK
  5
19A
330
198
100
AcDbEntity
  8
0
100
AcDbBlockEnd
  0
ENDSEC
  0
SECTION
  2
ENTITIES
  0
LINE
  5
96
330
1F
100
AcDbEntity
  8
0
  6
Continuous
 62
     1
370
    15
100
AcDbLine
 10
32.35417841372976
 20
2.797588705978448
 30
0.0
 11
32.24370392419381
 21
2.857589532305248
 31
0.0
1001
PE_URL
1000

  0
LINE
  5
97
330
1F
100
AcDbEntity
  8
0
  6
Continuous
 62
     1
370
    15
100
AcDbLine
 10
73.90599724649394
 20
-2.795701576920651
 30
0.0
 11
74.02007980511269
 21
-2.857421798168018
 31
0.0
1001
PE_URL
1000

  0
LINE
  5
98
330
1F
100
AcDbEntity
  8
0
  6
Continuous
 62
     1
370
    15
100
AcDbLine
 10
63.18422413116358
 20
-9.525000000000011
 30
0.0
 11
68.99283666788017
 21
-9.525000000000011
 31
0.0
1001
PE_URL
1000

  0
LINE
  5
99
330
1F
100
AcDbEntity
  8
0
  6
Continuous
 62
     1
370
    15
100
AcDbLine
 10
17.16570715352391
 20
9.525000000000004
 30
0.0
 11
12.0
 21
9.525000000000004
 31
0.0
1001
PE_URL
1000

  0
LINE
  5
9A
330
1F
100
AcDbEntity
  8
0
  6
Continuous
 62
     1
370
    15
100
AcDbLine
 10
37.27138355176709
 20
-9.525000000000011
 30
0.0
 11
43.07990504554022
 21
-9.525000000000011
 31
0.0
1001
PE_URL
1000

  0
LINE
  5
9B
330
1F
100
AcDbEntity
  8
0
  6
Continuous
 62
     1
370
    15
100
AcDbLine
 10
94.90818644898695
 20
9.525000000000004
 30
0.0
 11
89.1004195318416
 21
9.525000000000004
 31
0.0
1001
PE_URL
1000

  0
LINE
  5
9C
330
1F
100
AcDbEntity
  8
0
  6
Continuous
 62
     1
370
    15
100
AcDbLine
 10
12.0
 20
-9.525000000000011
 30
0.0
 11
17.16570715352402
 21
-9.525000000000011
 31
0.0
1001
PE_URL
1000

  0
LINE
  5
9D
330
1F
100
AcDbEntity
  8
0
  6
Continuous
 62
     1
370
    15
100
AcDbLine
 10
68.99283666788025
 20
9.525000000000004
 30
0.0
 11
63.18422413116361
 21
9.525000000000004
 31
0.0
1001
PE_URL
1000

  0
LINE
  5
9E
330
1F
100
AcDbEntity
  8
0
  6
Continuous
 62
     1
370
    15
100
AcDbLine
 10
89.10041953184148
 20
-9.525000000000011
 30
0.0
 11
94.90818644898695
 21
-9.525000000000011
 31
0.0
1001
PE_URL
1000

  0
LINE
  5
9F
330
1F
100
AcDbEntity
  8
0
  6
Continuous
 62
     1
370
    15
100
AcDbLine
 10
43.07990504554024
 20
9.525000000000004
 30
0.0
 11
37.27138355176704
 21
9.525000000000004
 31
0.0
1001
PE_URL
1000

  0
LINE
  5
A0
330
1F
100
AcDbEntity
  8
외형선
  6
Continuous
370
    15
100
AcDbLine
 10
-43.245
 20
-9.525000000000004
 30
0.0
 11
12.0
 21
-9.525000000000004
 31
0.0
  0
LINE
  5
A1
330
1F
100
AcDbEntity
  8
외형선
  6
Continuous
370
    15
100
AcDbLine
 10
12.0
 20
9.524999999999997
 30
0.0
 11
-11.65692500000002
 21
9.524999999999997
 31
0.0
  0
LINE
  5
A2
330
1F
100
AcDbEntity
  8
외형선
  6
Continuous
370
    15
100
AcDbLine
 10
-43.245
 20
9.524999999999997
 30
0.0
 11
-45.15000000000001
 21
7.620000000000002
 31
0.0
  0
LINE
  5
A3
330
1F
100
AcDbEntity
  8
외형선
  6
Continuous
370
    15
100
AcDbLine
 10
-45.15000000000001
 20
-7.620000000000009
 30
0.0
 11
-43.245
 21
-9.525000000000004
 31
0.0
  0
SPLINE
  5
A4
330
1F
100
AcDbEntity
  8
0
  6
Continuous
 62
     1
370
    15
100
AcDbSpline
210
0.0
220
0.0
230
1.0
 70
     8
 71
     3
 72
    28
 73
    24
 74
     0
 42
0.000000001
 43
0.00000001
 40
0.0
 40
0.0
 40
0.0
 40
0.0
 40
0.017629294954607
 40
0.0681810892194534
 40
0.1187325212542897
 40
0.1692835539091155
 40
0.2198341500784736
 40
0.2703842727055633
 40
0.3209338847863462
 40
0.3724882543341699
 40
0.4240406696882298
 40
0.4755914754603243
 40
0.5271438659870065
 40
0.5786982132301509
 40
0.6302543075375935
 40
0.6818119386365948
 40
0.7333708957079481
 40
0.7849309674605053
 40
0.8364919422060684
 40
0.8880536079345802
 40
0.9396157523895662
 40
0.9911781631437663
 40
1.0
 40
1.0
 40
1.0
 40
1.0
 10
17.1657071535239
 20
9.486146410653772
 30
0.0
 10
17.52935883628016
 20
9.496655590608574
 30
0.0
 10
18.93577740779146
 20
9.537299719484212
 30
0.0
 10
21.38495137365013
 20
9.256026264718283
 30
0.0
 10
24.51322014448019
 20
8.651274177252915
 30
0.0
 10
27.64145923665346
 20
7.713277170043516
 30
0.0
 10
30.76966511334183
 20
6.504989149779537
 30
0.0
 10
33.89783908294181
 20
5.061858773590335
 30
0.0
 10
37.04669979461094
 20
3.426995225588692
 30
0.0
 10
40.21627491214436
 20
1.655051003531075
 30
0.0
 10
43.40646291406663
 20
-0.1901311882493581
 30
0.0
 10
46.59658248578644
 20
-2.028269601765409
 30
0.0
 10
49.78677239218785
 20
-3.790752684927521
 30
0.0
 10
52.97709458283468
 20
-5.411930118898286
 30
0.0
 10
56.16754674403669
 20
-6.831338756516647
 30
0.0
 10
59.3581129305534
 20
-7.996091931498419
 30
0.0
 10
62.54877758382047
 20
-8.862580437955797
 30
0.0
 10
65.73952499490662
 20
-9.39911796901884
 30
0.0
 10
68.93033945167227
 20
-9.583330719092668
 30
0.0
 10
72.12120522178716
 20
-9.417147382244512
 30
0.0
 10
75.31210650822484
 20
-8.873901107473577
 30
0.0
 10
77.62136369765227
 20
-8.311283609609886
 30
0.0
 10
78.86698458593341
 20
-7.856292820166989
 30
0.0
 10
79.04896357376529
 20
-7.789820939264385
 30
0.0
1001
PE_URL
1000

  0
SPLINE
  5
A5
330
1F
100
AcDbEntity
  8
0
  6
Continuous
 62
     1
370
    15
100
AcDbSpline
210
0.0
220
0.0
230
1.0
 70
     8
 71
     3
 72
    28
 73
    24
 74
     0
 42
0.000000001
 43
0.00000001
 40
0.0
 40
0.0
 40
0.0
 40
0.0
 40
0.0165576223075764
 40
0.0681196828389082
 40
0.1196821146205222
 40
0.1712447051670773
 40
0.2228072419365746
 40
0.2743695124062079
 40
0.3259313041481961
 40
0.3774924049055469
 40
0.429052602667685
 40
0.4806116857458951
 40
0.5321694428485128
 40
0.5837256631558155
 40
0.6352801363945505
 40
0.686832652912042
 40
0.7383835846710715
 40
0.7899361260160009
 40
0.8414906215594706
 40
0.8920403571803335
 40
0.9425906033487519
 40
0.9931413230605961
 40
1.0
 40
1.0
 40
1.0
 40
1.0
 10
89.10041953184148
 20
-9.486207203194528
 30
0.0
 10
88.75886728685091
 20
-9.497074562458732
 30
0.0
 10
87.35368783720085
 20
-9.541783944797727
 30
0.0
 10
84.88486560407108
 20
-9.257511929900419
 30
0.0
 10
81.69395278512272
 20
-8.63895608804921
 30
0.0
 10
78.50302758336306
 20
-7.673065361944754
 30
0.0
 10
75.31210653388158
 20
-6.427812454716593
 30
0.0
 10
72.12120521491252
 20
-4.941071350212294
 30
0.0
 10
68.93033945351425
 20
-3.270578367039582
 30
0.0
 10
65.7395249944133
 20
-1.478012637834848
 30
0.0
 10
62.54877758395204
 20
0.3696162908704059
 30
0.0
 10
59.35811293052056
 20
2.203456902903962
 30
0.0
 10
56.16754674403661
 20
3.955117729479122
 30
0.0
 10
52.97709458286788
 20
5.559294779728967
 30
0.0
 10
49.78677239205519
 20
6.956167396469316
 30
0.0
 10
46.59658248628384
 20
8.09371533900139
 30
0.0
 10
43.40646291220986
 20
8.929378451555309
 30
0.0
 10
40.2162749190744
 20
9.432638650586366
 30
0.0
 10
37.04669976895968
 20
9.581291825372253
 30
0.0
 10
33.89783917659923
 20
9.386949236548404
 30
0.0
 10
30.76966476357313
 20
8.831024047637253
 30
0.0
 10
28.54272717912293
 20
8.280055367808485
 30
0.0
 10
27.35851180430283
 20
7.845930845579083
 30
0.0
 10
27.21703408190301
 20
7.794066167963108
 30
0.0
1001
PE_URL
1000

  0
LINE
  5
A6
330
1F
100
AcDbEntity
  8
0
  6
Continuous
 62
     1
370
    15
100
AcDbLine
 10
113.6
 20
4.003942584880012
 30
0.0
 11
113.6
 21
9.525000000000015
 31
0.0
1001
PE_URL
1000

  0
SPLINE
  5
A7
330
1F
100
AcDbEntity
  8
0
  6
Continuous
 62
     1
370
    15
100
AcDbSpline
210
0.0
220
0.0
230
1.0
 70
     8
 71
     3
 72
    21
 73
    17
 74
     0
 42
0.000000001
 43
0.00000001
 40
0.0
 40
0.0
 40
0.0
 40
0.0
 40
0.0760544594089124
 40
0.1521084858126433
 40
0.2281620232048301
 40
0.3042150156336978
 40
0.3802674072082721
 40
0.4563191421045959
 40
0.5323701645719123
 40
0.6084204189388439
 40
0.6859822983766742
 40
0.763541237793272
 40
0.8410977556459276
 40
0.9186566577105396
 40
0.9962185035917024
 40
1.0
 40
1.0
 40
1.0
 40
1.0
 10
12.0
 20
2.933519746678447
 30
0.0
 10
13.04278081403392
 20
2.350570969202207
 30
0.0
 10
15.12833650517842
 20
1.184676733185175
 30
0.0
 10
18.25665597286732
 20
-0.6348109522630376
 30
0.0
 10
21.38495154498508
 20
-2.423987688796359
 30
0.0
 10
24.51322009860701
 20
-4.128289148102079
 30
0.0
 10
27.64145924881291
 20
-5.68406087638858
 30
0.0
 10
30.76966511057675
 20
-7.036207770833233
 30
0.0
 10
33.89783908184273
 20
-8.136132800380414
 30
0.0
 10
37.04669980182692
 20
-8.949613695841988
 30
0.0
 10
40.21627488376112
 20
-9.440961613503218
 30
0.0
 10
43.4064630201451
 20
-9.581247456071008
 30
0.0
 10
46.59658208986229
 20
-9.37279766220194
 30
0.0
 10
49.78677386988397
 20
-8.783250848468231
 30
0.0
 10
51.96546076831491
 20
-8.237688002235846
 30
0.0
 10
53.08075826306867
 20
-7.823021480538951
 30
0.0
 10
53.13260631051656
 20
-7.803744427023518
 30
0.0
1001
PE_URL
1000

  0
SPLINE
  5
A8
330
1F
100
AcDbEntity
  8
0
  6
Continuous
 62
     1
370
    15
100
AcDbSpline
210
0.0
220
0.0
230
1.0
 70
     8
 71
     3
 72
    13
 73
     9
 74
     0
 42
0.000000001
 43
0.00000001
 40
0.0
 40
0.0
 40
0.0
 40
0.0
 40
0.1465818860176983
 40
0.3172763708100393
 40
0.4879661207122389
 40
0.6586504386267485
 40
0.8293286293865987
 40
1.0
 40
1.0
 40
1.0
 40
1.0
 10
94.90818644898695
 20
9.503431429500559
 30
0.0
 10
95.82149462240594
 20
9.486837888484724
 30
0.0
 10
97.79834940689494
 20
9.450921182707338
 30
0.0
 10
100.8387036171179
 20
8.966081179769311
 30
0.0
 10
104.0292157997641
 20
8.159020999253697
 30
0.0
 10
107.2196052831217
 20
7.035424435234525
 30
0.0
 10
110.4098594765898
 20
5.662871832168908
 30
0.0
 10
112.5366339898113
 20
4.579756829335484
 30
0.0
 10
113.6000000000001
 20
4.038210148209429
 30
0.0
1001
PE_URL
1000

  0
SPLINE
  5
A9
330
1F
100
AcDbEntity
  8
외형선
  6
Continuous
370
    15
100
AcDbSpline
210
0.0
220
0.0
230
1.0
 70
    24
 71
     3
 72
    15
 73
    11
 74
     0
 42
0.000000001
 43
0.00000001
 40
0.0
 40
0.0
 40
0.0
 40
0.0
 40
0.1350737775027261
 40
0.2743241883316281
 40
0.4053495952773538
 40
0.5401747479007967
 40
0.6712001548465235
 40
0.8060253074699689
 40
0.9370507144156964
 40
1.0
 40
1.0
 40
1.0
 40
1.0
 10
12.0
 20
9.51777367922918
 30
0.0
 10
12.00000000000001
 20
9.204858433907319
 30
0.0
 10
12.00000000000004
 20
8.569352251459888
 30
0.0
 10
12.0
 20
7.585593061176644
 30
0.0
 10
12.00000000000007
 20
6.607506452377002
 30
0.0
 10
12.00000000000002
 20
5.676101486282459
 30
0.0
 10
11.99999999999995
 20
4.789205888460005
 30
0.0
 10
12.00000000000002
 20
3.996734822059706
 30
0.0
 10
11.99999999999998
 20
3.402396826027944
 30
0.0
 10
12.0
 20
3.131398293156042
 30
0.0
 10
12.0
 20
3.043452985362658
 30
0.0
  0
SPLINE
  5
AA
330
1F
100
AcDbEntity
  8
0
  6
Continuous
 62
     1
370
    15
100
AcDbSpline
210
0.0
220
0.0
230
1.0
 70
     8
 71
     3
 72
    10
 73
     6
 74
     0
 42
0.000000001
 43
0.00000001
 40
0.0
 40
0.0
 40
0.0
 40
0.0
 40
0.3694069188020448
 40
0.7388285993610244
 40
0.9999999999999999
 40
0.9999999999999999
 40
0.9999999999999999
 40
0.9999999999999999
 10
113.6
 20
9.525000000000015
 30
0.0
 10
112.5366338434082
 20
9.401089385516135
 30
0.0
 10
110.4098590373748
 20
9.223319236095511
 30
0.0
 10
107.5312549173921
 20
8.619434268142143
 30
0.0
 10
105.7160118673026
 20
8.02604081526027
 30
0.0
 10
104.9641964985208
 20
7.780276305880084
 30
0.0
1001
PE_URL
1000

  0
SPLINE
  5
AB
330
1F
100
AcDbEntity
  8
0
  6
Continuous
 62
     1
370
    15
100
AcDbSpline
210
0.0
220
0.0
230
1.0
 70
     8
 71
     3
 72
    24
 73
    20
 74
     0
 42
0.000000001
 43
0.00000001
 40
0.0
 40
0.0
 40
0.0
 40
0.0
 40
0.0124150346715321
 40
0.0747509497694905
 40
0.1370852617376605
 40
0.1994177156909754
 40
0.2617480574050609
 40
0.3240760334058321
 40
0.3864020934033884
 40
0.4487300994210058
 40
0.5110604681019411
 40
0.5721760628673966
 40
0.6332922748945874
 40
0.6944090594448142
 40
0.7555263717155883
 40
0.8166441668455945
 40
0.8777623999196643
 40
0.9388810259737657
 40
1.0
 40
1.0
 40
1.0
 40
1.0
 10
63.18422413116358
 20
-9.496634607518581
 30
0.0
 10
62.97240165189704
 20
-9.505471587889044
 30
0.0
 10
61.69701806041908
 20
-9.558679065214996
 30
0.0
 10
59.35811362754348
 20
-9.308448794211388
 30
0.0
 10
56.16754655728671
 20
-8.73565008954077
 30
0.0
 10
52.97709463287207
 20
-7.806170212636797
 30
0.0
 10
49.78677237877991
 20
-6.593958824198405
 30
0.0
 10
46.5965824893833
 20
-5.133698212005398
 30
0.0
 10
43.40646291308654
 20
-3.482604503814386
 30
0.0
 10
40.21627491246782
 20
-1.70154236546531
 30
0.0
 10
37.0466997943015
 20
0.1309550531668541
 30
0.0
 10
33.89783908384244
 20
1.946192337412247
 30
0.0
 10
30.769665110041
 20
3.679711068547021
 30
0.0
 10
27.64145924895651
 20
5.281451909761022
 30
0.0
 10
24.51322009856861
 20
6.693407241490818
 30
0.0
 10
21.38495154499547
 20
7.867188353760264
 30
0.0
 10
18.25665597286465
 20
8.752394594499979
 30
0.0
 10
15.12833650517921
 20
9.34835051346965
 30
0.0
 10
13.04278081403426
 20
9.461299183465684
 30
0.0
 10
12.0000000000001
 20
9.51777367922843
 30
0.0
1001
PE_URL
1000

  0
SPLINE
  5
AC
330
1F
100
AcDbEntity
  8
0
  6
Continuous
 62
     1
370
    15
100
AcDbSpline
210
0.0
220
0.0
230
1.0
 70
     8
 71
     3
 72
    28
 73
    24
 74
     0
 42
0.000000001
 43
0.00000001
 40
0.0
 40
0.0
 40
0.0
 40
0.0
 40
0.0052775053725325
 40
0.0568279618288732
 40
0.1083800030290632
 40
0.1599340009324562
 40
0.2114897458883091
 40
0.2630470276253072
 40
0.3146056353256723
 40
0.366165357699688
 40
0.4177259830605908
 40
0.4692872993997603
 40
0.52084909446216
 40
0.5724111558219692
 40
0.62397327095834
 40
0.6755352273312341
 40
0.7270968124572681
 40
0.7786578139855241
 40
0.830218019773247
 40
0.88177721796139
 40
0.9333351970499405
 40
0.9848917459729694
 40
1.0
 40
1.0
 40
1.0
 40
1.0
 10
43.07990504554022
 20
9.5086696650958
 30
0.0
 10
43.18876724456201
 20
9.513994785556884
 30
0.0
 10
44.36099094760463
 20
9.571335464710245
 30
0.0
 10
46.59658043403058
 20
9.344584410034209
 30
0.0
 10
49.78677294198432
 20
8.809200587796905
 30
0.0
 10
52.97709443550771
 20
7.908778758695342
 30
0.0
 10
56.16754678352108
 20
6.723276702059327
 30
0.0
 10
59.3581129199494
 20
5.284453170721077
 30
0.0
 10
62.54877758675051
 20
3.649282094139512
 30
0.0
 10
65.73952499379084
 20
1.877838052594206
 30
0.0
 10
68.93033945320542
 20
0.0364124937935291
 30
0.0
 10
72.12120521677036
 20
-1.806394482138553
 30
0.0
 10
75.31210652675918
 20
-3.581847225401413
 30
0.0
 10
78.50302760999489
 20
-5.223745955509494
 30
0.0
 10
81.69395268571799
 20
-6.67085257553935
 30
0.0
 10
84.8848659750555
 20
-7.86924250554128
 30
0.0
 10
88.07575169030665
 20
-8.774090228144042
 30
0.0
 10
91.26659410336481
 20
-9.352177745181237
 30
0.0
 10
94.4573773177639
 20
-9.580013502998446
 30
0.0
 10
97.64808614701786
 20
-9.456351030941995
 30
0.0
 10
100.8387028642023
 20
-8.958784658494485
 30
0.0
 10
103.2773988695079
 20
-8.383950862139658
 30
0.0
 10
104.6525465735527
 20
-7.891810213046845
 30
0.0
 10
104.9641964985208
 20
-7.780276305880091
 30
0.0
1001
PE_URL
1000

  0
SPLINE
  5
AD
330
1F
100
AcDbEntity
  8
0
  6
Continuous
 62
     1
370
    15
100
AcDbSpline
210
0.0
220
0.0
230
1.0
 70
     8
 71
     3
 72
    26
 73
    22
 74
     0
 42
0.000000001
 43
0.00000001
 40
0.0
 40
0.0
 40
0.0
 40
0.0
 40
0.0527590092378753
 40
0.1055201267623876
 40
0.1582831383515448
 40
0.2110478291109562
 40
0.2638139835494351
 40
0.3165813856550758
 40
0.3693498189717128
 40
0.4221190666757373
 40
0.4748889116531819
 40
0.5276591365770376
 40
0.5804295239847282
 40
0.6331998563556925
 40
0.6859699161890122
 40
0.738739486081019
 40
0.7915083488028349
 40
0.8442762873777704
 40
0.8970430851585351
 40
0.9498085259041906
 40
1.0
 40
1.0
 40
1.0
 40
1.0
 10
113.6
 20
-9.524999999999986
 30
0.0
 10
112.5366339885226
 20
-9.403105486902
 30
0.0
 10
110.4098594727237
 20
-9.229367620817902
 30
0.0
 10
107.2196052985872
 20
-8.52986051398866
 30
0.0
 10
104.0292157417653
 20
-7.537721134496992
 30
0.0
 10
100.8387038336562
 20
-6.257718533913459
 30
0.0
 10
97.64808588724381
 20
-4.746202083884767
 30
0.0
 10
94.45737738737213
 20
-3.057213287416955
 30
0.0
 10
91.26659408471343
 20
-1.254347591166316
 30
0.0
 10
88.07575169530242
 20
0.5953360615083914
 30
0.0
 10
84.88486597372432
 20
2.422819757766564
 30
0.0
 10
81.69395268604688
 20
4.159969401182004
 30
0.0
 10
78.50302761001052
 20
5.742000023682749
 30
0.0
 10
75.31210652636781
 20
7.109929536532326
 30
0.0
 10
72.1212052183204
 20
8.212707205964596
 30
0.0
 10
68.93033944739673
 20
9.009367899982694
 30
0.0
 10
65.73952501547507
 20
9.469631821692449
 30
0.0
 10
62.54877750582438
 20
9.57849624384043
 30
0.0
 10
59.35811322196015
 20
9.32387267431876
 30
0.0
 10
56.21939403470331
 20
8.754663296509694
 30
0.0
 10
54.14424232688521
 20
8.11539001556823
 30
0.0
 10
53.13260631051655
 20
7.803744427023512
 30
0.0
1001
PE_URL
1000

  0
LINE
  5
AE
330
1F
100
AcDbEntity
  8
0
  6
Continuous
 62
     1
370
    15
100
AcDbLine
 10
113.6
 20
-8.62661485166099
 30
0.0
 11
113.6
 21
0.81611485166109
 31
0.0
1001
PE_URL
1000

  0
SPLINE
  5
AF
330
1F
100
AcDbEntity
  8
0
  6
Continuous
 62
     1
370
    15
100
AcDbSpline
210
0.0
220
0.0
230
1.0
 70
     8
 71
     3
 72
    12
 73
     8
 74
     0
 42
0.000000001
 43
0.00000001
 40
0.0
 40
0.0
 40
0.0
 40
0.0
 40
0.2055810548141135
 40
0.4111609391819092
 40
0.6167395017138803
 40
0.8223165911680733
 40
1.0
 40
1.0
 40
1.0
 40
1.0
 10
11.99999999999999
 20
-9.062013401879703
 30
0.0
 10
13.04278081186924
 20
-9.215878173433314
 30
0.0
 10
15.12833649868439
 20
-9.523606840533477
 30
0.0
 10
18.25665599884314
 20
-9.55861266719241
 30
0.0
 10
21.38495144757668
 20
-9.26689363005819
 30
0.0
 10
24.37174250929942
 20
-8.691728478176678
 30
0.0
 10
26.31576552487681
 20
-8.07840778792677
 30
0.0
 10
27.21703408190312
 20
-7.794066167963112
 30
0.0
1001
PE_URL
1000

  0
SPLINE
  5
B0
330
1F
100
AcDbEntity
  8
0
  6
Continuous
 62
     1
370
    15
100
AcDbSpline
210
0.0
220
0.0
230
1.0
 70
     8
 71
     3
 72
    21
 73
    17
 74
     0
 42
0.000000001
 43
0.00000001
 40
0.0
 40
0.0
 40
0.0
 40
0.0
 40
0.0701306740132003
 40
0.1416633444867125
 40
0.2131963843997451
 40
0.2847294989180364
 40
0.3562623931807012
 40
0.4277947724054537
 40
0.4993263419937786
 40
0.5708568076359498
 40
0.6423858754158347
 40
0.7139132519153967
 40
0.7854386443188103
 40
0.8569617605161172
 40
0.9284823092063442
 40
1.0
 40
1.0
 40
1.0
 40
1.0
 10
68.99283666788025
 20
9.521588616797471
 30
0.0
 10
70.0356227782249
 20
9.48993662595433
 30
0.0
 10
72.14204154653603
 20
9.425999882930046
 30
0.0
 10
75.31210663296864
 20
8.885633093176041
 30
0.0
 10
78.50302758144682
 20
8.037146071634178
 30
0.0
 10
81.69395269370048
 20
6.881796254806417
 30
0.0
 10
84.88486597167358
 20
5.471758607683511
 30
0.0
 10
88.07575169585186
 20
3.857181218663539
 30
0.0
 10
91.26659408456618
 20
2.098914983214161
 30
0.0
 10
94.45737738741161
 20
0.2623917231131924
 30
0.0
 10
97.64808588723321
 20
-1.584009912878501
 30
0.0
 10
100.8387038336591
 20
-3.3708906810105
 30
0.0
 10
104.0292157417646
 20
-5.03372403906098
 30
0.0
 10
107.2196052985875
 20
-6.502669088373038
 30
0.0
 10
110.4098594727236
 20
-7.752243017981156
 30
0.0
 10
112.5366339885226
 20
-8.335161455994385
 30
0.0
 10
113.6
 20
-8.626614851660989
 30
0.0
1001
PE_URL
1000

  0
SPLINE
  5
B1
330
1F
100
AcDbEntity
  8
외형선
  6
Continuous
370
    15
100
AcDbSpline
210
0.0
220
0.0
230
1.0
 70
    24
 71
     3
 72
    21
 73
    17
 74
     0
 42
0.000000001
 43
0.00000001
 40
0.0
 40
0.0
 40
0.0
 40
0.0
 40
0.0042979424197896
 40
0.0801006081207369
 40
0.1581015562622489
 40
0.2339042219631971
 40
0.3119051701047103
 40
0.3877078358056588
 40
0.4657087839471721
 40
0.5415114496481207
 40
0.619512397789634
 40
0.6953150634905827
 40
0.7733160116320967
 40
0.8491186773330451
 40
0.9271196254745581
 40
1.0
 40
1.0
 40
1.0
 40
1.0
 10
12.00000000000003
 20
-0.0413770520991036
 30
0.0
 10
12.00000000000004
 20
-0.0397993268912946
 30
0.0
 10
11.99999999999999
 20
-0.0103953153319432
 30
0.0
 10
12.00000000000006
 20
-0.1068242576038032
 30
0.0
 10
12.00000000000001
 20
-0.3357084919803336
 30
0.0
 10
11.99999999999998
 20
-0.740482213339843
 30
0.0
 10
12.00000000000001
 20
-1.278138297314301
 30
0.0
 10
11.99999999999997
 20
-1.949648573969324
 30
0.0
 10
12.0
 20
-2.722181268696572
 30
0.0
 10
11.99999999999996
 20
-3.588230166991033
 30
0.0
 10
12.00000000000009
 20
-4.50761252394859
 30
0.0
 10
11.99999999999999
 20
-5.470725078826937
 30
0.0
 10
12.00000000000002
 20
-6.433563561585774
 30
0.0
 10
11.99999999999998
 20
-7.383963488281499
 30
0.0
 10
12.00000000000004
 20
-8.2747895846398
 30
0.0
 10
12.0
 20
-8.805610418904198
 30
0.0
 10
11.99999999999999
 20
-9.062013401879703
 30
0.0
  0
SPLINE
  5
B2
330
1F
100
AcDbEntity
  8
0
  6
Continuous
 62
     1
370
    15
100
AcDbSpline
210
0.0
220
0.0
230
1.0
 70
     8
 71
     3
 72
    18
 73
    14
 74
     0
 42
0.000000001
 43
0.00000001
 40
0.0
 40
0.0
 40
0.0
 40
0.0
 40
0.0923327174620068
 40
0.184669124603505
 40
0.2770088465179348
 40
0.3693515071219817
 40
0.4616967292878878
 40
0.5540441349765929
 40
0.6463933453715454
 40
0.7387439810131361
 40
0.8310956619336043
 40
0.9234480077923478
 40
1.0
 40
1.0
 40
1.0
 40
1.0
 10
113.6
 20
0.8161148516610893
 30
0.0
 10
112.5366339885226
 20
1.424911869168865
 30
0.0
 10
110.4098594727237
 20
2.64253023213589
 30
0.0
 10
107.2196052985873
 20
4.36226198202156
 30
0.0
 10
104.0292157417653
 20
5.921561774155367
 30
0.0
 10
100.8387038336564
 20
7.259522091467096
 30
0.0
 10
97.6480858872433
 20
8.3269349666599
 30
0.0
 10
94.45737738737404
 20
9.083994459659063
 30
0.0
 10
91.2665940847065
 20
9.501756744453841
 30
0.0
 10
88.07575169532842
 20
9.567456439776716
 30
0.0
 10
84.8848659736272
 20
9.268064685183464
 30
0.0
 10
81.8759315867674
 20
8.689223527703016
 30
0.0
 10
79.93062766880422
 20
8.070323217876728
 30
0.0
 10
79.04896357376543
 20
7.789820939264374
 30
0.0
1001
PE_URL
1000

  0
SPLINE
  5
B3
330
1F
100
AcDbEntity
  8
0
  6
Continuous
 62
     1
370
    15
100
AcDbSpline
210
0.0
220
0.0
230
1.0
 70
     8
 71
     3
 72
    16
 73
    12
 74
     0
 42
0.000000001
 43
0.00000001
 40
0.0
 40
0.0
 40
0.0
 40
0.0
 40
0.0097107080879391
 40
0.1334931292599828
 40
0.25727680062279
 40
0.3810616315634082
 40
0.5048475313396856
 40
0.6286344090903256
 40
0.7524221738449579
 40
0.8762107345342438
 40
0.9999999999999999
 40
0.9999999999999999
 40
0.9999999999999999
 40
0.9999999999999999
 10
37.27138355176709
 20
-9.512383828877288
 30
0.0
 10
37.1895825824124
 20
-9.51653312553372
 30
0.0
 10
36.06506444462367
 20
-9.573573517426778
 30
0.0
 10
33.89783989658305
 20
-9.359083110719494
 30
0.0
 10
30.76966489226471
 20
-8.85382606556689
 30
0.0
 10
27.64145930731019
 20
-7.993729747684739
 30
0.0
 10
24.51322008293299
 20
-6.857103641050537
 30
0.0
 10
21.3849515491836
 20
-5.47204759502075
 30
0.0
 10
18.25665597174783
 20
-3.891296044663222
 30
0.0
 10
15.12833650545839
 20
-2.171810695722272
 30
0.0
 10
13.04278081412732
 20
-0.9712427899426674
 30
0.0
 10
12.0000000000001
 20
-0.3709571282326048
 30
0.0
1001
PE_URL
1000

  0
LINE
  5
B4
330
1F
100
AcDbEntity
  8
외형선
  6
Continuous
370
    15
100
AcDbLine
 10
12.0
 20
9.51777367922918
 30
0.0
 11
12.0
 21
9.525000000000004
 31
0.0
  0
LINE
  5
B5
330
1F
100
AcDbEntity
  8
외형선
  6
Continuous
370
    15
100
AcDbLine
 10
12.0
 20
-0.3709571282328198
 30
0.0
 11
12.0
 21
2.933519746678447
 31
0.0
  0
LINE
  5
B6
330
1F
100
AcDbEntity
  8
0
  6
Continuous
 62
     1
370
    15
100
AcDbLine
 10
113.6
 20
0.8161148516610897
 30
0.0
 11
113.6
 21
4.038210148209429
 31
0.0
1001
PE_URL
1000

  0
LINE
  5
B7
330
1F
100
AcDbEntity
  8
0
  6
Continuous
 62
     1
370
    15
100
AcDbLine
 10
113.6
 20
-9.524999999999986
 30
0.0
 11
113.6
 21
-8.62661485166099
 31
0.0
1001
PE_URL
1000

  0
LINE
  5
B8
330
1F
100
AcDbEntity
  8
외형선
  6
Continuous
370
    15
100
AcDbLine
 10
12.0
 20
-9.525000000000011
 30
0.0
 11
11.99999999999999
 21
-9.062013401879703
 31
0.0
  0
LINE
  5
B9
330
1F
100
AcDbEntity
  8
외형선
  6
Continuous
370
    15
100
AcDbLine
 10
11.50000983110935
 20
-8.969081504966766
 30
0.0
 11
11.50000983110934
 21
-0.0827411229126421
 31
0.0
  0
SPLINE
  5
BA
330
1F
100
AcDbEntity
  8
외형선
  6
Continuous
370
    15
100
AcDbSpline
210
0.0
220
0.0
230
1.0
 70
     8
 71
     3
 72
     8
 73
     4
 74
     0
 42
0.000000001
 43
0.00000001
 40
0.0
 40
0.0
 40
0.0
 40
0.0
 40
1.0
 40
1.0
 40
1.0
 40
1.0
 10
12.00000000000001
 20
-9.062013401879698
 30
0.0
 10
11.83342079778779
 20
-9.03242011493034
 30
0.0
 10
11.66671924816394
 20
-9.001435941716435
 30
0.0
 10
11.50000983110934
 20
-8.969081091049754
 30
0.0
  0
SPLINE
  5
BB
330
1F
100
AcDbEntity
  8
외형선
  6
Continuous
370
    15
100
AcDbSpline
210
0.0
220
0.0
230
1.0
 70
     8
 71
     3
 72
     8
 73
     4
 74
     0
 42
0.000000001
 43
0.00000001
 40
0.0
 40
0.0
 40
0.0
 40
0.0
 40
1.0
 40
1.0
 40
1.0
 40
1.0
 10
11.99999999999999
 20
9.517773679228423
 30
0.0
 10
11.83342079778777
 20
9.521515887118495
 30
0.0
 10
11.66671924816394
 20
9.523805780588884
 30
0.0
 10
11.50000983110935
 20
9.524640650859943
 30
0.0
  0
LINE
  5
BC
330
1F
100
AcDbEntity
  8
외형선
  6
Continuous
370
    15
100
AcDbLine
 10
11.50000983110935
 20
3.206431342982805
 30
0.0
 11
11.50000983110934
 21
9.524640618237472
 31
0.0
  0
SPLINE
  5
BD
330
1F
100
AcDbEntity
  8
외형선
  6
Continuous
370
    15
100
AcDbSpline
210
0.0
220
0.0
230
1.0
 70
     8
 71
     3
 72
     8
 73
     4
 74
     0
 42
0.000000001
 43
0.00000001
 40
0.0
 40
0.0
 40
0.0
 40
0.0
 40
1.0
 40
1.0
 40
1.0
 40
1.0
 10
12.00000000000001
 20
2.933519746678448
 30
0.0
 10
11.83342079778779
 20
3.02493715174088
 30
0.0
 10
11.66671924816394
 20
3.115929027156732
 30
0.0
 10
11.50000983110934
 20
3.206432500797936
 30
0.0
  0
SPLINE
  5
BE
330
1F
100
AcDbEntity
  8
외형선
  6
Continuous
370
    15
100
AcDbSpline
210
0.0
220
0.0
230
1.0
 70
     8
 71
     3
 72
     8
 73
     4
 74
     0
 42
0.000000001
 43
0.00000001
 40
0.0
 40
0.0
 40
0.0
 40
0.0
 40
1.0
 40
1.0
 40
1.0
 40
1.0
 10
11.99999999999999
 20
-0.3709571282325423
 30
0.0
 10
11.83342079778777
 20
-0.2749420228536338
 30
0.0
 10
11.66671924816394
 20
-0.1788467744313693
 30
0.0
 10
11.50000983110935
 20
-0.0827373675326828
 30
0.0
  0
LINE
  5
BF
330
1F
100
AcDbEntity
  8
외형선
  6
Continuous
370
    15
100
AcDbLine
 10
-43.245
 20
-0.0000000000000038
 30
0.0
 11
-43.245
 21
9.524999999999997
 31
0.0
  0
LINE
  5
C0
330
1F
100
AcDbEntity
  8
외형선
  6
Continuous
370
    15
100
AcDbLine
 10
-43.245
 20
-9.525000000000004
 30
0.0
 11
-43.245
 21
-0.0000000000000038
 31
0.0
  0
LINE
  5
C1
330
1F
100
AcDbEntity
  8
외형선
  6
Continuous
370
    15
100
AcDbLine
 10
-45.15000000000001
 20
-0.0000000000000038
 30
0.0
 11
-45.15000000000001
 21
7.620000000000003
 31
0.0
  0
LINE
  5
C2
330
1F
100
AcDbEntity
  8
외형선
  6
Continuous
370
    15
100
AcDbLine
 10
-45.15000000000001
 20
-7.620000000000016
 30
0.0
 11
-45.15000000000001
 21
-0.0000000000000038
 31
0.0
  0
SPLINE
  5
C3
330
1F
100
AcDbEntity
  8
외형선
  6
Continuous
370
    15
100
AcDbSpline
210
0.0
220
0.0
230
1.0
 70
    24
 71
     3
 72
    20
 73
    16
 74
     0
 42
0.000000001
 43
0.00000001
 40
0.0
 40
0.0
 40
0.0
 40
0.0
 40
0.1113198139072931
 40
0.1894836425334094
 40
0.2676474711595259
 40
0.345811299785642
 40
0.4239751284117581
 40
0.5021389570378741
 40
0.5803027856639902
 40
0.6584666142901067
 40
0.7366304429162229
 40
0.8147942715423373
 40
0.8929581001684518
 40
0.9711219287945702
 40
1.0
 40
1.0
 40
1.0
 40
1.0
 10
12.00000000000001
 20
-9.062013401879696
 30
0.0
 10
11.99999999999999
 20
-8.6703176648974
 30
0.0
 10
11.99999999999999
 20
-8.003590580085493
 30
0.0
 10
12.0
 20
-6.939265983484296
 30
0.0
 10
12.00000000000001
 20
-5.981058424609906
 30
0.0
 10
12.00000000000001
 20
-5.014257079262104
 30
0.0
 10
12.00000000000003
 20
-4.06848822473657
 30
0.0
 10
11.99999999999999
 20
-3.171333350386581
 30
0.0
 10
12.00000000000001
 20
-2.346013775715531
 30
0.0
 10
11.99999999999999
 20
-1.619152029197709
 30
0.0
 10
11.99999999999999
 20
-1.007950942806697
 30
0.0
 10
12.0
 20
-0.5313484736613986
 30
0.0
 10
11.99999999999998
 20
-0.2104814688840546
 30
0.0
 10
12.00000000000001
 20
-0.0526306140065093
 30
0.0
 10
12.00000000000001
 20
-0.0574138296950418
 30
0.0
 10
12.00000000000001
 20
-0.0587042593628798
 30
0.0
  0
SPLINE
  5
C4
330
1F
100
AcDbEntity
  8
외형선
  6
Continuous
370
    15
100
AcDbSpline
210
0.0
220
0.0
230
1.0
 70
    24
 71
     3
 72
    14
 73
    10
 74
     0
 42
0.000000001
 43
0.00000001
 40
0.0
 40
0.0
 40
0.0
 40
0.0
 40
0.122276130795499
 40
0.2556106579374037
 40
0.3889451850793048
 40
0.5222797122212061
 40
0.655614239363114
 40
0.7889487665050219
 40
1.0
 40
1.0
 40
1.0
 40
1.0
 10
11.99999999999999
 20
3.043452985362658
 30
0.0
 10
12.0
 20
3.230311620095464
 30
0.0
 10
12.00000000000001
 20
3.620927991864859
 30
0.0
 10
11.99999999999999
 20
4.358401280719657
 30
0.0
 10
11.99999999999999
 20
5.19906229605698
 30
0.0
 10
11.99999999999999
 20
6.109608632837664
 30
0.0
 10
12.00000000000001
 20
7.061185426269477
 30
0.0
 10
12.00000000000007
 20
8.22047174882378
 30
0.0
 10
12.00000000000001
 20
9.024833569873163
 30
0.0
 10
12.0
 20
9.517773679228418
 30
0.0
  0
LINE
  5
C5
330
1F
100
AcDbEntity
  8
중심선
 62
     1
100
AcDbLine
 10
-52.15000000000001
 20
-0.0000000000000078
 30
0.0
 11
120.6
 21
0.0000000000000131
 31
0.0
  0
LINE
  5
C6
330
1F
100
AcDbEntity
  8
참조1
100
AcDbLine
 10
34.225
 20
-0.0000000000000077
 30
0.0
 11
34.22500000000001
 21
-40.00000000000001
 31
0.0
  0
LINE
  5
C7
330
1F
100
AcDbEntity
  8
참조1
100
AcDbLine
 10
34.22500000000001
 20
-40.00000000000001
 30
0.0
 11
-30.94010681430868
 21
-40.0
 31
0.0
  0
CIRCLE
  5
C8
330
1F
100
AcDbEntity
  8
해칭선
100
AcDbCircle
 10
0.0
 20
0.0
 30
0.0
 40
3.000000000000003
  0
INSERT
  5
C9
330
1F
100
AcDbEntity
  8
0
  6
Continuous
 62
     7
100
AcDbBlockReference
 66
     1
  2
블럭10
 10
20.28472706787479
 20
-52.04717430164393
 30
0.0
  0
ATTRIB
  5
CA
330
C9
100
AcDbEntity
  8
FORMAT
 62
     2
100
AcDbText
 10
11.10343177913351
 20
-49.97180738881174
 30
0.0
 40
4.233333333333333
  1
E2041048 [ 4 FLUTE ]
 41
0.75
  7
SLDTEXTSTYLE0
 11
11.10343177913351
 21
-52.08847405547841
 31
0.0
100
AcDbAttribute
  2
AUTOATTR0
 70
     0
 74
     1
  0
SEQEND
  5
CB
330
C9
100
AcDbEntity
  8
0
  6
Continuous
 62
     7
  0
HATCH
  5
CC
330
1F
100
AcDbEntity
  8
중심선
100
AcDbHatch
 10
0.0
 20
0.0
 30
0.0
210
0.0
220
0.0
230
1.0
  2
SOLID
 70
     1
 71
     0
 91
        1
 92
        0
 93
        4
 72
     1
 10
25.99963637225563
 20
-35.8
 11
22.55336112841835
 21
-35.8
 72
     1
 10
22.55336112841835
 20
-35.8
 11
20.42513126921432
 21
-38.3363255805726
 72
     1
 10
20.42513126921432
 20
-38.3363255805726
 11
23.87143959816476
 21
-38.33628615127011
 72
     1
 10
23.87143959816476
 20
-38.33628615127011
 11
25.99963637225563
 21
-35.8
 97
        0
 75
     0
 76
     1
 98
        1
 10
-10.78676131403117
 20
-0.0010749287238969
  0
HATCH
  5
CD
330
1F
100
AcDbEntity
  8
중심선
100
AcDbHatch
 10
0.0
 20
0.0
 30
0.0
210
0.0
220
0.0
230
1.0
  2
SOLID
 70
     1
 71
     0
 91
        1
 92
        0
 93
        4
 72
     1
 10
31.01240036329158
 20
-35.8
 11
27.5661251194543
 21
-35.79999999999998
 72
     1
 10
27.5661251194543
 20
-35.79999999999998
 11
23.03498711109691
 21
-41.20000000000002
 72
     1
 10
23.03498711109691
 20
-41.20000000000002
 11
26.48126235493417
 21
-41.20000000000002
 72
     1
 10
26.48126235493417
 20
-41.20000000000002
 11
31.01240036329158
 21
-35.8
 97
        0
 75
     0
 76
     1
 98
        1
 10
-10.78676131403117
 20
-0.0010749287238969
  0
HATCH
  5
CE
330
1F
100
AcDbEntity
  8
중심선
100
AcDbHatch
 10
0.0
 20
0.0
 30
0.0
210
0.0
220
0.0
230
1.0
  2
SOLID
 70
     1
 71
     0
 91
        1
 92
        0
 93
        4
 72
     1
 10
36.02516435432753
 20
-35.8
 11
32.57888911049036
 21
-35.79999999999998
 72
     1
 10
32.57888911049036
 20
-35.79999999999998
 11
25.53045220860108
 21
-44.20000000000002
 72
     1
 10
25.53045220860108
 20
-44.20000000000002
 11
28.97672745243837
 21
-44.20000000000002
 72
     1
 10
28.97672745243837
 20
-44.20000000000002
 11
36.02516435432753
 21
-35.8
 97
        0
 75
     0
 76
     1
 98
        1
 10
-10.78676131403117
 20
-0.0010749287238969
  0
HATCH
  5
CF
330
1F
100
AcDbEntity
  8
중심선
100
AcDbHatch
 10
0.0
 20
0.0
 30
0.0
210
0.0
220
0.0
230
1.0
  2
SOLID
 70
     1
 71
     0
 91
        1
 92
        0
 93
        6
 72
     3
 10
40.82505478533967
 20
-40.00000000005127
 11
3.960054785062283
 21
1.540882976769353E-10
 40
0.3939339440162628
 50
17.09539180608455
 51
320.0019657685082
 73
     0
 72
     1
 10
42.50805444104024
 20
-38.58789400463833
 11
44.81335631474128
 21
-36.65356729459041
 72
     3
 10
40.82505478528683
 20
-40.00000000000015
 11
6.600054785286829
 21
-1.278976924368180E-13
 40
0.636358354079598
 50
39.99873849337408
 51
368.4976242363724
 73
     1
 72
     1
 10
47.25038727718741
 20
-39.03999999993002
 11
39.50512209212273
 21
-39.03999999993
 72
     1
 10
39.50512209212273
 20
-39.03999999993
 11
39.50509704767682
 21
-40.95999999992991
 72
     1
 10
39.50509704767682
 20
-40.95999999992991
 11
43.94647681714883
 21
-40.95999999992988
 97
        0
 75
     0
 76
     1
 98
        1
 10
-10.78676131403117
 20
-0.0010749287238969
  0
DIMENSION
  5
D0
330
1F
100
AcDbEntity
  8
치수문자_일반주서
100
AcDbDimension
  2
_D
 10
12.00000000000001
 20
24.53873634215365
 30
0.0
 11
62.79999999999999
 21
24.53873634215365
 31
0.0
 70
   160
  1
<>
 71
     2
 42
101.6
  3
SLDDIMSTYLE2
100
AcDbAlignedDimension
 13
113.6
 23
9.525000000000015
 33
0.0
 14
12.0
 24
9.51777367922918
 34
0.0
 50
0.000000000000004
100
AcDbRotatedDimension
1001
PE_URL
1000

1001
ACAD
1000
DSTYLE
1002
{
1070
   171
1070
     8
1070
   273
1070
     7
1070
    41
1040
4.0
1070
   140
1040
4.0
1002
}
  0
DIMENSION
  5
E5
330
1F
100
AcDbEntity
  8
치수문자_일반주서
100
AcDbDimension
  2
_D_1
 10
-45.15000000000001
 20
39.52500000000001
 30
0.0
 11
34.22500000000002
 21
39.52500000000001
 31
0.0
 70
   160
  1
<>
 71
     2
 42
158.75
  3
SLDDIMSTYLE2
100
AcDbAlignedDimension
 13
113.6
 23
9.525000000000015
 33
0.0
 14
-45.15000000000001
 24
7.620000000000002
 34
0.0
 50
0.0000000000000026
100
AcDbRotatedDimension
1001
PE_URL
1000

1001
ACAD
1000
DSTYLE
1002
{
1070
   171
1070
     8
1070
   273
1070
     7
1070
    41
1040
4.0
1070
   140
1040
4.0
1002
}
  0
DIMENSION
  5
F9
330
1F
100
AcDbEntity
  8
치수문자_일반주서
100
AcDbDimension
  2
_D_2
 10
-60.14999999999996
 20
-9.52500000000007
 30
0.0
 11
-60.1500000000001
 21
33.14999999999995
 31
0.0
 70
   160
  1
%%c<>
 71
     2
 42
19.05000000000001
 52
-270.0
  3
SLDDIMSTYLE2
100
AcDbAlignedDimension
 13
-43.24500000000001
 23
9.525000000000002
 33
0.0
 14
-43.24500000000001
 24
-9.52500000000001
 34
0.0
 50
90.0000000000002
100
AcDbRotatedDimension
1001
PE_URL
1000

1001
ACAD
1000
DSTYLE
1002
{
1070
   171
1070
     8
1070
   273
1070
     7
1070
    41
1040
4.0
1070
   140
1040
4.0
1002
}
  0
DIMENSION
  5
10E
330
1F
100
AcDbEntity
  8
치수문자_일반주서
100
AcDbDimension
  2
_D_3
 10
128.6
 20
9.52500000000007
 30
0.0
 11
128.5999999999999
 21
38.36497268430735
 31
0.0
 70
   160
  1
%%c<>
 71
     2
 42
19.05
 52
-270.0
  3
SLDDIMSTYLE2
100
AcDbAlignedDimension
 13
113.6
 23
-9.524999999999986
 33
0.0
 14
113.6
 24
9.525000000000015
 34
0.0
 50
90.0000000000002
100
AcDbRotatedDimension
1001
PE_URL
1000

1001
ACAD
1000
DSTYLE
1002
{
1070
   171
1070
     8
1070
   273
1070
     7
1070
    41
1040
4.0
1070
   140
1040
4.0
1002
}
  0
LINE
  5
121
330
1F
100
AcDbEntity
  8
참조1
100
AcDbLine
 10
67.03223381534559
 20
7.439999999999999
 30
0.0
 11
67.03223381534559
 21
-7.440000000000006
 31
0.0
  0
LINE
  5
122
330
1F
100
AcDbEntity
  8
참조1
100
AcDbLine
 10
79.73223381534558
 20
5.439999999999999
 30
0.0
 11
67.03223381534559
 21
5.439999999999999
 31
0.0
  0
SOLID
  5
123
330
1F
100
AcDbEntity
  8
참조1
100
AcDbTrace
 10
67.03223381534559
 20
5.439999999999999
 30
0.0
 11
73.38223381534559
 21
4.423999999999999
 31
0.0
 12
73.38223381534559
 22
6.455999999999999
 32
0.0
 13
73.38223381534559
 23
6.455999999999999
 33
0.0
  0
LINE
  5
124
330
1F
100
AcDbEntity
  8
참조1
100
AcDbLine
 10
79.73223381534558
 20
-5.440000000000006
 30
0.0
 11
67.03223381534559
 21
-5.440000000000006
 31
0.0
  0
SOLID
  5
125
330
1F
100
AcDbEntity
  8
참조1
100
AcDbTrace
 10
67.03223381534559
 20
-5.440000000000006
 30
0.0
 11
73.38223381534559
 21
-6.456000000000006
 31
0.0
 12
73.38223381534559
 22
-4.424000000000006
 32
0.0
 13
73.38223381534559
 23
-4.424000000000006
 33
0.0
  0
MTEXT
  5
126
330
1F
100
AcDbEntity
  8
참조1
100
AcDbMText
 10
76.41658394797159
 20
11.01029177718833
 30
0.0
 40
3.5
 41
0.0
 71
     1
 72
     1
  1
A
  7
SLDTEXTSTYLE0
 73
     1
 44
1.0
  0
MTEXT
  5
127
330
1F
100
AcDbEntity
  8
참조1
100
AcDbMText
 10
76.41658394797159
 20
0.1302917771883232
 30
0.0
 40
3.5
 41
0.0
 71
     1
 72
     1
  1
A
  7
SLDTEXTSTYLE0
 73
     1
 44
1.0
  0
INSERT
  5
12E
330
1F
100
AcDbEntity
  8
해칭선
100
AcDbBlockReference
  2
SW_DOWELSYMBOL_0
 10
0.0
 20
0.0
 30
0.0
  0
LINE
  5
1D7
330
1F
100
AcDbEntity
  8
외형선
  6
Continuous
370
    15
100
AcDbLine
 10
-25.14432499999998
 20
7.619999999999996
 30
0.0
 11
-13.56192499999997
 21
7.619999999999996
 31
0.0
1001
PE_URL
1000

  0
LINE
  5
1D8
330
1F
100
AcDbEntity
  8
외형선
  6
Continuous
370
    15
100
AcDbLine
 10
-25.14432499999998
 20
7.619999999999981
 30
0.0
 11
-27.04932500000012
 21
9.525000000000011
 31
0.0
1001
PE_URL
1000

  0
LINE
  5
1D9
330
1F
100
AcDbEntity
  8
외형선
  6
Continuous
370
    15
100
AcDbLine
 10
-13.56192499999997
 20
7.619999999999981
 30
0.0
 11
-11.656925
 21
9.525000000000011
 31
0.0
1001
PE_URL
1000

  0
LINE
  5
1DC
330
1F
100
AcDbEntity
  8
외형선
  6
Continuous
370
    15
100
AcDbLine
 10
-27.0493250000001
 20
9.524999999999997
 30
0.0
 11
-43.245
 21
9.524999999999997
 31
0.0
  0
ENDSEC
  0
SECTION
  2
OBJECTS
  0
DICTIONARY
  5
C
330
0
100
AcDbDictionary
281
     1
  3
ACAD_GROUP
350
D
  3
ACAD_IMAGE_VARS
350
200
  3
ACAD_LAYOUT
350
1A
  3
ACAD_MLINESTYLE
350
17
  3
ACAD_PLOTSETTINGS
350
19
  3
ACAD_PLOTSTYLENAME
350
E
  3
ACAD_SCALELIST
350
47
  3
APPDATA
350
150
  3
DWGPROPS
350
201
  0
DICTIONARY
  5
185
330
2
100
AcDbDictionary
280
     1
281
     1
  3
ACAD_LAYERSTATES
360
186
  0
DICTIONARY
  5
D
102
{ACAD_REACTORS
330
C
102
}
330
C
100
AcDbDictionary
281
     1
  0
RASTERVARIABLES
  5
200
102
{ACAD_REACTORS
330
C
102
}
330
C
100
AcDbRasterVariables
 90
        0
 70
     1
 71
     1
 72
     1
  0
DICTIONARY
  5
1A
102
{ACAD_REACTORS
330
C
102
}
330
C
100
AcDbDictionary
281
     1
  3
Layout1
350
1E
  3
Layout2
350
26
  3
Model
350
22
  0
DICTIONARY
  5
17
102
{ACAD_REACTORS
330
C
102
}
330
C
100
AcDbDictionary
281
     1
  3
Standard
350
18
  0
DICTIONARY
  5
19
102
{ACAD_REACTORS
330
C
102
}
330
C
100
AcDbDictionary
281
     1
  0
ACDBDICTIONARYWDFLT
  5
E
102
{ACAD_REACTORS
330
C
102
}
330
C
100
AcDbDictionary
281
     1
  3
Normal
350
F
100
AcDbDictionaryWithDefault
340
F
  0
DICTIONARY
  5
47
102
{ACAD_REACTORS
330
C
102
}
330
C
100
AcDbDictionary
281
     1
  3
A0
350
48
  3
A1
350
49
  3
A2
350
4A
  3
A3
350
4B
  3
A4
350
4C
  3
A5
350
4D
  3
A6
350
4E
  3
A7
350
4F
  3
A8
350
50
  3
A9
350
51
  3
B0
350
52
  3
B1
350
53
  3
B2
350
54
  3
B3
350
55
  3
B4
350
56
  3
B5
350
57
  3
B6
350
58
  3
B7
350
59
  3
B8
350
5A
  3
B9
350
5B
  3
C0
350
5C
  3
C1
350
5D
  3
C2
350
5E
  3
C3
350
5F
  3
C4
350
60
  3
C5
350
61
  3
C6
350
62
  3
C7
350
63
  3
C8
350
64
  3
C9
350
65
  3
D0
350
66
  3
D1
350
67
  3
D2
350
68
  0
DICTIONARY
  5
150
102
{ACAD_REACTORS
330
C
102
}
330
C
100
AcDbDictionary
281
     1
  0
XRECORD
  5
201
102
{ACAD_REACTORS
330
C
102
}
330
C
100
AcDbXrecord
280
     1
  1
DWGPROPS COOKIE
  2

  3

  4

  6

  7

  8
12016016
  9

300
=
301
=
302
=
303
=
304
=
305
=
306
=
307
=
308
=
309
=
 40
0.0
 41
2458312.2585225
 42
2458330.313247778
  1

 90
        0
  0
DICTIONARY
  5
186
102
{ACAD_REACTORS
330
185
102
}
330
185
100
AcDbDictionary
281
     1
  0
LAYOUT
  5
1E
102
{ACAD_REACTORS
330
1A
102
}
330
1A
100
AcDbPlotSettings
  1

  2
none_device
  4

  6

 40
0.0
 41
0.0
 42
0.0
 43
0.0
 44
0.0
 45
0.0
 46
0.0
 47
0.0
 48
0.0
 49
0.0
140
0.0
141
0.0
142
1.0
143
1.0
 70
   688
 72
     1
 73
     0
 74
     5
  7

 75
    16
147
1.0
148
0.0
149
0.0
100
AcDbLayout
  1
Layout1
 70
     1
 71
     1
 10
0.0
 20
0.0
 11
420.0
 21
297.0
 12
0.0
 22
0.0
 32
0.0
 14
1.000000000000000E+20
 24
1.000000000000000E+20
 34
1.000000000000000E+20
 15
-1.000000000000000E+20
 25
-1.000000000000000E+20
 35
-1.000000000000000E+20
146
0.0
 13
0.0
 23
0.0
 33
0.0
 16
1.0
 26
0.0
 36
0.0
 17
0.0
 27
1.0
 37
0.0
 76
     0
330
1B
  0
LAYOUT
  5
26
102
{ACAD_REACTORS
330
1A
102
}
330
1A
100
AcDbPlotSettings
  1

  2
none_device
  4

  6

 40
0.0
 41
0.0
 42
0.0
 43
0.0
 44
0.0
 45
0.0
 46
0.0
 47
0.0
 48
0.0
 49
0.0
140
0.0
141
0.0
142
1.0
143
1.0
 70
   688
 72
     1
 73
     0
 74
     5
  7

 75
    16
147
1.0
148
0.0
149
0.0
100
AcDbLayout
  1
Layout2
 70
     1
 71
     2
 10
0.0
 20
0.0
 11
0.0
 21
0.0
 12
0.0
 22
0.0
 32
0.0
 14
0.0
 24
0.0
 34
0.0
 15
0.0
 25
0.0
 35
0.0
146
0.0
 13
0.0
 23
0.0
 33
0.0
 16
1.0
 26
0.0
 36
0.0
 17
0.0
 27
1.0
 37
0.0
 76
     0
330
23
  0
LAYOUT
  5
22
102
{ACAD_REACTORS
330
1A
102
}
330
1A
100
AcDbPlotSettings
  1

  2
none_device
  4
ANSI_A_(11.00_x_8.50_Inches)
  6

 40
6.35
 41
19.05
 42
6.35000508
 43
19.05000254
 44
279.4
 45
215.9
 46
37.70493877858839
 47
57.26670258752596
 48
0.0
 49
0.0
140
0.0
141
0.0
142
0.0302579023132245
143
1.0
 70
  1696
 72
     0
 73
     0
 74
     0
  7

 75
     0
147
0.0235690232323232
148
0.0
149
0.0
100
AcDbLayout
  1
Model
 70
     1
 71
     0
 10
0.0
 20
0.0
 11
420.0
 21
297.0
 12
0.0
 22
0.0
 32
0.0
 14
-65.02500000000012
 24
-49.97180738881174
 34
0.0
 15
129.2666666666667
 25
53.98997268430735
 35
0.0
146
0.0
 13
0.0
 23
0.0
 33
0.0
 16
1.0
 26
0.0
 36
0.0
 17
0.0
 27
1.0
 37
0.0
 76
     0
330
1F
331
29
  0
MLINESTYLE
  5
18
102
{ACAD_REACTORS
330
17
102
}
330
17
100
AcDbMlineStyle
  2
Standard
 70
     0
  3

 62
   256
 51
90.0
 52
90.0
 71
     2
 49
0.5
 62
   256
  6
BYLAYER
 49
-0.5
 62
   256
  6
BYLAYER
  0
ACDBPLACEHOLDER
  5
F
102
{ACAD_REACTORS
330
E
102
}
330
E
  0
SCALE
  5
48
102
{ACAD_REACTORS
330
47
102
}
330
47
100
AcDbScale
 70
     0
300
1:1
140
1.0
141
1.0
290
     1
  0
SCALE
  5
49
102
{ACAD_REACTORS
330
47
102
}
330
47
100
AcDbScale
 70
     0
300
1:2
140
1.0
141
2.0
290
     0
  0
SCALE
  5
4A
102
{ACAD_REACTORS
330
47
102
}
330
47
100
AcDbScale
 70
     0
300
1:4
140
1.0
141
4.0
290
     0
  0
SCALE
  5
4B
102
{ACAD_REACTORS
330
47
102
}
330
47
100
AcDbScale
 70
     0
300
1:5
140
1.0
141
5.0
290
     0
  0
SCALE
  5
4C
102
{ACAD_REACTORS
330
47
102
}
330
47
100
AcDbScale
 70
     0
300
1:8
140
1.0
141
8.0
290
     0
  0
SCALE
  5
4D
102
{ACAD_REACTORS
330
47
102
}
330
47
100
AcDbScale
 70
     0
300
1:10
140
1.0
141
10.0
290
     0
  0
SCALE
  5
4E
102
{ACAD_REACTORS
330
47
102
}
330
47
100
AcDbScale
 70
     0
300
1:16
140
1.0
141
16.0
290
     0
  0
SCALE
  5
4F
102
{ACAD_REACTORS
330
47
102
}
330
47
100
AcDbScale
 70
     0
300
1:20
140
1.0
141
20.0
290
     0
  0
SCALE
  5
50
102
{ACAD_REACTORS
330
47
102
}
330
47
100
AcDbScale
 70
     0
300
1:30
140
1.0
141
30.0
290
     0
  0
SCALE
  5
51
102
{ACAD_REACTORS
330
47
102
}
330
47
100
AcDbScale
 70
     0
300
1:40
140
1.0
141
40.0
290
     0
  0
SCALE
  5
52
102
{ACAD_REACTORS
330
47
102
}
330
47
100
AcDbScale
 70
     0
300
1:50
140
1.0
141
50.0
290
     0
  0
SCALE
  5
53
102
{ACAD_REACTORS
330
47
102
}
330
47
100
AcDbScale
 70
     0
300
1:100
140
1.0
141
100.0
290
     0
  0
SCALE
  5
54
102
{ACAD_REACTORS
330
47
102
}
330
47
100
AcDbScale
 70
     0
300
2:1
140
2.0
141
1.0
290
     0
  0
SCALE
  5
55
102
{ACAD_REACTORS
330
47
102
}
330
47
100
AcDbScale
 70
     0
300
4:1
140
4.0
141
1.0
290
     0
  0
SCALE
  5
56
102
{ACAD_REACTORS
330
47
102
}
330
47
100
AcDbScale
 70
     0
300
8:1
140
8.0
141
1.0
290
     0
  0
SCALE
  5
57
102
{ACAD_REACTORS
330
47
102
}
330
47
100
AcDbScale
 70
     0
300
10:1
140
10.0
141
1.0
290
     0
  0
SCALE
  5
58
102
{ACAD_REACTORS
330
47
102
}
330
47
100
AcDbScale
 70
     0
300
100:1
140
100.0
141
1.0
290
     0
  0
SCALE
  5
59
102
{ACAD_REACTORS
330
47
102
}
330
47
100
AcDbScale
 70
     0
300
1/128" = 1'-0"
140
0.0078125
141
12.0
290
     0
  0
SCALE
  5
5A
102
{ACAD_REACTORS
330
47
102
}
330
47
100
AcDbScale
 70
     0
300
1/64" = 1'-0"
140
0.015625
141
12.0
290
     0
  0
SCALE
  5
5B
102
{ACAD_REACTORS
330
47
102
}
330
47
100
AcDbScale
 70
     0
300
1/32" = 1'-0"
140
0.03125
141
12.0
290
     0
  0
SCALE
  5
5C
102
{ACAD_REACTORS
330
47
102
}
330
47
100
AcDbScale
 70
     0
300
1/16" = 1'-0"
140
0.0625
141
12.0
290
     0
  0
SCALE
  5
5D
102
{ACAD_REACTORS
330
47
102
}
330
47
100
AcDbScale
 70
     0
300
3/32" = 1'-0"
140
0.09375
141
12.0
290
     0
  0
SCALE
  5
5E
102
{ACAD_REACTORS
330
47
102
}
330
47
100
AcDbScale
 70
     0
300
1/8" = 1'-0"
140
0.125
141
12.0
290
     0
  0
SCALE
  5
5F
102
{ACAD_REACTORS
330
47
102
}
330
47
100
AcDbScale
 70
     0
300
3/16" = 1'-0"
140
0.1875
141
12.0
290
     0
  0
SCALE
  5
60
102
{ACAD_REACTORS
330
47
102
}
330
47
100
AcDbScale
 70
     0
300
1/4" = 1'-0"
140
0.25
141
12.0
290
     0
  0
SCALE
  5
61
102
{ACAD_REACTORS
330
47
102
}
330
47
100
AcDbScale
 70
     0
300
3/8" = 1'-0"
140
0.375
141
12.0
290
     0
  0
SCALE
  5
62
102
{ACAD_REACTORS
330
47
102
}
330
47
100
AcDbScale
 70
     0
300
1/2" = 1'-0"
140
0.5
141
12.0
290
     0
  0
SCALE
  5
63
102
{ACAD_REACTORS
330
47
102
}
330
47
100
AcDbScale
 70
     0
300
3/4" = 1'-0"
140
0.75
141
12.0
290
     0
  0
SCALE
  5
64
102
{ACAD_REACTORS
330
47
102
}
330
47
100
AcDbScale
 70
     0
300
1" = 1'-0"
140
1.0
141
12.0
290
     0
  0
SCALE
  5
65
102
{ACAD_REACTORS
330
47
102
}
330
47
100
AcDbScale
 70
     0
300
1-1/2" = 1'-0"
140
1.5
141
12.0
290
     0
  0
SCALE
  5
66
102
{ACAD_REACTORS
330
47
102
}
330
47
100
AcDbScale
 70
     0
300
3" = 1'-0"
140
3.0
141
12.0
290
     0
  0
SCALE
  5
67
102
{ACAD_REACTORS
330
47
102
}
330
47
100
AcDbScale
 70
     0
300
6" = 1'-0"
140
6.0
141
12.0
290
     0
  0
SCALE
  5
68
102
{ACAD_REACTORS
330
47
102
}
330
47
100
AcDbScale
 70
     0
300
1'-0" = 1'-0"
140
12.0
141
12.0
290
     0
  0
ENDSEC
  0
EOF
