  0
SECTION
  2
HEADER
  9
$ACADVER
  1
AC1015
  9
$ACADMAINTVER
 70
     6
  9
$DWGCODEPAGE
  3
ANSI_949
  9
$INSBASE
 10
0.0
 20
0.0
 30
0.0
  9
$EXTMIN
 10
-65.02500000000015
 20
-49.97180738881174
 30
0.0
  9
$EXTMAX
 10
154.6666666666668
 20
57.32163479835856
 30
0.0
  9
$LIMMIN
 10
0.0
 20
0.0
  9
$LIMMAX
 10
420.0
 20
297.0
  9
$ORTHOMODE
 70
     1
  9
$REGENMODE
 70
     1
  9
$FILLMODE
 70
     1
  9
$QTEXTMODE
 70
     0
  9
$MIRRTEXT
 70
     1
  9
$LTSCALE
 40
1.0
  9
$ATTMODE
 70
     1
  9
$TEXTSIZE
 40
3.5
  9
$TRACEWID
 40
1.0
  9
$TEXTSTYLE
  7
Standard
  9
$CLAYER
  8
0
  9
$CELTYPE
  6
ByLayer
  9
$CECOLOR
 62
   256
  9
$CELTSCALE
 40
1.0
  9
$DISPSILH
 70
     0
  9
$DIMSCALE
 40
1.0
  9
$DIMASZ
 40
3.302
  9
$DIMEXO
 40
1.0
  9
$DIMDLI
 40
3.75
  9
$DIMRND
 40
0.0
  9
$DIMDLE
 40
0.0
  9
$DIMEXE
 40
1.0
  9
$DIMTP
 40
0.0
  9
$DIMTM
 40
0.0
  9
$DIMTXT
 40
3.5
  9
$DIMCEN
 40
2.5
  9
$DIMTSZ
 40
0.0
  9
$DIMTOL
 70
     0
  9
$DIMLIM
 70
     0
  9
$DIMTIH
 70
     1
  9
$DIMTOH
 70
     1
  9
$DIMSE1
 70
     0
  9
$DIMSE2
 70
     0
  9
$DIMTAD
 70
     1
  9
$DIMZIN
 70
     0
  9
$DIMBLK
  1

  9
$DIMASO
 70
     1
  9
$DIMSHO
 70
     1
  9
$DIMPOST
  1

  9
$DIMAPOST
  1

  9
$DIMALT
 70
     0
  9
$DIMALTD
 70
     3
  9
$DIMALTF
 40
0.0393700787401575
  9
$DIMLFAC
 40
1.0
  9
$DIMTOFL
 70
     1
  9
$DIMTVP
 40
0.0
  9
$DIMTIX
 70
     0
  9
$DIMSOXD
 70
     0
  9
$DIMSAH
 70
     0
  9
$DIMBLK1
  1

  9
$DIMBLK2
  1

  9
$DIMSTYLE
  2
ISO-25
  9
$DIMCLRD
 70
     0
  9
$DIMCLRE
 70
     0
  9
$DIMCLRT
 70
     0
  9
$DIMTFAC
 40
1.0
  9
$DIMGAP
 40
1.524
  9
$DIMJUST
 70
     0
  9
$DIMSD1
 70
     0
  9
$DIMSD2
 70
     0
  9
$DIMTOLJ
 70
     0
  9
$DIMTZIN
 70
     0
  9
$DIMALTZ
 70
     0
  9
$DIMALTTZ
 70
     0
  9
$DIMUPT
 70
     0
  9
$DIMDEC
 70
     2
  9
$DIMTDEC
 70
     2
  9
$DIMALTU
 70
     2
  9
$DIMALTTD
 70
     3
  9
$DIMTXSTY
  7
Standard
  9
$DIMAUNIT
 70
     0
  9
$DIMADEC
 70
     2
  9
$DIMALTRND
 40
0.0
  9
$DIMAZIN
 70
     0
  9
$DIMDSEP
 70
    44
  9
$DIMATFIT
 70
     3
  9
$DIMFRAC
 70
     0
  9
$DIMLDRBLK
  1

  9
$DIMLUNIT
 70
     2
  9
$DIMLWD
 70
    -2
  9
$DIMLWE
 70
    -2
  9
$DIMTMOVE
 70
     0
  9
$LUNITS
 70
     2
  9
$LUPREC
 70
     2
  9
$SKETCHINC
 40
1.0
  9
$FILLETRAD
 40
10.0
  9
$AUNITS
 70
     0
  9
$AUPREC
 70
     2
  9
$MENU
  1
.
  9
$ELEVATION
 40
0.0
  9
$PELEVATION
 40
0.0
  9
$THICKNESS
 40
0.0
  9
$LIMCHECK
 70
     0
  9
$CHAMFERA
 40
0.0
  9
$CHAMFERB
 40
0.0
  9
$CHAMFERC
 40
0.0
  9
$CHAMFERD
 40
0.0
  9
$SKPOLY
 70
     0
  9
$TDCREATE
 40
2458312.633732674
  9
$TDUCREATE
 40
2458312.258732674
  9
$TDUPDATE
 40
2458330.688148773
  9
$TDUUPDATE
 40
2458330.313148773
  9
$TDINDWG
 40
0.0006054745
  9
$TDUSRTIMER
 40
2458330.313047604
  9
$USRTIMER
 70
     1
  9
$ANGBASE
 50
0.0
  9
$ANGDIR
 70
     0
  9
$PDMODE
 70
     0
  9
$PDSIZE
 40
-1.0
  9
$PLINEWID
 40
0.0
  9
$SPLFRAME
 70
     0
  9
$SPLINETYPE
 70
     6
  9
$SPLINESEGS
 70
     8
  9
$HANDSEED
  5
208
  9
$SURFTAB1
 70
     6
  9
$SURFTAB2
 70
     6
  9
$SURFTYPE
 70
     6
  9
$SURFU
 70
     6
  9
$SURFV
 70
     6
  9
$UCSBASE
  2

  9
$UCSNAME
  2

  9
$UCSORG
 10
0.0
 20
0.0
 30
0.0
  9
$UCSXDIR
 10
1.0
 20
0.0
 30
0.0
  9
$UCSYDIR
 10
0.0
 20
1.0
 30
0.0
  9
$UCSORTHOREF
  2

  9
$UCSORTHOVIEW
 70
     0
  9
$UCSORGTOP
 10
0.0
 20
0.0
 30
0.0
  9
$UCSORGBOTTOM
 10
0.0
 20
0.0
 30
0.0
  9
$UCSORGLEFT
 10
0.0
 20
0.0
 30
0.0
  9
$UCSORGRIGHT
 10
0.0
 20
0.0
 30
0.0
  9
$UCSORGFRONT
 10
0.0
 20
0.0
 30
0.0
  9
$UCSORGBACK
 10
0.0
 20
0.0
 30
0.0
  9
$PUCSBASE
  2

  9
$PUCSNAME
  2

  9
$PUCSORG
 10
0.0
 20
0.0
 30
0.0
  9
$PUCSXDIR
 10
1.0
 20
0.0
 30
0.0
  9
$PUCSYDIR
 10
0.0
 20
1.0
 30
0.0
  9
$PUCSORTHOREF
  2

  9
$PUCSORTHOVIEW
 70
     0
  9
$PUCSORGTOP
 10
0.0
 20
0.0
 30
0.0
  9
$PUCSORGBOTTOM
 10
0.0
 20
0.0
 30
0.0
  9
$PUCSORGLEFT
 10
0.0
 20
0.0
 30
0.0
  9
$PUCSORGRIGHT
 10
0.0
 20
0.0
 30
0.0
  9
$PUCSORGFRONT
 10
0.0
 20
0.0
 30
0.0
  9
$PUCSORGBACK
 10
0.0
 20
0.0
 30
0.0
  9
$USERI1
 70
     0
  9
$USERI2
 70
     0
  9
$USERI3
 70
     0
  9
$USERI4
 70
     0
  9
$USERI5
 70
     0
  9
$USERR1
 40
0.0
  9
$USERR2
 40
0.0
  9
$USERR3
 40
0.0
  9
$USERR4
 40
0.0
  9
$USERR5
 40
0.0
  9
$WORLDVIEW
 70
     1
  9
$SHADEDGE
 70
     3
  9
$SHADEDIF
 70
    70
  9
$TILEMODE
 70
     1
  9
$MAXACTVP
 70
    64
  9
$PINSBASE
 10
0.0
 20
0.0
 30
0.0
  9
$PLIMCHECK
 70
     0
  9
$PEXTMIN
 10
1.000000000000000E+20
 20
1.000000000000000E+20
 30
1.000000000000000E+20
  9
$PEXTMAX
 10
-1.000000000000000E+20
 20
-1.000000000000000E+20
 30
-1.000000000000000E+20
  9
$PLIMMIN
 10
0.0
 20
0.0
  9
$PLIMMAX
 10
0.0
 20
0.0
  9
$UNITMODE
 70
     0
  9
$VISRETAIN
 70
     1
  9
$PLINEGEN
 70
     0
  9
$PSLTSCALE
 70
     1
  9
$TREEDEPTH
 70
  3020
  9
$CMLSTYLE
  2
Standard
  9
$CMLJUST
 70
     0
  9
$CMLSCALE
 40
20.0
  9
$PROXYGRAPHICS
 70
     1
  9
$MEASUREMENT
 70
     1
  9
$CELWEIGHT
370
    -1
  9
$ENDCAPS
280
     0
  9
$JOINSTYLE
280
     0
  9
$LWDISPLAY
290
     1
  9
$INSUNITS
 70
     4
  9
$HYPERLINKBASE
  1

  9
$STYLESHEET
  1

  9
$XEDIT
290
     1
  9
$CEPSNTYPE
380
     0
  9
$PSTYLEMODE
290
     1
  9
$FINGERPRINTGUID
  2
{D4CCDDCD-45CA-48FC-970F-D2723ECAFBAA}
  9
$VERSIONGUID
  2
{FAEB1C32-E019-11D5-929B-00C0DF256EC4}
  9
$EXTNAMES
290
     1
  9
$PSVPSCALE
 40
0.0
  9
$OLESTARTUP
290
     0
  0
ENDSEC
  0
SECTION
  2
CLASSES
  0
CLASS
  1
ACDBDICTIONARYWDFLT
  2
AcDbDictionaryWithDefault
  3
ObjectDBX Classes
 90
        0
280
     0
281
     0
  0
CLASS
  1
VISUALSTYLE
  2
AcDbVisualStyle
  3
ObjectDBX Classes
 90
     4095
280
     0
281
     0
  0
CLASS
  1
MATERIAL
  2
AcDbMaterial
  3
ObjectDBX Classes
 90
     1153
280
     0
281
     0
  0
CLASS
  1
SCALE
  2
AcDbScale
  3
ObjectDBX Classes
 90
     1153
280
     0
281
     0
  0
CLASS
  1
SUN
  2
AcDbSun
  3
SCENEOE
 90
     1153
280
     0
281
     0
  0
CLASS
  1
ACDBPLACEHOLDER
  2
AcDbPlaceHolder
  3
ObjectDBX Classes
 90
        0
280
     0
281
     0
  0
CLASS
  1
LAYOUT
  2
AcDbLayout
  3
ObjectDBX Classes
 90
        0
280
     0
281
     0
  0
CLASS
  1
TABLESTYLE
  2
AcDbTableStyle
  3
ObjectDBX Classes
 90
     4095
280
     0
281
     0
  0
CLASS
  1
MLEADERSTYLE
  2
AcDbMLeaderStyle
  3
ACDB_MLEADERSTYLE_CLASS
 90
     4095
280
     0
281
     0
  0
CLASS
  1
DICTIONARYVAR
  2
AcDbDictionaryVar
  3
ObjectDBX Classes
 90
        0
280
     0
281
     0
  0
CLASS
  1
RASTERVARIABLES
  2
AcDbRasterVariables
  3
ISM
 90
        0
280
     0
281
     0
  0
ENDSEC
  0
SECTION
  2
TABLES
  0
TABLE
  2
VPORT
  5
8
330
0
100
AcDbSymbolTable
 70
     1
  0
VPORT
  5
29
330
8
100
AcDbSymbolTableRecord
100
AcDbViewportTableRecord
  2
*Active
 70
     0
 10
0.0
 20
0.0
 11
1.0
 21
1.0
 12
56.39667867772107
 22
-3.863676936170471
 13
0.0
 23
0.0
 14
10.0
 24
10.0
 15
10.0
 25
10.0
 16
0.0
 26
0.0
 36
1.0
 17
0.0
 27
0.0
 37
0.0
 40
184.71333466199
 41
1.516441005802708
 42
50.0
 43
0.0
 44
0.0
 50
0.0
 51
0.0
 71
    16
 72
  2000
 73
     1
 74
     3
 75
     0
 76
     0
 77
     0
 78
     0
281
     0
 65
     1
110
0.0
120
0.0
130
0.0
111
1.0
121
0.0
131
0.0
112
0.0
122
1.0
132
0.0
 79
     0
146
0.0
  0
ENDTAB
  0
TABLE
  2
LTYPE
  5
5
330
0
100
AcDbSymbolTable
 70
     6
  0
LTYPE
  5
14
330
5
100
AcDbSymbolTableRecord
100
AcDbLinetypeTableRecord
  2
ByBlock
 70
     0
  3

 72
    65
 73
     0
 40
0.0
  0
LTYPE
  5
15
330
5
100
AcDbSymbolTableRecord
100
AcDbLinetypeTableRecord
  2
ByLayer
 70
     0
  3

 72
    65
 73
     0
 40
0.0
  0
LTYPE
  5
16
330
5
100
AcDbSymbolTableRecord
100
AcDbLinetypeTableRecord
  2
Continuous
 70
     0
  3
Solid line
 72
    65
 73
     0
 40
0.0
  0
LTYPE
  5
6A
330
5
100
AcDbSymbolTableRecord
100
AcDbLinetypeTableRecord
  2
HIDDEN
 70
     0
  3
Hidden __ __ __ __ __ __ __ __ __ __ __ __ __ __
 72
    65
 73
     2
 40
1.905
 49
1.27
 74
     0
 49
-0.635
 74
     0
  0
LTYPE
  5
6B
330
5
100
AcDbSymbolTableRecord
100
AcDbLinetypeTableRecord
  2
PHANTOM
 70
     0
  3
Phantom ______  __  __  ______  __  __  ______
 72
    65
 73
     6
 40
12.7
 49
6.35
 74
     0
 49
-1.27
 74
     0
 49
1.27
 74
     0
 49
-1.27
 74
     0
 49
1.27
 74
     0
 49
-1.27
 74
     0
  0
LTYPE
  5
6C
330
5
100
AcDbSymbolTableRecord
100
AcDbLinetypeTableRecord
  2
CENTER
 70
     0
  3
Center ____ _ ____ _ ____ _ ____ _ ____ _ ____
 72
    65
 73
     4
 40
10.16
 49
6.35
 74
     0
 49
-1.27
 74
     0
 49
1.27
 74
     0
 49
-1.27
 74
     0
  0
LTYPE
  5
6D
330
5
100
AcDbSymbolTableRecord
100
AcDbLinetypeTableRecord
  2
CENTERX2
 70
     0
  3
Center (2x) ________  __  ________  __  _____
 72
    65
 73
     4
 40
20.32
 49
12.7
 74
     0
 49
-2.54
 74
     0
 49
2.54
 74
     0
 49
-2.54
 74
     0
  0
LTYPE
  5
6E
330
5
100
AcDbSymbolTableRecord
100
AcDbLinetypeTableRecord
  2
DOT2
 70
     0
  3
Dot (.5x) ........................................
 72
    65
 73
     2
 40
0.635
 49
0.0
 74
     0
 49
-0.635
 74
     0
  0
ENDTAB
  0
TABLE
  2
LAYER
  5
2
102
{ACAD_XDICTIONARY
360
18C
102
}
330
0
100
AcDbSymbolTable
 70
    18
  0
LAYER
  5
10
330
2
100
AcDbSymbolTableRecord
100
AcDbLayerTableRecord
  2
0
 70
     0
 62
     7
  6
Continuous
370
    -3
390
F
  0
LAYER
  5
6F
330
2
100
AcDbSymbolTableRecord
100
AcDbLayerTableRecord
  2
FORMAT
 70
     0
 62
     2
  6
Continuous
370
    -3
390
F
  0
LAYER
  5
70
330
2
100
AcDbSymbolTableRecord
100
AcDbLayerTableRecord
  2
외형선
 70
     0
 62
     4
  6
Continuous
370
    30
390
F
  0
LAYER
  5
71
330
2
100
AcDbSymbolTableRecord
100
AcDbLayerTableRecord
  2
숨은선
 70
     0
 62
     2
  6
HIDDEN
370
    15
390
F
  0
LAYER
  5
72
330
2
100
AcDbSymbolTableRecord
100
AcDbLayerTableRecord
  2
중심선
 70
     0
 62
     1
  6
CENTERX2
370
    -3
390
F
  0
LAYER
  5
73
330
2
100
AcDbSymbolTableRecord
100
AcDbLayerTableRecord
  2
파단선
 70
     0
 62
     4
  6
Continuous
370
    -3
390
F
  0
LAYER
  5
74
330
2
100
AcDbSymbolTableRecord
100
AcDbLayerTableRecord
  2
해칭선
 70
     0
 62
   100
  6
Continuous
370
    -3
390
F
  0
LAYER
  5
75
330
2
100
AcDbSymbolTableRecord
100
AcDbLayerTableRecord
  2
가는실선
 70
     0
 62
     4
  6
Continuous
370
    -3
390
F
  0
LAYER
  5
76
330
2
100
AcDbSymbolTableRecord
100
AcDbLayerTableRecord
  2
치수_보조선
 70
     0
 62
     4
  6
Continuous
370
    -3
390
F
  0
LAYER
  5
77
330
2
100
AcDbSymbolTableRecord
100
AcDbLayerTableRecord
  2
치수문자_일반주서
 70
     0
 62
     7
  6
Continuous
370
    15
390
F
  0
LAYER
  5
78
330
2
100
AcDbSymbolTableRecord
100
AcDbLayerTableRecord
  2
개별주서
 70
     0
 62
   100
  6
Continuous
370
    30
390
F
  0
LAYER
  5
79
330
2
100
AcDbSymbolTableRecord
100
AcDbLayerTableRecord
  2
중간선
 70
     0
 62
     2
  6
Continuous
370
    15
390
F
  0
LAYER
  5
7A
330
2
100
AcDbSymbolTableRecord
100
AcDbLayerTableRecord
  2
윤곽선
 70
     0
 62
     3
  6
Continuous
370
    40
390
F
  0
LAYER
  5
7B
330
2
100
AcDbSymbolTableRecord
100
AcDbLayerTableRecord
  2
중심마크
 70
     0
 62
   100
  6
Continuous
370
    30
390
F
  0
LAYER
  5
7C
330
2
100
AcDbSymbolTableRecord
100
AcDbLayerTableRecord
  2
가상선
 70
     0
 62
     4
  6
PHANTOM
370
    -3
390
F
  0
LAYER
  5
7D
330
2
100
AcDbSymbolTableRecord
100
AcDbLayerTableRecord
  2
특수지정선
 70
     0
 62
     5
  6
CENTERX2
370
    60
390
F
  0
LAYER
  5
7E
330
2
100
AcDbSymbolTableRecord
100
AcDbLayerTableRecord
  2
참조1
 70
     0
 62
    -4
  6
Continuous
370
    -3
390
F
  0
LAYER
  5
158
330
2
100
AcDbSymbolTableRecord
100
AcDbLayerTableRecord
  2
Defpoints
 70
     0
 62
     7
  6
Continuous
290
     0
370
    -3
390
F
  0
ENDTAB
  0
TABLE
  2
STYLE
  5
3
330
0
100
AcDbSymbolTable
 70
     2
  0
STYLE
  5
11
330
3
100
AcDbSymbolTableRecord
100
AcDbTextStyleTableRecord
  2
Standard
 70
     0
 40
0.0
 41
1.0
 50
0.0
 71
     0
 42
3.5
  3
txt
  4

  0
STYLE
  5
94
330
3
100
AcDbSymbolTableRecord
100
AcDbTextStyleTableRecord
  2
SLDTEXTSTYLE0
 70
     0
 40
0.0
 41
0.75
 50
0.0
 71
     0
 42
3.5
  3
TXT
  4

  0
ENDTAB
  0
TABLE
  2
VIEW
  5
6
330
0
100
AcDbSymbolTable
 70
     0
  0
ENDTAB
  0
TABLE
  2
UCS
  5
7
330
0
100
AcDbSymbolTable
 70
     0
  0
ENDTAB
  0
TABLE
  2
APPID
  5
9
330
0
100
AcDbSymbolTable
 70
     2
  0
APPID
  5
12
330
9
100
AcDbSymbolTableRecord
100
AcDbRegAppTableRecord
  2
ACAD
 70
     0
  0
APPID
  5
15F
330
9
100
AcDbSymbolTableRecord
100
AcDbRegAppTableRecord
  2
PE_URL
 70
     0
  0
ENDTAB
  0
TABLE
  2
DIMSTYLE
  5
A
330
0
100
AcDbSymbolTable
 70
     4
100
AcDbDimStyleTable
  0
DIMSTYLE
105
27
330
A
100
AcDbSymbolTableRecord
100
AcDbDimStyleTableRecord
  2
ISO-25
 70
     0
 41
2.5
 42
0.625
 43
3.75
 44
1.25
 73
     0
 74
     0
 77
     1
 78
     8
140
2.5
141
2.5
143
0.03937007874016
147
0.625
171
     3
172
     1
178
     0
271
     2
272
     2
274
     3
278
    44
283
     0
284
     8
340
11
  0
DIMSTYLE
105
D1
330
A
100
AcDbSymbolTableRecord
100
AcDbDimStyleTableRecord
  2
SLDDIMSTYLE0
 70
     0
 41
3.302
 44
0.0
 45
0.000000001
 73
     0
 74
     0
 77
     1
 78
    12
 79
     3
140
3.5
143
0.0393700787401575
147
0.875
148
0.000000001
170
     1
173
     1
178
     0
271
     2
272
     2
276
     2
284
    12
340
94
  0
DIMSTYLE
105
F9
330
A
100
AcDbSymbolTableRecord
100
AcDbDimStyleTableRecord
  2
SLDDIMSTYLE1
 70
     0
 41
3.302
 44
0.0
 45
0.000000001
 73
     0
 74
     0
 77
     1
 78
    12
 79
     3
140
3.5
143
0.0393700787401575
147
0.875
148
0.000000001
170
     1
172
     1
173
     1
178
     0
271
     2
272
     2
276
     2
284
    12
289
     0
340
94
  0
DIMSTYLE
105
15D
102
{ACAD_REACTORS
330
D0
330
10D
330
E5
330
F8
102
}
330
A
100
AcDbSymbolTableRecord
100
AcDbDimStyleTableRecord
  2
SLDDIMSTYLE2
 70
     0
 41
3.302
 44
0.0
 45
0.000000001
 73
     0
 74
     0
 77
     1
 78
    12
 79
     3
140
3.5
143
0.0393700787401575
147
0.875
148
0.000000001
170
     1
172
     1
173
     1
178
     0
271
     2
272
     2
276
     2
284
    12
289
     0
340
94
  0
ENDTAB
  0
TABLE
  2
BLOCK_RECORD
  5
1
330
0
100
AcDbSymbolTable
 70
     9
  0
BLOCK_RECORD
  5
1F
330
1
100
AcDbSymbolTableRecord
100
AcDbBlockTableRecord
  2
*Model_Space
340
22
  0
BLOCK_RECORD
  5
1B
330
1
100
AcDbSymbolTableRecord
100
AcDbBlockTableRecord
  2
*Paper_Space
340
1E
  0
BLOCK_RECORD
  5
23
330
1
100
AcDbSymbolTableRecord
100
AcDbBlockTableRecord
  2
*Paper_Space0
340
26
  0
BLOCK_RECORD
  5
7F
330
1
100
AcDbSymbolTableRecord
100
AcDbBlockTableRecord
  2
블럭10
340
0
102
{BLKREFS
331
C9
102
}
  0
BLOCK_RECORD
  5
D2
330
1
100
AcDbSymbolTableRecord
100
AcDbBlockTableRecord
  2
_D
340
0
  0
BLOCK_RECORD
  5
E6
330
1
100
AcDbSymbolTableRecord
100
AcDbBlockTableRecord
  2
_D_1
340
0
  0
BLOCK_RECORD
  5
FA
330
1
100
AcDbSymbolTableRecord
100
AcDbBlockTableRecord
  2
_D_2
340
0
  0
BLOCK_RECORD
  5
10E
330
1
100
AcDbSymbolTableRecord
100
AcDbBlockTableRecord
  2
_D_3
340
0
  0
BLOCK_RECORD
  5
127
330
1
100
AcDbSymbolTableRecord
100
AcDbBlockTableRecord
  2
SW_DOWELSYMBOL_0
340
0
102
{BLKREFS
331
12D
102
}
  0
BLOCK_RECORD
  5
190
330
1
100
AcDbSymbolTableRecord
100
AcDbBlockTableRecord
  2
*D7
340
0
  0
BLOCK_RECORD
  5
19F
330
1
100
AcDbSymbolTableRecord
100
AcDbBlockTableRecord
  2
*D8
340
0
  0
ENDTAB
  0
ENDSEC
  0
SECTION
  2
BLOCKS
  0
BLOCK
  5
20
330
1F
100
AcDbEntity
  8
0
100
AcDbBlockBegin
  2
*Model_Space
 70
     0
 10
0.0
 20
0.0
 30
0.0
  3
*Model_Space
  1
*Model_Space
  0
ENDBLK
  5
21
330
1F
100
AcDbEntity
  8
0
100
AcDbBlockEnd
  0
BLOCK
  5
1C
330
1B
100
AcDbEntity
 67
     1
  8
0
100
AcDbBlockBegin
  2
*Paper_Space
 70
     0
 10
0.0
 20
0.0
 30
0.0
  3
*Paper_Space
  1
*Paper_Space
  0
ENDBLK
  5
1D
330
1B
100
AcDbEntity
 67
     1
  8
0
100
AcDbBlockEnd
  0
BLOCK
  5
24
330
23
100
AcDbEntity
  8
0
100
AcDbBlockBegin
  2
*Paper_Space0
 70
     0
 10
0.0
 20
0.0
 30
0.0
  3
*Paper_Space0
  1
*Paper_Space0
  0
ENDBLK
  5
25
330
23
100
AcDbEntity
  8
0
100
AcDbBlockEnd
  0
BLOCK
  5
80
330
7F
100
AcDbEntity
  8
0
100
AcDbBlockBegin
  2
블럭10
 70
     2
 10
0.0
 20
0.0
 30
0.0
  3
블럭10
  1
블럭10
  0
ELLIPSE
  5
82
330
7F
100
AcDbEntity
  8
중심선
100
AcDbEllipse
 10
20.54032771741204
 20
12.0471743016438
 30
0.0
 11
6.600054785286829
 21
-1.261213355974178E-13
 31
0.0
210
0.0
220
0.0
230
1.0
 40
0.636358354079598
 41
0.9219305317359503
 42
6.513795318482858
  0
ELLIPSE
  5
83
330
7F
100
AcDbEntity
  8
중심선
100
AcDbEllipse
 10
20.54032771746488
 20
12.04717430159265
 30
0.0
 11
3.960054785062283
 21
1.540847449632565E-10
 31
0.0
210
0.0
220
0.0
230
1.0
 40
0.3939339440162632
 41
1.131841032648279
 42
5.62031148352944
  0
LINE
  5
84
330
7F
100
AcDbEntity
  8
중심선
100
AcDbLine
 10
2.268634060543552
 20
16.24717430164393
 30
0.0
 11
5.714909304380834
 21
16.24717430164393
 31
0.0
  0
LINE
  5
85
330
7F
100
AcDbEntity
  8
중심선
100
AcDbLine
 10
5.245725140726316
 20
7.84717430164391
 30
0.0
 11
8.692000384563599
 21
7.84717430164391
 31
0.0
  0
LINE
  5
86
330
7F
100
AcDbEntity
  8
중심선
100
AcDbLine
 10
15.74043728645272
 20
16.24717430164393
 30
0.0
 11
8.692000384563599
 21
7.84717430164391
 31
0.0
  0
LINE
  5
87
330
7F
100
AcDbEntity
  8
중심선
100
AcDbLine
 10
0.1404042013395286
 20
13.71084872107135
 30
0.0
 11
3.58671253028996
 21
13.71088815037384
 31
0.0
  0
LINE
  5
88
330
7F
100
AcDbEntity
  8
중심선
100
AcDbLine
 10
2.750260043222114
 20
10.84717430164391
 30
0.0
 11
6.196535287059397
 21
10.84717430164391
 31
0.0
  0
LINE
  5
89
330
7F
100
AcDbEntity
  8
중심선
100
AcDbLine
 10
12.29416204261559
 20
16.24717430164393
 30
0.0
 11
5.245725140726316
 21
7.84717430164391
 31
0.0
  0
LINE
  5
8A
330
7F
100
AcDbEntity
  8
중심선
100
AcDbLine
 10
10.72767329541681
 20
16.24717430164393
 30
0.0
 11
6.196535287059397
 21
10.84717430164391
 31
0.0
  0
LINE
  5
8B
330
7F
100
AcDbEntity
  8
중심선
100
AcDbLine
 10
7.28139805157953
 20
16.24717430164393
 30
0.0
 11
2.750260043222114
 21
10.84717430164391
 31
0.0
  0
LINE
  5
8C
330
7F
100
AcDbEntity
  8
중심선
100
AcDbLine
 10
5.714909304380834
 20
16.24717430164393
 30
0.0
 11
3.58671253028996
 21
13.71088815037384
 31
0.0
  0
LINE
  5
8D
330
7F
100
AcDbEntity
  8
중심선
100
AcDbLine
 10
2.268634060543552
 20
16.24717430164393
 30
0.0
 11
0.1404042013395286
 21
13.71084872107135
 31
0.0
  0
LINE
  5
8E
330
7F
100
AcDbEntity
  8
중심선
100
AcDbLine
 10
7.28139805157953
 20
16.24717430164393
 30
0.0
 11
10.72767329541681
 21
16.24717430164393
 31
0.0
  0
LINE
  5
8F
330
7F
100
AcDbEntity
  8
중심선
100
AcDbLine
 10
12.29416204261559
 20
16.24717430164393
 30
0.0
 11
15.74043728645272
 21
16.24717430164393
 31
0.0
  0
LINE
  5
90
330
7F
100
AcDbEntity
  8
중심선
100
AcDbLine
 10
19.22036997980202
 20
11.08717430171403
 30
0.0
 11
23.66174974927406
 21
11.08717430171406
 31
0.0
  0
LINE
  5
91
330
7F
100
AcDbEntity
  8
중심선
100
AcDbLine
 10
19.22039502424796
 20
13.00717430171391
 30
0.0
 11
19.22036997980202
 21
11.08717430171403
 31
0.0
  0
LINE
  5
92
330
7F
100
AcDbEntity
  8
중심선
100
AcDbLine
 10
19.22039502424796
 20
13.00717430171391
 30
0.0
 11
26.96566020931264
 21
13.00717430171391
 31
0.0
  0
LINE
  5
93
330
7F
100
AcDbEntity
  8
중심선
100
AcDbLine
 10
22.22332737316547
 20
13.45928029700563
 30
0.0
 11
24.52862924686651
 21
15.39360700705356
 31
0.0
  0
ATTDEF
  5
95
330
7F
100
AcDbEntity
  8
FORMAT
 62
     2
100
AcDbText
 10
4.408487351596664
 20
2.075366912832191
 30
0.0
 40
4.233333333333333
  1
E1041056
 41
0.75
  7
SLDTEXTSTYLE0
 11
4.408487351596664
 21
-0.0412997538344756
 31
0.0
100
AcDbAttributeDefinition
  3

  2
AUTOATTR0
 70
     0
 74
     1
  0
ENDBLK
  5
81
330
7F
100
AcDbEntity
  8
0
100
AcDbBlockEnd
  0
BLOCK
  5
D3
330
D2
100
AcDbEntity
  8
0
100
AcDbBlockBegin
  2
_D
 70
     0
 10
0.0
 20
0.0
 30
0.0
  3
_D
  1
_D
  0
LINE
  5
D5
330
D2
100
AcDbEntity
  8
치수문자_일반주서
 62
     0
370
    -2
100
AcDbLine
 10
139.0
 20
11.17500000000001
 30
0.0
 11
139.0
 21
26.12331739917926
 31
0.0
  0
LINE
  5
D6
330
D2
100
AcDbEntity
  8
치수문자_일반주서
 62
     0
370
    -2
100
AcDbLine
 10
12.0
 20
10.29411885905015
 30
0.0
 11
12.0
 21
26.12331739917926
 31
0.0
  0
LINE
  5
D7
330
D2
100
AcDbEntity
  8
치수문자_일반주서
 62
     0
370
    -2
100
AcDbLine
 10
135.0
 20
26.12331739917926
 30
0.0
 11
16.0
 21
26.12331739917926
 31
0.0
  0
SOLID
  5
D8
330
D2
100
AcDbEntity
  8
치수문자_일반주서
 62
     0
100
AcDbTrace
 10
135.0
 20
25.45665073251259
 30
0.0
 11
135.0
 21
26.78998406584592
 31
0.0
 12
139.0
 22
26.12331739917926
 32
0.0
 13
139.0
 23
26.12331739917926
 33
0.0
  0
SOLID
  5
D9
330
D2
100
AcDbEntity
  8
치수문자_일반주서
 62
     0
100
AcDbTrace
 10
16.0
 20
26.78998406584592
 30
0.0
 11
16.0
 21
25.45665073251259
 31
0.0
 12
12.0
 22
26.12331739917926
 32
0.0
 13
12.0
 23
26.12331739917926
 33
0.0
  0
MTEXT
  5
DA
330
D2
100
AcDbEntity
  8
치수문자_일반주서
 62
     0
100
AcDbMText
 10
75.5
 20
30.99831739917926
 30
0.0
 40
4.0
 41
0.0
 71
     2
 72
     1
  1
\A1;127 [5]
  7
SLDTEXTSTYLE0
 73
     1
 44
1.0
  0
POINT
  5
DB
330
D2
100
AcDbEntity
  8
Defpoints
 62
     0
100
AcDbPoint
 10
139.0
 20
11.11250000000001
 30
0.0
  0
POINT
  5
DC
330
D2
100
AcDbEntity
  8
Defpoints
 62
     0
100
AcDbPoint
 10
12.0
 20
10.23161885905015
 30
0.0
  0
POINT
  5
DD
330
D2
100
AcDbEntity
  8
Defpoints
 62
     0
100
AcDbPoint
 10
12.0
 20
26.12331739917926
 30
0.0
  0
ENDBLK
  5
D4
330
D2
100
AcDbEntity
  8
0
100
AcDbBlockEnd
  0
BLOCK
  5
E7
330
E6
100
AcDbEntity
  8
0
100
AcDbBlockBegin
  2
_D_1
 70
     0
 10
0.0
 20
0.0
 30
0.0
  3
_D_1
  1
_D_1
  0
LINE
  5
E9
330
E6
100
AcDbEntity
  8
치수문자_일반주서
 62
     0
370
    -2
100
AcDbLine
 10
139.0
 20
11.17500000000001
 30
0.0
 11
139.0
 21
41.11250000000001
 31
0.0
  0
LINE
  5
EA
330
E6
100
AcDbEntity
  8
치수문자_일반주서
 62
     0
370
    -2
100
AcDbLine
 10
-45.15000000000001
 20
8.952500000000008
 30
0.0
 11
-45.15000000000001
 21
41.11250000000001
 31
0.0
  0
LINE
  5
EB
330
E6
100
AcDbEntity
  8
치수문자_일반주서
 62
     0
370
    -2
100
AcDbLine
 10
135.0
 20
41.11250000000001
 30
0.0
 11
-41.15000000000001
 21
41.11250000000001
 31
0.0
  0
SOLID
  5
EC
330
E6
100
AcDbEntity
  8
치수문자_일반주서
 62
     0
100
AcDbTrace
 10
135.0
 20
40.44583333333335
 30
0.0
 11
135.0
 21
41.77916666666668
 31
0.0
 12
139.0
 22
41.11250000000001
 32
0.0
 13
139.0
 23
41.11250000000001
 33
0.0
  0
SOLID
  5
ED
330
E6
100
AcDbEntity
  8
치수문자_일반주서
 62
     0
100
AcDbTrace
 10
-41.15000000000001
 20
41.77916666666668
 30
0.0
 11
-41.15000000000001
 21
40.44583333333335
 31
0.0
 12
-45.15000000000001
 22
41.11250000000001
 32
0.0
 13
-45.15000000000001
 23
41.11250000000001
 33
0.0
  0
MTEXT
  5
EE
330
E6
100
AcDbEntity
  8
치수문자_일반주서
 62
     0
100
AcDbMText
 10
46.925
 20
45.98750000000001
 30
0.0
 40
4.0
 41
0.0
 71
     2
 72
     1
  1
\A1;184.15 [7 1/4]
  7
SLDTEXTSTYLE0
 73
     1
 44
1.0
  0
POINT
  5
EF
330
E6
100
AcDbEntity
  8
Defpoints
 62
     0
100
AcDbPoint
 10
139.0
 20
11.11250000000001
 30
0.0
  0
POINT
  5
F0
330
E6
100
AcDbEntity
  8
Defpoints
 62
     0
100
AcDbPoint
 10
-45.15000000000001
 20
8.890000000000008
 30
0.0
  0
POINT
  5
F1
330
E6
100
AcDbEntity
  8
Defpoints
 62
     0
100
AcDbPoint
 10
-45.15000000000001
 20
41.11250000000001
 30
0.0
  0
ENDBLK
  5
E8
330
E6
100
AcDbEntity
  8
0
100
AcDbBlockEnd
  0
BLOCK
  5
FB
330
FA
100
AcDbEntity
  8
0
100
AcDbBlockBegin
  2
_D_2
 70
     0
 10
0.0
 20
0.0
 30
0.0
  3
_D_2
  1
_D_2
  0
LINE
  5
FD
330
FA
100
AcDbEntity
  8
치수문자_일반주서
 62
     0
370
    -2
100
AcDbLine
 10
-42.99000000000002
 20
11.11249999999999
 30
0.0
 11
-60.15000000000001
 21
11.11249999999993
 31
0.0
  0
LINE
  5
FE
330
FA
100
AcDbEntity
  8
치수문자_일반주서
 62
     0
370
    -2
100
AcDbLine
 10
-42.99000000000002
 20
-11.1125
 30
0.0
 11
-60.14999999999993
 21
-11.11250000000006
 31
0.0
  0
LINE
  5
FF
330
FA
100
AcDbEntity
  8
치수문자_일반주서
 62
     0
370
    -2
100
AcDbLine
 10
-60.15000000000001
 20
11.11249999999993
 30
0.0
 11
-60.15000000000015
 21
51.86249999999993
 31
0.0
  0
LINE
  5
100
330
FA
100
AcDbEntity
  8
치수문자_일반주서
 62
     0
370
    -2
100
AcDbLine
 10
-60.15000000000001
 20
11.11249999999993
 30
0.0
 11
-60.14999999999993
 21
-11.11250000000006
 31
0.0
  0
LINE
  5
101
330
FA
100
AcDbEntity
  8
치수문자_일반주서
 62
     0
370
    -2
100
AcDbLine
 10
-60.15000000000003
 20
15.11249999999993
 30
0.0
 11
-60.15000000000004
 21
19.11249999999993
 31
0.0
  0
LINE
  5
102
330
FA
100
AcDbEntity
  8
치수문자_일반주서
 62
     0
370
    -2
100
AcDbLine
 10
-60.14999999999992
 20
-15.11250000000006
 30
0.0
 11
-60.14999999999991
 21
-19.11250000000006
 31
0.0
  0
SOLID
  5
103
330
FA
100
AcDbEntity
  8
치수문자_일반주서
 62
     0
100
AcDbTrace
 10
-60.81666666666669
 20
15.11249999999993
 30
0.0
 11
-59.48333333333336
 21
15.11249999999993
 31
0.0
 12
-60.15000000000001
 22
11.11249999999993
 32
0.0
 13
-60.15000000000001
 23
11.11249999999993
 33
0.0
  0
SOLID
  5
104
330
FA
100
AcDbEntity
  8
치수문자_일반주서
 62
     0
100
AcDbTrace
 10
-59.48333333333326
 20
-15.11250000000006
 30
0.0
 11
-60.81666666666658
 21
-15.11250000000006
 31
0.0
 12
-60.14999999999993
 22
-11.11250000000006
 32
0.0
 13
-60.14999999999993
 23
-11.11250000000006
 33
0.0
  0
MTEXT
  5
105
330
FA
100
AcDbEntity
  8
치수문자_일반주서
 62
     0
100
AcDbMText
 10
-65.02500000000009
 20
35.48749999999991
 30
0.0
 40
4.0
 41
0.0
 71
     2
 72
     1
  1
\A1;%%c22.23 [7/8]
  7
SLDTEXTSTYLE0
 11
-3.516746948643917E-15
 21
1.0
 31
0.0
 73
     1
 44
1.0
  0
POINT
  5
1AF
330
FA
100
AcDbEntity
  8
Defpoints
 62
     0
100
AcDbPoint
 10
-42.92750000000002
 20
11.11249999999999
 30
0.0
  0
POINT
  5
1B0
330
FA
100
AcDbEntity
  8
Defpoints
 62
     0
100
AcDbPoint
 10
-42.92750000000002
 20
-11.1125
 30
0.0
  0
POINT
  5
1B1
330
FA
100
AcDbEntity
  8
Defpoints
 62
     0
100
AcDbPoint
 10
-60.14999999999993
 20
-11.11250000000006
 30
0.0
  0
ENDBLK
  5
FC
330
FA
100
AcDbEntity
  8
0
100
AcDbBlockEnd
  0
BLOCK
  5
10F
330
10E
100
AcDbEntity
  8
0
100
AcDbBlockBegin
  2
_D_3
 70
     0
 10
0.0
 20
0.0
 30
0.0
  3
_D_3
  1
_D_3
  0
LINE
  5
111
330
10E
100
AcDbEntity
  8
치수문자_일반주서
 62
     0
370
    -2
100
AcDbLine
 10
139.0625
 20
-11.11249999999999
 30
0.0
 11
154.0000000000001
 21
-11.11249999999993
 31
0.0
  0
LINE
  5
112
330
10E
100
AcDbEntity
  8
치수문자_일반주서
 62
     0
370
    -2
100
AcDbLine
 10
139.0625
 20
11.11250000000001
 30
0.0
 11
154.0
 21
11.11250000000007
 31
0.0
  0
LINE
  5
113
330
10E
100
AcDbEntity
  8
치수문자_일반주서
 62
     0
370
    -2
100
AcDbLine
 10
154.0
 20
11.11250000000007
 30
0.0
 11
153.9999999999998
 21
57.32163479835856
 31
0.0
  0
LINE
  5
114
330
10E
100
AcDbEntity
  8
치수문자_일반주서
 62
     0
370
    -2
100
AcDbLine
 10
154.0000000000001
 20
-11.11249999999993
 30
0.0
 11
154.0
 21
11.11250000000007
 31
0.0
  0
LINE
  5
115
330
10E
100
AcDbEntity
  8
치수문자_일반주서
 62
     0
370
    -2
100
AcDbLine
 10
154.0000000000001
 20
-15.11249999999993
 30
0.0
 11
154.0000000000001
 21
-19.11249999999993
 31
0.0
  0
LINE
  5
116
330
10E
100
AcDbEntity
  8
치수문자_일반주서
 62
     0
370
    -2
100
AcDbLine
 10
154.0
 20
15.11250000000007
 30
0.0
 11
153.9999999999999
 21
19.11250000000007
 31
0.0
  0
SOLID
  5
117
330
10E
100
AcDbEntity
  8
치수문자_일반주서
 62
     0
100
AcDbTrace
 10
154.6666666666668
 20
-15.11249999999992
 30
0.0
 11
153.3333333333335
 21
-15.11249999999993
 31
0.0
 12
154.0000000000001
 22
-11.11249999999993
 32
0.0
 13
154.0000000000001
 23
-11.11249999999993
 33
0.0
  0
SOLID
  5
118
330
10E
100
AcDbEntity
  8
치수문자_일반주서
 62
     0
100
AcDbTrace
 10
153.3333333333333
 20
15.11250000000007
 30
0.0
 11
154.6666666666666
 21
15.11250000000007
 31
0.0
 12
154.0
 22
11.11250000000007
 32
0.0
 13
154.0
 23
11.11250000000007
 33
0.0
  0
MTEXT
  5
119
330
10E
100
AcDbEntity
  8
치수문자_일반주서
 62
     0
100
AcDbMText
 10
149.1249999999999
 20
40.94663479835854
 30
0.0
 40
4.0
 41
0.0
 71
     2
 72
     1
  1
\A1;%%c22.23 [7/8]
  7
SLDTEXTSTYLE0
 11
-3.836451216702453E-15
 21
1.0
 31
0.0
 73
     1
 44
1.0
  0
POINT
  5
11A
330
10E
100
AcDbEntity
  8
Defpoints
 62
     0
100
AcDbPoint
 10
139.0
 20
-11.11249999999999
 30
0.0
  0
POINT
  5
11B
330
10E
100
AcDbEntity
  8
Defpoints
 62
     0
100
AcDbPoint
 10
139.0
 20
11.11250000000001
 30
0.0
  0
POINT
  5
11C
330
10E
100
AcDbEntity
  8
Defpoints
 62
     0
100
AcDbPoint
 10
154.0
 20
11.11250000000007
 30
0.0
  0
ENDBLK
  5
110
330
10E
100
AcDbEntity
  8
0
100
AcDbBlockEnd
  0
BLOCK
  5
128
330
127
100
AcDbEntity
  8
0
100
AcDbBlockBegin
  2
SW_DOWELSYMBOL_0
 70
     0
 10
0.0
 20
0.0
 30
0.0
  3
SW_DOWELSYMBOL_0
  1
SW_DOWELSYMBOL_0
  0
CIRCLE
  5
12A
330
127
100
AcDbEntity
  8
해칭선
 62
     0
100
AcDbCircle
 10
0.0
 20
0.0
 30
0.0
 40
3.000000000000001
  0
HATCH
  5
12B
330
127
100
AcDbEntity
  8
0
  6
Continuous
 62
     0
370
     0
100
AcDbHatch
 10
0.0
 20
0.0
 30
0.0
210
0.0
220
0.0
230
1.0
  2
SOLID
 70
     1
 71
     0
 91
        1
 92
        0
 93
        3
 72
     2
 10
0.0
 20
0.0
 40
3.000000000000001
 50
0.0
 51
90.0
 73
     1
 72
     1
 10
0.0
 20
3.000000000000001
 11
0.0
 21
0.0
 72
     1
 10
0.0
 20
0.0
 11
3.000000000000001
 21
0.0
 97
        0
 75
     0
 76
     1
 98
        1
 10
0.0
 20
0.0
  0
HATCH
  5
12C
330
127
100
AcDbEntity
  8
0
  6
Continuous
 62
     0
370
     0
100
AcDbHatch
 10
0.0
 20
0.0
 30
0.0
210
0.0
220
0.0
230
1.0
  2
SOLID
 70
     1
 71
     0
 91
        1
 92
        0
 93
        3
 72
     2
 10
0.0
 20
0.0
 40
3.000000000000001
 50
180.0
 51
270.0000000000007
 73
     1
 72
     1
 10
0.0
 20
-3.000000000000001
 11
0.0
 21
0.0
 72
     1
 10
0.0
 20
0.0
 11
-3.000000000000001
 21
0.0
 97
        0
 75
     0
 76
     1
 98
        1
 10
0.0
 20
0.0
  0
ENDBLK
  5
129
330
127
100
AcDbEntity
  8
0
100
AcDbBlockEnd
  0
BLOCK
  5
191
330
190
100
AcDbEntity
  8
0
100
AcDbBlockBegin
  2
*D7
 70
     1
 10
0.0
 20
0.0
 30
0.0
  3
*D7
  1
*D7
  0
LINE
  5
193
330
190
100
AcDbEntity
  8
치수문자_일반주서
 62
     0
370
    -2
100
AcDbLine
 10
101.6
 20
19.11042687965192
 30
0.0
 11
101.6
 21
34.06166322180555
 31
0.0
  0
LINE
  5
194
330
190
100
AcDbEntity
  8
치수문자_일반주서
 62
     0
370
    -2
100
AcDbLine
 10
0.0
 20
19.10320055888108
 30
0.0
 11
0.0
 21
34.06166322180555
 31
0.0
  0
LINE
  5
195
330
190
100
AcDbEntity
  8
치수문자_일반주서
 62
     0
370
    -2
100
AcDbLine
 10
97.6
 20
34.06166322180555
 30
0.0
 11
4.0
 21
34.06166322180555
 31
0.0
  0
SOLID
  5
196
330
190
100
AcDbEntity
  8
치수문자_일반주서
 62
     0
100
AcDbTrace
 10
97.6
 20
33.39499655513889
 30
0.0
 11
97.6
 21
34.72832988847222
 31
0.0
 12
101.6
 22
34.06166322180555
 32
0.0
 13
101.6
 23
34.06166322180555
 33
0.0
  0
SOLID
  5
197
330
190
100
AcDbEntity
  8
치수문자_일반주서
 62
     0
100
AcDbTrace
 10
4.0
 20
34.72832988847222
 30
0.0
 11
4.0
 21
33.39499655513889
 31
0.0
 12
0.0
 22
34.06166322180555
 32
0.0
 13
0.0
 23
34.06166322180555
 33
0.0
  0
MTEXT
  5
198
330
190
100
AcDbEntity
  8
치수문자_일반주서
 62
     0
100
AcDbMText
 10
50.79999999999999
 20
38.93666322180555
 30
0.0
 40
4.0
 41
0.0
 71
     2
 72
     1
  1
\A1;101.6 [4]
  7
SLDTEXTSTYLE0
 73
     1
 44
1.0
  0
POINT
  5
199
330
190
100
AcDbEntity
  8
Defpoints
 62
     0
100
AcDbPoint
 10
101.6
 20
19.04792687965192
 30
0.0
  0
POINT
  5
19A
330
190
100
AcDbEntity
  8
Defpoints
 62
     0
100
AcDbPoint
 10
0.0
 20
19.04070055888108
 30
0.0
  0
POINT
  5
19B
330
190
100
AcDbEntity
  8
Defpoints
 62
     0
100
AcDbPoint
 10
0.0
 20
34.06166322180555
 30
0.0
  0
ENDBLK
  5
192
330
190
100
AcDbEntity
  8
0
100
AcDbBlockEnd
  0
BLOCK
  5
1A0
330
19F
100
AcDbEntity
  8
0
100
AcDbBlockBegin
  2
*D8
 70
     1
 10
0.0
 20
0.0
 30
0.0
  3
*D8
  1
*D8
  0
LINE
  5
1A2
330
19F
100
AcDbEntity
  8
치수문자_일반주서
 62
     0
370
    -2
100
AcDbLine
 10
337.3138117333236
 20
-43.3986898868713
 30
0.0
 11
337.3138117333236
 21
-28.44745354471767
 31
0.0
  0
LINE
  5
1A3
330
19F
100
AcDbEntity
  8
치수문자_일반주서
 62
     0
370
    -2
100
AcDbLine
 10
235.7138117333236
 20
-43.40591620764214
 30
0.0
 11
235.7138117333236
 21
-28.44745354471767
 31
0.0
  0
LINE
  5
1A4
330
19F
100
AcDbEntity
  8
치수문자_일반주서
 62
     0
370
    -2
100
AcDbLine
 10
333.3138117333236
 20
-28.44745354471767
 30
0.0
 11
239.7138117333236
 21
-28.44745354471767
 31
0.0
  0
SOLID
  5
1A5
330
19F
100
AcDbEntity
  8
치수문자_일반주서
 62
     0
100
AcDbTrace
 10
333.3138117333236
 20
-29.11412021138434
 30
0.0
 11
333.3138117333236
 21
-27.780786878051
 31
0.0
 12
337.3138117333236
 22
-28.44745354471767
 32
0.0
 13
337.3138117333236
 23
-28.44745354471767
 33
0.0
  0
SOLID
  5
1A6
330
19F
100
AcDbEntity
  8
치수문자_일반주서
 62
     0
100
AcDbTrace
 10
239.7138117333236
 20
-27.780786878051
 30
0.0
 11
239.7138117333236
 21
-29.11412021138434
 31
0.0
 12
235.7138117333236
 22
-28.44745354471767
 32
0.0
 13
235.7138117333236
 23
-28.44745354471767
 33
0.0
  0
MTEXT
  5
1A7
330
19F
100
AcDbEntity
  8
치수문자_일반주서
 62
     0
100
AcDbMText
 10
286.5138117333236
 20
-23.57245354471767
 30
0.0
 40
4.0
 41
0.0
 71
     2
 72
     1
  1
\A1;101.6 [4]
  7
SLDTEXTSTYLE0
 73
     1
 44
1.0
  0
POINT
  5
1A8
330
19F
100
AcDbEntity
  8
Defpoints
 62
     0
100
AcDbPoint
 10
337.3138117333236
 20
-43.4611898868713
 30
0.0
  0
POINT
  5
1A9
330
19F
100
AcDbEntity
  8
Defpoints
 62
     0
100
AcDbPoint
 10
235.7138117333236
 20
-43.46841620764214
 30
0.0
  0
POINT
  5
1AA
330
19F
100
AcDbEntity
  8
Defpoints
 62
     0
100
AcDbPoint
 10
235.7138117333236
 20
-28.44745354471767
 30
0.0
  0
ENDBLK
  5
1A1
330
19F
100
AcDbEntity
  8
0
100
AcDbBlockEnd
  0
ENDSEC
  0
SECTION
  2
ENTITIES
  0
LINE
  5
96
330
1F
100
AcDbEntity
  8
0
  6
Continuous
 62
     1
370
    15
100
AcDbLine
 10
19.71442338034286
 20
-11.11250000000001
 30
0.0
 11
26.49041905053585
 21
-11.11250000000001
 31
0.0
1001
PE_URL
1000

  0
LINE
  5
97
330
1F
100
AcDbEntity
  8
0
  6
Continuous
 62
     1
370
    15
100
AcDbLine
 10
86.9575023716009
 20
11.1125
 30
0.0
 11
80.18265916401691
 21
11.1125
 31
0.0
1001
PE_URL
1000

  0
LINE
  5
98
330
1F
100
AcDbEntity
  8
0
  6
Continuous
 62
     1
370
    15
100
AcDbLine
 10
49.95112946741719
 20
-11.11250000000001
 30
0.0
 11
56.72720006456475
 21
-11.11250000000001
 31
0.0
1001
PE_URL
1000

  0
LINE
  5
99
330
1F
100
AcDbEntity
  8
0
  6
Continuous
 62
     1
370
    15
100
AcDbLine
 10
117.1946379699953
 20
11.1125
 30
0.0
 11
110.4181107794656
 21
11.1125
 31
0.0
1001
PE_URL
1000

  0
LINE
  5
9A
330
1F
100
AcDbEntity
  8
0
  6
Continuous
 62
     1
370
    15
100
AcDbLine
 10
80.18265916401691
 20
-11.11250000000001
 30
0.0
 11
86.95750237160073
 21
-11.11250000000001
 31
0.0
1001
PE_URL
1000

  0
LINE
  5
9B
330
1F
100
AcDbEntity
  8
0
  6
Continuous
 62
     1
370
    15
100
AcDbLine
 10
26.49041905053563
 20
11.1125
 30
0.0
 11
19.71442338034279
 21
11.1125
 31
0.0
1001
PE_URL
1000

  0
LINE
  5
9C
330
1F
100
AcDbEntity
  8
0
  6
Continuous
 62
     1
370
    15
100
AcDbLine
 10
110.4181107794656
 20
-11.11250000000001
 30
0.0
 11
117.1946379699955
 21
-11.11250000000001
 31
0.0
1001
PE_URL
1000

  0
LINE
  5
9D
330
1F
100
AcDbEntity
  8
0
  6
Continuous
 62
     1
370
    15
100
AcDbLine
 10
56.72720006456479
 20
11.1125
 30
0.0
 11
49.95112946741698
 21
11.1125
 31
0.0
1001
PE_URL
1000

  0
LINE
  5
9E
330
1F
100
AcDbEntity
  8
외형선
  6
Continuous
370
    15
100
AcDbLine
 10
-42.92750000000001
 20
-11.1125
 30
0.0
 11
11.49993139242076
 21
-11.1125
 31
0.0
  0
LINE
  5
9F
330
1F
100
AcDbEntity
  8
외형선
  6
Continuous
370
    15
100
AcDbLine
 10
11.49993139242076
 20
11.1125
 30
0.0
 11
-11.656925
 21
11.1125
 31
0.0
  0
LINE
  5
A0
330
1F
100
AcDbEntity
  8
외형선
  6
Continuous
370
    15
100
AcDbLine
 10
-42.92750000000001
 20
11.1125
 30
0.0
 11
-45.15000000000001
 21
8.890000000000008
 31
0.0
  0
LINE
  5
A1
330
1F
100
AcDbEntity
  8
외형선
  6
Continuous
370
    15
100
AcDbLine
 10
-45.15000000000001
 20
-8.890000000000011
 30
0.0
 11
-42.92750000000001
 21
-11.1125
 31
0.0
  0
LINE
  5
A2
330
1F
100
AcDbEntity
  8
0
  6
Continuous
 62
     1
370
    15
100
AcDbLine
 10
139.0
 20
4.670426671587141
 30
0.0
 11
139.0
 21
11.11250000000001
 31
0.0
1001
PE_URL
1000

  0
SPLINE
  5
A3
330
1F
100
AcDbEntity
  8
0
  6
Continuous
 62
     1
370
    15
100
AcDbSpline
210
0.0
220
0.0
230
1.0
 70
     8
 71
     3
 72
    24
 73
    20
 74
     0
 42
0.000000001
 43
0.00000001
 40
0.0
 40
0.0
 40
0.0
 40
0.0
 40
0.0622335150614627
 40
0.1244682747221899
 40
0.186704058409237
 40
0.2489406452312089
 40
0.3111778140468306
 40
0.3723030502301713
 40
0.4334283672872409
 40
0.4945537187775462
 40
0.5556790582568144
 40
0.6189106322971789
 40
0.6821413383859469
 40
0.7453706166412957
 40
0.8085979080076353
 40
0.8718226545783279
 40
0.9339177223343103
 40
0.996011093412576
 40
1.0
 40
1.0
 40
1.0
 40
1.0
 10
12.00000000000001
 20
7.598041714796016
 30
0.0
 10
13.17130307421478
 20
7.080128219618219
 30
0.0
 10
15.51393264736883
 20
6.044290871583899
 30
0.0
 10
19.02792595830965
 20
4.221976846653812
 30
0.0
 10
22.54198950810516
 20
2.277450826905254
 30
0.0
 10
26.05610009240384
 20
0.2523555441767963
 30
0.0
 10
29.54934376325243
 20
-1.767721780660867
 30
0.0
 10
33.02157074522157
 20
-3.718126208663547
 30
0.0
 10
36.47289676006422
 20
-5.537459626642997
 30
0.0
 10
39.92423186538836
 20
-7.1792589781481
 30
0.0
 10
43.41515772593491
 20
-8.607060071126643
 30
0.0
 10
46.94591080882144
 20
-9.764425247615126
 30
0.0
 10
50.51619711737479
 20
-10.59963289583026
 30
0.0
 10
54.08640302562198
 20
-11.07184278375012
 30
0.0
 10
57.65646610752081
 20
-11.16187388030416
 30
0.0
 10
61.20516973362941
 20
-10.87950510783321
 30
0.0
 10
64.73244027503796
 20
-10.20123056196478
 30
0.0
 10
67.14485031564809
 20
-9.587261624371482
 30
0.0
 10
68.38856454047618
 20
-9.1283562134474
 30
0.0
 10
68.46363852459925
 20
-9.10065543070652
 30
0.0
1001
PE_URL
1000

  0
SPLINE
  5
A4
330
1F
100
AcDbEntity
  8
0
  6
Continuous
 62
     1
370
    15
100
AcDbSpline
210
0.0
220
0.0
230
1.0
 70
     8
 71
     3
 72
    14
 73
    10
 74
     0
 42
0.000000001
 43
0.00000001
 40
0.0
 40
0.0
 40
0.0
 40
0.0
 40
0.0294189623582036
 40
0.1931424291060346
 40
0.3568598343674738
 40
0.517651569149499
 40
0.6784391660573318
 40
0.8392221382047824
 40
1.0
 40
1.0
 40
1.0
 40
1.0
 10
117.1946379699954
 20
11.08436902507517
 30
0.0
 10
117.4084744811075
 20
11.09323422564322
 30
0.0
 10
118.8123616299773
 20
11.15143635906238
 30
0.0
 10
121.4062339924808
 20
10.88831271806744
 30
0.0
 10
124.9549997677269
 20
10.28446047693537
 30
0.0
 10
128.4823316083092
 20
9.305736008672444
 30
0.0
 10
131.9883369568542
 20
8.03094257773245
 30
0.0
 10
135.4942175647789
 20
6.499216926658552
 30
0.0
 10
137.8314182361177
 20
5.307229443005702
 30
0.0
 10
139.0
 20
4.711245172910993
 30
0.0
1001
PE_URL
1000

  0
SPLINE
  5
A5
330
1F
100
AcDbEntity
  8
외형선
  6
Continuous
370
    15
100
AcDbSpline
210
0.0
220
0.0
230
1.0
 70
    24
 71
     3
 72
    10
 73
     6
 74
     0
 42
0.000000001
 43
0.00000001
 40
0.0
 40
0.0
 40
0.0
 40
0.0
 40
0.5521919386394049
 40
0.9725061457910456
 40
1.0
 40
1.0
 40
1.0
 40
1.0
 10
11.99999999999998
 20
10.23161885905991
 30
0.0
 10
12.00000000000001
 20
9.75377468205566
 30
0.0
 10
12.00000000000005
 20
8.91220788915367
 30
0.0
 10
12.00000000000001
 20
8.076786044637643
 30
0.0
 10
11.99999999999999
 20
7.745872389399498
 30
0.0
 10
11.99999999999998
 20
7.725555444310953
 30
0.0
  0
SPLINE
  5
A6
330
1F
100
AcDbEntity
  8
0
  6
Continuous
 62
     1
370
    15
100
AcDbSpline
210
0.0
220
0.0
230
1.0
 70
     8
 71
     3
 72
    10
 73
     6
 74
     0
 42
0.000000001
 43
0.00000001
 40
0.0
 40
0.0
 40
0.0
 40
0.0
 40
0.3545948362766293
 40
0.7092114944333319
 40
1.0
 40
1.0
 40
1.0
 40
1.0
 10
139.0
 20
11.11250000000001
 30
0.0
 10
137.8102262612232
 20
10.97426337739023
 30
0.0
 10
135.4306055646115
 20
10.77951454318519
 30
0.0
 10
132.0752500277444
 20
10.09123804332394
 30
0.0
 10
129.9096601748829
 20
9.402482146145832
 30
0.0
 10
128.933949609831
 20
9.09216188641129
 30
0.0
1001
PE_URL
1000

  0
SPLINE
  5
A7
330
1F
100
AcDbEntity
  8
0
  6
Continuous
 62
     1
370
    15
100
AcDbSpline
210
0.0
220
0.0
230
1.0
 70
     8
 71
     3
 72
    27
 73
    23
 74
     0
 42
0.000000001
 43
0.00000001
 40
0.0
 40
0.0
 40
0.0
 40
0.0
 40
0.0209278193212065
 40
0.0723470493663981
 40
0.1246968560911858
 40
0.1770495595995691
 40
0.2294051941253984
 40
0.2817633000214571
 40
0.3341234162139509
 40
0.3855497062989179
 40
0.4369765922893088
 40
0.4884039169538188
 40
0.5398315229378299
 40
0.5913717250109691
 40
0.6429118808176176
 40
0.6944518069632347
 40
0.7459913201247856
 40
0.7975302371077886
 40
0.8481481861744171
 40
0.8987658218746309
 40
0.9493831059048464
 40
1.0
 40
1.0
 40
1.0
 40
1.0
 10
80.18265916401691
 20
-11.06803576521499
 30
0.0
 10
79.70702840329056
 20
-11.07897578655419
 30
0.0
 10
78.06278245495236
 20
-11.11679521970908
 30
0.0
 10
75.22879578326871
 20
-10.79266973367505
 30
0.0
 10
71.68062446627775
 20
-10.10720058838282
 30
0.0
 10
68.1111201357557
 20
-9.047790701268323
 30
0.0
 10
64.54138686219972
 20
-7.684215523677804
 30
0.0
 10
60.97145821483313
 20
-6.055359009414625
 30
0.0
 10
57.42259762809139
 20
-4.230129489937604
 30
0.0
 10
53.89497925467398
 20
-2.273974938994809
 30
0.0
 10
50.38852988544331
 20
-0.2543614802965981
 30
0.0
 10
46.88204988623149
 20
1.773683817567657
 30
0.0
 10
43.37299253801005
 20
3.744469233661607
 30
0.0
 10
39.86135617018229
 20
5.592496847012812
 30
0.0
 10
36.34717149081902
 20
7.25598807487617
 30
0.0
 10
32.83300295502036
 20
8.678260329979256
 30
0.0
 10
29.31887493089926
 20
9.812198009635232
 30
0.0
 10
25.8256853432371
 20
10.61471300591869
 30
0.0
 10
22.35354688324927
 20
11.06847530645107
 30
0.0
 10
18.90233387605057
 20
11.15829440717519
 30
0.0
 10
15.45115590755288
 20
10.91388250666854
 30
0.0
 10
13.15038234846825
 20
10.45903949093947
 30
0.0
 10
12.0
 20
10.23161885905992
 30
0.0
1001
PE_URL
1000

  0
SPLINE
  5
A8
330
1F
100
AcDbEntity
  8
0
  6
Continuous
 62
     1
370
    15
100
AcDbSpline
210
0.0
220
0.0
230
1.0
 70
     8
 71
     3
 72
    29
 73
    25
 74
     0
 42
0.000000001
 43
0.00000001
 40
0.0
 40
0.0
 40
0.0
 40
0.0
 40
0.0128700225698863
 40
0.0623099545689881
 40
0.1108665102509124
 40
0.1594217391796983
 40
0.2079754945214409
 40
0.2565280946238353
 40
0.3059625634655333
 40
0.3553999162356015
 40
0.4048397193051908
 40
0.4542815376315034
 40
0.5037249350075075
 40
0.5522860190035671
 40
0.6008475099521493
 40
0.6494092592627805
 40
0.6979711182723416
 40
0.7474165279724764
 40
0.7968614192161736
 40
0.8463053540188394
 40
0.8957478949494415
 40
0.9451886053832004
 40
0.9937457981068764
 40
1.0
 40
1.0
 40
1.0
 40
1.0
 10
56.72720006456479
 20
11.07573888405631
 30
0.0
 10
57.03697083565967
 20
11.08669195471545
 30
0.0
 10
58.5367197730767
 20
11.13972102529056
 30
0.0
 10
61.20516826252499
 20
10.8556255383791
 30
0.0
 10
64.73244238432855
 20
10.22614730602187
 30
0.0
 10
68.23838483524534
 20
9.232871670616007
 30
0.0
 10
71.74420943628846
 20
7.941900328983573
 30
0.0
 10
75.27116143015775
 20
6.376635516791948
 30
0.0
 10
78.81944061799504
 20
4.586604277158756
 30
0.0
 10
82.38911082681733
 20
2.628411877736262
 30
0.0
 10
85.95899630073248
 20
0.580052142396917
 30
0.0
 10
89.52904851418316
 20
-1.488248918023855
 30
0.0
 10
93.07800156431736
 20
-3.493503074478983
 30
0.0
 10
96.60567842328274
 20
-5.369001963022794
 30
0.0
 10
100.1121641080235
 20
-7.055533001174434
 30
0.0
 10
103.6186731971782
 20
-8.508554125832976
 30
0.0
 10
107.1464315417144
 20
-9.687139531545387
 30
0.0
 10
110.6955560763601
 20
-10.54546018142619
 30
0.0
 10
114.2658739098643
 20
-11.04771637456363
 30
0.0
 10
117.8361181049297
 20
-11.16884804449055
 30
0.0
 10
121.4062351545982
 20
-10.91476002518552
 30
0.0
 10
124.9549990203978
 20
-10.26058781326169
 30
0.0
 10
127.464193052499
 20
-9.629822991999571
 30
0.0
 10
128.7834204286119
 20
-9.147227934998618
 30
0.0
 10
128.9339496098311
 20
-9.092161886411297
 30
0.0
1001
PE_URL
1000

  0
SPLINE
  5
A9
330
1F
100
AcDbEntity
  8
0
  6
Continuous
 62
     1
370
    15
100
AcDbSpline
210
0.0
220
0.0
230
1.0
 70
     8
 71
     3
 72
    27
 73
    23
 74
     0
 42
0.000000001
 43
0.00000001
 40
0.0
 40
0.0
 40
0.0
 40
0.0
 40
0.0506038897872191
 40
0.1012108937540629
 40
0.1518205685962822
 40
0.2024324694691265
 40
0.2530461502423438
 40
0.3027568845379031
 40
0.3524681151585383
 40
0.4021796900512407
 40
0.4518914570662095
 40
0.5025078192971263
 40
0.5531238148872618
 40
0.603738995338001
 40
0.6543529126225898
 40
0.7049651194450985
 40
0.7546727602167244
 40
0.8043792008993386
 40
0.8540842907841503
 40
0.9037878795406162
 40
0.9543909955857707
 40
1.0
 40
1.0
 40
1.0
 40
1.0
 10
139.0
 20
-11.11249999999999
 30
0.0
 10
137.8102264166502
 20
-10.97601796304316
 30
0.0
 10
135.4306060309024
 20
-10.78477840812172
 30
0.0
 10
131.8610192199475
 20
-10.02623630987992
 30
0.0
 10
128.2912080324632
 20
-8.951024407265415
 30
0.0
 10
124.721214885732
 20
-7.561435332411531
 30
0.0
 10
121.1723058106591
 20
-5.924200148732122
 30
0.0
 10
117.6446560454122
 20
-4.097566514410021
 30
0.0
 10
114.1381874719476
 20
-2.146455641587536
 30
0.0
 10
110.6316884274582
 20
-0.124268224444814
 30
0.0
 10
107.1039326106514
 20
1.914320098313129
 30
0.0
 10
103.5548002512277
 20
3.900890315063616
 30
0.0
 10
99.98446159239367
 20
5.765537747481222
 30
0.0
 10
96.4141825561914
 20
7.432379148062016
 30
0.0
 10
92.84401747544521
 20
8.844245854009028
 30
0.0
 10
89.2951961219014
 20
9.94607346319411
 30
0.0
 10
85.76780852932973
 20
10.70709692225216
 30
0.0
 10
82.26174433132263
 20
11.10868738851012
 30
0.0
 10
78.75579980409037
 20
11.14465931821758
 30
0.0
 10
75.22879425740368
 20
10.80236655710588
 30
0.0
 10
71.79811148310921
 20
10.14374026860063
 30
0.0
 10
69.53598929053302
 20
9.436106591584874
 30
0.0
 10
68.46363852459925
 20
9.100655430706514
 30
0.0
1001
PE_URL
1000

  0
SPLINE
  5
AA
330
1F
100
AcDbEntity
  8
0
  6
Continuous
 62
     1
370
    15
100
AcDbSpline
210
0.0
220
0.0
230
1.0
 70
     8
 71
     3
 72
    10
 73
     6
 74
     0
 42
0.000000001
 43
0.00000001
 40
0.0
 40
0.0
 40
0.0
 40
0.0
 40
0.1052695767991679
 40
0.552636511566449
 40
1.0
 40
1.0
 40
1.0
 40
1.0
 10
19.71442338034284
 20
-11.0803960933722
 30
0.0
 10
19.4437248005015
 20
-11.09003031138995
 30
0.0
 10
18.02263122913751
 20
-11.1406073232759
 30
0.0
 10
15.4511558366982
 20
-10.89751387680712
 30
0.0
 10
13.1503823248501
 20
-10.45358329499655
 30
0.0
 10
12.0
 20
-10.23161885905992
 30
0.0
1001
PE_URL
1000

  0
SPLINE
  5
AB
330
1F
100
AcDbEntity
  8
0
  6
Continuous
 62
     1
370
    15
100
AcDbSpline
210
0.0
220
0.0
230
1.0
 70
     8
 71
     3
 72
    28
 73
    24
 74
     0
 42
0.000000001
 43
0.00000001
 40
0.0
 40
0.0
 40
0.0
 40
0.0
 40
0.0426589614525457
 40
0.0904641406357895
 40
0.138269383069228
 40
0.1860746524324108
 40
0.2338799124019322
 40
0.2833324285111788
 40
0.3327842658078076
 40
0.3822349864161957
 40
0.4316841531069054
 40
0.481131329549078
 40
0.5296950002327657
 40
0.5782573439689056
 40
0.6268182139020771
 40
0.6753779284266231
 40
0.7248196409108745
 40
0.7742642377460784
 40
0.8237112852398466
 40
0.873160348285634
 40
0.9226109906124914
 40
0.9711791902738491
 40
1.0
 40
1.0
 40
1.0
 40
1.0
 10
26.49041905053566
 20
11.09247732124323
 30
0.0
 10
27.51703523739008
 20
11.07321450684715
 30
0.0
 10
29.69411475232132
 20
11.03236508409442
 30
0.0
 10
33.0215708664764
 20
10.52959946852632
 30
0.0
 10
36.47289672762134
 20
9.704877984192038
 30
0.0
 10
39.92423187390492
 20
8.559753581442514
 30
0.0
 10
43.4151577241951
 20
7.12634826249442
 30
0.0
 10
46.94591080684449
 20
5.437667184065194
 30
0.0
 10
50.51619712701951
 20
3.54366375394828
 30
0.0
 10
54.08640298902136
 20
1.528063124278356
 30
0.0
 10
57.65646624427205
 20
-0.5399131971923226
 30
0.0
 10
61.2051692270997
 20
-2.577186232199668
 30
0.0
 10
64.73244212786273
 20
-4.515205132033737
 30
0.0
 10
68.23838490391915
 20
-6.292138789431001
 30
0.0
 10
71.74420941804843
 20
-7.860839008823807
 30
0.0
 10
75.27116143458329
 20
-9.17735641662711
 30
0.0
 10
78.81944061893944
 20
-10.19187033549569
 30
0.0
 10
82.38911081859246
 20
-10.86309549527619
 30
0.0
 10
85.95899633268994
 20
-11.16071537969132
 30
0.0
 10
89.52904839457207
 20
-11.07918862772221
 30
0.0
 10
93.07800200745058
 20
-10.60658946391367
 30
0.0
 10
96.13043962351253
 20
-9.935619839093988
 30
0.0
 10
97.99284781996874
 20
-9.30926282799069
 30
0.0
 10
98.68643613034126
 20
-9.075998229044131
 30
0.0
1001
PE_URL
1000

  0
SPLINE
  5
AC
330
1F
100
AcDbEntity
  8
0
  6
Continuous
 62
     1
370
    15
100
AcDbSpline
210
0.0
220
0.0
230
1.0
 70
     8
 71
     3
 72
    28
 73
    24
 74
     0
 42
0.000000001
 43
0.00000001
 40
0.0
 40
0.0
 40
0.0
 40
0.0
 40
0.0456107990374858
 40
0.0950638162462336
 40
0.1445164752409167
 40
0.1939683378310219
 40
0.2434189662870521
 40
0.2928679235935382
 40
0.3414331050119687
 40
0.389997113923725
 40
0.4385598030838432
 40
0.4871210256169134
 40
0.5365611010846197
 40
0.5860039123255514
 40
0.6354494916707568
 40
0.6848974050213443
 40
0.7343472169311375
 40
0.7829151070895751
 40
0.8314835600315448
 40
0.880052427265045
 40
0.9286215601816153
 40
0.9772970308192231
 40
1.0
 40
1.0
 40
1.0
 40
1.0
 10
110.4181107794656
 20
-11.10197668469152
 30
0.0
 10
109.3204735101182
 20
-11.07485459843106
 30
0.0
 10
107.0327348631258
 20
-11.01832568249695
 30
0.0
 10
103.5548003974096
 20
-10.46827548134306
 30
0.0
 10
99.9844615531664
 20
-9.575885148953745
 30
0.0
 10
96.41418256692108
 20
-8.346576907693848
 30
0.0
 10
92.84401747175261
 20
-6.833211006688452
 30
0.0
 10
89.29519612589624
 20
-5.095226985643738
 30
0.0
 10
85.76780851722336
 20
-3.197056371006851
 30
0.0
 10
82.26174437584865
 20
-1.204493723380847
 30
0.0
 10
78.75579963809909
 20
0.8279026428328913
 30
0.0
 10
75.22879488156244
 20
2.844961503892609
 30
0.0
 10
71.68062470973499
 20
4.77858168686821
 30
0.0
 10
68.11112007050752
 20
6.559757176690296
 30
0.0
 10
64.54138687971607
 20
8.11596642527233
 30
0.0
 10
60.97145821002048
 20
9.393823351717636
 30
0.0
 10
57.42259762978551
 20
10.34367109057738
 30
0.0
 10
53.89497925265314
 20
10.94050436177034
 30
0.0
 10
50.38852989185499
 20
11.1704882740819
 30
0.0
 10
46.88204986260536
 20
11.03526642571133
 30
0.0
 10
43.3729926261847
 20
10.51775196660062
 30
0.0
 10
40.48639571857927
 20
9.856560521825731
 30
0.0
 10
38.76864102775762
 20
9.263700722834955
 30
0.0
 10
38.22228372567753
 20
9.07513288947721
 30
0.0
1001
PE_URL
1000

  0
LINE
  5
AD
330
1F
100
AcDbEntity
  8
0
  6
Continuous
 62
     1
370
    15
100
AcDbLine
 10
139.0
 20
-10.06438399360448
 30
0.0
 11
139.0
 21
0.9521339936046097
 31
0.0
1001
PE_URL
1000

  0
SPLINE
  5
AE
330
1F
100
AcDbEntity
  8
0
  6
Continuous
 62
     1
370
    15
100
AcDbSpline
210
0.0
220
0.0
230
1.0
 70
     8
 71
     3
 72
    15
 73
    11
 74
     0
 42
0.000000001
 43
0.00000001
 40
0.0
 40
0.0
 40
0.0
 40
0.0
 40
0.1340051990947061
 40
0.2680130781404333
 40
0.4020231621853598
 40
0.5360349755919557
 40
0.6700480421846338
 40
0.8016668240639773
 40
0.933285780085825
 40
1.0
 40
1.0
 40
1.0
 40
1.0
 10
12.0
 20
-8.10909479228221
 30
0.0
 10
13.17130307452645
 20
-8.545396049376922
 30
0.0
 10
15.51393264830386
 20
-9.418007289093467
 30
0.0
 10
19.02792595456936
 20
-10.34158566432517
 30
0.0
 10
22.54198952213149
 20
-10.94108424237481
 30
0.0
 10
26.05610004003791
 20
-11.17061947396479
 30
0.0
 10
29.54934395721565
 20
-11.0352158606963
 30
0.0
 10
33.02157003572196
 20
-10.52589563134659
 30
0.0
 10
35.90558514209858
 20
-9.868032824137487
 30
0.0
 10
37.63915504303591
 20
-9.274711159020967
 30
0.0
 10
38.22228372567768
 20
-9.075132889477214
 30
0.0
1001
PE_URL
1000

  0
SPLINE
  5
AF
330
1F
100
AcDbEntity
  8
0
  6
Continuous
 62
     1
370
    15
100
AcDbSpline
210
0.0
220
0.0
230
1.0
 70
     8
 71
     3
 72
    22
 73
    18
 74
     0
 42
0.000000001
 43
0.00000001
 40
0.0
 40
0.0
 40
0.0
 40
0.0
 40
0.0494115306136681
 40
0.1180123473252988
 40
0.1853889880766997
 40
0.2527661934591108
 40
0.3201437573089516
 40
0.3875214733618485
 40
0.4561250820959974
 40
0.5247279714917326
 40
0.5933295338622353
 40
0.6619291622887324
 40
0.730526250971096
 40
0.797897492731373
 40
0.8652670007351049
 40
0.9326345709784772
 40
1.0
 40
1.0
 40
1.0
 40
1.0
 10
86.9575023716009
 20
11.07403269478835
 30
0.0
 10
87.8146726639122
 20
11.07023508352
 30
0.0
 10
89.86190085127754
 20
11.0611650341926
 30
0.0
 10
93.07800225266726
 20
10.60695422063641
 30
0.0
 10
96.60567824025591
 20
9.801933779450938
 30
0.0
 10
100.1121641570208
 20
8.66432954248507
 30
0.0
 10
103.6186731842176
 20
7.243474629458801
 30
0.0
 10
107.1464315446552
 20
5.571883497530734
 30
0.0
 10
110.6955560778644
 20
3.701804245648374
 30
0.0
 10
114.2658739008979
 20
1.693448640021206
 30
0.0
 10
117.8361181392902
 20
-0.3729329296412591
 30
0.0
 10
121.4062350261285
 20
-2.426625455307918
 30
0.0
 10
124.9549994962771
 20
-4.384881741592602
 30
0.0
 10
128.4823316804622
 20
-6.185390564851078
 30
0.0
 10
131.9883369376142
 20
-7.763965037629333
 30
0.0
 10
135.4942175695887
 20
-9.109510566198225
 30
0.0
 10
137.8314182377209
 20
-9.746096223413058
 30
0.0
 10
139.0
 20
-10.06438399360448
 30
0.0
1001
PE_URL
1000

  0
SPLINE
  5
B0
330
1F
100
AcDbEntity
  8
외형선
  6
Continuous
370
    15
100
AcDbSpline
210
0.0
220
0.0
230
1.0
 70
    24
 71
     3
 72
    30
 73
    26
 74
     0
 42
0.000000001
 43
0.00000001
 40
0.0
 40
0.0
 40
0.0
 40
0.0
 40
0.1249999999999999
 40
0.1249999999999999
 40
0.2499999999999998
 40
0.2499999999999998
 40
0.3749999999999999
 40
0.3749999999999999
 40
0.5
 40
0.5
 40
0.5625
 40
0.5625
 40
0.6250000000000001
 40
0.6250000000000001
 40
0.6875000000000002
 40
0.6875000000000002
 40
0.7500000000000002
 40
0.7500000000000002
 40
0.8125000000000002
 40
0.8125000000000002
 40
0.8750000000000001
 40
0.8750000000000001
 40
0.9375
 40
0.9375
 40
1.0
 40
1.0
 40
1.0
 40
1.0
 10
12.0
 20
4.336084843834403
 30
0.0
 10
12.0
 20
4.284553808446235
 30
0.0
 10
12.00000000000001
 20
4.174747632398879
 30
0.0
 10
12.00000000000002
 20
3.901014145231785
 30
0.0
 10
12.00000000000003
 20
3.709313569828301
 30
0.0
 10
12.0
 20
3.161656702152036
 30
0.0
 10
11.99999999999999
 20
2.804658531156487
 30
0.0
 10
11.99999999999999
 20
1.875677861490215
 30
0.0
 10
12.00000000000001
 20
1.301662426011999
 30
0.0
 10
12.00000000000001
 20
0.2795449325199482
 30
0.0
 10
11.99999999999999
 20
-0.0873757658532106
 30
0.0
 10
12.0
 20
-0.8633846888448046
 30
0.0
 10
11.99999999999999
 20
-1.27245764083348
 30
0.0
 10
12.0
 20
-2.115020486360657
 30
0.0
 10
11.99999999999999
 20
-2.548417771929969
 30
0.0
 10
12.0
 20
-3.415874883263912
 30
0.0
 10
11.99999999999997
 20
-3.849780816299613
 30
0.0
 10
12.00000000000001
 20
-4.69229904312079
 30
0.0
 10
12.00000000000001
 20
-5.100749887465502
 30
0.0
 10
12.00000000000001
 20
-5.869164506928843
 30
0.0
 10
12.00000000000003
 20
-6.229021634149785
 30
0.0
 10
12.00000000000001
 20
-6.884067099420016
 30
0.0
 10
12.00000000000001
 20
-7.179235746512486
 30
0.0
 10
12.00000000000001
 20
-7.697711124731451
 30
0.0
 10
12.0
 20
-7.921072748511734
 30
0.0
 10
11.99999999999999
 20
-8.109094792282193
 30
0.0
  0
SPLINE
  5
B1
330
1F
100
AcDbEntity
  8
0
  6
Continuous
 62
     1
370
    15
100
AcDbSpline
210
0.0
220
0.0
230
1.0
 70
     8
 71
     3
 72
    19
 73
    15
 74
     0
 42
0.000000001
 43
0.00000001
 40
0.0
 40
0.0
 40
0.0
 40
0.0
 40
0.0885418070499519
 40
0.1770890629911376
 40
0.2656409921725257
 40
0.3541968162476644
 40
0.442755754620855
 40
0.5297348043108359
 40
0.6167147224225782
 40
0.7036952429083884
 40
0.7906760995512159
 40
0.879239729680539
 40
0.9678027182971755
 40
1.0
 40
1.0
 40
1.0
 40
1.0
 10
139.0
 20
0.9521339936046093
 30
0.0
 10
137.8102264166492
 20
1.633450034481729
 30
0.0
 10
135.4306060308992
 20
2.996124044643872
 30
0.0
 10
131.8610192199608
 20
4.928572732150348
 30
0.0
 10
128.2912080324136
 20
6.694354715108732
 30
0.0
 10
124.7212148859174
 20
8.229891812649761
 30
0.0
 10
121.1723058099724
 20
9.475856432774236
 30
0.0
 10
117.6446560479245
 20
10.39565387064638
 30
0.0
 10
114.1381874625663
 20
10.96627991770344
 30
0.0
 10
110.6316884624717
 20
11.17254815873934
 30
0.0
 10
107.1039324789737
 20
11.01344537896477
 30
0.0
 10
103.55480075262
 20
10.46073898240571
 30
0.0
 10
100.7418878587502
 20
9.800109012613127
 30
0.0
 10
99.11910491623107
 20
9.228422209255495
 30
0.0
 10
98.68643613034138
 20
9.075998229044124
 30
0.0
1001
PE_URL
1000

  0
SPLINE
  5
B2
330
1F
100
AcDbEntity
  8
0
  6
Continuous
 62
     1
370
    15
100
AcDbSpline
210
0.0
220
0.0
230
1.0
 70
     8
 71
     3
 72
    18
 73
    14
 74
     0
 42
0.000000001
 43
0.00000001
 40
0.0
 40
0.0
 40
0.0
 40
0.0
 40
0.0808685754402215
 40
0.1732632014278412
 40
0.2658601170873911
 40
0.3584569496247533
 40
0.4510533695540487
 40
0.5436490475178644
 40
0.6362436543897457
 40
0.7271836540802925
 40
0.8181230907780237
 40
0.9090618956668781
 40
1.0
 40
1.0
 40
1.0
 40
1.0
 10
49.95112946741719
 20
-11.09240509613878
 30
0.0
 10
48.92810506127115
 20
-11.07331154962622
 30
0.0
 10
46.73624644644112
 20
-11.03240308824465
 30
0.0
 10
43.37299252254319
 20
-10.52228886276121
 30
0.0
 10
39.86135617433045
 20
-9.675848037294763
 30
0.0
 10
36.34717148970751
 20
-8.497691641217557
 30
0.0
 10
32.83300295531821
 20
-7.039635661306337
 30
0.0
 10
29.31887493081941
 20
-5.346862882618226
 30
0.0
 10
25.82568534325806
 20
-3.487879663026392
 30
0.0
 10
22.35354688324369
 20
-1.52611526110848
 30
0.0
 10
18.90233387605204
 20
0.470069730156143
 30
0.0
 10
15.45115590755251
 20
2.461161314400361
 30
0.0
 10
13.15038234846814
 20
3.711111938881491
 30
0.0
 10
12.0
 20
4.336084843834403
 30
0.0
1001
PE_URL
1000

  0
LINE
  5
B3
330
1F
100
AcDbEntity
  8
0
  6
Continuous
 62
     1
370
    15
100
AcDbLine
 10
139.0
 20
-11.11249999999999
 30
0.0
 11
139.0
 21
-10.06438399360448
 31
0.0
1001
PE_URL
1000

  0
LINE
  5
B4
330
1F
100
AcDbEntity
  8
외형선
  6
Continuous
370
    15
100
AcDbLine
 10
11.99999999999998
 20
-10.23161885905992
 30
0.0
 11
12.0
 21
-8.10909479228221
 31
0.0
  0
LINE
  5
B5
330
1F
100
AcDbEntity
  8
외형선
  6
Continuous
370
    15
100
AcDbLine
 10
11.99999999999998
 20
4.336084843834402
 30
0.0
 11
12.0
 21
7.598041714796015
 31
0.0
  0
LINE
  5
B6
330
1F
100
AcDbEntity
  8
0
  6
Continuous
 62
     1
370
    15
100
AcDbLine
 10
139.0
 20
0.9521339936046095
 30
0.0
 11
139.0
 21
4.711245172910994
 31
0.0
1001
PE_URL
1000

  0
LINE
  5
B7
330
1F
100
AcDbEntity
  8
외형선
  6
Continuous
370
    15
100
AcDbLine
 10
11.49993139242076
 20
-7.908837289779594
 30
0.0
 11
11.49993139242076
 21
4.600730862350509
 31
0.0
  0
SPLINE
  5
B8
330
1F
100
AcDbEntity
  8
외형선
  6
Continuous
370
    15
100
AcDbSpline
210
0.0
220
0.0
230
1.0
 70
     8
 71
     3
 72
     8
 73
     4
 74
     0
 42
0.000000001
 43
0.00000001
 40
0.0
 40
0.0
 40
0.0
 40
0.0
 40
1.0
 40
1.0
 40
1.0
 40
1.0
 10
12.00000000000001
 20
-8.109094792282217
 30
0.0
 10
11.83310881179621
 20
-8.043203562881288
 30
0.0
 10
11.66639124790495
 20
-7.976420248655853
 30
0.0
 10
11.49993139242074
 20
-7.908781014858926
 30
0.0
  0
SPLINE
  5
B9
330
1F
100
AcDbEntity
  8
외형선
  6
Continuous
370
    15
100
AcDbSpline
210
0.0
220
0.0
230
1.0
 70
     8
 71
     3
 72
     8
 73
     4
 74
     0
 42
0.000000001
 43
0.00000001
 40
0.0
 40
0.0
 40
0.0
 40
0.0
 40
1.0
 40
1.0
 40
1.0
 40
1.0
 10
12.0
 20
-10.23161885905992
 30
0.0
 10
11.83310881179621
 20
-10.19401575396107
 30
0.0
 10
11.66639124790497
 20
-10.15527127581696
 30
0.0
 10
11.49993139242077
 20
-10.11540801677037
 30
0.0
  0
LINE
  5
BA
330
1F
100
AcDbEntity
  8
외형선
  6
Continuous
370
    15
100
AcDbLine
 10
11.49993139242076
 20
-11.1125
 30
0.0
 11
11.49993139242076
 21
-10.11538095091908
 31
0.0
  0
SPLINE
  5
BB
330
1F
100
AcDbEntity
  8
외형선
  6
Continuous
370
    15
100
AcDbSpline
210
0.0
220
0.0
230
1.0
 70
     8
 71
     3
 72
     8
 73
     4
 74
     0
 42
0.000000001
 43
0.00000001
 40
0.0
 40
0.0
 40
0.0
 40
0.0
 40
1.0
 40
1.0
 40
1.0
 40
1.0
 10
12.0
 20
10.23161885905991
 30
0.0
 10
11.83310881179621
 20
10.19401575396106
 30
0.0
 10
11.66639124790497
 20
10.15527127581696
 30
0.0
 10
11.49993139242077
 20
10.11540801677037
 30
0.0
  0
LINE
  5
BC
330
1F
100
AcDbEntity
  8
외형선
  6
Continuous
370
    15
100
AcDbLine
 10
11.49993139242076
 20
7.806276255282699
 30
0.0
 11
11.49993139242076
 21
11.1125
 31
0.0
  0
SPLINE
  5
BD
330
1F
100
AcDbEntity
  8
외형선
  6
Continuous
370
    15
100
AcDbSpline
210
0.0
220
0.0
230
1.0
 70
     8
 71
     3
 72
     8
 73
     4
 74
     0
 42
0.000000001
 43
0.00000001
 40
0.0
 40
0.0
 40
0.0
 40
0.0
 40
1.0
 40
1.0
 40
1.0
 40
1.0
 10
12.00000000000001
 20
7.598041714795998
 30
0.0
 10
11.83310881179621
 20
7.668364864529651
 30
0.0
 10
11.66639124790495
 20
7.737806360333133
 30
0.0
 10
11.49993139242074
 20
7.806333269147921
 30
0.0
  0
SPLINE
  5
BE
330
1F
100
AcDbEntity
  8
외형선
  6
Continuous
370
    15
100
AcDbSpline
210
0.0
220
0.0
230
1.0
 70
     8
 71
     3
 72
     8
 73
     4
 74
     0
 42
0.000000001
 43
0.00000001
 40
0.0
 40
0.0
 40
0.0
 40
0.0
 40
1.0
 40
1.0
 40
1.0
 40
1.0
 10
12.0
 20
4.336084843834402
 30
0.0
 10
11.83310881179621
 20
4.424814804881113
 30
0.0
 10
11.66639124790497
 20
4.513024769237177
 30
0.0
 10
11.49993139242077
 20
4.600671353645978
 30
0.0
  0
LINE
  5
BF
330
1F
100
AcDbEntity
  8
외형선
  6
Continuous
370
    15
100
AcDbLine
 10
-42.92750000000001
 20
-0.0000000000000029
 30
0.0
 11
-42.92750000000001
 21
11.1125
 31
0.0
  0
LINE
  5
C0
330
1F
100
AcDbEntity
  8
외형선
  6
Continuous
370
    15
100
AcDbLine
 10
-42.92750000000001
 20
-11.1125
 30
0.0
 11
-42.92750000000001
 21
-0.0000000000000029
 31
0.0
  0
LINE
  5
C1
330
1F
100
AcDbEntity
  8
외형선
  6
Continuous
370
    15
100
AcDbLine
 10
-45.15000000000001
 20
-0.0000000000000029
 30
0.0
 11
-45.15000000000001
 21
8.890000000000008
 31
0.0
  0
LINE
  5
C2
330
1F
100
AcDbEntity
  8
외형선
  6
Continuous
370
    15
100
AcDbLine
 10
-45.15000000000001
 20
-8.890000000000022
 30
0.0
 11
-45.15000000000001
 21
-0.0000000000000029
 31
0.0
  0
SPLINE
  5
C3
330
1F
100
AcDbEntity
  8
외형선
  6
Continuous
370
    15
100
AcDbSpline
210
0.0
220
0.0
230
1.0
 70
    24
 71
     3
 72
    30
 73
    26
 74
     0
 42
0.000000001
 43
0.00000001
 40
0.0
 40
0.0
 40
0.0
 40
0.0
 40
0.0625
 40
0.0625
 40
0.1250000000000001
 40
0.1250000000000001
 40
0.1875000000000001
 40
0.1875000000000001
 40
0.2500000000000001
 40
0.2500000000000001
 40
0.3125000000000001
 40
0.3125000000000001
 40
0.3750000000000002
 40
0.3750000000000002
 40
0.4375000000000002
 40
0.4375000000000002
 40
0.5000000000000002
 40
0.5000000000000002
 40
0.6250000000000001
 40
0.6250000000000001
 40
0.7500000000000001
 40
0.7500000000000001
 40
0.875
 40
0.875
 40
1.0
 40
1.0
 40
1.0
 40
1.0
 10
11.99999999999999
 20
-8.109094792282203
 30
0.0
 10
12.00000000000001
 20
-7.921072748511887
 30
0.0
 10
12.00000000000001
 20
-7.697711124731797
 30
0.0
 10
12.0
 20
-7.179235746513339
 30
0.0
 10
12.00000000000001
 20
-6.884067099421174
 30
0.0
 10
12.00000000000001
 20
-6.229021634151636
 30
0.0
 10
12.00000000000001
 20
-5.869164506931082
 30
0.0
 10
12.0
 20
-5.100749887468546
 30
0.0
 10
12.00000000000001
 20
-4.692299043124252
 30
0.0
 10
12.0
 20
-3.849780816303869
 30
0.0
 10
12.00000000000001
 20
-3.415874883268546
 30
0.0
 10
12.00000000000001
 20
-2.54841777193526
 30
0.0
 10
11.99999999999999
 20
-2.115020486366228
 30
0.0
 10
11.99999999999999
 20
-1.272457640839473
 30
0.0
 10
12.00000000000001
 20
-0.863384688850942
 30
0.0
 10
12.00000000000003
 20
-0.0873757658594951
 30
0.0
 10
12.0
 20
0.2795449325136597
 30
0.0
 10
11.99999999999999
 20
1.301662426005882
 30
0.0
 10
12.00000000000002
 20
1.875677861484452
 30
0.0
 10
11.99999999999999
 20
2.804658531151637
 30
0.0
 10
12.0
 20
3.161656702147739
 30
0.0
 10
12.00000000000001
 20
3.709313569825091
 30
0.0
 10
12.00000000000001
 20
3.901014145229113
 30
0.0
 10
12.0
 20
4.174747632397175
 30
0.0
 10
11.99999999999999
 20
4.284553808444608
 30
0.0
 10
11.99999999999999
 20
4.33608484383346
 30
0.0
  0
SPLINE
  5
C4
330
1F
100
AcDbEntity
  8
외형선
  6
Continuous
370
    15
100
AcDbSpline
210
0.0
220
0.0
230
1.0
 70
    24
 71
     3
 72
    11
 73
     7
 74
     0
 42
0.000000001
 43
0.00000001
 40
0.0
 40
0.0
 40
0.0
 40
0.0
 40
0.0688498642447447
 40
0.4943795500094362
 40
0.9199092357741281
 40
1.0
 40
1.0
 40
1.0
 40
1.0
 10
12.0
 20
7.725555444310953
 30
0.0
 10
12.0
 20
7.776890078187377
 30
0.0
 10
12.00000000000004
 20
8.145500727955834
 30
0.0
 10
11.99999999999998
 20
8.92023617843634
 30
0.0
 10
11.99999999999999
 20
9.718916355669911
 30
0.0
 10
12.00000000000001
 20
10.16151138232859
 30
0.0
 10
12.0
 20
10.23161885905015
 30
0.0
  0
LINE
  5
C5
330
1F
100
AcDbEntity
  8
중심선
 62
     1
100
AcDbLine
 10
-52.15000000000001
 20
-0.000000000000007
 30
0.0
 11
146.0
 21
0.0000000000000164
 31
0.0
  0
LINE
  5
C6
330
1F
100
AcDbEntity
  8
참조1
100
AcDbLine
 10
46.925
 20
-0.0000000000000068
 30
0.0
 11
46.925
 21
-40.00000000000001
 31
0.0
  0
LINE
  5
C7
330
1F
100
AcDbEntity
  8
참조1
100
AcDbLine
 10
46.925
 20
-40.00000000000001
 30
0.0
 11
-30.94010681430868
 21
-40.0
 31
0.0
  0
CIRCLE
  5
C8
330
1F
100
AcDbEntity
  8
해칭선
100
AcDbCircle
 10
0.0
 20
0.0
 30
0.0
 40
3.000000000000003
  0
INSERT
  5
C9
330
1F
100
AcDbEntity
  8
0
  6
Continuous
 62
     7
100
AcDbBlockReference
 66
     1
  2
블럭10
 10
32.98472706787479
 20
-52.04717430164393
 30
0.0
  0
ATTRIB
  5
CA
330
C9
100
AcDbEntity
  8
FORMAT
 62
     2
100
AcDbText
 10
23.80343177913351
 20
-49.97180738881174
 30
0.0
 40
4.233333333333333
  1
E2041056 [ 4 FLUTE ]
 41
0.75
  7
SLDTEXTSTYLE0
 11
23.80343177913351
 21
-52.08847405547841
 31
0.0
100
AcDbAttribute
  2
AUTOATTR0
 70
     0
 74
     1
  0
SEQEND
  5
CB
330
C9
100
AcDbEntity
  8
0
  6
Continuous
 62
     7
  0
HATCH
  5
CC
330
1F
100
AcDbEntity
  8
중심선
100
AcDbHatch
 10
0.0
 20
0.0
 30
0.0
210
0.0
220
0.0
230
1.0
  2
SOLID
 70
     1
 71
     0
 91
        1
 92
        0
 93
        4
 72
     1
 10
38.69963637225562
 20
-35.8
 11
35.25336112841833
 21
-35.8
 72
     1
 10
35.25336112841833
 20
-35.8
 11
33.12513126921437
 21
-38.3363255805726
 72
     1
 10
33.12513126921437
 20
-38.3363255805726
 11
36.57143959816469
 21
-38.33628615127011
 72
     1
 10
36.57143959816469
 20
-38.33628615127011
 11
38.69963637225562
 21
-35.8
 97
        0
 75
     0
 76
     1
 98
        1
 10
-10.78676131403117
 20
-0.001074928723896
  0
HATCH
  5
CD
330
1F
100
AcDbEntity
  8
중심선
100
AcDbHatch
 10
0.0
 20
0.0
 30
0.0
210
0.0
220
0.0
230
1.0
  2
SOLID
 70
     1
 71
     0
 91
        1
 92
        0
 93
        4
 72
     1
 10
43.71240036329162
 20
-35.79999999999998
 11
40.26612511945429
 21
-35.79999999999998
 72
     1
 10
40.26612511945429
 20
-35.79999999999998
 11
35.73498711109687
 21
-41.20000000000002
 72
     1
 10
35.73498711109687
 20
-41.20000000000002
 11
39.18126235493416
 21
-41.20000000000002
 72
     1
 10
39.18126235493416
 20
-41.20000000000002
 11
43.71240036329162
 21
-35.79999999999998
 97
        0
 75
     0
 76
     1
 98
        1
 10
-10.78676131403117
 20
-0.001074928723896
  0
HATCH
  5
CE
330
1F
100
AcDbEntity
  8
중심선
100
AcDbHatch
 10
0.0
 20
0.0
 30
0.0
210
0.0
220
0.0
230
1.0
  2
SOLID
 70
     1
 71
     0
 91
        1
 92
        0
 93
        4
 72
     1
 10
48.72516435432752
 20
-35.80000000000003
 11
45.27888911049029
 21
-35.8
 72
     1
 10
45.27888911049029
 20
-35.8
 11
38.23045220860107
 21
-44.20000000000002
 72
     1
 10
38.23045220860107
 20
-44.20000000000002
 11
41.67672745243836
 21
-44.20000000000002
 72
     1
 10
41.67672745243836
 20
-44.20000000000002
 11
48.72516435432752
 21
-35.80000000000003
 97
        0
 75
     0
 76
     1
 98
        1
 10
-10.78676131403117
 20
-0.001074928723896
  0
HATCH
  5
CF
330
1F
100
AcDbEntity
  8
중심선
100
AcDbHatch
 10
0.0
 20
0.0
 30
0.0
210
0.0
220
0.0
230
1.0
  2
SOLID
 70
     1
 71
     0
 91
        1
 92
        0
 93
        6
 72
     3
 10
53.52505478533967
 20
-40.00000000005127
 11
3.960054785062283
 21
1.540882976769353E-10
 40
0.3939339440162628
 50
17.09539180608451
 51
320.0019657685073
 73
     0
 72
     1
 10
55.20805444104028
 20
-38.58789400463825
 11
57.51335631474121
 21
-36.65356729459038
 72
     3
 10
53.52505478528682
 20
-40.00000000000015
 11
6.600054785286829
 21
-1.278976924368180E-13
 40
0.636358354079598
 50
39.99873849337483
 51
368.4976242363724
 73
     1
 72
     1
 10
59.9503872771874
 20
-39.03999999993002
 11
52.20512209212277
 21
-39.03999999993002
 72
     1
 10
52.20512209212277
 20
-39.03999999993002
 11
52.20509704767681
 21
-40.95999999992991
 72
     1
 10
52.20509704767681
 20
-40.95999999992991
 11
56.64647681714882
 21
-40.95999999992988
 97
        0
 75
     0
 76
     1
 98
        1
 10
-10.78676131403117
 20
-0.001074928723896
  0
DIMENSION
  5
D0
330
1F
100
AcDbEntity
  8
치수문자_일반주서
100
AcDbDimension
  2
_D
 10
12.0
 20
26.12331739917926
 30
0.0
 11
75.5
 21
26.12331739917926
 31
0.0
 70
   160
  1
<>
 71
     2
 42
127.0
  3
SLDDIMSTYLE2
100
AcDbAlignedDimension
 13
139.0
 23
11.11250000000001
 33
0.0
 14
12.0
 24
10.23161885905015
 34
0.0
 50
0.0000000000000032
100
AcDbRotatedDimension
1001
PE_URL
1000

1001
ACAD
1000
DSTYLE
1002
{
1070
   171
1070
     8
1070
   273
1070
     7
1070
    41
1040
4.0
1070
   140
1040
4.0
1002
}
  0
DIMENSION
  5
E5
330
1F
100
AcDbEntity
  8
치수문자_일반주서
100
AcDbDimension
  2
_D_1
 10
-45.15000000000001
 20
41.11250000000001
 30
0.0
 11
46.925
 21
41.11250000000001
 31
0.0
 70
   160
  1
<>
 71
     2
 42
184.15
  3
SLDDIMSTYLE2
100
AcDbAlignedDimension
 13
139.0
 23
11.11250000000001
 33
0.0
 14
-45.15000000000001
 24
8.890000000000008
 34
0.0
 50
0.0000000000000044
100
AcDbRotatedDimension
1001
PE_URL
1000

1001
ACAD
1000
DSTYLE
1002
{
1070
   171
1070
     8
1070
   273
1070
     7
1070
    41
1040
4.0
1070
   140
1040
4.0
1002
}
  0
DIMENSION
  5
F8
330
1F
100
AcDbEntity
  8
치수문자_일반주서
100
AcDbDimension
  2
_D_2
 10
-60.14999999999993
 20
-11.11250000000006
 30
0.0
 11
-60.1500000000001
 21
35.48749999999993
 31
0.0
 70
   160
  1
%%c<>
 71
     2
 42
22.22499999999999
 52
-270.0
  3
SLDDIMSTYLE2
100
AcDbAlignedDimension
 13
-42.92750000000002
 23
11.11249999999999
 33
0.0
 14
-42.92750000000002
 24
-11.1125
 34
0.0
 50
90.0000000000002
100
AcDbRotatedDimension
1001
PE_URL
1000

1001
ACAD
1000
DSTYLE
1002
{
1070
   171
1070
     8
1070
   273
1070
     7
1070
    41
1040
4.0
1070
   140
1040
4.0
1002
}
  0
DIMENSION
  5
10D
330
1F
100
AcDbEntity
  8
치수문자_일반주서
100
AcDbDimension
  2
_D_3
 10
154.0
 20
11.11250000000007
 30
0.0
 11
153.9999999999999
 21
40.94663479835856
 31
0.0
 70
   160
  1
%%c<>
 71
     2
 42
22.225
 52
-270.0
  3
SLDDIMSTYLE2
100
AcDbAlignedDimension
 13
139.0
 23
-11.11249999999999
 33
0.0
 14
139.0
 24
11.11250000000001
 34
0.0
 50
90.0000000000002
100
AcDbRotatedDimension
1001
PE_URL
1000

1001
ACAD
1000
DSTYLE
1002
{
1070
   171
1070
     8
1070
   273
1070
     7
1070
    41
1040
4.0
1070
   140
1040
4.0
1002
}
  0
LINE
  5
120
330
1F
100
AcDbEntity
  8
참조1
100
AcDbLine
 10
67.03223381534559
 20
7.44
 30
0.0
 11
67.03223381534559
 21
-7.440000000000005
 31
0.0
  0
LINE
  5
121
330
1F
100
AcDbEntity
  8
참조1
100
AcDbLine
 10
79.73223381534558
 20
5.44
 30
0.0
 11
67.03223381534559
 21
5.44
 31
0.0
  0
SOLID
  5
122
330
1F
100
AcDbEntity
  8
참조1
100
AcDbTrace
 10
67.03223381534559
 20
5.44
 30
0.0
 11
73.38223381534559
 21
4.423999999999999
 31
0.0
 12
73.38223381534559
 22
6.456
 32
0.0
 13
73.38223381534559
 23
6.456
 33
0.0
  0
LINE
  5
123
330
1F
100
AcDbEntity
  8
참조1
100
AcDbLine
 10
79.73223381534558
 20
-5.440000000000005
 30
0.0
 11
67.03223381534559
 21
-5.440000000000005
 31
0.0
  0
SOLID
  5
124
330
1F
100
AcDbEntity
  8
참조1
100
AcDbTrace
 10
67.03223381534559
 20
-5.440000000000005
 30
0.0
 11
73.38223381534559
 21
-6.456000000000005
 31
0.0
 12
73.38223381534559
 22
-4.424000000000005
 32
0.0
 13
73.38223381534559
 23
-4.424000000000005
 33
0.0
  0
MTEXT
  5
125
330
1F
100
AcDbEntity
  8
참조1
100
AcDbMText
 10
76.41658394797159
 20
11.01029177718833
 30
0.0
 40
3.5
 41
0.0
 71
     1
 72
     1
  1
A
  7
SLDTEXTSTYLE0
 73
     1
 44
1.0
  0
MTEXT
  5
126
330
1F
100
AcDbEntity
  8
참조1
100
AcDbMText
 10
76.41658394797159
 20
0.1302917771883241
 30
0.0
 40
3.5
 41
0.0
 71
     1
 72
     1
  1
A
  7
SLDTEXTSTYLE0
 73
     1
 44
1.0
  0
INSERT
  5
12D
330
1F
100
AcDbEntity
  8
해칭선
100
AcDbBlockReference
  2
SW_DOWELSYMBOL_0
 10
0.0
 20
0.0
 30
0.0
  0
LINE
  5
1DD
330
1F
100
AcDbEntity
  8
외형선
  6
Continuous
370
    15
100
AcDbLine
 10
-25.14432499999998
 20
9.207499999999982
 30
0.0
 11
-13.56192499999997
 21
9.207499999999982
 31
0.0
1001
PE_URL
1000

  0
LINE
  5
1DE
330
1F
100
AcDbEntity
  8
외형선
  6
Continuous
370
    15
100
AcDbLine
 10
-25.14432499999998
 20
9.207499999999968
 30
0.0
 11
-27.04932500000012
 21
11.1125
 31
0.0
1001
PE_URL
1000

  0
LINE
  5
1DF
330
1F
100
AcDbEntity
  8
외형선
  6
Continuous
370
    15
100
AcDbLine
 10
-13.56192499999997
 20
9.207499999999968
 30
0.0
 11
-11.656925
 21
11.1125
 31
0.0
1001
PE_URL
1000

  0
LINE
  5
1E2
330
1F
100
AcDbEntity
  8
외형선
  6
Continuous
370
    15
100
AcDbLine
 10
-27.04932500000012
 20
11.1125
 30
0.0
 11
-42.92750000000001
 21
11.1125
 31
0.0
  0
ENDSEC
  0
SECTION
  2
OBJECTS
  0
DICTIONARY
  5
C
330
0
100
AcDbDictionary
281
     1
  3
ACAD_DETAILVIEWSTYLE
350
155
  3
ACAD_GROUP
350
D
  3
ACAD_IMAGE_VARS
350
206
  3
ACAD_LAYOUT
350
1A
  3
ACAD_MLINESTYLE
350
17
  3
ACAD_PLOTSETTINGS
350
19
  3
ACAD_PLOTSTYLENAME
350
E
  3
ACAD_SCALELIST
350
47
  3
ACAD_SECTIONVIEWSTYLE
350
156
  3
AcDbVariableDictionary
350
150
  3
APPDATA
350
14F
  3
DWGPROPS
350
207
  0
DICTIONARY
  5
18C
330
2
100
AcDbDictionary
280
     1
281
     1
  3
ACAD_LAYERSTATES
360
18D
  0
DICTIONARY
  5
155
102
{ACAD_REACTORS
330
C
102
}
330
C
100
AcDbDictionary
281
     1
  0
DICTIONARY
  5
D
102
{ACAD_REACTORS
330
C
102
}
330
C
100
AcDbDictionary
281
     1
  0
RASTERVARIABLES
  5
206
102
{ACAD_REACTORS
330
C
102
}
330
C
100
AcDbRasterVariables
 90
        0
 70
     1
 71
     1
 72
     1
  0
DICTIONARY
  5
1A
102
{ACAD_REACTORS
330
C
102
}
330
C
100
AcDbDictionary
281
     1
  3
Layout1
350
1E
  3
Layout2
350
26
  3
Model
350
22
  0
DICTIONARY
  5
17
102
{ACAD_REACTORS
330
C
102
}
330
C
100
AcDbDictionary
281
     1
  3
Standard
350
18
  0
DICTIONARY
  5
19
102
{ACAD_REACTORS
330
C
102
}
330
C
100
AcDbDictionary
281
     1
  0
ACDBDICTIONARYWDFLT
  5
E
102
{ACAD_REACTORS
330
C
102
}
330
C
100
AcDbDictionary
281
     1
  3
Normal
350
F
100
AcDbDictionaryWithDefault
340
F
  0
DICTIONARY
  5
47
102
{ACAD_REACTORS
330
C
102
}
330
C
100
AcDbDictionary
281
     1
  3
A0
350
48
  3
A1
350
49
  3
A2
350
4A
  3
A3
350
4B
  3
A4
350
4C
  3
A5
350
4D
  3
A6
350
4E
  3
A7
350
4F
  3
A8
350
50
  3
A9
350
51
  3
B0
350
52
  3
B1
350
53
  3
B2
350
54
  3
B3
350
55
  3
B4
350
56
  3
B5
350
57
  3
B6
350
58
  3
B7
350
59
  3
B8
350
5A
  3
B9
350
5B
  3
C0
350
5C
  3
C1
350
5D
  3
C2
350
5E
  3
C3
350
5F
  3
C4
350
60
  3
C5
350
61
  3
C6
350
62
  3
C7
350
63
  3
C8
350
64
  3
C9
350
65
  3
D0
350
66
  3
D1
350
67
  3
D2
350
68
  0
DICTIONARY
  5
156
102
{ACAD_REACTORS
330
C
102
}
330
C
100
AcDbDictionary
281
     1
  0
DICTIONARY
  5
150
102
{ACAD_REACTORS
330
C
102
}
330
C
100
AcDbDictionary
281
     1
  0
DICTIONARY
  5
14F
102
{ACAD_REACTORS
330
C
102
}
330
C
100
AcDbDictionary
281
     1
  0
XRECORD
  5
207
102
{ACAD_REACTORS
330
C
102
}
330
C
100
AcDbXrecord
280
     1
  1
DWGPROPS COOKIE
  2

  3

  4

  6

  7

  8
12016016
  9

300
=
301
=
302
=
303
=
304
=
305
=
306
=
307
=
308
=
309
=
 40
0.0
 41
2458312.258732674
 42
2458330.313148773
  1

 90
        0
  0
DICTIONARY
  5
18D
102
{ACAD_REACTORS
330
18C
102
}
330
18C
100
AcDbDictionary
281
     1
  0
LAYOUT
  5
1E
102
{ACAD_REACTORS
330
1A
102
}
330
1A
100
AcDbPlotSettings
  1

  2
none_device
  4

  6

 40
0.0
 41
0.0
 42
0.0
 43
0.0
 44
0.0
 45
0.0
 46
0.0
 47
0.0
 48
0.0
 49
0.0
140
0.0
141
0.0
142
1.0
143
1.0
 70
   688
 72
     1
 73
     0
 74
     5
  7

 75
    16
147
1.0
148
0.0
149
0.0
100
AcDbLayout
  1
Layout1
 70
     1
 71
     1
 10
0.0
 20
0.0
 11
420.0
 21
297.0
 12
0.0
 22
0.0
 32
0.0
 14
1.000000000000000E+20
 24
1.000000000000000E+20
 34
1.000000000000000E+20
 15
-1.000000000000000E+20
 25
-1.000000000000000E+20
 35
-1.000000000000000E+20
146
0.0
 13
0.0
 23
0.0
 33
0.0
 16
1.0
 26
0.0
 36
0.0
 17
0.0
 27
1.0
 37
0.0
 76
     0
330
1B
  0
LAYOUT
  5
26
102
{ACAD_REACTORS
330
1A
102
}
330
1A
100
AcDbPlotSettings
  1

  2
none_device
  4

  6

 40
0.0
 41
0.0
 42
0.0
 43
0.0
 44
0.0
 45
0.0
 46
0.0
 47
0.0
 48
0.0
 49
0.0
140
0.0
141
0.0
142
1.0
143
1.0
 70
   688
 72
     1
 73
     0
 74
     5
  7

 75
    16
147
1.0
148
0.0
149
0.0
100
AcDbLayout
  1
Layout2
 70
     1
 71
     2
 10
0.0
 20
0.0
 11
0.0
 21
0.0
 12
0.0
 22
0.0
 32
0.0
 14
0.0
 24
0.0
 34
0.0
 15
0.0
 25
0.0
 35
0.0
146
0.0
 13
0.0
 23
0.0
 33
0.0
 16
1.0
 26
0.0
 36
0.0
 17
0.0
 27
1.0
 37
0.0
 76
     0
330
23
  0
LAYOUT
  5
22
102
{ACAD_REACTORS
330
1A
102
}
330
1A
100
AcDbPlotSettings
  1

  2
none_device
  4
ANSI_A_(11.00_x_8.50_Inches)
  6

 40
6.35
 41
19.05
 42
6.35000508
 43
19.05000254
 44
279.4
 45
215.9
 46
30.75986687627059
 47
55.54653128864648
 48
0.0
 49
0.0
140
0.0
141
0.0
142
0.025477398679521
143
1.0
 70
  1696
 72
     0
 73
     0
 74
     0
  7

 75
     0
147
0.0235690232323232
148
0.0
149
0.0
100
AcDbLayout
  1
Model
 70
     1
 71
     0
 10
0.0
 20
0.0
 11
420.0
 21
297.0
 12
0.0
 22
0.0
 32
0.0
 14
-65.02500000000015
 24
-49.97180738881174
 34
0.0
 15
154.6666666666668
 25
57.32163479835856
 35
0.0
146
0.0
 13
0.0
 23
0.0
 33
0.0
 16
1.0
 26
0.0
 36
0.0
 17
0.0
 27
1.0
 37
0.0
 76
     0
330
1F
331
29
  0
MLINESTYLE
  5
18
102
{ACAD_REACTORS
330
17
102
}
330
17
100
AcDbMlineStyle
  2
Standard
 70
     0
  3

 62
   256
 51
90.0
 52
90.0
 71
     2
 49
0.5
 62
   256
  6
BYLAYER
 49
-0.5
 62
   256
  6
BYLAYER
  0
ACDBPLACEHOLDER
  5
F
102
{ACAD_REACTORS
330
E
102
}
330
E
  0
SCALE
  5
48
102
{ACAD_REACTORS
330
47
102
}
330
47
100
AcDbScale
 70
     0
300
1:1
140
1.0
141
1.0
290
     1
  0
SCALE
  5
49
102
{ACAD_REACTORS
330
47
102
}
330
47
100
AcDbScale
 70
     0
300
1:2
140
1.0
141
2.0
290
     0
  0
SCALE
  5
4A
102
{ACAD_REACTORS
330
47
102
}
330
47
100
AcDbScale
 70
     0
300
1:4
140
1.0
141
4.0
290
     0
  0
SCALE
  5
4B
102
{ACAD_REACTORS
330
47
102
}
330
47
100
AcDbScale
 70
     0
300
1:5
140
1.0
141
5.0
290
     0
  0
SCALE
  5
4C
102
{ACAD_REACTORS
330
47
102
}
330
47
100
AcDbScale
 70
     0
300
1:8
140
1.0
141
8.0
290
     0
  0
SCALE
  5
4D
102
{ACAD_REACTORS
330
47
102
}
330
47
100
AcDbScale
 70
     0
300
1:10
140
1.0
141
10.0
290
     0
  0
SCALE
  5
4E
102
{ACAD_REACTORS
330
47
102
}
330
47
100
AcDbScale
 70
     0
300
1:16
140
1.0
141
16.0
290
     0
  0
SCALE
  5
4F
102
{ACAD_REACTORS
330
47
102
}
330
47
100
AcDbScale
 70
     0
300
1:20
140
1.0
141
20.0
290
     0
  0
SCALE
  5
50
102
{ACAD_REACTORS
330
47
102
}
330
47
100
AcDbScale
 70
     0
300
1:30
140
1.0
141
30.0
290
     0
  0
SCALE
  5
51
102
{ACAD_REACTORS
330
47
102
}
330
47
100
AcDbScale
 70
     0
300
1:40
140
1.0
141
40.0
290
     0
  0
SCALE
  5
52
102
{ACAD_REACTORS
330
47
102
}
330
47
100
AcDbScale
 70
     0
300
1:50
140
1.0
141
50.0
290
     0
  0
SCALE
  5
53
102
{ACAD_REACTORS
330
47
102
}
330
47
100
AcDbScale
 70
     0
300
1:100
140
1.0
141
100.0
290
     0
  0
SCALE
  5
54
102
{ACAD_REACTORS
330
47
102
}
330
47
100
AcDbScale
 70
     0
300
2:1
140
2.0
141
1.0
290
     0
  0
SCALE
  5
55
102
{ACAD_REACTORS
330
47
102
}
330
47
100
AcDbScale
 70
     0
300
4:1
140
4.0
141
1.0
290
     0
  0
SCALE
  5
56
102
{ACAD_REACTORS
330
47
102
}
330
47
100
AcDbScale
 70
     0
300
8:1
140
8.0
141
1.0
290
     0
  0
SCALE
  5
57
102
{ACAD_REACTORS
330
47
102
}
330
47
100
AcDbScale
 70
     0
300
10:1
140
10.0
141
1.0
290
     0
  0
SCALE
  5
58
102
{ACAD_REACTORS
330
47
102
}
330
47
100
AcDbScale
 70
     0
300
100:1
140
100.0
141
1.0
290
     0
  0
SCALE
  5
59
102
{ACAD_REACTORS
330
47
102
}
330
47
100
AcDbScale
 70
     0
300
1/128" = 1'-0"
140
0.0078125
141
12.0
290
     0
  0
SCALE
  5
5A
102
{ACAD_REACTORS
330
47
102
}
330
47
100
AcDbScale
 70
     0
300
1/64" = 1'-0"
140
0.015625
141
12.0
290
     0
  0
SCALE
  5
5B
102
{ACAD_REACTORS
330
47
102
}
330
47
100
AcDbScale
 70
     0
300
1/32" = 1'-0"
140
0.03125
141
12.0
290
     0
  0
SCALE
  5
5C
102
{ACAD_REACTORS
330
47
102
}
330
47
100
AcDbScale
 70
     0
300
1/16" = 1'-0"
140
0.0625
141
12.0
290
     0
  0
SCALE
  5
5D
102
{ACAD_REACTORS
330
47
102
}
330
47
100
AcDbScale
 70
     0
300
3/32" = 1'-0"
140
0.09375
141
12.0
290
     0
  0
SCALE
  5
5E
102
{ACAD_REACTORS
330
47
102
}
330
47
100
AcDbScale
 70
     0
300
1/8" = 1'-0"
140
0.125
141
12.0
290
     0
  0
SCALE
  5
5F
102
{ACAD_REACTORS
330
47
102
}
330
47
100
AcDbScale
 70
     0
300
3/16" = 1'-0"
140
0.1875
141
12.0
290
     0
  0
SCALE
  5
60
102
{ACAD_REACTORS
330
47
102
}
330
47
100
AcDbScale
 70
     0
300
1/4" = 1'-0"
140
0.25
141
12.0
290
     0
  0
SCALE
  5
61
102
{ACAD_REACTORS
330
47
102
}
330
47
100
AcDbScale
 70
     0
300
3/8" = 1'-0"
140
0.375
141
12.0
290
     0
  0
SCALE
  5
62
102
{ACAD_REACTORS
330
47
102
}
330
47
100
AcDbScale
 70
     0
300
1/2" = 1'-0"
140
0.5
141
12.0
290
     0
  0
SCALE
  5
63
102
{ACAD_REACTORS
330
47
102
}
330
47
100
AcDbScale
 70
     0
300
3/4" = 1'-0"
140
0.75
141
12.0
290
     0
  0
SCALE
  5
64
102
{ACAD_REACTORS
330
47
102
}
330
47
100
AcDbScale
 70
     0
300
1" = 1'-0"
140
1.0
141
12.0
290
     0
  0
SCALE
  5
65
102
{ACAD_REACTORS
330
47
102
}
330
47
100
AcDbScale
 70
     0
300
1-1/2" = 1'-0"
140
1.5
141
12.0
290
     0
  0
SCALE
  5
66
102
{ACAD_REACTORS
330
47
102
}
330
47
100
AcDbScale
 70
     0
300
3" = 1'-0"
140
3.0
141
12.0
290
     0
  0
SCALE
  5
67
102
{ACAD_REACTORS
330
47
102
}
330
47
100
AcDbScale
 70
     0
300
6" = 1'-0"
140
6.0
141
12.0
290
     0
  0
SCALE
  5
68
102
{ACAD_REACTORS
330
47
102
}
330
47
100
AcDbScale
 70
     0
300
1'-0" = 1'-0"
140
12.0
141
12.0
290
     0
  0
ENDSEC
  0
EOF
