  0
SECTION
  2
HEADER
  9
$ACADVER
  1
AC1015
  9
$ACADMAINTVER
 70
     6
  9
$DWGCODEPAGE
  3
ANSI_949
  9
$INSBASE
 10
0.0
 20
0.0
 30
0.0
  9
$EXTMIN
 10
-71.37500000000057
 20
-49.97180738881174
 30
0.0
  9
$EXTMAX
 10
180.0666666666663
 20
49.90329691240977
 30
0.0
  9
$LIMMIN
 10
0.0
 20
0.0
  9
$LIMMAX
 10
420.0
 20
297.0
  9
$ORTHOMODE
 70
     1
  9
$REGENMODE
 70
     1
  9
$FILLMODE
 70
     1
  9
$QTEXTMODE
 70
     0
  9
$MIRRTEXT
 70
     1
  9
$LTSCALE
 40
1.0
  9
$ATTMODE
 70
     1
  9
$TEXTSIZE
 40
3.5
  9
$TRACEWID
 40
1.0
  9
$TEXTSTYLE
  7
Standard
  9
$CLAYER
  8
0
  9
$CELTYPE
  6
ByLayer
  9
$CECOLOR
 62
   256
  9
$CELTSCALE
 40
1.0
  9
$DISPSILH
 70
     0
  9
$DIMSCALE
 40
1.0
  9
$DIMASZ
 40
3.302
  9
$DIMEXO
 40
1.0
  9
$DIMDLI
 40
3.75
  9
$DIMRND
 40
0.0
  9
$DIMDLE
 40
0.0
  9
$DIMEXE
 40
1.0
  9
$DIMTP
 40
0.0
  9
$DIMTM
 40
0.0
  9
$DIMTXT
 40
3.5
  9
$DIMCEN
 40
2.5
  9
$DIMTSZ
 40
0.0
  9
$DIMTOL
 70
     0
  9
$DIMLIM
 70
     0
  9
$DIMTIH
 70
     1
  9
$DIMTOH
 70
     1
  9
$DIMSE1
 70
     0
  9
$DIMSE2
 70
     0
  9
$DIMTAD
 70
     1
  9
$DIMZIN
 70
     0
  9
$DIMBLK
  1

  9
$DIMASO
 70
     1
  9
$DIMSHO
 70
     1
  9
$DIMPOST
  1

  9
$DIMAPOST
  1

  9
$DIMALT
 70
     0
  9
$DIMALTD
 70
     3
  9
$DIMALTF
 40
0.0393700787401575
  9
$DIMLFAC
 40
1.0
  9
$DIMTOFL
 70
     1
  9
$DIMTVP
 40
0.0
  9
$DIMTIX
 70
     0
  9
$DIMSOXD
 70
     0
  9
$DIMSAH
 70
     0
  9
$DIMBLK1
  1

  9
$DIMBLK2
  1

  9
$DIMSTYLE
  2
ISO-25
  9
$DIMCLRD
 70
     0
  9
$DIMCLRE
 70
     0
  9
$DIMCLRT
 70
     0
  9
$DIMTFAC
 40
1.0
  9
$DIMGAP
 40
1.524
  9
$DIMJUST
 70
     0
  9
$DIMSD1
 70
     0
  9
$DIMSD2
 70
     0
  9
$DIMTOLJ
 70
     0
  9
$DIMTZIN
 70
     0
  9
$DIMALTZ
 70
     0
  9
$DIMALTTZ
 70
     0
  9
$DIMUPT
 70
     0
  9
$DIMDEC
 70
     2
  9
$DIMTDEC
 70
     2
  9
$DIMALTU
 70
     2
  9
$DIMALTTD
 70
     3
  9
$DIMTXSTY
  7
Standard
  9
$DIMAUNIT
 70
     0
  9
$DIMADEC
 70
     2
  9
$DIMALTRND
 40
0.0
  9
$DIMAZIN
 70
     0
  9
$DIMDSEP
 70
    44
  9
$DIMATFIT
 70
     3
  9
$DIMFRAC
 70
     0
  9
$DIMLDRBLK
  1

  9
$DIMLUNIT
 70
     2
  9
$DIMLWD
 70
    -2
  9
$DIMLWE
 70
    -2
  9
$DIMTMOVE
 70
     0
  9
$LUNITS
 70
     2
  9
$LUPREC
 70
     2
  9
$SKETCHINC
 40
1.0
  9
$FILLETRAD
 40
10.0
  9
$AUNITS
 70
     0
  9
$AUPREC
 70
     2
  9
$MENU
  1
.
  9
$ELEVATION
 40
0.0
  9
$PELEVATION
 40
0.0
  9
$THICKNESS
 40
0.0
  9
$LIMCHECK
 70
     0
  9
$CHAMFERA
 40
0.0
  9
$CHAMFERB
 40
0.0
  9
$CHAMFERC
 40
0.0
  9
$CHAMFERD
 40
0.0
  9
$SKPOLY
 70
     0
  9
$TDCREATE
 40
2458312.633944653
  9
$TDUCREATE
 40
2458312.258944653
  9
$TDUPDATE
 40
2458330.688033507
  9
$TDUUPDATE
 40
2458330.313033507
  9
$TDINDWG
 40
0.0007300926
  9
$TDUSRTIMER
 40
2458330.312923819
  9
$USRTIMER
 70
     1
  9
$ANGBASE
 50
0.0
  9
$ANGDIR
 70
     0
  9
$PDMODE
 70
     0
  9
$PDSIZE
 40
-1.0
  9
$PLINEWID
 40
0.0
  9
$SPLFRAME
 70
     0
  9
$SPLINETYPE
 70
     6
  9
$SPLINESEGS
 70
     8
  9
$HANDSEED
  5
214
  9
$SURFTAB1
 70
     6
  9
$SURFTAB2
 70
     6
  9
$SURFTYPE
 70
     6
  9
$SURFU
 70
     6
  9
$SURFV
 70
     6
  9
$UCSBASE
  2

  9
$UCSNAME
  2

  9
$UCSORG
 10
0.0
 20
0.0
 30
0.0
  9
$UCSXDIR
 10
1.0
 20
0.0
 30
0.0
  9
$UCSYDIR
 10
0.0
 20
1.0
 30
0.0
  9
$UCSORTHOREF
  2

  9
$UCSORTHOVIEW
 70
     0
  9
$UCSORGTOP
 10
0.0
 20
0.0
 30
0.0
  9
$UCSORGBOTTOM
 10
0.0
 20
0.0
 30
0.0
  9
$UCSORGLEFT
 10
0.0
 20
0.0
 30
0.0
  9
$UCSORGRIGHT
 10
0.0
 20
0.0
 30
0.0
  9
$UCSORGFRONT
 10
0.0
 20
0.0
 30
0.0
  9
$UCSORGBACK
 10
0.0
 20
0.0
 30
0.0
  9
$PUCSBASE
  2

  9
$PUCSNAME
  2

  9
$PUCSORG
 10
0.0
 20
0.0
 30
0.0
  9
$PUCSXDIR
 10
1.0
 20
0.0
 30
0.0
  9
$PUCSYDIR
 10
0.0
 20
1.0
 30
0.0
  9
$PUCSORTHOREF
  2

  9
$PUCSORTHOVIEW
 70
     0
  9
$PUCSORGTOP
 10
0.0
 20
0.0
 30
0.0
  9
$PUCSORGBOTTOM
 10
0.0
 20
0.0
 30
0.0
  9
$PUCSORGLEFT
 10
0.0
 20
0.0
 30
0.0
  9
$PUCSORGRIGHT
 10
0.0
 20
0.0
 30
0.0
  9
$PUCSORGFRONT
 10
0.0
 20
0.0
 30
0.0
  9
$PUCSORGBACK
 10
0.0
 20
0.0
 30
0.0
  9
$USERI1
 70
     0
  9
$USERI2
 70
     0
  9
$USERI3
 70
     0
  9
$USERI4
 70
     0
  9
$USERI5
 70
     0
  9
$USERR1
 40
0.0
  9
$USERR2
 40
0.0
  9
$USERR3
 40
0.0
  9
$USERR4
 40
0.0
  9
$USERR5
 40
0.0
  9
$WORLDVIEW
 70
     1
  9
$SHADEDGE
 70
     3
  9
$SHADEDIF
 70
    70
  9
$TILEMODE
 70
     1
  9
$MAXACTVP
 70
    64
  9
$PINSBASE
 10
0.0
 20
0.0
 30
0.0
  9
$PLIMCHECK
 70
     0
  9
$PEXTMIN
 10
1.000000000000000E+20
 20
1.000000000000000E+20
 30
1.000000000000000E+20
  9
$PEXTMAX
 10
-1.000000000000000E+20
 20
-1.000000000000000E+20
 30
-1.000000000000000E+20
  9
$PLIMMIN
 10
0.0
 20
0.0
  9
$PLIMMAX
 10
0.0
 20
0.0
  9
$UNITMODE
 70
     0
  9
$VISRETAIN
 70
     1
  9
$PLINEGEN
 70
     0
  9
$PSLTSCALE
 70
     1
  9
$TREEDEPTH
 70
  3020
  9
$CMLSTYLE
  2
Standard
  9
$CMLJUST
 70
     0
  9
$CMLSCALE
 40
20.0
  9
$PROXYGRAPHICS
 70
     1
  9
$MEASUREMENT
 70
     1
  9
$CELWEIGHT
370
    -1
  9
$ENDCAPS
280
     0
  9
$JOINSTYLE
280
     0
  9
$LWDISPLAY
290
     1
  9
$INSUNITS
 70
     4
  9
$HYPERLINKBASE
  1

  9
$STYLESHEET
  1

  9
$XEDIT
290
     1
  9
$CEPSNTYPE
380
     0
  9
$PSTYLEMODE
290
     1
  9
$FINGERPRINTGUID
  2
{9F8F64A7-155D-459B-8F83-C450E93DA77A}
  9
$VERSIONGUID
  2
{FAEB1C32-E019-11D5-929B-00C0DF256EC4}
  9
$EXTNAMES
290
     1
  9
$PSVPSCALE
 40
0.0
  9
$OLESTARTUP
290
     0
  0
ENDSEC
  0
SECTION
  2
CLASSES
  0
CLASS
  1
ACDBDICTIONARYWDFLT
  2
AcDbDictionaryWithDefault
  3
ObjectDBX Classes
 90
        0
280
     0
281
     0
  0
CLASS
  1
VISUALSTYLE
  2
AcDbVisualStyle
  3
ObjectDBX Classes
 90
     4095
280
     0
281
     0
  0
CLASS
  1
MATERIAL
  2
AcDbMaterial
  3
ObjectDBX Classes
 90
     1153
280
     0
281
     0
  0
CLASS
  1
SCALE
  2
AcDbScale
  3
ObjectDBX Classes
 90
     1153
280
     0
281
     0
  0
CLASS
  1
SUN
  2
AcDbSun
  3
SCENEOE
 90
     1153
280
     0
281
     0
  0
CLASS
  1
ACDBPLACEHOLDER
  2
AcDbPlaceHolder
  3
ObjectDBX Classes
 90
        0
280
     0
281
     0
  0
CLASS
  1
LAYOUT
  2
AcDbLayout
  3
ObjectDBX Classes
 90
        0
280
     0
281
     0
  0
CLASS
  1
TABLESTYLE
  2
AcDbTableStyle
  3
ObjectDBX Classes
 90
     4095
280
     0
281
     0
  0
CLASS
  1
MLEADERSTYLE
  2
AcDbMLeaderStyle
  3
ACDB_MLEADERSTYLE_CLASS
 90
     4095
280
     0
281
     0
  0
CLASS
  1
RASTERVARIABLES
  2
AcDbRasterVariables
  3
ISM
 90
        0
280
     0
281
     0
  0
ENDSEC
  0
SECTION
  2
TABLES
  0
TABLE
  2
VPORT
  5
8
330
0
100
AcDbSymbolTable
 70
     1
  0
VPORT
  5
29
330
8
100
AcDbSymbolTableRecord
100
AcDbViewportTableRecord
  2
*Active
 70
     0
 10
0.0
 20
0.0
 11
1.0
 21
1.0
 12
54.34583333333285
 22
-0.0342552382009842
 13
0.0
 23
0.0
 14
10.0
 24
10.0
 15
10.0
 25
10.0
 16
0.0
 26
0.0
 36
1.0
 17
0.0
 27
0.0
 37
0.0
 40
143.8612672185431
 41
1.782762691853601
 42
50.0
 43
0.0
 44
0.0
 50
0.0
 51
0.0
 71
    16
 72
  2000
 73
     1
 74
     3
 75
     0
 76
     0
 77
     0
 78
     0
281
     0
 65
     1
110
0.0
120
0.0
130
0.0
111
1.0
121
0.0
131
0.0
112
0.0
122
1.0
132
0.0
 79
     0
146
0.0
  0
ENDTAB
  0
TABLE
  2
LTYPE
  5
5
330
0
100
AcDbSymbolTable
 70
     6
  0
LTYPE
  5
14
330
5
100
AcDbSymbolTableRecord
100
AcDbLinetypeTableRecord
  2
ByBlock
 70
     0
  3

 72
    65
 73
     0
 40
0.0
  0
LTYPE
  5
15
330
5
100
AcDbSymbolTableRecord
100
AcDbLinetypeTableRecord
  2
ByLayer
 70
     0
  3

 72
    65
 73
     0
 40
0.0
  0
LTYPE
  5
16
330
5
100
AcDbSymbolTableRecord
100
AcDbLinetypeTableRecord
  2
Continuous
 70
     0
  3
Solid line
 72
    65
 73
     0
 40
0.0
  0
LTYPE
  5
6A
330
5
100
AcDbSymbolTableRecord
100
AcDbLinetypeTableRecord
  2
HIDDEN
 70
     0
  3
Hidden __ __ __ __ __ __ __ __ __ __ __ __ __ __
 72
    65
 73
     2
 40
1.905
 49
1.27
 74
     0
 49
-0.635
 74
     0
  0
LTYPE
  5
6B
330
5
100
AcDbSymbolTableRecord
100
AcDbLinetypeTableRecord
  2
PHANTOM
 70
     0
  3
Phantom ______  __  __  ______  __  __  ______
 72
    65
 73
     6
 40
12.7
 49
6.35
 74
     0
 49
-1.27
 74
     0
 49
1.27
 74
     0
 49
-1.27
 74
     0
 49
1.27
 74
     0
 49
-1.27
 74
     0
  0
LTYPE
  5
6C
330
5
100
AcDbSymbolTableRecord
100
AcDbLinetypeTableRecord
  2
CENTER
 70
     0
  3
Center ____ _ ____ _ ____ _ ____ _ ____ _ ____
 72
    65
 73
     4
 40
10.16
 49
6.35
 74
     0
 49
-1.27
 74
     0
 49
1.27
 74
     0
 49
-1.27
 74
     0
  0
LTYPE
  5
6D
330
5
100
AcDbSymbolTableRecord
100
AcDbLinetypeTableRecord
  2
CENTERX2
 70
     0
  3
Center (2x) ________  __  ________  __  _____
 72
    65
 73
     4
 40
20.32
 49
12.7
 74
     0
 49
-2.54
 74
     0
 49
2.54
 74
     0
 49
-2.54
 74
     0
  0
LTYPE
  5
6E
330
5
100
AcDbSymbolTableRecord
100
AcDbLinetypeTableRecord
  2
DOT2
 70
     0
  3
Dot (.5x) ........................................
 72
    65
 73
     2
 40
0.635
 49
0.0
 74
     0
 49
-0.635
 74
     0
  0
ENDTAB
  0
TABLE
  2
LAYER
  5
2
102
{ACAD_XDICTIONARY
360
188
102
}
330
0
100
AcDbSymbolTable
 70
    18
  0
LAYER
  5
10
330
2
100
AcDbSymbolTableRecord
100
AcDbLayerTableRecord
  2
0
 70
     0
 62
     7
  6
Continuous
370
    -3
390
F
  0
LAYER
  5
6F
330
2
100
AcDbSymbolTableRecord
100
AcDbLayerTableRecord
  2
FORMAT
 70
     0
 62
     2
  6
Continuous
370
    -3
390
F
  0
LAYER
  5
70
330
2
100
AcDbSymbolTableRecord
100
AcDbLayerTableRecord
  2
외형선
 70
     0
 62
     4
  6
Continuous
370
    30
390
F
  0
LAYER
  5
71
330
2
100
AcDbSymbolTableRecord
100
AcDbLayerTableRecord
  2
숨은선
 70
     0
 62
     2
  6
HIDDEN
370
    15
390
F
  0
LAYER
  5
72
330
2
100
AcDbSymbolTableRecord
100
AcDbLayerTableRecord
  2
중심선
 70
     0
 62
     1
  6
CENTERX2
370
    -3
390
F
  0
LAYER
  5
73
330
2
100
AcDbSymbolTableRecord
100
AcDbLayerTableRecord
  2
파단선
 70
     0
 62
     4
  6
Continuous
370
    -3
390
F
  0
LAYER
  5
74
330
2
100
AcDbSymbolTableRecord
100
AcDbLayerTableRecord
  2
해칭선
 70
     0
 62
   100
  6
Continuous
370
    -3
390
F
  0
LAYER
  5
75
330
2
100
AcDbSymbolTableRecord
100
AcDbLayerTableRecord
  2
가는실선
 70
     0
 62
     4
  6
Continuous
370
    -3
390
F
  0
LAYER
  5
76
330
2
100
AcDbSymbolTableRecord
100
AcDbLayerTableRecord
  2
치수_보조선
 70
     0
 62
     4
  6
Continuous
370
    -3
390
F
  0
LAYER
  5
77
330
2
100
AcDbSymbolTableRecord
100
AcDbLayerTableRecord
  2
치수문자_일반주서
 70
     0
 62
     7
  6
Continuous
370
    15
390
F
  0
LAYER
  5
78
330
2
100
AcDbSymbolTableRecord
100
AcDbLayerTableRecord
  2
개별주서
 70
     0
 62
   100
  6
Continuous
370
    30
390
F
  0
LAYER
  5
79
330
2
100
AcDbSymbolTableRecord
100
AcDbLayerTableRecord
  2
중간선
 70
     0
 62
     2
  6
Continuous
370
    15
390
F
  0
LAYER
  5
7A
330
2
100
AcDbSymbolTableRecord
100
AcDbLayerTableRecord
  2
윤곽선
 70
     0
 62
     3
  6
Continuous
370
    40
390
F
  0
LAYER
  5
7B
330
2
100
AcDbSymbolTableRecord
100
AcDbLayerTableRecord
  2
중심마크
 70
     0
 62
   100
  6
Continuous
370
    30
390
F
  0
LAYER
  5
7C
330
2
100
AcDbSymbolTableRecord
100
AcDbLayerTableRecord
  2
가상선
 70
     0
 62
     4
  6
PHANTOM
370
    -3
390
F
  0
LAYER
  5
7D
330
2
100
AcDbSymbolTableRecord
100
AcDbLayerTableRecord
  2
특수지정선
 70
     0
 62
     5
  6
CENTERX2
370
    60
390
F
  0
LAYER
  5
7E
330
2
100
AcDbSymbolTableRecord
100
AcDbLayerTableRecord
  2
참조1
 70
     0
 62
    -4
  6
Continuous
370
    -3
390
F
  0
LAYER
  5
154
330
2
100
AcDbSymbolTableRecord
100
AcDbLayerTableRecord
  2
Defpoints
 70
     0
 62
     7
  6
Continuous
290
     0
370
    -3
390
F
  0
ENDTAB
  0
TABLE
  2
STYLE
  5
3
330
0
100
AcDbSymbolTable
 70
     2
  0
STYLE
  5
11
330
3
100
AcDbSymbolTableRecord
100
AcDbTextStyleTableRecord
  2
Standard
 70
     0
 40
0.0
 41
1.0
 50
0.0
 71
     0
 42
3.5
  3
txt
  4

  0
STYLE
  5
94
330
3
100
AcDbSymbolTableRecord
100
AcDbTextStyleTableRecord
  2
SLDTEXTSTYLE0
 70
     0
 40
0.0
 41
0.75
 50
0.0
 71
     0
 42
3.5
  3
TXT
  4

  0
ENDTAB
  0
TABLE
  2
VIEW
  5
6
330
0
100
AcDbSymbolTable
 70
     0
  0
ENDTAB
  0
TABLE
  2
UCS
  5
7
330
0
100
AcDbSymbolTable
 70
     0
  0
ENDTAB
  0
TABLE
  2
APPID
  5
9
330
0
100
AcDbSymbolTable
 70
     4
  0
APPID
  5
12
330
9
100
AcDbSymbolTableRecord
100
AcDbRegAppTableRecord
  2
ACAD
 70
     0
  0
APPID
  5
15B
330
9
100
AcDbSymbolTableRecord
100
AcDbRegAppTableRecord
  2
PE_URL
 70
     0
  0
APPID
  5
1ED
330
9
100
AcDbSymbolTableRecord
100
AcDbRegAppTableRecord
  2
ACAD_DSTYLE_DIMFLIPARROW_SYMBOL
 70
     0
  0
APPID
  5
1EE
330
9
100
AcDbSymbolTableRecord
100
AcDbRegAppTableRecord
  2
ACAD_DSTYLE_DIMFLIPARROW_WHICH_SYMBOL
 70
     0
  0
ENDTAB
  0
TABLE
  2
DIMSTYLE
  5
A
330
0
100
AcDbSymbolTable
 70
     4
100
AcDbDimStyleTable
  0
DIMSTYLE
105
27
330
A
100
AcDbSymbolTableRecord
100
AcDbDimStyleTableRecord
  2
ISO-25
 70
     0
 41
2.5
 42
0.625
 43
3.75
 44
1.25
 73
     0
 74
     0
 77
     1
 78
     8
140
2.5
141
2.5
143
0.03937007874016
147
0.625
171
     3
172
     1
178
     0
271
     2
272
     2
274
     3
278
    44
283
     0
284
     8
340
11
  0
DIMSTYLE
105
D3
330
A
100
AcDbSymbolTableRecord
100
AcDbDimStyleTableRecord
  2
SLDDIMSTYLE0
 70
     0
 41
3.302
 44
0.0
 45
0.000000001
 73
     0
 74
     0
 77
     1
 78
     4
 79
     1
140
3.5
143
0.0393700787401575
147
0.875
148
0.000000001
170
     1
173
     1
178
     0
271
     2
272
     2
276
     2
284
    12
340
94
  0
DIMSTYLE
105
FB
330
A
100
AcDbSymbolTableRecord
100
AcDbDimStyleTableRecord
  2
SLDDIMSTYLE1
 70
     0
 41
3.302
 44
0.0
 45
0.000000001
 73
     0
 74
     0
 77
     1
 78
     4
 79
     1
140
3.5
143
0.0393700787401575
147
0.875
148
0.000000001
170
     1
172
     1
173
     1
178
     0
271
     2
272
     2
276
     2
284
    12
289
     0
340
94
  0
DIMSTYLE
105
110
102
{ACAD_REACTORS
330
10F
330
D2
330
E7
330
FA
102
}
330
A
100
AcDbSymbolTableRecord
100
AcDbDimStyleTableRecord
  2
SLDDIMSTYLE2
 70
     0
 41
3.302
 44
0.0
 45
0.000000001
 73
     0
 74
     0
 77
     1
 78
    12
 79
     3
140
3.5
143
0.0393700787401575
147
0.875
148
0.000000001
170
     1
173
     1
178
     0
271
     2
272
     2
276
     2
284
    12
340
94
  0
ENDTAB
  0
TABLE
  2
BLOCK_RECORD
  5
1
330
0
100
AcDbSymbolTable
 70
     9
  0
BLOCK_RECORD
  5
1F
330
1
100
AcDbSymbolTableRecord
100
AcDbBlockTableRecord
  2
*Model_Space
340
22
  0
BLOCK_RECORD
  5
1B
330
1
100
AcDbSymbolTableRecord
100
AcDbBlockTableRecord
  2
*Paper_Space
340
1E
  0
BLOCK_RECORD
  5
23
330
1
100
AcDbSymbolTableRecord
100
AcDbBlockTableRecord
  2
*Paper_Space0
340
26
  0
BLOCK_RECORD
  5
7F
330
1
100
AcDbSymbolTableRecord
100
AcDbBlockTableRecord
  2
블럭10
340
0
102
{BLKREFS
331
CB
102
}
  0
BLOCK_RECORD
  5
D4
330
1
100
AcDbSymbolTableRecord
100
AcDbBlockTableRecord
  2
_D
340
0
  0
BLOCK_RECORD
  5
E8
330
1
100
AcDbSymbolTableRecord
100
AcDbBlockTableRecord
  2
_D_1
340
0
  0
BLOCK_RECORD
  5
FC
330
1
100
AcDbSymbolTableRecord
100
AcDbBlockTableRecord
  2
_D_2
340
0
  0
BLOCK_RECORD
  5
111
330
1
100
AcDbSymbolTableRecord
100
AcDbBlockTableRecord
  2
_D_3
340
0
  0
BLOCK_RECORD
  5
12A
330
1
100
AcDbSymbolTableRecord
100
AcDbBlockTableRecord
  2
SW_DOWELSYMBOL_0
340
0
102
{BLKREFS
331
130
102
}
  0
BLOCK_RECORD
  5
18C
330
1
100
AcDbSymbolTableRecord
100
AcDbBlockTableRecord
  2
*D7
340
0
  0
BLOCK_RECORD
  5
19B
330
1
100
AcDbSymbolTableRecord
100
AcDbBlockTableRecord
  2
*D8
340
0
  0
ENDTAB
  0
ENDSEC
  0
SECTION
  2
BLOCKS
  0
BLOCK
  5
20
330
1F
100
AcDbEntity
  8
0
100
AcDbBlockBegin
  2
*Model_Space
 70
     0
 10
0.0
 20
0.0
 30
0.0
  3
*Model_Space
  1
*Model_Space
  0
ENDBLK
  5
21
330
1F
100
AcDbEntity
  8
0
100
AcDbBlockEnd
  0
BLOCK
  5
1C
330
1B
100
AcDbEntity
 67
     1
  8
0
100
AcDbBlockBegin
  2
*Paper_Space
 70
     0
 10
0.0
 20
0.0
 30
0.0
  3
*Paper_Space
  1
*Paper_Space
  0
ENDBLK
  5
1D
330
1B
100
AcDbEntity
 67
     1
  8
0
100
AcDbBlockEnd
  0
BLOCK
  5
24
330
23
100
AcDbEntity
  8
0
100
AcDbBlockBegin
  2
*Paper_Space0
 70
     0
 10
0.0
 20
0.0
 30
0.0
  3
*Paper_Space0
  1
*Paper_Space0
  0
ENDBLK
  5
25
330
23
100
AcDbEntity
  8
0
100
AcDbBlockEnd
  0
BLOCK
  5
80
330
7F
100
AcDbEntity
  8
0
100
AcDbBlockBegin
  2
블럭10
 70
     2
 10
0.0
 20
0.0
 30
0.0
  3
블럭10
  1
블럭10
  0
ELLIPSE
  5
82
330
7F
100
AcDbEntity
  8
중심선
100
AcDbEllipse
 10
20.54032771741204
 20
12.0471743016438
 30
0.0
 11
6.600054785286829
 21
-1.261213355974178E-13
 31
0.0
210
0.0
220
0.0
230
1.0
 40
0.636358354079598
 41
0.9219305317359503
 42
6.513795318482858
  0
ELLIPSE
  5
83
330
7F
100
AcDbEntity
  8
중심선
100
AcDbEllipse
 10
20.54032771746488
 20
12.04717430159265
 30
0.0
 11
3.960054785062283
 21
1.540847449632565E-10
 31
0.0
210
0.0
220
0.0
230
1.0
 40
0.3939339440162632
 41
1.131841032648279
 42
5.62031148352944
  0
LINE
  5
84
330
7F
100
AcDbEntity
  8
중심선
100
AcDbLine
 10
2.268634060543552
 20
16.24717430164393
 30
0.0
 11
5.714909304380834
 21
16.24717430164393
 31
0.0
  0
LINE
  5
85
330
7F
100
AcDbEntity
  8
중심선
100
AcDbLine
 10
5.245725140726316
 20
7.84717430164391
 30
0.0
 11
8.692000384563599
 21
7.84717430164391
 31
0.0
  0
LINE
  5
86
330
7F
100
AcDbEntity
  8
중심선
100
AcDbLine
 10
15.74043728645272
 20
16.24717430164393
 30
0.0
 11
8.692000384563599
 21
7.84717430164391
 31
0.0
  0
LINE
  5
87
330
7F
100
AcDbEntity
  8
중심선
100
AcDbLine
 10
0.1404042013395286
 20
13.71084872107135
 30
0.0
 11
3.58671253028996
 21
13.71088815037384
 31
0.0
  0
LINE
  5
88
330
7F
100
AcDbEntity
  8
중심선
100
AcDbLine
 10
2.750260043222114
 20
10.84717430164391
 30
0.0
 11
6.196535287059397
 21
10.84717430164391
 31
0.0
  0
LINE
  5
89
330
7F
100
AcDbEntity
  8
중심선
100
AcDbLine
 10
12.29416204261559
 20
16.24717430164393
 30
0.0
 11
5.245725140726316
 21
7.84717430164391
 31
0.0
  0
LINE
  5
8A
330
7F
100
AcDbEntity
  8
중심선
100
AcDbLine
 10
10.72767329541681
 20
16.24717430164393
 30
0.0
 11
6.196535287059397
 21
10.84717430164391
 31
0.0
  0
LINE
  5
8B
330
7F
100
AcDbEntity
  8
중심선
100
AcDbLine
 10
7.28139805157953
 20
16.24717430164393
 30
0.0
 11
2.750260043222114
 21
10.84717430164391
 31
0.0
  0
LINE
  5
8C
330
7F
100
AcDbEntity
  8
중심선
100
AcDbLine
 10
5.714909304380834
 20
16.24717430164393
 30
0.0
 11
3.58671253028996
 21
13.71088815037384
 31
0.0
  0
LINE
  5
8D
330
7F
100
AcDbEntity
  8
중심선
100
AcDbLine
 10
2.268634060543552
 20
16.24717430164393
 30
0.0
 11
0.1404042013395286
 21
13.71084872107135
 31
0.0
  0
LINE
  5
8E
330
7F
100
AcDbEntity
  8
중심선
100
AcDbLine
 10
7.28139805157953
 20
16.24717430164393
 30
0.0
 11
10.72767329541681
 21
16.24717430164393
 31
0.0
  0
LINE
  5
8F
330
7F
100
AcDbEntity
  8
중심선
100
AcDbLine
 10
12.29416204261559
 20
16.24717430164393
 30
0.0
 11
15.74043728645272
 21
16.24717430164393
 31
0.0
  0
LINE
  5
90
330
7F
100
AcDbEntity
  8
중심선
100
AcDbLine
 10
19.22036997980202
 20
11.08717430171403
 30
0.0
 11
23.66174974927406
 21
11.08717430171406
 31
0.0
  0
LINE
  5
91
330
7F
100
AcDbEntity
  8
중심선
100
AcDbLine
 10
19.22039502424796
 20
13.00717430171391
 30
0.0
 11
19.22036997980202
 21
11.08717430171403
 31
0.0
  0
LINE
  5
92
330
7F
100
AcDbEntity
  8
중심선
100
AcDbLine
 10
19.22039502424796
 20
13.00717430171391
 30
0.0
 11
26.96566020931264
 21
13.00717430171391
 31
0.0
  0
LINE
  5
93
330
7F
100
AcDbEntity
  8
중심선
100
AcDbLine
 10
22.22332737316547
 20
13.45928029700563
 30
0.0
 11
24.52862924686651
 21
15.39360700705356
 31
0.0
  0
ATTDEF
  5
95
330
7F
100
AcDbEntity
  8
FORMAT
 62
     2
100
AcDbText
 10
4.408487351596664
 20
2.075366912832191
 30
0.0
 40
4.233333333333333
  1
E1041064
 41
0.75
  7
SLDTEXTSTYLE0
 11
4.408487351596664
 21
-0.0412997538344756
 31
0.0
100
AcDbAttributeDefinition
  3

  2
AUTOATTR0
 70
     0
 74
     1
  0
ENDBLK
  5
81
330
7F
100
AcDbEntity
  8
0
100
AcDbBlockEnd
  0
BLOCK
  5
D5
330
D4
100
AcDbEntity
  8
0
100
AcDbBlockBegin
  2
_D
 70
     0
 10
0.0
 20
0.0
 30
0.0
  3
_D
  1
_D
  0
LINE
  5
D7
330
D4
100
AcDbEntity
  8
치수문자_일반주서
 62
     0
370
    -2
100
AcDbLine
 10
164.3999999999995
 20
12.76250000000002
 30
0.0
 11
164.3999999999995
 21
27.70789845620486
 31
0.0
  0
LINE
  5
D8
330
D4
100
AcDbEntity
  8
치수문자_일반주서
 62
     0
370
    -2
100
AcDbLine
 10
11.99999999999951
 20
11.28009954510406
 30
0.0
 11
11.99999999999952
 21
27.70789845620486
 31
0.0
  0
LINE
  5
D9
330
D4
100
AcDbEntity
  8
치수문자_일반주서
 62
     0
370
    -2
100
AcDbLine
 10
160.3999999999995
 20
27.70789845620486
 30
0.0
 11
15.99999999999952
 21
27.70789845620486
 31
0.0
  0
SOLID
  5
DA
330
D4
100
AcDbEntity
  8
치수문자_일반주서
 62
     0
100
AcDbTrace
 10
160.3999999999995
 20
27.04123178953819
 30
0.0
 11
160.3999999999995
 21
28.37456512287153
 31
0.0
 12
164.3999999999995
 22
27.70789845620486
 32
0.0
 13
164.3999999999995
 23
27.70789845620486
 33
0.0
  0
SOLID
  5
DB
330
D4
100
AcDbEntity
  8
치수문자_일반주서
 62
     0
100
AcDbTrace
 10
15.99999999999952
 20
28.37456512287153
 30
0.0
 11
15.99999999999952
 21
27.04123178953819
 31
0.0
 12
11.99999999999952
 22
27.70789845620486
 32
0.0
 13
11.99999999999952
 23
27.70789845620486
 33
0.0
  0
MTEXT
  5
DC
330
D4
100
AcDbEntity
  8
치수문자_일반주서
 62
     0
100
AcDbMText
 10
88.19999999999952
 20
32.58289845620486
 30
0.0
 40
4.0
 41
0.0
 71
     2
 72
     1
  1
\A1;152.4 [6]
  7
SLDTEXTSTYLE0
 73
     1
 44
1.0
  0
POINT
  5
DD
330
D4
100
AcDbEntity
  8
Defpoints
 62
     0
100
AcDbPoint
 10
164.3999999999995
 20
12.70000000000002
 30
0.0
  0
POINT
  5
DE
330
D4
100
AcDbEntity
  8
Defpoints
 62
     0
100
AcDbPoint
 10
11.99999999999951
 20
11.21759954510406
 30
0.0
  0
POINT
  5
DF
330
D4
100
AcDbEntity
  8
Defpoints
 62
     0
100
AcDbPoint
 10
11.99999999999951
 20
27.70789845620486
 30
0.0
  0
ENDBLK
  5
D6
330
D4
100
AcDbEntity
  8
0
100
AcDbBlockEnd
  0
BLOCK
  5
E9
330
E8
100
AcDbEntity
  8
0
100
AcDbBlockBegin
  2
_D_1
 70
     0
 10
0.0
 20
0.0
 30
0.0
  3
_D_1
  1
_D_1
  0
LINE
  5
EB
330
E8
100
AcDbEntity
  8
치수문자_일반주서
 62
     0
370
    -2
100
AcDbLine
 10
164.3999999999995
 20
12.76250000000002
 30
0.0
 11
164.3999999999995
 21
42.7
 31
0.0
  0
LINE
  5
EC
330
E8
100
AcDbEntity
  8
치수문자_일반주서
 62
     0
370
    -2
100
AcDbLine
 10
-51.50000000000049
 20
10.8575
 30
0.0
 11
-51.50000000000048
 21
42.7
 31
0.0
  0
LINE
  5
ED
330
E8
100
AcDbEntity
  8
치수문자_일반주서
 62
     0
370
    -2
100
AcDbLine
 10
160.3999999999995
 20
42.7
 30
0.0
 11
-47.50000000000048
 21
42.7
 31
0.0
  0
SOLID
  5
EE
330
E8
100
AcDbEntity
  8
치수문자_일반주서
 62
     0
100
AcDbTrace
 10
160.3999999999995
 20
42.03333333333333
 30
0.0
 11
160.3999999999995
 21
43.36666666666666
 31
0.0
 12
164.3999999999995
 22
42.7
 32
0.0
 13
164.3999999999995
 23
42.7
 33
0.0
  0
SOLID
  5
EF
330
E8
100
AcDbEntity
  8
치수문자_일반주서
 62
     0
100
AcDbTrace
 10
-47.50000000000048
 20
43.36666666666666
 30
0.0
 11
-47.50000000000048
 21
42.03333333333333
 31
0.0
 12
-51.50000000000048
 22
42.7
 32
0.0
 13
-51.50000000000048
 23
42.7
 33
0.0
  0
MTEXT
  5
F0
330
E8
100
AcDbEntity
  8
치수문자_일반주서
 62
     0
100
AcDbMText
 10
56.44999999999953
 20
47.575
 30
0.0
 40
4.0
 41
0.0
 71
     2
 72
     1
  1
\A1;215.9 [8 1/2]
  7
SLDTEXTSTYLE0
 73
     1
 44
1.0
  0
POINT
  5
F1
330
E8
100
AcDbEntity
  8
Defpoints
 62
     0
100
AcDbPoint
 10
164.3999999999995
 20
12.70000000000002
 30
0.0
  0
POINT
  5
F2
330
E8
100
AcDbEntity
  8
Defpoints
 62
     0
100
AcDbPoint
 10
-51.50000000000049
 20
10.795
 30
0.0
  0
POINT
  5
F3
330
E8
100
AcDbEntity
  8
Defpoints
 62
     0
100
AcDbPoint
 10
-51.50000000000049
 20
42.7
 30
0.0
  0
ENDBLK
  5
EA
330
E8
100
AcDbEntity
  8
0
100
AcDbBlockEnd
  0
BLOCK
  5
FD
330
FC
100
AcDbEntity
  8
0
100
AcDbBlockBegin
  2
_D_2
 70
     0
 10
0.0
 20
0.0
 30
0.0
  3
_D_2
  1
_D_2
  0
LINE
  5
FF
330
FC
100
AcDbEntity
  8
치수문자_일반주서
 62
     0
370
    -2
100
AcDbLine
 10
-36.9575000000005
 20
12.69999999999999
 30
0.0
 11
-66.5000000000005
 21
12.69999999999988
 31
0.0
  0
LINE
  5
100
330
FC
100
AcDbEntity
  8
치수문자_일반주서
 62
     0
370
    -2
100
AcDbLine
 10
-49.02250000000051
 20
-12.69999999999999
 30
0.0
 11
-66.50000000000041
 21
-12.70000000000006
 31
0.0
  0
LINE
  5
101
330
FC
100
AcDbEntity
  8
치수문자_일반주서
 62
     0
370
    -2
100
AcDbLine
 10
-66.5000000000005
 20
12.69999999999988
 30
0.0
 11
-66.5000000000006
 21
39.44999999999992
 31
0.0
  0
LINE
  5
102
330
FC
100
AcDbEntity
  8
치수문자_일반주서
 62
     0
370
    -2
100
AcDbLine
 10
-66.5000000000005
 20
12.69999999999988
 30
0.0
 11
-66.50000000000041
 21
-12.70000000000006
 31
0.0
  0
LINE
  5
103
330
FC
100
AcDbEntity
  8
치수문자_일반주서
 62
     0
370
    -2
100
AcDbLine
 10
-66.50000000000051
 20
16.69999999999988
 30
0.0
 11
-66.50000000000053
 21
20.69999999999988
 31
0.0
  0
LINE
  5
104
330
FC
100
AcDbEntity
  8
치수문자_일반주서
 62
     0
370
    -2
100
AcDbLine
 10
-66.5000000000004
 20
-16.70000000000006
 30
0.0
 11
-66.50000000000038
 21
-20.70000000000006
 31
0.0
  0
SOLID
  5
105
330
FC
100
AcDbEntity
  8
치수문자_일반주서
 62
     0
100
AcDbTrace
 10
-67.16666666666718
 20
16.69999999999988
 30
0.0
 11
-65.83333333333384
 21
16.69999999999989
 31
0.0
 12
-66.5000000000005
 22
12.69999999999988
 32
0.0
 13
-66.5000000000005
 23
12.69999999999988
 33
0.0
  0
SOLID
  5
106
330
FC
100
AcDbEntity
  8
치수문자_일반주서
 62
     0
100
AcDbTrace
 10
-65.83333333333373
 20
-16.70000000000005
 30
0.0
 11
-67.16666666666707
 21
-16.70000000000006
 31
0.0
 12
-66.50000000000041
 22
-12.70000000000006
 32
0.0
 13
-66.50000000000041
 23
-12.70000000000006
 33
0.0
  0
MTEXT
  5
107
330
FC
100
AcDbEntity
  8
치수문자_일반주서
 62
     0
100
AcDbMText
 10
-71.37500000000055
 20
28.0749999999999
 30
0.0
 40
4.0
 41
0.0
 71
     2
 72
     1
  1
\A1;%%c25.4 [1]
  7
SLDTEXTSTYLE0
 11
-3.356894814614655E-15
 21
1.0
 31
0.0
 73
     1
 44
1.0
  0
POINT
  5
1AB
330
FC
100
AcDbEntity
  8
Defpoints
 62
     0
100
AcDbPoint
 10
-36.8950000000005
 20
12.69999999999999
 30
0.0
  0
POINT
  5
1AC
330
FC
100
AcDbEntity
  8
Defpoints
 62
     0
100
AcDbPoint
 10
-48.96000000000051
 20
-12.69999999999999
 30
0.0
  0
POINT
  5
1AD
330
FC
100
AcDbEntity
  8
Defpoints
 62
     0
100
AcDbPoint
 10
-66.50000000000041
 20
-12.70000000000006
 30
0.0
  0
ENDBLK
  5
FE
330
FC
100
AcDbEntity
  8
0
100
AcDbBlockEnd
  0
BLOCK
  5
112
330
111
100
AcDbEntity
  8
0
100
AcDbBlockBegin
  2
_D_3
 70
     0
 10
0.0
 20
0.0
 30
0.0
  3
_D_3
  1
_D_3
  0
LINE
  5
114
330
111
100
AcDbEntity
  8
치수문자_일반주서
 62
     0
370
    -2
100
AcDbLine
 10
164.4624999999995
 20
-12.69999999999998
 30
0.0
 11
179.3999999999996
 21
-12.69999999999992
 31
0.0
  0
LINE
  5
115
330
111
100
AcDbEntity
  8
치수문자_일반주서
 62
     0
370
    -2
100
AcDbLine
 10
164.4624999999995
 20
12.70000000000002
 30
0.0
 11
179.3999999999995
 21
12.70000000000008
 31
0.0
  0
LINE
  5
116
330
111
100
AcDbEntity
  8
치수문자_일반주서
 62
     0
370
    -2
100
AcDbLine
 10
179.3999999999995
 20
12.70000000000008
 30
0.0
 11
179.3999999999994
 21
49.90329691240977
 31
0.0
  0
LINE
  5
117
330
111
100
AcDbEntity
  8
치수문자_일반주서
 62
     0
370
    -2
100
AcDbLine
 10
179.3999999999996
 20
-12.69999999999992
 30
0.0
 11
179.3999999999995
 21
12.70000000000008
 31
0.0
  0
LINE
  5
118
330
111
100
AcDbEntity
  8
치수문자_일반주서
 62
     0
370
    -2
100
AcDbLine
 10
179.3999999999996
 20
-16.69999999999992
 30
0.0
 11
179.3999999999996
 21
-20.69999999999992
 31
0.0
  0
LINE
  5
119
330
111
100
AcDbEntity
  8
치수문자_일반주서
 62
     0
370
    -2
100
AcDbLine
 10
179.3999999999995
 20
16.70000000000008
 30
0.0
 11
179.3999999999995
 21
20.70000000000008
 31
0.0
  0
SOLID
  5
11A
330
111
100
AcDbEntity
  8
치수문자_일반주서
 62
     0
100
AcDbTrace
 10
180.0666666666663
 20
-16.69999999999991
 30
0.0
 11
178.733333333333
 21
-16.69999999999992
 31
0.0
 12
179.3999999999996
 22
-12.69999999999992
 32
0.0
 13
179.3999999999996
 23
-12.69999999999992
 33
0.0
  0
SOLID
  5
11B
330
111
100
AcDbEntity
  8
치수문자_일반주서
 62
     0
100
AcDbTrace
 10
178.7333333333329
 20
16.70000000000007
 30
0.0
 11
180.0666666666662
 21
16.70000000000008
 31
0.0
 12
179.3999999999995
 22
12.70000000000008
 32
0.0
 13
179.3999999999995
 23
12.70000000000008
 33
0.0
  0
MTEXT
  5
11C
330
111
100
AcDbEntity
  8
치수문자_일반주서
 62
     0
100
AcDbMText
 10
174.5249999999994
 20
38.52829691240976
 30
0.0
 40
4.0
 41
0.0
 71
     2
 72
     1
  1
\A1;%%c25.4 [1]
  7
SLDTEXTSTYLE0
 11
-3.356894814614647E-15
 21
1.0
 31
0.0
 73
     1
 44
1.0
  0
POINT
  5
11D
330
111
100
AcDbEntity
  8
Defpoints
 62
     0
100
AcDbPoint
 10
164.3999999999995
 20
-12.69999999999998
 30
0.0
  0
POINT
  5
1AE
330
111
100
AcDbEntity
  8
Defpoints
 62
     0
100
AcDbPoint
 10
164.3999999999995
 20
12.70000000000002
 30
0.0
  0
POINT
  5
1AF
330
111
100
AcDbEntity
  8
Defpoints
 62
     0
100
AcDbPoint
 10
179.3999999999995
 20
12.70000000000008
 30
0.0
  0
ENDBLK
  5
113
330
111
100
AcDbEntity
  8
0
100
AcDbBlockEnd
  0
BLOCK
  5
12B
330
12A
100
AcDbEntity
  8
0
100
AcDbBlockBegin
  2
SW_DOWELSYMBOL_0
 70
     0
 10
0.0
 20
0.0
 30
0.0
  3
SW_DOWELSYMBOL_0
  1
SW_DOWELSYMBOL_0
  0
CIRCLE
  5
12D
330
12A
100
AcDbEntity
  8
해칭선
 62
     0
100
AcDbCircle
 10
0.0
 20
0.0
 30
0.0
 40
3.000000000000001
  0
HATCH
  5
12E
330
12A
100
AcDbEntity
  8
0
  6
Continuous
 62
     0
370
     0
100
AcDbHatch
 10
0.0
 20
0.0
 30
0.0
210
0.0
220
0.0
230
1.0
  2
SOLID
 70
     1
 71
     0
 91
        1
 92
        0
 93
        3
 72
     2
 10
0.0
 20
0.0
 40
3.000000000000001
 50
0.0
 51
90.0
 73
     1
 72
     1
 10
0.0
 20
3.000000000000001
 11
0.0
 21
0.0
 72
     1
 10
0.0
 20
0.0
 11
3.000000000000001
 21
0.0
 97
        0
 75
     0
 76
     1
 98
        1
 10
0.0
 20
0.0
  0
HATCH
  5
12F
330
12A
100
AcDbEntity
  8
0
  6
Continuous
 62
     0
370
     0
100
AcDbHatch
 10
0.0
 20
0.0
 30
0.0
210
0.0
220
0.0
230
1.0
  2
SOLID
 70
     1
 71
     0
 91
        1
 92
        0
 93
        3
 72
     2
 10
0.0
 20
0.0
 40
3.000000000000001
 50
180.0
 51
270.0000000000007
 73
     1
 72
     1
 10
0.0
 20
-3.000000000000001
 11
0.0
 21
0.0
 72
     1
 10
0.0
 20
0.0
 11
-3.000000000000001
 21
0.0
 97
        0
 75
     0
 76
     1
 98
        1
 10
0.0
 20
0.0
  0
ENDBLK
  5
12C
330
12A
100
AcDbEntity
  8
0
100
AcDbBlockEnd
  0
BLOCK
  5
18D
330
18C
100
AcDbEntity
  8
0
100
AcDbBlockBegin
  2
*D7
 70
     1
 10
0.0
 20
0.0
 30
0.0
  3
*D7
  1
*D7
  0
LINE
  5
18F
330
18C
100
AcDbEntity
  8
치수문자_일반주서
 62
     0
370
    -2
100
AcDbLine
 10
101.6
 20
19.11042687965192
 30
0.0
 11
101.6
 21
34.06166322180555
 31
0.0
  0
LINE
  5
190
330
18C
100
AcDbEntity
  8
치수문자_일반주서
 62
     0
370
    -2
100
AcDbLine
 10
0.0
 20
19.10320055888108
 30
0.0
 11
0.0
 21
34.06166322180555
 31
0.0
  0
LINE
  5
191
330
18C
100
AcDbEntity
  8
치수문자_일반주서
 62
     0
370
    -2
100
AcDbLine
 10
97.6
 20
34.06166322180555
 30
0.0
 11
4.0
 21
34.06166322180555
 31
0.0
  0
SOLID
  5
192
330
18C
100
AcDbEntity
  8
치수문자_일반주서
 62
     0
100
AcDbTrace
 10
97.6
 20
33.39499655513889
 30
0.0
 11
97.6
 21
34.72832988847222
 31
0.0
 12
101.6
 22
34.06166322180555
 32
0.0
 13
101.6
 23
34.06166322180555
 33
0.0
  0
SOLID
  5
193
330
18C
100
AcDbEntity
  8
치수문자_일반주서
 62
     0
100
AcDbTrace
 10
4.0
 20
34.72832988847222
 30
0.0
 11
4.0
 21
33.39499655513889
 31
0.0
 12
0.0
 22
34.06166322180555
 32
0.0
 13
0.0
 23
34.06166322180555
 33
0.0
  0
MTEXT
  5
194
330
18C
100
AcDbEntity
  8
치수문자_일반주서
 62
     0
100
AcDbMText
 10
50.79999999999999
 20
38.93666322180555
 30
0.0
 40
4.0
 41
0.0
 71
     2
 72
     1
  1
\A1;101.6 [4]
  7
SLDTEXTSTYLE0
 73
     1
 44
1.0
  0
POINT
  5
195
330
18C
100
AcDbEntity
  8
Defpoints
 62
     0
100
AcDbPoint
 10
101.6
 20
19.04792687965192
 30
0.0
  0
POINT
  5
196
330
18C
100
AcDbEntity
  8
Defpoints
 62
     0
100
AcDbPoint
 10
0.0
 20
19.04070055888108
 30
0.0
  0
POINT
  5
197
330
18C
100
AcDbEntity
  8
Defpoints
 62
     0
100
AcDbPoint
 10
0.0
 20
34.06166322180555
 30
0.0
  0
ENDBLK
  5
18E
330
18C
100
AcDbEntity
  8
0
100
AcDbBlockEnd
  0
BLOCK
  5
19C
330
19B
100
AcDbEntity
  8
0
100
AcDbBlockBegin
  2
*D8
 70
     1
 10
0.0
 20
0.0
 30
0.0
  3
*D8
  1
*D8
  0
LINE
  5
19E
330
19B
100
AcDbEntity
  8
치수문자_일반주서
 62
     0
370
    -2
100
AcDbLine
 10
341.6070929627117
 20
-40.59707980774809
 30
0.0
 11
341.6070929627117
 21
-25.64584346559446
 31
0.0
  0
LINE
  5
19F
330
19B
100
AcDbEntity
  8
치수문자_일반주서
 62
     0
370
    -2
100
AcDbLine
 10
240.0070929627117
 20
-40.60430612851893
 30
0.0
 11
240.0070929627117
 21
-25.64584346559446
 31
0.0
  0
LINE
  5
1A0
330
19B
100
AcDbEntity
  8
치수문자_일반주서
 62
     0
370
    -2
100
AcDbLine
 10
337.6070929627117
 20
-25.64584346559446
 30
0.0
 11
244.0070929627117
 21
-25.64584346559446
 31
0.0
  0
SOLID
  5
1A1
330
19B
100
AcDbEntity
  8
치수문자_일반주서
 62
     0
100
AcDbTrace
 10
337.6070929627117
 20
-26.31251013226113
 30
0.0
 11
337.6070929627117
 21
-24.97917679892779
 31
0.0
 12
341.6070929627117
 22
-25.64584346559446
 32
0.0
 13
341.6070929627117
 23
-25.64584346559446
 33
0.0
  0
SOLID
  5
1A2
330
19B
100
AcDbEntity
  8
치수문자_일반주서
 62
     0
100
AcDbTrace
 10
244.0070929627117
 20
-24.97917679892779
 30
0.0
 11
244.0070929627117
 21
-26.31251013226113
 31
0.0
 12
240.0070929627117
 22
-25.64584346559446
 32
0.0
 13
240.0070929627117
 23
-25.64584346559446
 33
0.0
  0
MTEXT
  5
1A3
330
19B
100
AcDbEntity
  8
치수문자_일반주서
 62
     0
100
AcDbMText
 10
290.8070929627117
 20
-20.77084346559446
 30
0.0
 40
4.0
 41
0.0
 71
     2
 72
     1
  1
\A1;101.6 [4]
  7
SLDTEXTSTYLE0
 73
     1
 44
1.0
  0
POINT
  5
1A4
330
19B
100
AcDbEntity
  8
Defpoints
 62
     0
100
AcDbPoint
 10
341.6070929627117
 20
-40.65957980774809
 30
0.0
  0
POINT
  5
1A5
330
19B
100
AcDbEntity
  8
Defpoints
 62
     0
100
AcDbPoint
 10
240.0070929627117
 20
-40.66680612851893
 30
0.0
  0
POINT
  5
1A6
330
19B
100
AcDbEntity
  8
Defpoints
 62
     0
100
AcDbPoint
 10
240.0070929627117
 20
-25.64584346559446
 30
0.0
  0
ENDBLK
  5
19D
330
19B
100
AcDbEntity
  8
0
100
AcDbBlockEnd
  0
ENDSEC
  0
SECTION
  2
ENTITIES
  0
LINE
  5
96
330
1F
100
AcDbEntity
  8
0
  6
Continuous
 62
     1
370
    15
100
AcDbLine
 10
146.0403926712245
 20
-3.734731445865056
 30
0.0
 11
146.1803343022357
 21
-3.810122814115157
 31
0.0
1001
PE_URL
1000

  0
LINE
  5
97
330
1F
100
AcDbEntity
  8
0
  6
Continuous
 62
     1
370
    15
100
AcDbLine
 10
28.077093800159
 20
-12.70000000000001
 30
0.0
 11
35.81987518618646
 21
-12.70000000000001
 31
0.0
1001
PE_URL
1000

  0
LINE
  5
98
330
1F
100
AcDbEntity
  8
0
  6
Continuous
 62
     1
370
    15
100
AcDbLine
 10
104.9258958570671
 20
12.70000000000001
 30
0.0
 11
97.17945307775497
 21
12.70000000000001
 31
0.0
1001
PE_URL
1000

  0
LINE
  5
99
330
1F
100
AcDbEntity
  8
0
  6
Continuous
 62
     1
370
    15
100
AcDbLine
 10
62.62805608875854
 20
-12.70000000000001
 30
0.0
 11
70.37262724119051
 21
-12.70000000000001
 31
0.0
1001
PE_URL
1000

  0
LINE
  5
9A
330
1F
100
AcDbEntity
  8
0
  6
Continuous
 62
     1
370
    15
100
AcDbLine
 10
139.476445996963
 20
12.70000000000001
 30
0.0
 11
131.7338088997079
 21
12.70000000000001
 31
0.0
1001
PE_URL
1000

  0
LINE
  5
9B
330
1F
100
AcDbEntity
  8
0
  6
Continuous
 62
     1
370
    15
100
AcDbLine
 10
97.17945307775506
 20
-12.70000000000001
 30
0.0
 11
104.925895857067
 21
-12.70000000000001
 31
0.0
1001
PE_URL
1000

  0
LINE
  5
9C
330
1F
100
AcDbEntity
  8
0
  6
Continuous
 62
     1
370
    15
100
AcDbLine
 10
35.81987518618632
 20
12.70000000000001
 30
0.0
 11
28.07709380015888
 21
12.70000000000001
 31
0.0
1001
PE_URL
1000

  0
LINE
  5
9D
330
1F
100
AcDbEntity
  8
0
  6
Continuous
 62
     1
370
    15
100
AcDbLine
 10
131.7338088997078
 20
-12.70000000000001
 30
0.0
 11
139.476445996963
 21
-12.70000000000001
 31
0.0
1001
PE_URL
1000

  0
LINE
  5
9E
330
1F
100
AcDbEntity
  8
0
  6
Continuous
 62
     1
370
    15
100
AcDbLine
 10
70.37262724119044
 20
12.70000000000001
 30
0.0
 11
62.62805608875846
 21
12.70000000000001
 31
0.0
1001
PE_URL
1000

  0
LINE
  5
9F
330
1F
100
AcDbEntity
  8
외형선
  6
Continuous
370
    15
100
AcDbLine
 10
-48.96000000000049
 20
-12.7
 30
0.0
 11
11.50005737522686
 21
-12.7
 31
0.0
  0
LINE
  5
A0
330
1F
100
AcDbEntity
  8
외형선
  6
Continuous
370
    15
100
AcDbLine
 10
11.50005737522686
 20
12.7
 30
0.0
 11
-14.06992500000048
 21
12.7
 31
0.0
  0
LINE
  5
A2
330
1F
100
AcDbEntity
  8
외형선
  6
Continuous
370
    15
100
AcDbLine
 10
-51.50000000000049
 20
-10.16000000000001
 30
0.0
 11
-48.96000000000049
 21
-12.7
 31
0.0
  0
SPLINE
  5
A3
330
1F
100
AcDbEntity
  8
0
  6
Continuous
 62
     1
370
    15
100
AcDbSpline
210
0.0
220
0.0
230
1.0
 70
     8
 71
     3
 72
    28
 73
    24
 74
     0
 42
0.000000001
 43
0.00000001
 40
0.0
 40
0.0
 40
0.0
 40
0.0
 40
0.0176390842655686
 40
0.0679196200923374
 40
0.1182094532299795
 40
0.1685043753920815
 40
0.2203953961119964
 40
0.2722794045288092
 40
0.3241480518862329
 40
0.3760172026142969
 40
0.4279015007918647
 40
0.4788655496920172
 40
0.5298291375475692
 40
0.5807865279444785
 40
0.631732004522908
 40
0.6835990182052915
 40
0.73548191528339
 40
0.7873726269455044
 40
0.8392627724492958
 40
0.8911439734156745
 40
0.9420856977185845
 40
0.9930314468970316
 40
1.0
 40
1.0
 40
1.0
 40
1.0
 10
35.81987518618632
 20
12.64859174377012
 30
0.0
 10
36.30502960353972
 20
12.66245552936015
 30
0.0
 10
38.17312565754435
 20
12.7158382921011
 30
0.0
 10
41.42452130539316
 20
12.34381714670724
 30
0.0
 10
45.57430392401224
 20
11.54462481471527
 30
0.0
 10
49.7684092377126
 20
10.29228556524632
 30
0.0
 10
54.00660725843157
 20
8.655827852937358
 30
0.0
 10
58.28794588560899
 20
6.673442348279037
 30
0.0
 10
62.56834011797427
 20
4.439454401159446
 30
0.0
 10
66.84874352746533
 20
2.037667353334652
 30
0.0
 10
71.10465139648237
 20
-0.426010286787515
 30
0.0
 10
75.33559681581167
 20
-2.85883902886352
 30
0.0
 10
79.54107059541738
 20
-5.172871119800478
 30
0.0
 10
83.74593946250403
 20
-7.298348771148461
 30
0.0
 10
87.97539502861999
 20
-9.169280031889688
 30
0.0
 10
92.23026952834549
 20
-10.71095768660814
 30
0.0
 10
96.51151945006201
 20
-11.85699510100555
 30
0.0
 10
100.7935077643905
 20
-12.55613346300878
 30
0.0
 10
105.0754373511087
 20
-12.7784875139491
 30
0.0
 10
109.3311531650412
 20
-12.52965656500892
 30
0.0
 10
113.5604667648276
 20
-11.7831526066907
 30
0.0
 10
116.554545902812
 20
-11.04376779156716
 30
0.0
 10
118.1475782839947
 20
-10.45917838161263
 30
0.0
 10
118.3392603090854
 20
-10.38883751266964
 30
0.0
1001
PE_URL
1000

  0
SPLINE
  5
A4
330
1F
100
AcDbEntity
  8
0
  6
Continuous
 62
     1
370
    15
100
AcDbSpline
210
0.0
220
0.0
230
1.0
 70
     8
 71
     3
 72
    28
 73
    24
 74
     0
 42
0.000000001
 43
0.00000001
 40
0.0
 40
0.0
 40
0.0
 40
0.0
 40
0.0164013393094089
 40
0.0673704346243565
 40
0.1192658261895453
 40
0.1711523816523044
 40
0.2230230139238455
 40
0.2749013555678801
 40
0.3267930306897698
 40
0.377762591799521
 40
0.4287302731647911
 40
0.4796903410312549
 40
0.5306373656361872
 40
0.5825135110958631
 40
0.6344040070475999
 40
0.6863004944432558
 40
0.7381945892355386
 40
0.7900779173637127
 40
0.8410229402901727
 40
0.8919772282980389
 40
0.9429419155165489
 40
0.9939112778813458
 40
1.0
 40
1.0
 40
1.0
 40
1.0
 10
131.7338088997078
 20
-12.64941089457617
 30
0.0
 10
131.2827072132625
 20
-12.66356837490508
 30
0.0
 10
129.4297538597419
 20
-12.72172189425807
 30
0.0
 10
126.1493849334232
 20
-12.34846118756573
 30
0.0
 10
121.8929184119161
 20
-11.52840569878962
 30
0.0
 10
117.6117919522618
 20
-10.23457791462643
 30
0.0
 10
113.3315494679568
 20
-8.563028674614534
 30
0.0
 10
109.0509443922195
 20
-6.565920131054631
 30
0.0
 10
104.794832617245
 20
-4.334939464525092
 30
0.0
 10
100.5638325792067
 20
-1.957229059439653
 30
0.0
 10
96.35846154126004
 20
0.4773987365026848
 30
0.0
 10
92.15381113533442
 20
2.894467531538171
 30
0.0
 10
87.92452105838511
 20
5.220355323750776
 30
0.0
 10
83.6694501731536
 20
7.366499759305333
 30
0.0
 10
79.38798235940034
 20
9.247175314614873
 30
0.0
 10
75.1059322386796
 20
10.77884639180778
 30
0.0
 10
70.82412494343812
 20
11.90326480895871
 30
0.0
 10
66.56862941963384
 20
12.57492101874363
 30
0.0
 10
62.33942204958052
 20
12.77480875921015
 30
0.0
 10
58.13518144642575
 20
12.51800886621053
 30
0.0
 10
53.93010948235944
 20
11.76832122658508
 30
0.0
 10
50.9589697188748
 20
11.03311827241085
 30
0.0
 10
49.38960866177632
 20
10.45574690636409
 30
0.0
 10
49.22214066022993
 20
10.39413506224152
 30
0.0
1001
PE_URL
1000

  0
LINE
  5
A5
330
1F
100
AcDbEntity
  8
0
  6
Continuous
 62
     1
370
    15
100
AcDbLine
 10
164.3999999999995
 20
-11.50215313554798
 30
0.0
 11
164.3999999999995
 21
1.088153135548122
 31
0.0
1001
PE_URL
1000

  0
SPLINE
  5
A6
330
1F
100
AcDbEntity
  8
0
  6
Continuous
 62
     1
370
    15
100
AcDbSpline
210
0.0
220
0.0
230
1.0
 70
     8
 71
     3
 72
    16
 73
    12
 74
     0
 42
0.000000001
 43
0.00000001
 40
0.0
 40
0.0
 40
0.0
 40
0.0
 40
0.113503482670565
 40
0.2270278565288558
 40
0.3405590060911182
 40
0.4540827923300405
 40
0.5675851018029517
 40
0.6790382735430408
 40
0.7905070757275049
 40
0.9019964894684994
 40
0.9999999999999999
 40
0.9999999999999999
 40
0.9999999999999999
 40
0.9999999999999999
 10
11.99999999999956
 20
-5.954448794446045
 30
0.0
 10
13.4082585151938
 20
-6.651445705426431
 30
0.0
 10
16.22503474637785
 20
-8.045567815021814
 30
0.0
 10
20.45063736870628
 20
-9.781937617635444
 30
0.0
 10
24.67652602331017
 20
-11.17426653873391
 30
0.0
 10
28.90208228754396
 20
-12.15153161231994
 30
0.0
 10
33.10172796955291
 20
-12.67913900566421
 30
0.0
 10
37.27549791000004
 20
-12.74911172801386
 30
0.0
 10
41.42452581255588
 20
-12.35690507135464
 30
0.0
 10
45.40682710779753
 20
-11.59381684713179
 30
0.0
 10
48.00614567753979
 20
-10.77649080082069
 30
0.0
 10
49.22214066023007
 20
-10.39413506224153
 30
0.0
1001
PE_URL
1000

  0
SPLINE
  5
A7
330
1F
100
AcDbEntity
  8
0
  6
Continuous
 62
     1
370
    15
100
AcDbSpline
210
0.0
220
0.0
230
1.0
 70
     8
 71
     3
 72
    22
 73
    18
 74
     0
 42
0.000000001
 43
0.00000001
 40
0.0
 40
0.0
 40
0.0
 40
0.0
 40
0.0025181077555693
 40
0.074502457671559
 40
0.1451832985009938
 40
0.2158697237818993
 40
0.2865725327053103
 40
0.3572837931628583
 40
0.4292812722714453
 40
0.5012677570136809
 40
0.5732321515434965
 40
0.645202630782827
 40
0.7171928680055428
 40
0.7879050361139508
 40
0.8586155804084665
 40
0.9293165437508192
 40
1.0
 40
1.0
 40
1.0
 40
1.0
 10
104.9258958570671
 20
12.69190328023587
 30
0.0
 10
104.9758189493348
 20
12.69458942576088
 30
0.0
 10
106.4528776892872
 20
12.77406356376579
 30
0.0
 10
109.3311507836879
 20
12.48938539199686
 30
0.0
 10
113.5604576393636
 20
11.81454261778097
 30
0.0
 10
117.7645000229891
 20
10.65924048253174
 30
0.0
 10
121.9693884151358
 20
9.130228227514596
 30
0.0
 10
126.2003256041964
 20
7.253340640890735
 30
0.0
 10
130.4568472417703
 20
5.095913914963289
 30
0.0
 10
134.7380808841458
 20
2.73304663736118
 30
0.0
 10
139.0183879952167
 20
0.2667255771456803
 30
0.0
 10
143.2988916702778
 20
-2.209663089104115
 30
0.0
 10
147.5549057250271
 20
-4.587643514287516
 30
0.0
 10
151.7858828301558
 20
-6.783556878117668
 30
0.0
 10
155.9913104812586
 20
-8.711058459713135
 30
0.0
 10
160.196067077652
 20
-10.35121827216459
 30
0.0
 10
162.9988047099857
 20
-11.11853985258795
 30
0.0
 10
164.3999999999996
 20
-11.50215313554798
 30
0.0
1001
PE_URL
1000

  0
SPLINE
  5
A8
330
1F
100
AcDbEntity
  8
외형선
  6
Continuous
370
    15
100
AcDbSpline
210
0.0
220
0.0
230
1.0
 70
    24
 71
     3
 72
    30
 73
    26
 74
     0
 42
0.000000001
 43
0.00000001
 40
0.0
 40
0.0
 40
0.0
 40
0.0
 40
0.1249999999999999
 40
0.1249999999999999
 40
0.2499999999999999
 40
0.2499999999999999
 40
0.3749999999999999
 40
0.3749999999999999
 40
0.4999999999999999
 40
0.4999999999999999
 40
0.5624999999999998
 40
0.5624999999999998
 40
0.6249999999999998
 40
0.6249999999999998
 40
0.6874999999999998
 40
0.6874999999999998
 40
0.7499999999999998
 40
0.7499999999999998
 40
0.8124999999999998
 40
0.8124999999999998
 40
0.8749999999999999
 40
0.8749999999999999
 40
0.9375
 40
0.9375
 40
1.0
 40
1.0
 40
1.0
 40
1.0
 10
11.99999999999953
 20
8.476599480316764
 30
0.0
 10
11.99999999999954
 20
8.223067073456752
 30
0.0
 10
11.99999999999956
 20
7.92854216081671
 30
0.0
 10
11.99999999999954
 20
7.322015033509092
 30
0.0
 10
11.99999999999956
 20
6.94855600788122
 30
0.0
 10
11.99999999999954
 20
6.014212675976682
 30
0.0
 10
11.99999999999953
 20
5.451965570741855
 30
0.0
 10
11.99999999999954
 20
4.11410238597153
 30
0.0
 10
11.99999999999953
 20
3.336482294345024
 30
0.0
 10
11.99999999999954
 20
2.04692390668413
 30
0.0
 10
11.99999999999956
 20
1.597380174930658
 30
0.0
 10
11.99999999999954
 20
0.676566684936355
 30
0.0
 10
11.99999999999953
 20
0.2053608229727522
 30
0.0
 10
11.99999999999954
 20
-0.7341462218589239
 30
0.0
 10
11.99999999999954
 20
-1.202304404700806
 30
0.0
 10
11.99999999999954
 20
-2.107210706563051
 30
0.0
 10
11.99999999999953
 20
-2.543773623176272
 30
0.0
 10
11.99999999999956
 20
-3.358219060265613
 30
0.0
 10
11.99999999999956
 20
-3.735943575245938
 30
0.0
 10
11.99999999999956
 20
-4.412107527328765
 30
0.0
 10
11.99999999999953
 20
-4.710477530581078
 30
0.0
 10
11.99999999999953
 20
-5.217610122609958
 30
0.0
 10
11.99999999999954
 20
-5.426406777350479
 30
0.0
 10
11.99999999999954
 20
-5.754887929416079
 30
0.0
 10
11.99999999999954
 20
-5.874676246413965
 30
0.0
 10
11.99999999999953
 20
-5.954448794446045
 30
0.0
  0
SPLINE
  5
A9
330
1F
100
AcDbEntity
  8
0
  6
Continuous
 62
     1
370
    15
100
AcDbSpline
210
0.0
220
0.0
230
1.0
 70
     8
 71
     3
 72
    18
 73
    14
 74
     0
 42
0.000000001
 43
0.00000001
 40
0.0
 40
0.0
 40
0.0
 40
0.0
 40
0.0929257638878417
 40
0.1858788601596243
 40
0.278844323301387
 40
0.3718071362057236
 40
0.464752292827577
 40
0.5560149510969822
 40
0.6472900140963745
 40
0.7385849694761294
 40
0.8298895689620325
 40
0.9228535094193802
 40
1.0
 40
1.0
 40
1.0
 40
1.0
 10
164.3999999999995
 20
1.088153135548124
 30
0.0
 10
162.9733397266668
 20
1.905015234139293
 30
0.0
 10
160.1195995544345
 20
3.538979696104736
 30
0.0
 10
155.8382344549858
 20
5.844917906128504
 30
0.0
 10
151.5562114427877
 20
7.933268024398645
 30
0.0
 10
147.2743387694911
 20
9.721237611735175
 30
0.0
 10
143.0187322317473
 20
11.13377967759309
 30
0.0
 10
138.7894892576506
 20
12.12615952238565
 30
0.0
 10
134.5853497116829
 20
12.66996522751255
 30
0.0
 10
130.3803601050452
 20
12.75520194327325
 30
0.0
 10
126.1493961862144
 20
12.3624723865089
 30
0.0
 10
122.1355190354309
 20
11.59543212239801
 30
0.0
 10
119.5237288212568
 20
10.76530640617801
 30
0.0
 10
118.3392603090856
 20
10.38883751266964
 30
0.0
1001
PE_URL
1000

  0
SPLINE
  5
AA
330
1F
100
AcDbEntity
  8
0
  6
Continuous
 62
     1
370
    15
100
AcDbSpline
210
0.0
220
0.0
230
1.0
 70
     8
 71
     3
 72
    20
 73
    16
 74
     0
 42
0.000000001
 43
0.00000001
 40
0.0
 40
0.0
 40
0.0
 40
0.0
 40
0.0056973666278168
 40
0.0887401503373346
 40
0.1717998821670988
 40
0.2548672333195359
 40
0.3383340198131725
 40
0.4217885590662406
 40
0.5052207419400158
 40
0.5886572954373334
 40
0.672114671253042
 40
0.7540912748290067
 40
0.8360689512205359
 40
0.9180408159847151
 40
1.0
 40
1.0
 40
1.0
 40
1.0
 10
62.62805608875856
 20
-12.68521112476841
 30
0.0
 10
62.53191327676232
 20
-12.69008194665609
 30
0.0
 10
61.0344271313657
 20
-12.76594813095054
 30
0.0
 10
58.13517914941319
 20
-12.48016130831046
 30
0.0
 10
53.93010822901596
 20
-11.79990569608841
 30
0.0
 10
49.71780493812521
 20
-10.6373090802033
 30
0.0
 10
45.49883072527672
 20
-9.0966805990699
 30
0.0
 10
41.27380446083814
 20
-7.215493135459753
 30
0.0
 10
37.04961938871062
 20
-5.069708714432727
 30
0.0
 10
32.82531461724439
 20
-2.737173815186845
 30
0.0
 10
28.6252658675631
 20
-0.3190815746861286
 30
0.0
 10
24.44988062114348
 20
2.097235131124798
 30
0.0
 10
20.29952504609747
 20
4.418824879376166
 30
0.0
 10
16.1495169347298
 20
6.6051387458636
 30
0.0
 10
13.38310098031373
 20
7.85281140639005
 30
0.0
 10
11.99999999999956
 20
8.476599480316755
 30
0.0
1001
PE_URL
1000

  0
LINE
  5
AB
330
1F
100
AcDbEntity
  8
0
  6
Continuous
 62
     1
370
    15
100
AcDbLine
 10
164.3999999999995
 20
5.342368890032051
 30
0.0
 11
164.3999999999995
 21
12.70000000000002
 31
0.0
1001
PE_URL
1000

  0
SPLINE
  5
AC
330
1F
100
AcDbEntity
  8
0
  6
Continuous
 62
     1
370
    15
100
AcDbSpline
210
0.0
220
0.0
230
1.0
 70
     8
 71
     3
 72
    25
 73
    21
 74
     0
 42
0.000000001
 43
0.00000001
 40
0.0
 40
0.0
 40
0.0
 40
0.0
 40
0.0588561694271604
 40
0.1177231717843364
 40
0.1765936876194387
 40
0.2354603852720866
 40
0.2943159463485739
 40
0.3521089462177326
 40
0.4099100511076423
 40
0.4677218439274266
 40
0.5255394869481239
 40
0.5851919604581507
 40
0.6448363728196542
 40
0.704463126534718
 40
0.7640904589106631
 40
0.8237352043730678
 40
0.8823220568728358
 40
0.9409083793685599
 40
0.9994875774382775
 40
1.0
 40
1.0
 40
1.0
 40
1.0
 10
11.99999999999951
 20
11.21759954510408
 30
0.0
 10
13.40825851483389
 20
10.79641866413562
 30
0.0
 10
16.22503474529813
 20
9.953979380622785
 30
0.0
 10
20.4506373730262
 20
8.213793351464826
 30
0.0
 10
24.67652600711014
 20
6.201069330255805
 30
0.0
 10
28.90208234801498
 20
3.952386532770276
 30
0.0
 10
33.10172774563551
 20
1.574790305686976
 30
0.0
 10
37.27549872894874
 20
-0.8455591355166858
 30
0.0
 10
41.42452275362252
 20
-3.22094222148548
 30
0.0
 10
45.57430353594702
 20
-5.482148324712982
 30
0.0
 10
49.76840934667516
 20
-7.570780240370387
 30
0.0
 10
54.00660722383078
 20
-9.403327761280622
 30
0.0
 10
58.28794591356908
 20
-10.89972315686665
 30
0.0
 10
62.56834004074628
 20
-11.98446757737159
 30
0.0
 10
66.84874380846509
 20
-12.61748815502647
 30
0.0
 10
71.10465035723513
 20
-12.76987300672069
 30
0.0
 10
75.33560061728151
 20
-12.46106318317004
 30
0.0
 10
79.54105640069231
 20
-11.65602159105394
 30
0.0
 10
82.35688376372208
 20
-10.94299031523426
 30
0.0
 10
83.77074453370292
 20
-10.41514909782732
 30
0.0
 10
83.78300505642902
 20
-10.41057183719517
 30
0.0
1001
PE_URL
1000

  0
SPLINE
  5
AD
330
1F
100
AcDbEntity
  8
0
  6
Continuous
 62
     1
370
    15
100
AcDbSpline
210
0.0
220
0.0
230
1.0
 70
     8
 71
     3
 72
    13
 73
     9
 74
     0
 42
0.000000001
 43
0.00000001
 40
0.0
 40
0.0
 40
0.0
 40
0.0
 40
0.1533578715165326
 40
0.3251459763910142
 40
0.4938842639636539
 40
0.6626186766787854
 40
0.8313302266603226
 40
1.0
 40
1.0
 40
1.0
 40
1.0
 10
139.476445996963
 20
12.67706415788117
 30
0.0
 10
140.7504653343513
 20
12.64939899367799
 30
0.0
 10
143.4516130309109
 20
12.59074392277808
 30
0.0
 10
147.5549081440039
 20
11.91953620645735
 30
0.0
 10
151.7858821871405
 20
10.83161760218033
 30
0.0
 10
155.9913106527031
 20
9.340352606767338
 30
0.0
 10
160.1960670348057
 20
7.526130047513191
 30
0.0
 10
162.9988046957048
 20
6.098171208014718
 30
0.0
 10
164.3999999999996
 20
5.384280197612571
 30
0.0
1001
PE_URL
1000

  0
SPLINE
  5
AE
330
1F
100
AcDbEntity
  8
0
  6
Continuous
 62
     1
370
    15
100
AcDbSpline
210
0.0
220
0.0
230
1.0
 70
     8
 71
     3
 72
    10
 73
     6
 74
     0
 42
0.000000001
 43
0.00000001
 40
0.0
 40
0.0
 40
0.0
 40
0.0
 40
0.3719707200142376
 40
0.744050848292759
 40
1.0
 40
1.0
 40
1.0
 40
1.0
 10
164.3999999999995
 20
12.70000000000002
 30
0.0
 10
162.9733396059436
 20
12.53362206576694
 30
0.0
 10
160.1195991922296
 20
12.2942371723526
 30
0.0
 10
156.2838724743593
 20
11.4871428379098
 30
0.0
 10
153.8748773728222
 20
10.69663698493374
 30
0.0
 10
152.8931074580193
 20
10.37447158765573
 30
0.0
1001
PE_URL
1000

  0
SPLINE
  5
AF
330
1F
100
AcDbEntity
  8
0
  6
Continuous
 62
     1
370
    15
100
AcDbSpline
210
0.0
220
0.0
230
1.0
 70
     8
 71
     3
 72
    28
 73
    24
 74
     0
 42
0.000000001
 43
0.00000001
 40
0.0
 40
0.0
 40
0.0
 40
0.0
 40
0.0099517709086565
 40
0.0609099501797238
 40
0.1118550866726467
 40
0.1637293095868156
 40
0.215617882461212
 40
0.2675124465574827
 40
0.3194046181390509
 40
0.3712860234555262
 40
0.4222291583441596
 40
0.4731815579708327
 40
0.5241443564227515
 40
0.5751118298476948
 40
0.6263243840396918
 40
0.6775294237160634
 40
0.7287207462321826
 40
0.7799147504233062
 40
0.8311215305239118
 40
0.8814197560753415
 40
0.9317186398721348
 40
0.9820139578400146
 40
0.9999999999999999
 40
0.9999999999999999
 40
0.9999999999999999
 40
0.9999999999999999
 10
97.17945307775506
 20
-12.66359537777158
 30
0.0
 10
96.90572464946251
 20
-12.67496428577949
 30
0.0
 10
95.23036605418284
 20
-12.74454784298911
 30
0.0
 10
92.15381466119277
 20
-12.42001241881175
 30
0.0
 10
87.92452009449786
 20
-11.67102241791942
 30
0.0
 10
83.6694504336662
 20
-10.44197845051561
 30
0.0
 10
79.38798228886826
 20
-8.822580509490386
 30
0.0
 10
75.1059322602315
 20
-6.866946846774285
 30
0.0
 10
70.82412492776592
 20
-4.652856309874442
 30
0.0
 10
66.56862946042408
 20
-2.277174068701135
 30
0.0
 10
62.3394219048599
 20
0.1682077474117334
 30
0.0
 10
58.13518198580256
 20
2.592422154404478
 30
0.0
 10
53.93010746909137
 20
4.922288803985197
 30
0.0
 10
49.71780514245083
 20
7.076392345426422
 30
0.0
 10
45.49883067190779
 20
8.974806972482469
 30
0.0
 10
41.27380446960446
 20
10.54610226984142
 30
0.0
 10
37.04961940698904
 20
11.72955656923945
 30
0.0
 10
32.82531453534979
 20
12.48200893545812
 30
0.0
 10
28.62526617463185
 20
12.77183969288297
 30
0.0
 10
24.44987949681985
 20
12.60648954793859
 30
0.0
 10
20.29952924482412
 20
11.97042000079469
 30
0.0
 10
17.03795940551049
 20
11.20830531108787
 30
0.0
 10
15.15995285146536
 20
10.54509299844936
 30
0.0
 10
14.66526579493147
 20
10.37039576638192
 30
0.0
1001
PE_URL
1000

  0
LINE
  5
B0
330
1F
100
AcDbEntity
  8
0
  6
Continuous
 62
     1
370
    15
100
AcDbLine
 10
11.9999999999995
 20
-11.21759954510408
 30
0.0
 11
14.66526579493144
 21
-10.37039576638193
 31
0.0
1001
PE_URL
1000

  0
SPLINE
  5
B1
330
1F
100
AcDbEntity
  8
0
  6
Continuous
 62
     1
370
    15
100
AcDbSpline
210
0.0
220
0.0
230
1.0
 70
     8
 71
     3
 72
    28
 73
    24
 74
     0
 42
0.000000001
 43
0.00000001
 40
0.0
 40
0.0
 40
0.0
 40
0.0
 40
0.0091773049297057
 40
0.0601410150899128
 40
0.1111042642085837
 40
0.1620613159098042
 40
0.2130064538717319
 40
0.2648731228124834
 40
0.3167556750433789
 40
0.3686460418063492
 40
0.4205358424147598
 40
0.4724166985452088
 40
0.5233580842565569
 40
0.5743034948166903
 40
0.6252607134628968
 40
0.6762240233334756
 40
0.7281143419895022
 40
0.7799967367406856
 40
0.8318632105433046
 40
0.8837340697427399
 40
0.9356191689970571
 40
0.9865831330334893
 40
1.0
 40
1.0
 40
1.0
 40
1.0
 10
70.37262724119046
 20
12.66503964845739
 30
0.0
 10
70.62507010150986
 20
12.6760889330752
 30
0.0
 10
72.27938691762306
 20
12.74849746673753
 30
0.0
 10
75.335603096254
 20
12.42702426807601
 30
0.0
 10
79.54106891261154
 20
11.69079677611257
 30
0.0
 10
83.74593991396992
 20
10.48619547467862
 30
0.0
 10
87.97539490158351
 20
8.901476431846703
 30
0.0
 10
92.23026957654709
 20
6.972339739605131
 30
0.0
 10
96.51151938535291
 20
4.769547475770438
 30
0.0
 10
100.7935079750413
 20
2.386255580547244
 30
0.0
 10
105.0754365732943
 20
-0.0870640809843794
 30
0.0
 10
109.3311560429123
 20
-2.542297910973012
 30
0.0
 10
113.5604562409086
 20
-4.888514596185162
 30
0.0
 10
117.7645003979518
 20
-7.042373053805578
 30
0.0
 10
121.9693883141185
 20
-8.939641522645962
 30
0.0
 10
126.2003256340066
 20
-10.52093413864122
 30
0.0
 10
130.4568472253592
 20
-11.7204654515505
 30
0.0
 10
134.7380809196967
 20
-12.48513881090839
 30
0.0
 10
139.0183878694563
 20
-12.77630727108618
 30
0.0
 10
143.2988921378818
 20
-12.59299018463266
 30
0.0
 10
147.5549039929653
 20
-11.90841005778204
 30
0.0
 10
150.7530932397173
 20
-11.14389477076903
 30
0.0
 10
152.5240440175474
 20
-10.50716508319893
 30
0.0
 10
152.8931074580193
 20
-10.37447158765574
 30
0.0
1001
PE_URL
1000

  0
LINE
  5
B2
330
1F
100
AcDbEntity
  8
외형선
  6
Continuous
370
    15
100
AcDbLine
 10
11.99999999999951
 20
-9.606518628798977
 30
0.0
 11
11.9999999999995
 21
-11.21759954510408
 31
0.0
  0
SPLINE
  5
B3
330
1F
100
AcDbEntity
  8
0
  6
Continuous
 62
     1
370
    15
100
AcDbSpline
210
0.0
220
0.0
230
1.0
 70
     8
 71
     3
 72
    26
 73
    22
 74
     0
 42
0.000000001
 43
0.00000001
 40
0.0
 40
0.0
 40
0.0
 40
0.0
 40
0.0530930196578947
 40
0.1062016556393702
 40
0.1593173574166326
 40
0.2124315449840367
 40
0.265535644656397
 40
0.3176784509870234
 40
0.3698283447447046
 40
0.4219896039891727
 40
0.4741563733816975
 40
0.5272712051751125
 40
0.5803769932349685
 40
0.6334664839397481
 40
0.6865638651722004
 40
0.7396748931931658
 40
0.7918421393257614
 40
0.8440074615435561
 40
0.8961649913602097
 40
0.9483091714241898
 40
1.0
 40
1.0
 40
1.0
 40
1.0
 10
164.3999999999995
 20
-12.69999999999998
 30
0.0
 10
162.9733397266168
 20
-12.53643793091077
 30
0.0
 10
160.1195995542844
 20
-12.3026855960184
 30
0.0
 10
155.8382344555864
 20
-11.3595670655334
 30
0.0
 10
151.5562114405351
 20
-10.02177074672623
 30
0.0
 10
147.2743387778998
 20
-8.29635841225836
 30
0.0
 10
143.0187322006115
 20
-6.272360947520143
 30
0.0
 10
138.789489371519
 20
-4.028092491839331
 30
0.0
 10
134.5853492863578
 20
-1.6510200716627
 30
0.0
 10
130.380361692898
 20
0.7862545865737626
 30
0.0
 10
126.1493902140734
 20
3.209584511565031
 30
0.0
 10
121.8929169867996
 20
5.528599178173654
 30
0.0
 10
117.6117923327355
 20
7.652568566938583
 30
0.0
 10
113.3315493705769
 20
9.487944142254396
 30
0.0
 10
109.0509444012587
 20
10.96476144123949
 30
0.0
 10
104.7948326782114
 20
12.02138901119357
 30
0.0
 10
100.5638323317274
 20
12.62643741781025
 30
0.0
 10
96.35846247196368
 20
12.76997411096306
 30
0.0
 10
92.1538076609231
 20
12.4404870090169
 30
0.0
 10
87.9622679752698
 20
11.68936658804345
 30
0.0
 10
85.17203190224865
 20
10.83559420925357
 30
0.0
 10
83.78300505642902
 20
10.41057183719516
 30
0.0
1001
PE_URL
1000

  0
SPLINE
  5
B4
330
1F
100
AcDbEntity
  8
0
  6
Continuous
 62
     1
370
    15
100
AcDbSpline
210
0.0
220
0.0
230
1.0
 70
     8
 71
     3
 72
    11
 73
     7
 74
     0
 42
0.000000001
 43
0.00000001
 40
0.0
 40
0.0
 40
0.0
 40
0.0
 40
0.2256100317416278
 40
0.483765533034185
 40
0.741902732959371
 40
1.0
 40
1.0
 40
1.0
 40
1.0
 10
28.07709380015897
 20
-12.67515111626116
 30
0.0
 10
26.86802785686543
 20
-12.65220573873501
 30
0.0
 10
24.2754816566117
 20
-12.6030049886446
 30
0.0
 10
20.29952545557441
 20
-11.97442325045811
 30
0.0
 10
16.14951683238204
 20
-10.96061131222818
 30
0.0
 10
13.38310094619958
 20
-9.958262950109106
 30
0.0
 10
11.99999999999956
 20
-9.45712753695833
 30
0.0
1001
PE_URL
1000

  0
LINE
  5
B5
330
1F
100
AcDbEntity
  8
0
  6
Continuous
 62
     1
370
    15
100
AcDbLine
 10
164.3999999999995
 20
-12.69999999999998
 30
0.0
 11
164.3999999999995
 21
-11.50215313554798
 31
0.0
1001
PE_URL
1000

  0
LINE
  5
B6
330
1F
100
AcDbEntity
  8
외형선
  6
Continuous
370
    15
100
AcDbLine
 10
11.99999999999954
 20
-9.457127536958309
 30
0.0
 11
11.99999999999953
 21
-5.954448794446044
 31
0.0
  0
LINE
  5
B7
330
1F
100
AcDbEntity
  8
외형선
  6
Continuous
370
    15
100
AcDbLine
 10
11.99999999999954
 20
8.476599480316768
 30
0.0
 11
11.9999999999995
 21
11.21759954510407
 31
0.0
  0
LINE
  5
B8
330
1F
100
AcDbEntity
  8
0
  6
Continuous
 62
     1
370
    15
100
AcDbLine
 10
164.3999999999995
 20
1.088153135548124
 30
0.0
 11
164.3999999999995
 21
5.38428019761257
 31
0.0
1001
PE_URL
1000

  0
LINE
  5
B9
330
1F
100
AcDbEntity
  8
외형선
  6
Continuous
370
    15
100
AcDbLine
 10
11.50005737522686
 20
-5.697537463971887
 30
0.0
 11
11.50005737522686
 21
8.689702645250904
 31
0.0
  0
SPLINE
  5
BA
330
1F
100
AcDbEntity
  8
외형선
  6
Continuous
370
    15
100
AcDbSpline
210
0.0
220
0.0
230
1.0
 70
     8
 71
     3
 72
     8
 73
     4
 74
     0
 42
0.000000001
 43
0.00000001
 40
0.0
 40
0.0
 40
0.0
 40
0.0
 40
1.0
 40
1.0
 40
1.0
 40
1.0
 10
11.99999999999951
 20
-5.954448794446041
 30
0.0
 10
11.83317879154988
 20
-5.86928665930474
 30
0.0
 10
11.66669959055605
 20
-5.783668237577244
 30
0.0
 10
11.50005737522685
 20
-5.697529853171563
 30
0.0
  0
SPLINE
  5
BB
330
1F
100
AcDbEntity
  8
외형선
  6
Continuous
370
    15
100
AcDbSpline
210
0.0
220
0.0
230
1.0
 70
     8
 71
     3
 72
     8
 73
     4
 74
     0
 42
0.000000001
 43
0.00000001
 40
0.0
 40
0.0
 40
0.0
 40
0.0
 40
1.0
 40
1.0
 40
1.0
 40
1.0
 10
11.99999999999953
 20
-9.45712753695831
 30
0.0
 10
11.8331787915499
 20
-9.392774614786429
 30
0.0
 10
11.66669959055602
 20
-9.327648561522507
 30
0.0
 10
11.50005737522685
 20
-9.261701398514953
 30
0.0
  0
LINE
  5
BC
330
1F
100
AcDbEntity
  8
외형선
  6
Continuous
370
    15
100
AcDbLine
 10
11.50005737522686
 20
-12.7
 30
0.0
 11
11.50005737522686
 21
-9.261698976814197
 31
0.0
  0
SPLINE
  5
BD
330
1F
100
AcDbEntity
  8
외형선
  6
Continuous
370
    15
100
AcDbSpline
210
0.0
220
0.0
230
1.0
 70
     8
 71
     3
 72
     8
 73
     4
 74
     0
 42
0.000000001
 43
0.00000001
 40
0.0
 40
0.0
 40
0.0
 40
0.0
 40
1.0
 40
1.0
 40
1.0
 40
1.0
 10
11.99999999999951
 20
-11.21759954510405
 30
0.0
 10
11.83317879154988
 20
-11.26280472210165
 30
0.0
 10
11.66669959055605
 20
-11.30700982443285
 30
0.0
 10
11.50005737522685
 20
-11.35024905331233
 30
0.0
  0
LINE
  5
BE
330
1F
100
AcDbEntity
  8
외형선
  6
Continuous
370
    15
100
AcDbLine
 10
11.50005737522686
 20
11.3502452328853
 30
0.0
 11
11.50005737522686
 21
12.7
 31
0.0
  0
SPLINE
  5
BF
330
1F
100
AcDbEntity
  8
외형선
  6
Continuous
370
    15
100
AcDbSpline
210
0.0
220
0.0
230
1.0
 70
     8
 71
     3
 72
     8
 73
     4
 74
     0
 42
0.000000001
 43
0.00000001
 40
0.0
 40
0.0
 40
0.0
 40
0.0
 40
1.0
 40
1.0
 40
1.0
 40
1.0
 10
11.99999999999951
 20
11.21759954510405
 30
0.0
 10
11.83317879154988
 20
11.26280472210165
 30
0.0
 10
11.66669959055605
 20
11.30700982443285
 30
0.0
 10
11.50005737522685
 20
11.35024905331233
 30
0.0
  0
SPLINE
  5
C0
330
1F
100
AcDbEntity
  8
외형선
  6
Continuous
370
    15
100
AcDbSpline
210
0.0
220
0.0
230
1.0
 70
     8
 71
     3
 72
     8
 73
     4
 74
     0
 42
0.000000001
 43
0.00000001
 40
0.0
 40
0.0
 40
0.0
 40
0.0
 40
1.0
 40
1.0
 40
1.0
 40
1.0
 10
11.99999999999953
 20
8.476599480316766
 30
0.0
 10
11.8331787915499
 20
8.548396407111364
 30
0.0
 10
11.66669959055602
 20
8.619411915259118
 30
0.0
 10
11.50005737522685
 20
8.689700064141904
 30
0.0
  0
LINE
  5
C1
330
1F
100
AcDbEntity
  8
외형선
  6
Continuous
370
    15
100
AcDbLine
 10
-48.96000000000049
 20
-0.000000000000002
 30
0.0
 11
-48.96000000000049
 21
10.795
 31
0.0
  0
LINE
  5
C2
330
1F
100
AcDbEntity
  8
외형선
  6
Continuous
370
    15
100
AcDbLine
 10
-48.96000000000049
 20
-12.7
 30
0.0
 11
-48.96000000000049
 21
-0.000000000000002
 31
0.0
  0
LINE
  5
C3
330
1F
100
AcDbEntity
  8
외형선
  6
Continuous
370
    15
100
AcDbLine
 10
-51.50000000000049
 20
-0.000000000000002
 30
0.0
 11
-51.50000000000049
 21
10.795
 31
0.0
  0
LINE
  5
C4
330
1F
100
AcDbEntity
  8
외형선
  6
Continuous
370
    15
100
AcDbLine
 10
-51.50000000000049
 20
-10.16000000000001
 30
0.0
 11
-51.50000000000049
 21
-0.000000000000002
 31
0.0
  0
SPLINE
  5
C5
330
1F
100
AcDbEntity
  8
외형선
  6
Continuous
370
    15
100
AcDbSpline
210
0.0
220
0.0
230
1.0
 70
    24
 71
     3
 72
    30
 73
    26
 74
     0
 42
0.000000001
 43
0.00000001
 40
0.0
 40
0.0
 40
0.0
 40
0.0
 40
0.0625
 40
0.0625
 40
0.1249999999999999
 40
0.1249999999999999
 40
0.1874999999999999
 40
0.1874999999999999
 40
0.2499999999999999
 40
0.2499999999999999
 40
0.3124999999999999
 40
0.3124999999999999
 40
0.3749999999999999
 40
0.3749999999999999
 40
0.4374999999999999
 40
0.4374999999999999
 40
0.4999999999999999
 40
0.4999999999999999
 40
0.6249999999999999
 40
0.6249999999999999
 40
0.75
 40
0.75
 40
0.875
 40
0.875
 40
1.0
 40
1.0
 40
1.0
 40
1.0
 10
11.99999999999954
 20
-5.954448794446042
 30
0.0
 10
11.99999999999956
 20
-5.874676246414006
 30
0.0
 10
11.99999999999954
 20
-5.75488792941622
 30
0.0
 10
11.99999999999951
 20
-5.426406777350921
 30
0.0
 10
11.99999999999953
 20
-5.217610122610608
 30
0.0
 10
11.99999999999953
 20
-4.710477530582247
 30
0.0
 10
11.99999999999954
 20
-4.412107527330243
 30
0.0
 10
11.99999999999954
 20
-3.735943575248106
 30
0.0
 10
11.99999999999954
 20
-3.358219060268158
 30
0.0
 10
11.99999999999956
 20
-2.543773623179588
 30
0.0
 10
11.99999999999954
 20
-2.107210706566761
 30
0.0
 10
11.99999999999954
 20
-1.20230440470525
 30
0.0
 10
11.99999999999953
 20
-0.7341462218637058
 30
0.0
 10
11.99999999999956
 20
0.20536082296738
 30
0.0
 10
11.99999999999956
 20
0.676566684930727
 30
0.0
 10
11.99999999999957
 20
1.597380174924652
 30
0.0
 10
11.99999999999956
 20
2.046923906678003
 30
0.0
 10
11.99999999999956
 20
3.336482294338681
 30
0.0
 10
11.99999999999954
 20
4.114102385965272
 30
0.0
 10
11.99999999999954
 20
5.451965570736047
 30
0.0
 10
11.99999999999953
 20
6.014212675971231
 30
0.0
 10
11.99999999999953
 20
6.948556007876553
 30
0.0
 10
11.99999999999954
 20
7.322015033504856
 30
0.0
 10
11.99999999999956
 20
7.92854216081329
 30
0.0
 10
11.99999999999954
 20
8.223067073452833
 30
0.0
 10
11.99999999999953
 20
8.476599480313107
 30
0.0
  0
SPLINE
  5
C6
330
1F
100
AcDbEntity
  8
외형선
  6
Continuous
370
    15
100
AcDbSpline
210
0.0
220
0.0
230
1.0
 70
    24
 71
     3
 72
    10
 73
     6
 74
     0
 42
0.000000001
 43
0.00000001
 40
0.0
 40
0.0
 40
0.0
 40
0.0
 40
0.3496323879903938
 40
0.7013845067564696
 40
1.0
 40
1.0
 40
1.0
 40
1.0
 10
11.99999999999951
 20
-11.21759954510407
 30
0.0
 10
11.9999999999995
 20
-11.02502645108669
 30
0.0
 10
11.99999999999947
 20
-10.63871274217009
 30
0.0
 10
11.99999999999948
 20
-10.09950714124644
 30
0.0
 10
11.9999999999995
 20
-9.761646793876928
 30
0.0
 10
11.99999999999953
 20
-9.606518628798979
 30
0.0
  0
LINE
  5
C7
330
1F
100
AcDbEntity
  8
중심선
 62
     1
100
AcDbLine
 10
-58.50000000000049
 20
-0.0000000000000053
 30
0.0
 11
171.3999999999996
 21
0.000000000000022
 31
0.0
  0
LINE
  5
C8
330
1F
100
AcDbEntity
  8
참조1
100
AcDbLine
 10
56.44999999999953
 20
-0.0000000000000059
 30
0.0
 11
56.44999999999953
 21
-40.00000000000001
 31
0.0
  0
LINE
  5
C9
330
1F
100
AcDbEntity
  8
참조1
100
AcDbLine
 10
56.44999999999953
 20
-40.00000000000001
 30
0.0
 11
-37.29010681430916
 21
-40.0
 31
0.0
  0
CIRCLE
  5
CA
330
1F
100
AcDbEntity
  8
해칭선
100
AcDbCircle
 10
0.0
 20
0.0
 30
0.0
 40
3.000000000000003
  0
INSERT
  5
CB
330
1F
100
AcDbEntity
  8
0
  6
Continuous
 62
     7
100
AcDbBlockReference
 66
     1
  2
블럭10
 10
42.50972706787432
 20
-52.04717430164393
 30
0.0
  0
ATTRIB
  5
CC
330
CB
100
AcDbEntity
  8
FORMAT
 62
     2
100
AcDbText
 10
33.32843177913304
 20
-49.97180738881174
 30
0.0
 40
4.233333333333333
  1
E2041064 [ 4 FLUTE ]
 41
0.75
  7
SLDTEXTSTYLE0
 11
33.32843177913304
 21
-52.08847405547841
 31
0.0
100
AcDbAttribute
  2
AUTOATTR0
 70
     0
 74
     1
  0
SEQEND
  5
CD
330
CB
100
AcDbEntity
  8
0
  6
Continuous
 62
     7
  0
HATCH
  5
CE
330
1F
100
AcDbEntity
  8
중심선
100
AcDbHatch
 10
0.0
 20
0.0
 30
0.0
210
0.0
220
0.0
230
1.0
  2
SOLID
 70
     1
 71
     0
 91
        1
 92
        0
 93
        4
 72
     1
 10
48.22463637225516
 20
-35.8
 11
44.77836112841788
 21
-35.8
 72
     1
 10
44.77836112841788
 20
-35.8
 11
42.65013126921392
 21
-38.3363255805726
 72
     1
 10
42.65013126921392
 20
-38.3363255805726
 11
46.09643959816423
 21
-38.33628615127011
 72
     1
 10
46.09643959816423
 20
-38.33628615127011
 11
48.22463637225516
 21
-35.8
 97
        0
 75
     0
 76
     1
 98
        1
 10
-17.13676131403166
 20
-0.0010749287238951
  0
HATCH
  5
CF
330
1F
100
AcDbEntity
  8
중심선
100
AcDbHatch
 10
0.0
 20
0.0
 30
0.0
210
0.0
220
0.0
230
1.0
  2
SOLID
 70
     1
 71
     0
 91
        1
 92
        0
 93
        4
 72
     1
 10
53.23740036329112
 20
-35.80000000000003
 11
49.79112511945382
 21
-35.79999999999998
 72
     1
 10
49.79112511945382
 20
-35.79999999999998
 11
45.25998711109641
 21
-41.20000000000002
 72
     1
 10
45.25998711109641
 20
-41.20000000000002
 11
48.7062623549337
 21
-41.20000000000002
 72
     1
 10
48.7062623549337
 20
-41.20000000000002
 11
53.23740036329112
 21
-35.80000000000003
 97
        0
 75
     0
 76
     1
 98
        1
 10
-17.13676131403166
 20
-0.0010749287238951
  0
HATCH
  5
D0
330
1F
100
AcDbEntity
  8
중심선
100
AcDbHatch
 10
0.0
 20
0.0
 30
0.0
210
0.0
220
0.0
230
1.0
  2
SOLID
 70
     1
 71
     0
 91
        1
 92
        0
 93
        4
 72
     1
 10
58.25016435432713
 20
-35.79999999999998
 11
54.80388911048989
 21
-35.8
 72
     1
 10
54.80388911048989
 20
-35.8
 11
47.75545220860062
 21
-44.20000000000002
 72
     1
 10
47.75545220860062
 20
-44.20000000000002
 11
51.20172745243789
 21
-44.20000000000002
 72
     1
 10
51.20172745243789
 20
-44.20000000000002
 11
58.25016435432713
 21
-35.79999999999998
 97
        0
 75
     0
 76
     1
 98
        1
 10
-17.13676131403166
 20
-0.0010749287238951
  0
HATCH
  5
D1
330
1F
100
AcDbEntity
  8
중심선
100
AcDbHatch
 10
0.0
 20
0.0
 30
0.0
210
0.0
220
0.0
230
1.0
  2
SOLID
 70
     1
 71
     0
 91
        1
 92
        0
 93
        6
 72
     3
 10
63.05005478533921
 20
-40.00000000005127
 11
3.960054785062283
 21
1.540882976769353E-10
 40
0.3939339440162628
 50
17.09539180608451
 51
320.0019657685078
 73
     0
 72
     1
 10
64.73305444103983
 20
-38.58789400463827
 11
67.03835631474081
 21
-36.65356729459044
 72
     3
 10
63.05005478528636
 20
-40.00000000000015
 11
6.600054785286829
 21
-1.278976924368180E-13
 40
0.636358354079598
 50
39.99873849337385
 51
368.4976242363724
 73
     1
 72
     1
 10
69.47538727718694
 20
-39.03999999993002
 11
61.73012209212231
 21
-39.03999999993002
 72
     1
 10
61.73012209212231
 20
-39.03999999993002
 11
61.73009704767635
 21
-40.95999999992991
 72
     1
 10
61.73009704767635
 20
-40.95999999992991
 11
66.17147681714836
 21
-40.95999999992988
 97
        0
 75
     0
 76
     1
 98
        1
 10
-17.13676131403166
 20
-0.0010749287238951
  0
DIMENSION
  5
D2
330
1F
100
AcDbEntity
  8
치수문자_일반주서
100
AcDbDimension
  2
_D
 10
11.99999999999952
 20
27.70789845620486
 30
0.0
 11
88.19999999999952
 21
27.70789845620486
 31
0.0
 70
   160
  1
<>
 71
     2
 42
152.4
  3
SLDDIMSTYLE2
100
AcDbAlignedDimension
 13
164.3999999999995
 23
12.70000000000002
 33
0.0
 14
11.99999999999951
 24
11.21759954510406
 34
0.0
 50
0.000000000000004
100
AcDbRotatedDimension
1001
PE_URL
1000

1001
ACAD
1000
DSTYLE
1002
{
1070
   171
1070
     8
1070
   273
1070
     7
1070
    41
1040
4.0
1070
   140
1040
4.0
1002
}
  0
DIMENSION
  5
E7
330
1F
100
AcDbEntity
  8
치수문자_일반주서
100
AcDbDimension
  2
_D_1
 10
-51.50000000000048
 20
42.7
 30
0.0
 11
56.44999999999953
 21
42.7
 31
0.0
 70
   160
  1
<>
 71
     2
 42
215.9
  3
SLDDIMSTYLE2
100
AcDbAlignedDimension
 13
164.3999999999995
 23
12.70000000000002
 33
0.0
 14
-51.50000000000049
 24
10.795
 34
0.0
 50
0.0000000000000038
100
AcDbRotatedDimension
1001
PE_URL
1000

1001
ACAD
1000
DSTYLE
1002
{
1070
   171
1070
     8
1070
   273
1070
     7
1070
    41
1040
4.0
1070
   140
1040
4.0
1002
}
  0
DIMENSION
  5
FA
330
1F
100
AcDbEntity
  8
치수문자_일반주서
100
AcDbDimension
  2
_D_2
 10
-66.50000000000041
 20
-12.70000000000006
 30
0.0
 11
-66.50000000000055
 21
28.07499999999992
 31
0.0
 70
   160
  1
%%c<>
 71
     2
 42
25.39999999999994
 52
-270.0
  3
SLDDIMSTYLE2
100
AcDbAlignedDimension
 13
-36.8950000000005
 23
12.69999999999999
 33
0.0
 14
-48.96000000000051
 24
-12.69999999999999
 34
0.0
 50
90.0000000000002
100
AcDbRotatedDimension
1001
PE_URL
1000

1001
ACAD
1000
DSTYLE
1002
{
1070
   171
1070
     8
1070
   273
1070
     7
1070
    41
1040
4.0
1070
   140
1040
4.0
1002
}
1001
ACAD_DSTYLE_DIMFLIPARROW_SYMBOL
1070
   385
1070
     0
1001
ACAD_DSTYLE_DIMFLIPARROW_WHICH_SYMBOL
1070
   386
1070
     3
  0
DIMENSION
  5
10F
330
1F
100
AcDbEntity
  8
치수문자_일반주서
100
AcDbDimension
  2
_D_3
 10
179.3999999999995
 20
12.70000000000008
 30
0.0
 11
179.3999999999994
 21
38.52829691240977
 31
0.0
 70
   160
  1
%%c<>
 71
     2
 42
25.4
 52
-270.0
  3
SLDDIMSTYLE2
100
AcDbAlignedDimension
 13
164.3999999999995
 23
-12.69999999999998
 33
0.0
 14
164.3999999999995
 24
12.70000000000002
 34
0.0
 50
90.0000000000002
100
AcDbRotatedDimension
1001
PE_URL
1000

1001
ACAD
1000
DSTYLE
1002
{
1070
   171
1070
     8
1070
   273
1070
     7
1070
    41
1040
4.0
1070
   140
1040
4.0
1002
}
1001
ACAD_DSTYLE_DIMFLIPARROW_SYMBOL
1070
   385
1070
     0
1001
ACAD_DSTYLE_DIMFLIPARROW_WHICH_SYMBOL
1070
   386
1070
     3
  0
LINE
  5
123
330
1F
100
AcDbEntity
  8
참조1
100
AcDbLine
 10
60.6822338153451
 20
7.44
 30
0.0
 11
60.6822338153451
 21
-7.440000000000004
 31
0.0
  0
LINE
  5
124
330
1F
100
AcDbEntity
  8
참조1
100
AcDbLine
 10
73.3822338153451
 20
5.44
 30
0.0
 11
60.6822338153451
 21
5.44
 31
0.0
  0
SOLID
  5
125
330
1F
100
AcDbEntity
  8
참조1
100
AcDbTrace
 10
60.6822338153451
 20
5.44
 30
0.0
 11
67.0322338153451
 21
4.424
 31
0.0
 12
67.0322338153451
 22
6.456
 32
0.0
 13
67.0322338153451
 23
6.456
 33
0.0
  0
LINE
  5
126
330
1F
100
AcDbEntity
  8
참조1
100
AcDbLine
 10
73.3822338153451
 20
-5.440000000000004
 30
0.0
 11
60.6822338153451
 21
-5.440000000000004
 31
0.0
  0
SOLID
  5
127
330
1F
100
AcDbEntity
  8
참조1
100
AcDbTrace
 10
60.6822338153451
 20
-5.440000000000004
 30
0.0
 11
67.0322338153451
 21
-6.456000000000004
 31
0.0
 12
67.0322338153451
 22
-4.424000000000004
 32
0.0
 13
67.0322338153451
 23
-4.424000000000004
 33
0.0
  0
MTEXT
  5
128
330
1F
100
AcDbEntity
  8
참조1
100
AcDbMText
 10
70.0665839479711
 20
11.01029177718833
 30
0.0
 40
3.5
 41
0.0
 71
     1
 72
     1
  1
A
  7
SLDTEXTSTYLE0
 73
     1
 44
1.0
  0
MTEXT
  5
129
330
1F
100
AcDbEntity
  8
참조1
100
AcDbMText
 10
70.0665839479711
 20
0.130291777188325
 30
0.0
 40
3.5
 41
0.0
 71
     1
 72
     1
  1
A
  7
SLDTEXTSTYLE0
 73
     1
 44
1.0
  0
INSERT
  5
130
330
1F
100
AcDbEntity
  8
해칭선
100
AcDbBlockReference
  2
SW_DOWELSYMBOL_0
 10
0.0
 20
0.0
 30
0.0
  0
LINE
  5
1E6
330
1F
100
AcDbEntity
  8
외형선
  6
Continuous
370
    15
100
AcDbLine
 10
-29.0813250000004
 20
10.795
 30
0.0
 11
-15.9749250000005
 21
10.795
 31
0.0
1001
PE_URL
1000

  0
LINE
  5
1E7
330
1F
100
AcDbEntity
  8
외형선
  6
Continuous
370
    15
100
AcDbLine
 10
-29.0813250000004
 20
10.79500000000001
 30
0.0
 11
-30.98632500000037
 21
12.7
 31
0.0
1001
PE_URL
1000

  0
LINE
  5
1E8
330
1F
100
AcDbEntity
  8
외형선
  6
Continuous
370
    15
100
AcDbLine
 10
-15.9749250000005
 20
10.79500000000001
 30
0.0
 11
-14.06992500000047
 21
12.7
 31
0.0
1001
PE_URL
1000

  0
LINE
  5
1E9
330
1F
100
AcDbEntity
  8
외형선
  6
Continuous
370
    15
100
AcDbLine
 10
-51.50000000000049
 20
10.795
 30
0.0
 11
-38.80000000000047
 21
10.795
 31
0.0
1001
PE_URL
1000

  0
LINE
  5
1EA
330
1F
100
AcDbEntity
  8
외형선
  6
Continuous
370
    15
100
AcDbLine
 10
-38.80000000000047
 20
10.79500000000001
 30
0.0
 11
-36.8950000000005
 21
12.69999999999999
 31
0.0
1001
PE_URL
1000

  0
LINE
  5
1EB
330
1F
100
AcDbEntity
  8
외형선
  6
Continuous
370
    15
100
AcDbLine
 10
-30.98632500000038
 20
12.7
 30
0.0
 11
-36.89500000000049
 21
12.7
 31
0.0
  0
ENDSEC
  0
SECTION
  2
OBJECTS
  0
DICTIONARY
  5
C
330
0
100
AcDbDictionary
281
     1
  3
ACAD_GROUP
350
D
  3
ACAD_IMAGE_VARS
350
211
  3
ACAD_LAYOUT
350
1A
  3
ACAD_MLINESTYLE
350
17
  3
ACAD_PLOTSETTINGS
350
19
  3
ACAD_PLOTSTYLENAME
350
E
  3
ACAD_SCALELIST
350
47
  3
APPDATA
350
152
  3
DWGPROPS
350
213
  0
DICTIONARY
  5
188
330
2
100
AcDbDictionary
280
     1
281
     1
  3
ACAD_LAYERSTATES
360
189
  0
DICTIONARY
  5
D
102
{ACAD_REACTORS
330
C
102
}
330
C
100
AcDbDictionary
281
     1
  0
RASTERVARIABLES
  5
211
102
{ACAD_REACTORS
330
C
102
}
330
C
100
AcDbRasterVariables
 90
        0
 70
     1
 71
     1
 72
     1
  0
DICTIONARY
  5
1A
102
{ACAD_REACTORS
330
C
102
}
330
C
100
AcDbDictionary
281
     1
  3
Layout1
350
1E
  3
Layout2
350
26
  3
Model
350
22
  0
DICTIONARY
  5
17
102
{ACAD_REACTORS
330
C
102
}
330
C
100
AcDbDictionary
281
     1
  3
Standard
350
18
  0
DICTIONARY
  5
19
102
{ACAD_REACTORS
330
C
102
}
330
C
100
AcDbDictionary
281
     1
  0
ACDBDICTIONARYWDFLT
  5
E
102
{ACAD_REACTORS
330
C
102
}
330
C
100
AcDbDictionary
281
     1
  3
Normal
350
F
100
AcDbDictionaryWithDefault
340
F
  0
DICTIONARY
  5
47
102
{ACAD_REACTORS
330
C
102
}
330
C
100
AcDbDictionary
281
     1
  3
A0
350
48
  3
A1
350
49
  3
A2
350
4A
  3
A3
350
4B
  3
A4
350
4C
  3
A5
350
4D
  3
A6
350
4E
  3
A7
350
4F
  3
A8
350
50
  3
A9
350
51
  3
B0
350
52
  3
B1
350
53
  3
B2
350
54
  3
B3
350
55
  3
B4
350
56
  3
B5
350
57
  3
B6
350
58
  3
B7
350
59
  3
B8
350
5A
  3
B9
350
5B
  3
C0
350
5C
  3
C1
350
5D
  3
C2
350
5E
  3
C3
350
5F
  3
C4
350
60
  3
C5
350
61
  3
C6
350
62
  3
C7
350
63
  3
C8
350
64
  3
C9
350
65
  3
D0
350
66
  3
D1
350
67
  3
D2
350
68
  0
DICTIONARY
  5
152
102
{ACAD_REACTORS
330
C
102
}
330
C
100
AcDbDictionary
281
     1
  0
XRECORD
  5
213
102
{ACAD_REACTORS
330
C
102
}
330
C
100
AcDbXrecord
280
     1
  1
DWGPROPS COOKIE
  2

  3

  4

  6

  7

  8
12016016
  9

300
=
301
=
302
=
303
=
304
=
305
=
306
=
307
=
308
=
309
=
 40
0.0
 41
2458312.258944653
 42
2458330.313033507
  1

 90
        0
  0
DICTIONARY
  5
189
102
{ACAD_REACTORS
330
188
102
}
330
188
100
AcDbDictionary
281
     1
  0
LAYOUT
  5
1E
102
{ACAD_REACTORS
330
1A
102
}
330
1A
100
AcDbPlotSettings
  1

  2
none_device
  4

  6

 40
0.0
 41
0.0
 42
0.0
 43
0.0
 44
0.0
 45
0.0
 46
0.0
 47
0.0
 48
0.0
 49
0.0
140
0.0
141
0.0
142
1.0
143
1.0
 70
   688
 72
     1
 73
     0
 74
     5
  7

 75
    16
147
1.0
148
0.0
149
0.0
100
AcDbLayout
  1
Layout1
 70
     1
 71
     1
 10
0.0
 20
0.0
 11
420.0
 21
297.0
 12
0.0
 22
0.0
 32
0.0
 14
1.000000000000000E+20
 24
1.000000000000000E+20
 34
1.000000000000000E+20
 15
-1.000000000000000E+20
 25
-1.000000000000000E+20
 35
-1.000000000000000E+20
146
0.0
 13
0.0
 23
0.0
 33
0.0
 16
1.0
 26
0.0
 36
0.0
 17
0.0
 27
1.0
 37
0.0
 76
     0
330
1B
  0
LAYOUT
  5
26
102
{ACAD_REACTORS
330
1A
102
}
330
1A
100
AcDbPlotSettings
  1

  2
none_device
  4

  6

 40
0.0
 41
0.0
 42
0.0
 43
0.0
 44
0.0
 45
0.0
 46
0.0
 47
0.0
 48
0.0
 49
0.0
140
0.0
141
0.0
142
1.0
143
1.0
 70
   688
 72
     1
 73
     0
 74
     5
  7

 75
    16
147
1.0
148
0.0
149
0.0
100
AcDbLayout
  1
Layout2
 70
     1
 71
     2
 10
0.0
 20
0.0
 11
0.0
 21
0.0
 12
0.0
 22
0.0
 32
0.0
 14
0.0
 24
0.0
 34
0.0
 15
0.0
 25
0.0
 35
0.0
146
0.0
 13
0.0
 23
0.0
 33
0.0
 16
1.0
 26
0.0
 36
0.0
 17
0.0
 27
1.0
 37
0.0
 76
     0
330
23
  0
LAYOUT
  5
22
102
{ACAD_REACTORS
330
1A
102
}
330
1A
100
AcDbPlotSettings
  1

  2
none_device
  4
ANSI_A_(11.00_x_8.50_Inches)
  6

 40
6.35
 41
19.05
 42
6.35000508
 43
19.05000254
 44
279.4
 45
215.9
 46
25.2668676148844
 47
54.79573928144676
 48
0.0
 49
0.0
140
0.0
141
0.0
142
0.0216834668157273
143
1.0
 70
  1696
 72
     0
 73
     0
 74
     0
  7

 75
     0
147
0.0235690232323232
148
0.0
149
0.0
100
AcDbLayout
  1
Model
 70
     1
 71
     0
 10
0.0
 20
0.0
 11
420.0
 21
297.0
 12
0.0
 22
0.0
 32
0.0
 14
-71.37500000000057
 24
-49.97180738881174
 34
0.0
 15
180.0666666666663
 25
49.90329691240977
 35
0.0
146
0.0
 13
0.0
 23
0.0
 33
0.0
 16
1.0
 26
0.0
 36
0.0
 17
0.0
 27
1.0
 37
0.0
 76
     0
330
1F
331
29
  0
MLINESTYLE
  5
18
102
{ACAD_REACTORS
330
17
102
}
330
17
100
AcDbMlineStyle
  2
Standard
 70
     0
  3

 62
   256
 51
90.0
 52
90.0
 71
     2
 49
0.5
 62
   256
  6
BYLAYER
 49
-0.5
 62
   256
  6
BYLAYER
  0
ACDBPLACEHOLDER
  5
F
102
{ACAD_REACTORS
330
E
102
}
330
E
  0
SCALE
  5
48
102
{ACAD_REACTORS
330
47
102
}
330
47
100
AcDbScale
 70
     0
300
1:1
140
1.0
141
1.0
290
     1
  0
SCALE
  5
49
102
{ACAD_REACTORS
330
47
102
}
330
47
100
AcDbScale
 70
     0
300
1:2
140
1.0
141
2.0
290
     0
  0
SCALE
  5
4A
102
{ACAD_REACTORS
330
47
102
}
330
47
100
AcDbScale
 70
     0
300
1:4
140
1.0
141
4.0
290
     0
  0
SCALE
  5
4B
102
{ACAD_REACTORS
330
47
102
}
330
47
100
AcDbScale
 70
     0
300
1:5
140
1.0
141
5.0
290
     0
  0
SCALE
  5
4C
102
{ACAD_REACTORS
330
47
102
}
330
47
100
AcDbScale
 70
     0
300
1:8
140
1.0
141
8.0
290
     0
  0
SCALE
  5
4D
102
{ACAD_REACTORS
330
47
102
}
330
47
100
AcDbScale
 70
     0
300
1:10
140
1.0
141
10.0
290
     0
  0
SCALE
  5
4E
102
{ACAD_REACTORS
330
47
102
}
330
47
100
AcDbScale
 70
     0
300
1:16
140
1.0
141
16.0
290
     0
  0
SCALE
  5
4F
102
{ACAD_REACTORS
330
47
102
}
330
47
100
AcDbScale
 70
     0
300
1:20
140
1.0
141
20.0
290
     0
  0
SCALE
  5
50
102
{ACAD_REACTORS
330
47
102
}
330
47
100
AcDbScale
 70
     0
300
1:30
140
1.0
141
30.0
290
     0
  0
SCALE
  5
51
102
{ACAD_REACTORS
330
47
102
}
330
47
100
AcDbScale
 70
     0
300
1:40
140
1.0
141
40.0
290
     0
  0
SCALE
  5
52
102
{ACAD_REACTORS
330
47
102
}
330
47
100
AcDbScale
 70
     0
300
1:50
140
1.0
141
50.0
290
     0
  0
SCALE
  5
53
102
{ACAD_REACTORS
330
47
102
}
330
47
100
AcDbScale
 70
     0
300
1:100
140
1.0
141
100.0
290
     0
  0
SCALE
  5
54
102
{ACAD_REACTORS
330
47
102
}
330
47
100
AcDbScale
 70
     0
300
2:1
140
2.0
141
1.0
290
     0
  0
SCALE
  5
55
102
{ACAD_REACTORS
330
47
102
}
330
47
100
AcDbScale
 70
     0
300
4:1
140
4.0
141
1.0
290
     0
  0
SCALE
  5
56
102
{ACAD_REACTORS
330
47
102
}
330
47
100
AcDbScale
 70
     0
300
8:1
140
8.0
141
1.0
290
     0
  0
SCALE
  5
57
102
{ACAD_REACTORS
330
47
102
}
330
47
100
AcDbScale
 70
     0
300
10:1
140
10.0
141
1.0
290
     0
  0
SCALE
  5
58
102
{ACAD_REACTORS
330
47
102
}
330
47
100
AcDbScale
 70
     0
300
100:1
140
100.0
141
1.0
290
     0
  0
SCALE
  5
59
102
{ACAD_REACTORS
330
47
102
}
330
47
100
AcDbScale
 70
     0
300
1/128" = 1'-0"
140
0.0078125
141
12.0
290
     0
  0
SCALE
  5
5A
102
{ACAD_REACTORS
330
47
102
}
330
47
100
AcDbScale
 70
     0
300
1/64" = 1'-0"
140
0.015625
141
12.0
290
     0
  0
SCALE
  5
5B
102
{ACAD_REACTORS
330
47
102
}
330
47
100
AcDbScale
 70
     0
300
1/32" = 1'-0"
140
0.03125
141
12.0
290
     0
  0
SCALE
  5
5C
102
{ACAD_REACTORS
330
47
102
}
330
47
100
AcDbScale
 70
     0
300
1/16" = 1'-0"
140
0.0625
141
12.0
290
     0
  0
SCALE
  5
5D
102
{ACAD_REACTORS
330
47
102
}
330
47
100
AcDbScale
 70
     0
300
3/32" = 1'-0"
140
0.09375
141
12.0
290
     0
  0
SCALE
  5
5E
102
{ACAD_REACTORS
330
47
102
}
330
47
100
AcDbScale
 70
     0
300
1/8" = 1'-0"
140
0.125
141
12.0
290
     0
  0
SCALE
  5
5F
102
{ACAD_REACTORS
330
47
102
}
330
47
100
AcDbScale
 70
     0
300
3/16" = 1'-0"
140
0.1875
141
12.0
290
     0
  0
SCALE
  5
60
102
{ACAD_REACTORS
330
47
102
}
330
47
100
AcDbScale
 70
     0
300
1/4" = 1'-0"
140
0.25
141
12.0
290
     0
  0
SCALE
  5
61
102
{ACAD_REACTORS
330
47
102
}
330
47
100
AcDbScale
 70
     0
300
3/8" = 1'-0"
140
0.375
141
12.0
290
     0
  0
SCALE
  5
62
102
{ACAD_REACTORS
330
47
102
}
330
47
100
AcDbScale
 70
     0
300
1/2" = 1'-0"
140
0.5
141
12.0
290
     0
  0
SCALE
  5
63
102
{ACAD_REACTORS
330
47
102
}
330
47
100
AcDbScale
 70
     0
300
3/4" = 1'-0"
140
0.75
141
12.0
290
     0
  0
SCALE
  5
64
102
{ACAD_REACTORS
330
47
102
}
330
47
100
AcDbScale
 70
     0
300
1" = 1'-0"
140
1.0
141
12.0
290
     0
  0
SCALE
  5
65
102
{ACAD_REACTORS
330
47
102
}
330
47
100
AcDbScale
 70
     0
300
1-1/2" = 1'-0"
140
1.5
141
12.0
290
     0
  0
SCALE
  5
66
102
{ACAD_REACTORS
330
47
102
}
330
47
100
AcDbScale
 70
     0
300
3" = 1'-0"
140
3.0
141
12.0
290
     0
  0
SCALE
  5
67
102
{ACAD_REACTORS
330
47
102
}
330
47
100
AcDbScale
 70
     0
300
6" = 1'-0"
140
6.0
141
12.0
290
     0
  0
SCALE
  5
68
102
{ACAD_REACTORS
330
47
102
}
330
47
100
AcDbScale
 70
     0
300
1'-0" = 1'-0"
140
12.0
141
12.0
290
     0
  0
ENDSEC
  0
EOF
