  0
SECTION
  2
HEADER
  9
$ACADVER
  1
AC1015
  9
$ACADMAINTVER
 70
     6
  9
$DWGCODEPAGE
  3
ANSI_949
  9
$INSBASE
 10
0.0
 20
0.0
 30
0.0
  9
$EXTMIN
 10
-71.3749999999996
 20
-49.97180738881175
 30
0.0
  9
$EXTMAX
 10
180.0666666666673
 20
64.62500000000009
 30
0.0
  9
$LIMMIN
 10
0.0
 20
0.0
  9
$LIMMAX
 10
420.0
 20
297.0
  9
$ORTHOMODE
 70
     1
  9
$REGENMODE
 70
     1
  9
$FILLMODE
 70
     1
  9
$QTEXTMODE
 70
     0
  9
$MIRRTEXT
 70
     1
  9
$LTSCALE
 40
1.0
  9
$ATTMODE
 70
     1
  9
$TEXTSIZE
 40
3.5
  9
$TRACEWID
 40
1.0
  9
$TEXTSTYLE
  7
Standard
  9
$CLAYER
  8
0
  9
$CELTYPE
  6
ByLayer
  9
$CECOLOR
 62
   256
  9
$CELTSCALE
 40
1.0
  9
$DISPSILH
 70
     0
  9
$DIMSCALE
 40
1.0
  9
$DIMASZ
 40
3.302
  9
$DIMEXO
 40
1.0
  9
$DIMDLI
 40
3.75
  9
$DIMRND
 40
0.0
  9
$DIMDLE
 40
0.0
  9
$DIMEXE
 40
1.0
  9
$DIMTP
 40
0.0
  9
$DIMTM
 40
0.0
  9
$DIMTXT
 40
3.5
  9
$DIMCEN
 40
2.5
  9
$DIMTSZ
 40
0.0
  9
$DIMTOL
 70
     0
  9
$DIMLIM
 70
     0
  9
$DIMTIH
 70
     1
  9
$DIMTOH
 70
     1
  9
$DIMSE1
 70
     0
  9
$DIMSE2
 70
     0
  9
$DIMTAD
 70
     1
  9
$DIMZIN
 70
     0
  9
$DIMBLK
  1

  9
$DIMASO
 70
     1
  9
$DIMSHO
 70
     1
  9
$DIMPOST
  1

  9
$DIMAPOST
  1

  9
$DIMALT
 70
     0
  9
$DIMALTD
 70
     3
  9
$DIMALTF
 40
0.0393700787401575
  9
$DIMLFAC
 40
1.0
  9
$DIMTOFL
 70
     1
  9
$DIMTVP
 40
0.0
  9
$DIMTIX
 70
     0
  9
$DIMSOXD
 70
     0
  9
$DIMSAH
 70
     0
  9
$DIMBLK1
  1

  9
$DIMBLK2
  1

  9
$DIMSTYLE
  2
ISO-25
  9
$DIMCLRD
 70
     0
  9
$DIMCLRE
 70
     0
  9
$DIMCLRT
 70
     0
  9
$DIMTFAC
 40
1.0
  9
$DIMGAP
 40
1.524
  9
$DIMJUST
 70
     0
  9
$DIMSD1
 70
     0
  9
$DIMSD2
 70
     0
  9
$DIMTOLJ
 70
     0
  9
$DIMTZIN
 70
     0
  9
$DIMALTZ
 70
     0
  9
$DIMALTTZ
 70
     0
  9
$DIMUPT
 70
     0
  9
$DIMDEC
 70
     2
  9
$DIMTDEC
 70
     2
  9
$DIMALTU
 70
     2
  9
$DIMALTTD
 70
     3
  9
$DIMTXSTY
  7
Standard
  9
$DIMAUNIT
 70
     0
  9
$DIMADEC
 70
     2
  9
$DIMALTRND
 40
0.0
  9
$DIMAZIN
 70
     0
  9
$DIMDSEP
 70
    44
  9
$DIMATFIT
 70
     3
  9
$DIMFRAC
 70
     0
  9
$DIMLDRBLK
  1

  9
$DIMLUNIT
 70
     2
  9
$DIMLWD
 70
    -2
  9
$DIMLWE
 70
    -2
  9
$DIMTMOVE
 70
     0
  9
$LUNITS
 70
     2
  9
$LUPREC
 70
     2
  9
$SKETCHINC
 40
1.0
  9
$FILLETRAD
 40
10.0
  9
$AUNITS
 70
     0
  9
$AUPREC
 70
     2
  9
$MENU
  1
.
  9
$ELEVATION
 40
0.0
  9
$PELEVATION
 40
0.0
  9
$THICKNESS
 40
0.0
  9
$LIMCHECK
 70
     0
  9
$CHAMFERA
 40
0.0
  9
$CHAMFERB
 40
0.0
  9
$CHAMFERC
 40
0.0
  9
$CHAMFERD
 40
0.0
  9
$SKPOLY
 70
     0
  9
$TDCREATE
 40
2458312.634156447
  9
$TDUCREATE
 40
2458312.259156447
  9
$TDUPDATE
 40
2458330.687916262
  9
$TDUUPDATE
 40
2458330.312916262
  9
$TDINDWG
 40
0.0009384954
  9
$TDUSRTIMER
 40
2458330.312875312
  9
$USRTIMER
 70
     1
  9
$ANGBASE
 50
0.0
  9
$ANGDIR
 70
     0
  9
$PDMODE
 70
     0
  9
$PDSIZE
 40
-1.0
  9
$PLINEWID
 40
0.0
  9
$SPLFRAME
 70
     0
  9
$SPLINETYPE
 70
     6
  9
$SPLINESEGS
 70
     8
  9
$HANDSEED
  5
207
  9
$SURFTAB1
 70
     6
  9
$SURFTAB2
 70
     6
  9
$SURFTYPE
 70
     6
  9
$SURFU
 70
     6
  9
$SURFV
 70
     6
  9
$UCSBASE
  2

  9
$UCSNAME
  2

  9
$UCSORG
 10
0.0
 20
0.0
 30
0.0
  9
$UCSXDIR
 10
1.0
 20
0.0
 30
0.0
  9
$UCSYDIR
 10
0.0
 20
1.0
 30
0.0
  9
$UCSORTHOREF
  2

  9
$UCSORTHOVIEW
 70
     0
  9
$UCSORGTOP
 10
0.0
 20
0.0
 30
0.0
  9
$UCSORGBOTTOM
 10
0.0
 20
0.0
 30
0.0
  9
$UCSORGLEFT
 10
0.0
 20
0.0
 30
0.0
  9
$UCSORGRIGHT
 10
0.0
 20
0.0
 30
0.0
  9
$UCSORGFRONT
 10
0.0
 20
0.0
 30
0.0
  9
$UCSORGBACK
 10
0.0
 20
0.0
 30
0.0
  9
$PUCSBASE
  2

  9
$PUCSNAME
  2

  9
$PUCSORG
 10
0.0
 20
0.0
 30
0.0
  9
$PUCSXDIR
 10
1.0
 20
0.0
 30
0.0
  9
$PUCSYDIR
 10
0.0
 20
1.0
 30
0.0
  9
$PUCSORTHOREF
  2

  9
$PUCSORTHOVIEW
 70
     0
  9
$PUCSORGTOP
 10
0.0
 20
0.0
 30
0.0
  9
$PUCSORGBOTTOM
 10
0.0
 20
0.0
 30
0.0
  9
$PUCSORGLEFT
 10
0.0
 20
0.0
 30
0.0
  9
$PUCSORGRIGHT
 10
0.0
 20
0.0
 30
0.0
  9
$PUCSORGFRONT
 10
0.0
 20
0.0
 30
0.0
  9
$PUCSORGBACK
 10
0.0
 20
0.0
 30
0.0
  9
$USERI1
 70
     0
  9
$USERI2
 70
     0
  9
$USERI3
 70
     0
  9
$USERI4
 70
     0
  9
$USERI5
 70
     0
  9
$USERR1
 40
0.0
  9
$USERR2
 40
0.0
  9
$USERR3
 40
0.0
  9
$USERR4
 40
0.0
  9
$USERR5
 40
0.0
  9
$WORLDVIEW
 70
     1
  9
$SHADEDGE
 70
     3
  9
$SHADEDIF
 70
    70
  9
$TILEMODE
 70
     1
  9
$MAXACTVP
 70
    64
  9
$PINSBASE
 10
0.0
 20
0.0
 30
0.0
  9
$PLIMCHECK
 70
     0
  9
$PEXTMIN
 10
1.000000000000000E+20
 20
1.000000000000000E+20
 30
1.000000000000000E+20
  9
$PEXTMAX
 10
-1.000000000000000E+20
 20
-1.000000000000000E+20
 30
-1.000000000000000E+20
  9
$PLIMMIN
 10
0.0
 20
0.0
  9
$PLIMMAX
 10
0.0
 20
0.0
  9
$UNITMODE
 70
     0
  9
$VISRETAIN
 70
     1
  9
$PLINEGEN
 70
     0
  9
$PSLTSCALE
 70
     1
  9
$TREEDEPTH
 70
  3020
  9
$CMLSTYLE
  2
Standard
  9
$CMLJUST
 70
     0
  9
$CMLSCALE
 40
20.0
  9
$PROXYGRAPHICS
 70
     1
  9
$MEASUREMENT
 70
     1
  9
$CELWEIGHT
370
    -1
  9
$ENDCAPS
280
     0
  9
$JOINSTYLE
280
     0
  9
$LWDISPLAY
290
     1
  9
$INSUNITS
 70
     4
  9
$HYPERLINKBASE
  1

  9
$STYLESHEET
  1

  9
$XEDIT
290
     1
  9
$CEPSNTYPE
380
     0
  9
$PSTYLEMODE
290
     1
  9
$FINGERPRINTGUID
  2
{27331DC4-16B3-46C8-B9AA-F19B95E65AE4}
  9
$VERSIONGUID
  2
{FAEB1C32-E019-11D5-929B-00C0DF256EC4}
  9
$EXTNAMES
290
     1
  9
$PSVPSCALE
 40
0.0
  9
$OLESTARTUP
290
     0
  0
ENDSEC
  0
SECTION
  2
CLASSES
  0
CLASS
  1
ACDBDICTIONARYWDFLT
  2
AcDbDictionaryWithDefault
  3
ObjectDBX Classes
 90
        0
280
     0
281
     0
  0
CLASS
  1
VISUALSTYLE
  2
AcDbVisualStyle
  3
ObjectDBX Classes
 90
     4095
280
     0
281
     0
  0
CLASS
  1
MATERIAL
  2
AcDbMaterial
  3
ObjectDBX Classes
 90
     1153
280
     0
281
     0
  0
CLASS
  1
SCALE
  2
AcDbScale
  3
ObjectDBX Classes
 90
     1153
280
     0
281
     0
  0
CLASS
  1
SUN
  2
AcDbSun
  3
SCENEOE
 90
     1153
280
     0
281
     0
  0
CLASS
  1
ACDBPLACEHOLDER
  2
AcDbPlaceHolder
  3
ObjectDBX Classes
 90
        0
280
     0
281
     0
  0
CLASS
  1
LAYOUT
  2
AcDbLayout
  3
ObjectDBX Classes
 90
        0
280
     0
281
     0
  0
CLASS
  1
TABLESTYLE
  2
AcDbTableStyle
  3
ObjectDBX Classes
 90
     4095
280
     0
281
     0
  0
CLASS
  1
MLEADERSTYLE
  2
AcDbMLeaderStyle
  3
ACDB_MLEADERSTYLE_CLASS
 90
     4095
280
     0
281
     0
  0
CLASS
  1
RASTERVARIABLES
  2
AcDbRasterVariables
  3
ISM
 90
        0
280
     0
281
     0
  0
ENDSEC
  0
SECTION
  2
TABLES
  0
TABLE
  2
VPORT
  5
8
330
0
100
AcDbSymbolTable
 70
     1
  0
VPORT
  5
29
330
8
100
AcDbSymbolTableRecord
100
AcDbViewportTableRecord
  2
*Active
 70
     0
 10
0.0
 20
0.0
 11
1.0
 21
1.0
 12
54.34583333333387
 22
7.326596305594165
 13
0.0
 23
0.0
 14
10.0
 24
10.0
 15
10.0
 25
10.0
 16
0.0
 26
0.0
 36
1.0
 17
0.0
 27
0.0
 37
0.0
 40
143.8612672185432
 41
1.782762691853601
 42
50.0
 43
0.0
 44
0.0
 50
0.0
 51
0.0
 71
    16
 72
  2000
 73
     1
 74
     3
 75
     0
 76
     0
 77
     0
 78
     0
281
     0
 65
     1
110
0.0
120
0.0
130
0.0
111
1.0
121
0.0
131
0.0
112
0.0
122
1.0
132
0.0
 79
     0
146
0.0
  0
ENDTAB
  0
TABLE
  2
LTYPE
  5
5
330
0
100
AcDbSymbolTable
 70
     6
  0
LTYPE
  5
14
330
5
100
AcDbSymbolTableRecord
100
AcDbLinetypeTableRecord
  2
ByBlock
 70
     0
  3

 72
    65
 73
     0
 40
0.0
  0
LTYPE
  5
15
330
5
100
AcDbSymbolTableRecord
100
AcDbLinetypeTableRecord
  2
ByLayer
 70
     0
  3

 72
    65
 73
     0
 40
0.0
  0
LTYPE
  5
16
330
5
100
AcDbSymbolTableRecord
100
AcDbLinetypeTableRecord
  2
Continuous
 70
     0
  3
Solid line
 72
    65
 73
     0
 40
0.0
  0
LTYPE
  5
6A
330
5
100
AcDbSymbolTableRecord
100
AcDbLinetypeTableRecord
  2
HIDDEN
 70
     0
  3
Hidden __ __ __ __ __ __ __ __ __ __ __ __ __ __
 72
    65
 73
     2
 40
1.905
 49
1.27
 74
     0
 49
-0.635
 74
     0
  0
LTYPE
  5
6B
330
5
100
AcDbSymbolTableRecord
100
AcDbLinetypeTableRecord
  2
PHANTOM
 70
     0
  3
Phantom ______  __  __  ______  __  __  ______
 72
    65
 73
     6
 40
12.7
 49
6.35
 74
     0
 49
-1.27
 74
     0
 49
1.27
 74
     0
 49
-1.27
 74
     0
 49
1.27
 74
     0
 49
-1.27
 74
     0
  0
LTYPE
  5
6C
330
5
100
AcDbSymbolTableRecord
100
AcDbLinetypeTableRecord
  2
CENTER
 70
     0
  3
Center ____ _ ____ _ ____ _ ____ _ ____ _ ____
 72
    65
 73
     4
 40
10.16
 49
6.35
 74
     0
 49
-1.27
 74
     0
 49
1.27
 74
     0
 49
-1.27
 74
     0
  0
LTYPE
  5
6D
330
5
100
AcDbSymbolTableRecord
100
AcDbLinetypeTableRecord
  2
CENTERX2
 70
     0
  3
Center (2x) ________  __  ________  __  _____
 72
    65
 73
     4
 40
20.32
 49
12.7
 74
     0
 49
-2.54
 74
     0
 49
2.54
 74
     0
 49
-2.54
 74
     0
  0
LTYPE
  5
6E
330
5
100
AcDbSymbolTableRecord
100
AcDbLinetypeTableRecord
  2
DOT2
 70
     0
  3
Dot (.5x) ........................................
 72
    65
 73
     2
 40
0.635
 49
0.0
 74
     0
 49
-0.635
 74
     0
  0
ENDTAB
  0
TABLE
  2
LAYER
  5
2
102
{ACAD_XDICTIONARY
360
182
102
}
330
0
100
AcDbSymbolTable
 70
    18
  0
LAYER
  5
10
330
2
100
AcDbSymbolTableRecord
100
AcDbLayerTableRecord
  2
0
 70
     0
 62
     7
  6
Continuous
370
    -3
390
F
  0
LAYER
  5
6F
330
2
100
AcDbSymbolTableRecord
100
AcDbLayerTableRecord
  2
FORMAT
 70
     0
 62
     2
  6
Continuous
370
    -3
390
F
  0
LAYER
  5
70
330
2
100
AcDbSymbolTableRecord
100
AcDbLayerTableRecord
  2
외형선
 70
     0
 62
     4
  6
Continuous
370
    30
390
F
  0
LAYER
  5
71
330
2
100
AcDbSymbolTableRecord
100
AcDbLayerTableRecord
  2
숨은선
 70
     0
 62
     2
  6
HIDDEN
370
    15
390
F
  0
LAYER
  5
72
330
2
100
AcDbSymbolTableRecord
100
AcDbLayerTableRecord
  2
중심선
 70
     0
 62
     1
  6
CENTERX2
370
    -3
390
F
  0
LAYER
  5
73
330
2
100
AcDbSymbolTableRecord
100
AcDbLayerTableRecord
  2
파단선
 70
     0
 62
     4
  6
Continuous
370
    -3
390
F
  0
LAYER
  5
74
330
2
100
AcDbSymbolTableRecord
100
AcDbLayerTableRecord
  2
해칭선
 70
     0
 62
   100
  6
Continuous
370
    -3
390
F
  0
LAYER
  5
75
330
2
100
AcDbSymbolTableRecord
100
AcDbLayerTableRecord
  2
가는실선
 70
     0
 62
     4
  6
Continuous
370
    -3
390
F
  0
LAYER
  5
76
330
2
100
AcDbSymbolTableRecord
100
AcDbLayerTableRecord
  2
치수_보조선
 70
     0
 62
     4
  6
Continuous
370
    -3
390
F
  0
LAYER
  5
77
330
2
100
AcDbSymbolTableRecord
100
AcDbLayerTableRecord
  2
치수문자_일반주서
 70
     0
 62
     7
  6
Continuous
370
    15
390
F
  0
LAYER
  5
78
330
2
100
AcDbSymbolTableRecord
100
AcDbLayerTableRecord
  2
개별주서
 70
     0
 62
   100
  6
Continuous
370
    30
390
F
  0
LAYER
  5
79
330
2
100
AcDbSymbolTableRecord
100
AcDbLayerTableRecord
  2
중간선
 70
     0
 62
     2
  6
Continuous
370
    15
390
F
  0
LAYER
  5
7A
330
2
100
AcDbSymbolTableRecord
100
AcDbLayerTableRecord
  2
윤곽선
 70
     0
 62
     3
  6
Continuous
370
    40
390
F
  0
LAYER
  5
7B
330
2
100
AcDbSymbolTableRecord
100
AcDbLayerTableRecord
  2
중심마크
 70
     0
 62
   100
  6
Continuous
370
    30
390
F
  0
LAYER
  5
7C
330
2
100
AcDbSymbolTableRecord
100
AcDbLayerTableRecord
  2
가상선
 70
     0
 62
     4
  6
PHANTOM
370
    -3
390
F
  0
LAYER
  5
7D
330
2
100
AcDbSymbolTableRecord
100
AcDbLayerTableRecord
  2
특수지정선
 70
     0
 62
     5
  6
CENTERX2
370
    60
390
F
  0
LAYER
  5
7E
330
2
100
AcDbSymbolTableRecord
100
AcDbLayerTableRecord
  2
참조1
 70
     0
 62
    -4
  6
Continuous
370
    -3
390
F
  0
LAYER
  5
14E
330
2
100
AcDbSymbolTableRecord
100
AcDbLayerTableRecord
  2
Defpoints
 70
     0
 62
     7
  6
Continuous
290
     0
370
    -3
390
F
  0
ENDTAB
  0
TABLE
  2
STYLE
  5
3
330
0
100
AcDbSymbolTable
 70
     2
  0
STYLE
  5
11
330
3
100
AcDbSymbolTableRecord
100
AcDbTextStyleTableRecord
  2
Standard
 70
     0
 40
0.0
 41
1.0
 50
0.0
 71
     0
 42
3.5
  3
txt
  4

  0
STYLE
  5
94
330
3
100
AcDbSymbolTableRecord
100
AcDbTextStyleTableRecord
  2
SLDTEXTSTYLE0
 70
     0
 40
0.0
 41
0.75
 50
0.0
 71
     0
 42
3.5
  3
TXT
  4

  0
ENDTAB
  0
TABLE
  2
VIEW
  5
6
330
0
100
AcDbSymbolTable
 70
     0
  0
ENDTAB
  0
TABLE
  2
UCS
  5
7
330
0
100
AcDbSymbolTable
 70
     0
  0
ENDTAB
  0
TABLE
  2
APPID
  5
9
330
0
100
AcDbSymbolTable
 70
     2
  0
APPID
  5
12
330
9
100
AcDbSymbolTableRecord
100
AcDbRegAppTableRecord
  2
ACAD
 70
     0
  0
APPID
  5
155
330
9
100
AcDbSymbolTableRecord
100
AcDbRegAppTableRecord
  2
PE_URL
 70
     0
  0
ENDTAB
  0
TABLE
  2
DIMSTYLE
  5
A
330
0
100
AcDbSymbolTable
 70
     4
100
AcDbDimStyleTable
  0
DIMSTYLE
105
27
330
A
100
AcDbSymbolTableRecord
100
AcDbDimStyleTableRecord
  2
ISO-25
 70
     0
 41
2.5
 42
0.625
 43
3.75
 44
1.25
 73
     0
 74
     0
 77
     1
 78
     8
140
2.5
141
2.5
143
0.03937007874016
147
0.625
171
     3
172
     1
178
     0
271
     2
272
     2
274
     3
278
    44
283
     0
284
     8
340
11
  0
DIMSTYLE
105
D0
330
A
100
AcDbSymbolTableRecord
100
AcDbDimStyleTableRecord
  2
SLDDIMSTYLE0
 70
     0
 41
3.302
 44
0.0
 45
0.000000001
 73
     0
 74
     0
 77
     1
 78
     4
 79
     1
140
3.5
143
0.0393700787401575
147
0.875
148
0.000000001
170
     1
173
     1
178
     0
271
     2
272
     2
276
     2
284
    12
340
94
  0
DIMSTYLE
105
F8
330
A
100
AcDbSymbolTableRecord
100
AcDbDimStyleTableRecord
  2
SLDDIMSTYLE1
 70
     0
 41
3.302
 44
0.0
 45
0.000000001
 73
     0
 74
     0
 77
     1
 78
    12
 79
     3
140
3.5
143
0.0393700787401575
147
0.875
148
0.000000001
170
     1
173
     1
178
     0
271
     2
272
     2
276
     2
284
    12
340
94
  0
DIMSTYLE
105
153
102
{ACAD_REACTORS
330
CF
330
10A
330
E4
330
F7
102
}
330
A
100
AcDbSymbolTableRecord
100
AcDbDimStyleTableRecord
  2
SLDDIMSTYLE2
 70
     0
 41
3.302
 44
0.0
 45
0.000000001
 73
     0
 74
     0
 77
     1
 78
    12
 79
     3
140
3.5
143
0.0393700787401575
147
0.875
148
0.000000001
170
     1
172
     1
173
     1
178
     0
271
     2
272
     2
276
     2
284
    12
289
     0
340
94
  0
ENDTAB
  0
TABLE
  2
BLOCK_RECORD
  5
1
330
0
100
AcDbSymbolTable
 70
     9
  0
BLOCK_RECORD
  5
1F
330
1
100
AcDbSymbolTableRecord
100
AcDbBlockTableRecord
  2
*Model_Space
340
22
  0
BLOCK_RECORD
  5
1B
330
1
100
AcDbSymbolTableRecord
100
AcDbBlockTableRecord
  2
*Paper_Space
340
1E
  0
BLOCK_RECORD
  5
23
330
1
100
AcDbSymbolTableRecord
100
AcDbBlockTableRecord
  2
*Paper_Space0
340
26
  0
BLOCK_RECORD
  5
7F
330
1
100
AcDbSymbolTableRecord
100
AcDbBlockTableRecord
  2
블럭10
340
0
102
{BLKREFS
331
C8
102
}
  0
BLOCK_RECORD
  5
D1
330
1
100
AcDbSymbolTableRecord
100
AcDbBlockTableRecord
  2
_D
340
0
  0
BLOCK_RECORD
  5
E5
330
1
100
AcDbSymbolTableRecord
100
AcDbBlockTableRecord
  2
_D_1
340
0
  0
BLOCK_RECORD
  5
F9
330
1
100
AcDbSymbolTableRecord
100
AcDbBlockTableRecord
  2
_D_2
340
0
  0
BLOCK_RECORD
  5
10B
330
1
100
AcDbSymbolTableRecord
100
AcDbBlockTableRecord
  2
_D_3
340
0
  0
BLOCK_RECORD
  5
124
330
1
100
AcDbSymbolTableRecord
100
AcDbBlockTableRecord
  2
SW_DOWELSYMBOL_0
340
0
102
{BLKREFS
331
12A
102
}
  0
BLOCK_RECORD
  5
186
330
1
100
AcDbSymbolTableRecord
100
AcDbBlockTableRecord
  2
*D7
340
0
  0
BLOCK_RECORD
  5
195
330
1
100
AcDbSymbolTableRecord
100
AcDbBlockTableRecord
  2
*D8
340
0
  0
ENDTAB
  0
ENDSEC
  0
SECTION
  2
BLOCKS
  0
BLOCK
  5
20
330
1F
100
AcDbEntity
  8
0
100
AcDbBlockBegin
  2
*Model_Space
 70
     0
 10
0.0
 20
0.0
 30
0.0
  3
*Model_Space
  1
*Model_Space
  0
ENDBLK
  5
21
330
1F
100
AcDbEntity
  8
0
100
AcDbBlockEnd
  0
BLOCK
  5
1C
330
1B
100
AcDbEntity
 67
     1
  8
0
100
AcDbBlockBegin
  2
*Paper_Space
 70
     0
 10
0.0
 20
0.0
 30
0.0
  3
*Paper_Space
  1
*Paper_Space
  0
ENDBLK
  5
1D
330
1B
100
AcDbEntity
 67
     1
  8
0
100
AcDbBlockEnd
  0
BLOCK
  5
24
330
23
100
AcDbEntity
  8
0
100
AcDbBlockBegin
  2
*Paper_Space0
 70
     0
 10
0.0
 20
0.0
 30
0.0
  3
*Paper_Space0
  1
*Paper_Space0
  0
ENDBLK
  5
25
330
23
100
AcDbEntity
  8
0
100
AcDbBlockEnd
  0
BLOCK
  5
80
330
7F
100
AcDbEntity
  8
0
100
AcDbBlockBegin
  2
블럭10
 70
     2
 10
0.0
 20
0.0
 30
0.0
  3
블럭10
  1
블럭10
  0
ELLIPSE
  5
82
330
7F
100
AcDbEntity
  8
중심선
100
AcDbEllipse
 10
20.54032771741204
 20
12.0471743016438
 30
0.0
 11
6.600054785286829
 21
-1.261213355974178E-13
 31
0.0
210
0.0
220
0.0
230
1.0
 40
0.636358354079598
 41
0.9219305317359503
 42
6.513795318482858
  0
ELLIPSE
  5
83
330
7F
100
AcDbEntity
  8
중심선
100
AcDbEllipse
 10
20.54032771746488
 20
12.04717430159265
 30
0.0
 11
3.960054785062283
 21
1.540847449632565E-10
 31
0.0
210
0.0
220
0.0
230
1.0
 40
0.3939339440162632
 41
1.131841032648279
 42
5.62031148352944
  0
LINE
  5
84
330
7F
100
AcDbEntity
  8
중심선
100
AcDbLine
 10
2.268634060543552
 20
16.24717430164393
 30
0.0
 11
5.714909304380834
 21
16.24717430164393
 31
0.0
  0
LINE
  5
85
330
7F
100
AcDbEntity
  8
중심선
100
AcDbLine
 10
5.245725140726316
 20
7.84717430164391
 30
0.0
 11
8.692000384563599
 21
7.84717430164391
 31
0.0
  0
LINE
  5
86
330
7F
100
AcDbEntity
  8
중심선
100
AcDbLine
 10
15.74043728645272
 20
16.24717430164393
 30
0.0
 11
8.692000384563599
 21
7.84717430164391
 31
0.0
  0
LINE
  5
87
330
7F
100
AcDbEntity
  8
중심선
100
AcDbLine
 10
0.1404042013395286
 20
13.71084872107135
 30
0.0
 11
3.58671253028996
 21
13.71088815037384
 31
0.0
  0
LINE
  5
88
330
7F
100
AcDbEntity
  8
중심선
100
AcDbLine
 10
2.750260043222114
 20
10.84717430164391
 30
0.0
 11
6.196535287059397
 21
10.84717430164391
 31
0.0
  0
LINE
  5
89
330
7F
100
AcDbEntity
  8
중심선
100
AcDbLine
 10
12.29416204261559
 20
16.24717430164393
 30
0.0
 11
5.245725140726316
 21
7.84717430164391
 31
0.0
  0
LINE
  5
8A
330
7F
100
AcDbEntity
  8
중심선
100
AcDbLine
 10
10.72767329541681
 20
16.24717430164393
 30
0.0
 11
6.196535287059397
 21
10.84717430164391
 31
0.0
  0
LINE
  5
8B
330
7F
100
AcDbEntity
  8
중심선
100
AcDbLine
 10
7.28139805157953
 20
16.24717430164393
 30
0.0
 11
2.750260043222114
 21
10.84717430164391
 31
0.0
  0
LINE
  5
8C
330
7F
100
AcDbEntity
  8
중심선
100
AcDbLine
 10
5.714909304380834
 20
16.24717430164393
 30
0.0
 11
3.58671253028996
 21
13.71088815037384
 31
0.0
  0
LINE
  5
8D
330
7F
100
AcDbEntity
  8
중심선
100
AcDbLine
 10
2.268634060543552
 20
16.24717430164393
 30
0.0
 11
0.1404042013395286
 21
13.71084872107135
 31
0.0
  0
LINE
  5
8E
330
7F
100
AcDbEntity
  8
중심선
100
AcDbLine
 10
7.28139805157953
 20
16.24717430164393
 30
0.0
 11
10.72767329541681
 21
16.24717430164393
 31
0.0
  0
LINE
  5
8F
330
7F
100
AcDbEntity
  8
중심선
100
AcDbLine
 10
12.29416204261559
 20
16.24717430164393
 30
0.0
 11
15.74043728645272
 21
16.24717430164393
 31
0.0
  0
LINE
  5
90
330
7F
100
AcDbEntity
  8
중심선
100
AcDbLine
 10
19.22036997980202
 20
11.08717430171403
 30
0.0
 11
23.66174974927406
 21
11.08717430171406
 31
0.0
  0
LINE
  5
91
330
7F
100
AcDbEntity
  8
중심선
100
AcDbLine
 10
19.22039502424796
 20
13.00717430171391
 30
0.0
 11
19.22036997980202
 21
11.08717430171403
 31
0.0
  0
LINE
  5
92
330
7F
100
AcDbEntity
  8
중심선
100
AcDbLine
 10
19.22039502424796
 20
13.00717430171391
 30
0.0
 11
26.96566020931264
 21
13.00717430171391
 31
0.0
  0
LINE
  5
93
330
7F
100
AcDbEntity
  8
중심선
100
AcDbLine
 10
22.22332737316547
 20
13.45928029700563
 30
0.0
 11
24.52862924686651
 21
15.39360700705356
 31
0.0
  0
ATTDEF
  5
95
330
7F
100
AcDbEntity
  8
FORMAT
 62
     2
100
AcDbText
 10
4.408487351596664
 20
2.075366912832191
 30
0.0
 40
4.233333333333333
  1
E1041116
 41
0.75
  7
SLDTEXTSTYLE0
 11
4.408487351596664
 21
-0.0412997538344756
 31
0.0
100
AcDbAttributeDefinition
  3

  2
AUTOATTR0
 70
     0
 74
     1
  0
ENDBLK
  5
81
330
7F
100
AcDbEntity
  8
0
100
AcDbBlockEnd
  0
BLOCK
  5
D2
330
D1
100
AcDbEntity
  8
0
100
AcDbBlockBegin
  2
_D
 70
     0
 10
0.0
 20
0.0
 30
0.0
  3
_D
  1
_D
  0
LINE
  5
D4
330
D1
100
AcDbEntity
  8
치수문자_일반주서
 62
     0
370
    -2
100
AcDbLine
 10
164.4000000000005
 20
15.93750000000002
 30
0.0
 11
164.4000000000005
 21
30.87706057025608
 31
0.0
  0
LINE
  5
D5
330
D1
100
AcDbEntity
  8
치수문자_일반주서
 62
     0
370
    -2
100
AcDbLine
 10
12.00000000000053
 20
15.2153558277655
 30
0.0
 11
12.00000000000053
 21
30.87706057025608
 31
0.0
  0
LINE
  5
D6
330
D1
100
AcDbEntity
  8
치수문자_일반주서
 62
     0
370
    -2
100
AcDbLine
 10
160.4000000000005
 20
30.87706057025608
 30
0.0
 11
16.00000000000053
 21
30.87706057025608
 31
0.0
  0
SOLID
  5
D7
330
D1
100
AcDbEntity
  8
치수문자_일반주서
 62
     0
100
AcDbTrace
 10
160.4000000000005
 20
30.21039390358941
 30
0.0
 11
160.4000000000005
 21
31.54372723692275
 31
0.0
 12
164.4000000000005
 22
30.87706057025608
 32
0.0
 13
164.4000000000005
 23
30.87706057025608
 33
0.0
  0
SOLID
  5
D8
330
D1
100
AcDbEntity
  8
치수문자_일반주서
 62
     0
100
AcDbTrace
 10
16.00000000000053
 20
31.54372723692275
 30
0.0
 11
16.00000000000053
 21
30.21039390358941
 31
0.0
 12
12.00000000000053
 22
30.87706057025608
 32
0.0
 13
12.00000000000053
 23
30.87706057025608
 33
0.0
  0
MTEXT
  5
D9
330
D1
100
AcDbEntity
  8
치수문자_일반주서
 62
     0
100
AcDbMText
 10
88.2000000000005
 20
35.75206057025608
 30
0.0
 40
4.0
 41
0.0
 71
     2
 72
     1
  1
\A1;152.4 [6]
  7
SLDTEXTSTYLE0
 73
     1
 44
1.0
  0
POINT
  5
DA
330
D1
100
AcDbEntity
  8
Defpoints
 62
     0
100
AcDbPoint
 10
164.4000000000005
 20
15.87500000000002
 30
0.0
  0
POINT
  5
DB
330
D1
100
AcDbEntity
  8
Defpoints
 62
     0
100
AcDbPoint
 10
12.00000000000053
 20
15.1528558277655
 30
0.0
  0
POINT
  5
DC
330
D1
100
AcDbEntity
  8
Defpoints
 62
     0
100
AcDbPoint
 10
12.00000000000053
 20
30.87706057025608
 30
0.0
  0
ENDBLK
  5
D3
330
D1
100
AcDbEntity
  8
0
100
AcDbBlockEnd
  0
BLOCK
  5
E6
330
E5
100
AcDbEntity
  8
0
100
AcDbBlockBegin
  2
_D_1
 70
     0
 10
0.0
 20
0.0
 30
0.0
  3
_D_1
  1
_D_1
  0
LINE
  5
E8
330
E5
100
AcDbEntity
  8
치수문자_일반주서
 62
     0
370
    -2
100
AcDbLine
 10
164.4000000000005
 20
15.93750000000002
 30
0.0
 11
164.4000000000005
 21
45.87500000000001
 31
0.0
  0
LINE
  5
E9
330
E5
100
AcDbEntity
  8
치수문자_일반주서
 62
     0
370
    -2
100
AcDbLine
 10
-51.49999999999947
 20
14.0325
 30
0.0
 11
-51.49999999999947
 21
45.87500000000001
 31
0.0
  0
LINE
  5
EA
330
E5
100
AcDbEntity
  8
치수문자_일반주서
 62
     0
370
    -2
100
AcDbLine
 10
160.4000000000005
 20
45.87500000000001
 30
0.0
 11
-47.49999999999947
 21
45.87500000000001
 31
0.0
  0
SOLID
  5
EB
330
E5
100
AcDbEntity
  8
치수문자_일반주서
 62
     0
100
AcDbTrace
 10
160.4000000000005
 20
45.20833333333335
 30
0.0
 11
160.4000000000005
 21
46.54166666666668
 31
0.0
 12
164.4000000000005
 22
45.87500000000001
 32
0.0
 13
164.4000000000005
 23
45.87500000000001
 33
0.0
  0
SOLID
  5
EC
330
E5
100
AcDbEntity
  8
치수문자_일반주서
 62
     0
100
AcDbTrace
 10
-47.49999999999947
 20
46.54166666666668
 30
0.0
 11
-47.49999999999947
 21
45.20833333333335
 31
0.0
 12
-51.49999999999947
 22
45.87500000000001
 32
0.0
 13
-51.49999999999947
 23
45.87500000000001
 33
0.0
  0
MTEXT
  5
ED
330
E5
100
AcDbEntity
  8
치수문자_일반주서
 62
     0
100
AcDbMText
 10
56.45000000000055
 20
50.75000000000001
 30
0.0
 40
4.0
 41
0.0
 71
     2
 72
     1
  1
\A1;215.9 [8 1/2]
  7
SLDTEXTSTYLE0
 73
     1
 44
1.0
  0
POINT
  5
EE
330
E5
100
AcDbEntity
  8
Defpoints
 62
     0
100
AcDbPoint
 10
164.4000000000005
 20
15.87500000000002
 30
0.0
  0
POINT
  5
EF
330
E5
100
AcDbEntity
  8
Defpoints
 62
     0
100
AcDbPoint
 10
-51.49999999999947
 20
13.97
 30
0.0
  0
POINT
  5
F0
330
E5
100
AcDbEntity
  8
Defpoints
 62
     0
100
AcDbPoint
 10
-51.49999999999947
 20
45.87500000000001
 30
0.0
  0
ENDBLK
  5
E7
330
E5
100
AcDbEntity
  8
0
100
AcDbBlockEnd
  0
BLOCK
  5
FA
330
F9
100
AcDbEntity
  8
0
100
AcDbBlockBegin
  2
_D_2
 70
     0
 10
0.0
 20
0.0
 30
0.0
  3
_D_2
  1
_D_2
  0
LINE
  5
FC
330
F9
100
AcDbEntity
  8
치수문자_일반주서
 62
     0
370
    -2
100
AcDbLine
 10
-36.95749999999948
 20
15.87499999999998
 30
0.0
 11
-66.49999999999947
 21
15.87499999999987
 31
0.0
  0
LINE
  5
FD
330
F9
100
AcDbEntity
  8
치수문자_일반주서
 62
     0
370
    -2
100
AcDbLine
 10
-48.38749999999946
 20
-15.875
 30
0.0
 11
-66.49999999999936
 21
-15.87500000000007
 31
0.0
  0
LINE
  5
FE
330
F9
100
AcDbEntity
  8
치수문자_일반주서
 62
     0
370
    -2
100
AcDbLine
 10
-66.49999999999947
 20
15.87499999999987
 30
0.0
 11
-66.49999999999964
 21
59.62499999999994
 31
0.0
  0
LINE
  5
FF
330
F9
100
AcDbEntity
  8
치수문자_일반주서
 62
     0
370
    -2
100
AcDbLine
 10
-66.49999999999947
 20
15.87499999999987
 30
0.0
 11
-66.49999999999936
 21
-15.87500000000007
 31
0.0
  0
LINE
  5
100
330
F9
100
AcDbEntity
  8
치수문자_일반주서
 62
     0
370
    -2
100
AcDbLine
 10
-66.49999999999949
 20
19.87499999999987
 30
0.0
 11
-66.4999999999995
 21
23.87499999999987
 31
0.0
  0
LINE
  5
101
330
F9
100
AcDbEntity
  8
치수문자_일반주서
 62
     0
370
    -2
100
AcDbLine
 10
-66.49999999999935
 20
-19.87500000000007
 30
0.0
 11
-66.49999999999933
 21
-23.87500000000007
 31
0.0
  0
SOLID
  5
102
330
F9
100
AcDbEntity
  8
치수문자_일반주서
 62
     0
100
AcDbTrace
 10
-67.16666666666616
 20
19.87499999999987
 30
0.0
 11
-65.83333333333282
 21
19.87499999999988
 31
0.0
 12
-66.49999999999947
 22
15.87499999999987
 32
0.0
 13
-66.49999999999947
 23
15.87499999999987
 33
0.0
  0
SOLID
  5
103
330
F9
100
AcDbEntity
  8
치수문자_일반주서
 62
     0
100
AcDbTrace
 10
-65.83333333333267
 20
-19.87500000000007
 30
0.0
 11
-67.16666666666602
 21
-19.87500000000007
 31
0.0
 12
-66.49999999999936
 22
-15.87500000000007
 32
0.0
 13
-66.49999999999936
 23
-15.87500000000007
 33
0.0
  0
MTEXT
  5
104
330
F9
100
AcDbEntity
  8
치수문자_일반주서
 62
     0
100
AcDbMText
 10
-71.37499999999957
 20
41.74999999999993
 30
0.0
 40
4.0
 41
0.0
 71
     2
 72
     1
  1
\A1;%%c31.75 [1 1/4]
  7
SLDTEXTSTYLE0
 11
-3.580687802255629E-15
 21
1.0
 31
0.0
 73
     1
 44
1.0
  0
POINT
  5
1A5
330
F9
100
AcDbEntity
  8
Defpoints
 62
     0
100
AcDbPoint
 10
-36.89499999999948
 20
15.87499999999998
 30
0.0
  0
POINT
  5
1A6
330
F9
100
AcDbEntity
  8
Defpoints
 62
     0
100
AcDbPoint
 10
-48.32499999999946
 20
-15.875
 30
0.0
  0
POINT
  5
1A7
330
F9
100
AcDbEntity
  8
Defpoints
 62
     0
100
AcDbPoint
 10
-66.49999999999937
 20
-15.87500000000007
 30
0.0
  0
ENDBLK
  5
FB
330
F9
100
AcDbEntity
  8
0
100
AcDbBlockEnd
  0
BLOCK
  5
10C
330
10B
100
AcDbEntity
  8
0
100
AcDbBlockBegin
  2
_D_3
 70
     0
 10
0.0
 20
0.0
 30
0.0
  3
_D_3
  1
_D_3
  0
LINE
  5
10E
330
10B
100
AcDbEntity
  8
치수문자_일반주서
 62
     0
370
    -2
100
AcDbLine
 10
164.4625000000005
 20
-15.87499999999998
 30
0.0
 11
179.4000000000007
 21
-15.87499999999993
 31
0.0
  0
LINE
  5
10F
330
10B
100
AcDbEntity
  8
치수문자_일반주서
 62
     0
370
    -2
100
AcDbLine
 10
164.4625000000005
 20
15.87500000000002
 30
0.0
 11
179.4000000000005
 21
15.87500000000008
 31
0.0
  0
LINE
  5
110
330
10B
100
AcDbEntity
  8
치수문자_일반주서
 62
     0
370
    -2
100
AcDbLine
 10
179.4000000000005
 20
15.87500000000008
 30
0.0
 11
179.4000000000004
 21
64.62500000000007
 31
0.0
  0
LINE
  5
111
330
10B
100
AcDbEntity
  8
치수문자_일반주서
 62
     0
370
    -2
100
AcDbLine
 10
179.4000000000007
 20
-15.87499999999993
 30
0.0
 11
179.4000000000005
 21
15.87500000000008
 31
0.0
  0
LINE
  5
112
330
10B
100
AcDbEntity
  8
치수문자_일반주서
 62
     0
370
    -2
100
AcDbLine
 10
179.4000000000007
 20
-19.87499999999993
 30
0.0
 11
179.4000000000007
 21
-23.87499999999993
 31
0.0
  0
LINE
  5
113
330
10B
100
AcDbEntity
  8
치수문자_일반주서
 62
     0
370
    -2
100
AcDbLine
 10
179.4000000000005
 20
19.87500000000008
 30
0.0
 11
179.4000000000005
 21
23.87500000000008
 31
0.0
  0
SOLID
  5
114
330
10B
100
AcDbEntity
  8
치수문자_일반주서
 62
     0
100
AcDbTrace
 10
180.0666666666673
 20
-19.87499999999993
 30
0.0
 11
178.733333333334
 21
-19.87499999999993
 31
0.0
 12
179.4000000000007
 22
-15.87499999999993
 32
0.0
 13
179.4000000000007
 23
-15.87499999999993
 33
0.0
  0
SOLID
  5
115
330
10B
100
AcDbEntity
  8
치수문자_일반주서
 62
     0
100
AcDbTrace
 10
178.7333333333339
 20
19.87500000000007
 30
0.0
 11
180.0666666666672
 21
19.87500000000008
 31
0.0
 12
179.4000000000005
 22
15.87500000000008
 32
0.0
 13
179.4000000000005
 23
15.87500000000008
 33
0.0
  0
MTEXT
  5
116
330
10B
100
AcDbEntity
  8
치수문자_일반주서
 62
     0
100
AcDbMText
 10
174.5250000000004
 20
46.75000000000006
 30
0.0
 40
4.0
 41
0.0
 71
     2
 72
     1
  1
\A1;%%c31.75 [1 1/4]
  7
SLDTEXTSTYLE0
 11
-3.580687802255623E-15
 21
1.0
 31
0.0
 73
     1
 44
1.0
  0
POINT
  5
117
330
10B
100
AcDbEntity
  8
Defpoints
 62
     0
100
AcDbPoint
 10
164.4000000000005
 20
-15.87499999999998
 30
0.0
  0
POINT
  5
118
330
10B
100
AcDbEntity
  8
Defpoints
 62
     0
100
AcDbPoint
 10
164.4000000000005
 20
15.87500000000002
 30
0.0
  0
POINT
  5
119
330
10B
100
AcDbEntity
  8
Defpoints
 62
     0
100
AcDbPoint
 10
179.4000000000005
 20
15.87500000000008
 30
0.0
  0
ENDBLK
  5
10D
330
10B
100
AcDbEntity
  8
0
100
AcDbBlockEnd
  0
BLOCK
  5
125
330
124
100
AcDbEntity
  8
0
100
AcDbBlockBegin
  2
SW_DOWELSYMBOL_0
 70
     0
 10
0.0
 20
0.0
 30
0.0
  3
SW_DOWELSYMBOL_0
  1
SW_DOWELSYMBOL_0
  0
CIRCLE
  5
127
330
124
100
AcDbEntity
  8
해칭선
 62
     0
100
AcDbCircle
 10
0.0
 20
0.0
 30
0.0
 40
3.000000000000001
  0
HATCH
  5
128
330
124
100
AcDbEntity
  8
0
  6
Continuous
 62
     0
370
     0
100
AcDbHatch
 10
0.0
 20
0.0
 30
0.0
210
0.0
220
0.0
230
1.0
  2
SOLID
 70
     1
 71
     0
 91
        1
 92
        0
 93
        3
 72
     2
 10
0.0
 20
0.0
 40
3.000000000000001
 50
0.0
 51
90.0
 73
     1
 72
     1
 10
0.0
 20
3.000000000000001
 11
0.0
 21
0.0
 72
     1
 10
0.0
 20
0.0
 11
3.000000000000001
 21
0.0
 97
        0
 75
     0
 76
     1
 98
        1
 10
0.0
 20
0.0
  0
HATCH
  5
129
330
124
100
AcDbEntity
  8
0
  6
Continuous
 62
     0
370
     0
100
AcDbHatch
 10
0.0
 20
0.0
 30
0.0
210
0.0
220
0.0
230
1.0
  2
SOLID
 70
     1
 71
     0
 91
        1
 92
        0
 93
        3
 72
     2
 10
0.0
 20
0.0
 40
3.000000000000001
 50
180.0
 51
270.0000000000007
 73
     1
 72
     1
 10
0.0
 20
-3.000000000000001
 11
0.0
 21
0.0
 72
     1
 10
0.0
 20
0.0
 11
-3.000000000000001
 21
0.0
 97
        0
 75
     0
 76
     1
 98
        1
 10
0.0
 20
0.0
  0
ENDBLK
  5
126
330
124
100
AcDbEntity
  8
0
100
AcDbBlockEnd
  0
BLOCK
  5
187
330
186
100
AcDbEntity
  8
0
100
AcDbBlockBegin
  2
*D7
 70
     1
 10
0.0
 20
0.0
 30
0.0
  3
*D7
  1
*D7
  0
LINE
  5
189
330
186
100
AcDbEntity
  8
치수문자_일반주서
 62
     0
370
    -2
100
AcDbLine
 10
101.6
 20
19.11042687965192
 30
0.0
 11
101.6
 21
34.06166322180555
 31
0.0
  0
LINE
  5
18A
330
186
100
AcDbEntity
  8
치수문자_일반주서
 62
     0
370
    -2
100
AcDbLine
 10
0.0
 20
19.10320055888108
 30
0.0
 11
0.0
 21
34.06166322180555
 31
0.0
  0
LINE
  5
18B
330
186
100
AcDbEntity
  8
치수문자_일반주서
 62
     0
370
    -2
100
AcDbLine
 10
97.6
 20
34.06166322180555
 30
0.0
 11
4.0
 21
34.06166322180555
 31
0.0
  0
SOLID
  5
18C
330
186
100
AcDbEntity
  8
치수문자_일반주서
 62
     0
100
AcDbTrace
 10
97.6
 20
33.39499655513889
 30
0.0
 11
97.6
 21
34.72832988847222
 31
0.0
 12
101.6
 22
34.06166322180555
 32
0.0
 13
101.6
 23
34.06166322180555
 33
0.0
  0
SOLID
  5
18D
330
186
100
AcDbEntity
  8
치수문자_일반주서
 62
     0
100
AcDbTrace
 10
4.0
 20
34.72832988847222
 30
0.0
 11
4.0
 21
33.39499655513889
 31
0.0
 12
0.0
 22
34.06166322180555
 32
0.0
 13
0.0
 23
34.06166322180555
 33
0.0
  0
MTEXT
  5
18E
330
186
100
AcDbEntity
  8
치수문자_일반주서
 62
     0
100
AcDbMText
 10
50.79999999999999
 20
38.93666322180555
 30
0.0
 40
4.0
 41
0.0
 71
     2
 72
     1
  1
\A1;101.6 [4]
  7
SLDTEXTSTYLE0
 73
     1
 44
1.0
  0
POINT
  5
18F
330
186
100
AcDbEntity
  8
Defpoints
 62
     0
100
AcDbPoint
 10
101.6
 20
19.04792687965192
 30
0.0
  0
POINT
  5
190
330
186
100
AcDbEntity
  8
Defpoints
 62
     0
100
AcDbPoint
 10
0.0
 20
19.04070055888108
 30
0.0
  0
POINT
  5
191
330
186
100
AcDbEntity
  8
Defpoints
 62
     0
100
AcDbPoint
 10
0.0
 20
34.06166322180555
 30
0.0
  0
ENDBLK
  5
188
330
186
100
AcDbEntity
  8
0
100
AcDbBlockEnd
  0
BLOCK
  5
196
330
195
100
AcDbEntity
  8
0
100
AcDbBlockBegin
  2
*D8
 70
     1
 10
0.0
 20
0.0
 30
0.0
  3
*D8
  1
*D8
  0
LINE
  5
198
330
195
100
AcDbEntity
  8
치수문자_일반주서
 62
     0
370
    -2
100
AcDbLine
 10
274.4434757809911
 20
-68.13335649315829
 30
0.0
 11
274.4434757809911
 21
-53.18212015100466
 31
0.0
  0
LINE
  5
199
330
195
100
AcDbEntity
  8
치수문자_일반주서
 62
     0
370
    -2
100
AcDbLine
 10
172.8434757809911
 20
-68.14058281392913
 30
0.0
 11
172.8434757809911
 21
-53.18212015100466
 31
0.0
  0
LINE
  5
19A
330
195
100
AcDbEntity
  8
치수문자_일반주서
 62
     0
370
    -2
100
AcDbLine
 10
270.4434757809911
 20
-53.18212015100466
 30
0.0
 11
176.8434757809911
 21
-53.18212015100466
 31
0.0
  0
SOLID
  5
19B
330
195
100
AcDbEntity
  8
치수문자_일반주서
 62
     0
100
AcDbTrace
 10
270.4434757809911
 20
-53.84878681767132
 30
0.0
 11
270.4434757809911
 21
-52.515453484338
 31
0.0
 12
274.4434757809911
 22
-53.18212015100466
 32
0.0
 13
274.4434757809911
 23
-53.18212015100466
 33
0.0
  0
SOLID
  5
19C
330
195
100
AcDbEntity
  8
치수문자_일반주서
 62
     0
100
AcDbTrace
 10
176.8434757809911
 20
-52.515453484338
 30
0.0
 11
176.8434757809911
 21
-53.84878681767132
 31
0.0
 12
172.8434757809911
 22
-53.18212015100466
 32
0.0
 13
172.8434757809911
 23
-53.18212015100466
 33
0.0
  0
MTEXT
  5
19D
330
195
100
AcDbEntity
  8
치수문자_일반주서
 62
     0
100
AcDbMText
 10
223.6434757809911
 20
-48.30712015100466
 30
0.0
 40
4.0
 41
0.0
 71
     2
 72
     1
  1
\A1;101.6 [4]
  7
SLDTEXTSTYLE0
 73
     1
 44
1.0
  0
POINT
  5
19E
330
195
100
AcDbEntity
  8
Defpoints
 62
     0
100
AcDbPoint
 10
274.4434757809911
 20
-68.19585649315829
 30
0.0
  0
POINT
  5
19F
330
195
100
AcDbEntity
  8
Defpoints
 62
     0
100
AcDbPoint
 10
172.8434757809911
 20
-68.20308281392913
 30
0.0
  0
POINT
  5
1A0
330
195
100
AcDbEntity
  8
Defpoints
 62
     0
100
AcDbPoint
 10
172.8434757809911
 20
-53.18212015100466
 30
0.0
  0
ENDBLK
  5
197
330
195
100
AcDbEntity
  8
0
100
AcDbBlockEnd
  0
ENDSEC
  0
SECTION
  2
ENTITIES
  0
LINE
  5
96
330
1F
100
AcDbEntity
  8
0
  6
Continuous
 62
     1
370
    15
100
AcDbLine
 10
158.4888838906707
 20
4.704378840896768
 30
0.0
 11
158.3813096375571
 21
4.762517563265463
 31
0.0
1001
PE_URL
1000

  0
LINE
  5
97
330
1F
100
AcDbEntity
  8
0
  6
Continuous
 62
     1
370
    15
100
AcDbLine
 10
141.0168523505401
 20
-4.432143681959413
 30
0.0
 11
141.6258035080455
 21
-4.762476856010943
 31
0.0
1001
PE_URL
1000

  0
LINE
  5
98
330
1F
100
AcDbEntity
  8
0
  6
Continuous
 62
     1
370
    15
100
AcDbLine
 10
80.3754286385064
 20
-15.87500000000001
 30
0.0
 11
90.05507796525782
 21
-15.87500000000001
 31
0.0
1001
PE_URL
1000

  0
LINE
  5
99
330
1F
100
AcDbEntity
  8
0
  6
Continuous
 62
     1
370
    15
100
AcDbLine
 10
123.5668994721782
 20
-15.87500000000001
 30
0.0
 11
133.2463023519433
 21
-15.87500000000001
 31
0.0
1001
PE_URL
1000

  0
LINE
  5
9A
330
1F
100
AcDbEntity
  8
0
  6
Continuous
 62
     1
370
    15
100
AcDbLine
 10
46.8638992791693
 20
15.87500000000001
 30
0.0
 11
37.18386875943418
 21
15.87500000000001
 31
0.0
1001
PE_URL
1000

  0
LINE
  5
9B
330
1F
100
AcDbEntity
  8
0
  6
Continuous
 62
     1
370
    15
100
AcDbLine
 10
90.0550779652581
 20
15.87500000000001
 30
0.0
 11
80.37542863850658
 21
15.87500000000001
 31
0.0
1001
PE_URL
1000

  0
LINE
  5
9C
330
1F
100
AcDbEntity
  8
0
  6
Continuous
 62
     1
370
    15
100
AcDbLine
 10
37.18386875943431
 20
-15.87500000000001
 30
0.0
 11
46.86389927916927
 21
-15.87500000000001
 31
0.0
1001
PE_URL
1000

  0
LINE
  5
9D
330
1F
100
AcDbEntity
  8
0
  6
Continuous
 62
     1
370
    15
100
AcDbLine
 10
133.2463023519434
 20
15.87500000000001
 30
0.0
 11
123.5668994721784
 21
15.87500000000001
 31
0.0
1001
PE_URL
1000

  0
LINE
  5
9E
330
1F
100
AcDbEntity
  8
외형선
  6
Continuous
370
    15
100
AcDbLine
 10
-48.32499999999948
 20
-15.875
 30
0.0
 11
11.50008545598023
 21
-15.875
 31
0.0
  0
LINE
  5
9F
330
1F
100
AcDbEntity
  8
외형선
  6
Continuous
370
    15
100
AcDbLine
 10
11.50008545598023
 20
15.875
 30
0.0
 11
-14.06992499999946
 21
15.875
 31
0.0
  0
LINE
  5
A1
330
1F
100
AcDbEntity
  8
외형선
  6
Continuous
370
    15
100
AcDbLine
 10
-51.49999999999947
 20
-12.70000000000001
 30
0.0
 11
-48.32499999999948
 21
-15.875
 31
0.0
  0
LINE
  5
A2
330
1F
100
AcDbEntity
  8
0
  6
Continuous
 62
     1
370
    15
100
AcDbLine
 10
164.4000000000005
 20
6.706984612258663
 30
0.0
 11
164.4000000000005
 21
15.87500000000002
 31
0.0
1001
PE_URL
1000

  0
SPLINE
  5
A3
330
1F
100
AcDbEntity
  8
0
  6
Continuous
 62
     1
370
    15
100
AcDbSpline
210
0.0
220
0.0
230
1.0
 70
     8
 71
     3
 72
    18
 73
    14
 74
     0
 42
0.000000001
 43
0.00000001
 40
0.0
 40
0.0
 40
0.0
 40
0.0
 40
0.0913565336798271
 40
0.1827063933252014
 40
0.2740475906230278
 40
0.3653867982670731
 40
0.4567349686715275
 40
0.5480902398449328
 40
0.6394506180344346
 40
0.7308141043482502
 40
0.8233887317961972
 40
0.915961735383723
 40
1.0
 40
1.0
 40
1.0
 40
1.0
 10
12.00000000000053
 20
-4.733559470731739
 30
0.0
 10
13.57194666606621
 20
-5.586382004946929
 30
0.0
 10
16.7157251599284
 20
-7.291964770586845
 30
0.0
 10
21.43110949402141
 20
-9.599194116463845
 30
0.0
 10
26.14609030871713
 20
-11.63476276172722
 30
0.0
 10
30.86100442323265
 20
-13.32633589712051
 30
0.0
 10
35.57629349500104
 20
-14.62753705250382
 30
0.0
 10
40.2920080397267
 20
-15.49959558956207
 30
0.0
 10
45.00804808397194
 20
-15.91626388298874
 30
0.0
 10
49.74507658583249
 20
-15.86816911483773
 30
0.0
 10
54.50307410557185
 20
-15.33758464930218
 30
0.0
 10
59.13499134304086
 20
-14.40743104919787
 30
0.0
 10
62.17392367700975
 20
-13.45451901330942
 30
0.0
 10
63.61996164633306
 20
-13.00108773090892
 30
0.0
1001
PE_URL
1000

  0
SPLINE
  5
A4
330
1F
100
AcDbEntity
  8
0
  6
Continuous
 62
     1
370
    15
100
AcDbSpline
210
0.0
220
0.0
230
1.0
 70
     8
 71
     3
 72
    14
 73
    10
 74
     0
 42
0.000000001
 43
0.00000001
 40
0.0
 40
0.0
 40
0.0
 40
0.0
 40
0.0797329618226138
 40
0.233124133694813
 40
0.3865168257634919
 40
0.5399058924762447
 40
0.6932861931779396
 40
0.8466525990474743
 40
1.0
 40
1.0
 40
1.0
 40
1.0
 10
133.2463023519435
 20
15.8152058008681
 30
0.0
 10
134.0742999289757
 20
15.8258306496126
 30
0.0
 10
136.4952085900196
 20
15.85689570229072
 30
0.0
 10
140.5090967687091
 20
15.38677819406124
 30
0.0
 10
145.2878849256293
 20
14.4535753629535
 30
0.0
 10
150.0665413146552
 20
13.06184869686586
 30
0.0
 10
154.844866451374
 20
11.27927807874679
 30
0.0
 10
159.6226833476652
 20
9.169886346536492
 30
0.0
 10
162.8076268988071
 20
7.543495354817694
 30
0.0
 10
164.4000000000006
 20
6.730350247015718
 30
0.0
1001
PE_URL
1000

  0
SPLINE
  5
A5
330
1F
100
AcDbEntity
  8
외형선
  6
Continuous
370
    15
100
AcDbSpline
210
0.0
220
0.0
230
1.0
 70
    24
 71
     3
 72
    22
 73
    18
 74
     0
 42
0.000000001
 43
0.00000001
 40
0.0
 40
0.0
 40
0.0
 40
0.0
 40
0.0677997389281422
 40
0.1375566361575568
 40
0.2055050100833585
 40
0.2754238914561584
 40
0.3433722653819602
 40
0.4132911467547602
 40
0.481239520680562
 40
0.551158402053362
 40
0.6191067759791637
 40
0.6890256573519639
 40
0.7569740312777656
 40
0.8268929126505657
 40
0.8948412865763681
 40
0.9647601679491685
 40
1.0
 40
1.0
 40
1.0
 40
1.0
 10
12.00000000000056
 20
12.591493431016
 30
0.0
 10
12.00000000000054
 20
12.26844702237856
 30
0.0
 10
12.0000000000005
 20
11.61302890429344
 30
0.0
 10
12.00000000000054
 20
10.38329981937139
 30
0.0
 10
12.00000000000052
 20
8.998184995221008
 30
0.0
 10
12.00000000000053
 20
7.501443218727386
 30
0.0
 10
12.00000000000059
 20
5.914939754716872
 30
0.0
 10
12.0000000000005
 20
4.310700269768079
 30
0.0
 10
12.0000000000006
 20
2.705650425086933
 30
0.0
 10
12.00000000000045
 20
1.173981446006168
 30
0.0
 10
12.0000000000005
 20
-0.2684000388712083
 30
0.0
 10
12.00000000000049
 20
-1.555059443846037
 30
0.0
 10
12.0000000000005
 20
-2.671444112484427
 30
0.0
 10
12.0000000000006
 20
-3.570665702128396
 30
0.0
 10
12.00000000000049
 20
-4.225493056708022
 30
0.0
 10
12.00000000000063
 20
-4.601475871765103
 30
0.0
 10
12.00000000000056
 20
-4.649632845471916
 30
0.0
 10
12.00000000000056
 20
-4.665770772708319
 30
0.0
  0
SPLINE
  5
A6
330
1F
100
AcDbEntity
  8
0
  6
Continuous
 62
     1
370
    15
100
AcDbSpline
210
0.0
220
0.0
230
1.0
 70
     8
 71
     3
 72
    11
 73
     7
 74
     0
 42
0.000000001
 43
0.00000001
 40
0.0
 40
0.0
 40
0.0
 40
0.0
 40
0.3318311081622495
 40
0.6637033413949841
 40
0.9956056418967024
 40
1.0
 40
1.0
 40
1.0
 40
1.0
 10
164.4000000000005
 20
15.87500000000002
 30
0.0
 10
162.8076271805004
 20
15.69415452595848
 30
0.0
 10
159.62268419278
 20
15.4492061191055
 30
0.0
 10
154.8448630702982
 20
14.44601986246682
 30
0.0
 10
151.6383441019376
 20
13.6186870724711
 30
0.0
 10
150.0244452971493
 20
13.02272570596666
 30
0.0
 10
150.0033566270444
 20
13.01493833254757
 30
0.0
1001
PE_URL
1000

  0
SPLINE
  5
A7
330
1F
100
AcDbEntity
  8
0
  6
Continuous
 62
     1
370
    15
100
AcDbSpline
210
0.0
220
0.0
230
1.0
 70
     8
 71
     3
 72
    22
 73
    18
 74
     0
 42
0.000000001
 43
0.00000001
 40
0.0
 40
0.0
 40
0.0
 40
0.0
 40
0.0289997362913565
 40
0.098866423764012
 40
0.1687363168955094
 40
0.2386144468280434
 40
0.3084984835209072
 40
0.3783860889665443
 40
0.4482749203388777
 40
0.5172494057308406
 40
0.5862215446572304
 40
0.6551898280629814
 40
0.7241527507726377
 40
0.793108907083464
 40
0.8620665654751674
 40
0.9310307634702564
 40
1.0
 40
1.0
 40
1.0
 40
1.0
 10
80.3754286385064
 20
-15.81685099155013
 30
0.0
 10
79.71447210268332
 20
-15.83093986793389
 30
0.0
 10
77.46112716520685
 20
-15.8789719192919
 30
0.0
 10
73.61548633524092
 20
-15.45703550742184
 30
0.0
 10
68.83808504480737
 20
-14.57542256892557
 30
0.0
 10
64.06016644317168
 20
-13.22584331973283
 30
0.0
 10
59.281764256804
 20
-11.48559498367474
 30
0.0
 10
54.50307521147835
 20
-9.397251006989897
 30
0.0
 10
49.74507629381591
 20
-7.036699250776813
 30
0.0
 10
45.00804816177876
 20
-4.477879190897244
 30
0.0
 10
40.29200801887986
 20
-1.79902872049458
 30
0.0
 10
35.57629350058625
 20
0.9327001172866385
 30
0.0
 10
30.86100442173628
 20
3.636449680388878
 30
0.0
 10
26.14609030911797
 20
6.235496587142534
 30
0.0
 10
21.43110949391455
 20
8.644441885296889
 30
0.0
 10
16.71572515995514
 20
10.82627623677845
 30
0.0
 10
13.57194666607512
 20
12.00307337063106
 30
0.0
 10
12.00000000000052
 20
12.59149343101599
 30
0.0
1001
PE_URL
1000

  0
SPLINE
  5
A8
330
1F
100
AcDbEntity
  8
0
  6
Continuous
 62
     1
370
    15
100
AcDbSpline
210
0.0
220
0.0
230
1.0
 70
     8
 71
     3
 72
    27
 73
    23
 74
     0
 42
0.000000001
 43
0.00000001
 40
0.0
 40
0.0
 40
0.0
 40
0.0
 40
0.049738993340167
 40
0.099474353007494
 40
0.1492049964664706
 40
0.1989345566600015
 40
0.2486689966214303
 40
0.2984073025909629
 40
0.3481483890714168
 40
0.3978911677677233
 40
0.4482933513076471
 40
0.4986946507380343
 40
0.5490933764677494
 40
0.5994878423806603
 40
0.6498763681061418
 40
0.7002625819857647
 40
0.7506550834712514
 40
0.8010524561330348
 40
0.8514530156807792
 40
0.9018550735226216
 40
0.9522569390428944
 40
1.0
 40
1.0
 40
1.0
 40
1.0
 10
12.00000000000053
 20
15.1528558277655
 30
0.0
 10
13.57194666607491
 20
14.83925797260538
 30
0.0
 10
16.71572515995452
 20
14.21208517211772
 30
0.0
 10
21.43110949391701
 20
12.73521599597339
 30
0.0
 10
26.1460903091086
 20
10.91661189883853
 30
0.0
 10
30.86100442177121
 20
8.769123891745503
 30
0.0
 10
35.57629350045605
 20
6.366716106796444
 30
0.0
 10
40.29200801936606
 20
3.776803190925781
 30
0.0
 10
45.00804815996453
 20
1.07618099173285
 30
0.0
 10
49.74507630062511
 20
-1.668166543494362
 30
0.0
 10
54.50307518569091
 20
-4.375211253959306
 30
0.0
 10
59.28176435299785
 20
-6.962286032833268
 30
0.0
 10
64.06016608421561
 20
-9.339588727927847
 30
0.0
 10
68.83808638425617
 20
-11.43548877682563
 30
0.0
 10
73.61548133708865
 20
-13.1869707426543
 30
0.0
 10
78.3927362867033
 20
-14.54125934968595
 30
0.0
 10
83.17044962190394
 20
-15.45767033906639
 30
0.0
 10
87.94869392261475
 20
-15.90791487079388
 30
0.0
 10
92.72730496512406
 20
-15.88128882016699
 30
0.0
 10
97.50608394281997
 20
-15.36764812883228
 30
0.0
 10
102.2008752384225
 20
-14.4398317833029
 30
0.0
 10
105.3026867039591
 20
-13.47638061488671
 30
0.0
 10
106.8115774759207
 20
-13.0077052639149
 30
0.0
1001
PE_URL
1000

  0
SPLINE
  5
A9
330
1F
100
AcDbEntity
  8
0
  6
Continuous
 62
     1
370
    15
100
AcDbSpline
210
0.0
220
0.0
230
1.0
 70
     8
 71
     3
 72
    30
 73
    26
 74
     0
 42
0.000000001
 43
0.00000001
 40
0.0
 40
0.0
 40
0.0
 40
0.0
 40
0.0210466441550778
 40
0.0673640902382098
 40
0.1136866879897043
 40
0.160014115062497
 40
0.2063448243459216
 40
0.2526772643001672
 40
0.29900988104802
 40
0.3453411204734143
 40
0.3916694303206886
 40
0.4379932622884056
 40
0.4843113143089297
 40
0.5306314915178427
 40
0.5769571293059345
 40
0.6232866829750008
 40
0.6696186025452223
 40
0.7159513348423464
 40
0.7616779023674517
 40
0.8074029143055039
 40
0.8531253702299254
 40
0.8988442722861222
 40
0.9445586885648426
 40
0.9902741006466091
 40
1.0
 40
1.0
 40
1.0
 40
1.0
 10
123.5668994721782
 20
-15.81562029860578
 30
0.0
 10
122.8433351267397
 20
-15.82876890027916
 30
0.0
 10
120.5274194158965
 20
-15.87085368981164
 30
0.0
 10
116.6191200229876
 20
-15.43131885260459
 30
0.0
 10
111.8415228433707
 20
-14.53038426526014
 30
0.0
 10
107.06338845468
 20
-13.16467629883983
 30
0.0
 10
102.2848431050571
 20
-11.40963828633617
 30
0.0
 10
97.50608488149109
 20
-9.30893304535748
 30
0.0
 10
92.72730471361513
 20
-6.92832679557331
 30
0.0
 10
87.94869399000123
 20
-4.338908663239679
 30
0.0
 10
83.17044960384953
 20
-1.618891866839955
 30
0.0
 10
78.39273629154255
 20
1.149769745317418
 30
0.0
 10
73.6154813357829
 20
3.883942390186212
 30
0.0
 10
68.83808638464006
 20
6.501033987396275
 30
0.0
 10
64.06016608398625
 20
8.922320801403336
 30
0.0
 10
59.28176435353148
 20
11.07494724960234
 30
0.0
 10
54.50307518378582
 20
12.8939947229121
 30
0.0
 10
49.74507630767264
 20
14.31845214461013
 30
0.0
 10
45.00804813405191
 20
15.31156791422817
 30
0.0
 10
40.29200811610783
 20
15.8516394279713
 30
0.0
 10
35.57629313943345
 20
15.92429498002117
 30
0.0
 10
30.86100576895878
 20
15.53828764658004
 30
0.0
 10
26.14608528182442
 20
14.66447454438057
 30
0.0
 10
22.66853235504878
 20
13.79045402443832
 30
0.0
 10
20.76250583620496
 20
13.10561702253336
 30
0.0
 10
20.42813744542745
 20
12.98547816611768
 30
0.0
1001
PE_URL
1000

  0
SPLINE
  5
AA
330
1F
100
AcDbEntity
  8
0
  6
Continuous
 62
     1
370
    15
100
AcDbSpline
210
0.0
220
0.0
230
1.0
 70
     8
 71
     3
 72
    29
 73
    25
 74
     0
 42
0.000000001
 43
0.00000001
 40
0.0
 40
0.0
 40
0.0
 40
0.0
 40
0.0277326500698799
 40
0.0740654327317379
 40
0.1203974026658104
 40
0.166727006696156
 40
0.2130526948412701
 40
0.2593729224012705
 40
0.305691024770571
 40
0.3520149070933474
 40
0.3983432673005489
 40
0.444674557089055
 40
0.4910072242015165
 40
0.5373397145201794
 40
0.5836704741661387
 40
0.6299979515978995
 40
0.6763205997031111
 40
0.7226380961343618
 40
0.7689597012555877
 40
0.8152864161431744
 40
0.8616166947130757
 40
0.9079489860732853
 40
0.954281736613677
 40
0.9999999999999999
 40
0.9999999999999999
 40
0.9999999999999999
 40
0.9999999999999999
 10
46.86389927916931
 20
15.81931453018671
 30
0.0
 10
47.81734799841617
 20
15.82453924061432
 30
0.0
 10
50.36371813616361
 20
15.83849284539943
 30
0.0
 10
54.50307654892607
 20
15.33062144059125
 30
0.0
 10
59.28176398776504
 20
14.35935001797374
 30
0.0
 10
64.06016618198419
 20
12.93496533512337
 30
0.0
 10
68.83808635837804
 20
11.12654581548912
 30
0.0
 10
73.6154813428482
 20
8.981526809954838
 30
0.0
 10
78.39273628954038
 20
6.566291907789227
 30
0.0
 10
83.17044960479248
 20
3.95330621579093
 30
0.0
 10
87.94869398823167
 20
1.221154513784064
 30
0.0
 10
92.72730471975046
 20
-1.547853266795346
 30
0.0
 10
97.50608485871894
 20
-4.270267013273687
 30
0.0
 10
102.2848431900086
 20
-6.86404104155957
 30
0.0
 10
107.0633881376681
 20
-9.251011940104377
 30
0.0
 10
111.841524026329
 20
-11.35926017865144
 30
0.0
 10
116.6191156088367
 20
-13.12531106910828
 30
0.0
 10
121.3963319706955
 20
-14.49608338777262
 30
0.0
 10
126.1738326896169
 20
-15.43030374928311
 30
0.0
 10
130.9518761340581
 20
-15.89923602140763
 30
0.0
 10
135.7303612815698
 20
-15.8913577841399
 30
0.0
 10
140.5090942352197
 20
-15.39697286779848
 30
0.0
 10
145.2667992229318
 20
-14.47201804079153
 30
0.0
 10
148.43154625561
 20
-13.49846524925631
 30
0.0
 10
150.0033566270444
 20
-13.01493833254757
 30
0.0
1001
PE_URL
1000

  0
SPLINE
  5
AB
330
1F
100
AcDbEntity
  8
0
  6
Continuous
 62
     1
370
    15
100
AcDbSpline
210
0.0
220
0.0
230
1.0
 70
     8
 71
     3
 72
    29
 73
    25
 74
     0
 42
0.000000001
 43
0.00000001
 40
0.0
 40
0.0
 40
0.0
 40
0.0
 40
0.0474032552109146
 40
0.0948123852845645
 40
0.1422258105746365
 40
0.189641945643008
 40
0.2370592013933811
 40
0.2844759872155955
 40
0.3318907131343573
 40
0.3793017919561138
 40
0.4267076414078136
 40
0.4741092859979168
 40
0.5215162028466056
 40
0.5689280620613171
 40
0.6163432803166277
 40
0.6637602697542919
 40
0.7111774401239469
 40
0.7585932009307875
 40
0.8060059635839606
 40
0.8534141435393977
 40
0.9008164082506719
 40
0.9482208478967326
 40
0.9956308759431773
 40
1.0
 40
1.0
 40
1.0
 40
1.0
 10
164.4000000000005
 20
-15.87499999999998
 30
0.0
 10
162.8076268958839
 20
-15.69176456011572
 30
0.0
 10
159.6226833388953
 20
-15.44203592537982
 30
0.0
 10
154.8448664864597
 20
-14.47470586720996
 30
0.0
 10
150.0665411830677
 20
-13.10555472387754
 30
0.0
 10
145.2878854169236
 20
-11.33242917712011
 30
0.0
 10
140.5090949350914
 20
-9.220370733366954
 30
0.0
 10
135.7303610940488
 20
-6.829912807616365
 30
0.0
 10
130.9518761842992
 20
-4.233938303642138
 30
0.0
 10
126.1738326761563
 20
-1.510466115060037
 30
0.0
 10
121.3963319743036
 20
1.258413840405612
 30
0.0
 10
116.6191156078622
 20
3.989558620157694
 30
0.0
 10
111.8415240266185
 20
6.600360901332978
 30
0.0
 10
107.063388137485
 20
9.012464230562323
 30
0.0
 10
102.2848431904514
 20
11.1531597115845
 30
0.0
 10
97.5060848571307
 20
12.95790417996229
 30
0.0
 10
92.72730472566036
 20
14.37236735772957
 30
0.0
 10
87.94869396618151
 20
15.3536688460057
 30
0.0
 10
83.17044968707484
 20
15.87323056266504
 30
0.0
 10
78.39273598250722
 20
15.91182246253211
 30
0.0
 10
73.61548248857824
 20
15.4818159733483
 30
0.0
 10
68.83808208200503
 20
14.54565856033931
 30
0.0
 10
65.50619525267567
 20
13.6910322947271
 30
0.0
 10
63.76673709857956
 20
13.05477510294963
 30
0.0
 10
63.61996164633305
 20
13.00108773090891
 30
0.0
1001
PE_URL
1000

  0
LINE
  5
AC
330
1F
100
AcDbEntity
  8
0
  6
Continuous
 62
     1
370
    15
100
AcDbLine
 10
164.4000000000005
 20
-14.37769141943497
 30
0.0
 11
164.4000000000005
 21
1.360191419435155
 31
0.0
1001
PE_URL
1000

  0
SPLINE
  5
AD
330
1F
100
AcDbEntity
  8
0
  6
Continuous
 62
     1
370
    15
100
AcDbSpline
210
0.0
220
0.0
230
1.0
 70
     8
 71
     3
 72
     9
 73
     5
 74
     0
 42
0.000000001
 43
0.00000001
 40
0.0
 40
0.0
 40
0.0
 40
0.0
 40
0.5595301300275423
 40
1.0
 40
1.0
 40
1.0
 40
1.0
 10
12.00000000000053
 20
-15.15285582776554
 30
0.0
 10
13.57194881333904
 20
-14.84811740121039
 30
0.0
 10
16.38135750999161
 20
-14.30348466348784
 30
0.0
 10
19.19070466802236
 20
-13.38850093155088
 30
0.0
 10
20.42813744542766
 20
-12.98547816611768
 30
0.0
1001
PE_URL
1000

  0
SPLINE
  5
AE
330
1F
100
AcDbEntity
  8
0
  6
Continuous
 62
     1
370
    15
100
AcDbSpline
210
0.0
220
0.0
230
1.0
 70
     8
 71
     3
 72
    23
 73
    19
 74
     0
 42
0.000000001
 43
0.00000001
 40
0.0
 40
0.0
 40
0.0
 40
0.0
 40
0.0359424854375781
 40
0.1002202265962198
 40
0.1644977224871761
 40
0.2287728173997515
 40
0.293043358865961
 40
0.3573072005624129
 40
0.4215638952935373
 40
0.4858262900485798
 40
0.5500957736301454
 40
0.6143702011414192
 40
0.6786474210154578
 40
0.7429252779144451
 40
0.8072016156399549
 40
0.8714742800457208
 40
0.9357411219444219
 40
1.0
 40
1.0
 40
1.0
 40
1.0
 10
90.05507796525808
 20
15.81595131060203
 30
0.0
 10
90.94580493978432
 20
15.82447554204609
 30
0.0
 10
93.42946343294614
 20
15.84824408215902
 30
0.0
 10
97.50608624526387
 20
15.35891890615413
 30
0.0
 10
102.2848428185174
 20
14.40691609072241
 30
0.0
 10
107.0633882371354
 20
12.99837236602898
 30
0.0
 10
111.841523999921
 20
11.2043848431299
 30
0.0
 10
116.6191156150146
 20
9.0713874927166
 30
0.0
 10
121.3963319723871
 20
6.665440758463291
 30
0.0
 10
126.1738326766699
 20
4.058763968329608
 30
0.0
 10
130.9518761841616
 20
1.329789360026174
 30
0.0
 10
135.7303610940858
 20
-1.439291191669195
 30
0.0
 10
140.5090949350817
 20
-4.165222270978179
 30
0.0
 10
145.2878854169263
 20
-6.765095120607322
 30
0.0
 10
150.066541183067
 20
-9.16338914553935
 30
0.0
 10
154.8448664864599
 20
-11.27727629459605
 30
0.0
 10
159.6226833388953
 20
-13.08250332731779
 30
0.0
 10
162.8076268958839
 20
-13.94597988993748
 30
0.0
 10
164.4000000000006
 20
-14.37769141943498
 30
0.0
1001
PE_URL
1000

  0
SPLINE
  5
AF
330
1F
100
AcDbEntity
  8
외형선
  6
Continuous
370
    15
100
AcDbSpline
210
0.0
220
0.0
230
1.0
 70
    24
 71
     3
 72
    11
 73
     7
 74
     0
 42
0.000000001
 43
0.00000001
 40
0.0
 40
0.0
 40
0.0
 40
0.0
 40
0.1470973688628896
 40
0.4258502803898082
 40
0.7126870452350706
 40
0.9999999999999999
 40
0.9999999999999999
 40
0.9999999999999999
 40
0.9999999999999999
 10
12.00000000000054
 20
-9.818508032742207
 30
0.0
 10
12.00000000000056
 20
-10.04571306563929
 30
0.0
 10
12.00000000000056
 20
-10.70347688366777
 30
0.0
 10
12.0000000000005
 20
-11.95719122239146
 30
0.0
 10
12.0000000000006
 20
-13.51992554804704
 30
0.0
 10
12.00000000000056
 20
-14.60824485674307
 30
0.0
 10
12.00000000000053
 20
-15.15285582776553
 30
0.0
  0
SPLINE
  5
B0
330
1F
100
AcDbEntity
  8
0
  6
Continuous
 62
     1
370
    15
100
AcDbSpline
210
0.0
220
0.0
230
1.0
 70
     8
 71
     3
 72
    20
 73
    16
 74
     0
 42
0.000000001
 43
0.00000001
 40
0.0
 40
0.0
 40
0.0
 40
0.0
 40
0.0829558322810467
 40
0.1659219455886933
 40
0.248895575537371
 40
0.3318739476058278
 40
0.4148542808709945
 40
0.4978337917605387
 40
0.5808096978131455
 40
0.6637792214355557
 40
0.7467395936454009
 40
0.8296926073354183
 40
0.9126548474930488
 40
0.9956257368053637
 40
1.0
 40
1.0
 40
1.0
 40
1.0
 10
164.4000000000005
 20
1.360191419435155
 30
0.0
 10
162.8076268958815
 20
2.272348109440316
 30
0.0
 10
159.6226833388881
 20
4.096774536441253
 30
0.0
 10
154.8448664864887
 20
6.698913278217468
 30
0.0
 10
150.0665411829586
 20
9.102327646281143
 30
0.0
 10
145.2878854173308
 20
11.23082099928983
 30
0.0
 10
140.5090949335723
 20
13.0212197132295
 30
0.0
 10
135.7303610997185
 20
14.41936856610664
 30
0.0
 10
130.9518761631414
 20
15.3829398878085
 30
0.0
 10
126.173832755108
 20
15.88394498900364
 30
0.0
 10
121.3963316796981
 20
15.90347919396482
 30
0.0
 10
116.6191167072923
 20
15.45537772810551
 30
0.0
 10
111.841519922787
 20
14.49924082859054
 30
0.0
 10
108.5722704198498
 20
13.65489507321846
 30
0.0
 10
106.8955480756327
 20
13.03857090496947
 30
0.0
 10
106.8115774759209
 20
13.0077052639149
 30
0.0
1001
PE_URL
1000

  0
SPLINE
  5
B1
330
1F
100
AcDbEntity
  8
0
  6
Continuous
 62
     1
370
    15
100
AcDbSpline
210
0.0
220
0.0
230
1.0
 70
     8
 71
     3
 72
    13
 73
     9
 74
     0
 42
0.000000001
 43
0.00000001
 40
0.0
 40
0.0
 40
0.0
 40
0.0
 40
0.0638368950799603
 40
0.2510719278678705
 40
0.4382885898145079
 40
0.6255093299259217
 40
0.8127478251266822
 40
1.0
 40
1.0
 40
1.0
 40
1.0
 10
37.18386875943431
 20
-15.82258254356124
 30
0.0
 10
36.6479722347821
 20
-15.83691615141098
 30
0.0
 10
34.54027928678408
 20
-15.89329054981538
 30
0.0
 10
30.86100706153589
 20
-15.51269727610157
 30
0.0
 10
26.14608960204328
 20
-14.69068226165868
 30
0.0
 10
21.43110968248903
 20
-13.4002078210792
 30
0.0
 10
16.71572511280562
 20
-11.74547797087304
 30
0.0
 10
13.57194665035826
 20
-10.36049897661781
 30
0.0
 10
12.00000000000053
 20
-9.667984183720964
 30
0.0
1001
PE_URL
1000

  0
LINE
  5
B2
330
1F
100
AcDbEntity
  8
외형선
  6
Continuous
370
    15
100
AcDbLine
 10
12.00000000000056
 20
12.591493431016
 30
0.0
 11
12.00000000000053
 21
15.1528558277655
 31
0.0
  0
LINE
  5
B3
330
1F
100
AcDbEntity
  8
0
  6
Continuous
 62
     1
370
    15
100
AcDbLine
 10
164.4000000000005
 20
-15.87499999999998
 30
0.0
 11
164.4000000000005
 21
-14.37769141943497
 31
0.0
1001
PE_URL
1000

  0
LINE
  5
B4
330
1F
100
AcDbEntity
  8
외형선
  6
Continuous
370
    15
100
AcDbLine
 10
12.00000000000056
 20
-9.667984183720952
 30
0.0
 11
12.00000000000053
 21
-4.733559470731739
 31
0.0
  0
LINE
  5
B5
330
1F
100
AcDbEntity
  8
0
  6
Continuous
 62
     1
370
    15
100
AcDbLine
 10
164.4000000000005
 20
1.360191419435154
 30
0.0
 11
164.4000000000005
 21
6.730350247015718
 31
0.0
1001
PE_URL
1000

  0
LINE
  5
B6
330
1F
100
AcDbEntity
  8
외형선
  6
Continuous
370
    15
100
AcDbLine
 10
11.50008545598023
 20
-15.875
 30
0.0
 11
11.50008545598023
 21
-9.437628543366129
 31
0.0
  0
SPLINE
  5
B7
330
1F
100
AcDbEntity
  8
외형선
  6
Continuous
370
    15
100
AcDbSpline
210
0.0
220
0.0
230
1.0
 70
     8
 71
     3
 72
     8
 73
     4
 74
     0
 42
0.000000001
 43
0.00000001
 40
0.0
 40
0.0
 40
0.0
 40
0.0
 40
1.0
 40
1.0
 40
1.0
 40
1.0
 10
12.00000000000054
 20
-15.15285582776552
 30
0.0
 10
11.83342467208213
 20
-15.18151903327489
 30
0.0
 10
11.66677275010119
 20
-15.20935315098547
 30
0.0
 10
11.50008545598025
 20
-15.23635073026185
 30
0.0
  0
LINE
  5
B8
330
1F
100
AcDbEntity
  8
외형선
  6
Continuous
370
    15
100
AcDbLine
 10
11.50008545598021
 20
15.23634664299771
 30
0.0
 11
11.50008545598023
 21
15.875
 31
0.0
  0
SPLINE
  5
B9
330
1F
100
AcDbEntity
  8
외형선
  6
Continuous
370
    15
100
AcDbSpline
210
0.0
220
0.0
230
1.0
 70
     8
 71
     3
 72
     8
 73
     4
 74
     0
 42
0.000000001
 43
0.00000001
 40
0.0
 40
0.0
 40
0.0
 40
0.0
 40
1.0
 40
1.0
 40
1.0
 40
1.0
 10
12.00000000000054
 20
15.15285582776548
 30
0.0
 10
11.83342467208213
 20
15.18151903327485
 30
0.0
 10
11.66677275010119
 20
15.20935315098543
 30
0.0
 10
11.50008545598025
 20
15.23635073026182
 30
0.0
  0
SPLINE
  5
BA
330
1F
100
AcDbEntity
  8
외형선
  6
Continuous
370
    15
100
AcDbSpline
210
0.0
220
0.0
230
1.0
 70
     8
 71
     3
 72
     8
 73
     4
 74
     0
 42
0.000000001
 43
0.00000001
 40
0.0
 40
0.0
 40
0.0
 40
0.0
 40
1.0
 40
1.0
 40
1.0
 40
1.0
 10
12.00000000000054
 20
12.59149343101599
 30
0.0
 10
11.83342467208211
 20
12.6500361448517
 30
0.0
 10
11.6667727501012
 20
12.70789523728489
 30
0.0
 10
11.50008545598025
 20
12.76505591938443
 30
0.0
  0
LINE
  5
BB
330
1F
100
AcDbEntity
  8
외형선
  6
Continuous
370
    15
100
AcDbLine
 10
11.50008545598021
 20
-4.457506699312154
 30
0.0
 11
11.50008545598023
 21
12.76506139732349
 31
0.0
  0
SPLINE
  5
BC
330
1F
100
AcDbEntity
  8
외형선
  6
Continuous
370
    15
100
AcDbSpline
210
0.0
220
0.0
230
1.0
 70
     8
 71
     3
 72
     8
 73
     4
 74
     0
 42
0.000000001
 43
0.00000001
 40
0.0
 40
0.0
 40
0.0
 40
0.0
 40
1.0
 40
1.0
 40
1.0
 40
1.0
 10
12.00000000000054
 20
-4.73355947073175
 30
0.0
 10
11.83342467208213
 20
-4.641804117634237
 30
0.0
 10
11.66677275010119
 20
-4.549774334256765
 30
0.0
 10
11.50008545598025
 20
-4.457492728479858
 30
0.0
  0
SPLINE
  5
BD
330
1F
100
AcDbEntity
  8
외형선
  6
Continuous
370
    15
100
AcDbSpline
210
0.0
220
0.0
230
1.0
 70
     8
 71
     3
 72
     8
 73
     4
 74
     0
 42
0.000000001
 43
0.00000001
 40
0.0
 40
0.0
 40
0.0
 40
0.0
 40
1.0
 40
1.0
 40
1.0
 40
1.0
 10
12.00000000000054
 20
-9.667984183720959
 30
0.0
 10
11.83342467208211
 20
-9.591738693173173
 30
0.0
 10
11.6667727501012
 20
-9.514949731987086
 30
0.0
 10
11.50008545598025
 20
-9.437635952662411
 30
0.0
  0
LINE
  5
BE
330
1F
100
AcDbEntity
  8
외형선
  6
Continuous
370
    15
100
AcDbLine
 10
-48.32499999999948
 20
-0.0000000000000038
 30
0.0
 11
-48.32499999999948
 21
13.97
 31
0.0
  0
LINE
  5
BF
330
1F
100
AcDbEntity
  8
외형선
  6
Continuous
370
    15
100
AcDbLine
 10
-48.32499999999948
 20
-15.87499999999996
 30
0.0
 11
-48.32499999999948
 21
-0.0000000000000038
 31
0.0
  0
LINE
  5
C0
330
1F
100
AcDbEntity
  8
외형선
  6
Continuous
370
    15
100
AcDbLine
 10
-51.49999999999947
 20
-0.0000000000000038
 30
0.0
 11
-51.49999999999947
 21
13.96999999999999
 31
0.0
  0
LINE
  5
C1
330
1F
100
AcDbEntity
  8
외형선
  6
Continuous
370
    15
100
AcDbLine
 10
-51.49999999999947
 20
-12.70000000000001
 30
0.0
 11
-51.49999999999947
 21
-0.0000000000000038
 31
0.0
  0
SPLINE
  5
C2
330
1F
100
AcDbEntity
  8
외형선
  6
Continuous
370
    15
100
AcDbSpline
210
0.0
220
0.0
230
1.0
 70
    24
 71
     3
 72
    32
 73
    28
 74
     0
 42
0.000000001
 43
0.00000001
 40
0.0
 40
0.0
 40
0.0
 40
0.0
 40
0.0625
 40
0.0625
 40
0.125
 40
0.125
 40
0.1875
 40
0.1875
 40
0.25
 40
0.25
 40
0.3125
 40
0.3125
 40
0.3750000000000001
 40
0.3750000000000001
 40
0.4375000000000001
 40
0.4375000000000001
 40
0.5000000000000001
 40
0.5000000000000001
 40
0.5625000000000001
 40
0.5625000000000001
 40
0.6250000000000001
 40
0.6250000000000001
 40
0.7500000000000001
 40
0.7500000000000001
 40
0.8750000000000001
 40
0.8750000000000001
 40
1.0
 40
1.0
 40
1.0
 40
1.0
 10
12.00000000000054
 20
-4.733559470731739
 30
0.0
 10
12.00000000000054
 20
-4.734604614730808
 30
0.0
 10
12.00000000000054
 20
-4.688283538241286
 30
0.0
 10
12.00000000000053
 20
-4.484914273537754
 30
0.0
 10
12.00000000000053
 20
-4.327713316861482
 30
0.0
 10
12.00000000000053
 20
-3.895657850531256
 30
0.0
 10
12.00000000000054
 20
-3.620722598030773
 30
0.0
 10
12.00000000000054
 20
-2.959427257429625
 30
0.0
 10
12.00000000000056
 20
-2.573112549965251
 30
0.0
 10
12.00000000000054
 20
-1.709142766493502
 30
0.0
 10
12.00000000000054
 20
-1.23165692979478
 30
0.0
 10
12.00000000000054
 20
-0.215988196934887
 30
0.0
 10
12.00000000000053
 20
0.3219676272159382
 30
0.0
 10
12.00000000000053
 20
1.423620940060341
 30
0.0
 10
12.00000000000054
 20
1.987121811202083
 30
0.0
 10
12.00000000000054
 20
3.107285430693912
 30
0.0
 10
12.00000000000053
 20
3.663839125391684
 30
0.0
 10
12.00000000000052
 20
4.744662842980873
 30
0.0
 10
12.00000000000053
 20
5.268916494836315
 30
0.0
 10
12.00000000000054
 20
6.268685925144644
 30
0.0
 10
12.00000000000052
 20
6.744247854566515
 30
0.0
 10
12.00000000000052
 20
8.085760659370596
 30
0.0
 10
12.00000000000052
 20
8.864600655602144
 30
0.0
 10
12.0000000000005
 20
10.19590953977685
 30
0.0
 10
12.0000000000005
 20
10.75012283392726
 30
0.0
 10
12.0000000000005
 20
11.6807441964985
 30
0.0
 10
12.00000000000052
 20
12.1514181069525
 30
0.0
 10
12.00000000000052
 20
12.59149343101601
 30
0.0
  0
SPLINE
  5
C3
330
1F
100
AcDbEntity
  8
외형선
  6
Continuous
370
    15
100
AcDbSpline
210
0.0
220
0.0
230
1.0
 70
    24
 71
     3
 72
    14
 73
    10
 74
     0
 42
0.000000001
 43
0.00000001
 40
0.0
 40
0.0
 40
0.0
 40
0.0
 40
0.114344097767457
 40
0.3456102865336625
 40
0.4627003677831178
 40
0.6020834971728827
 40
0.7424343878364329
 40
0.8858375440270512
 40
1.0
 40
1.0
 40
1.0
 40
1.0
 10
12.00000000000053
 20
-15.15285582776552
 30
0.0
 10
12.00000000000052
 20
-14.93711642248134
 30
0.0
 10
12.00000000000046
 20
-14.285034162595
 30
0.0
 10
12.00000000000063
 20
-13.41672384501893
 30
0.0
 10
12.00000000000053
 20
-12.52211391728079
 30
0.0
 10
12.00000000000056
 20
-11.80908999885979
 30
0.0
 10
12.0000000000006
 20
-11.07318124754483
 30
0.0
 10
12.00000000000056
 20
-10.40397968022775
 30
0.0
 10
12.00000000000052
 20
-9.998313882525204
 30
0.0
 10
12.00000000000049
 20
-9.818508032742205
 30
0.0
  0
LINE
  5
C4
330
1F
100
AcDbEntity
  8
중심선
 62
     1
100
AcDbLine
 10
-58.49999999999947
 20
-0.0000000000000082
 30
0.0
 11
171.4000000000006
 21
0.0000000000000193
 31
0.0
  0
LINE
  5
C5
330
1F
100
AcDbEntity
  8
참조1
100
AcDbLine
 10
56.45000000000055
 20
-0.0000000000000077
 30
0.0
 11
56.45000000000055
 21
-40.00000000000001
 31
0.0
  0
LINE
  5
C6
330
1F
100
AcDbEntity
  8
참조1
100
AcDbLine
 10
56.45000000000055
 20
-40.00000000000001
 30
0.0
 11
-37.29010681430815
 21
-40.0
 31
0.0
  0
CIRCLE
  5
C7
330
1F
100
AcDbEntity
  8
해칭선
100
AcDbCircle
 10
0.0
 20
0.0
 30
0.0
 40
3.000000000000003
  0
INSERT
  5
C8
330
1F
100
AcDbEntity
  8
0
  6
Continuous
 62
     7
100
AcDbBlockReference
 66
     1
  2
블럭10
 10
42.50972706787533
 20
-52.04717430164393
 30
0.0
  0
ATTRIB
  5
C9
330
C8
100
AcDbEntity
  8
FORMAT
 62
     2
100
AcDbText
 10
33.32843177913406
 20
-49.97180738881174
 30
0.0
 40
4.233333333333333
  1
E2041116 [ 4 FLUTE ]
 41
0.75
  7
SLDTEXTSTYLE0
 11
33.32843177913406
 21
-52.08847405547841
 31
0.0
100
AcDbAttribute
  2
AUTOATTR0
 70
     0
 74
     1
  0
SEQEND
  5
CA
330
C8
100
AcDbEntity
  8
0
  6
Continuous
 62
     7
  0
HATCH
  5
CB
330
1F
100
AcDbEntity
  8
중심선
100
AcDbHatch
 10
0.0
 20
0.0
 30
0.0
210
0.0
220
0.0
230
1.0
  2
SOLID
 70
     1
 71
     0
 91
        1
 92
        0
 93
        4
 72
     1
 10
48.22463637225618
 20
-35.8
 11
44.77836112841889
 21
-35.8
 72
     1
 10
44.77836112841889
 20
-35.8
 11
42.65013126921493
 21
-38.3363255805726
 72
     1
 10
42.65013126921493
 20
-38.3363255805726
 11
46.09643959816525
 21
-38.33628615127011
 72
     1
 10
46.09643959816525
 20
-38.33628615127011
 11
48.22463637225618
 21
-35.8
 97
        0
 75
     0
 76
     1
 98
        1
 10
-17.13676131403064
 20
-0.0010749287238969
  0
HATCH
  5
CC
330
1F
100
AcDbEntity
  8
중심선
100
AcDbHatch
 10
0.0
 20
0.0
 30
0.0
210
0.0
220
0.0
230
1.0
  2
SOLID
 70
     1
 71
     0
 91
        1
 92
        0
 93
        4
 72
     1
 10
53.23740036329213
 20
-35.80000000000003
 11
49.79112511945484
 21
-35.79999999999998
 72
     1
 10
49.79112511945484
 20
-35.79999999999998
 11
45.25998711109743
 21
-41.20000000000002
 72
     1
 10
45.25998711109743
 20
-41.20000000000002
 11
48.70626235493472
 21
-41.20000000000002
 72
     1
 10
48.70626235493472
 20
-41.20000000000002
 11
53.23740036329213
 21
-35.80000000000003
 97
        0
 75
     0
 76
     1
 98
        1
 10
-17.13676131403064
 20
-0.0010749287238969
  0
HATCH
  5
CD
330
1F
100
AcDbEntity
  8
중심선
100
AcDbHatch
 10
0.0
 20
0.0
 30
0.0
210
0.0
220
0.0
230
1.0
  2
SOLID
 70
     1
 71
     0
 91
        1
 92
        0
 93
        4
 72
     1
 10
58.25016435432814
 20
-35.79999999999998
 11
54.80388911049091
 21
-35.8
 72
     1
 10
54.80388911049091
 20
-35.8
 11
47.75545220860163
 21
-44.20000000000002
 72
     1
 10
47.75545220860163
 20
-44.20000000000002
 11
51.20172745243891
 21
-44.20000000000002
 72
     1
 10
51.20172745243891
 20
-44.20000000000002
 11
58.25016435432814
 21
-35.79999999999998
 97
        0
 75
     0
 76
     1
 98
        1
 10
-17.13676131403064
 20
-0.0010749287238969
  0
HATCH
  5
CE
330
1F
100
AcDbEntity
  8
중심선
100
AcDbHatch
 10
0.0
 20
0.0
 30
0.0
210
0.0
220
0.0
230
1.0
  2
SOLID
 70
     1
 71
     0
 91
        1
 92
        0
 93
        6
 72
     3
 10
63.05005478534023
 20
-40.00000000005127
 11
3.960054785062276
 21
1.540882976769353E-10
 40
0.3939339440162635
 50
17.09539180608447
 51
320.0019657685077
 73
     0
 72
     1
 10
64.73305444104085
 20
-38.58789400463827
 11
67.03835631474183
 21
-36.65356729459044
 72
     3
 10
63.05005478528738
 20
-40.00000000000015
 11
6.600054785286837
 21
-1.278976924368180E-13
 40
0.6363583540795974
 50
39.9987384933739
 51
368.4976242363725
 73
     1
 72
     1
 10
69.47538727718796
 20
-39.03999999993002
 11
61.73012209212334
 21
-39.03999999993002
 72
     1
 10
61.73012209212333
 20
-39.03999999993002
 11
61.73009704767737
 21
-40.95999999992991
 72
     1
 10
61.73009704767737
 20
-40.95999999992991
 11
66.17147681714937
 21
-40.95999999992988
 97
        0
 75
     0
 76
     1
 98
        1
 10
-17.13676131403064
 20
-0.0010749287238969
  0
DIMENSION
  5
CF
330
1F
100
AcDbEntity
  8
치수문자_일반주서
100
AcDbDimension
  2
_D
 10
12.00000000000053
 20
30.87706057025608
 30
0.0
 11
88.2000000000005
 21
30.87706057025608
 31
0.0
 70
   160
  1
<>
 71
     2
 42
152.4
  3
SLDDIMSTYLE2
100
AcDbAlignedDimension
 13
164.4000000000005
 23
15.87500000000002
 33
0.0
 14
12.00000000000053
 24
15.1528558277655
 34
0.0
 50
0.000000000000004
100
AcDbRotatedDimension
1001
PE_URL
1000

1001
ACAD
1000
DSTYLE
1002
{
1070
   171
1070
     8
1070
   273
1070
     7
1070
    41
1040
4.0
1070
   140
1040
4.0
1002
}
  0
DIMENSION
  5
E4
330
1F
100
AcDbEntity
  8
치수문자_일반주서
100
AcDbDimension
  2
_D_1
 10
-51.49999999999947
 20
45.87500000000001
 30
0.0
 11
56.45000000000055
 21
45.87500000000001
 31
0.0
 70
   160
  1
<>
 71
     2
 42
215.9
  3
SLDDIMSTYLE2
100
AcDbAlignedDimension
 13
164.4000000000005
 23
15.87500000000002
 33
0.0
 14
-51.49999999999947
 24
13.97
 34
0.0
 50
0.0000000000000038
100
AcDbRotatedDimension
1001
PE_URL
1000

1001
ACAD
1000
DSTYLE
1002
{
1070
   171
1070
     8
1070
   273
1070
     7
1070
    41
1040
4.0
1070
   140
1040
4.0
1002
}
  0
DIMENSION
  5
F7
330
1F
100
AcDbEntity
  8
치수문자_일반주서
100
AcDbDimension
  2
_D_2
 10
-66.49999999999936
 20
-15.87500000000007
 30
0.0
 11
-66.49999999999957
 21
41.74999999999994
 31
0.0
 70
   160
  1
%%c<>
 71
     2
 42
31.74999999999995
 52
-270.0
  3
SLDDIMSTYLE2
100
AcDbAlignedDimension
 13
-36.89499999999948
 23
15.87499999999998
 33
0.0
 14
-48.32499999999946
 24
-15.875
 34
0.0
 50
90.0000000000002
100
AcDbRotatedDimension
1001
PE_URL
1000

1001
ACAD
1000
DSTYLE
1002
{
1070
   171
1070
     8
1070
   273
1070
     7
1070
    41
1040
4.0
1070
   140
1040
4.0
1002
}
  0
DIMENSION
  5
10A
330
1F
100
AcDbEntity
  8
치수문자_일반주서
100
AcDbDimension
  2
_D_3
 10
179.4000000000005
 20
15.87500000000008
 30
0.0
 11
179.4000000000004
 21
46.75000000000007
 31
0.0
 70
   160
  1
%%c<>
 71
     2
 42
31.75
 52
-270.0
  3
SLDDIMSTYLE2
100
AcDbAlignedDimension
 13
164.4000000000005
 23
-15.87499999999998
 33
0.0
 14
164.4000000000005
 24
15.87500000000002
 34
0.0
 50
90.0000000000002
100
AcDbRotatedDimension
1001
PE_URL
1000

1001
ACAD
1000
DSTYLE
1002
{
1070
   171
1070
     8
1070
   273
1070
     7
1070
    41
1040
4.0
1070
   140
1040
4.0
1002
}
  0
LINE
  5
11D
330
1F
100
AcDbEntity
  8
참조1
100
AcDbLine
 10
60.68223381534612
 20
7.439999999999999
 30
0.0
 11
60.68223381534612
 21
-7.440000000000006
 31
0.0
  0
LINE
  5
11E
330
1F
100
AcDbEntity
  8
참조1
100
AcDbLine
 10
73.38223381534613
 20
5.439999999999999
 30
0.0
 11
60.68223381534612
 21
5.439999999999999
 31
0.0
  0
SOLID
  5
11F
330
1F
100
AcDbEntity
  8
참조1
100
AcDbTrace
 10
60.68223381534612
 20
5.439999999999999
 30
0.0
 11
67.0322338153461
 21
4.423999999999999
 31
0.0
 12
67.0322338153461
 22
6.455999999999999
 32
0.0
 13
67.0322338153461
 23
6.455999999999999
 33
0.0
  0
LINE
  5
120
330
1F
100
AcDbEntity
  8
참조1
100
AcDbLine
 10
73.38223381534613
 20
-5.440000000000006
 30
0.0
 11
60.68223381534612
 21
-5.440000000000006
 31
0.0
  0
SOLID
  5
121
330
1F
100
AcDbEntity
  8
참조1
100
AcDbTrace
 10
60.68223381534612
 20
-5.440000000000006
 30
0.0
 11
67.0322338153461
 21
-6.456000000000006
 31
0.0
 12
67.0322338153461
 22
-4.424000000000006
 32
0.0
 13
67.0322338153461
 23
-4.424000000000006
 33
0.0
  0
MTEXT
  5
122
330
1F
100
AcDbEntity
  8
참조1
100
AcDbMText
 10
70.0665839479721
 20
11.01029177718833
 30
0.0
 40
3.5
 41
0.0
 71
     1
 72
     1
  1
A
  7
SLDTEXTSTYLE0
 73
     1
 44
1.0
  0
MTEXT
  5
123
330
1F
100
AcDbEntity
  8
참조1
100
AcDbMText
 10
70.0665839479721
 20
0.1302917771883232
 30
0.0
 40
3.5
 41
0.0
 71
     1
 72
     1
  1
A
  7
SLDTEXTSTYLE0
 73
     1
 44
1.0
  0
INSERT
  5
12A
330
1F
100
AcDbEntity
  8
해칭선
100
AcDbBlockReference
  2
SW_DOWELSYMBOL_0
 10
0.0
 20
0.0
 30
0.0
  0
LINE
  5
1DC
330
1F
100
AcDbEntity
  8
외형선
  6
Continuous
370
    15
100
AcDbLine
 10
-29.08132499999938
 20
13.97
 30
0.0
 11
-15.97492499999949
 21
13.97
 31
0.0
1001
PE_URL
1000

  0
LINE
  5
1DD
330
1F
100
AcDbEntity
  8
외형선
  6
Continuous
370
    15
100
AcDbLine
 10
-29.08132499999938
 20
13.97
 30
0.0
 11
-30.98632499999935
 21
15.875
 31
0.0
1001
PE_URL
1000

  0
LINE
  5
1DE
330
1F
100
AcDbEntity
  8
외형선
  6
Continuous
370
    15
100
AcDbLine
 10
-15.97492499999949
 20
13.97
 30
0.0
 11
-14.06992499999946
 21
15.875
 31
0.0
1001
PE_URL
1000

  0
LINE
  5
1DF
330
1F
100
AcDbEntity
  8
외형선
  6
Continuous
370
    15
100
AcDbLine
 10
-51.49999999999947
 20
13.97
 30
0.0
 11
-38.79999999999946
 21
13.97
 31
0.0
1001
PE_URL
1000

  0
LINE
  5
1E0
330
1F
100
AcDbEntity
  8
외형선
  6
Continuous
370
    15
100
AcDbLine
 10
-38.79999999999946
 20
13.97
 30
0.0
 11
-36.89499999999948
 21
15.87499999999998
 31
0.0
1001
PE_URL
1000

  0
LINE
  5
1E1
330
1F
100
AcDbEntity
  8
외형선
  6
Continuous
370
    15
100
AcDbLine
 10
-30.98632499999936
 20
15.875
 30
0.0
 11
-36.89499999999947
 21
15.875
 31
0.0
  0
ENDSEC
  0
SECTION
  2
OBJECTS
  0
DICTIONARY
  5
C
330
0
100
AcDbDictionary
281
     1
  3
ACAD_GROUP
350
D
  3
ACAD_IMAGE_VARS
350
205
  3
ACAD_LAYOUT
350
1A
  3
ACAD_MLINESTYLE
350
17
  3
ACAD_PLOTSETTINGS
350
19
  3
ACAD_PLOTSTYLENAME
350
E
  3
ACAD_SCALELIST
350
47
  3
APPDATA
350
14C
  3
DWGPROPS
350
206
  0
DICTIONARY
  5
182
330
2
100
AcDbDictionary
280
     1
281
     1
  3
ACAD_LAYERSTATES
360
183
  0
DICTIONARY
  5
D
102
{ACAD_REACTORS
330
C
102
}
330
C
100
AcDbDictionary
281
     1
  0
RASTERVARIABLES
  5
205
102
{ACAD_REACTORS
330
C
102
}
330
C
100
AcDbRasterVariables
 90
        0
 70
     1
 71
     1
 72
     1
  0
DICTIONARY
  5
1A
102
{ACAD_REACTORS
330
C
102
}
330
C
100
AcDbDictionary
281
     1
  3
Layout1
350
1E
  3
Layout2
350
26
  3
Model
350
22
  0
DICTIONARY
  5
17
102
{ACAD_REACTORS
330
C
102
}
330
C
100
AcDbDictionary
281
     1
  3
Standard
350
18
  0
DICTIONARY
  5
19
102
{ACAD_REACTORS
330
C
102
}
330
C
100
AcDbDictionary
281
     1
  0
ACDBDICTIONARYWDFLT
  5
E
102
{ACAD_REACTORS
330
C
102
}
330
C
100
AcDbDictionary
281
     1
  3
Normal
350
F
100
AcDbDictionaryWithDefault
340
F
  0
DICTIONARY
  5
47
102
{ACAD_REACTORS
330
C
102
}
330
C
100
AcDbDictionary
281
     1
  3
A0
350
48
  3
A1
350
49
  3
A2
350
4A
  3
A3
350
4B
  3
A4
350
4C
  3
A5
350
4D
  3
A6
350
4E
  3
A7
350
4F
  3
A8
350
50
  3
A9
350
51
  3
B0
350
52
  3
B1
350
53
  3
B2
350
54
  3
B3
350
55
  3
B4
350
56
  3
B5
350
57
  3
B6
350
58
  3
B7
350
59
  3
B8
350
5A
  3
B9
350
5B
  3
C0
350
5C
  3
C1
350
5D
  3
C2
350
5E
  3
C3
350
5F
  3
C4
350
60
  3
C5
350
61
  3
C6
350
62
  3
C7
350
63
  3
C8
350
64
  3
C9
350
65
  3
D0
350
66
  3
D1
350
67
  3
D2
350
68
  0
DICTIONARY
  5
14C
102
{ACAD_REACTORS
330
C
102
}
330
C
100
AcDbDictionary
281
     1
  0
XRECORD
  5
206
102
{ACAD_REACTORS
330
C
102
}
330
C
100
AcDbXrecord
280
     1
  1
DWGPROPS COOKIE
  2

  3

  4

  6

  7

  8
12016016
  9

300
=
301
=
302
=
303
=
304
=
305
=
306
=
307
=
308
=
309
=
 40
0.0
 41
2458312.259156447
 42
2458330.312916262
  1

 90
        0
  0
DICTIONARY
  5
183
102
{ACAD_REACTORS
330
182
102
}
330
182
100
AcDbDictionary
281
     1
  0
LAYOUT
  5
1E
102
{ACAD_REACTORS
330
1A
102
}
330
1A
100
AcDbPlotSettings
  1

  2
none_device
  4

  6

 40
0.0
 41
0.0
 42
0.0
 43
0.0
 44
0.0
 45
0.0
 46
0.0
 47
0.0
 48
0.0
 49
0.0
140
0.0
141
0.0
142
1.0
143
1.0
 70
   688
 72
     1
 73
     0
 74
     5
  7

 75
    16
147
1.0
148
0.0
149
0.0
100
AcDbLayout
  1
Layout1
 70
     1
 71
     1
 10
0.0
 20
0.0
 11
420.0
 21
297.0
 12
0.0
 22
0.0
 32
0.0
 14
1.000000000000000E+20
 24
1.000000000000000E+20
 34
1.000000000000000E+20
 15
-1.000000000000000E+20
 25
-1.000000000000000E+20
 35
-1.000000000000000E+20
146
0.0
 13
0.0
 23
0.0
 33
0.0
 16
1.0
 26
0.0
 36
0.0
 17
0.0
 27
1.0
 37
0.0
 76
     0
330
1B
  0
LAYOUT
  5
26
102
{ACAD_REACTORS
330
1A
102
}
330
1A
100
AcDbPlotSettings
  1

  2
none_device
  4

  6

 40
0.0
 41
0.0
 42
0.0
 43
0.0
 44
0.0
 45
0.0
 46
0.0
 47
0.0
 48
0.0
 49
0.0
140
0.0
141
0.0
142
1.0
143
1.0
 70
   688
 72
     1
 73
     0
 74
     5
  7

 75
    16
147
1.0
148
0.0
149
0.0
100
AcDbLayout
  1
Layout2
 70
     1
 71
     2
 10
0.0
 20
0.0
 11
0.0
 21
0.0
 12
0.0
 22
0.0
 32
0.0
 14
0.0
 24
0.0
 34
0.0
 15
0.0
 25
0.0
 35
0.0
146
0.0
 13
0.0
 23
0.0
 33
0.0
 16
1.0
 26
0.0
 36
0.0
 17
0.0
 27
1.0
 37
0.0
 76
     0
330
23
  0
LAYOUT
  5
22
102
{ACAD_REACTORS
330
1A
102
}
330
1A
100
AcDbPlotSettings
  1

  2
none_device
  4
ANSI_A_(11.00_x_8.50_Inches)
  6

 40
6.35
 41
19.05
 42
6.35000508
 43
19.05000254
 44
279.4
 45
215.9
 46
24.95494972953248
 47
43.30293198143824
 48
0.0
 49
0.0
140
0.0
141
0.0
142
0.0217109174726312
143
1.0
 70
  1696
 72
     0
 73
     0
 74
     0
  7

 75
     0
147
0.0235690232323232
148
0.0
149
0.0
100
AcDbLayout
  1
Model
 70
     1
 71
     0
 10
0.0
 20
0.0
 11
420.0
 21
297.0
 12
0.0
 22
0.0
 32
0.0
 14
-71.3749999999996
 24
-49.97180738881175
 34
0.0
 15
180.0666666666673
 25
64.62500000000009
 35
0.0
146
0.0
 13
0.0
 23
0.0
 33
0.0
 16
1.0
 26
0.0
 36
0.0
 17
0.0
 27
1.0
 37
0.0
 76
     0
330
1F
331
29
  0
MLINESTYLE
  5
18
102
{ACAD_REACTORS
330
17
102
}
330
17
100
AcDbMlineStyle
  2
Standard
 70
     0
  3

 62
   256
 51
90.0
 52
90.0
 71
     2
 49
0.5
 62
   256
  6
BYLAYER
 49
-0.5
 62
   256
  6
BYLAYER
  0
ACDBPLACEHOLDER
  5
F
102
{ACAD_REACTORS
330
E
102
}
330
E
  0
SCALE
  5
48
102
{ACAD_REACTORS
330
47
102
}
330
47
100
AcDbScale
 70
     0
300
1:1
140
1.0
141
1.0
290
     1
  0
SCALE
  5
49
102
{ACAD_REACTORS
330
47
102
}
330
47
100
AcDbScale
 70
     0
300
1:2
140
1.0
141
2.0
290
     0
  0
SCALE
  5
4A
102
{ACAD_REACTORS
330
47
102
}
330
47
100
AcDbScale
 70
     0
300
1:4
140
1.0
141
4.0
290
     0
  0
SCALE
  5
4B
102
{ACAD_REACTORS
330
47
102
}
330
47
100
AcDbScale
 70
     0
300
1:5
140
1.0
141
5.0
290
     0
  0
SCALE
  5
4C
102
{ACAD_REACTORS
330
47
102
}
330
47
100
AcDbScale
 70
     0
300
1:8
140
1.0
141
8.0
290
     0
  0
SCALE
  5
4D
102
{ACAD_REACTORS
330
47
102
}
330
47
100
AcDbScale
 70
     0
300
1:10
140
1.0
141
10.0
290
     0
  0
SCALE
  5
4E
102
{ACAD_REACTORS
330
47
102
}
330
47
100
AcDbScale
 70
     0
300
1:16
140
1.0
141
16.0
290
     0
  0
SCALE
  5
4F
102
{ACAD_REACTORS
330
47
102
}
330
47
100
AcDbScale
 70
     0
300
1:20
140
1.0
141
20.0
290
     0
  0
SCALE
  5
50
102
{ACAD_REACTORS
330
47
102
}
330
47
100
AcDbScale
 70
     0
300
1:30
140
1.0
141
30.0
290
     0
  0
SCALE
  5
51
102
{ACAD_REACTORS
330
47
102
}
330
47
100
AcDbScale
 70
     0
300
1:40
140
1.0
141
40.0
290
     0
  0
SCALE
  5
52
102
{ACAD_REACTORS
330
47
102
}
330
47
100
AcDbScale
 70
     0
300
1:50
140
1.0
141
50.0
290
     0
  0
SCALE
  5
53
102
{ACAD_REACTORS
330
47
102
}
330
47
100
AcDbScale
 70
     0
300
1:100
140
1.0
141
100.0
290
     0
  0
SCALE
  5
54
102
{ACAD_REACTORS
330
47
102
}
330
47
100
AcDbScale
 70
     0
300
2:1
140
2.0
141
1.0
290
     0
  0
SCALE
  5
55
102
{ACAD_REACTORS
330
47
102
}
330
47
100
AcDbScale
 70
     0
300
4:1
140
4.0
141
1.0
290
     0
  0
SCALE
  5
56
102
{ACAD_REACTORS
330
47
102
}
330
47
100
AcDbScale
 70
     0
300
8:1
140
8.0
141
1.0
290
     0
  0
SCALE
  5
57
102
{ACAD_REACTORS
330
47
102
}
330
47
100
AcDbScale
 70
     0
300
10:1
140
10.0
141
1.0
290
     0
  0
SCALE
  5
58
102
{ACAD_REACTORS
330
47
102
}
330
47
100
AcDbScale
 70
     0
300
100:1
140
100.0
141
1.0
290
     0
  0
SCALE
  5
59
102
{ACAD_REACTORS
330
47
102
}
330
47
100
AcDbScale
 70
     0
300
1/128" = 1'-0"
140
0.0078125
141
12.0
290
     0
  0
SCALE
  5
5A
102
{ACAD_REACTORS
330
47
102
}
330
47
100
AcDbScale
 70
     0
300
1/64" = 1'-0"
140
0.015625
141
12.0
290
     0
  0
SCALE
  5
5B
102
{ACAD_REACTORS
330
47
102
}
330
47
100
AcDbScale
 70
     0
300
1/32" = 1'-0"
140
0.03125
141
12.0
290
     0
  0
SCALE
  5
5C
102
{ACAD_REACTORS
330
47
102
}
330
47
100
AcDbScale
 70
     0
300
1/16" = 1'-0"
140
0.0625
141
12.0
290
     0
  0
SCALE
  5
5D
102
{ACAD_REACTORS
330
47
102
}
330
47
100
AcDbScale
 70
     0
300
3/32" = 1'-0"
140
0.09375
141
12.0
290
     0
  0
SCALE
  5
5E
102
{ACAD_REACTORS
330
47
102
}
330
47
100
AcDbScale
 70
     0
300
1/8" = 1'-0"
140
0.125
141
12.0
290
     0
  0
SCALE
  5
5F
102
{ACAD_REACTORS
330
47
102
}
330
47
100
AcDbScale
 70
     0
300
3/16" = 1'-0"
140
0.1875
141
12.0
290
     0
  0
SCALE
  5
60
102
{ACAD_REACTORS
330
47
102
}
330
47
100
AcDbScale
 70
     0
300
1/4" = 1'-0"
140
0.25
141
12.0
290
     0
  0
SCALE
  5
61
102
{ACAD_REACTORS
330
47
102
}
330
47
100
AcDbScale
 70
     0
300
3/8" = 1'-0"
140
0.375
141
12.0
290
     0
  0
SCALE
  5
62
102
{ACAD_REACTORS
330
47
102
}
330
47
100
AcDbScale
 70
     0
300
1/2" = 1'-0"
140
0.5
141
12.0
290
     0
  0
SCALE
  5
63
102
{ACAD_REACTORS
330
47
102
}
330
47
100
AcDbScale
 70
     0
300
3/4" = 1'-0"
140
0.75
141
12.0
290
     0
  0
SCALE
  5
64
102
{ACAD_REACTORS
330
47
102
}
330
47
100
AcDbScale
 70
     0
300
1" = 1'-0"
140
1.0
141
12.0
290
     0
  0
SCALE
  5
65
102
{ACAD_REACTORS
330
47
102
}
330
47
100
AcDbScale
 70
     0
300
1-1/2" = 1'-0"
140
1.5
141
12.0
290
     0
  0
SCALE
  5
66
102
{ACAD_REACTORS
330
47
102
}
330
47
100
AcDbScale
 70
     0
300
3" = 1'-0"
140
3.0
141
12.0
290
     0
  0
SCALE
  5
67
102
{ACAD_REACTORS
330
47
102
}
330
47
100
AcDbScale
 70
     0
300
6" = 1'-0"
140
6.0
141
12.0
290
     0
  0
SCALE
  5
68
102
{ACAD_REACTORS
330
47
102
}
330
47
100
AcDbScale
 70
     0
300
1'-0" = 1'-0"
140
12.0
141
12.0
290
     0
  0
ENDSEC
  0
EOF
