  0
SECTION
  2
HEADER
  9
$ACADVER
  1
AC1015
  9
$ACADMAINTVER
 70
     6
  9
$DWGCODEPAGE
  3
ANSI_949
  9
$INSBASE
 10
0.0
 20
0.0
 30
0.0
  9
$EXTMIN
 10
-55.17500000000013
 20
-49.97180738881176
 30
0.0
  9
$EXTMAX
 10
102.3384838153456
 20
39.64150000000004
 30
0.0
  9
$LIMMIN
 10
0.0
 20
0.0
  9
$LIMMAX
 10
420.0
 20
297.0
  9
$ORTHOMODE
 70
     1
  9
$REGENMODE
 70
     1
  9
$FILLMODE
 70
     1
  9
$QTEXTMODE
 70
     0
  9
$MIRRTEXT
 70
     1
  9
$LTSCALE
 40
1.0
  9
$ATTMODE
 70
     1
  9
$TEXTSIZE
 40
3.5
  9
$TRACEWID
 40
1.0
  9
$TEXTSTYLE
  7
Standard
  9
$CLAYER
  8
0
  9
$CELTYPE
  6
ByLayer
  9
$CECOLOR
 62
   256
  9
$CELTSCALE
 40
1.0
  9
$DISPSILH
 70
     0
  9
$DIMSCALE
 40
1.0
  9
$DIMASZ
 40
3.302
  9
$DIMEXO
 40
1.0
  9
$DIMDLI
 40
3.75
  9
$DIMRND
 40
0.0
  9
$DIMDLE
 40
0.0
  9
$DIMEXE
 40
1.0
  9
$DIMTP
 40
0.0
  9
$DIMTM
 40
0.0
  9
$DIMTXT
 40
3.5
  9
$DIMCEN
 40
2.5
  9
$DIMTSZ
 40
0.0
  9
$DIMTOL
 70
     0
  9
$DIMLIM
 70
     0
  9
$DIMTIH
 70
     1
  9
$DIMTOH
 70
     1
  9
$DIMSE1
 70
     0
  9
$DIMSE2
 70
     0
  9
$DIMTAD
 70
     1
  9
$DIMZIN
 70
     0
  9
$DIMBLK
  1

  9
$DIMASO
 70
     1
  9
$DIMSHO
 70
     1
  9
$DIMPOST
  1

  9
$DIMAPOST
  1

  9
$DIMALT
 70
     0
  9
$DIMALTD
 70
     3
  9
$DIMALTF
 40
0.0393700787401575
  9
$DIMLFAC
 40
1.0
  9
$DIMTOFL
 70
     1
  9
$DIMTVP
 40
0.0
  9
$DIMTIX
 70
     0
  9
$DIMSOXD
 70
     0
  9
$DIMSAH
 70
     0
  9
$DIMBLK1
  1

  9
$DIMBLK2
  1

  9
$DIMSTYLE
  2
ISO-25
  9
$DIMCLRD
 70
     0
  9
$DIMCLRE
 70
     0
  9
$DIMCLRT
 70
     0
  9
$DIMTFAC
 40
1.0
  9
$DIMGAP
 40
1.524
  9
$DIMJUST
 70
     0
  9
$DIMSD1
 70
     0
  9
$DIMSD2
 70
     0
  9
$DIMTOLJ
 70
     0
  9
$DIMTZIN
 70
     0
  9
$DIMALTZ
 70
     0
  9
$DIMALTTZ
 70
     0
  9
$DIMUPT
 70
     0
  9
$DIMDEC
 70
     2
  9
$DIMTDEC
 70
     2
  9
$DIMALTU
 70
     2
  9
$DIMALTTD
 70
     3
  9
$DIMTXSTY
  7
Standard
  9
$DIMAUNIT
 70
     0
  9
$DIMADEC
 70
     2
  9
$DIMALTRND
 40
0.0
  9
$DIMAZIN
 70
     0
  9
$DIMDSEP
 70
    44
  9
$DIMATFIT
 70
     3
  9
$DIMFRAC
 70
     0
  9
$DIMLDRBLK
  1

  9
$DIMLUNIT
 70
     2
  9
$DIMLWD
 70
    -2
  9
$DIMLWE
 70
    -2
  9
$DIMTMOVE
 70
     0
  9
$LUNITS
 70
     2
  9
$LUPREC
 70
     2
  9
$SKETCHINC
 40
1.0
  9
$FILLETRAD
 40
10.0
  9
$AUNITS
 70
     0
  9
$AUPREC
 70
     2
  9
$MENU
  1
.
  9
$ELEVATION
 40
0.0
  9
$PELEVATION
 40
0.0
  9
$THICKNESS
 40
0.0
  9
$LIMCHECK
 70
     0
  9
$CHAMFERA
 40
0.0
  9
$CHAMFERB
 40
0.0
  9
$CHAMFERC
 40
0.0
  9
$CHAMFERD
 40
0.0
  9
$SKPOLY
 70
     0
  9
$TDCREATE
 40
2458323.437297049
  9
$TDUCREATE
 40
2458323.062297049
  9
$TDUPDATE
 40
2458330.765716609
  9
$TDUUPDATE
 40
2458330.390716609
  9
$TDINDWG
 40
0.0003661343
  9
$TDUSRTIMER
 40
2458330.390675567
  9
$USRTIMER
 70
     1
  9
$ANGBASE
 50
0.0
  9
$ANGDIR
 70
     0
  9
$PDMODE
 70
     0
  9
$PDSIZE
 40
-1.0
  9
$PLINEWID
 40
0.0
  9
$SPLFRAME
 70
     0
  9
$SPLINETYPE
 70
     6
  9
$SPLINESEGS
 70
     8
  9
$HANDSEED
  5
215
  9
$SURFTAB1
 70
     6
  9
$SURFTAB2
 70
     6
  9
$SURFTYPE
 70
     6
  9
$SURFU
 70
     6
  9
$SURFV
 70
     6
  9
$UCSBASE
  2

  9
$UCSNAME
  2

  9
$UCSORG
 10
0.0
 20
0.0
 30
0.0
  9
$UCSXDIR
 10
1.0
 20
0.0
 30
0.0
  9
$UCSYDIR
 10
0.0
 20
1.0
 30
0.0
  9
$UCSORTHOREF
  2

  9
$UCSORTHOVIEW
 70
     0
  9
$UCSORGTOP
 10
0.0
 20
0.0
 30
0.0
  9
$UCSORGBOTTOM
 10
0.0
 20
0.0
 30
0.0
  9
$UCSORGLEFT
 10
0.0
 20
0.0
 30
0.0
  9
$UCSORGRIGHT
 10
0.0
 20
0.0
 30
0.0
  9
$UCSORGFRONT
 10
0.0
 20
0.0
 30
0.0
  9
$UCSORGBACK
 10
0.0
 20
0.0
 30
0.0
  9
$PUCSBASE
  2

  9
$PUCSNAME
  2

  9
$PUCSORG
 10
0.0
 20
0.0
 30
0.0
  9
$PUCSXDIR
 10
1.0
 20
0.0
 30
0.0
  9
$PUCSYDIR
 10
0.0
 20
1.0
 30
0.0
  9
$PUCSORTHOREF
  2

  9
$PUCSORTHOVIEW
 70
     0
  9
$PUCSORGTOP
 10
0.0
 20
0.0
 30
0.0
  9
$PUCSORGBOTTOM
 10
0.0
 20
0.0
 30
0.0
  9
$PUCSORGLEFT
 10
0.0
 20
0.0
 30
0.0
  9
$PUCSORGRIGHT
 10
0.0
 20
0.0
 30
0.0
  9
$PUCSORGFRONT
 10
0.0
 20
0.0
 30
0.0
  9
$PUCSORGBACK
 10
0.0
 20
0.0
 30
0.0
  9
$USERI1
 70
     0
  9
$USERI2
 70
     0
  9
$USERI3
 70
     0
  9
$USERI4
 70
     0
  9
$USERI5
 70
     0
  9
$USERR1
 40
0.0
  9
$USERR2
 40
0.0
  9
$USERR3
 40
0.0
  9
$USERR4
 40
0.0
  9
$USERR5
 40
0.0
  9
$WORLDVIEW
 70
     1
  9
$SHADEDGE
 70
     3
  9
$SHADEDIF
 70
    70
  9
$TILEMODE
 70
     1
  9
$MAXACTVP
 70
    64
  9
$PINSBASE
 10
0.0
 20
0.0
 30
0.0
  9
$PLIMCHECK
 70
     0
  9
$PEXTMIN
 10
1.000000000000000E+20
 20
1.000000000000000E+20
 30
1.000000000000000E+20
  9
$PEXTMAX
 10
-1.000000000000000E+20
 20
-1.000000000000000E+20
 30
-1.000000000000000E+20
  9
$PLIMMIN
 10
0.0
 20
0.0
  9
$PLIMMAX
 10
0.0
 20
0.0
  9
$UNITMODE
 70
     0
  9
$VISRETAIN
 70
     1
  9
$PLINEGEN
 70
     0
  9
$PSLTSCALE
 70
     1
  9
$TREEDEPTH
 70
  3020
  9
$CMLSTYLE
  2
Standard
  9
$CMLJUST
 70
     0
  9
$CMLSCALE
 40
20.0
  9
$PROXYGRAPHICS
 70
     1
  9
$MEASUREMENT
 70
     1
  9
$CELWEIGHT
370
    -1
  9
$ENDCAPS
280
     0
  9
$JOINSTYLE
280
     0
  9
$LWDISPLAY
290
     1
  9
$INSUNITS
 70
     4
  9
$HYPERLINKBASE
  1

  9
$STYLESHEET
  1

  9
$XEDIT
290
     1
  9
$CEPSNTYPE
380
     0
  9
$PSTYLEMODE
290
     1
  9
$FINGERPRINTGUID
  2
{58EA6505-9CE8-40F4-872C-1C48B338314A}
  9
$VERSIONGUID
  2
{FAEB1C32-E019-11D5-929B-00C0DF256EC4}
  9
$EXTNAMES
290
     1
  9
$PSVPSCALE
 40
0.0
  9
$OLESTARTUP
290
     0
  0
ENDSEC
  0
SECTION
  2
CLASSES
  0
CLASS
  1
ACDBDICTIONARYWDFLT
  2
AcDbDictionaryWithDefault
  3
ObjectDBX Classes
 90
        0
280
     0
281
     0
  0
CLASS
  1
VISUALSTYLE
  2
AcDbVisualStyle
  3
ObjectDBX Classes
 90
     4095
280
     0
281
     0
  0
CLASS
  1
MATERIAL
  2
AcDbMaterial
  3
ObjectDBX Classes
 90
     1153
280
     0
281
     0
  0
CLASS
  1
SCALE
  2
AcDbScale
  3
ObjectDBX Classes
 90
     1153
280
     0
281
     0
  0
CLASS
  1
SUN
  2
AcDbSun
  3
SCENEOE
 90
     1153
280
     0
281
     0
  0
CLASS
  1
ACDBPLACEHOLDER
  2
AcDbPlaceHolder
  3
ObjectDBX Classes
 90
        0
280
     0
281
     0
  0
CLASS
  1
LAYOUT
  2
AcDbLayout
  3
ObjectDBX Classes
 90
        0
280
     0
281
     0
  0
CLASS
  1
TABLESTYLE
  2
AcDbTableStyle
  3
ObjectDBX Classes
 90
     4095
280
     0
281
     0
  0
CLASS
  1
MLEADERSTYLE
  2
AcDbMLeaderStyle
  3
ACDB_MLEADERSTYLE_CLASS
 90
     4095
280
     0
281
     0
  0
CLASS
  1
RASTERVARIABLES
  2
AcDbRasterVariables
  3
ISM
 90
        0
280
     0
281
     0
  0
ENDSEC
  0
SECTION
  2
TABLES
  0
TABLE
  2
VPORT
  5
8
330
0
100
AcDbSymbolTable
 70
     1
  0
VPORT
  5
29
330
8
100
AcDbSymbolTableRecord
100
AcDbViewportTableRecord
  2
*Active
 70
     0
 10
0.0
 20
0.0
 11
1.0
 21
1.0
 12
23.58174190767274
 22
-5.165153694405895
 13
0.0
 23
0.0
 14
10.0
 24
10.0
 15
10.0
 25
10.0
 16
0.0
 26
0.0
 36
1.0
 17
0.0
 27
0.0
 37
0.0
 40
91.40557353658797
 41
1.782762691853601
 42
50.0
 43
0.0
 44
0.0
 50
0.0
 51
0.0
 71
    16
 72
  2000
 73
     1
 74
     3
 75
     0
 76
     0
 77
     0
 78
     0
281
     0
 65
     1
110
0.0
120
0.0
130
0.0
111
1.0
121
0.0
131
0.0
112
0.0
122
1.0
132
0.0
 79
     0
146
0.0
  0
ENDTAB
  0
TABLE
  2
LTYPE
  5
5
330
0
100
AcDbSymbolTable
 70
     6
  0
LTYPE
  5
14
330
5
100
AcDbSymbolTableRecord
100
AcDbLinetypeTableRecord
  2
ByBlock
 70
     0
  3

 72
    65
 73
     0
 40
0.0
  0
LTYPE
  5
15
330
5
100
AcDbSymbolTableRecord
100
AcDbLinetypeTableRecord
  2
ByLayer
 70
     0
  3

 72
    65
 73
     0
 40
0.0
  0
LTYPE
  5
16
330
5
100
AcDbSymbolTableRecord
100
AcDbLinetypeTableRecord
  2
Continuous
 70
     0
  3
Solid line
 72
    65
 73
     0
 40
0.0
  0
LTYPE
  5
6A
330
5
100
AcDbSymbolTableRecord
100
AcDbLinetypeTableRecord
  2
HIDDEN
 70
     0
  3
Hidden __ __ __ __ __ __ __ __ __ __ __ __ __ __
 72
    65
 73
     2
 40
1.905
 49
1.27
 74
     0
 49
-0.635
 74
     0
  0
LTYPE
  5
6B
330
5
100
AcDbSymbolTableRecord
100
AcDbLinetypeTableRecord
  2
PHANTOM
 70
     0
  3
Phantom ______  __  __  ______  __  __  ______
 72
    65
 73
     6
 40
12.7
 49
6.35
 74
     0
 49
-1.27
 74
     0
 49
1.27
 74
     0
 49
-1.27
 74
     0
 49
1.27
 74
     0
 49
-1.27
 74
     0
  0
LTYPE
  5
6C
330
5
100
AcDbSymbolTableRecord
100
AcDbLinetypeTableRecord
  2
CENTER
 70
     0
  3
Center ____ _ ____ _ ____ _ ____ _ ____ _ ____
 72
    65
 73
     4
 40
10.16
 49
6.35
 74
     0
 49
-1.27
 74
     0
 49
1.27
 74
     0
 49
-1.27
 74
     0
  0
LTYPE
  5
6D
330
5
100
AcDbSymbolTableRecord
100
AcDbLinetypeTableRecord
  2
CENTERX2
 70
     0
  3
Center (2x) ________  __  ________  __  _____
 72
    65
 73
     4
 40
20.32
 49
12.7
 74
     0
 49
-2.54
 74
     0
 49
2.54
 74
     0
 49
-2.54
 74
     0
  0
LTYPE
  5
6E
330
5
100
AcDbSymbolTableRecord
100
AcDbLinetypeTableRecord
  2
DOT2
 70
     0
  3
Dot (.5x) ........................................
 72
    65
 73
     2
 40
0.635
 49
0.0
 74
     0
 49
-0.635
 74
     0
  0
ENDTAB
  0
TABLE
  2
LAYER
  5
2
102
{ACAD_XDICTIONARY
360
197
102
}
330
0
100
AcDbSymbolTable
 70
    18
  0
LAYER
  5
10
330
2
100
AcDbSymbolTableRecord
100
AcDbLayerTableRecord
  2
0
 70
     0
 62
     7
  6
Continuous
370
    -3
390
F
  0
LAYER
  5
6F
330
2
100
AcDbSymbolTableRecord
100
AcDbLayerTableRecord
  2
FORMAT
 70
     0
 62
     2
  6
Continuous
370
    -3
390
F
  0
LAYER
  5
70
330
2
100
AcDbSymbolTableRecord
100
AcDbLayerTableRecord
  2
외형선
 70
     0
 62
     4
  6
Continuous
370
    30
390
F
  0
LAYER
  5
71
330
2
100
AcDbSymbolTableRecord
100
AcDbLayerTableRecord
  2
숨은선
 70
     0
 62
     2
  6
HIDDEN
370
    15
390
F
  0
LAYER
  5
72
330
2
100
AcDbSymbolTableRecord
100
AcDbLayerTableRecord
  2
중심선
 70
     0
 62
     1
  6
CENTERX2
370
    -3
390
F
  0
LAYER
  5
73
330
2
100
AcDbSymbolTableRecord
100
AcDbLayerTableRecord
  2
파단선
 70
     0
 62
     4
  6
Continuous
370
    -3
390
F
  0
LAYER
  5
74
330
2
100
AcDbSymbolTableRecord
100
AcDbLayerTableRecord
  2
해칭선
 70
     0
 62
   100
  6
Continuous
370
    -3
390
F
  0
LAYER
  5
75
330
2
100
AcDbSymbolTableRecord
100
AcDbLayerTableRecord
  2
가는실선
 70
     0
 62
     4
  6
Continuous
370
    -3
390
F
  0
LAYER
  5
76
330
2
100
AcDbSymbolTableRecord
100
AcDbLayerTableRecord
  2
치수_보조선
 70
     0
 62
     4
  6
Continuous
370
    -3
390
F
  0
LAYER
  5
77
330
2
100
AcDbSymbolTableRecord
100
AcDbLayerTableRecord
  2
치수문자_일반주서
 70
     0
 62
     7
  6
Continuous
370
    15
390
F
  0
LAYER
  5
78
330
2
100
AcDbSymbolTableRecord
100
AcDbLayerTableRecord
  2
개별주서
 70
     0
 62
   100
  6
Continuous
370
    30
390
F
  0
LAYER
  5
79
330
2
100
AcDbSymbolTableRecord
100
AcDbLayerTableRecord
  2
중간선
 70
     0
 62
     2
  6
Continuous
370
    15
390
F
  0
LAYER
  5
7A
330
2
100
AcDbSymbolTableRecord
100
AcDbLayerTableRecord
  2
윤곽선
 70
     0
 62
     3
  6
Continuous
370
    40
390
F
  0
LAYER
  5
7B
330
2
100
AcDbSymbolTableRecord
100
AcDbLayerTableRecord
  2
중심마크
 70
     0
 62
   100
  6
Continuous
370
    30
390
F
  0
LAYER
  5
7C
330
2
100
AcDbSymbolTableRecord
100
AcDbLayerTableRecord
  2
가상선
 70
     0
 62
     4
  6
PHANTOM
370
    -3
390
F
  0
LAYER
  5
7D
330
2
100
AcDbSymbolTableRecord
100
AcDbLayerTableRecord
  2
특수지정선
 70
     0
 62
     5
  6
CENTERX2
370
    60
390
F
  0
LAYER
  5
7E
330
2
100
AcDbSymbolTableRecord
100
AcDbLayerTableRecord
  2
참조1
 70
     0
 62
    -4
  6
Continuous
370
    -3
390
F
  0
LAYER
  5
164
330
2
100
AcDbSymbolTableRecord
100
AcDbLayerTableRecord
  2
Defpoints
 70
     0
 62
     7
  6
Continuous
290
     0
370
    -3
390
F
  0
ENDTAB
  0
TABLE
  2
STYLE
  5
3
330
0
100
AcDbSymbolTable
 70
     2
  0
STYLE
  5
11
330
3
100
AcDbSymbolTableRecord
100
AcDbTextStyleTableRecord
  2
Standard
 70
     0
 40
0.0
 41
1.0
 50
0.0
 71
     0
 42
3.5
  3
txt
  4

  0
STYLE
  5
94
330
3
100
AcDbSymbolTableRecord
100
AcDbTextStyleTableRecord
  2
SLDTEXTSTYLE0
 70
     0
 40
0.0
 41
0.75
 50
0.0
 71
     0
 42
3.5
  3
TXT
  4

  0
ENDTAB
  0
TABLE
  2
VIEW
  5
6
330
0
100
AcDbSymbolTable
 70
     0
  0
ENDTAB
  0
TABLE
  2
UCS
  5
7
330
0
100
AcDbSymbolTable
 70
     0
  0
ENDTAB
  0
TABLE
  2
APPID
  5
9
330
0
100
AcDbSymbolTable
 70
     2
  0
APPID
  5
12
330
9
100
AcDbSymbolTableRecord
100
AcDbRegAppTableRecord
  2
ACAD
 70
     0
  0
APPID
  5
1B6
330
9
100
AcDbSymbolTableRecord
100
AcDbRegAppTableRecord
  2
PE_URL
 70
     0
  0
ENDTAB
  0
TABLE
  2
DIMSTYLE
  5
A
330
0
100
AcDbSymbolTable
 70
     4
100
AcDbDimStyleTable
  0
DIMSTYLE
105
27
330
A
100
AcDbSymbolTableRecord
100
AcDbDimStyleTableRecord
  2
ISO-25
 70
     0
 41
2.5
 42
0.625
 43
3.75
 44
1.25
 73
     0
 74
     0
 77
     1
 78
     8
140
2.5
141
2.5
143
0.03937007874016
147
0.625
171
     3
172
     1
178
     0
271
     2
272
     2
274
     3
278
    44
283
     0
284
     8
340
11
  0
DIMSTYLE
105
E4
102
{ACAD_REACTORS
330
E3
330
F8
330
10C
330
11F
102
}
330
A
100
AcDbSymbolTableRecord
100
AcDbDimStyleTableRecord
  2
SLDDIMSTYLE0
 70
     0
 41
3.302
 44
0.0
 45
0.000000001
 73
     0
 74
     0
 77
     1
 78
     4
 79
     1
140
3.5
143
0.0393700787401575
147
0.875
148
0.000000001
170
     1
172
     1
173
     1
178
     0
271
     2
272
     2
276
     2
284
    12
289
     0
340
94
  0
DIMSTYLE
105
F9
330
A
100
AcDbSymbolTableRecord
100
AcDbDimStyleTableRecord
  2
SLDDIMSTYLE1
 70
     0
 41
3.302
 44
0.0
 45
0.000000001
 73
     0
 74
     0
 77
     1
 78
    12
 79
     3
140
3.5
143
0.0393700787401575
147
0.875
148
0.000000001
170
     1
173
     1
178
     0
271
     2
272
     2
276
     2
284
    12
340
94
  0
DIMSTYLE
105
120
330
A
100
AcDbSymbolTableRecord
100
AcDbDimStyleTableRecord
  2
SLDDIMSTYLE2
 70
     0
 41
3.302
 44
0.0
 45
0.000000001
 73
     0
 74
     0
 77
     1
 78
     4
 79
     1
140
3.5
143
0.0393700787401575
147
0.875
148
0.000000001
170
     1
173
     1
178
     0
271
     2
272
     2
276
     2
284
    12
340
94
  0
ENDTAB
  0
TABLE
  2
BLOCK_RECORD
  5
1
330
0
100
AcDbSymbolTable
 70
     9
  0
BLOCK_RECORD
  5
1F
330
1
100
AcDbSymbolTableRecord
100
AcDbBlockTableRecord
  2
*Model_Space
340
22
  0
BLOCK_RECORD
  5
1B
330
1
100
AcDbSymbolTableRecord
100
AcDbBlockTableRecord
  2
*Paper_Space
340
1E
  0
BLOCK_RECORD
  5
23
330
1
100
AcDbSymbolTableRecord
100
AcDbBlockTableRecord
  2
*Paper_Space0
340
26
  0
BLOCK_RECORD
  5
7F
330
1
100
AcDbSymbolTableRecord
100
AcDbBlockTableRecord
  2
블럭10
340
0
102
{BLKREFS
331
DC
102
}
  0
BLOCK_RECORD
  5
E5
330
1
100
AcDbSymbolTableRecord
100
AcDbBlockTableRecord
  2
_D
340
0
  0
BLOCK_RECORD
  5
FA
330
1
100
AcDbSymbolTableRecord
100
AcDbBlockTableRecord
  2
_D_1
340
0
  0
BLOCK_RECORD
  5
10D
330
1
100
AcDbSymbolTableRecord
100
AcDbBlockTableRecord
  2
_D_2
340
0
  0
BLOCK_RECORD
  5
121
330
1
100
AcDbSymbolTableRecord
100
AcDbBlockTableRecord
  2
_D_3
340
0
  0
BLOCK_RECORD
  5
13A
330
1
100
AcDbSymbolTableRecord
100
AcDbBlockTableRecord
  2
SW_DOWELSYMBOL_0
340
0
102
{BLKREFS
331
140
102
}
  0
BLOCK_RECORD
  5
19B
330
1
100
AcDbSymbolTableRecord
100
AcDbBlockTableRecord
  2
*D7
340
0
  0
BLOCK_RECORD
  5
1AA
330
1
100
AcDbSymbolTableRecord
100
AcDbBlockTableRecord
  2
*D8
340
0
  0
ENDTAB
  0
ENDSEC
  0
SECTION
  2
BLOCKS
  0
BLOCK
  5
20
330
1F
100
AcDbEntity
  8
0
100
AcDbBlockBegin
  2
*Model_Space
 70
     0
 10
0.0
 20
0.0
 30
0.0
  3
*Model_Space
  1
*Model_Space
  0
ENDBLK
  5
21
330
1F
100
AcDbEntity
  8
0
100
AcDbBlockEnd
  0
BLOCK
  5
1C
330
1B
100
AcDbEntity
 67
     1
  8
0
100
AcDbBlockBegin
  2
*Paper_Space
 70
     0
 10
0.0
 20
0.0
 30
0.0
  3
*Paper_Space
  1
*Paper_Space
  0
ENDBLK
  5
1D
330
1B
100
AcDbEntity
 67
     1
  8
0
100
AcDbBlockEnd
  0
BLOCK
  5
24
330
23
100
AcDbEntity
  8
0
100
AcDbBlockBegin
  2
*Paper_Space0
 70
     0
 10
0.0
 20
0.0
 30
0.0
  3
*Paper_Space0
  1
*Paper_Space0
  0
ENDBLK
  5
25
330
23
100
AcDbEntity
  8
0
100
AcDbBlockEnd
  0
BLOCK
  5
80
330
7F
100
AcDbEntity
  8
0
100
AcDbBlockBegin
  2
블럭10
 70
     2
 10
0.0
 20
0.0
 30
0.0
  3
블럭10
  1
블럭10
  0
ELLIPSE
  5
82
330
7F
100
AcDbEntity
  8
중심선
100
AcDbEllipse
 10
20.54032771741204
 20
12.0471743016438
 30
0.0
 11
6.600054785286829
 21
-1.261213355974178E-13
 31
0.0
210
0.0
220
0.0
230
1.0
 40
0.636358354079598
 41
0.9219305317359503
 42
6.513795318482858
  0
ELLIPSE
  5
83
330
7F
100
AcDbEntity
  8
중심선
100
AcDbEllipse
 10
20.54032771746488
 20
12.04717430159265
 30
0.0
 11
3.960054785062283
 21
1.540847449632565E-10
 31
0.0
210
0.0
220
0.0
230
1.0
 40
0.3939339440162632
 41
1.131841032648279
 42
5.62031148352944
  0
LINE
  5
84
330
7F
100
AcDbEntity
  8
중심선
100
AcDbLine
 10
2.268634060543552
 20
16.24717430164393
 30
0.0
 11
5.714909304380834
 21
16.24717430164393
 31
0.0
  0
LINE
  5
85
330
7F
100
AcDbEntity
  8
중심선
100
AcDbLine
 10
5.245725140726316
 20
7.84717430164391
 30
0.0
 11
8.692000384563599
 21
7.84717430164391
 31
0.0
  0
LINE
  5
86
330
7F
100
AcDbEntity
  8
중심선
100
AcDbLine
 10
15.74043728645272
 20
16.24717430164393
 30
0.0
 11
8.692000384563599
 21
7.84717430164391
 31
0.0
  0
LINE
  5
87
330
7F
100
AcDbEntity
  8
중심선
100
AcDbLine
 10
0.1404042013395286
 20
13.71084872107135
 30
0.0
 11
3.58671253028996
 21
13.71088815037384
 31
0.0
  0
LINE
  5
88
330
7F
100
AcDbEntity
  8
중심선
100
AcDbLine
 10
2.750260043222114
 20
10.84717430164391
 30
0.0
 11
6.196535287059397
 21
10.84717430164391
 31
0.0
  0
LINE
  5
89
330
7F
100
AcDbEntity
  8
중심선
100
AcDbLine
 10
12.29416204261559
 20
16.24717430164393
 30
0.0
 11
5.245725140726316
 21
7.84717430164391
 31
0.0
  0
LINE
  5
8A
330
7F
100
AcDbEntity
  8
중심선
100
AcDbLine
 10
10.72767329541681
 20
16.24717430164393
 30
0.0
 11
6.196535287059397
 21
10.84717430164391
 31
0.0
  0
LINE
  5
8B
330
7F
100
AcDbEntity
  8
중심선
100
AcDbLine
 10
7.28139805157953
 20
16.24717430164393
 30
0.0
 11
2.750260043222114
 21
10.84717430164391
 31
0.0
  0
LINE
  5
8C
330
7F
100
AcDbEntity
  8
중심선
100
AcDbLine
 10
5.714909304380834
 20
16.24717430164393
 30
0.0
 11
3.58671253028996
 21
13.71088815037384
 31
0.0
  0
LINE
  5
8D
330
7F
100
AcDbEntity
  8
중심선
100
AcDbLine
 10
2.268634060543552
 20
16.24717430164393
 30
0.0
 11
0.1404042013395286
 21
13.71084872107135
 31
0.0
  0
LINE
  5
8E
330
7F
100
AcDbEntity
  8
중심선
100
AcDbLine
 10
7.28139805157953
 20
16.24717430164393
 30
0.0
 11
10.72767329541681
 21
16.24717430164393
 31
0.0
  0
LINE
  5
8F
330
7F
100
AcDbEntity
  8
중심선
100
AcDbLine
 10
12.29416204261559
 20
16.24717430164393
 30
0.0
 11
15.74043728645272
 21
16.24717430164393
 31
0.0
  0
LINE
  5
90
330
7F
100
AcDbEntity
  8
중심선
100
AcDbLine
 10
19.22036997980202
 20
11.08717430171403
 30
0.0
 11
23.66174974927406
 21
11.08717430171406
 31
0.0
  0
LINE
  5
91
330
7F
100
AcDbEntity
  8
중심선
100
AcDbLine
 10
19.22039502424796
 20
13.00717430171391
 30
0.0
 11
19.22036997980202
 21
11.08717430171403
 31
0.0
  0
LINE
  5
92
330
7F
100
AcDbEntity
  8
중심선
100
AcDbLine
 10
19.22039502424796
 20
13.00717430171391
 30
0.0
 11
26.96566020931264
 21
13.00717430171391
 31
0.0
  0
LINE
  5
93
330
7F
100
AcDbEntity
  8
중심선
100
AcDbLine
 10
22.22332737316547
 20
13.45928029700563
 30
0.0
 11
24.52862924686651
 21
15.39360700705356
 31
0.0
  0
ATTDEF
  5
95
330
7F
100
AcDbEntity
  8
FORMAT
 62
     2
100
AcDbText
 10
4.408487351596664
 20
2.075366912832191
 30
0.0
 40
4.233333333333333
  1
E1042032
 41
0.75
  7
SLDTEXTSTYLE0
 11
4.408487351596664
 21
-0.0412997538344756
 31
0.0
100
AcDbAttributeDefinition
  3

  2
AUTOATTR0
 70
     0
 74
     1
  0
ENDBLK
  5
81
330
7F
100
AcDbEntity
  8
0
100
AcDbBlockEnd
  0
BLOCK
  5
E6
330
E5
100
AcDbEntity
  8
0
100
AcDbBlockBegin
  2
_D
 70
     0
 10
0.0
 20
0.0
 30
0.0
  3
_D
  1
_D
  0
LINE
  5
E8
330
E5
100
AcDbEntity
  8
치수문자_일반주서
 62
     0
370
    -2
100
AcDbLine
 10
-39.59250000000002
 20
6.349999999999994
 30
0.0
 11
-50.80000000000003
 21
6.349999999999952
 31
0.0
  0
LINE
  5
E9
330
E5
100
AcDbEntity
  8
치수문자_일반주서
 62
     0
370
    -2
100
AcDbLine
 10
-39.59250000000002
 20
-6.349999999999996
 30
0.0
 11
-50.79999999999998
 21
-6.350000000000037
 31
0.0
  0
LINE
  5
EA
330
E5
100
AcDbEntity
  8
치수문자_일반주서
 62
     0
370
    -2
100
AcDbLine
 10
-50.80000000000003
 20
6.349999999999952
 30
0.0
 11
-50.80000000000013
 21
39.64149999999997
 31
0.0
  0
LINE
  5
EB
330
E5
100
AcDbEntity
  8
치수문자_일반주서
 62
     0
370
    -2
100
AcDbLine
 10
-50.80000000000003
 20
6.349999999999952
 30
0.0
 11
-50.79999999999998
 21
-6.350000000000037
 31
0.0
  0
LINE
  5
EC
330
E5
100
AcDbEntity
  8
치수문자_일반주서
 62
     0
370
    -2
100
AcDbLine
 10
-50.80000000000004
 20
9.651999999999951
 30
0.0
 11
-50.80000000000005
 21
12.95399999999995
 31
0.0
  0
LINE
  5
ED
330
E5
100
AcDbEntity
  8
치수문자_일반주서
 62
     0
370
    -2
100
AcDbLine
 10
-50.79999999999997
 20
-9.652000000000037
 30
0.0
 11
-50.79999999999995
 21
-12.95400000000004
 31
0.0
  0
SOLID
  5
EE
330
E5
100
AcDbEntity
  8
치수문자_일반주서
 62
     0
100
AcDbTrace
 10
-51.35033333333337
 20
9.65199999999995
 30
0.0
 11
-50.24966666666671
 21
9.651999999999953
 31
0.0
 12
-50.80000000000003
 22
6.349999999999952
 32
0.0
 13
-50.80000000000003
 23
6.349999999999952
 33
0.0
  0
SOLID
  5
EF
330
E5
100
AcDbEntity
  8
치수문자_일반주서
 62
     0
100
AcDbTrace
 10
-50.24966666666663
 20
-9.652000000000035
 30
0.0
 11
-51.3503333333333
 21
-9.652000000000038
 31
0.0
 12
-50.79999999999998
 22
-6.350000000000037
 32
0.0
 13
-50.79999999999998
 23
-6.350000000000037
 33
0.0
  0
MTEXT
  5
F0
330
E5
100
AcDbEntity
  8
치수문자_일반주서
 62
     0
100
AcDbMText
 10
-55.17500000000009
 20
26.29774999999994
 30
0.0
 40
3.5
 41
0.0
 71
     2
 72
     1
  1
\A1;%%c12.70 [1/2]
  7
SLDTEXTSTYLE0
 11
-3.356894814614650E-15
 21
1.0
 31
0.0
 73
     1
 44
1.0
  0
POINT
  5
1BA
330
E5
100
AcDbEntity
  8
Defpoints
 62
     0
100
AcDbPoint
 10
-39.53000000000002
 20
6.349999999999994
 30
0.0
  0
POINT
  5
1BB
330
E5
100
AcDbEntity
  8
Defpoints
 62
     0
100
AcDbPoint
 10
-39.53000000000002
 20
-6.349999999999996
 30
0.0
  0
POINT
  5
1BC
330
E5
100
AcDbEntity
  8
Defpoints
 62
     0
100
AcDbPoint
 10
-50.79999999999998
 20
-6.350000000000038
 30
0.0
  0
ENDBLK
  5
E7
330
E5
100
AcDbEntity
  8
0
100
AcDbBlockEnd
  0
BLOCK
  5
FB
330
FA
100
AcDbEntity
  8
0
100
AcDbBlockBegin
  2
_D_1
 70
     0
 10
0.0
 20
0.0
 30
0.0
  3
_D_1
  1
_D_1
  0
LINE
  5
FD
330
FA
100
AcDbEntity
  8
치수문자_일반주서
 62
     0
370
    -2
100
AcDbLine
 10
41.75
 20
6.366161198242548
 30
0.0
 11
41.75
 21
16.34999999999999
 31
0.0
  0
LINE
  5
FE
330
FA
100
AcDbEntity
  8
치수문자_일반주서
 62
     0
370
    -2
100
AcDbLine
 10
9.999999999999995
 20
6.370558559232377
 30
0.0
 11
9.999999999999995
 21
16.34999999999999
 31
0.0
  0
LINE
  5
FF
330
FA
100
AcDbEntity
  8
치수문자_일반주서
 62
     0
370
    -2
100
AcDbLine
 10
38.448
 20
16.34999999999999
 30
0.0
 11
13.30199999999999
 21
16.34999999999999
 31
0.0
  0
SOLID
  5
100
330
FA
100
AcDbEntity
  8
치수문자_일반주서
 62
     0
100
AcDbTrace
 10
38.448
 20
15.79966666666666
 30
0.0
 11
38.448
 21
16.90033333333333
 31
0.0
 12
41.75
 22
16.34999999999999
 32
0.0
 13
41.75
 23
16.34999999999999
 33
0.0
  0
SOLID
  5
101
330
FA
100
AcDbEntity
  8
치수문자_일반주서
 62
     0
100
AcDbTrace
 10
13.30199999999999
 20
16.90033333333333
 30
0.0
 11
13.30199999999999
 21
15.79966666666666
 31
0.0
 12
9.999999999999995
 22
16.34999999999999
 32
0.0
 13
9.999999999999995
 23
16.34999999999999
 33
0.0
  0
MTEXT
  5
102
330
FA
100
AcDbEntity
  8
치수문자_일반주서
 62
     0
100
AcDbMText
 10
25.875
 20
20.72499999999999
 30
0.0
 40
3.5
 41
0.0
 71
     2
 72
     1
  1
\A1;31.75 [1 1/4]
  7
SLDTEXTSTYLE0
 73
     1
 44
1.0
  0
POINT
  5
103
330
FA
100
AcDbEntity
  8
Defpoints
 62
     0
100
AcDbPoint
 10
41.75
 20
6.303661198242548
 30
0.0
  0
POINT
  5
104
330
FA
100
AcDbEntity
  8
Defpoints
 62
     0
100
AcDbPoint
 10
9.999999999999995
 20
6.308058559232377
 30
0.0
  0
POINT
  5
105
330
FA
100
AcDbEntity
  8
Defpoints
 62
     0
100
AcDbPoint
 10
9.999999999999995
 20
16.34999999999999
 30
0.0
  0
ENDBLK
  5
FC
330
FA
100
AcDbEntity
  8
0
100
AcDbBlockEnd
  0
BLOCK
  5
10E
330
10D
100
AcDbEntity
  8
0
100
AcDbBlockBegin
  2
_D_2
 70
     0
 10
0.0
 20
0.0
 30
0.0
  3
_D_2
  1
_D_2
  0
LINE
  5
110
330
10D
100
AcDbEntity
  8
치수문자_일반주서
 62
     0
370
    -2
100
AcDbLine
 10
41.75
 20
6.366161198242548
 30
0.0
 11
41.75
 21
26.34999999999999
 31
0.0
  0
LINE
  5
111
330
10D
100
AcDbEntity
  8
치수문자_일반주서
 62
     0
370
    -2
100
AcDbLine
 10
-40.80000000000001
 20
5.142500000000004
 30
0.0
 11
-40.80000000000001
 21
26.34999999999999
 31
0.0
  0
LINE
  5
112
330
10D
100
AcDbEntity
  8
치수문자_일반주서
 62
     0
370
    -2
100
AcDbLine
 10
38.448
 20
26.34999999999999
 30
0.0
 11
-37.49800000000001
 21
26.34999999999999
 31
0.0
  0
SOLID
  5
113
330
10D
100
AcDbEntity
  8
치수문자_일반주서
 62
     0
100
AcDbTrace
 10
38.448
 20
25.79966666666666
 30
0.0
 11
38.448
 21
26.90033333333333
 31
0.0
 12
41.75
 22
26.34999999999999
 32
0.0
 13
41.75
 23
26.34999999999999
 33
0.0
  0
SOLID
  5
114
330
10D
100
AcDbEntity
  8
치수문자_일반주서
 62
     0
100
AcDbTrace
 10
-37.49800000000001
 20
26.90033333333333
 30
0.0
 11
-37.49800000000001
 21
25.79966666666666
 31
0.0
 12
-40.80000000000001
 22
26.34999999999999
 32
0.0
 13
-40.80000000000001
 23
26.34999999999999
 33
0.0
  0
MTEXT
  5
115
330
10D
100
AcDbEntity
  8
치수문자_일반주서
 62
     0
100
AcDbMText
 10
0.4749999999999925
 20
30.72499999999999
 30
0.0
 40
3.5
 41
0.0
 71
     2
 72
     1
  1
\A1;82.55 [3 1/4]
  7
SLDTEXTSTYLE0
 73
     1
 44
1.0
  0
POINT
  5
116
330
10D
100
AcDbEntity
  8
Defpoints
 62
     0
100
AcDbPoint
 10
41.75
 20
6.303661198242548
 30
0.0
  0
POINT
  5
117
330
10D
100
AcDbEntity
  8
Defpoints
 62
     0
100
AcDbPoint
 10
-40.80000000000001
 20
5.080000000000004
 30
0.0
  0
POINT
  5
118
330
10D
100
AcDbEntity
  8
Defpoints
 62
     0
100
AcDbPoint
 10
-40.80000000000001
 20
26.34999999999999
 30
0.0
  0
ENDBLK
  5
10F
330
10D
100
AcDbEntity
  8
0
100
AcDbBlockEnd
  0
BLOCK
  5
122
330
121
100
AcDbEntity
  8
0
100
AcDbBlockBegin
  2
_D_3
 70
     0
 10
0.0
 20
0.0
 30
0.0
  3
_D_3
  1
_D_3
  0
LINE
  5
124
330
121
100
AcDbEntity
  8
치수문자_일반주서
 62
     0
370
    -2
100
AcDbLine
 10
41.8125
 20
6.350000000000001
 30
0.0
 11
51.74999999999999
 21
6.350000000000037
 31
0.0
  0
LINE
  5
125
330
121
100
AcDbEntity
  8
치수문자_일반주서
 62
     0
370
    -2
100
AcDbLine
 10
41.8125
 20
-6.350000000000001
 30
0.0
 11
51.75000000000004
 21
-6.349999999999966
 31
0.0
  0
LINE
  5
126
330
121
100
AcDbEntity
  8
치수문자_일반주서
 62
     0
370
    -2
100
AcDbLine
 10
51.74999999999999
 20
6.350000000000037
 30
0.0
 11
51.74999999999989
 21
39.64150000000004
 31
0.0
  0
LINE
  5
127
330
121
100
AcDbEntity
  8
치수문자_일반주서
 62
     0
370
    -2
100
AcDbLine
 10
51.74999999999999
 20
6.350000000000037
 30
0.0
 11
51.75000000000004
 21
-6.349999999999966
 31
0.0
  0
LINE
  5
128
330
121
100
AcDbEntity
  8
치수문자_일반주서
 62
     0
370
    -2
100
AcDbLine
 10
51.74999999999998
 20
9.652000000000037
 30
0.0
 11
51.74999999999996
 21
12.95400000000004
 31
0.0
  0
LINE
  5
129
330
121
100
AcDbEntity
  8
치수문자_일반주서
 62
     0
370
    -2
100
AcDbLine
 10
51.75000000000005
 20
-9.651999999999965
 30
0.0
 11
51.75000000000006
 21
-12.95399999999997
 31
0.0
  0
SOLID
  5
12A
330
121
100
AcDbEntity
  8
치수문자_일반주서
 62
     0
100
AcDbTrace
 10
51.19966666666664
 20
9.652000000000035
 30
0.0
 11
52.30033333333331
 21
9.652000000000038
 31
0.0
 12
51.74999999999999
 22
6.350000000000037
 32
0.0
 13
51.74999999999999
 23
6.350000000000037
 33
0.0
  0
SOLID
  5
12B
330
121
100
AcDbEntity
  8
치수문자_일반주서
 62
     0
100
AcDbTrace
 10
52.30033333333338
 20
-9.651999999999964
 30
0.0
 11
51.19966666666672
 21
-9.651999999999967
 31
0.0
 12
51.75000000000004
 22
-6.349999999999966
 32
0.0
 13
51.75000000000004
 23
-6.349999999999966
 33
0.0
  0
MTEXT
  5
12C
330
121
100
AcDbEntity
  8
치수문자_일반주서
 62
     0
100
AcDbMText
 10
47.37499999999993
 20
26.29775000000002
 30
0.0
 40
3.5
 41
0.0
 71
     2
 72
     1
  1
\A1;%%c12.70 [1/2]
  7
SLDTEXTSTYLE0
 11
-3.356894814614646E-15
 21
1.0
 31
0.0
 73
     1
 44
1.0
  0
POINT
  5
12D
330
121
100
AcDbEntity
  8
Defpoints
 62
     0
100
AcDbPoint
 10
41.75
 20
6.350000000000001
 30
0.0
  0
POINT
  5
12E
330
121
100
AcDbEntity
  8
Defpoints
 62
     0
100
AcDbPoint
 10
41.75
 20
-6.350000000000001
 30
0.0
  0
POINT
  5
12F
330
121
100
AcDbEntity
  8
Defpoints
 62
     0
100
AcDbPoint
 10
51.75000000000004
 20
-6.349999999999964
 30
0.0
  0
ENDBLK
  5
123
330
121
100
AcDbEntity
  8
0
100
AcDbBlockEnd
  0
BLOCK
  5
13B
330
13A
100
AcDbEntity
  8
0
100
AcDbBlockBegin
  2
SW_DOWELSYMBOL_0
 70
     0
 10
0.0
 20
0.0
 30
0.0
  3
SW_DOWELSYMBOL_0
  1
SW_DOWELSYMBOL_0
  0
CIRCLE
  5
13D
330
13A
100
AcDbEntity
  8
해칭선
 62
     0
100
AcDbCircle
 10
0.0
 20
0.0
 30
0.0
 40
3.000000000000001
  0
HATCH
  5
13E
330
13A
100
AcDbEntity
  8
0
  6
Continuous
 62
     0
370
     0
100
AcDbHatch
 10
0.0
 20
0.0
 30
0.0
210
0.0
220
0.0
230
1.0
  2
SOLID
 70
     1
 71
     0
 91
        1
 92
        0
 93
        3
 72
     2
 10
0.0
 20
0.0
 40
3.000000000000001
 50
0.0
 51
90.0
 73
     1
 72
     1
 10
0.0
 20
3.000000000000001
 11
0.0
 21
0.0
 72
     1
 10
0.0
 20
0.0
 11
3.000000000000001
 21
0.0
 97
        0
 75
     0
 76
     1
 98
        1
 10
0.0
 20
0.0
  0
HATCH
  5
13F
330
13A
100
AcDbEntity
  8
0
  6
Continuous
 62
     0
370
     0
100
AcDbHatch
 10
0.0
 20
0.0
 30
0.0
210
0.0
220
0.0
230
1.0
  2
SOLID
 70
     1
 71
     0
 91
        1
 92
        0
 93
        3
 72
     2
 10
0.0
 20
0.0
 40
3.000000000000001
 50
180.0
 51
270.0000000000007
 73
     1
 72
     1
 10
0.0
 20
-3.000000000000001
 11
0.0
 21
0.0
 72
     1
 10
0.0
 20
0.0
 11
-3.000000000000001
 21
0.0
 97
        0
 75
     0
 76
     1
 98
        1
 10
0.0
 20
0.0
  0
ENDBLK
  5
13C
330
13A
100
AcDbEntity
  8
0
100
AcDbBlockEnd
  0
BLOCK
  5
19C
330
19B
100
AcDbEntity
  8
0
100
AcDbBlockBegin
  2
*D7
 70
     1
 10
0.0
 20
0.0
 30
0.0
  3
*D7
  1
*D7
  0
LINE
  5
19E
330
19B
100
AcDbEntity
  8
치수문자_일반주서
 62
     0
370
    -2
100
AcDbLine
 10
0.0
 20
0.0625
 30
0.0
 11
0.0
 21
33.34302707304683
 31
0.0
  0
LINE
  5
19F
330
19B
100
AcDbEntity
  8
치수문자_일반주서
 62
     0
370
    -2
100
AcDbLine
 10
25.99995813577124
 20
7.726047483784873
 30
0.0
 11
25.99995813577124
 21
33.34302707304683
 31
0.0
  0
LINE
  5
1A0
330
19B
100
AcDbEntity
  8
치수문자_일반주서
 62
     0
370
    -2
100
AcDbLine
 10
3.302
 20
33.34302707304683
 30
0.0
 11
22.69795813577124
 21
33.34302707304683
 31
0.0
  0
SOLID
  5
1A1
330
19B
100
AcDbEntity
  8
치수문자_일반주서
 62
     0
100
AcDbTrace
 10
3.302
 20
33.89336040638016
 30
0.0
 11
3.302
 21
32.79269373971349
 31
0.0
 12
0.0
 22
33.34302707304683
 32
0.0
 13
0.0
 23
33.34302707304683
 33
0.0
  0
SOLID
  5
1A2
330
19B
100
AcDbEntity
  8
치수문자_일반주서
 62
     0
100
AcDbTrace
 10
22.69795813577124
 20
32.79269373971349
 30
0.0
 11
22.69795813577124
 21
33.89336040638016
 31
0.0
 12
25.99995813577124
 22
33.34302707304683
 32
0.0
 13
25.99995813577124
 23
33.34302707304683
 33
0.0
  0
MTEXT
  5
1A3
330
19B
100
AcDbEntity
  8
치수문자_일반주서
 62
     0
100
AcDbMText
 10
13.04655386270326
 20
37.71802707304683
 30
0.0
 40
3.5
 41
0.0
 71
     2
 72
     1
  1
\A1;26.00 [1.02]
  7
SLDTEXTSTYLE0
 73
     1
 44
1.0
  0
POINT
  5
1A4
330
19B
100
AcDbEntity
  8
Defpoints
 62
     0
100
AcDbPoint
 10
0.0
 20
0.0
 30
0.0
  0
POINT
  5
1A5
330
19B
100
AcDbEntity
  8
Defpoints
 62
     0
100
AcDbPoint
 10
25.99995813577124
 20
7.663547483784873
 30
0.0
  0
POINT
  5
1A6
330
19B
100
AcDbEntity
  8
Defpoints
 62
     0
100
AcDbPoint
 10
25.99995813577124
 20
33.34302707304683
 30
0.0
  0
ENDBLK
  5
19D
330
19B
100
AcDbEntity
  8
0
100
AcDbBlockEnd
  0
BLOCK
  5
1AB
330
1AA
100
AcDbEntity
  8
0
100
AcDbBlockBegin
  2
*D8
 70
     1
 10
0.0
 20
0.0
 30
0.0
  3
*D8
  1
*D8
  0
LINE
  5
1AD
330
1AA
100
AcDbEntity
  8
치수문자_일반주서
 62
     0
370
    -2
100
AcDbLine
 10
69.89143830615896
 20
21.70430353843612
 30
0.0
 11
69.89143830615896
 21
54.98483061148295
 31
0.0
  0
LINE
  5
1AE
330
1AA
100
AcDbEntity
  8
치수문자_일반주서
 62
     0
370
    -2
100
AcDbLine
 10
95.8913964419302
 20
29.367851022221
 30
0.0
 11
95.8913964419302
 21
54.98483061148295
 31
0.0
  0
LINE
  5
1AF
330
1AA
100
AcDbEntity
  8
치수문자_일반주서
 62
     0
370
    -2
100
AcDbLine
 10
73.19343830615895
 20
54.98483061148295
 30
0.0
 11
92.5893964419302
 21
54.98483061148295
 31
0.0
  0
SOLID
  5
1B0
330
1AA
100
AcDbEntity
  8
치수문자_일반주서
 62
     0
100
AcDbTrace
 10
73.19343830615895
 20
55.53516394481628
 30
0.0
 11
73.19343830615895
 21
54.43449727814961
 31
0.0
 12
69.89143830615896
 22
54.98483061148295
 32
0.0
 13
69.89143830615896
 23
54.98483061148295
 33
0.0
  0
SOLID
  5
1B1
330
1AA
100
AcDbEntity
  8
치수문자_일반주서
 62
     0
100
AcDbTrace
 10
92.5893964419302
 20
54.43449727814961
 30
0.0
 11
92.5893964419302
 21
55.53516394481628
 31
0.0
 12
95.8913964419302
 22
54.98483061148295
 32
0.0
 13
95.8913964419302
 23
54.98483061148295
 33
0.0
  0
MTEXT
  5
1B2
330
1AA
100
AcDbEntity
  8
치수문자_일반주서
 62
     0
100
AcDbMText
 10
82.93799216886222
 20
59.35983061148295
 30
0.0
 40
3.5
 41
0.0
 71
     2
 72
     1
  1
\A1;26.00 [1.02]
  7
SLDTEXTSTYLE0
 73
     1
 44
1.0
  0
POINT
  5
1B3
330
1AA
100
AcDbEntity
  8
Defpoints
 62
     0
100
AcDbPoint
 10
69.89143830615896
 20
21.64180353843612
 30
0.0
  0
POINT
  5
1B4
330
1AA
100
AcDbEntity
  8
Defpoints
 62
     0
100
AcDbPoint
 10
95.8913964419302
 20
29.305351022221
 30
0.0
  0
POINT
  5
1B5
330
1AA
100
AcDbEntity
  8
Defpoints
 62
     0
100
AcDbPoint
 10
95.8913964419302
 20
54.98483061148295
 30
0.0
  0
ENDBLK
  5
1AC
330
1AA
100
AcDbEntity
  8
0
100
AcDbBlockEnd
  0
ENDSEC
  0
SECTION
  2
ENTITIES
  0
LINE
  5
96
330
1F
100
AcDbEntity
  8
0
  6
Continuous
 62
     1
370
    15
100
AcDbLine
 10
10.30061754514492
 20
0.7551426517318269
 30
0.0
 11
9.999999999999995
 21
1.039457074961172
 31
0.0
1001
PE_URL
1000

  0
LINE
  5
97
330
1F
100
AcDbEntity
  8
0
  6
Continuous
 62
     1
370
    15
100
AcDbLine
 10
27.11495205387271
 20
-1.215599720088748
 30
0.0
 11
27.1705537567059
 21
-1.269504960283655
 31
0.0
1001
PE_URL
1000

  0
LINE
  5
98
330
1F
100
AcDbEntity
  8
0
  6
Continuous
 62
     1
370
    15
100
AcDbLine
 10
29.91336572679609
 20
1.092140702619176
 30
0.0
 11
29.73027785034065
 21
1.269848346169415
 31
0.0
1001
PE_URL
1000

  0
LINE
  5
99
330
1F
100
AcDbEntity
  8
0
  6
Continuous
 62
     1
370
    15
100
AcDbLine
 10
36.43638171617999
 20
1.215070887752248
 30
0.0
 11
36.38006118655152
 21
1.269771082069832
 31
0.0
1001
PE_URL
1000

  0
LINE
  5
9A
330
1F
100
AcDbEntity
  8
0
  6
Continuous
 62
     1
370
    15
100
AcDbLine
 10
33.67093921439337
 20
-1.125327820966156
 30
0.0
 11
33.82077614549018
 21
-1.270012250543741
 31
0.0
1001
PE_URL
1000

  0
LINE
  5
9B
330
1F
100
AcDbEntity
  8
0
  6
Continuous
 62
     1
370
    15
100
AcDbLine
 10
34.33333500034038
 20
-6.350000000000001
 30
0.0
 11
35.86793436866122
 21
-6.350000000000001
 31
0.0
1001
PE_URL
1000

  0
LINE
  5
9C
330
1F
100
AcDbEntity
  8
0
  6
Continuous
 62
     1
370
    15
100
AcDbLine
 10
15.9193976234235
 20
6.350000000000001
 30
0.0
 11
14.3829810000577
 21
6.350000000000001
 31
0.0
1001
PE_URL
1000

  0
LINE
  5
9D
330
1F
100
AcDbEntity
  8
0
  6
Continuous
 62
     1
370
    15
100
AcDbLine
 10
21.03240005594547
 20
-6.350000000000001
 30
0.0
 11
22.56904971110217
 21
-6.350000000000001
 31
0.0
1001
PE_URL
1000

  0
LINE
  5
9E
330
1F
100
AcDbEntity
  8
0
  6
Continuous
 62
     1
370
    15
100
AcDbLine
 10
41.75
 20
6.350000000000001
 30
0.0
 11
40.98162955289016
 21
6.350000000000001
 31
0.0
1001
PE_URL
1000

  0
LINE
  5
9F
330
1F
100
AcDbEntity
  8
0
  6
Continuous
 62
     1
370
    15
100
AcDbLine
 10
40.98162955289018
 20
-6.350000000000001
 30
0.0
 11
41.75
 21
-6.350000000000001
 31
0.0
1001
PE_URL
1000

  0
LINE
  5
A0
330
1F
100
AcDbEntity
  8
0
  6
Continuous
 62
     1
370
    15
100
AcDbLine
 10
22.56904971110223
 20
6.350000000000001
 30
0.0
 11
21.03240005594547
 21
6.350000000000001
 31
0.0
1001
PE_URL
1000

  0
LINE
  5
A1
330
1F
100
AcDbEntity
  8
0
  6
Continuous
 62
     1
370
    15
100
AcDbLine
 10
29.21736709118627
 20
6.350000000000001
 30
0.0
 11
27.68335205854035
 21
6.350000000000001
 31
0.0
1001
PE_URL
1000

  0
LINE
  5
A2
330
1F
100
AcDbEntity
  8
0
  6
Continuous
 62
     1
370
    15
100
AcDbLine
 10
27.68335205854031
 20
-6.350000000000001
 30
0.0
 11
29.21736709118621
 21
-6.350000000000001
 31
0.0
1001
PE_URL
1000

  0
LINE
  5
A3
330
1F
100
AcDbEntity
  8
0
  6
Continuous
 62
     1
370
    15
100
AcDbLine
 10
14.38298100005775
 20
-6.350000000000001
 30
0.0
 11
15.91939762342352
 21
-6.350000000000001
 31
0.0
1001
PE_URL
1000

  0
LINE
  5
A4
330
1F
100
AcDbEntity
  8
0
  6
Continuous
 62
     1
370
    15
100
AcDbLine
 10
35.86793436866124
 20
6.350000000000001
 30
0.0
 11
34.33333500034042
 21
6.350000000000001
 31
0.0
1001
PE_URL
1000

  0
LINE
  5
A5
330
1F
100
AcDbEntity
  8
외형선
  6
Continuous
370
    15
100
AcDbLine
 10
-39.53000000000001
 20
-6.35
 30
0.0
 11
9.268495882507908
 21
-6.35
 31
0.0
  0
LINE
  5
A6
330
1F
100
AcDbEntity
  8
외형선
  6
Continuous
370
    15
100
AcDbLine
 10
9.268495882507851
 20
6.35
 30
0.0
 11
-11.06612499999999
 21
6.35
 31
0.0
  0
LINE
  5
A7
330
1F
100
AcDbEntity
  8
외형선
  6
Continuous
370
    15
100
AcDbLine
 10
-39.53000000000001
 20
6.35
 30
0.0
 11
-40.80000000000001
 21
5.080000000000004
 31
0.0
  0
LINE
  5
A8
330
1F
100
AcDbEntity
  8
외형선
  6
Continuous
370
    15
100
AcDbLine
 10
-40.80000000000001
 20
-5.080000000000005
 30
0.0
 11
-39.53000000000001
 21
-6.350000000000001
 31
0.0
  0
LINE
  5
A9
330
1F
100
AcDbEntity
  8
0
  6
Continuous
 62
     1
370
    15
100
AcDbLine
 10
41.75
 20
3.795709379337584
 30
0.0
 11
41.75
 21
6.303661198242548
 31
0.0
1001
PE_URL
1000

  0
SPLINE
  5
AA
330
1F
100
AcDbEntity
  8
0
  6
Continuous
 62
     1
370
    15
100
AcDbSpline
210
0.0
220
0.0
230
1.0
 70
     8
 71
     3
 72
    16
 73
    12
 74
     0
 42
0.000000001
 43
0.00000001
 40
0.0
 40
0.0
 40
0.0
 40
0.0
 40
0.1210853829721213
 40
0.2421341944139148
 40
0.3634911587555762
 40
0.4844734928535465
 40
0.6057070268745988
 40
0.7269086498043069
 40
0.8478987583172521
 40
0.9860236036758238
 40
1.0
 40
1.0
 40
1.0
 40
1.0
 10
9.999999999999606
 20
-3.785038716923604
 30
0.0
 10
10.34210196941748
 20
-4.050263556358566
 30
0.0
 10
11.02620258287862
 20
-4.580633129124671
 30
0.0
 10
12.05214655815676
 20
-5.231321760663411
 30
0.0
 10
13.08097364864927
 20
-5.750713965176793
 30
0.0
 10
14.10648621295684
 20
-6.120316146924608
 30
0.0
 10
15.13420125500788
 20
-6.328326821974141
 30
0.0
 10
16.16160385217179
 20
-6.375915422239261
 30
0.0
 10
17.23454580542388
 20
-6.233997244508021
 30
0.0
 10
18.0077229119478
 20
-6.051127263261462
 30
0.0
 10
18.43756033186177
 20
-5.85135279567216
 30
0.0
 10
18.47705756455503
 20
-5.832995765160186
 30
0.0
1001
PE_URL
1000

  0
SPLINE
  5
AB
330
1F
100
AcDbEntity
  8
0
  6
Continuous
 62
     1
370
    15
100
AcDbSpline
210
0.0
220
0.0
230
1.0
 70
     8
 71
     3
 72
    13
 73
     9
 74
     0
 42
0.000000001
 43
0.00000001
 40
0.0
 40
0.0
 40
0.0
 40
0.0
 40
0.0057618226897104
 40
0.2044673381076444
 40
0.4035894810141325
 40
0.6023830397892784
 40
0.8010179174357377
 40
1.0
 40
1.0
 40
1.0
 40
1.0
 10
35.86793436866124
 20
6.346977112954493
 30
0.0
 10
35.87922667550494
 20
6.347981013684016
 30
0.0
 10
36.27995194002089
 20
6.383606009617424
 30
0.0
 10
37.07058435203333
 20
6.255557332146207
 30
0.0
 10
38.24193161186271
 20
5.950007033133385
 30
0.0
 10
39.41121185105386
 20
5.415036751588062
 30
0.0
 10
40.57957399038131
 20
4.712394538482098
 30
0.0
 10
41.35963094443123
 20
4.114292016486864
 30
0.0
 10
41.75
 20
3.814979619574828
 30
0.0
1001
PE_URL
1000

  0
SPLINE
  5
AC
330
1F
100
AcDbEntity
  8
0
  6
Continuous
 62
     1
370
    15
100
AcDbSpline
210
0.0
220
0.0
230
1.0
 70
     8
 71
     3
 72
    10
 73
     6
 74
     0
 42
0.000000001
 43
0.00000001
 40
0.0
 40
0.0
 40
0.0
 40
0.0
 40
0.3521214523660315
 40
0.7036284860952111
 40
1.0
 40
1.0
 40
1.0
 40
1.0
 10
41.75000000000003
 20
6.303661198242548
 30
0.0
 10
41.35962232413668
 20
6.329003350284564
 30
0.0
 10
40.57954814453923
 20
6.379643434709699
 30
0.0
 10
39.4726550072297
 20
6.210804273634944
 30
0.0
 10
38.75480825715156
 20
5.948750424052808
 30
0.0
 10
38.42642984602924
 20
5.828874104009698
 30
0.0
1001
PE_URL
1000

  0
SPLINE
  5
AD
330
1F
100
AcDbEntity
  8
0
  6
Continuous
 62
     1
370
    15
100
AcDbSpline
210
0.0
220
0.0
230
1.0
 70
     8
 71
     3
 72
    18
 73
    14
 74
     0
 42
0.000000001
 43
0.00000001
 40
0.0
 40
0.0
 40
0.0
 40
0.0
 40
0.0304884426455533
 40
0.1363710849840694
 40
0.2423742567972983
 40
0.3485045139528395
 40
0.441469043950473
 40
0.5345960941622271
 40
0.6277476637305218
 40
0.7207062201420242
 40
0.8139526292131836
 40
0.9069622644698896
 40
1.0
 40
1.0
 40
1.0
 40
1.0
 10
21.03240005594547
 20
-6.327950350184365
 30
0.0
 10
20.92023309894268
 20
-6.334359130155827
 30
0.0
 10
20.41852398235505
 20
-6.363024821227445
 30
0.0
 10
19.52799490846233
 20
-6.19712057966295
 30
0.0
 10
18.35837601952998
 20
-5.829995058147571
 30
0.0
 10
17.23463095374354
 20
-5.273886712375832
 30
0.0
 10
16.16158228325094
 20
-4.590476598416011
 30
0.0
 10
15.13420704069323
 20
-3.817747519546068
 30
0.0
 10
14.10648466627918
 20
-2.946239658436411
 30
0.0
 10
13.08097406403724
 20
-1.994769565236031
 30
0.0
 10
12.05214644755778
 20
-0.9958731690632832
 30
0.0
 10
11.02620261050905
 20
0.0343214210697489
 30
0.0
 10
10.34210197862868
 20
0.7144034728374719
 30
0.0
 10
9.999999999999828
 20
1.054495857930311
 30
0.0
1001
PE_URL
1000

  0
LINE
  5
AE
330
1F
100
AcDbEntity
  8
외형선
  6
Continuous
370
    15
100
AcDbLine
 10
9.999999999999966
 20
1.054495857930076
 30
0.0
 11
9.999999999999988
 21
1.015926868968758
 31
0.0
  0
SPLINE
  5
AF
330
1F
100
AcDbEntity
  8
외형선
  6
Continuous
370
    15
100
AcDbSpline
210
0.0
220
0.0
230
1.0
 70
    24
 71
     3
 72
    22
 73
    18
 74
     0
 42
0.000000001
 43
0.00000001
 40
0.0
 40
0.0
 40
0.0
 40
0.0
 40
0.0559114840690524
 40
0.1252190652661217
 40
0.1945266464631917
 40
0.2638342276602618
 40
0.3331418088573321
 40
0.4024493900544024
 40
0.4717569712514703
 40
0.5410645524485381
 40
0.6103721336455895
 40
0.679679714842641
 40
0.7489872960397276
 40
0.8182948772368139
 40
0.8876024584338839
 40
0.9569100396309539
 40
1.0
 40
1.0
 40
1.0
 40
1.0
 10
10.0
 20
0.9581763630599163
 30
0.0
 10
10.0
 20
0.9250645418186466
 30
0.0
 10
9.99999999999998
 20
0.8509074813483862
 30
0.0
 10
9.99999999999996
 20
0.6561231402066344
 30
0.0
 10
9.999999999999973
 20
0.3936575644421046
 30
0.0
 10
10.00000000000002
 20
0.0769160267940861
 30
0.0
 10
9.99999999999998
 20
-0.2844922001409607
 30
0.0
 10
9.999999999999952
 20
-0.6793981423232764
 30
0.0
 10
9.99999999999998
 20
-1.097574253174135
 30
0.0
 10
10.00000000000003
 20
-1.526505618494992
 30
0.0
 10
9.999999999999973
 20
-1.954197488474821
 30
0.0
 10
9.99999999999996
 20
-2.368835613227579
 30
0.0
 10
9.99999999999998
 20
-2.757769792983438
 30
0.0
 10
9.99999999999998
 20
-3.11154502150654
 30
0.0
 10
9.999999999999952
 20
-3.417215977775918
 30
0.0
 10
9.99999999999993
 20
-3.640476324315229
 30
0.0
 10
9.99999999999996
 20
-3.744976411652842
 30
0.0
 10
9.99999999999998
 20
-3.785038716923913
 30
0.0
  0
SPLINE
  5
B0
330
1F
100
AcDbEntity
  8
0
  6
Continuous
 62
     1
370
    15
100
AcDbSpline
210
0.0
220
0.0
230
1.0
 70
     8
 71
     3
 72
    27
 73
    23
 74
     0
 42
0.000000001
 43
0.00000001
 40
0.0
 40
0.0
 40
0.0
 40
0.0
 40
0.047141138453667
 40
0.0942680388256404
 40
0.1415149097354362
 40
0.1886159290506521
 40
0.2358147458874425
 40
0.283001139051463
 40
0.3301051851132915
 40
0.3838801519929762
 40
0.4375907262078653
 40
0.4912402295398177
 40
0.5449653579467668
 40
0.5987295116876606
 40
0.6523858319279057
 40
0.7060667822946785
 40
0.7598526773784223
 40
0.8135348776806626
 40
0.8671906266690081
 40
0.9209531729445711
 40
0.9746802255844228
 40
1.0
 40
1.0
 40
1.0
 40
1.0
 10
9.999999999999613
 20
6.308058559232418
 30
0.0
 10
10.342101978287
 20
6.252913744617192
 30
0.0
 10
11.02620260948453
 20
6.142640770826151
 30
0.0
 10
12.05214645165777
 20
5.772147630228304
 30
0.0
 10
13.0809740486378
 20
5.264461737423261
 30
0.0
 10
14.10648472361774
 20
4.613807462478626
 30
0.0
 10
15.13420682620536
 20
3.845447798445308
 30
0.0
 10
16.16158308285726
 20
2.976410845215081
 30
0.0
 10
17.23462779711194
 20
1.983941466938311
 30
0.0
 10
18.35838966603139
 20
0.8884778764048114
 30
0.0
 10
19.52794429395217
 20
-0.2849321589705989
 30
0.0
 10
20.69627370127618
 20
-1.449254184300923
 30
0.0
 10
21.86623463503048
 20
-2.563674970774938
 30
0.0
 10
23.03708799269561
 20
-3.590747440611211
 30
0.0
 10
24.20555210451263
 20
-4.497817945126714
 30
0.0
 10
25.37455755939742
 20
-5.252264982646297
 30
0.0
 10
26.54589959330971
 20
-5.828296397620999
 30
0.0
 10
27.71493124409582
 20
-6.207344256795764
 30
0.0
 10
28.88338535672988
 20
-6.379025214002072
 30
0.0
 10
30.0541911101083
 20
-6.324000746142181
 30
0.0
 10
31.01853121681865
 20
-6.135827033824096
 30
0.0
 10
31.59196296222861
 20
-5.894612259580347
 30
0.0
 10
31.7756409538364
 20
-5.817347884815835
 30
0.0
1001
PE_URL
1000

  0
SPLINE
  5
B1
330
1F
100
AcDbEntity
  8
0
  6
Continuous
 62
     1
370
    15
100
AcDbSpline
210
0.0
220
0.0
230
1.0
 70
     8
 71
     3
 72
    28
 73
    24
 74
     0
 42
0.000000001
 43
0.00000001
 40
0.0
 40
0.0
 40
0.0
 40
0.0
 40
0.0342528546604621
 40
0.086216682591102
 40
0.1381231823652235
 40
0.1901046059332767
 40
0.2421203699242887
 40
0.2940328065457519
 40
0.345970835059642
 40
0.3980091892399192
 40
0.4499460084296091
 40
0.5018589977426029
 40
0.5538763169712859
 40
0.6058558788260936
 40
0.6577622727168574
 40
0.7097277532553635
 40
0.7617555342964839
 40
0.8073291373474872
 40
0.8529824119864208
 40
0.8986477066444097
 40
0.9442183812898897
 40
0.989930168710841
 40
1.0
 40
1.0
 40
1.0
 40
1.0
 10
34.33333500034038
 20
-6.32576350687121
 30
0.0
 10
34.07615672408146
 20
-6.326329121496686
 30
0.0
 10
33.42882212866348
 20
-6.327752810620325
 30
0.0
 10
32.3924983751953
 20
-6.085225014219034
 30
0.0
 10
31.22421397880937
 20
-5.636899822714982
 30
0.0
 10
30.05419717253417
 20
-4.989727835125153
 30
0.0
 10
28.88338373548165
 20
-4.176656190428428
 30
0.0
 10
27.71493167835191
 20
-3.220423274991118
 30
0.0
 10
26.54589947668133
 20
-2.155442435280415
 30
0.0
 10
25.37455759055943
 20
-1.019373719977268
 30
0.0
 10
24.2055520963469
 20
0.1530494143427219
 30
0.0
 10
23.03708799424419
 20
1.320515698743323
 30
0.0
 10
21.86623463702401
 20
2.441626490304477
 30
0.0
 10
20.69627369176844
 20
3.480947402547132
 30
0.0
 10
19.52794432995356
 20
4.403164932823618
 30
0.0
 10
18.35838953127782
 20
5.175880053888346
 30
0.0
 10
17.23462827430601
 20
5.748500962363797
 30
0.0
 10
16.16158154493055
 20
6.129854549859123
 30
0.0
 10
15.13421260312048
 20
6.332641297655705
 30
0.0
 10
14.10646317088164
 20
6.37390543449866
 30
0.0
 10
13.08105440481642
 20
6.235643857772608
 30
0.0
 10
12.3189705419869
 20
6.048585401700233
 30
0.0
 10
11.90077827827207
 20
5.862474469521052
 30
0.0
 10
11.82528521013569
 20
5.828877278699968
 30
0.0
1001
PE_URL
1000

  0
SPLINE
  5
B2
330
1F
100
AcDbEntity
  8
0
  6
Continuous
 62
     1
370
    15
100
AcDbSpline
210
0.0
220
0.0
230
1.0
 70
     8
 71
     3
 72
    28
 73
    24
 74
     0
 42
0.000000001
 43
0.00000001
 40
0.0
 40
0.0
 40
0.0
 40
0.0
 40
0.010771895067429
 40
0.0563481506198627
 40
0.1083789598122446
 40
0.1603474648759626
 40
0.212256879852942
 40
0.2642394670525303
 40
0.3162598138235693
 40
0.3681758246066503
 40
0.4201156666533862
 40
0.4721570496003088
 40
0.5240981010416308
 40
0.5760135591010132
 40
0.6280323505438621
 40
0.6800167995650526
 40
0.7319263204315523
 40
0.7838931727912173
 40
0.8359250377748013
 40
0.8878470891107418
 40
0.9397770851627292
 40
0.9918159632645691
 40
1.0
 40
1.0
 40
1.0
 40
1.0
 10
15.91939762342352
 20
6.335037204163282
 30
0.0
 10
16.00022566017033
 20
6.339582157064454
 30
0.0
 10
16.42303987813356
 20
6.363356960757983
 30
0.0
 10
17.23454843179404
 20
6.235158157927883
 30
0.0
 10
18.35841207960981
 20
5.923626020954499
 30
0.0
 10
19.52793829913295
 20
5.381752146470472
 30
0.0
 10
20.69627530948049
 20
4.66172337601478
 30
0.0
 10
21.86623420280189
 20
3.783314925605294
 30
0.0
 10
23.03708811081641
 20
2.778000109475668
 30
0.0
 10
24.20555206345153
 20
1.67708582954581
 30
0.0
 10
25.37455760564593
 20
0.5195848210657569
 30
0.0
 10
26.54589944927807
 20
-0.6535535088087686
 30
0.0
 10
27.71493177265225
 20
-1.806510215429766
 30
0.0
 10
28.88338338549604
 20
-2.8984902142705
 30
0.0
 10
30.05419848069729
 20
-3.890915285817371
 30
0.0
 10
31.22420910370225
 20
-4.752442414833444
 30
0.0
 10
32.39251654890444
 20
-5.453624948809759
 30
0.0
 10
33.56212551056301
 20
-5.970176401427397
 30
0.0
 10
34.73323932300925
 20
-6.283200326012899
 30
0.0
 10
35.90187145096626
 20
-6.389006173368061
 30
0.0
 10
37.0705517142352
 20
-6.260060322351473
 30
0.0
 10
37.91332439033599
 20
-6.064381342541578
 30
0.0
 10
38.36504319157377
 20
-5.85704960148902
 30
0.0
 10
38.42642984602922
 20
-5.828874104009699
 30
0.0
1001
PE_URL
1000

  0
SPLINE
  5
B3
330
1F
100
AcDbEntity
  8
0
  6
Continuous
 62
     1
370
    15
100
AcDbSpline
210
0.0
220
0.0
230
1.0
 70
     8
 71
     3
 72
    27
 73
    23
 74
     0
 42
0.000000001
 43
0.00000001
 40
0.0
 40
0.0
 40
0.0
 40
0.0
 40
0.0178766053443407
 40
0.0697927225940577
 40
0.1217503134670373
 40
0.1737937845866843
 40
0.2257283640464108
 40
0.2776549980888785
 40
0.3296914554712827
 40
0.3816628944916711
 40
0.4335769969587436
 40
0.4855660341937605
 40
0.5375894168815438
 40
0.589509457065522
 40
0.641455092890346
 40
0.6935010690761567
 40
0.745445495399652
 40
0.7973660883561129
 40
0.8493910265093612
 40
0.9013782017584495
 40
0.9532921983266557
 40
1.0
 40
1.0
 40
1.0
 40
1.0
 10
40.98162955289018
 20
-6.325706706535742
 30
0.0
 10
40.84746101510568
 20
-6.33232681426917
 30
0.0
 10
40.32364861571138
 20
-6.358172624124125
 30
0.0
 10
39.41125657423109
 20
-6.182209880466274
 30
0.0
 10
38.24190724809157
 20
-5.802355302537917
 30
0.0
 10
37.07063702697896
 20
-5.212430123897112
 30
0.0
 10
35.90184861715122
 20
-4.449075745794239
 30
0.0
 10
34.73324545558856
 20
-3.533838591775921
 30
0.0
 10
33.5621238681216
 20
-2.501014102003087
 30
0.0
 10
32.39251698815407
 20
-1.382393194250342
 30
0.0
 10
31.22420898604805
 20
-0.2164054991745689
 30
0.0
 10
30.05419851161457
 20
0.9559923586930381
 30
0.0
 10
28.88338337966331
 20
2.095387643561521
 30
0.0
 10
27.7149317651466
 20
3.165509937840326
 30
0.0
 10
26.5458994851864
 20
4.128168408280183
 30
0.0
 10
25.37455746934776
 20
4.949810011394549
 30
0.0
 10
24.20555257144947
 20
5.605468222384621
 30
0.0
 10
23.03708621403564
 20
6.07094884042759
 30
0.0
 10
21.86624129552649
 20
6.331855171899633
 30
0.0
 10
20.69624887791441
 20
6.374064092925394
 30
0.0
 10
19.56749797307242
 20
6.223730273770872
 30
0.0
 10
18.82751662016005
 20
5.958574793422887
 30
0.0
 10
18.47705756455503
 20
5.832995765160184
 30
0.0
1001
PE_URL
1000

  0
SPLINE
  5
B4
330
1F
100
AcDbEntity
  8
0
  6
Continuous
 62
     1
370
    15
100
AcDbSpline
210
0.0
220
0.0
230
1.0
 70
     8
 71
     3
 72
    21
 73
    17
 74
     0
 42
0.000000001
 43
0.00000001
 40
0.0
 40
0.0
 40
0.0
 40
0.0
 40
0.0678685904830896
 40
0.1357166825529584
 40
0.2037374949170029
 40
0.2715483263075594
 40
0.3394999557390566
 40
0.4074336989423639
 40
0.4752488879074949
 40
0.5526681298926264
 40
0.629994666450174
 40
0.7072332799137866
 40
0.7845807699852531
 40
0.8619844444106584
 40
0.9392328721038897
 40
1.0
 40
1.0
 40
1.0
 40
1.0
 10
9.999999999999606
 20
2.523019842308823
 30
0.0
 10
10.34210197828295
 20
2.202649005780713
 30
0.0
 10
11.02620260947238
 20
1.56200409462487
 30
0.0
 10
12.05214645170642
 20
0.5408400679158217
 30
0.0
 10
13.08097404845502
 20
-0.4863055538737113
 30
0.0
 10
14.1064847242983
 20
-1.506310127065829
 30
0.0
 10
15.1342068236596
 20
-2.483621770682007
 30
0.0
 10
16.16158309234778
 20
-3.396735630260872
 30
0.0
 10
17.23462775964596
 20
-4.260986837367311
 30
0.0
 10
18.35838982800145
 20
-5.032370399768938
 30
0.0
 10
19.52794369320954
 20
-5.667495573178101
 30
0.0
 10
20.69627594115638
 20
-6.110505141307383
 30
0.0
 10
21.86622625984239
 20
-6.348069606088876
 30
0.0
 10
23.03711924665303
 20
-6.364902296389342
 30
0.0
 10
24.12223687843231
 20
-6.201689666694655
 30
0.0
 10
24.8180292455571
 20
-5.940415896210556
 30
0.0
 10
25.12438097222779
 20
-5.825379177638435
 30
0.0
1001
PE_URL
1000

  0
SPLINE
  5
B5
330
1F
100
AcDbEntity
  8
0
  6
Continuous
 62
     1
370
    15
100
AcDbSpline
210
0.0
220
0.0
230
1.0
 70
     8
 71
     3
 72
    23
 73
    19
 74
     0
 42
0.000000001
 43
0.00000001
 40
0.0
 40
0.0
 40
0.0
 40
0.0
 40
0.0643115550407813
 40
0.1305439209058093
 40
0.1966470570372953
 40
0.2627198634410887
 40
0.3289254568489188
 40
0.3950829941596644
 40
0.461147406170033
 40
0.527287021336471
 40
0.5935059301267701
 40
0.6515102155929237
 40
0.7096159039155657
 40
0.7677368908446363
 40
0.8257374491516765
 40
0.8839176102367157
 40
0.9419500386765748
 40
1.0
 40
1.0
 40
1.0
 40
1.0
 10
27.68335205854031
 20
-6.347166177706072
 30
0.0
 10
27.30445318284217
 20
-6.328624486743809
 30
0.0
 10
26.53533875497504
 20
-6.29098731505821
 30
0.0
 10
25.37455119934754
 20
-5.966432439214982
 30
0.0
 10
24.20555380629555
 20
-5.453101101639486
 30
0.0
 10
23.03708753575999
 20
-4.750451097007788
 30
0.0
 10
21.86623475747643
 20
-3.889471484263358
 30
0.0
 10
20.6962736685289
 20
-2.896122706092762
 30
0.0
 10
19.52794430273506
 20
-1.804053748233975
 30
0.0
 10
18.35838966366336
 20
-0.6514053783747932
 30
0.0
 10
17.23462779765968
 20
0.4740337999151994
 30
0.0
 10
16.16158308271855
 20
1.539377806552634
 30
0.0
 10
15.13420682624263
 20
2.515450976580481
 30
0.0
 10
14.1064847236079
 20
3.425438691635712
 30
0.0
 10
13.08097404864059
 20
4.249217239645153
 30
0.0
 10
12.0521464516572
 20
4.955921748413969
 30
0.0
 10
11.02620260948493
 20
5.546733732061846
 30
0.0
 10
10.34210197828728
 20
5.815666644789587
 30
0.0
 10
9.999999999999828
 20
5.950153410734679
 30
0.0
1001
PE_URL
1000

  0
SPLINE
  5
B6
330
1F
100
AcDbEntity
  8
외형선
  6
Continuous
370
    15
100
AcDbSpline
210
0.0
220
0.0
230
1.0
 70
    24
 71
     3
 72
    17
 73
    13
 74
     0
 42
0.000000001
 43
0.00000001
 40
0.0
 40
0.0
 40
0.0
 40
0.0
 40
0.0910260381690539
 40
0.1837629559728211
 40
0.2958446258070517
 40
0.4111766716592755
 40
0.5232583414934325
 40
0.6385903873457319
 40
0.7506720571798895
 40
0.8660041030321893
 40
0.9780857728663452
 40
1.0
 40
1.0
 40
1.0
 40
1.0
 10
9.999999999999966
 20
5.950153410736544
 30
0.0
 10
9.999999999999966
 20
5.850843862037094
 30
0.0
 10
9.999999999999973
 20
5.650358192305484
 30
0.0
 10
10.00000000000001
 20
5.299729210639875
 30
0.0
 10
9.999999999999966
 20
4.904912610812136
 30
0.0
 10
9.999999999999952
 20
4.477034916598836
 30
0.0
 10
10.00000000000004
 20
4.048961928657974
 30
0.0
 10
10.00000000000001
 20
3.640805327347034
 30
0.0
 10
9.99999999999996
 20
3.255016207824621
 30
0.0
 10
9.999999999999938
 20
2.916176497109848
 30
0.0
 10
10.0
 20
2.688070478070565
 30
0.0
 10
9.999999999999988
 20
2.59585211042247
 30
0.0
 10
9.999999999999995
 20
2.580770348217313
 30
0.0
  0
LINE
  5
B7
330
1F
100
AcDbEntity
  8
0
  6
Continuous
 62
     1
370
    15
100
AcDbLine
 10
41.75
 20
-6.303661198242539
 30
0.0
 11
41.75
 21
-3.814979619574801
 31
0.0
1001
PE_URL
1000

  0
SPLINE
  5
B8
330
1F
100
AcDbEntity
  8
0
  6
Continuous
 62
     1
370
    15
100
AcDbSpline
210
0.0
220
0.0
230
1.0
 70
     8
 71
     3
 72
    24
 73
    20
 74
     0
 42
0.000000001
 43
0.00000001
 40
0.0
 40
0.0
 40
0.0
 40
0.0
 40
0.0244111240998472
 40
0.0853291943735345
 40
0.1462752281708467
 40
0.2073404097146812
 40
0.2682878626114825
 40
0.3292052843210641
 40
0.3902439570709447
 40
0.4512423325401907
 40
0.5121527875678604
 40
0.573130515174391
 40
0.6341845283724534
 40
0.6951096866102976
 40
0.7560441671508984
 40
0.8171064095180423
 40
0.8780678891896208
 40
0.938980708147742
 40
1.0
 40
1.0
 40
1.0
 40
1.0
 10
22.56904971110223
 20
6.324143606017429
 30
0.0
 10
22.72523267597138
 20
6.330597807531133
 30
0.0
 10
23.27117093398217
 20
6.353158498027652
 30
0.0
 10
24.20552316648791
 20
6.166554702644852
 30
0.0
 10
25.37456536757287
 20
5.774124832711715
 30
0.0
 10
26.54589737165639
 20
5.174012785396659
 30
0.0
 10
27.71493233058352
 20
4.401480905254902
 30
0.0
 10
28.88338322811916
 20
3.478675749289596
 30
0.0
 10
30.05419855120883
 20
2.439888368589629
 30
0.0
 10
31.22420897925248
 20
1.317931779008332
 30
0.0
 10
32.39251697583755
 20
0.1504834410734492
 30
0.0
 10
33.56212392429555
 20
-1.021482285807381
 30
0.0
 10
34.73324524313174
 20
-2.157615674756598
 30
0.0
 10
35.90184940892846
 20
-3.222702174039171
 30
0.0
 10
37.07063406851037
 20
-4.178215242614133
 30
0.0
 10
38.24191830735069
 20
-4.992061865715085
 30
0.0
 10
39.41121539308291
 20
-5.634156540925188
 30
0.0
 10
40.57957310336322
 20
-6.10085463568241
 30
0.0
 10
41.35963064858648
 20
-6.236019668031211
 30
0.0
 10
41.75000000000001
 20
-6.303661198242539
 30
0.0
1001
PE_URL
1000

  0
SPLINE
  5
B9
330
1F
100
AcDbEntity
  8
0
  6
Continuous
 62
     1
370
    15
100
AcDbSpline
210
0.0
220
0.0
230
1.0
 70
     8
 71
     3
 72
    22
 73
    18
 74
     0
 42
0.000000001
 43
0.00000001
 40
0.0
 40
0.0
 40
0.0
 40
0.0
 40
0.0704001157296904
 40
0.1406773899146517
 40
0.2110108056862317
 40
0.2814604749444329
 40
0.3517627408634382
 40
0.4220542513119502
 40
0.4924944262866535
 40
0.5628465878756012
 40
0.6331211347103709
 40
0.7034971184690056
 40
0.7739195946259344
 40
0.8442021791680893
 40
0.9145194117533748
 40
0.9849724720437056
 40
1.0
 40
1.0
 40
1.0
 40
1.0
 10
41.75000000000003
 20
-3.814979619574799
 30
0.0
 10
41.35963064858985
 20
-3.490799565341994
 30
0.0
 10
40.57957310337334
 20
-2.843005120415704
 30
0.0
 10
39.41121539304243
 20
-1.739114897754297
 30
0.0
 10
38.24191830750289
 20
-0.5859339618023667
 30
0.0
 10
37.0706340679416
 20
0.5878472304898874
 30
0.0
 10
35.90184941104604
 20
1.743094088525349
 30
0.0
 10
34.7332452352225
 20
2.839521233749387
 30
0.0
 10
33.56212395386733
 20
3.838143718685485
 30
0.0
 10
32.39251686568662
 20
4.708142974031963
 30
0.0
 10
31.2242093901021
 20
5.419019877400318
 30
0.0
 10
30.05419701494368
 20
5.94630180961377
 30
0.0
 10
28.88338896067855
 20
6.271194235705178
 30
0.0
 10
27.71491097977822
 20
6.388745095426858
 30
0.0
 10
26.54597716791385
 20
6.273196477683095
 30
0.0
 10
25.68116396131138
 20
6.077517090174533
 30
0.0
 10
25.20762869639321
 20
5.863077720528524
 30
0.0
 10
25.12438097222783
 20
5.825379177638435
 30
0.0
1001
PE_URL
1000

  0
LINE
  5
BA
330
1F
100
AcDbEntity
  8
0
  6
Continuous
 62
     1
370
    15
100
AcDbLine
 10
41.75
 20
-2.488681578667649
 30
0.0
 11
41.75
 21
2.488681578667768
 31
0.0
1001
PE_URL
1000

  0
SPLINE
  5
BB
330
1F
100
AcDbEntity
  8
0
  6
Continuous
 62
     1
370
    15
100
AcDbSpline
210
0.0
220
0.0
230
1.0
 70
     8
 71
     3
 72
     9
 73
     5
 74
     0
 42
0.000000001
 43
0.00000001
 40
0.0
 40
0.0
 40
0.0
 40
0.0
 40
0.5621406317172798
 40
0.9999999999999999
 40
0.9999999999999999
 40
0.9999999999999999
 40
0.9999999999999999
 10
9.999999999999606
 20
-6.308058559232423
 30
0.0
 10
10.34205955902718
 20
-6.256466607259064
 30
0.0
 10
10.95055419493817
 20
-6.164688946897188
 30
0.0
 10
11.55891064098079
 20
-5.931139216231742
 30
0.0
 10
11.82528521013574
 20
-5.82887727869997
 30
0.0
1001
PE_URL
1000

  0
SPLINE
  5
BC
330
1F
100
AcDbEntity
  8
0
  6
Continuous
 62
     1
370
    15
100
AcDbSpline
210
0.0
220
0.0
230
1.0
 70
     8
 71
     3
 72
    18
 73
    14
 74
     0
 42
0.000000001
 43
0.00000001
 40
0.0
 40
0.0
 40
0.0
 40
0.0
 40
0.0667504609266468
 40
0.160110266788416
 40
0.2533355078311436
 40
0.3466637115323675
 40
0.4401086725727942
 40
0.5333564173106918
 40
0.626618430106859
 40
0.7200759861323476
 40
0.8133793218917434
 40
0.9066081809994825
 40
1.0
 40
1.0
 40
1.0
 40
1.0
 10
29.21736709118627
 20
6.328029395085681
 30
0.0
 10
29.49636173460912
 20
6.326160291637656
 30
0.0
 10
30.16556920030829
 20
6.321676986989813
 30
0.0
 10
31.22423164239456
 20
6.065590288630212
 30
0.0
 10
32.39251089972917
 20
5.605444977175329
 30
0.0
 10
33.5621255555255
 20
4.94813337836773
 30
0.0
 10
34.73324480684568
 20
4.126488650839121
 30
0.0
 10
35.90184952573856
 20
3.163255288787157
 30
0.0
 10
37.07063403713516
 20
2.093150587740634
 30
0.0
 10
38.24191831574692
 20
0.9537146915785063
 30
0.0
 10
39.41121539084765
 20
-0.2179935196633644
 30
0.0
 10
40.57957310392297
 20
-1.388742145020126
 30
0.0
 10
41.35963064877318
 20
-2.121821722199043
 30
0.0
 10
41.75000000000001
 20
-2.48868157866765
 30
0.0
1001
PE_URL
1000

  0
SPLINE
  5
BD
330
1F
100
AcDbEntity
  8
0
  6
Continuous
 62
     1
370
    15
100
AcDbSpline
210
0.0
220
0.0
230
1.0
 70
     8
 71
     3
 72
    16
 73
    12
 74
     0
 42
0.000000001
 43
0.00000001
 40
0.0
 40
0.0
 40
0.0
 40
0.0
 40
0.1173422736236461
 40
0.2344797960760117
 40
0.3517108948151544
 40
0.4691357638101471
 40
0.5863149422578774
 40
0.7034761935850554
 40
0.8208852375945277
 40
0.9381475816918357
 40
1.0
 40
1.0
 40
1.0
 40
1.0
 10
41.75000000000003
 20
2.488681578667769
 30
0.0
 10
41.35963064781143
 20
2.839257143008365
 30
0.0
 10
40.57957310103947
 20
3.539796550481126
 30
0.0
 10
39.4112154023622
 20
4.449721502672357
 30
0.0
 10
38.24191827249606
 20
5.214612281418846
 30
0.0
 10
37.07063419875559
 20
5.800871512378924
 30
0.0
 10
35.9018489240255
 20
6.191600618696722
 30
0.0
 10
34.73324705424549
 20
6.375044735922696
 30
0.0
 10
33.56211715272175
 20
6.33297673888535
 30
0.0
 10
32.57632262593519
 20
6.14801111259872
 30
0.0
 10
31.98116312315286
 20
5.902223842709283
 30
0.0
 10
31.77564095383643
 20
5.817347884815829
 30
0.0
1001
PE_URL
1000

  0
SPLINE
  5
BE
330
1F
100
AcDbEntity
  8
0
  6
Continuous
 62
     1
370
    15
100
AcDbSpline
210
0.0
220
0.0
230
1.0
 70
     8
 71
     3
 72
    12
 73
     8
 74
     0
 42
0.000000001
 43
0.00000001
 40
0.0
 40
0.0
 40
0.0
 40
0.0
 40
0.0631170852380103
 40
0.2970747392198745
 40
0.5317568594106118
 40
0.7658430683878766
 40
1.0
 40
1.0
 40
1.0
 40
1.0
 10
14.38298100005775
 20
-6.333664055920256
 30
0.0
 10
14.29070932452614
 20
-6.338493989627015
 30
0.0
 10
13.85641195729877
 20
-6.361227157531927
 30
0.0
 10
13.08104314311809
 20
-6.23595379746984
 30
0.0
 10
12.05212805490088
 20
-5.953933746588616
 30
0.0
 10
11.02620720542035
 20
-5.511877981986878
 30
0.0
 10
10.34210351042
 20
-5.101085044350326
 30
0.0
 10
9.99999999999982
 20
-4.895657552804312
 30
0.0
1001
PE_URL
1000

  0
SPLINE
  5
BF
330
1F
100
AcDbEntity
  8
외형선
  6
Continuous
370
    15
100
AcDbSpline
210
0.0
220
0.0
230
1.0
 70
    24
 71
     3
 72
    11
 73
     7
 74
     0
 42
0.000000001
 43
0.00000001
 40
0.0
 40
0.0
 40
0.0
 40
0.0
 40
0.1982096646200039
 40
0.4996680826261379
 40
0.809868815176699
 40
1.0
 40
1.0
 40
1.0
 40
1.0
 10
9.999999999999988
 20
-4.953408058704282
 30
0.0
 10
9.999999999999973
 20
-5.035986918542454
 30
0.0
 10
9.999999999999945
 20
-5.2441605242034
 30
0.0
 10
10.00000000000002
 20
-5.612909722696292
 30
0.0
 10
9.999999999999904
 20
-5.986116656244233
 30
0.0
 10
9.999999999999973
 20
-6.219406181915449
 30
0.0
 10
9.999999999999988
 20
-6.308058559232382
 30
0.0
  0
LINE
  5
C0
330
1F
100
AcDbEntity
  8
0
  6
Continuous
 62
     1
370
    15
100
AcDbLine
 10
41.75
 20
6.303661198242548
 30
0.0
 11
41.75
 21
6.350000000000003
 31
0.0
1001
PE_URL
1000

  0
LINE
  5
C1
330
1F
100
AcDbEntity
  8
외형선
  6
Continuous
370
    15
100
AcDbLine
 10
9.999999999999966
 20
1.054495857930076
 30
0.0
 11
9.999999999999988
 21
2.523019842308472
 31
0.0
  0
LINE
  5
C2
330
1F
100
AcDbEntity
  8
0
  6
Continuous
 62
     1
370
    15
100
AcDbLine
 10
41.75
 20
-6.350000000000003
 30
0.0
 11
41.75
 21
-6.303661198242539
 31
0.0
1001
PE_URL
1000

  0
LINE
  5
C3
330
1F
100
AcDbEntity
  8
0
  6
Continuous
 62
     1
370
    15
100
AcDbLine
 10
41.75
 20
-3.8149796195748
 30
0.0
 11
41.75
 21
-2.488681578667649
 31
0.0
1001
PE_URL
1000

  0
LINE
  5
C4
330
1F
100
AcDbEntity
  8
외형선
  6
Continuous
370
    15
100
AcDbLine
 10
9.999999999999966
 20
5.950153410736544
 30
0.0
 11
9.99999999999998
 21
6.308058559232375
 31
0.0
  0
LINE
  5
C5
330
1F
100
AcDbEntity
  8
0
  6
Continuous
 62
     1
370
    15
100
AcDbLine
 10
41.75
 20
2.488681578667768
 30
0.0
 11
41.75
 21
3.814979619574828
 31
0.0
1001
PE_URL
1000

  0
LINE
  5
C6
330
1F
100
AcDbEntity
  8
외형선
  6
Continuous
370
    15
100
AcDbLine
 10
9.999999999999966
 20
-4.895657552806417
 30
0.0
 11
9.99999999999998
 21
-3.785038716923913
 31
0.0
  0
LINE
  5
C7
330
1F
100
AcDbEntity
  8
외형선
  6
Continuous
370
    15
100
AcDbLine
 10
8.99965539662631
 20
-6.344319829421066
 30
0.0
 11
8.99965539662631
 21
-4.201669600035272
 31
0.0
  0
SPLINE
  5
C8
330
1F
100
AcDbEntity
  8
외형선
  6
Continuous
370
    15
100
AcDbSpline
210
0.0
220
0.0
230
1.0
 70
     8
 71
     3
 72
     8
 73
     4
 74
     0
 42
0.000000001
 43
0.00000001
 40
0.0
 40
0.0
 40
0.0
 40
0.0
 40
1.0
 40
1.0
 40
1.0
 40
1.0
 10
9.999999999999613
 20
-6.308058559232423
 30
0.0
 10
9.66861609899916
 20
-6.34618440874295
 30
0.0
 10
9.33310805209847
 20
-6.358399980533999
 30
0.0
 10
8.99965539662633
 20
-6.344318782212072
 30
0.0
  0
LINE
  5
C9
330
1F
100
AcDbEntity
  8
외형선
  6
Continuous
370
    15
100
AcDbLine
 10
9.268495882507851
 20
6.334573924358939
 30
0.0
 11
9.999999999999613
 21
6.308058559232418
 31
0.0
  0
SPLINE
  5
CA
330
1F
100
AcDbEntity
  8
외형선
  6
Continuous
370
    15
100
AcDbSpline
210
0.0
220
0.0
230
1.0
 70
     8
 71
     3
 72
     8
 73
     4
 74
     0
 42
0.000000001
 43
0.00000001
 40
0.0
 40
0.0
 40
0.0
 40
0.0
 40
1.0
 40
1.0
 40
1.0
 40
1.0
 10
9.999999999999613
 20
5.950153410734753
 30
0.0
 10
9.66861609899916
 20
6.066195694784639
 30
0.0
 10
9.333108052098456
 20
6.158128021812727
 30
0.0
 10
8.999655396626302
 20
6.224100724847109
 30
0.0
  0
LINE
  5
CB
330
1F
100
AcDbEntity
  8
외형선
  6
Continuous
370
    15
100
AcDbLine
 10
8.99965539662631
 20
3.404709751328368
 30
0.0
 11
8.99965539662631
 21
6.224104671018619
 31
0.0
  0
SPLINE
  5
CC
330
1F
100
AcDbEntity
  8
외형선
  6
Continuous
370
    15
100
AcDbSpline
210
0.0
220
0.0
230
1.0
 70
     8
 71
     3
 72
     8
 73
     4
 74
     0
 42
0.000000001
 43
0.00000001
 40
0.0
 40
0.0
 40
0.0
 40
0.0
 40
1.0
 40
1.0
 40
1.0
 40
1.0
 10
9.999999999999613
 20
2.523019842308815
 30
0.0
 10
9.66861609899916
 20
2.82793438486138
 30
0.0
 10
9.33310805209847
 20
3.123680164486212
 30
0.0
 10
8.99965539662633
 20
3.404730653847886
 30
0.0
  0
SPLINE
  5
CD
330
1F
100
AcDbEntity
  8
외형선
  6
Continuous
370
    15
100
AcDbSpline
210
0.0
220
0.0
230
1.0
 70
     8
 71
     3
 72
     8
 73
     4
 74
     0
 42
0.000000001
 43
0.00000001
 40
0.0
 40
0.0
 40
0.0
 40
0.0
 40
1.0
 40
1.0
 40
1.0
 40
1.0
 10
9.999999999999613
 20
1.054495857930525
 30
0.0
 10
9.66861609899916
 20
1.382150035639847
 30
0.0
 10
9.333108052098456
 20
1.706797770113607
 30
0.0
 10
8.999655396626302
 20
2.022416192062566
 30
0.0
  0
SPLINE
  5
CE
330
1F
100
AcDbEntity
  8
외형선
  6
Continuous
370
    15
100
AcDbSpline
210
0.0
220
0.0
230
1.0
 70
     8
 71
     3
 72
     8
 73
     4
 74
     0
 42
0.000000001
 43
0.00000001
 40
0.0
 40
0.0
 40
0.0
 40
0.0
 40
1.0
 40
1.0
 40
1.0
 40
1.0
 10
9.999999999999613
 20
-3.785038716923613
 30
0.0
 10
9.66861609899916
 20
-3.518250023881578
 30
0.0
 10
9.33310805209847
 20
-3.234719816047799
 30
0.0
 10
8.99965539662633
 20
-2.939588128364201
 30
0.0
  0
SPLINE
  5
CF
330
1F
100
AcDbEntity
  8
외형선
  6
Continuous
370
    15
100
AcDbSpline
210
0.0
220
0.0
230
1.0
 70
     8
 71
     3
 72
     8
 73
     4
 74
     0
 42
0.000000001
 43
0.00000001
 40
0.0
 40
0.0
 40
0.0
 40
0.0
 40
1.0
 40
1.0
 40
1.0
 40
1.0
 10
9.999999999999613
 20
-4.895657552804176
 30
0.0
 10
9.66861609899916
 20
-4.684045659144738
 30
0.0
 10
9.333108052098456
 20
-4.451330251699064
 30
0.0
 10
8.999655396626302
 20
-4.201684532784485
 30
0.0
  0
LINE
  5
D0
330
1F
100
AcDbEntity
  8
외형선
  6
Continuous
370
    15
100
AcDbLine
 10
-39.53000000000001
 20
-0.0000000000000007
 30
0.0
 11
-39.53000000000001
 21
6.35
 31
0.0
  0
LINE
  5
D1
330
1F
100
AcDbEntity
  8
외형선
  6
Continuous
370
    15
100
AcDbLine
 10
-39.53000000000001
 20
-6.35
 30
0.0
 11
-39.53000000000001
 21
-0.0000000000000007
 31
0.0
  0
LINE
  5
D2
330
1F
100
AcDbEntity
  8
외형선
  6
Continuous
370
    15
100
AcDbLine
 10
8.99965539662631
 20
-2.939610078092712
 30
0.0
 11
8.99965539662631
 21
2.022435070983291
 31
0.0
  0
LINE
  5
D3
330
1F
100
AcDbEntity
  8
외형선
  6
Continuous
370
    15
100
AcDbLine
 10
-40.80000000000001
 20
-0.0000000000000007
 30
0.0
 11
-40.80000000000001
 21
5.080000000000004
 31
0.0
  0
LINE
  5
D4
330
1F
100
AcDbEntity
  8
외형선
  6
Continuous
370
    15
100
AcDbLine
 10
-40.80000000000001
 20
-5.080000000000005
 30
0.0
 11
-40.80000000000001
 21
-0.0000000000000007
 31
0.0
  0
SPLINE
  5
D5
330
1F
100
AcDbEntity
  8
외형선
  6
Continuous
370
    15
100
AcDbSpline
210
0.0
220
0.0
230
1.0
 70
    24
 71
     3
 72
    22
 73
    18
 74
     0
 42
0.000000001
 43
0.00000001
 40
0.0
 40
0.0
 40
0.0
 40
0.0
 40
0.0566759226589627
 40
0.125868987981933
 40
0.1950620533049031
 40
0.2642551186278708
 40
0.3334481839508384
 40
0.4026412492738092
 40
0.47183431459678
 40
0.5410273799197489
 40
0.6102204452427177
 40
0.6794135105656861
 40
0.7486065758886546
 40
0.8177996412116179
 40
0.8869927065345811
 40
0.9561857718575574
 40
0.9999999999999999
 40
0.9999999999999999
 40
0.9999999999999999
 40
0.9999999999999999
 10
9.999999999999995
 20
-3.785038716923914
 30
0.0
 10
9.99999999999998
 20
-3.731264220318445
 30
0.0
 10
9.999999999999924
 20
-3.611838877961043
 30
0.0
 10
9.999999999999988
 20
-3.360605714862652
 30
0.0
 10
9.999999999999966
 20
-3.045174252324669
 30
0.0
 10
9.99999999999998
 20
-2.683414958145075
 30
0.0
 10
9.999999999999973
 20
-2.288603209830955
 30
0.0
 10
9.999999999999988
 20
-1.870401390751883
 30
0.0
 10
10.0
 20
-1.441478664475623
 30
0.0
 10
9.999999999999966
 20
-1.01377794654534
 30
0.0
 10
9.999999999999973
 20
-0.5991665745494124
 30
0.0
 10
9.999999999999995
 20
-0.2101342317165403
 30
0.0
 10
9.999999999999995
 20
0.1432750972550902
 30
0.0
 10
9.99999999999998
 20
0.4503114886529221
 30
0.0
 10
9.999999999999973
 20
0.7006894784864063
 30
0.0
 10
10.00000000000002
 20
0.8743342090898535
 30
0.0
 10
10.00000000000002
 20
0.9347517767892648
 30
0.0
 10
10.00000000000003
 20
0.958176363059916
 30
0.0
  0
SPLINE
  5
D6
330
1F
100
AcDbEntity
  8
외형선
  6
Continuous
370
    15
100
AcDbSpline
210
0.0
220
0.0
230
1.0
 70
    24
 71
     3
 72
    16
 73
    12
 74
     0
 42
0.000000001
 43
0.00000001
 40
0.0
 40
0.0
 40
0.0
 40
0.0
 40
0.0437414287930421
 40
0.1573610365691558
 40
0.270980644345269
 40
0.3846002521213821
 40
0.4982198598974865
 40
0.6118394676735911
 40
0.7254590754497173
 40
0.8390786832258432
 40
1.0
 40
1.0
 40
1.0
 40
1.0
 10
9.99999999999998
 20
2.580770348217313
 30
0.0
 10
9.999999999999973
 20
2.612039549495575
 30
0.0
 10
9.999999999999966
 20
2.724531392163036
 30
0.0
 10
9.999999999999966
 20
2.976417312665541
 30
0.0
 10
9.99999999999998
 20
3.326618305548449
 30
0.0
 10
9.999999999999995
 20
3.716079047876725
 30
0.0
 10
9.999999999999973
 20
4.130244321249696
 30
0.0
 10
9.99999999999998
 20
4.558085367946267
 30
0.0
 10
10.00000000000003
 20
4.986426573134931
 30
0.0
 10
10.00000000000004
 20
5.465501773625476
 30
0.0
 10
10.00000000000001
 20
5.771054576848313
 30
0.0
 10
10.00000000000001
 20
5.950153410725985
 30
0.0
  0
SPLINE
  5
D7
330
1F
100
AcDbEntity
  8
외형선
  6
Continuous
370
    15
100
AcDbSpline
210
0.0
220
0.0
230
1.0
 70
    24
 71
     3
 72
    12
 73
     8
 74
     0
 42
0.000000001
 43
0.00000001
 40
0.0
 40
0.0
 40
0.0
 40
0.0
 40
0.2510803170114932
 40
0.401770954764365
 40
0.7082720263037035
 40
0.8644490687956821
 40
1.0
 40
1.0
 40
1.0
 40
1.0
 10
9.999999999999995
 20
-6.30805855923238
 30
0.0
 10
9.999999999999966
 20
-6.191150817685074
 30
0.0
 10
9.999999999999918
 20
-6.004078666829628
 30
0.0
 10
10.00000000000006
 20
-5.675465023954091
 30
0.0
 10
9.999999999999918
 20
-5.395607661162343
 30
0.0
 10
9.999999999999995
 20
-5.132808891388187
 30
0.0
 10
9.999999999999995
 20
-5.010321586730642
 30
0.0
 10
9.999999999999988
 20
-4.953408058704282
 30
0.0
  0
LINE
  5
D8
330
1F
100
AcDbEntity
  8
중심선
 62
     1
100
AcDbLine
 10
-43.8
 20
-0.0000000000000068
 30
0.0
 11
44.75000000000001
 21
0.0000000000000041
 31
0.0
  0
LINE
  5
D9
330
1F
100
AcDbEntity
  8
참조1
100
AcDbLine
 10
0.4750000000000021
 20
-0.0000000000000064
 30
0.0
 11
0.4750000000000021
 21
-40.00000000000002
 31
0.0
  0
LINE
  5
DA
330
1F
100
AcDbEntity
  8
참조1
100
AcDbLine
 10
0.4750000000000021
 20
-40.00000000000002
 30
0.0
 11
-8.33385681430868
 21
-40.0
 31
0.0
  0
CIRCLE
  5
DB
330
1F
100
AcDbEntity
  8
해칭선
100
AcDbCircle
 10
0.0
 20
0.0
 30
0.0
 40
3.000000000000001
  0
INSERT
  5
DC
330
1F
100
AcDbEntity
  8
0
  6
Continuous
 62
     7
100
AcDbBlockReference
 66
     1
  2
블럭10
 10
-13.46527293212521
 20
-52.04717430164395
 30
0.0
  0
ATTRIB
  5
DD
330
DC
100
AcDbEntity
  8
FORMAT
 62
     2
100
AcDbText
 10
-22.64656822086649
 20
-49.97180738881176
 30
0.0
 40
4.233333333333333
  1
E2042032 [ 6 FLUTE ]
 41
0.75
  7
SLDTEXTSTYLE0
 11
-22.64656822086649
 21
-52.08847405547843
 31
0.0
100
AcDbAttribute
  2
AUTOATTR0
 70
     0
 74
     1
  0
SEQEND
  5
DE
330
DC
100
AcDbEntity
  8
0
  6
Continuous
 62
     7
  0
HATCH
  5
DF
330
1F
100
AcDbEntity
  8
중심선
100
AcDbHatch
 10
0.0
 20
0.0
 30
0.0
210
0.0
220
0.0
230
1.0
  2
SOLID
 70
     1
 71
     0
 91
        1
 92
        0
 93
        4
 72
     1
 10
-7.750363627744369
 20
-35.8
 11
-11.19663887158165
 21
-35.8
 72
     1
 10
-11.19663887158165
 20
-35.8
 11
-13.32486873078567
 21
-38.33632558057257
 72
     1
 10
-13.32486873078567
 20
-38.33632558057257
 11
-9.87856040183524
 21
-38.33628615127008
 72
     1
 10
-9.87856040183524
 20
-38.33628615127008
 11
-7.750363627744369
 21
-35.8
 97
        0
 75
     0
 76
     1
 98
        1
 10
1.174999999999953
 20
-0.0010749287238956
  0
HATCH
  5
E0
330
1F
100
AcDbEntity
  8
중심선
100
AcDbHatch
 10
0.0
 20
0.0
 30
0.0
210
0.0
220
0.0
230
1.0
  2
SOLID
 70
     1
 71
     0
 91
        1
 92
        0
 93
        4
 72
     1
 10
-2.737599636708417
 20
-35.80000000000003
 11
-6.183874880545671
 21
-35.79999999999998
 72
     1
 10
-6.183874880545671
 20
-35.79999999999998
 11
-10.71501288890309
 21
-41.20000000000002
 72
     1
 10
-10.71501288890309
 20
-41.20000000000002
 11
-7.268737645065805
 21
-41.20000000000002
 72
     1
 10
-7.268737645065805
 20
-41.20000000000002
 11
-2.737599636708417
 21
-35.80000000000003
 97
        0
 75
     0
 76
     1
 98
        1
 10
1.174999999999953
 20
-0.0010749287238956
  0
HATCH
  5
E1
330
1F
100
AcDbEntity
  8
중심선
100
AcDbHatch
 10
0.0
 20
0.0
 30
0.0
210
0.0
220
0.0
230
1.0
  2
SOLID
 70
     1
 71
     0
 91
        1
 92
        0
 93
        4
 72
     1
 10
2.275164354327479
 20
-35.8
 11
-1.171110889509637
 21
-35.8
 72
     1
 10
-1.171110889509637
 20
-35.8
 11
-8.219547791398886
 21
-44.20000000000002
 72
     1
 10
-8.219547791398886
 20
-44.20000000000002
 11
-4.773272547561604
 21
-44.20000000000002
 72
     1
 10
-4.773272547561604
 20
-44.20000000000002
 11
2.27516435432748
 21
-35.8
 97
        0
 75
     0
 76
     1
 98
        1
 10
1.174999999999953
 20
-0.0010749287238956
  0
HATCH
  5
E2
330
1F
100
AcDbEntity
  8
중심선
100
AcDbHatch
 10
0.0
 20
0.0
 30
0.0
210
0.0
220
0.0
230
1.0
  2
SOLID
 70
     1
 71
     0
 91
        1
 92
        0
 93
        6
 72
     3
 10
7.075054785339678
 20
-40.00000000005127
 11
3.960054785062284
 21
1.540882976769353E-10
 40
0.3939339440162627
 50
17.09539180608436
 51
320.0019657685082
 73
     0
 72
     1
 10
8.758054441040246
 20
-38.58789400463833
 11
11.06335631474128
 21
-36.65356729459038
 72
     3
 10
7.075054785286832
 20
-40.00000000000015
 11
6.60005478528683
 21
-1.278976924368180E-13
 40
0.636358354079598
 50
39.99873849337428
 51
368.4976242363724
 73
     1
 72
     1
 10
13.50038727718744
 20
-39.03999999993002
 11
5.755122092122782
 21
-39.03999999993002
 72
     1
 10
5.755122092122782
 20
-39.03999999993002
 11
5.75509704767682
 21
-40.95999999992991
 72
     1
 10
5.75509704767682
 20
-40.95999999992991
 11
10.19647681714886
 21
-40.95999999992988
 97
        0
 75
     0
 76
     1
 98
        1
 10
1.174999999999953
 20
-0.0010749287238956
  0
DIMENSION
  5
E3
330
1F
100
AcDbEntity
  8
치수문자_일반주서
100
AcDbDimension
  2
_D
 10
-50.79999999999998
 20
-6.350000000000037
 30
0.0
 11
-50.80000000000009
 21
26.29774999999996
 31
0.0
 70
   160
  1
%%c<>
 71
     2
 42
12.69999999999999
 52
-270.0
  3
SLDDIMSTYLE0
100
AcDbAlignedDimension
 13
-39.53000000000002
 23
6.349999999999994
 33
0.0
 14
-39.53000000000002
 24
-6.349999999999996
 34
0.0
 50
90.0000000000002
100
AcDbRotatedDimension
1001
PE_URL
1000

1001
ACAD
1000
DSTYLE
1002
{
1070
   171
1070
     8
1070
   273
1070
     7
1002
}
  0
DIMENSION
  5
F8
330
1F
100
AcDbEntity
  8
치수문자_일반주서
100
AcDbDimension
  2
_D_1
 10
9.999999999999995
 20
16.34999999999999
 30
0.0
 11
25.875
 21
16.34999999999999
 31
0.0
 70
   160
  1
<>
 71
     2
 42
31.75000000000001
  3
SLDDIMSTYLE0
100
AcDbAlignedDimension
 13
41.75
 23
6.303661198242548
 33
0.0
 14
9.999999999999995
 24
6.308058559232377
 34
0.0
100
AcDbRotatedDimension
1001
PE_URL
1000

1001
ACAD
1000
DSTYLE
1002
{
1070
   171
1070
     8
1070
   273
1070
     7
1002
}
  0
DIMENSION
  5
10C
330
1F
100
AcDbEntity
  8
치수문자_일반주서
100
AcDbDimension
  2
_D_2
 10
-40.80000000000001
 20
26.34999999999999
 30
0.0
 11
0.4749999999999925
 21
26.34999999999999
 31
0.0
 70
   160
  1
<>
 71
     2
 42
82.55000000000001
  3
SLDDIMSTYLE0
100
AcDbAlignedDimension
 13
41.75
 23
6.303661198242548
 33
0.0
 14
-40.80000000000001
 24
5.080000000000004
 34
0.0
 50
0.0000000000000049
100
AcDbRotatedDimension
1001
PE_URL
1000

1001
ACAD
1000
DSTYLE
1002
{
1070
   171
1070
     8
1070
   273
1070
     7
1002
}
  0
DIMENSION
  5
11F
330
1F
100
AcDbEntity
  8
치수문자_일반주서
100
AcDbDimension
  2
_D_3
 10
51.75000000000004
 20
-6.349999999999966
 30
0.0
 11
51.74999999999993
 21
26.29775000000004
 31
0.0
 70
   160
  1
%%c<>
 71
     2
 42
12.7
 52
-270.0
  3
SLDDIMSTYLE0
100
AcDbAlignedDimension
 13
41.75
 23
6.350000000000001
 33
0.0
 14
41.75
 24
-6.350000000000001
 34
0.0
 50
90.0000000000002
100
AcDbRotatedDimension
1001
PE_URL
1000

1001
ACAD
1000
DSTYLE
1002
{
1070
   171
1070
     8
1070
   273
1070
     7
1002
}
  0
LINE
  5
133
330
1F
100
AcDbEntity
  8
참조1
100
AcDbLine
 10
89.6384838153456
 20
7.44
 30
0.0
 11
89.6384838153456
 21
-7.440000000000005
 31
0.0
  0
LINE
  5
134
330
1F
100
AcDbEntity
  8
참조1
100
AcDbLine
 10
102.3384838153456
 20
5.44
 30
0.0
 11
89.6384838153456
 21
5.44
 31
0.0
  0
SOLID
  5
135
330
1F
100
AcDbEntity
  8
참조1
100
AcDbTrace
 10
89.6384838153456
 20
5.44
 30
0.0
 11
95.98848381534559
 21
4.423999999999999
 31
0.0
 12
95.98848381534559
 22
6.456
 32
0.0
 13
95.98848381534559
 23
6.456
 33
0.0
  0
LINE
  5
136
330
1F
100
AcDbEntity
  8
참조1
100
AcDbLine
 10
102.3384838153456
 20
-5.440000000000005
 30
0.0
 11
89.6384838153456
 21
-5.440000000000005
 31
0.0
  0
SOLID
  5
137
330
1F
100
AcDbEntity
  8
참조1
100
AcDbTrace
 10
89.6384838153456
 20
-5.440000000000005
 30
0.0
 11
95.98848381534559
 21
-6.456000000000005
 31
0.0
 12
95.98848381534559
 22
-4.424000000000005
 32
0.0
 13
95.98848381534559
 23
-4.424000000000005
 33
0.0
  0
MTEXT
  5
138
330
1F
100
AcDbEntity
  8
참조1
100
AcDbMText
 10
99.03597390781586
 20
10.98821664464993
 30
0.0
 40
3.5
 41
0.0
 71
     1
 72
     1
  1
A
  7
SLDTEXTSTYLE0
 73
     1
 44
1.0
  0
MTEXT
  5
139
330
1F
100
AcDbEntity
  8
참조1
100
AcDbMText
 10
99.03597390781586
 20
0.1082166446499295
 30
0.0
 40
3.5
 41
0.0
 71
     1
 72
     1
  1
A
  7
SLDTEXTSTYLE0
 73
     1
 44
1.0
  0
INSERT
  5
140
330
1F
100
AcDbEntity
  8
해칭선
100
AcDbBlockReference
  2
SW_DOWELSYMBOL_0
 10
0.0
 20
0.0
 30
0.0
  0
LINE
  5
1E9
330
1F
100
AcDbEntity
  8
외형선
  6
Continuous
370
    15
100
AcDbLine
 10
-23.76612499999999
 20
4.825999999999993
 30
0.0
 11
-12.59012500000011
 21
4.825999999999993
 31
0.0
1001
PE_URL
1000

  0
LINE
  5
1EA
330
1F
100
AcDbEntity
  8
외형선
  6
Continuous
370
    15
100
AcDbLine
 10
-23.76612499999999
 20
4.825999999999993
 30
0.0
 11
-25.29012499999999
 21
6.349999999999994
 31
0.0
1001
PE_URL
1000

  0
LINE
  5
1EB
330
1F
100
AcDbEntity
  8
외형선
  6
Continuous
370
    15
100
AcDbLine
 10
-12.590125
 20
4.825999999999993
 30
0.0
 11
-11.066125
 21
6.349999999999994
 31
0.0
1001
PE_URL
1000

  0
LINE
  5
1EF
330
1F
100
AcDbEntity
  8
외형선
  6
Continuous
370
    15
100
AcDbLine
 10
-25.290125
 20
6.35
 30
0.0
 11
-39.53000000000001
 21
6.35
 31
0.0
  0
ENDSEC
  0
SECTION
  2
OBJECTS
  0
DICTIONARY
  5
C
330
0
100
AcDbDictionary
281
     1
  3
ACAD_GROUP
350
D
  3
ACAD_IMAGE_VARS
350
213
  3
ACAD_LAYOUT
350
1A
  3
ACAD_MLINESTYLE
350
17
  3
ACAD_PLOTSETTINGS
350
19
  3
ACAD_PLOTSTYLENAME
350
E
  3
ACAD_SCALELIST
350
47
  3
APPDATA
350
162
  3
DWGPROPS
350
214
  0
DICTIONARY
  5
197
330
2
100
AcDbDictionary
280
     1
281
     1
  3
ACAD_LAYERSTATES
360
198
  0
DICTIONARY
  5
D
102
{ACAD_REACTORS
330
C
102
}
330
C
100
AcDbDictionary
281
     1
  0
RASTERVARIABLES
  5
213
102
{ACAD_REACTORS
330
C
102
}
330
C
100
AcDbRasterVariables
 90
        0
 70
     1
 71
     1
 72
     1
  0
DICTIONARY
  5
1A
102
{ACAD_REACTORS
330
C
102
}
330
C
100
AcDbDictionary
281
     1
  3
Layout1
350
1E
  3
Layout2
350
26
  3
Model
350
22
  0
DICTIONARY
  5
17
102
{ACAD_REACTORS
330
C
102
}
330
C
100
AcDbDictionary
281
     1
  3
Standard
350
18
  0
DICTIONARY
  5
19
102
{ACAD_REACTORS
330
C
102
}
330
C
100
AcDbDictionary
281
     1
  0
ACDBDICTIONARYWDFLT
  5
E
102
{ACAD_REACTORS
330
C
102
}
330
C
100
AcDbDictionary
281
     1
  3
Normal
350
F
100
AcDbDictionaryWithDefault
340
F
  0
DICTIONARY
  5
47
102
{ACAD_REACTORS
330
C
102
}
330
C
100
AcDbDictionary
281
     1
  3
A0
350
48
  3
A1
350
49
  3
A2
350
4A
  3
A3
350
4B
  3
A4
350
4C
  3
A5
350
4D
  3
A6
350
4E
  3
A7
350
4F
  3
A8
350
50
  3
A9
350
51
  3
B0
350
52
  3
B1
350
53
  3
B2
350
54
  3
B3
350
55
  3
B4
350
56
  3
B5
350
57
  3
B6
350
58
  3
B7
350
59
  3
B8
350
5A
  3
B9
350
5B
  3
C0
350
5C
  3
C1
350
5D
  3
C2
350
5E
  3
C3
350
5F
  3
C4
350
60
  3
C5
350
61
  3
C6
350
62
  3
C7
350
63
  3
C8
350
64
  3
C9
350
65
  3
D0
350
66
  3
D1
350
67
  3
D2
350
68
  0
DICTIONARY
  5
162
102
{ACAD_REACTORS
330
C
102
}
330
C
100
AcDbDictionary
281
     1
  0
XRECORD
  5
214
102
{ACAD_REACTORS
330
C
102
}
330
C
100
AcDbXrecord
280
     1
  1
DWGPROPS COOKIE
  2

  3

  4

  6

  7

  8
12016016
  9

300
=
301
=
302
=
303
=
304
=
305
=
306
=
307
=
308
=
309
=
 40
0.0
 41
2458323.062297049
 42
2458330.390716609
  1

 90
        0
  0
DICTIONARY
  5
198
102
{ACAD_REACTORS
330
197
102
}
330
197
100
AcDbDictionary
281
     1
  0
LAYOUT
  5
1E
102
{ACAD_REACTORS
330
1A
102
}
330
1A
100
AcDbPlotSettings
  1

  2
none_device
  4

  6

 40
0.0
 41
0.0
 42
0.0
 43
0.0
 44
0.0
 45
0.0
 46
0.0
 47
0.0
 48
0.0
 49
0.0
140
0.0
141
0.0
142
1.0
143
1.0
 70
   688
 72
     1
 73
     0
 74
     5
  7

 75
    16
147
1.0
148
0.0
149
0.0
100
AcDbLayout
  1
Layout1
 70
     1
 71
     1
 10
0.0
 20
0.0
 11
420.0
 21
297.0
 12
0.0
 22
0.0
 32
0.0
 14
1.000000000000000E+20
 24
1.000000000000000E+20
 34
1.000000000000000E+20
 15
-1.000000000000000E+20
 25
-1.000000000000000E+20
 35
-1.000000000000000E+20
146
0.0
 13
0.0
 23
0.0
 33
0.0
 16
1.0
 26
0.0
 36
0.0
 17
0.0
 27
1.0
 37
0.0
 76
     0
330
1B
  0
LAYOUT
  5
26
102
{ACAD_REACTORS
330
1A
102
}
330
1A
100
AcDbPlotSettings
  1

  2
none_device
  4

  6

 40
0.0
 41
0.0
 42
0.0
 43
0.0
 44
0.0
 45
0.0
 46
0.0
 47
0.0
 48
0.0
 49
0.0
140
0.0
141
0.0
142
1.0
143
1.0
 70
   688
 72
     1
 73
     0
 74
     5
  7

 75
    16
147
1.0
148
0.0
149
0.0
100
AcDbLayout
  1
Layout2
 70
     1
 71
     2
 10
0.0
 20
0.0
 11
0.0
 21
0.0
 12
0.0
 22
0.0
 32
0.0
 14
0.0
 24
0.0
 34
0.0
 15
0.0
 25
0.0
 35
0.0
146
0.0
 13
0.0
 23
0.0
 33
0.0
 16
1.0
 26
0.0
 36
0.0
 17
0.0
 27
1.0
 37
0.0
 76
     0
330
23
  0
LAYOUT
  5
22
102
{ACAD_REACTORS
330
1A
102
}
330
1A
100
AcDbPlotSettings
  1

  2
none_device
  4
ANSI_A_(11.00_x_8.50_Inches)
  6

 40
6.35
 41
19.05
 42
6.35000508
 43
19.05000254
 44
279.4
 45
215.9
 46
65.35039447939626
 47
88.40909258483042
 48
0.0
 49
0.0
140
0.0
141
0.0
142
0.0418829430122254
143
1.0
 70
  1696
 72
     0
 73
     0
 74
     0
  7

 75
     0
147
0.0235690232323232
148
0.0
149
0.0
100
AcDbLayout
  1
Model
 70
     1
 71
     0
 10
0.0
 20
0.0
 11
420.0
 21
297.0
 12
0.0
 22
0.0
 32
0.0
 14
-55.17500000000013
 24
-49.97180738881176
 34
0.0
 15
102.3384838153456
 25
39.64150000000004
 35
0.0
146
0.0
 13
0.0
 23
0.0
 33
0.0
 16
1.0
 26
0.0
 36
0.0
 17
0.0
 27
1.0
 37
0.0
 76
     0
330
1F
331
29
  0
MLINESTYLE
  5
18
102
{ACAD_REACTORS
330
17
102
}
330
17
100
AcDbMlineStyle
  2
Standard
 70
     0
  3

 62
   256
 51
90.0
 52
90.0
 71
     2
 49
0.5
 62
   256
  6
BYLAYER
 49
-0.5
 62
   256
  6
BYLAYER
  0
ACDBPLACEHOLDER
  5
F
102
{ACAD_REACTORS
330
E
102
}
330
E
  0
SCALE
  5
48
102
{ACAD_REACTORS
330
47
102
}
330
47
100
AcDbScale
 70
     0
300
1:1
140
1.0
141
1.0
290
     1
  0
SCALE
  5
49
102
{ACAD_REACTORS
330
47
102
}
330
47
100
AcDbScale
 70
     0
300
1:2
140
1.0
141
2.0
290
     0
  0
SCALE
  5
4A
102
{ACAD_REACTORS
330
47
102
}
330
47
100
AcDbScale
 70
     0
300
1:4
140
1.0
141
4.0
290
     0
  0
SCALE
  5
4B
102
{ACAD_REACTORS
330
47
102
}
330
47
100
AcDbScale
 70
     0
300
1:5
140
1.0
141
5.0
290
     0
  0
SCALE
  5
4C
102
{ACAD_REACTORS
330
47
102
}
330
47
100
AcDbScale
 70
     0
300
1:8
140
1.0
141
8.0
290
     0
  0
SCALE
  5
4D
102
{ACAD_REACTORS
330
47
102
}
330
47
100
AcDbScale
 70
     0
300
1:10
140
1.0
141
10.0
290
     0
  0
SCALE
  5
4E
102
{ACAD_REACTORS
330
47
102
}
330
47
100
AcDbScale
 70
     0
300
1:16
140
1.0
141
16.0
290
     0
  0
SCALE
  5
4F
102
{ACAD_REACTORS
330
47
102
}
330
47
100
AcDbScale
 70
     0
300
1:20
140
1.0
141
20.0
290
     0
  0
SCALE
  5
50
102
{ACAD_REACTORS
330
47
102
}
330
47
100
AcDbScale
 70
     0
300
1:30
140
1.0
141
30.0
290
     0
  0
SCALE
  5
51
102
{ACAD_REACTORS
330
47
102
}
330
47
100
AcDbScale
 70
     0
300
1:40
140
1.0
141
40.0
290
     0
  0
SCALE
  5
52
102
{ACAD_REACTORS
330
47
102
}
330
47
100
AcDbScale
 70
     0
300
1:50
140
1.0
141
50.0
290
     0
  0
SCALE
  5
53
102
{ACAD_REACTORS
330
47
102
}
330
47
100
AcDbScale
 70
     0
300
1:100
140
1.0
141
100.0
290
     0
  0
SCALE
  5
54
102
{ACAD_REACTORS
330
47
102
}
330
47
100
AcDbScale
 70
     0
300
2:1
140
2.0
141
1.0
290
     0
  0
SCALE
  5
55
102
{ACAD_REACTORS
330
47
102
}
330
47
100
AcDbScale
 70
     0
300
4:1
140
4.0
141
1.0
290
     0
  0
SCALE
  5
56
102
{ACAD_REACTORS
330
47
102
}
330
47
100
AcDbScale
 70
     0
300
8:1
140
8.0
141
1.0
290
     0
  0
SCALE
  5
57
102
{ACAD_REACTORS
330
47
102
}
330
47
100
AcDbScale
 70
     0
300
10:1
140
10.0
141
1.0
290
     0
  0
SCALE
  5
58
102
{ACAD_REACTORS
330
47
102
}
330
47
100
AcDbScale
 70
     0
300
100:1
140
100.0
141
1.0
290
     0
  0
SCALE
  5
59
102
{ACAD_REACTORS
330
47
102
}
330
47
100
AcDbScale
 70
     0
300
1/128" = 1'-0"
140
0.0078125
141
12.0
290
     0
  0
SCALE
  5
5A
102
{ACAD_REACTORS
330
47
102
}
330
47
100
AcDbScale
 70
     0
300
1/64" = 1'-0"
140
0.015625
141
12.0
290
     0
  0
SCALE
  5
5B
102
{ACAD_REACTORS
330
47
102
}
330
47
100
AcDbScale
 70
     0
300
1/32" = 1'-0"
140
0.03125
141
12.0
290
     0
  0
SCALE
  5
5C
102
{ACAD_REACTORS
330
47
102
}
330
47
100
AcDbScale
 70
     0
300
1/16" = 1'-0"
140
0.0625
141
12.0
290
     0
  0
SCALE
  5
5D
102
{ACAD_REACTORS
330
47
102
}
330
47
100
AcDbScale
 70
     0
300
3/32" = 1'-0"
140
0.09375
141
12.0
290
     0
  0
SCALE
  5
5E
102
{ACAD_REACTORS
330
47
102
}
330
47
100
AcDbScale
 70
     0
300
1/8" = 1'-0"
140
0.125
141
12.0
290
     0
  0
SCALE
  5
5F
102
{ACAD_REACTORS
330
47
102
}
330
47
100
AcDbScale
 70
     0
300
3/16" = 1'-0"
140
0.1875
141
12.0
290
     0
  0
SCALE
  5
60
102
{ACAD_REACTORS
330
47
102
}
330
47
100
AcDbScale
 70
     0
300
1/4" = 1'-0"
140
0.25
141
12.0
290
     0
  0
SCALE
  5
61
102
{ACAD_REACTORS
330
47
102
}
330
47
100
AcDbScale
 70
     0
300
3/8" = 1'-0"
140
0.375
141
12.0
290
     0
  0
SCALE
  5
62
102
{ACAD_REACTORS
330
47
102
}
330
47
100
AcDbScale
 70
     0
300
1/2" = 1'-0"
140
0.5
141
12.0
290
     0
  0
SCALE
  5
63
102
{ACAD_REACTORS
330
47
102
}
330
47
100
AcDbScale
 70
     0
300
3/4" = 1'-0"
140
0.75
141
12.0
290
     0
  0
SCALE
  5
64
102
{ACAD_REACTORS
330
47
102
}
330
47
100
AcDbScale
 70
     0
300
1" = 1'-0"
140
1.0
141
12.0
290
     0
  0
SCALE
  5
65
102
{ACAD_REACTORS
330
47
102
}
330
47
100
AcDbScale
 70
     0
300
1-1/2" = 1'-0"
140
1.5
141
12.0
290
     0
  0
SCALE
  5
66
102
{ACAD_REACTORS
330
47
102
}
330
47
100
AcDbScale
 70
     0
300
3" = 1'-0"
140
3.0
141
12.0
290
     0
  0
SCALE
  5
67
102
{ACAD_REACTORS
330
47
102
}
330
47
100
AcDbScale
 70
     0
300
6" = 1'-0"
140
6.0
141
12.0
290
     0
  0
SCALE
  5
68
102
{ACAD_REACTORS
330
47
102
}
330
47
100
AcDbScale
 70
     0
300
1'-0" = 1'-0"
140
12.0
141
12.0
290
     0
  0
ENDSEC
  0
EOF
