  0
SECTION
  2
HEADER
  9
$ACADVER
  1
AC1015
  9
$ACADMAINTVER
 70
     6
  9
$DWGCODEPAGE
  3
ANSI_949
  9
$INSBASE
 10
0.0
 20
0.0
 30
0.0
  9
$EXTMIN
 10
-65.02500000000015
 20
-49.97180738881175
 30
0.0
  9
$EXTMAX
 10
97.9884838153456
 20
50.46650000000005
 30
0.0
  9
$LIMMIN
 10
0.0
 20
0.0
  9
$LIMMAX
 10
420.0
 20
297.0
  9
$ORTHOMODE
 70
     1
  9
$REGENMODE
 70
     1
  9
$FILLMODE
 70
     1
  9
$QTEXTMODE
 70
     0
  9
$MIRRTEXT
 70
     1
  9
$LTSCALE
 40
1.0
  9
$ATTMODE
 70
     1
  9
$TEXTSIZE
 40
3.5
  9
$TRACEWID
 40
1.0
  9
$TEXTSTYLE
  7
Standard
  9
$CLAYER
  8
0
  9
$CELTYPE
  6
ByLayer
  9
$CECOLOR
 62
   256
  9
$CELTSCALE
 40
1.0
  9
$DISPSILH
 70
     0
  9
$DIMSCALE
 40
1.0
  9
$DIMASZ
 40
3.302
  9
$DIMEXO
 40
1.0
  9
$DIMDLI
 40
3.75
  9
$DIMRND
 40
0.0
  9
$DIMDLE
 40
0.0
  9
$DIMEXE
 40
1.0
  9
$DIMTP
 40
0.0
  9
$DIMTM
 40
0.0
  9
$DIMTXT
 40
3.5
  9
$DIMCEN
 40
2.5
  9
$DIMTSZ
 40
0.0
  9
$DIMTOL
 70
     0
  9
$DIMLIM
 70
     0
  9
$DIMTIH
 70
     1
  9
$DIMTOH
 70
     1
  9
$DIMSE1
 70
     0
  9
$DIMSE2
 70
     0
  9
$DIMTAD
 70
     1
  9
$DIMZIN
 70
     0
  9
$DIMBLK
  1

  9
$DIMASO
 70
     1
  9
$DIMSHO
 70
     1
  9
$DIMPOST
  1

  9
$DIMAPOST
  1

  9
$DIMALT
 70
     0
  9
$DIMALTD
 70
     3
  9
$DIMALTF
 40
0.0393700787401575
  9
$DIMLFAC
 40
1.0
  9
$DIMTOFL
 70
     1
  9
$DIMTVP
 40
0.0
  9
$DIMTIX
 70
     0
  9
$DIMSOXD
 70
     0
  9
$DIMSAH
 70
     0
  9
$DIMBLK1
  1

  9
$DIMBLK2
  1

  9
$DIMSTYLE
  2
ISO-25
  9
$DIMCLRD
 70
     0
  9
$DIMCLRE
 70
     0
  9
$DIMCLRT
 70
     0
  9
$DIMTFAC
 40
1.0
  9
$DIMGAP
 40
1.524
  9
$DIMJUST
 70
     0
  9
$DIMSD1
 70
     0
  9
$DIMSD2
 70
     0
  9
$DIMTOLJ
 70
     0
  9
$DIMTZIN
 70
     0
  9
$DIMALTZ
 70
     0
  9
$DIMALTTZ
 70
     0
  9
$DIMUPT
 70
     0
  9
$DIMDEC
 70
     2
  9
$DIMTDEC
 70
     2
  9
$DIMALTU
 70
     2
  9
$DIMALTTD
 70
     3
  9
$DIMTXSTY
  7
Standard
  9
$DIMAUNIT
 70
     0
  9
$DIMADEC
 70
     2
  9
$DIMALTRND
 40
0.0
  9
$DIMAZIN
 70
     0
  9
$DIMDSEP
 70
    44
  9
$DIMATFIT
 70
     3
  9
$DIMFRAC
 70
     0
  9
$DIMLDRBLK
  1

  9
$DIMLUNIT
 70
     2
  9
$DIMLWD
 70
    -2
  9
$DIMLWE
 70
    -2
  9
$DIMTMOVE
 70
     0
  9
$LUNITS
 70
     2
  9
$LUPREC
 70
     2
  9
$SKETCHINC
 40
1.0
  9
$FILLETRAD
 40
10.0
  9
$AUNITS
 70
     0
  9
$AUPREC
 70
     2
  9
$MENU
  1
.
  9
$ELEVATION
 40
0.0
  9
$PELEVATION
 40
0.0
  9
$THICKNESS
 40
0.0
  9
$LIMCHECK
 70
     0
  9
$CHAMFERA
 40
0.0
  9
$CHAMFERB
 40
0.0
  9
$CHAMFERC
 40
0.0
  9
$CHAMFERD
 40
0.0
  9
$SKPOLY
 70
     0
  9
$TDCREATE
 40
2458323.437932616
  9
$TDUCREATE
 40
2458323.062932616
  9
$TDUPDATE
 40
2458330.766450544
  9
$TDUUPDATE
 40
2458330.391450544
  9
$TDINDWG
 40
0.0004956134
  9
$TDUSRTIMER
 40
2458330.391413055
  9
$USRTIMER
 70
     1
  9
$ANGBASE
 50
0.0
  9
$ANGDIR
 70
     0
  9
$PDMODE
 70
     0
  9
$PDSIZE
 40
-1.0
  9
$PLINEWID
 40
0.0
  9
$SPLFRAME
 70
     0
  9
$SPLINETYPE
 70
     6
  9
$SPLINESEGS
 70
     8
  9
$HANDSEED
  5
233
  9
$SURFTAB1
 70
     6
  9
$SURFTAB2
 70
     6
  9
$SURFTYPE
 70
     6
  9
$SURFU
 70
     6
  9
$SURFV
 70
     6
  9
$UCSBASE
  2

  9
$UCSNAME
  2

  9
$UCSORG
 10
0.0
 20
0.0
 30
0.0
  9
$UCSXDIR
 10
1.0
 20
0.0
 30
0.0
  9
$UCSYDIR
 10
0.0
 20
1.0
 30
0.0
  9
$UCSORTHOREF
  2

  9
$UCSORTHOVIEW
 70
     0
  9
$UCSORGTOP
 10
0.0
 20
0.0
 30
0.0
  9
$UCSORGBOTTOM
 10
0.0
 20
0.0
 30
0.0
  9
$UCSORGLEFT
 10
0.0
 20
0.0
 30
0.0
  9
$UCSORGRIGHT
 10
0.0
 20
0.0
 30
0.0
  9
$UCSORGFRONT
 10
0.0
 20
0.0
 30
0.0
  9
$UCSORGBACK
 10
0.0
 20
0.0
 30
0.0
  9
$PUCSBASE
  2

  9
$PUCSNAME
  2

  9
$PUCSORG
 10
0.0
 20
0.0
 30
0.0
  9
$PUCSXDIR
 10
1.0
 20
0.0
 30
0.0
  9
$PUCSYDIR
 10
0.0
 20
1.0
 30
0.0
  9
$PUCSORTHOREF
  2

  9
$PUCSORTHOVIEW
 70
     0
  9
$PUCSORGTOP
 10
0.0
 20
0.0
 30
0.0
  9
$PUCSORGBOTTOM
 10
0.0
 20
0.0
 30
0.0
  9
$PUCSORGLEFT
 10
0.0
 20
0.0
 30
0.0
  9
$PUCSORGRIGHT
 10
0.0
 20
0.0
 30
0.0
  9
$PUCSORGFRONT
 10
0.0
 20
0.0
 30
0.0
  9
$PUCSORGBACK
 10
0.0
 20
0.0
 30
0.0
  9
$USERI1
 70
     0
  9
$USERI2
 70
     0
  9
$USERI3
 70
     0
  9
$USERI4
 70
     0
  9
$USERI5
 70
     0
  9
$USERR1
 40
0.0
  9
$USERR2
 40
0.0
  9
$USERR3
 40
0.0
  9
$USERR4
 40
0.0
  9
$USERR5
 40
0.0
  9
$WORLDVIEW
 70
     1
  9
$SHADEDGE
 70
     3
  9
$SHADEDIF
 70
    70
  9
$TILEMODE
 70
     1
  9
$MAXACTVP
 70
    64
  9
$PINSBASE
 10
0.0
 20
0.0
 30
0.0
  9
$PLIMCHECK
 70
     0
  9
$PEXTMIN
 10
1.000000000000000E+20
 20
1.000000000000000E+20
 30
1.000000000000000E+20
  9
$PEXTMAX
 10
-1.000000000000000E+20
 20
-1.000000000000000E+20
 30
-1.000000000000000E+20
  9
$PLIMMIN
 10
0.0
 20
0.0
  9
$PLIMMAX
 10
0.0
 20
0.0
  9
$UNITMODE
 70
     0
  9
$VISRETAIN
 70
     1
  9
$PLINEGEN
 70
     0
  9
$PSLTSCALE
 70
     1
  9
$TREEDEPTH
 70
  3020
  9
$CMLSTYLE
  2
Standard
  9
$CMLJUST
 70
     0
  9
$CMLSCALE
 40
20.0
  9
$PROXYGRAPHICS
 70
     1
  9
$MEASUREMENT
 70
     1
  9
$CELWEIGHT
370
    -1
  9
$ENDCAPS
280
     0
  9
$JOINSTYLE
280
     0
  9
$LWDISPLAY
290
     1
  9
$INSUNITS
 70
     4
  9
$HYPERLINKBASE
  1

  9
$STYLESHEET
  1

  9
$XEDIT
290
     1
  9
$CEPSNTYPE
380
     0
  9
$PSTYLEMODE
290
     1
  9
$FINGERPRINTGUID
  2
{1377A4EE-FDBD-4BE3-B1EF-DFC4874011BF}
  9
$VERSIONGUID
  2
{FAEB1C32-E019-11D5-929B-00C0DF256EC4}
  9
$EXTNAMES
290
     1
  9
$PSVPSCALE
 40
0.0
  9
$OLESTARTUP
290
     0
  0
ENDSEC
  0
SECTION
  2
CLASSES
  0
CLASS
  1
ACDBDICTIONARYWDFLT
  2
AcDbDictionaryWithDefault
  3
ObjectDBX Classes
 90
        0
280
     0
281
     0
  0
CLASS
  1
VISUALSTYLE
  2
AcDbVisualStyle
  3
ObjectDBX Classes
 90
     4095
280
     0
281
     0
  0
CLASS
  1
MATERIAL
  2
AcDbMaterial
  3
ObjectDBX Classes
 90
     1153
280
     0
281
     0
  0
CLASS
  1
SCALE
  2
AcDbScale
  3
ObjectDBX Classes
 90
     1153
280
     0
281
     0
  0
CLASS
  1
SUN
  2
AcDbSun
  3
SCENEOE
 90
     1153
280
     0
281
     0
  0
CLASS
  1
ACDBPLACEHOLDER
  2
AcDbPlaceHolder
  3
ObjectDBX Classes
 90
        0
280
     0
281
     0
  0
CLASS
  1
LAYOUT
  2
AcDbLayout
  3
ObjectDBX Classes
 90
        0
280
     0
281
     0
  0
CLASS
  1
TABLESTYLE
  2
AcDbTableStyle
  3
ObjectDBX Classes
 90
     4095
280
     0
281
     0
  0
CLASS
  1
MLEADERSTYLE
  2
AcDbMLeaderStyle
  3
ACDB_MLEADERSTYLE_CLASS
 90
     4095
280
     0
281
     0
  0
CLASS
  1
RASTERVARIABLES
  2
AcDbRasterVariables
  3
ISM
 90
        0
280
     0
281
     0
  0
ENDSEC
  0
SECTION
  2
TABLES
  0
TABLE
  2
VPORT
  5
8
330
0
100
AcDbSymbolTable
 70
     1
  0
VPORT
  5
29
330
8
100
AcDbSymbolTableRecord
100
AcDbViewportTableRecord
  2
*Active
 70
     0
 10
0.0
 20
0.0
 11
1.0
 21
1.0
 12
16.48174190767273
 22
0.2473463055940996
 13
0.0
 23
0.0
 14
10.0
 24
10.0
 15
10.0
 25
10.0
 16
0.0
 26
0.0
 36
1.0
 17
0.0
 27
0.0
 37
0.0
 40
102.4470735365879
 41
1.782762691853601
 42
50.0
 43
0.0
 44
0.0
 50
0.0
 51
0.0
 71
    16
 72
  2000
 73
     1
 74
     3
 75
     0
 76
     0
 77
     0
 78
     0
281
     0
 65
     1
110
0.0
120
0.0
130
0.0
111
1.0
121
0.0
131
0.0
112
0.0
122
1.0
132
0.0
 79
     0
146
0.0
  0
ENDTAB
  0
TABLE
  2
LTYPE
  5
5
330
0
100
AcDbSymbolTable
 70
     6
  0
LTYPE
  5
14
330
5
100
AcDbSymbolTableRecord
100
AcDbLinetypeTableRecord
  2
ByBlock
 70
     0
  3

 72
    65
 73
     0
 40
0.0
  0
LTYPE
  5
15
330
5
100
AcDbSymbolTableRecord
100
AcDbLinetypeTableRecord
  2
ByLayer
 70
     0
  3

 72
    65
 73
     0
 40
0.0
  0
LTYPE
  5
16
330
5
100
AcDbSymbolTableRecord
100
AcDbLinetypeTableRecord
  2
Continuous
 70
     0
  3
Solid line
 72
    65
 73
     0
 40
0.0
  0
LTYPE
  5
6A
330
5
100
AcDbSymbolTableRecord
100
AcDbLinetypeTableRecord
  2
HIDDEN
 70
     0
  3
Hidden __ __ __ __ __ __ __ __ __ __ __ __ __ __
 72
    65
 73
     2
 40
1.905
 49
1.27
 74
     0
 49
-0.635
 74
     0
  0
LTYPE
  5
6B
330
5
100
AcDbSymbolTableRecord
100
AcDbLinetypeTableRecord
  2
PHANTOM
 70
     0
  3
Phantom ______  __  __  ______  __  __  ______
 72
    65
 73
     6
 40
12.7
 49
6.35
 74
     0
 49
-1.27
 74
     0
 49
1.27
 74
     0
 49
-1.27
 74
     0
 49
1.27
 74
     0
 49
-1.27
 74
     0
  0
LTYPE
  5
6C
330
5
100
AcDbSymbolTableRecord
100
AcDbLinetypeTableRecord
  2
CENTER
 70
     0
  3
Center ____ _ ____ _ ____ _ ____ _ ____ _ ____
 72
    65
 73
     4
 40
10.16
 49
6.35
 74
     0
 49
-1.27
 74
     0
 49
1.27
 74
     0
 49
-1.27
 74
     0
  0
LTYPE
  5
6D
330
5
100
AcDbSymbolTableRecord
100
AcDbLinetypeTableRecord
  2
CENTERX2
 70
     0
  3
Center (2x) ________  __  ________  __  _____
 72
    65
 73
     4
 40
20.32
 49
12.7
 74
     0
 49
-2.54
 74
     0
 49
2.54
 74
     0
 49
-2.54
 74
     0
  0
LTYPE
  5
6E
330
5
100
AcDbSymbolTableRecord
100
AcDbLinetypeTableRecord
  2
DOT2
 70
     0
  3
Dot (.5x) ........................................
 72
    65
 73
     2
 40
0.635
 49
0.0
 74
     0
 49
-0.635
 74
     0
  0
ENDTAB
  0
TABLE
  2
LAYER
  5
2
102
{ACAD_XDICTIONARY
360
196
102
}
330
0
100
AcDbSymbolTable
 70
    18
  0
LAYER
  5
10
330
2
100
AcDbSymbolTableRecord
100
AcDbLayerTableRecord
  2
0
 70
     0
 62
     7
  6
Continuous
370
    -3
390
F
  0
LAYER
  5
6F
330
2
100
AcDbSymbolTableRecord
100
AcDbLayerTableRecord
  2
FORMAT
 70
     0
 62
     2
  6
Continuous
370
    -3
390
F
  0
LAYER
  5
70
330
2
100
AcDbSymbolTableRecord
100
AcDbLayerTableRecord
  2
외형선
 70
     0
 62
     4
  6
Continuous
370
    30
390
F
  0
LAYER
  5
71
330
2
100
AcDbSymbolTableRecord
100
AcDbLayerTableRecord
  2
숨은선
 70
     0
 62
     2
  6
HIDDEN
370
    15
390
F
  0
LAYER
  5
72
330
2
100
AcDbSymbolTableRecord
100
AcDbLayerTableRecord
  2
중심선
 70
     0
 62
     1
  6
CENTERX2
370
    -3
390
F
  0
LAYER
  5
73
330
2
100
AcDbSymbolTableRecord
100
AcDbLayerTableRecord
  2
파단선
 70
     0
 62
     4
  6
Continuous
370
    -3
390
F
  0
LAYER
  5
74
330
2
100
AcDbSymbolTableRecord
100
AcDbLayerTableRecord
  2
해칭선
 70
     0
 62
   100
  6
Continuous
370
    -3
390
F
  0
LAYER
  5
75
330
2
100
AcDbSymbolTableRecord
100
AcDbLayerTableRecord
  2
가는실선
 70
     0
 62
     4
  6
Continuous
370
    -3
390
F
  0
LAYER
  5
76
330
2
100
AcDbSymbolTableRecord
100
AcDbLayerTableRecord
  2
치수_보조선
 70
     0
 62
     4
  6
Continuous
370
    -3
390
F
  0
LAYER
  5
77
330
2
100
AcDbSymbolTableRecord
100
AcDbLayerTableRecord
  2
치수문자_일반주서
 70
     0
 62
     7
  6
Continuous
370
    15
390
F
  0
LAYER
  5
78
330
2
100
AcDbSymbolTableRecord
100
AcDbLayerTableRecord
  2
개별주서
 70
     0
 62
   100
  6
Continuous
370
    30
390
F
  0
LAYER
  5
79
330
2
100
AcDbSymbolTableRecord
100
AcDbLayerTableRecord
  2
중간선
 70
     0
 62
     2
  6
Continuous
370
    15
390
F
  0
LAYER
  5
7A
330
2
100
AcDbSymbolTableRecord
100
AcDbLayerTableRecord
  2
윤곽선
 70
     0
 62
     3
  6
Continuous
370
    40
390
F
  0
LAYER
  5
7B
330
2
100
AcDbSymbolTableRecord
100
AcDbLayerTableRecord
  2
중심마크
 70
     0
 62
   100
  6
Continuous
370
    30
390
F
  0
LAYER
  5
7C
330
2
100
AcDbSymbolTableRecord
100
AcDbLayerTableRecord
  2
가상선
 70
     0
 62
     4
  6
PHANTOM
370
    -3
390
F
  0
LAYER
  5
7D
330
2
100
AcDbSymbolTableRecord
100
AcDbLayerTableRecord
  2
특수지정선
 70
     0
 62
     5
  6
CENTERX2
370
    60
390
F
  0
LAYER
  5
7E
330
2
100
AcDbSymbolTableRecord
100
AcDbLayerTableRecord
  2
참조1
 70
     0
 62
    -4
  6
Continuous
370
    -3
390
F
  0
LAYER
  5
162
330
2
100
AcDbSymbolTableRecord
100
AcDbLayerTableRecord
  2
Defpoints
 70
     0
 62
     7
  6
Continuous
290
     0
370
    -3
390
F
  0
ENDTAB
  0
TABLE
  2
STYLE
  5
3
330
0
100
AcDbSymbolTable
 70
     2
  0
STYLE
  5
11
330
3
100
AcDbSymbolTableRecord
100
AcDbTextStyleTableRecord
  2
Standard
 70
     0
 40
0.0
 41
1.0
 50
0.0
 71
     0
 42
3.5
  3
txt
  4

  0
STYLE
  5
94
330
3
100
AcDbSymbolTableRecord
100
AcDbTextStyleTableRecord
  2
SLDTEXTSTYLE0
 70
     0
 40
0.0
 41
0.75
 50
0.0
 71
     0
 42
3.5
  3
TXT
  4

  0
ENDTAB
  0
TABLE
  2
VIEW
  5
6
330
0
100
AcDbSymbolTable
 70
     0
  0
ENDTAB
  0
TABLE
  2
UCS
  5
7
330
0
100
AcDbSymbolTable
 70
     0
  0
ENDTAB
  0
TABLE
  2
APPID
  5
9
330
0
100
AcDbSymbolTable
 70
     2
  0
APPID
  5
12
330
9
100
AcDbSymbolTableRecord
100
AcDbRegAppTableRecord
  2
ACAD
 70
     0
  0
APPID
  5
169
330
9
100
AcDbSymbolTableRecord
100
AcDbRegAppTableRecord
  2
PE_URL
 70
     0
  0
ENDTAB
  0
TABLE
  2
DIMSTYLE
  5
A
330
0
100
AcDbSymbolTable
 70
     3
100
AcDbDimStyleTable
  0
DIMSTYLE
105
27
330
A
100
AcDbSymbolTableRecord
100
AcDbDimStyleTableRecord
  2
ISO-25
 70
     0
 41
2.5
 42
0.625
 43
3.75
 44
1.25
 73
     0
 74
     0
 77
     1
 78
     8
140
2.5
141
2.5
143
0.03937007874016
147
0.625
171
     3
172
     1
178
     0
271
     2
272
     2
274
     3
278
    44
283
     0
284
     8
340
11
  0
DIMSTYLE
105
E3
102
{ACAD_REACTORS
330
E2
330
11E
330
F7
330
10B
102
}
330
A
100
AcDbSymbolTableRecord
100
AcDbDimStyleTableRecord
  2
SLDDIMSTYLE0
 70
     0
 41
3.302
 44
0.0
 45
0.000000001
 73
     0
 74
     0
 77
     1
 78
    12
 79
     3
140
3.5
143
0.0393700787401575
147
0.875
148
0.000000001
170
     1
172
     1
173
     1
178
     0
271
     2
272
     2
276
     2
284
    12
289
     0
340
94
  0
DIMSTYLE
105
F8
330
A
100
AcDbSymbolTableRecord
100
AcDbDimStyleTableRecord
  2
SLDDIMSTYLE1
 70
     0
 41
3.302
 44
0.0
 45
0.000000001
 73
     0
 74
     0
 77
     1
 78
    12
 79
     3
140
3.5
143
0.0393700787401575
147
0.875
148
0.000000001
170
     1
173
     1
178
     0
271
     2
272
     2
276
     2
284
    12
340
94
  0
ENDTAB
  0
TABLE
  2
BLOCK_RECORD
  5
1
330
0
100
AcDbSymbolTable
 70
     9
  0
BLOCK_RECORD
  5
1F
330
1
100
AcDbSymbolTableRecord
100
AcDbBlockTableRecord
  2
*Model_Space
340
22
  0
BLOCK_RECORD
  5
1B
330
1
100
AcDbSymbolTableRecord
100
AcDbBlockTableRecord
  2
*Paper_Space
340
1E
  0
BLOCK_RECORD
  5
23
330
1
100
AcDbSymbolTableRecord
100
AcDbBlockTableRecord
  2
*Paper_Space0
340
26
  0
BLOCK_RECORD
  5
7F
330
1
100
AcDbSymbolTableRecord
100
AcDbBlockTableRecord
  2
블럭10
340
0
102
{BLKREFS
331
DB
102
}
  0
BLOCK_RECORD
  5
E4
330
1
100
AcDbSymbolTableRecord
100
AcDbBlockTableRecord
  2
_D
340
0
  0
BLOCK_RECORD
  5
F9
330
1
100
AcDbSymbolTableRecord
100
AcDbBlockTableRecord
  2
_D_1
340
0
  0
BLOCK_RECORD
  5
10C
330
1
100
AcDbSymbolTableRecord
100
AcDbBlockTableRecord
  2
_D_2
340
0
  0
BLOCK_RECORD
  5
11F
330
1
100
AcDbSymbolTableRecord
100
AcDbBlockTableRecord
  2
_D_3
340
0
  0
BLOCK_RECORD
  5
138
330
1
100
AcDbSymbolTableRecord
100
AcDbBlockTableRecord
  2
SW_DOWELSYMBOL_0
340
0
102
{BLKREFS
331
13E
102
}
  0
BLOCK_RECORD
  5
19A
330
1
100
AcDbSymbolTableRecord
100
AcDbBlockTableRecord
  2
*D7
340
0
  0
BLOCK_RECORD
  5
1A9
330
1
100
AcDbSymbolTableRecord
100
AcDbBlockTableRecord
  2
*D8
340
0
  0
ENDTAB
  0
ENDSEC
  0
SECTION
  2
BLOCKS
  0
BLOCK
  5
20
330
1F
100
AcDbEntity
  8
0
100
AcDbBlockBegin
  2
*Model_Space
 70
     0
 10
0.0
 20
0.0
 30
0.0
  3
*Model_Space
  1
*Model_Space
  0
ENDBLK
  5
21
330
1F
100
AcDbEntity
  8
0
100
AcDbBlockEnd
  0
BLOCK
  5
1C
330
1B
100
AcDbEntity
 67
     1
  8
0
100
AcDbBlockBegin
  2
*Paper_Space
 70
     0
 10
0.0
 20
0.0
 30
0.0
  3
*Paper_Space
  1
*Paper_Space
  0
ENDBLK
  5
1D
330
1B
100
AcDbEntity
 67
     1
  8
0
100
AcDbBlockEnd
  0
BLOCK
  5
24
330
23
100
AcDbEntity
  8
0
100
AcDbBlockBegin
  2
*Paper_Space0
 70
     0
 10
0.0
 20
0.0
 30
0.0
  3
*Paper_Space0
  1
*Paper_Space0
  0
ENDBLK
  5
25
330
23
100
AcDbEntity
  8
0
100
AcDbBlockEnd
  0
BLOCK
  5
80
330
7F
100
AcDbEntity
  8
0
100
AcDbBlockBegin
  2
블럭10
 70
     2
 10
0.0
 20
0.0
 30
0.0
  3
블럭10
  1
블럭10
  0
ELLIPSE
  5
82
330
7F
100
AcDbEntity
  8
중심선
100
AcDbEllipse
 10
20.54032771741204
 20
12.0471743016438
 30
0.0
 11
6.600054785286829
 21
-1.261213355974178E-13
 31
0.0
210
0.0
220
0.0
230
1.0
 40
0.636358354079598
 41
0.9219305317359503
 42
6.513795318482858
  0
ELLIPSE
  5
83
330
7F
100
AcDbEntity
  8
중심선
100
AcDbEllipse
 10
20.54032771746488
 20
12.04717430159265
 30
0.0
 11
3.960054785062283
 21
1.540847449632565E-10
 31
0.0
210
0.0
220
0.0
230
1.0
 40
0.3939339440162632
 41
1.131841032648279
 42
5.62031148352944
  0
LINE
  5
84
330
7F
100
AcDbEntity
  8
중심선
100
AcDbLine
 10
2.268634060543552
 20
16.24717430164393
 30
0.0
 11
5.714909304380834
 21
16.24717430164393
 31
0.0
  0
LINE
  5
85
330
7F
100
AcDbEntity
  8
중심선
100
AcDbLine
 10
5.245725140726316
 20
7.84717430164391
 30
0.0
 11
8.692000384563599
 21
7.84717430164391
 31
0.0
  0
LINE
  5
86
330
7F
100
AcDbEntity
  8
중심선
100
AcDbLine
 10
15.74043728645272
 20
16.24717430164393
 30
0.0
 11
8.692000384563599
 21
7.84717430164391
 31
0.0
  0
LINE
  5
87
330
7F
100
AcDbEntity
  8
중심선
100
AcDbLine
 10
0.1404042013395286
 20
13.71084872107135
 30
0.0
 11
3.58671253028996
 21
13.71088815037384
 31
0.0
  0
LINE
  5
88
330
7F
100
AcDbEntity
  8
중심선
100
AcDbLine
 10
2.750260043222114
 20
10.84717430164391
 30
0.0
 11
6.196535287059397
 21
10.84717430164391
 31
0.0
  0
LINE
  5
89
330
7F
100
AcDbEntity
  8
중심선
100
AcDbLine
 10
12.29416204261559
 20
16.24717430164393
 30
0.0
 11
5.245725140726316
 21
7.84717430164391
 31
0.0
  0
LINE
  5
8A
330
7F
100
AcDbEntity
  8
중심선
100
AcDbLine
 10
10.72767329541681
 20
16.24717430164393
 30
0.0
 11
6.196535287059397
 21
10.84717430164391
 31
0.0
  0
LINE
  5
8B
330
7F
100
AcDbEntity
  8
중심선
100
AcDbLine
 10
7.28139805157953
 20
16.24717430164393
 30
0.0
 11
2.750260043222114
 21
10.84717430164391
 31
0.0
  0
LINE
  5
8C
330
7F
100
AcDbEntity
  8
중심선
100
AcDbLine
 10
5.714909304380834
 20
16.24717430164393
 30
0.0
 11
3.58671253028996
 21
13.71088815037384
 31
0.0
  0
LINE
  5
8D
330
7F
100
AcDbEntity
  8
중심선
100
AcDbLine
 10
2.268634060543552
 20
16.24717430164393
 30
0.0
 11
0.1404042013395286
 21
13.71084872107135
 31
0.0
  0
LINE
  5
8E
330
7F
100
AcDbEntity
  8
중심선
100
AcDbLine
 10
7.28139805157953
 20
16.24717430164393
 30
0.0
 11
10.72767329541681
 21
16.24717430164393
 31
0.0
  0
LINE
  5
8F
330
7F
100
AcDbEntity
  8
중심선
100
AcDbLine
 10
12.29416204261559
 20
16.24717430164393
 30
0.0
 11
15.74043728645272
 21
16.24717430164393
 31
0.0
  0
LINE
  5
90
330
7F
100
AcDbEntity
  8
중심선
100
AcDbLine
 10
19.22036997980202
 20
11.08717430171403
 30
0.0
 11
23.66174974927406
 21
11.08717430171406
 31
0.0
  0
LINE
  5
91
330
7F
100
AcDbEntity
  8
중심선
100
AcDbLine
 10
19.22039502424796
 20
13.00717430171391
 30
0.0
 11
19.22036997980202
 21
11.08717430171403
 31
0.0
  0
LINE
  5
92
330
7F
100
AcDbEntity
  8
중심선
100
AcDbLine
 10
19.22039502424796
 20
13.00717430171391
 30
0.0
 11
26.96566020931264
 21
13.00717430171391
 31
0.0
  0
LINE
  5
93
330
7F
100
AcDbEntity
  8
중심선
100
AcDbLine
 10
22.22332737316547
 20
13.45928029700563
 30
0.0
 11
24.52862924686651
 21
15.39360700705356
 31
0.0
  0
ATTDEF
  5
95
330
7F
100
AcDbEntity
  8
FORMAT
 62
     2
100
AcDbText
 10
4.408487351596664
 20
2.075366912832191
 30
0.0
 40
4.233333333333333
  1
E1042056
 41
0.75
  7
SLDTEXTSTYLE0
 11
4.408487351596664
 21
-0.0412997538344756
 31
0.0
100
AcDbAttributeDefinition
  3

  2
AUTOATTR0
 70
     0
 74
     1
  0
ENDBLK
  5
81
330
7F
100
AcDbEntity
  8
0
100
AcDbBlockEnd
  0
BLOCK
  5
E5
330
E4
100
AcDbEntity
  8
0
100
AcDbBlockBegin
  2
_D
 70
     0
 10
0.0
 20
0.0
 30
0.0
  3
_D
  1
_D
  0
LINE
  5
E7
330
E4
100
AcDbEntity
  8
치수문자_일반주서
 62
     0
370
    -2
100
AcDbLine
 10
-42.99000000000002
 20
11.11249999999999
 30
0.0
 11
-60.15000000000001
 21
11.11249999999993
 31
0.0
  0
LINE
  5
E8
330
E4
100
AcDbEntity
  8
치수문자_일반주서
 62
     0
370
    -2
100
AcDbLine
 10
-42.99000000000002
 20
-11.1125
 30
0.0
 11
-60.14999999999993
 21
-11.11250000000006
 31
0.0
  0
LINE
  5
E9
330
E4
100
AcDbEntity
  8
치수문자_일반주서
 62
     0
370
    -2
100
AcDbLine
 10
-60.15000000000001
 20
11.11249999999993
 30
0.0
 11
-60.15000000000015
 21
50.46649999999994
 31
0.0
  0
LINE
  5
EA
330
E4
100
AcDbEntity
  8
치수문자_일반주서
 62
     0
370
    -2
100
AcDbLine
 10
-60.15000000000001
 20
11.11249999999993
 30
0.0
 11
-60.14999999999993
 21
-11.11250000000006
 31
0.0
  0
LINE
  5
EB
330
E4
100
AcDbEntity
  8
치수문자_일반주서
 62
     0
370
    -2
100
AcDbLine
 10
-60.15000000000003
 20
14.41449999999993
 30
0.0
 11
-60.15000000000004
 21
17.71649999999993
 31
0.0
  0
LINE
  5
EC
330
E4
100
AcDbEntity
  8
치수문자_일반주서
 62
     0
370
    -2
100
AcDbLine
 10
-60.14999999999992
 20
-14.41450000000006
 30
0.0
 11
-60.14999999999991
 21
-17.71650000000006
 31
0.0
  0
SOLID
  5
ED
330
E4
100
AcDbEntity
  8
치수문자_일반주서
 62
     0
100
AcDbTrace
 10
-60.70033333333336
 20
14.41449999999993
 30
0.0
 11
-59.59966666666669
 21
14.41449999999993
 31
0.0
 12
-60.15000000000001
 22
11.11249999999993
 32
0.0
 13
-60.15000000000001
 23
11.11249999999993
 33
0.0
  0
SOLID
  5
EE
330
E4
100
AcDbEntity
  8
치수문자_일반주서
 62
     0
100
AcDbTrace
 10
-59.59966666666659
 20
-14.41450000000006
 30
0.0
 11
-60.70033333333325
 21
-14.41450000000006
 31
0.0
 12
-60.14999999999993
 22
-11.11250000000006
 32
0.0
 13
-60.14999999999993
 23
-11.11250000000006
 33
0.0
  0
MTEXT
  5
EF
330
E4
100
AcDbEntity
  8
치수문자_일반주서
 62
     0
100
AcDbMText
 10
-65.02500000000009
 20
34.09149999999993
 30
0.0
 40
4.0
 41
0.0
 71
     2
 72
     1
  1
\A1;%%c22.23 [7/8]
  7
SLDTEXTSTYLE0
 11
-3.516746948643917E-15
 21
1.0
 31
0.0
 73
     1
 44
1.0
  0
POINT
  5
1B9
330
E4
100
AcDbEntity
  8
Defpoints
 62
     0
100
AcDbPoint
 10
-42.92750000000002
 20
11.11249999999999
 30
0.0
  0
POINT
  5
1BA
330
E4
100
AcDbEntity
  8
Defpoints
 62
     0
100
AcDbPoint
 10
-42.92750000000002
 20
-11.1125
 30
0.0
  0
POINT
  5
1BB
330
E4
100
AcDbEntity
  8
Defpoints
 62
     0
100
AcDbPoint
 10
-60.14999999999993
 20
-11.11250000000006
 30
0.0
  0
ENDBLK
  5
E6
330
E4
100
AcDbEntity
  8
0
100
AcDbBlockEnd
  0
BLOCK
  5
FA
330
F9
100
AcDbEntity
  8
0
100
AcDbBlockBegin
  2
_D_1
 70
     0
 10
0.0
 20
0.0
 30
0.0
  3
_D_1
  1
_D_1
  0
LINE
  5
FC
330
F9
100
AcDbEntity
  8
치수문자_일반주서
 62
     0
370
    -2
100
AcDbLine
 10
59.625
 20
11.09390709692445
 30
0.0
 11
59.625
 21
26.1125
 31
0.0
  0
LINE
  5
FD
330
F9
100
AcDbEntity
  8
치수문자_일반주서
 62
     0
370
    -2
100
AcDbLine
 10
12.00000000000002
 20
11.171814486054
 30
0.0
 11
12.00000000000002
 21
26.1125
 31
0.0
  0
LINE
  5
FE
330
F9
100
AcDbEntity
  8
치수문자_일반주서
 62
     0
370
    -2
100
AcDbLine
 10
56.323
 20
26.1125
 30
0.0
 11
15.30200000000002
 21
26.1125
 31
0.0
  0
SOLID
  5
FF
330
F9
100
AcDbEntity
  8
치수문자_일반주서
 62
     0
100
AcDbTrace
 10
56.323
 20
25.56216666666667
 30
0.0
 11
56.323
 21
26.66283333333334
 31
0.0
 12
59.625
 22
26.1125
 32
0.0
 13
59.625
 23
26.1125
 33
0.0
  0
SOLID
  5
100
330
F9
100
AcDbEntity
  8
치수문자_일반주서
 62
     0
100
AcDbTrace
 10
15.30200000000002
 20
26.66283333333334
 30
0.0
 11
15.30200000000002
 21
25.56216666666667
 31
0.0
 12
12.00000000000002
 22
26.1125
 32
0.0
 13
12.00000000000002
 23
26.1125
 33
0.0
  0
MTEXT
  5
101
330
F9
100
AcDbEntity
  8
치수문자_일반주서
 62
     0
100
AcDbMText
 10
35.81250000000001
 20
30.9875
 30
0.0
 40
4.0
 41
0.0
 71
     2
 72
     1
  1
\A1;47.63 [1 7/8]
  7
SLDTEXTSTYLE0
 73
     1
 44
1.0
  0
POINT
  5
102
330
F9
100
AcDbEntity
  8
Defpoints
 62
     0
100
AcDbPoint
 10
59.625
 20
11.03140709692445
 30
0.0
  0
POINT
  5
103
330
F9
100
AcDbEntity
  8
Defpoints
 62
     0
100
AcDbPoint
 10
12.00000000000002
 20
11.109314486054
 30
0.0
  0
POINT
  5
104
330
F9
100
AcDbEntity
  8
Defpoints
 62
     0
100
AcDbPoint
 10
12.00000000000002
 20
26.1125
 30
0.0
  0
ENDBLK
  5
FB
330
F9
100
AcDbEntity
  8
0
100
AcDbBlockEnd
  0
BLOCK
  5
10D
330
10C
100
AcDbEntity
  8
0
100
AcDbBlockBegin
  2
_D_2
 70
     0
 10
0.0
 20
0.0
 30
0.0
  3
_D_2
  1
_D_2
  0
LINE
  5
10F
330
10C
100
AcDbEntity
  8
치수문자_일반주서
 62
     0
370
    -2
100
AcDbLine
 10
59.625
 20
11.09390709692445
 30
0.0
 11
59.625
 21
41.1125
 31
0.0
  0
LINE
  5
110
330
10C
100
AcDbEntity
  8
치수문자_일반주서
 62
     0
370
    -2
100
AcDbLine
 10
-45.15000000000001
 20
8.952500000000008
 30
0.0
 11
-45.15000000000001
 21
41.1125
 31
0.0
  0
LINE
  5
111
330
10C
100
AcDbEntity
  8
치수문자_일반주서
 62
     0
370
    -2
100
AcDbLine
 10
56.323
 20
41.1125
 30
0.0
 11
-41.84800000000001
 21
41.1125
 31
0.0
  0
SOLID
  5
112
330
10C
100
AcDbEntity
  8
치수문자_일반주서
 62
     0
100
AcDbTrace
 10
56.323
 20
40.56216666666666
 30
0.0
 11
56.323
 21
41.66283333333333
 31
0.0
 12
59.625
 22
41.1125
 32
0.0
 13
59.625
 23
41.1125
 33
0.0
  0
SOLID
  5
113
330
10C
100
AcDbEntity
  8
치수문자_일반주서
 62
     0
100
AcDbTrace
 10
-41.84800000000001
 20
41.66283333333333
 30
0.0
 11
-41.84800000000001
 21
40.56216666666666
 31
0.0
 12
-45.15000000000001
 22
41.1125
 32
0.0
 13
-45.15000000000001
 23
41.1125
 33
0.0
  0
MTEXT
  5
114
330
10C
100
AcDbEntity
  8
치수문자_일반주서
 62
     0
100
AcDbMText
 10
7.237499999999997
 20
45.9875
 30
0.0
 40
4.0
 41
0.0
 71
     2
 72
     1
  1
\A1;104.78 [4 1/8]
  7
SLDTEXTSTYLE0
 73
     1
 44
1.0
  0
POINT
  5
115
330
10C
100
AcDbEntity
  8
Defpoints
 62
     0
100
AcDbPoint
 10
59.625
 20
11.03140709692445
 30
0.0
  0
POINT
  5
116
330
10C
100
AcDbEntity
  8
Defpoints
 62
     0
100
AcDbPoint
 10
-45.15000000000001
 20
8.890000000000008
 30
0.0
  0
POINT
  5
117
330
10C
100
AcDbEntity
  8
Defpoints
 62
     0
100
AcDbPoint
 10
-45.15000000000001
 20
41.1125
 30
0.0
  0
ENDBLK
  5
10E
330
10C
100
AcDbEntity
  8
0
100
AcDbBlockEnd
  0
BLOCK
  5
120
330
11F
100
AcDbEntity
  8
0
100
AcDbBlockBegin
  2
_D_3
 70
     0
 10
0.0
 20
0.0
 30
0.0
  3
_D_3
  1
_D_3
  0
LINE
  5
122
330
11F
100
AcDbEntity
  8
치수문자_일반주서
 62
     0
370
    -2
100
AcDbLine
 10
59.6875
 20
11.1125
 30
0.0
 11
74.62499999999999
 21
11.11250000000006
 31
0.0
  0
LINE
  5
123
330
11F
100
AcDbEntity
  8
치수문자_일반주서
 62
     0
370
    -2
100
AcDbLine
 10
59.6875
 20
-11.11250000000001
 30
0.0
 11
74.62500000000006
 21
-11.11249999999995
 31
0.0
  0
LINE
  5
124
330
11F
100
AcDbEntity
  8
치수문자_일반주서
 62
     0
370
    -2
100
AcDbLine
 10
74.62499999999999
 20
11.11250000000006
 30
0.0
 11
74.62499999999986
 21
50.46650000000005
 31
0.0
  0
LINE
  5
125
330
11F
100
AcDbEntity
  8
치수문자_일반주서
 62
     0
370
    -2
100
AcDbLine
 10
74.62499999999999
 20
11.11250000000006
 30
0.0
 11
74.62500000000006
 21
-11.11249999999995
 31
0.0
  0
LINE
  5
126
330
11F
100
AcDbEntity
  8
치수문자_일반주서
 62
     0
370
    -2
100
AcDbLine
 10
74.62499999999997
 20
14.41450000000006
 30
0.0
 11
74.62499999999996
 21
17.71650000000006
 31
0.0
  0
LINE
  5
127
330
11F
100
AcDbEntity
  8
치수문자_일반주서
 62
     0
370
    -2
100
AcDbLine
 10
74.62500000000007
 20
-14.41449999999995
 30
0.0
 11
74.62500000000009
 21
-17.71649999999995
 31
0.0
  0
SOLID
  5
128
330
11F
100
AcDbEntity
  8
치수문자_일반주서
 62
     0
100
AcDbTrace
 10
74.07466666666664
 20
14.41450000000006
 30
0.0
 11
75.1753333333333
 21
14.41450000000006
 31
0.0
 12
74.62499999999999
 22
11.11250000000006
 32
0.0
 13
74.62499999999999
 23
11.11250000000006
 33
0.0
  0
SOLID
  5
129
330
11F
100
AcDbEntity
  8
치수문자_일반주서
 62
     0
100
AcDbTrace
 10
75.1753333333334
 20
-14.41449999999995
 30
0.0
 11
74.07466666666674
 21
-14.41449999999996
 31
0.0
 12
74.62500000000006
 22
-11.11249999999995
 32
0.0
 13
74.62500000000006
 23
-11.11249999999995
 33
0.0
  0
MTEXT
  5
12A
330
11F
100
AcDbEntity
  8
치수문자_일반주서
 62
     0
100
AcDbMText
 10
69.74999999999991
 20
34.09150000000004
 30
0.0
 40
4.0
 41
0.0
 71
     2
 72
     1
  1
\A1;%%c22.23 [7/8]
  7
SLDTEXTSTYLE0
 11
-3.197042680585376E-15
 21
1.0
 31
0.0
 73
     1
 44
1.0
  0
POINT
  5
12B
330
11F
100
AcDbEntity
  8
Defpoints
 62
     0
100
AcDbPoint
 10
59.625
 20
11.1125
 30
0.0
  0
POINT
  5
12C
330
11F
100
AcDbEntity
  8
Defpoints
 62
     0
100
AcDbPoint
 10
59.625
 20
-11.11250000000001
 30
0.0
  0
POINT
  5
12D
330
11F
100
AcDbEntity
  8
Defpoints
 62
     0
100
AcDbPoint
 10
74.62500000000009
 20
-11.11249999999995
 30
0.0
  0
ENDBLK
  5
121
330
11F
100
AcDbEntity
  8
0
100
AcDbBlockEnd
  0
BLOCK
  5
139
330
138
100
AcDbEntity
  8
0
100
AcDbBlockBegin
  2
SW_DOWELSYMBOL_0
 70
     0
 10
0.0
 20
0.0
 30
0.0
  3
SW_DOWELSYMBOL_0
  1
SW_DOWELSYMBOL_0
  0
CIRCLE
  5
13B
330
138
100
AcDbEntity
  8
해칭선
 62
     0
100
AcDbCircle
 10
0.0
 20
0.0
 30
0.0
 40
3.000000000000002
  0
HATCH
  5
13C
330
138
100
AcDbEntity
  8
0
  6
Continuous
 62
     0
370
     0
100
AcDbHatch
 10
0.0
 20
0.0
 30
0.0
210
0.0
220
0.0
230
1.0
  2
SOLID
 70
     1
 71
     0
 91
        1
 92
        0
 93
        3
 72
     2
 10
0.0
 20
0.0
 40
3.000000000000002
 50
0.0
 51
90.0
 73
     1
 72
     1
 10
0.0
 20
3.000000000000002
 11
0.0
 21
0.0
 72
     1
 10
0.0
 20
0.0
 11
3.000000000000003
 21
0.0
 97
        0
 75
     0
 76
     1
 98
        1
 10
0.0
 20
0.0
  0
HATCH
  5
13D
330
138
100
AcDbEntity
  8
0
  6
Continuous
 62
     0
370
     0
100
AcDbHatch
 10
0.0
 20
0.0
 30
0.0
210
0.0
220
0.0
230
1.0
  2
SOLID
 70
     1
 71
     0
 91
        1
 92
        0
 93
        3
 72
     2
 10
0.0
 20
0.0
 40
3.000000000000002
 50
180.0
 51
270.0000000000007
 73
     1
 72
     1
 10
0.0
 20
-3.000000000000002
 11
0.0
 21
0.0
 72
     1
 10
0.0
 20
0.0
 11
-3.000000000000002
 21
0.0
 97
        0
 75
     0
 76
     1
 98
        1
 10
0.0
 20
0.0
  0
ENDBLK
  5
13A
330
138
100
AcDbEntity
  8
0
100
AcDbBlockEnd
  0
BLOCK
  5
19B
330
19A
100
AcDbEntity
  8
0
100
AcDbBlockBegin
  2
*D7
 70
     1
 10
0.0
 20
0.0
 30
0.0
  3
*D7
  1
*D7
  0
LINE
  5
19D
330
19A
100
AcDbEntity
  8
치수문자_일반주서
 62
     0
370
    -2
100
AcDbLine
 10
41.27500000000002
 20
15.24046122672602
 30
0.0
 11
41.27500000000002
 21
30.24746942936219
 31
0.0
  0
LINE
  5
19E
330
19A
100
AcDbEntity
  8
치수문자_일반주서
 62
     0
370
    -2
100
AcDbLine
 10
0.0
 20
15.30728625343747
 30
0.0
 11
0.0
 21
30.24746942936219
 31
0.0
  0
LINE
  5
19F
330
19A
100
AcDbEntity
  8
치수문자_일반주서
 62
     0
370
    -2
100
AcDbLine
 10
37.97300000000002
 20
30.24746942936219
 30
0.0
 11
3.302
 21
30.24746942936219
 31
0.0
  0
SOLID
  5
1A0
330
19A
100
AcDbEntity
  8
치수문자_일반주서
 62
     0
100
AcDbTrace
 10
37.97300000000002
 20
29.69713609602885
 30
0.0
 11
37.97300000000002
 21
30.79780276269552
 31
0.0
 12
41.27500000000002
 22
30.24746942936219
 32
0.0
 13
41.27500000000002
 23
30.24746942936219
 33
0.0
  0
SOLID
  5
1A1
330
19A
100
AcDbEntity
  8
치수문자_일반주서
 62
     0
100
AcDbTrace
 10
3.302
 20
30.79780276269552
 30
0.0
 11
3.302
 21
29.69713609602885
 31
0.0
 12
0.0
 22
30.24746942936219
 32
0.0
 13
0.0
 23
30.24746942936219
 33
0.0
  0
MTEXT
  5
1A2
330
19A
100
AcDbEntity
  8
치수문자_일반주서
 62
     0
100
AcDbMText
 10
20.63750000000002
 20
35.12246942936218
 30
0.0
 40
4.0
 41
0.0
 71
     2
 72
     1
  1
\A1;41.28 [1 5/8]
  7
SLDTEXTSTYLE0
 73
     1
 44
1.0
  0
POINT
  5
1A3
330
19A
100
AcDbEntity
  8
Defpoints
 62
     0
100
AcDbPoint
 10
41.27500000000002
 20
15.17796122672602
 30
0.0
  0
POINT
  5
1A4
330
19A
100
AcDbEntity
  8
Defpoints
 62
     0
100
AcDbPoint
 10
0.0
 20
15.24478625343747
 30
0.0
  0
POINT
  5
1A5
330
19A
100
AcDbEntity
  8
Defpoints
 62
     0
100
AcDbPoint
 10
0.0
 20
30.24746942936219
 30
0.0
  0
ENDBLK
  5
19C
330
19A
100
AcDbEntity
  8
0
100
AcDbBlockEnd
  0
BLOCK
  5
1AA
330
1A9
100
AcDbEntity
  8
0
100
AcDbBlockBegin
  2
*D8
 70
     1
 10
0.0
 20
0.0
 30
0.0
  3
*D8
  1
*D8
  0
LINE
  5
1AC
330
1A9
100
AcDbEntity
  8
치수문자_일반주서
 62
     0
370
    -2
100
AcDbLine
 10
127.3701590621409
 20
37.76609116496478
 30
0.0
 11
127.3701590621409
 21
52.77309936760095
 31
0.0
  0
LINE
  5
1AD
330
1A9
100
AcDbEntity
  8
치수문자_일반주서
 62
     0
370
    -2
100
AcDbLine
 10
86.0951590621409
 20
37.83291619167623
 30
0.0
 11
86.0951590621409
 21
52.77309936760095
 31
0.0
  0
LINE
  5
1AE
330
1A9
100
AcDbEntity
  8
치수문자_일반주서
 62
     0
370
    -2
100
AcDbLine
 10
124.0681590621409
 20
52.77309936760095
 30
0.0
 11
89.3971590621409
 21
52.77309936760095
 31
0.0
  0
SOLID
  5
1AF
330
1A9
100
AcDbEntity
  8
치수문자_일반주서
 62
     0
100
AcDbTrace
 10
124.0681590621409
 20
52.22276603426761
 30
0.0
 11
124.0681590621409
 21
53.32343270093428
 31
0.0
 12
127.3701590621409
 22
52.77309936760095
 32
0.0
 13
127.3701590621409
 23
52.77309936760095
 33
0.0
  0
SOLID
  5
1B0
330
1A9
100
AcDbEntity
  8
치수문자_일반주서
 62
     0
100
AcDbTrace
 10
89.3971590621409
 20
53.32343270093428
 30
0.0
 11
89.3971590621409
 21
52.22276603426761
 31
0.0
 12
86.0951590621409
 22
52.77309936760095
 32
0.0
 13
86.0951590621409
 23
52.77309936760095
 33
0.0
  0
MTEXT
  5
1B1
330
1A9
100
AcDbEntity
  8
치수문자_일반주서
 62
     0
100
AcDbMText
 10
106.7326590621409
 20
57.64809936760095
 30
0.0
 40
4.0
 41
0.0
 71
     2
 72
     1
  1
\A1;41.28 [1 5/8]
  7
SLDTEXTSTYLE0
 73
     1
 44
1.0
  0
POINT
  5
1B2
330
1A9
100
AcDbEntity
  8
Defpoints
 62
     0
100
AcDbPoint
 10
127.3701590621409
 20
37.70359116496478
 30
0.0
  0
POINT
  5
1B3
330
1A9
100
AcDbEntity
  8
Defpoints
 62
     0
100
AcDbPoint
 10
86.0951590621409
 20
37.77041619167623
 30
0.0
  0
POINT
  5
1B4
330
1A9
100
AcDbEntity
  8
Defpoints
 62
     0
100
AcDbPoint
 10
86.0951590621409
 20
52.77309936760095
 30
0.0
  0
ENDBLK
  5
1AB
330
1A9
100
AcDbEntity
  8
0
100
AcDbBlockEnd
  0
ENDSEC
  0
SECTION
  2
ENTITIES
  0
LINE
  5
96
330
1F
100
AcDbEntity
  8
0
  6
Continuous
 62
     1
370
    15
100
AcDbLine
 10
34.05912548472755
 20
-2.170229590701228
 30
0.0
 11
34.11299721329608
 21
-2.222346888640743
 31
0.0
1001
PE_URL
1000

  0
LINE
  5
97
330
1F
100
AcDbEntity
  8
0
  6
Continuous
 62
     1
370
    15
100
AcDbLine
 10
38.69581998722971
 20
2.117505042856558
 30
0.0
 11
38.58900128066192
 21
2.222416019383577
 31
0.0
1001
PE_URL
1000

  0
LINE
  5
98
330
1F
100
AcDbEntity
  8
0
  6
Continuous
 62
     1
370
    15
100
AcDbLine
 10
22.41364612209281
 20
-2.161854754669559
 30
0.0
 11
22.47606558565418
 21
-2.222397158188938
 31
0.0
1001
PE_URL
1000

  0
LINE
  5
99
330
1F
100
AcDbEntity
  8
0
  6
Continuous
 62
     1
370
    15
100
AcDbLine
 10
37.69355758224108
 20
11.1125
 30
0.0
 11
35.00838511244142
 21
11.1125
 31
0.0
1001
PE_URL
1000

  0
LINE
  5
9A
330
1F
100
AcDbEntity
  8
0
  6
Continuous
 62
     1
370
    15
100
AcDbLine
 10
35.00838511244135
 20
-11.11250000000001
 30
0.0
 11
37.69355758224101
 21
-11.11250000000001
 31
0.0
1001
PE_URL
1000

  0
LINE
  5
9B
330
1F
100
AcDbEntity
  8
0
  6
Continuous
 62
     1
370
    15
100
AcDbLine
 10
58.28073477152937
 20
-11.11250000000001
 30
0.0
 11
59.625
 21
-11.11250000000001
 31
0.0
1001
PE_URL
1000

  0
LINE
  5
9C
330
1F
100
AcDbEntity
  8
0
  6
Continuous
 62
     1
370
    15
100
AcDbLine
 10
26.0579979231924
 20
11.1125
 30
0.0
 11
23.36982927664756
 21
11.1125
 31
0.0
1001
PE_URL
1000

  0
LINE
  5
9D
330
1F
100
AcDbEntity
  8
0
  6
Continuous
 62
     1
370
    15
100
AcDbLine
 10
46.64506666516421
 20
-11.11250000000001
 30
0.0
 11
49.33116104367504
 21
-11.11250000000001
 31
0.0
1001
PE_URL
1000

  0
LINE
  5
9E
330
1F
100
AcDbEntity
  8
0
  6
Continuous
 62
     1
370
    15
100
AcDbLine
 10
14.42031597941768
 20
11.1125
 30
0.0
 11
12.0
 21
11.1125
 31
0.0
1001
PE_URL
1000

  0
LINE
  5
9F
330
1F
100
AcDbEntity
  8
0
  6
Continuous
 62
     1
370
    15
100
AcDbLine
 10
23.36982927664752
 20
-11.11250000000001
 30
0.0
 11
26.05799792319232
 21
-11.11250000000001
 31
0.0
1001
PE_URL
1000

  0
LINE
  5
A0
330
1F
100
AcDbEntity
  8
0
  6
Continuous
 62
     1
370
    15
100
AcDbLine
 10
59.625
 20
11.1125
 30
0.0
 11
58.28073477152938
 21
11.1125
 31
0.0
1001
PE_URL
1000

  0
LINE
  5
A1
330
1F
100
AcDbEntity
  8
0
  6
Continuous
 62
     1
370
    15
100
AcDbLine
 10
12.0
 20
-11.11250000000001
 30
0.0
 11
14.42031597941768
 21
-11.11250000000001
 31
0.0
1001
PE_URL
1000

  0
LINE
  5
A2
330
1F
100
AcDbEntity
  8
0
  6
Continuous
 62
     1
370
    15
100
AcDbLine
 10
49.33116104367507
 20
11.1125
 30
0.0
 11
46.64506666516428
 21
11.1125
 31
0.0
1001
PE_URL
1000

  0
LINE
  5
A3
330
1F
100
AcDbEntity
  8
외형선
  6
Continuous
370
    15
100
AcDbLine
 10
11.7337633730376
 20
-11.1125
 30
0.0
 11
12.0
 21
-11.1125
 31
0.0
  0
LINE
  5
A4
330
1F
100
AcDbEntity
  8
외형선
  6
Continuous
370
    15
100
AcDbLine
 10
-42.92750000000001
 20
-11.1125
 30
0.0
 11
10.99972247116718
 21
-11.1125
 31
0.0
  0
LINE
  5
A5
330
1F
100
AcDbEntity
  8
외형선
  6
Continuous
370
    15
100
AcDbLine
 10
10.99972247116718
 20
11.1125
 30
0.0
 11
-11.656925
 21
11.1125
 31
0.0
  0
LINE
  5
A6
330
1F
100
AcDbEntity
  8
외형선
  6
Continuous
370
    15
100
AcDbLine
 10
12.0
 20
11.1125
 30
0.0
 11
11.73376337303751
 21
11.1125
 31
0.0
  0
LINE
  5
A7
330
1F
100
AcDbEntity
  8
외형선
  6
Continuous
370
    15
100
AcDbLine
 10
-42.92750000000001
 20
11.1125
 30
0.0
 11
-45.15000000000001
 21
8.890000000000008
 31
0.0
  0
LINE
  5
A8
330
1F
100
AcDbEntity
  8
외형선
  6
Continuous
370
    15
100
AcDbLine
 10
-45.15000000000001
 20
-8.890000000000015
 30
0.0
 11
-42.92750000000001
 21
-11.11250000000001
 31
0.0
  0
SPLINE
  5
A9
330
1F
100
AcDbEntity
  8
0
  6
Continuous
 62
     1
370
    15
100
AcDbSpline
210
0.0
220
0.0
230
1.0
 70
     8
 71
     3
 72
    31
 73
    27
 74
     0
 42
0.000000001
 43
0.00000001
 40
0.0
 40
0.0
 40
0.0
 40
0.0
 40
0.0194930232858984
 40
0.0599579676172119
 40
0.100399277224769
 40
0.1408962685696539
 40
0.1813735240055878
 40
0.2218131034004933
 40
0.2659069979157352
 40
0.3100310132646122
 40
0.3541087234649072
 40
0.3981748204587303
 40
0.4422717960285216
 40
0.4863940958868558
 40
0.5304698900675524
 40
0.5745366512215635
 40
0.6186368631687713
 40
0.662756988771512
 40
0.7068310231910554
 40
0.7508986051632537
 40
0.7950022086679592
 40
0.83911970136849
 40
0.8831921323631368
 40
0.9272606917752011
 40
0.971367841867901
 40
1.0
 40
1.0
 40
1.0
 40
1.0
 10
14.42031597941769
 20
11.08395170184249
 30
0.0
 10
14.67634650161424
 20
11.08980809905236
 30
0.0
 10
15.46386260590079
 20
11.10782160414661
 30
0.0
 10
16.78173816393657
 20
10.89231777406557
 30
0.0
 10
18.37443685297233
 20
10.45375923340285
 30
0.0
 10
19.96936126568416
 20
9.78882420964073
 30
0.0
 10
21.56347010312396
 20
8.925965652926866
 30
0.0
 10
23.20354580843022
 20
7.847119787627033
 30
0.0
 10
24.89282230315392
 20
6.55841475455533
 30
0.0
 10
26.63078364521711
 20
5.0742658331151
 30
0.0
 10
28.36681586179677
 20
3.465407750835698
 30
0.0
 10
30.10236460244759
 20
1.772267402818483
 30
0.0
 10
31.83920132220132
 20
0.0360472338581865
 30
0.0
 10
33.57713660018939
 20
-1.700221615439136
 30
0.0
 10
35.31307690220301
 20
-3.396231921580194
 30
0.0
 10
37.04865563647458
 20
-5.009234129955185
 30
0.0
 10
38.78563094668037
 20
-6.499924807053134
 30
0.0
 10
40.52347165536236
 20
-7.831726600081066
 30
0.0
 10
42.25934024163102
 20
-8.973484026713635
 30
0.0
 10
43.99495163043666
 20
-9.89628969264163
 30
0.0
 10
45.7320739989302
 20
-10.57790680820396
 30
0.0
 10
47.46979835121753
 20
-11.00096164214773
 30
0.0
 10
49.20560819826507
 20
-11.15879804425921
 30
0.0
 10
50.94123713700928
 20
-11.03448200643882
 30
0.0
 10
52.47526621358308
 20
-10.72050587096769
 30
0.0
 10
53.43050198352779
 20
-10.34347635202685
 30
0.0
 10
53.80650860616392
 20
-10.19506734085752
 30
0.0
1001
PE_URL
1000

  0
SPLINE
  5
AA
330
1F
100
AcDbEntity
  8
0
  6
Continuous
 62
     1
370
    15
100
AcDbSpline
210
0.0
220
0.0
230
1.0
 70
     8
 71
     3
 72
    31
 73
    27
 74
     0
 42
0.000000001
 43
0.00000001
 40
0.0
 40
0.0
 40
0.0
 40
0.0
 40
0.009988896286648
 40
0.0540597004088634
 40
0.0981317951101614
 40
0.1422473082238954
 40
0.1863555699524723
 40
0.2304252400278093
 40
0.274498781783305
 40
0.3186173863803782
 40
0.3627221014315752
 40
0.4067907940424116
 40
0.4508659392632145
 40
0.4949871768288546
 40
0.5390885002370769
 40
0.5831563720090388
 40
0.6272332770353466
 40
0.6713566889113777
 40
0.7154547758606162
 40
0.7595219834556519
 40
0.8036008045498475
 40
0.8477259319596578
 40
0.8918209377766951
 40
0.9322615363734086
 40
0.9727398119607025
 40
1.0
 40
1.0
 40
1.0
 40
1.0
 10
58.28073477152938
 20
-11.08874356077141
 30
0.0
 10
58.14955925236421
 20
-11.09601464816137
 30
0.0
 10
57.43964005172894
 20
-11.13536562295057
 30
0.0
 10
56.15190621368571
 20
-10.93941284193627
 30
0.0
 10
54.41611061912246
 20
-10.49287767471154
 30
0.0
 10
52.6785326247867
 20
-9.768329478676247
 30
0.0
 10
50.94125339567483
 20
-8.811752892891683
 30
0.0
 10
49.20560384309913
 20
-7.638467888793831
 30
0.0
 10
47.46979951956689
 20
-6.279284859741675
 30
0.0
 10
45.73207368583833
 20
-4.767784145144426
 30
0.0
 10
43.9949517142405
 20
-3.139742739974608
 30
0.0
 10
42.25934021918391
 20
-1.434808878159284
 30
0.0
 10
40.52347166137251
 20
0.3052757116847534
 30
0.0
 10
38.78563094511524
 20
2.036822283625841
 30
0.0
 10
37.04865563672509
 20
3.719400341014324
 30
0.0
 10
35.31307690276404
 20
5.311541639490484
 30
0.0
 10
33.57713659769279
 20
6.774359490598754
 30
0.0
 10
31.83920133163528
 20
8.07116336700954
 30
0.0
 10
30.10236456724508
 20
9.171927057267407
 30
0.0
 10
28.3668159930965
 20
10.04913526208396
 30
0.0
 10
26.63078315482451
 20
10.68160467223679
 30
0.0
 10
24.89282413492363
 20
11.05278273491442
 30
0.0
 10
23.20353921686149
 20
11.15444459769051
 30
0.0
 10
21.56349245415412
 20
10.9983210446593
 30
0.0
 10
20.14309135843118
 20
10.68899026895258
 30
0.0
 10
19.25354356386977
 20
10.340574383249
 30
0.0
 10
18.89556024314727
 20
10.20036035931548
 30
0.0
1001
PE_URL
1000

  0
SPLINE
  5
AB
330
1F
100
AcDbEntity
  8
0
  6
Continuous
 62
     1
370
    15
100
AcDbSpline
210
0.0
220
0.0
230
1.0
 70
     8
 71
     3
 72
    25
 73
    21
 74
     0
 42
0.000000001
 43
0.00000001
 40
0.0
 40
0.0
 40
0.0
 40
0.0
 40
0.0528006211748853
 40
0.1056800658732591
 40
0.1585061096350256
 40
0.2113012988145828
 40
0.2641691792072733
 40
0.3170112948298116
 40
0.3698042252569906
 40
0.4273677790881116
 40
0.4849706549670454
 40
0.5425130805513897
 40
0.6000403453647645
 40
0.6576079214409459
 40
0.7152085577868722
 40
0.7727484820521903
 40
0.8302766139112444
 40
0.8878484150028771
 40
0.9454462129086911
 40
1.0
 40
1.0
 40
1.0
 40
1.0
 10
12.00000000000001
 20
7.504669318647282
 30
0.0
 10
12.5306778153656
 20
7.097981960183733
 30
0.0
 10
13.59282566964099
 20
6.28400011913879
 30
0.0
 10
15.18807618170374
 20
4.894564407866603
 30
0.0
 10
16.78172874657185
 20
3.4144553703596
 30
0.0
 10
18.3744393796005
 20
1.860508907765668
 30
0.0
 10
19.96936058877022
 20
0.2710057854529658
 30
0.0
 10
21.56347028375079
 20
-1.325057356879705
 30
0.0
 10
23.20354575517617
 20
-2.941451506657943
 30
0.0
 10
24.89282231789167
 20
-4.538286980542578
 30
0.0
 10
26.63078364149882
 20
-6.068768462672027
 30
0.0
 10
28.36681586194545
 20
-7.452395143668514
 30
0.0
 10
30.10236460556844
 20
-8.654158542947329
 30
0.0
 10
31.83920130955548
 20
-9.644861252363523
 30
0.0
 10
33.57713664765684
 20
-10.4002881186751
 30
0.0
 10
35.31307672520845
 20
-10.90233039992707
 30
0.0
 10
37.04865629712947
 20
-11.13996391051149
 30
0.0
 10
38.78562847850023
 20
-11.10058937873298
 30
0.0
 10
40.49345622174094
 20
-10.81622842130598
 30
0.0
 10
41.62096089947876
 20
-10.41334772787902
 30
0.0
 10
42.16941191009391
 20
-10.2173748615751
 30
0.0
1001
PE_URL
1000

  0
SPLINE
  5
AC
330
1F
100
AcDbEntity
  8
외형선
  6
Continuous
370
    15
100
AcDbSpline
210
0.0
220
0.0
230
1.0
 70
    24
 71
     3
 72
    13
 73
     9
 74
     0
 42
0.000000001
 43
0.00000001
 40
0.0
 40
0.0
 40
0.0
 40
0.0
 40
0.0102134713333102
 40
0.2098128400478221
 40
0.4152006039768754
 40
0.6147999726913643
 40
0.8201877366203945
 40
0.9999999999999999
 40
0.9999999999999999
 40
0.9999999999999999
 40
0.9999999999999999
 10
11.99999999999999
 20
11.10931448606458
 30
0.0
 10
11.99999999999999
 20
11.09703382893126
 30
0.0
 10
12.00000000000001
 20
10.84475529730293
 30
0.0
 10
11.99999999999997
 20
10.33470969780858
 30
0.0
 10
12.00000000000003
 20
9.58596327432667
 30
0.0
 10
11.99999999999995
 20
8.846976192212463
 30
0.0
 10
12.00000000000005
 20
8.16720384017026
 30
0.0
 10
11.99999999999999
 20
7.767655965948294
 30
0.0
 10
11.99999999999995
 20
7.581146094455483
 30
0.0
  0
SPLINE
  5
AD
330
1F
100
AcDbEntity
  8
0
  6
Continuous
 62
     1
370
    15
100
AcDbSpline
210
0.0
220
0.0
230
1.0
 70
     8
 71
     3
 72
    28
 73
    24
 74
     0
 42
0.000000001
 43
0.00000001
 40
0.0
 40
0.0
 40
0.0
 40
0.0
 40
0.0263467972665538
 40
0.0764852619423743
 40
0.1265827761245466
 40
0.1766876256665892
 40
0.2268448732209705
 40
0.2769794822597852
 40
0.3270760633081449
 40
0.3771829134060473
 40
0.4273426327275538
 40
0.477473562543314
 40
0.5275693885519616
 40
0.5776784168455963
 40
0.6278400863946396
 40
0.6779675135636226
 40
0.7239405919942773
 40
0.7699565018196955
 40
0.8159948480923696
 40
0.8619698934871503
 40
0.9079718076334168
 40
0.95402022432135
 40
1.0
 40
1.0
 40
1.0
 40
1.0
 10
46.64506666516421
 20
-11.07866115337248
 30
0.0
 10
46.34070183496257
 20
-11.08453115819257
 30
0.0
 10
45.45712484727419
 20
-11.10157189569569
 30
0.0
 10
43.99493649079588
 20
-10.83389421565854
 30
0.0
 10
42.25934429740929
 20
-10.30241312617823
 30
0.0
 10
40.52347056726894
 20
-9.506090841020214
 30
0.0
 10
38.78563123822393
 20
-8.48234017725585
 30
0.0
 10
37.04865555843597
 20
-7.250542611328489
 30
0.0
 10
35.31307692311577
 20
-5.842093548408978
 30
0.0
 10
33.57713659455973
 20
-4.290951597148574
 30
0.0
 10
31.83920132378036
 20
-2.636364823860095
 30
0.0
 10
30.10236460176089
 20
-0.9167407509160503
 30
0.0
 10
28.36681586296565
 20
0.8253496980668363
 30
0.0
 10
26.63078364122508
 20
2.547543543088757
 30
0.0
 10
24.89282231796521
 20
4.206473888106442
 30
0.0
 10
23.20354575515831
 20
5.72106906809454
 30
0.0
 10
21.56347028375559
 20
7.066098923647417
 30
0.0
 10
19.96936058876928
 20
8.226471064304121
 30
0.0
 10
18.37443937960132
 20
9.217195364176494
 30
0.0
 10
16.78172874657239
 20
10.02087367760054
 30
0.0
 10
15.1880761817045
 20
10.61383315444576
 30
0.0
 10
13.59282566964191
 20
11.00496739284162
 30
0.0
 10
12.53067781536661
 20
11.07454942135096
 30
0.0
 10
12.00000000000108
 20
11.10931448605397
 30
0.0
1001
PE_URL
1000

  0
SPLINE
  5
AE
330
1F
100
AcDbEntity
  8
0
  6
Continuous
 62
     1
370
    15
100
AcDbSpline
210
0.0
220
0.0
230
1.0
 70
     8
 71
     3
 72
    19
 73
    15
 74
     0
 42
0.000000001
 43
0.00000001
 40
0.0
 40
0.0
 40
0.0
 40
0.0
 40
0.0859512672091072
 40
0.1720308469565709
 40
0.2580234982158949
 40
0.3439659229744487
 40
0.4300266778159588
 40
0.5160454915856665
 40
0.6019842394437427
 40
0.6956888263738275
 40
0.7894574235326476
 40
0.8831276169358391
 40
0.9767731309423168
 40
1.0
 40
1.0
 40
1.0
 40
1.0
 10
12.00000000000001
 20
-3.345249154962465
 30
0.0
 10
12.53067781528698
 20
-3.845207744834096
 30
0.0
 10
13.59282566940499
 20
-4.845871288858216
 30
0.0
 10
15.18807618264905
 20
-6.226879656782334
 30
0.0
 10
16.78172874303198
 20
-7.4862892159747
 30
0.0
 10
18.37443939281554
 20
-8.590985724132882
 30
0.0
 10
19.96936053938324
 20
-9.51843909240512
 30
0.0
 10
21.56347046788508
 20
-10.25080535745859
 30
0.0
 10
23.20354504246419
 20
-10.78883586975321
 30
0.0
 10
24.89282524766862
 20
-11.09579680973452
 30
0.0
 10
26.63077273536621
 20
-11.14635713421974
 30
0.0
 10
28.36685650279385
 20
-10.9054328613512
 30
0.0
 10
29.66696865745476
 20
-10.58115062411609
 30
0.0
 10
30.38908057091325
 20
-10.2633951501754
 30
0.0
 10
30.5325909402508
 20
-10.20024537439364
 30
0.0
1001
PE_URL
1000

  0
SPLINE
  5
AF
330
1F
100
AcDbEntity
  8
외형선
  6
Continuous
370
    15
100
AcDbSpline
210
0.0
220
0.0
230
1.0
 70
    24
 71
     3
 72
    28
 73
    24
 74
     0
 42
0.000000001
 43
0.00000001
 40
0.0
 40
0.0
 40
0.0
 40
0.0
 40
0.1250000000000007
 40
0.1250000000000007
 40
0.1875000000000008
 40
0.1875000000000008
 40
0.2500000000000009
 40
0.2500000000000009
 40
0.3750000000000007
 40
0.3750000000000007
 40
0.5000000000000004
 40
0.5000000000000004
 40
0.6250000000000002
 40
0.6250000000000002
 40
0.6875000000000001
 40
0.6875000000000001
 40
0.75
 40
0.75
 40
0.8125
 40
0.8125
 40
0.875
 40
0.875
 40
1.0
 40
1.0
 40
1.0
 40
1.0
 10
12.0
 20
5.324242562588004
 30
0.0
 10
12.0
 20
5.200276809654444
 30
0.0
 10
12.00000000000001
 20
5.033026288285014
 30
0.0
 10
12.00000000000002
 20
4.763216082878137
 30
0.0
 10
12.00000000000003
 20
4.673460359328244
 30
0.0
 10
12.00000000000003
 20
4.466418303017329
 30
0.0
 10
12.00000000000003
 20
4.349858606829631
 30
0.0
 10
12.0
 20
3.954151831670852
 30
0.0
 10
12.00000000000003
 20
3.62798911657632
 30
0.0
 10
12.00000000000002
 20
2.825981697605678
 30
0.0
 10
12.0
 20
2.348340446294026
 30
0.0
 10
12.00000000000001
 20
1.270007694576026
 30
0.0
 10
11.99999999999999
 20
0.6689460890893845
 30
0.0
 10
11.99999999999999
 20
-0.2316240099343131
 30
0.0
 10
12.00000000000002
 20
-0.5308073299386966
 30
0.0
 10
12.00000000000001
 20
-1.105749189882986
 30
0.0
 10
12.00000000000001
 20
-1.381341348253998
 30
0.0
 10
12.00000000000002
 20
-1.888964182505062
 30
0.0
 10
12.00000000000001
 20
-2.120867056211068
 30
0.0
 10
12.00000000000001
 20
-2.527218960359586
 30
0.0
 10
12.00000000000003
 20
-2.701634704514603
 30
0.0
 10
12.0
 20
-3.131107968168386
 30
0.0
 10
11.99999999999999
 20
-3.289717398317761
 30
0.0
 10
12.00000000000001
 20
-3.345249154962431
 30
0.0
  0
SPLINE
  5
B0
330
1F
100
AcDbEntity
  8
0
  6
Continuous
 62
     1
370
    15
100
AcDbSpline
210
0.0
220
0.0
230
1.0
 70
     8
 71
     3
 72
    21
 73
    17
 74
     0
 42
0.000000001
 43
0.00000001
 40
0.0
 40
0.0
 40
0.0
 40
0.0
 40
0.0621988818449511
 40
0.1377264193492649
 40
0.2132106073192432
 40
0.2886419380534932
 40
0.3640931480073242
 40
0.4396236220488717
 40
0.5151025359405775
 40
0.5843260773065929
 40
0.6536141116525959
 40
0.7229359294733565
 40
0.7921624325775716
 40
0.8614293930580038
 40
0.9307663743142157
 40
1.0
 40
1.0
 40
1.0
 40
1.0
 10
35.00838511244135
 20
-11.09288556655545
 30
0.0
 10
34.53148437291122
 20
-11.08300492812912
 30
0.0
 10
33.47548739527699
 20
-11.06112632017062
 30
0.0
 10
31.83919295973681
 20
-10.70268404550013
 30
0.0
 10
30.10236684058646
 20
-10.08995707638961
 30
0.0
 10
28.36681526308695
 20
-9.223467624813075
 30
0.0
 10
26.63078380220488
 20
-8.134043696562358
 30
0.0
 10
24.89282227472033
 20
-6.846697315754471
 30
0.0
 10
23.20354576567825
 20
-5.431893564687015
 30
0.0
 10
21.56347028103768
 20
-3.937266337732443
 30
0.0
 10
19.96936058949827
 20
-2.405757841264301
 30
0.0
 10
18.37443937940624
 20
-0.8258012866666057
 30
0.0
 10
16.78172874662462
 20
0.7735534773296999
 30
0.0
 10
15.18807618169053
 20
2.35419430554448
 30
0.0
 10
13.59282566964539
 20
3.892949548648132
 30
0.0
 10
12.53067781536777
 20
4.847382185293095
 30
0.0
 10
12.00000000000107
 20
5.324242562583882
 30
0.0
1001
PE_URL
1000

  0
LINE
  5
B1
330
1F
100
AcDbEntity
  8
0
  6
Continuous
 62
     1
370
    15
100
AcDbLine
 10
59.625
 20
-11.03140709692445
 30
0.0
 11
59.625
 21
-6.675309262748002
 31
0.0
1001
PE_URL
1000

  0
SPLINE
  5
B2
330
1F
100
AcDbEntity
  8
0
  6
Continuous
 62
     1
370
    15
100
AcDbSpline
210
0.0
220
0.0
230
1.0
 70
     8
 71
     3
 72
    27
 73
    23
 74
     0
 42
0.000000001
 43
0.00000001
 40
0.0
 40
0.0
 40
0.0
 40
0.0
 40
0.0170677602132429
 40
0.0687870627386185
 40
0.1204927387181484
 40
0.1722346465800697
 40
0.2240062691103446
 40
0.2757233234427717
 40
0.3274297787255261
 40
0.3791754840438473
 40
0.4309445553757434
 40
0.4826595448636256
 40
0.5343669632668315
 40
0.5861166481246399
 40
0.6378826300976448
 40
0.6895957381806871
 40
0.7413043034789542
 40
0.79305814978382
 40
0.8448205044056828
 40
0.8965319146067957
 40
0.948241810523988
 40
1.0
 40
1.0
 40
1.0
 40
1.0
 10
26.0579979231924
 20
11.0825124062452
 30
0.0
 10
26.24905470934301
 20
11.09083249593747
 30
0.0
 10
27.01905821134818
 20
11.12436440196984
 30
0.0
 10
28.36679381381105
 20
10.90595958630014
 30
0.0
 10
30.10237051404203
 20
10.42959705278643
 30
0.0
 10
31.8391997366481
 20
9.68007428176347
 30
0.0
 10
33.57713702467386
 20
8.700228912398046
 30
0.0
 10
35.31307678843
 20
7.50628198361229
 30
0.0
 10
37.04865566740192
 20
6.129833322897174
 30
0.0
 10
38.7856309368201
 20
4.604070469281104
 30
0.0
 10
40.52347166384766
 20
2.966775927783875
 30
0.0
 10
42.25934021757188
 20
1.256120212579965
 30
0.0
 10
43.99495171821623
 20
-0.4849933425920747
 30
0.0
 10
45.7320736715331
 20
-2.2139132107428
 30
0.0
 10
47.46979957280223
 20
-3.888447841501201
 30
0.0
 10
49.20560364469709
 20
-5.46912611987756
 30
0.0
 10
50.94125413633685
 20
-6.916450393618206
 30
0.0
 10
52.6785298576993
 20
-8.194422110309738
 30
0.0
 10
54.41612094332841
 20
-9.273986503057522
 30
0.0
 10
56.15186772620515
 20
-10.12285127558182
 30
0.0
 10
57.88756346859435
 20
-10.74414803591981
 30
0.0
 10
59.04567430742119
 20
-10.93562428618119
 30
0.0
 10
59.625
 20
-11.03140709692445
 30
0.0
1001
PE_URL
1000

  0
SPLINE
  5
B3
330
1F
100
AcDbEntity
  8
0
  6
Continuous
 62
     1
370
    15
100
AcDbSpline
210
0.0
220
0.0
230
1.0
 70
     8
 71
     3
 72
    24
 73
    20
 74
     0
 42
0.000000001
 43
0.00000001
 40
0.0
 40
0.0
 40
0.0
 40
0.0
 40
0.0597198818120232
 40
0.1193840413189556
 40
0.1790499480442057
 40
0.2387746357047421
 40
0.2984895062582554
 40
0.3581521304640925
 40
0.4178199962475941
 40
0.4775488692357807
 40
0.5372589382085394
 40
0.5969202390984298
 40
0.6565902756934644
 40
0.7163227132605073
 40
0.7760281905419758
 40
0.8356883801596191
 40
0.8953607992234657
 40
0.9550961804264274
 40
1.0
 40
1.0
 40
1.0
 40
1.0
 10
59.625
 20
-6.676214334255899
 30
0.0
 10
59.04567430742125
 20
-6.197697702058502
 30
0.0
 10
57.88756346859455
 20
-5.241110922970799
 30
0.0
 10
56.15186772620454
 20
-3.634091708127445
 30
0.0
 10
54.41612094333053
 20
-1.950089989567386
 30
0.0
 10
52.67852985769126
 20
-0.2162766533038798
 30
0.0
 10
50.94125413636719
 20
1.522214116727086
 30
0.0
 10
49.20560364458392
 20
3.224346308670665
 30
0.0
 10
47.469799573225
 20
4.847906965412569
 30
0.0
 10
45.73207366995362
 20
6.352455604124374
 30
0.0
 10
43.99495172410667
 20
7.702628472847492
 30
0.0
 10
42.25934019560688
 20
8.865339975710093
 30
0.0
 10
40.52347174587408
 20
9.811949214391898
 30
0.0
 10
38.78563063039637
 20
10.51909900806846
 30
0.0
 10
37.04865681000986
 20
10.96961442387063
 30
0.0
 10
35.3130725273373
 20
11.15501163582354
 30
0.0
 10
33.5771529384276
 20
11.06012992774614
 30
0.0
 10
31.98272809456944
 20
10.75442405975385
 30
0.0
 10
30.96802882950846
 20
10.36665059772452
 30
0.0
 10
30.53259094025088
 20
10.20024537439363
 30
0.0
1001
PE_URL
1000

  0
LINE
  5
B4
330
1F
100
AcDbEntity
  8
0
  6
Continuous
 62
     1
370
    15
100
AcDbLine
 10
59.625
 20
-4.355192762668389
 30
0.0
 11
59.625
 21
4.355192762668592
 31
0.0
1001
PE_URL
1000

  0
SPLINE
  5
B5
330
1F
100
AcDbEntity
  8
0
  6
Continuous
 62
     1
370
    15
100
AcDbSpline
210
0.0
220
0.0
230
1.0
 70
     8
 71
     3
 72
    20
 73
    16
 74
     0
 42
0.000000001
 43
0.00000001
 40
0.0
 40
0.0
 40
0.0
 40
0.0
 40
0.0497840717311039
 40
0.1290203050095117
 40
0.2081737621921125
 40
0.2873156312929465
 40
0.3665221921985701
 40
0.4457536969942083
 40
0.5249042745533399
 40
0.6040478990583616
 40
0.6832608293536874
 40
0.7624867822312812
 40
0.8416347610617668
 40
0.9207804221733734
 40
1.0
 40
1.0
 40
1.0
 40
1.0
 10
37.6935575822411
 20
11.08083331954008
 30
0.0
 10
38.05751056386062
 20
11.08294021815234
 30
0.0
 10
39.00073041440442
 20
11.08840045256319
 30
0.0
 10
40.52349237271888
 20
10.79144658337662
 30
0.0
 10
42.25933467215621
 20
10.23148557342818
 30
0.0
 10
43.99495320535412
 20
9.410822078161225
 30
0.0
 10
45.73207327276478
 20
8.364007736382838
 30
0.0
 10
47.46979967954464
 20
7.11293184015831
 30
0.0
 10
49.20560361611155
 20
5.68798775733774
 30
0.0
 10
50.94125414400347
 20
4.124352688817693
 30
0.0
 10
52.67852985564392
 20
2.460843539695146
 30
0.0
 10
54.41612094387834
 20
0.7370755750720064
 30
0.0
 10
56.15186772605858
 20
-1.003464120275515
 30
0.0
 10
57.88756346863101
 20
-2.727106965392209
 30
0.0
 10
59.04567430743343
 20
-3.812328655096251
 30
0.0
 10
59.625
 20
-4.35519276266839
 30
0.0
1001
PE_URL
1000

  0
SPLINE
  5
B6
330
1F
100
AcDbEntity
  8
0
  6
Continuous
 62
     1
370
    15
100
AcDbSpline
210
0.0
220
0.0
230
1.0
 70
     8
 71
     3
 72
    18
 73
    14
 74
     0
 42
0.000000001
 43
0.00000001
 40
0.0
 40
0.0
 40
0.0
 40
0.0
 40
0.0995307039173172
 40
0.1989685395957615
 40
0.2984092872335697
 40
0.3979480007026631
 40
0.4974703527265762
 40
0.5969056296323957
 40
0.6963496422874959
 40
0.7958953311322013
 40
0.8954096807170955
 40
0.9948427521502368
 40
0.9999999999999999
 40
0.9999999999999999
 40
0.9999999999999999
 40
0.9999999999999999
 10
59.625
 20
4.355192762668595
 30
0.0
 10
59.04567430709709
 20
4.877550062460296
 30
0.0
 10
57.88756346762237
 20
5.921777270710322
 30
0.0
 10
56.15186773008907
 20
7.316201312346475
 30
0.0
 10
54.4161209287568
 20
8.539863186973196
 30
0.0
 10
52.67852991215564
 20
9.552858719561062
 30
0.0
 10
50.94125393321734
 20
10.3336689735209
 30
0.0
 10
49.20560440204295
 20
10.86320095559482
 30
0.0
 10
47.46979674476751
 20
11.12594197378749
 30
0.0
 10
45.73208423650173
 20
11.12485677345422
 30
0.0
 10
43.99491231798454
 20
10.82516677129703
 30
0.0
 10
42.80786722511597
 20
10.50992947855819
 30
0.0
 10
42.19941414510107
 20
10.23112256194599
 30
0.0
 10
42.16941191009401
 20
10.2173748615751
 30
0.0
1001
PE_URL
1000

  0
LINE
  5
B7
330
1F
100
AcDbEntity
  8
0
  6
Continuous
 62
     1
370
    15
100
AcDbLine
 10
59.625
 20
-6.676214334255899
 30
0.0
 11
59.625
 21
-4.355192762668389
 31
0.0
1001
PE_URL
1000

  0
LINE
  5
B8
330
1F
100
AcDbEntity
  8
외형선
  6
Continuous
370
    15
100
AcDbLine
 10
11.99999999999999
 20
5.32424256258802
 30
0.0
 11
12.00000000000001
 21
7.504669318647282
 31
0.0
  0
LINE
  5
B9
330
1F
100
AcDbEntity
  8
0
  6
Continuous
 62
     1
370
    15
100
AcDbLine
 10
59.625
 20
-11.11250000000001
 30
0.0
 11
59.625
 21
-11.03140709692445
 31
0.0
1001
PE_URL
1000

  0
LINE
  5
BA
330
1F
100
AcDbEntity
  8
외형선
  6
Continuous
370
    15
100
AcDbLine
 10
11.99999999999999
 20
11.10931448606458
 30
0.0
 11
12.0
 21
11.1125
 31
0.0
  0
LINE
  5
BB
330
1F
100
AcDbEntity
  8
0
  6
Continuous
 62
     1
370
    15
100
AcDbLine
 10
59.625
 20
11.03140709692445
 30
0.0
 11
59.625
 21
11.1125
 31
0.0
1001
PE_URL
1000

  0
SPLINE
  5
BC
330
1F
100
AcDbEntity
  8
0
  6
Continuous
 62
     1
370
    15
100
AcDbSpline
210
0.0
220
0.0
230
1.0
 70
     8
 71
     3
 72
    11
 73
     7
 74
     0
 42
0.000000001
 43
0.00000001
 40
0.0
 40
0.0
 40
0.0
 40
0.0
 40
0.2985833971494618
 40
0.596888197713562
 40
0.8952017339007923
 40
1.0
 40
1.0
 40
1.0
 40
1.0
 10
59.625
 20
11.03140709692445
 30
0.0
 10
59.04567654903563
 20
11.07612267920032
 30
0.0
 10
57.88757019134611
 20
11.16551212137684
 30
0.0
 10
56.15184086414064
 20
10.93980860609126
 30
0.0
 10
54.79196927340898
 20
10.61816286704261
 30
0.0
 10
54.00984099838151
 20
10.28236562513737
 30
0.0
 10
53.80650860616392
 20
10.19506734085752
 30
0.0
1001
PE_URL
1000

  0
SPLINE
  5
BD
330
1F
100
AcDbEntity
  8
0
  6
Continuous
 62
     1
370
    15
100
AcDbSpline
210
0.0
220
0.0
230
1.0
 70
     8
 71
     3
 72
    15
 73
    11
 74
     0
 42
0.000000001
 43
0.00000001
 40
0.0
 40
0.0
 40
0.0
 40
0.0
 40
0.0188208739771878
 40
0.158893154927264
 40
0.2990959359736062
 40
0.4393670771222249
 40
0.5794453510830173
 40
0.7196054896357703
 40
0.8599073136554005
 40
1.0
 40
1.0
 40
1.0
 40
1.0
 10
23.36982927664754
 20
-11.0978585088827
 30
0.0
 10
23.29848575200597
 20
-11.10262292224726
 30
0.0
 10
22.69617590562637
 20
-11.14284595714942
 30
0.0
 10
21.56354136232472
 20
-10.98807687594078
 30
0.0
 10
19.96934152467644
 20
-10.63632942705039
 30
0.0
 10
18.37444448080569
 20
-10.04189942590191
 30
0.0
 10
16.78172738012538
 20
-9.247614111201429
 30
0.0
 10
15.18807654660982
 20
-8.259560360922261
 30
0.0
 10
13.59282557853588
 20
-7.112037440314783
 30
0.0
 10
12.53067778501303
 20
-6.227173764849471
 30
0.0
 10
12.00000000000107
 20
-5.785071923470106
 30
0.0
1001
PE_URL
1000

  0
LINE
  5
BE
330
1F
100
AcDbEntity
  8
외형선
  6
Continuous
370
    15
100
AcDbLine
 10
11.99999999999999
 20
-5.785071923476577
 30
0.0
 11
12.00000000000001
 21
-3.345249154962465
 31
0.0
  0
SPLINE
  5
BF
330
1F
100
AcDbEntity
  8
0
  6
Continuous
 62
     1
370
    15
100
AcDbSpline
210
0.0
220
0.0
230
1.0
 70
     8
 71
     3
 72
    12
 73
     8
 74
     0
 42
0.000000001
 43
0.00000001
 40
0.0
 40
0.0
 40
0.0
 40
0.0
 40
0.2309914940388669
 40
0.4623278242378181
 40
0.6934305366903198
 40
0.9243982669042827
 40
1.0
 40
1.0
 40
1.0
 40
1.0
 10
12.00000000000001
 20
-10.84991847360973
 30
0.0
 10
12.53067863433626
 20
-10.94298684783083
 30
0.0
 10
13.59282812777561
 20
-11.12926253360026
 30
0.0
 10
15.18806633618312
 20
-11.12388277791284
 30
0.0
 10
16.78176561471599
 20
-10.89161243012777
 30
0.0
 10
18.01671871443987
 20
-10.57675442922392
 30
0.0
 10
18.7217063700357
 20
-10.27481925176913
 30
0.0
 10
18.8955602431473
 20
-10.20036035931549
 30
0.0
1001
PE_URL
1000

  0
SPLINE
  5
C0
330
1F
100
AcDbEntity
  8
0
  6
Continuous
 62
     1
370
    15
100
AcDbSpline
210
0.0
220
0.0
230
1.0
 70
     8
 71
     3
 72
    13
 73
     9
 74
     0
 42
0.000000001
 43
0.00000001
 40
0.0
 40
0.0
 40
0.0
 40
0.0
 40
0.156420476256524
 40
0.3251843389912878
 40
0.4939759464550771
 40
0.6626014295079401
 40
0.8312219746398188
 40
1.0
 40
1.0
 40
1.0
 40
1.0
 10
49.33116104367507
 20
11.10341491924924
 30
0.0
 10
49.86769639994802
 20
11.08461348642696
 30
0.0
 10
50.98310596364831
 20
11.04552697006594
 30
0.0
 10
52.67853157096523
 20
10.65139035364964
 30
0.0
 10
54.41612048488945
 20
10.01209903717879
 30
0.0
 10
56.15186784839695
 20
9.11911076550593
 30
0.0
 10
57.88756343801347
 20
8.017110242426408
 30
0.0
 10
59.04567429722438
 20
7.123318695557988
 30
0.0
 10
59.625
 20
6.676214334255951
 30
0.0
1001
PE_URL
1000

  0
LINE
  5
C1
330
1F
100
AcDbEntity
  8
0
  6
Continuous
 62
     1
370
    15
100
AcDbLine
 10
59.625
 20
4.355192762668592
 30
0.0
 11
59.625
 21
6.676214334255951
 31
0.0
1001
PE_URL
1000

  0
LINE
  5
C2
330
1F
100
AcDbEntity
  8
외형선
  6
Continuous
370
    15
100
AcDbLine
 10
12.0
 20
-11.11250000000001
 30
0.0
 11
12.00000000000001
 21
-10.84991847360973
 31
0.0
  0
LINE
  5
C3
330
1F
100
AcDbEntity
  8
0
  6
Continuous
 62
     1
370
    15
100
AcDbLine
 10
59.625
 20
6.651782890711518
 30
0.0
 11
59.625
 21
11.03140709692445
 31
0.0
1001
PE_URL
1000

  0
SPLINE
  5
C4
330
1F
100
AcDbEntity
  8
외형선
  6
Continuous
370
    15
100
AcDbSpline
210
0.0
220
0.0
230
1.0
 70
    24
 71
     3
 72
    16
 73
    12
 74
     0
 42
0.000000001
 43
0.00000001
 40
0.0
 40
0.0
 40
0.0
 40
0.0
 40
0.0036188997373751
 40
0.1422646364749551
 40
0.2809103732125368
 40
0.4195561099501183
 40
0.5582018466876971
 40
0.696847583425276
 40
0.8354933201628537
 40
0.974139056900431
 40
1.0
 40
1.0
 40
1.0
 40
1.0
 10
12.00000000000001
 20
-5.861558699284777
 30
0.0
 10
12.00000000000002
 20
-5.865717032285594
 30
0.0
 10
12.00000000000015
 20
-6.029187638169851
 30
0.0
 10
11.99999999999998
 20
-6.436687378734147
 30
0.0
 10
12.00000000000003
 20
-7.073894629862201
 30
0.0
 10
12.00000000000003
 20
-7.776945216219618
 30
0.0
 10
12.00000000000001
 20
-8.513590718616733
 30
0.0
 10
12.00000000000001
 20
-9.265813996664427
 30
0.0
 10
12.00000000000001
 20
-10.01085189442644
 30
0.0
 10
12.00000000000001
 20
-10.53547687084737
 30
0.0
 10
12.00000000000001
 20
-10.80720240523776
 30
0.0
 10
12.00000000000001
 20
-10.84991847360973
 30
0.0
  0
LINE
  5
C5
330
1F
100
AcDbEntity
  8
외형선
  6
Continuous
370
    15
100
AcDbLine
 10
10.99972247116718
 20
-11.1125
 30
0.0
 11
10.99972247116718
 21
-11.08830544989891
 31
0.0
  0
SPLINE
  5
C6
330
1F
100
AcDbEntity
  8
외형선
  6
Continuous
370
    15
100
AcDbSpline
210
0.0
220
0.0
230
1.0
 70
     8
 71
     3
 72
     8
 73
     4
 74
     0
 42
0.000000001
 43
0.00000001
 40
0.0
 40
0.0
 40
0.0
 40
0.0
 40
1.0
 40
1.0
 40
1.0
 40
1.0
 10
12.00000000000001
 20
11.10931448605399
 30
0.0
 10
11.66607435586755
 20
11.1172951056289
 30
0.0
 10
11.33197547853472
 20
11.11025371228593
 30
0.0
 10
10.99972247116717
 20
11.08830789340961
 30
0.0
  0
LINE
  5
C7
330
1F
100
AcDbEntity
  8
외형선
  6
Continuous
370
    15
100
AcDbLine
 10
10.99972247116718
 20
8.210437341908765
 30
0.0
 11
10.99972247116718
 21
11.1125
 31
0.0
  0
SPLINE
  5
C8
330
1F
100
AcDbEntity
  8
외형선
  6
Continuous
370
    15
100
AcDbSpline
210
0.0
220
0.0
230
1.0
 70
     8
 71
     3
 72
     8
 73
     4
 74
     0
 42
0.000000001
 43
0.00000001
 40
0.0
 40
0.0
 40
0.0
 40
0.0
 40
1.0
 40
1.0
 40
1.0
 40
1.0
 10
12.00000000000001
 20
7.504669318647276
 30
0.0
 10
11.66607435586755
 20
7.750500514013017
 30
0.0
 10
11.33197547853473
 20
7.986224278611586
 30
0.0
 10
10.99972247116718
 20
8.210467140749405
 30
0.0
  0
SPLINE
  5
C9
330
1F
100
AcDbEntity
  8
외형선
  6
Continuous
370
    15
100
AcDbSpline
210
0.0
220
0.0
230
1.0
 70
     8
 71
     3
 72
     8
 73
     4
 74
     0
 42
0.000000001
 43
0.00000001
 40
0.0
 40
0.0
 40
0.0
 40
0.0
 40
1.0
 40
1.0
 40
1.0
 40
1.0
 10
12.00000000000001
 20
5.324242562584808
 30
0.0
 10
11.66607435586755
 20
5.616818692342112
 30
0.0
 10
11.33197547853472
 20
5.902243877802884
 30
0.0
 10
10.99972247116717
 20
6.178829638072156
 30
0.0
  0
SPLINE
  5
CA
330
1F
100
AcDbEntity
  8
외형선
  6
Continuous
370
    15
100
AcDbSpline
210
0.0
220
0.0
230
1.0
 70
     8
 71
     3
 72
     8
 73
     4
 74
     0
 42
0.000000001
 43
0.00000001
 40
0.0
 40
0.0
 40
0.0
 40
0.0
 40
1.0
 40
1.0
 40
1.0
 40
1.0
 10
12.00000000000001
 20
-3.345249154962465
 30
0.0
 10
11.66607435586755
 20
-3.027385331478344
 30
0.0
 10
11.33197547853473
 20
-2.704944274239485
 30
0.0
 10
10.99972247116718
 20
-2.379896666213156
 30
0.0
  0
SPLINE
  5
CB
330
1F
100
AcDbEntity
  8
외형선
  6
Continuous
370
    15
100
AcDbSpline
210
0.0
220
0.0
230
1.0
 70
     8
 71
     3
 72
     8
 73
     4
 74
     0
 42
0.000000001
 43
0.00000001
 40
0.0
 40
0.0
 40
0.0
 40
0.0
 40
1.0
 40
1.0
 40
1.0
 40
1.0
 10
12.00000000000001
 20
-5.785071923469204
 30
0.0
 10
11.66607435586755
 20
-5.500476413286819
 30
0.0
 10
11.33197547853472
 20
-5.20800983448307
 30
0.0
 10
10.99972247116717
 20
-4.909478255337477
 30
0.0
  0
LINE
  5
CC
330
1F
100
AcDbEntity
  8
외형선
  6
Continuous
370
    15
100
AcDbLine
 10
10.99972247116718
 20
-10.59037720243554
 30
0.0
 11
10.99972247116718
 21
-4.909445016782461
 31
0.0
  0
SPLINE
  5
CD
330
1F
100
AcDbEntity
  8
외형선
  6
Continuous
370
    15
100
AcDbSpline
210
0.0
220
0.0
230
1.0
 70
     8
 71
     3
 72
     8
 73
     4
 74
     0
 42
0.000000001
 43
0.00000001
 40
0.0
 40
0.0
 40
0.0
 40
0.0
 40
1.0
 40
1.0
 40
1.0
 40
1.0
 10
12.00000000000001
 20
-10.84991847360973
 30
0.0
 10
11.66607435586755
 20
-10.77788584549135
 30
0.0
 10
11.33197547853473
 20
-10.69116855285106
 30
0.0
 10
10.99972247116718
 20
-10.59036380696255
 30
0.0
  0
LINE
  5
CE
330
1F
100
AcDbEntity
  8
외형선
  6
Continuous
370
    15
100
AcDbLine
 10
11.7337633730376
 20
-11.103723313396
 30
0.0
 11
10.99972247116717
 21
-11.08830789340961
 31
0.0
  0
LINE
  5
CF
330
1F
100
AcDbEntity
  8
외형선
  6
Continuous
370
    15
100
AcDbLine
 10
-42.92750000000001
 20
-0.0000000000000029
 30
0.0
 11
-42.92750000000001
 21
11.1125
 31
0.0
  0
LINE
  5
D0
330
1F
100
AcDbEntity
  8
외형선
  6
Continuous
370
    15
100
AcDbLine
 10
-42.92750000000001
 20
-11.1125
 30
0.0
 11
-42.92750000000001
 21
-0.0000000000000029
 31
0.0
  0
LINE
  5
D1
330
1F
100
AcDbEntity
  8
외형선
  6
Continuous
370
    15
100
AcDbLine
 10
10.99972247116718
 20
-2.379939860526783
 30
0.0
 11
10.99972247116718
 21
6.178860433116474
 31
0.0
  0
LINE
  5
D2
330
1F
100
AcDbEntity
  8
외형선
  6
Continuous
370
    15
100
AcDbLine
 10
-45.15000000000001
 20
-0.0000000000000029
 30
0.0
 11
-45.15000000000001
 21
8.890000000000008
 31
0.0
  0
LINE
  5
D3
330
1F
100
AcDbEntity
  8
외형선
  6
Continuous
370
    15
100
AcDbLine
 10
-45.15000000000001
 20
-8.890000000000015
 30
0.0
 11
-45.15000000000001
 21
-0.0000000000000029
 31
0.0
  0
SPLINE
  5
D4
330
1F
100
AcDbEntity
  8
외형선
  6
Continuous
370
    15
100
AcDbSpline
210
0.0
220
0.0
230
1.0
 70
    24
 71
     3
 72
    28
 73
    24
 74
     0
 42
0.000000001
 43
0.00000001
 40
0.0
 40
0.0
 40
0.0
 40
0.0
 40
0.1250000000000004
 40
0.1250000000000004
 40
0.1875000000000004
 40
0.1875000000000004
 40
0.2500000000000004
 40
0.2500000000000004
 40
0.3125000000000005
 40
0.3125000000000005
 40
0.3750000000000006
 40
0.3750000000000006
 40
0.5000000000000006
 40
0.5000000000000006
 40
0.6250000000000007
 40
0.6250000000000007
 40
0.7500000000000007
 40
0.7500000000000007
 40
0.8125000000000006
 40
0.8125000000000006
 40
0.8750000000000004
 40
0.8750000000000004
 40
1.0
 40
1.0
 40
1.0
 40
1.0
 10
12.00000000000001
 20
-3.345249154962423
 30
0.0
 10
12.00000000000003
 20
-3.289717398317814
 30
0.0
 10
12.00000000000001
 20
-3.131107968168726
 30
0.0
 10
12.0
 20
-2.701634704515796
 30
0.0
 10
12.00000000000002
 20
-2.527218960361135
 30
0.0
 10
12.00000000000001
 20
-2.120867056213417
 30
0.0
 10
12.0
 20
-1.888964182507859
 30
0.0
 10
12.00000000000001
 20
-1.38134134825771
 30
0.0
 10
12.00000000000001
 20
-1.105749189887163
 30
0.0
 10
11.99999999999999
 20
-0.5308073299437414
 30
0.0
 10
11.99999999999999
 20
-0.2316240099397558
 30
0.0
 10
12.00000000000002
 20
0.6689460890829365
 30
0.0
 10
12.0
 20
1.270007694569189
 30
0.0
 10
12.0
 20
2.348340446287025
 30
0.0
 10
11.99999999999999
 20
2.82598169759889
 30
0.0
 10
12.00000000000001
 20
3.627989116570245
 30
0.0
 10
12.00000000000001
 20
3.954151831665271
 30
0.0
 10
12.00000000000001
 20
4.349858606824805
 30
0.0
 10
11.99999999999999
 20
4.466418303012759
 30
0.0
 10
12.0
 20
4.673460359324179
 30
0.0
 10
11.99999999999999
 20
4.763216082874088
 30
0.0
 10
12.00000000000001
 20
5.033026288280992
 30
0.0
 10
12.00000000000001
 20
5.200276809650632
 30
0.0
 10
12.0
 20
5.324242562584824
 30
0.0
  0
SPLINE
  5
D5
330
1F
100
AcDbEntity
  8
외형선
  6
Continuous
370
    15
100
AcDbSpline
210
0.0
220
0.0
230
1.0
 70
    24
 71
     3
 72
    14
 73
    10
 74
     0
 42
0.000000001
 43
0.00000001
 40
0.0
 40
0.0
 40
0.0
 40
0.0
 40
0.1947434323930078
 40
0.3332347103080587
 40
0.4717259882231096
 40
0.6102172661381221
 40
0.7487085440531344
 40
0.887199821968222
 40
1.0
 40
1.0
 40
1.0
 40
1.0
 10
12.00000000000001
 20
-10.84991847360973
 30
0.0
 10
12.00000000000001
 20
-10.51879554511617
 30
0.0
 10
12.00000000000001
 20
-9.952195420033501
 30
0.0
 10
11.99999999999999
 20
-9.098253369687018
 30
0.0
 10
11.99999999999999
 20
-8.348608242902149
 30
0.0
 10
12.00000000000002
 20
-7.61727207183948
 30
0.0
 10
12.00000000000004
 20
-6.928423182378337
 30
0.0
 10
11.99999999999999
 20
-6.330296595337834
 30
0.0
 10
11.99999999999999
 20
-6.006772706628785
 30
0.0
 10
11.99999999999999
 20
-5.861548699284779
 30
0.0
  0
SPLINE
  5
D6
330
1F
100
AcDbEntity
  8
외형선
  6
Continuous
370
    15
100
AcDbSpline
210
0.0
220
0.0
230
1.0
 70
    24
 71
     3
 72
    13
 73
     9
 74
     0
 42
0.000000001
 43
0.00000001
 40
0.0
 40
0.0
 40
0.0
 40
0.0
 40
0.0224365700187576
 40
0.2248606546327113
 40
0.4272847392466644
 40
0.6297088238607454
 40
0.8321329084748275
 40
0.9999999999999999
 40
0.9999999999999999
 40
0.9999999999999999
 40
0.9999999999999999
 10
12.00000000000001
 20
7.581146094455483
 30
0.0
 10
12.00000000000001
 20
7.602637225050284
 30
0.0
 10
12.00000000000002
 20
7.818022628893385
 30
0.0
 10
12.00000000000001
 20
8.298033989205095
 30
0.0
 10
12.00000000000002
 20
9.001829489864658
 30
0.0
 10
12.0
 20
9.745203339706716
 30
0.0
 10
11.99999999999997
 20
10.45581507437544
 30
0.0
 10
12.0
 20
10.9054691636956
 30
0.0
 10
12.00000000000002
 20
11.109314486054
 30
0.0
  0
LINE
  5
D7
330
1F
100
AcDbEntity
  8
중심선
 62
     1
100
AcDbLine
 10
-52.15000000000001
 20
-0.0000000000000087
 30
0.0
 11
66.62500000000001
 21
0.0000000000000049
 31
0.0
  0
LINE
  5
D8
330
1F
100
AcDbEntity
  8
참조1
100
AcDbLine
 10
7.237500000000004
 20
-0.0000000000000086
 30
0.0
 11
7.237500000000006
 21
-40.00000000000001
 31
0.0
  0
LINE
  5
D9
330
1F
100
AcDbEntity
  8
참조1
100
AcDbLine
 10
7.237500000000006
 20
-40.00000000000001
 30
0.0
 11
-12.68385681430868
 21
-40.0
 31
0.0
  0
CIRCLE
  5
DA
330
1F
100
AcDbEntity
  8
해칭선
100
AcDbCircle
 10
0.0
 20
0.0
 30
0.0
 40
3.000000000000001
  0
INSERT
  5
DB
330
1F
100
AcDbEntity
  8
0
  6
Continuous
 62
     7
100
AcDbBlockReference
 66
     1
  2
블럭10
 10
-6.702772932125203
 20
-52.04717430164393
 30
0.0
  0
ATTRIB
  5
DC
330
DB
100
AcDbEntity
  8
FORMAT
 62
     2
100
AcDbText
 10
-15.88406822086648
 20
-49.97180738881174
 30
0.0
 40
4.233333333333333
  1
E2042056 [ 6 FLUTE ]
 41
0.75
  7
SLDTEXTSTYLE0
 11
-15.88406822086648
 21
-52.08847405547841
 31
0.0
100
AcDbAttribute
  2
AUTOATTR0
 70
     0
 74
     1
  0
SEQEND
  5
DD
330
DB
100
AcDbEntity
  8
0
  6
Continuous
 62
     7
  0
HATCH
  5
DE
330
1F
100
AcDbEntity
  8
중심선
100
AcDbHatch
 10
0.0
 20
0.0
 30
0.0
210
0.0
220
0.0
230
1.0
  2
SOLID
 70
     1
 71
     0
 91
        1
 92
        0
 93
        4
 72
     1
 10
-0.9878636277443666
 20
-35.8
 11
-4.434138871581649
 21
-35.8
 72
     1
 10
-4.434138871581649
 20
-35.8
 11
-6.562368730785671
 21
-38.3363255805726
 72
     1
 10
-6.562368730785671
 20
-38.3363255805726
 11
-3.11606040183524
 21
-38.33628615127011
 72
     1
 10
-3.11606040183524
 20
-38.33628615127011
 11
-0.9878636277443666
 21
-35.8
 97
        0
 75
     0
 76
     1
 98
        1
 10
-3.175000000000043
 20
-0.0010749287238978
  0
HATCH
  5
DF
330
1F
100
AcDbEntity
  8
중심선
100
AcDbHatch
 10
0.0
 20
0.0
 30
0.0
210
0.0
220
0.0
230
1.0
  2
SOLID
 70
     1
 71
     0
 91
        1
 92
        0
 93
        4
 72
     1
 10
4.024900363291612
 20
-35.8
 11
0.5786251194543302
 21
-35.8
 72
     1
 10
0.5786251194543302
 20
-35.8
 11
-3.952512888903086
 21
-41.20000000000002
 72
     1
 10
-3.952512888903086
 20
-41.20000000000002
 11
-0.5062376450658035
 21
-41.20000000000002
 72
     1
 10
-0.5062376450658035
 20
-41.20000000000002
 11
4.024900363291611
 21
-35.8
 97
        0
 75
     0
 76
     1
 98
        1
 10
-3.175000000000043
 20
-0.0010749287238978
  0
HATCH
  5
E0
330
1F
100
AcDbEntity
  8
중심선
100
AcDbHatch
 10
0.0
 20
0.0
 30
0.0
210
0.0
220
0.0
230
1.0
  2
SOLID
 70
     1
 71
     0
 91
        1
 92
        0
 93
        4
 72
     1
 10
9.037664354327507
 20
-35.8
 11
5.591389110490393
 21
-35.8
 72
     1
 10
5.591389110490393
 20
-35.8
 11
-1.457047791398884
 21
-44.20000000000002
 72
     1
 10
-1.457047791398884
 20
-44.20000000000002
 11
1.989227452438397
 21
-44.20000000000002
 72
     1
 10
1.989227452438397
 20
-44.20000000000002
 11
9.037664354327507
 21
-35.8
 97
        0
 75
     0
 76
     1
 98
        1
 10
-3.175000000000043
 20
-0.0010749287238978
  0
HATCH
  5
E1
330
1F
100
AcDbEntity
  8
중심선
100
AcDbHatch
 10
0.0
 20
0.0
 30
0.0
210
0.0
220
0.0
230
1.0
  2
SOLID
 70
     1
 71
     0
 91
        1
 92
        0
 93
        6
 72
     3
 10
13.83755478533968
 20
-40.00000000005127
 11
3.960054785062283
 21
1.540882976769353E-10
 40
0.3939339440162628
 50
17.09539180608436
 51
320.0019657685075
 73
     0
 72
     1
 10
15.52055444104028
 20
-38.58789400463827
 11
17.82585631474134
 21
-36.65356729459038
 72
     3
 10
13.83755478528683
 20
-40.00000000000015
 11
6.600054785286829
 21
-1.278976924368180E-13
 40
0.636358354079598
 50
39.99873849337385
 51
368.4976242363724
 73
     1
 72
     1
 10
20.26288727718744
 20
-39.03999999993002
 11
12.51762209212276
 21
-39.03999999993002
 72
     1
 10
12.51762209212276
 20
-39.03999999993002
 11
12.51759704767682
 21
-40.95999999992991
 72
     1
 10
12.51759704767682
 20
-40.95999999992991
 11
16.95897681714886
 21
-40.95999999992988
 97
        0
 75
     0
 76
     1
 98
        1
 10
-3.175000000000043
 20
-0.0010749287238978
  0
DIMENSION
  5
E2
330
1F
100
AcDbEntity
  8
치수문자_일반주서
100
AcDbDimension
  2
_D
 10
-60.14999999999993
 20
-11.11250000000006
 30
0.0
 11
-60.15000000000009
 21
34.09149999999994
 31
0.0
 70
   160
  1
%%c<>
 71
     2
 42
22.22499999999999
 52
-270.0
  3
SLDDIMSTYLE0
100
AcDbAlignedDimension
 13
-42.92750000000002
 23
11.11249999999999
 33
0.0
 14
-42.92750000000002
 24
-11.1125
 34
0.0
 50
90.0000000000002
100
AcDbRotatedDimension
1001
PE_URL
1000

1001
ACAD
1000
DSTYLE
1002
{
1070
   171
1070
     8
1070
   273
1070
     7
1070
   140
1040
4.0
1002
}
  0
DIMENSION
  5
F7
330
1F
100
AcDbEntity
  8
치수문자_일반주서
100
AcDbDimension
  2
_D_1
 10
12.00000000000002
 20
26.1125
 30
0.0
 11
35.81250000000001
 21
26.1125
 31
0.0
 70
   160
  1
<>
 71
     2
 42
47.62499999999998
  3
SLDDIMSTYLE0
100
AcDbAlignedDimension
 13
59.625
 23
11.03140709692445
 33
0.0
 14
12.00000000000002
 24
11.109314486054
 34
0.0
 50
-0.0000000000000513
100
AcDbRotatedDimension
1001
PE_URL
1000

1001
ACAD
1000
DSTYLE
1002
{
1070
   171
1070
     8
1070
   273
1070
     7
1070
   140
1040
4.0
1002
}
  0
DIMENSION
  5
10B
330
1F
100
AcDbEntity
  8
치수문자_일반주서
100
AcDbDimension
  2
_D_2
 10
-45.15000000000001
 20
41.1125
 30
0.0
 11
7.237499999999997
 21
41.1125
 31
0.0
 70
   160
  1
<>
 71
     2
 42
104.775
  3
SLDDIMSTYLE0
100
AcDbAlignedDimension
 13
59.625
 23
11.03140709692445
 33
0.0
 14
-45.15000000000001
 24
8.890000000000008
 34
0.0
 50
-0.0000000000000039
100
AcDbRotatedDimension
1001
PE_URL
1000

1001
ACAD
1000
DSTYLE
1002
{
1070
   171
1070
     8
1070
   273
1070
     7
1070
   140
1040
4.0
1002
}
  0
DIMENSION
  5
11E
330
1F
100
AcDbEntity
  8
치수문자_일반주서
100
AcDbDimension
  2
_D_3
 10
74.62500000000006
 20
-11.11249999999995
 30
0.0
 11
74.62499999999991
 21
34.09150000000005
 31
0.0
 70
   160
  1
%%c<>
 71
     2
 42
22.22500000000001
 52
-270.0
  3
SLDDIMSTYLE0
100
AcDbAlignedDimension
 13
59.625
 23
11.1125
 33
0.0
 14
59.625
 24
-11.11250000000001
 34
0.0
 50
90.0000000000002
100
AcDbRotatedDimension
1001
PE_URL
1000

1001
ACAD
1000
DSTYLE
1002
{
1070
   171
1070
     8
1070
   273
1070
     7
1070
   140
1040
4.0
1002
}
  0
LINE
  5
131
330
1F
100
AcDbEntity
  8
참조1
100
AcDbLine
 10
85.2884838153456
 20
7.439999999999998
 30
0.0
 11
85.2884838153456
 21
-7.440000000000007
 31
0.0
  0
LINE
  5
132
330
1F
100
AcDbEntity
  8
참조1
100
AcDbLine
 10
97.9884838153456
 20
5.439999999999998
 30
0.0
 11
85.2884838153456
 21
5.439999999999998
 31
0.0
  0
SOLID
  5
133
330
1F
100
AcDbEntity
  8
참조1
100
AcDbTrace
 10
85.2884838153456
 20
5.439999999999998
 30
0.0
 11
91.6384838153456
 21
4.423999999999998
 31
0.0
 12
91.6384838153456
 22
6.455999999999998
 32
0.0
 13
91.6384838153456
 23
6.455999999999998
 33
0.0
  0
LINE
  5
134
330
1F
100
AcDbEntity
  8
참조1
100
AcDbLine
 10
97.9884838153456
 20
-5.440000000000007
 30
0.0
 11
85.2884838153456
 21
-5.440000000000007
 31
0.0
  0
SOLID
  5
135
330
1F
100
AcDbEntity
  8
참조1
100
AcDbTrace
 10
85.2884838153456
 20
-5.440000000000007
 30
0.0
 11
91.6384838153456
 21
-6.456000000000007
 31
0.0
 12
91.6384838153456
 22
-4.424000000000007
 32
0.0
 13
91.6384838153456
 23
-4.424000000000007
 33
0.0
  0
MTEXT
  5
136
330
1F
100
AcDbEntity
  8
참조1
100
AcDbMText
 10
94.68597390781586
 20
10.98821664464993
 30
0.0
 40
3.5
 41
0.0
 71
     1
 72
     1
  1
A
  7
SLDTEXTSTYLE0
 73
     1
 44
1.0
  0
MTEXT
  5
137
330
1F
100
AcDbEntity
  8
참조1
100
AcDbMText
 10
94.68597390781586
 20
0.1082166446499273
 30
0.0
 40
3.5
 41
0.0
 71
     1
 72
     1
  1
A
  7
SLDTEXTSTYLE0
 73
     1
 44
1.0
  0
INSERT
  5
13E
330
1F
100
AcDbEntity
  8
해칭선
100
AcDbBlockReference
  2
SW_DOWELSYMBOL_0
 10
0.0
 20
0.0
 30
0.0
  0
LINE
  5
1E6
330
1F
100
AcDbEntity
  8
외형선
  6
Continuous
370
    15
100
AcDbLine
 10
-25.14432499999998
 20
9.207499999999985
 30
0.0
 11
-13.56192499999997
 21
9.207499999999985
 31
0.0
1001
PE_URL
1000

  0
LINE
  5
1E7
330
1F
100
AcDbEntity
  8
외형선
  6
Continuous
370
    15
100
AcDbLine
 10
-25.14432499999998
 20
9.207499999999971
 30
0.0
 11
-27.04932500000012
 21
11.1125
 31
0.0
1001
PE_URL
1000

  0
LINE
  5
1E8
330
1F
100
AcDbEntity
  8
외형선
  6
Continuous
370
    15
100
AcDbLine
 10
-13.56192499999997
 20
9.207499999999971
 30
0.0
 11
-11.656925
 21
11.1125
 31
0.0
1001
PE_URL
1000

  0
LINE
  5
1EB
330
1F
100
AcDbEntity
  8
외형선
  6
Continuous
370
    15
100
AcDbLine
 10
-27.04932500000011
 20
11.1125
 30
0.0
 11
-42.92750000000001
 21
11.1125
 31
0.0
  0
ENDSEC
  0
SECTION
  2
OBJECTS
  0
DICTIONARY
  5
C
330
0
100
AcDbDictionary
281
     1
  3
ACAD_GROUP
350
D
  3
ACAD_IMAGE_VARS
350
231
  3
ACAD_LAYOUT
350
1A
  3
ACAD_MLINESTYLE
350
17
  3
ACAD_PLOTSETTINGS
350
19
  3
ACAD_PLOTSTYLENAME
350
E
  3
ACAD_SCALELIST
350
47
  3
APPDATA
350
160
  3
DWGPROPS
350
232
  0
DICTIONARY
  5
196
330
2
100
AcDbDictionary
280
     1
281
     1
  3
ACAD_LAYERSTATES
360
197
  0
DICTIONARY
  5
D
102
{ACAD_REACTORS
330
C
102
}
330
C
100
AcDbDictionary
281
     1
  0
RASTERVARIABLES
  5
231
102
{ACAD_REACTORS
330
C
102
}
330
C
100
AcDbRasterVariables
 90
        0
 70
     1
 71
     1
 72
     1
  0
DICTIONARY
  5
1A
102
{ACAD_REACTORS
330
C
102
}
330
C
100
AcDbDictionary
281
     1
  3
Layout1
350
1E
  3
Layout2
350
26
  3
Model
350
22
  0
DICTIONARY
  5
17
102
{ACAD_REACTORS
330
C
102
}
330
C
100
AcDbDictionary
281
     1
  3
Standard
350
18
  0
DICTIONARY
  5
19
102
{ACAD_REACTORS
330
C
102
}
330
C
100
AcDbDictionary
281
     1
  0
ACDBDICTIONARYWDFLT
  5
E
102
{ACAD_REACTORS
330
C
102
}
330
C
100
AcDbDictionary
281
     1
  3
Normal
350
F
100
AcDbDictionaryWithDefault
340
F
  0
DICTIONARY
  5
47
102
{ACAD_REACTORS
330
C
102
}
330
C
100
AcDbDictionary
281
     1
  3
A0
350
48
  3
A1
350
49
  3
A2
350
4A
  3
A3
350
4B
  3
A4
350
4C
  3
A5
350
4D
  3
A6
350
4E
  3
A7
350
4F
  3
A8
350
50
  3
A9
350
51
  3
B0
350
52
  3
B1
350
53
  3
B2
350
54
  3
B3
350
55
  3
B4
350
56
  3
B5
350
57
  3
B6
350
58
  3
B7
350
59
  3
B8
350
5A
  3
B9
350
5B
  3
C0
350
5C
  3
C1
350
5D
  3
C2
350
5E
  3
C3
350
5F
  3
C4
350
60
  3
C5
350
61
  3
C6
350
62
  3
C7
350
63
  3
C8
350
64
  3
C9
350
65
  3
D0
350
66
  3
D1
350
67
  3
D2
350
68
  0
DICTIONARY
  5
160
102
{ACAD_REACTORS
330
C
102
}
330
C
100
AcDbDictionary
281
     1
  0
XRECORD
  5
232
102
{ACAD_REACTORS
330
C
102
}
330
C
100
AcDbXrecord
280
     1
  1
DWGPROPS COOKIE
  2

  3

  4

  6

  7

  8
12016016
  9

300
=
301
=
302
=
303
=
304
=
305
=
306
=
307
=
308
=
309
=
 40
0.0
 41
2458323.062932616
 42
2458330.391450544
  1

 90
        0
  0
DICTIONARY
  5
197
102
{ACAD_REACTORS
330
196
102
}
330
196
100
AcDbDictionary
281
     1
  0
LAYOUT
  5
1E
102
{ACAD_REACTORS
330
1A
102
}
330
1A
100
AcDbPlotSettings
  1

  2
none_device
  4

  6

 40
0.0
 41
0.0
 42
0.0
 43
0.0
 44
0.0
 45
0.0
 46
0.0
 47
0.0
 48
0.0
 49
0.0
140
0.0
141
0.0
142
1.0
143
1.0
 70
   688
 72
     1
 73
     0
 74
     5
  7

 75
    16
147
1.0
148
0.0
149
0.0
100
AcDbLayout
  1
Layout1
 70
     1
 71
     1
 10
0.0
 20
0.0
 11
420.0
 21
297.0
 12
0.0
 22
0.0
 32
0.0
 14
1.000000000000000E+20
 24
1.000000000000000E+20
 34
1.000000000000000E+20
 15
-1.000000000000000E+20
 25
-1.000000000000000E+20
 35
-1.000000000000000E+20
146
0.0
 13
0.0
 23
0.0
 33
0.0
 16
1.0
 26
0.0
 36
0.0
 17
0.0
 27
1.0
 37
0.0
 76
     0
330
1B
  0
LAYOUT
  5
26
102
{ACAD_REACTORS
330
1A
102
}
330
1A
100
AcDbPlotSettings
  1

  2
none_device
  4

  6

 40
0.0
 41
0.0
 42
0.0
 43
0.0
 44
0.0
 45
0.0
 46
0.0
 47
0.0
 48
0.0
 49
0.0
140
0.0
141
0.0
142
1.0
143
1.0
 70
   688
 72
     1
 73
     0
 74
     5
  7

 75
    16
147
1.0
148
0.0
149
0.0
100
AcDbLayout
  1
Layout2
 70
     1
 71
     2
 10
0.0
 20
0.0
 11
0.0
 21
0.0
 12
0.0
 22
0.0
 32
0.0
 14
0.0
 24
0.0
 34
0.0
 15
0.0
 25
0.0
 35
0.0
146
0.0
 13
0.0
 23
0.0
 33
0.0
 16
1.0
 26
0.0
 36
0.0
 17
0.0
 27
1.0
 37
0.0
 76
     0
330
23
  0
LAYOUT
  5
22
102
{ACAD_REACTORS
330
1A
102
}
330
1A
100
AcDbPlotSettings
  1

  2
none_device
  4
ANSI_A_(11.00_x_8.50_Inches)
  6

 40
6.35
 41
19.05
 42
6.35000508
 43
19.05000254
 44
279.4
 45
215.9
 46
64.5918642697097
 47
85.88329014718872
 48
0.0
 49
0.0
140
0.0
141
0.0
142
0.0420369375672449
143
1.0
 70
  1696
 72
     0
 73
     0
 74
     0
  7

 75
     0
147
0.0235690232323232
148
0.0
149
0.0
100
AcDbLayout
  1
Model
 70
     1
 71
     0
 10
0.0
 20
0.0
 11
420.0
 21
297.0
 12
0.0
 22
0.0
 32
0.0
 14
-65.02500000000015
 24
-49.97180738881175
 34
0.0
 15
97.9884838153456
 25
50.46650000000005
 35
0.0
146
0.0
 13
0.0
 23
0.0
 33
0.0
 16
1.0
 26
0.0
 36
0.0
 17
0.0
 27
1.0
 37
0.0
 76
     0
330
1F
331
29
  0
MLINESTYLE
  5
18
102
{ACAD_REACTORS
330
17
102
}
330
17
100
AcDbMlineStyle
  2
Standard
 70
     0
  3

 62
   256
 51
90.0
 52
90.0
 71
     2
 49
0.5
 62
   256
  6
BYLAYER
 49
-0.5
 62
   256
  6
BYLAYER
  0
ACDBPLACEHOLDER
  5
F
102
{ACAD_REACTORS
330
E
102
}
330
E
  0
SCALE
  5
48
102
{ACAD_REACTORS
330
47
102
}
330
47
100
AcDbScale
 70
     0
300
1:1
140
1.0
141
1.0
290
     1
  0
SCALE
  5
49
102
{ACAD_REACTORS
330
47
102
}
330
47
100
AcDbScale
 70
     0
300
1:2
140
1.0
141
2.0
290
     0
  0
SCALE
  5
4A
102
{ACAD_REACTORS
330
47
102
}
330
47
100
AcDbScale
 70
     0
300
1:4
140
1.0
141
4.0
290
     0
  0
SCALE
  5
4B
102
{ACAD_REACTORS
330
47
102
}
330
47
100
AcDbScale
 70
     0
300
1:5
140
1.0
141
5.0
290
     0
  0
SCALE
  5
4C
102
{ACAD_REACTORS
330
47
102
}
330
47
100
AcDbScale
 70
     0
300
1:8
140
1.0
141
8.0
290
     0
  0
SCALE
  5
4D
102
{ACAD_REACTORS
330
47
102
}
330
47
100
AcDbScale
 70
     0
300
1:10
140
1.0
141
10.0
290
     0
  0
SCALE
  5
4E
102
{ACAD_REACTORS
330
47
102
}
330
47
100
AcDbScale
 70
     0
300
1:16
140
1.0
141
16.0
290
     0
  0
SCALE
  5
4F
102
{ACAD_REACTORS
330
47
102
}
330
47
100
AcDbScale
 70
     0
300
1:20
140
1.0
141
20.0
290
     0
  0
SCALE
  5
50
102
{ACAD_REACTORS
330
47
102
}
330
47
100
AcDbScale
 70
     0
300
1:30
140
1.0
141
30.0
290
     0
  0
SCALE
  5
51
102
{ACAD_REACTORS
330
47
102
}
330
47
100
AcDbScale
 70
     0
300
1:40
140
1.0
141
40.0
290
     0
  0
SCALE
  5
52
102
{ACAD_REACTORS
330
47
102
}
330
47
100
AcDbScale
 70
     0
300
1:50
140
1.0
141
50.0
290
     0
  0
SCALE
  5
53
102
{ACAD_REACTORS
330
47
102
}
330
47
100
AcDbScale
 70
     0
300
1:100
140
1.0
141
100.0
290
     0
  0
SCALE
  5
54
102
{ACAD_REACTORS
330
47
102
}
330
47
100
AcDbScale
 70
     0
300
2:1
140
2.0
141
1.0
290
     0
  0
SCALE
  5
55
102
{ACAD_REACTORS
330
47
102
}
330
47
100
AcDbScale
 70
     0
300
4:1
140
4.0
141
1.0
290
     0
  0
SCALE
  5
56
102
{ACAD_REACTORS
330
47
102
}
330
47
100
AcDbScale
 70
     0
300
8:1
140
8.0
141
1.0
290
     0
  0
SCALE
  5
57
102
{ACAD_REACTORS
330
47
102
}
330
47
100
AcDbScale
 70
     0
300
10:1
140
10.0
141
1.0
290
     0
  0
SCALE
  5
58
102
{ACAD_REACTORS
330
47
102
}
330
47
100
AcDbScale
 70
     0
300
100:1
140
100.0
141
1.0
290
     0
  0
SCALE
  5
59
102
{ACAD_REACTORS
330
47
102
}
330
47
100
AcDbScale
 70
     0
300
1/128" = 1'-0"
140
0.0078125
141
12.0
290
     0
  0
SCALE
  5
5A
102
{ACAD_REACTORS
330
47
102
}
330
47
100
AcDbScale
 70
     0
300
1/64" = 1'-0"
140
0.015625
141
12.0
290
     0
  0
SCALE
  5
5B
102
{ACAD_REACTORS
330
47
102
}
330
47
100
AcDbScale
 70
     0
300
1/32" = 1'-0"
140
0.03125
141
12.0
290
     0
  0
SCALE
  5
5C
102
{ACAD_REACTORS
330
47
102
}
330
47
100
AcDbScale
 70
     0
300
1/16" = 1'-0"
140
0.0625
141
12.0
290
     0
  0
SCALE
  5
5D
102
{ACAD_REACTORS
330
47
102
}
330
47
100
AcDbScale
 70
     0
300
3/32" = 1'-0"
140
0.09375
141
12.0
290
     0
  0
SCALE
  5
5E
102
{ACAD_REACTORS
330
47
102
}
330
47
100
AcDbScale
 70
     0
300
1/8" = 1'-0"
140
0.125
141
12.0
290
     0
  0
SCALE
  5
5F
102
{ACAD_REACTORS
330
47
102
}
330
47
100
AcDbScale
 70
     0
300
3/16" = 1'-0"
140
0.1875
141
12.0
290
     0
  0
SCALE
  5
60
102
{ACAD_REACTORS
330
47
102
}
330
47
100
AcDbScale
 70
     0
300
1/4" = 1'-0"
140
0.25
141
12.0
290
     0
  0
SCALE
  5
61
102
{ACAD_REACTORS
330
47
102
}
330
47
100
AcDbScale
 70
     0
300
3/8" = 1'-0"
140
0.375
141
12.0
290
     0
  0
SCALE
  5
62
102
{ACAD_REACTORS
330
47
102
}
330
47
100
AcDbScale
 70
     0
300
1/2" = 1'-0"
140
0.5
141
12.0
290
     0
  0
SCALE
  5
63
102
{ACAD_REACTORS
330
47
102
}
330
47
100
AcDbScale
 70
     0
300
3/4" = 1'-0"
140
0.75
141
12.0
290
     0
  0
SCALE
  5
64
102
{ACAD_REACTORS
330
47
102
}
330
47
100
AcDbScale
 70
     0
300
1" = 1'-0"
140
1.0
141
12.0
290
     0
  0
SCALE
  5
65
102
{ACAD_REACTORS
330
47
102
}
330
47
100
AcDbScale
 70
     0
300
1-1/2" = 1'-0"
140
1.5
141
12.0
290
     0
  0
SCALE
  5
66
102
{ACAD_REACTORS
330
47
102
}
330
47
100
AcDbScale
 70
     0
300
3" = 1'-0"
140
3.0
141
12.0
290
     0
  0
SCALE
  5
67
102
{ACAD_REACTORS
330
47
102
}
330
47
100
AcDbScale
 70
     0
300
6" = 1'-0"
140
6.0
141
12.0
290
     0
  0
SCALE
  5
68
102
{ACAD_REACTORS
330
47
102
}
330
47
100
AcDbScale
 70
     0
300
1'-0" = 1'-0"
140
12.0
141
12.0
290
     0
  0
ENDSEC
  0
EOF
