  0
SECTION
  2
HEADER
  9
$ACADVER
  1
AC1015
  9
$ACADMAINTVER
 70
     6
  9
$DWGCODEPAGE
  3
ANSI_949
  9
$INSBASE
 10
0.0
 20
0.0
 30
0.0
  9
$EXTMIN
 10
-71.37499999999386
 20
-49.97180738881175
 30
0.0
  9
$EXTMAX
 10
91.63848381535189
 20
47.57499999999999
 30
0.0
  9
$LIMMIN
 10
0.0
 20
0.0
  9
$LIMMAX
 10
420.0
 20
297.0
  9
$ORTHOMODE
 70
     1
  9
$REGENMODE
 70
     1
  9
$FILLMODE
 70
     1
  9
$QTEXTMODE
 70
     0
  9
$MIRRTEXT
 70
     1
  9
$LTSCALE
 40
1.0
  9
$ATTMODE
 70
     1
  9
$TEXTSIZE
 40
3.5
  9
$TRACEWID
 40
1.0
  9
$TEXTSTYLE
  7
Standard
  9
$CLAYER
  8
0
  9
$CELTYPE
  6
ByLayer
  9
$CECOLOR
 62
   256
  9
$CELTSCALE
 40
1.0
  9
$DISPSILH
 70
     0
  9
$DIMSCALE
 40
1.0
  9
$DIMASZ
 40
3.302
  9
$DIMEXO
 40
1.0
  9
$DIMDLI
 40
3.75
  9
$DIMRND
 40
0.0
  9
$DIMDLE
 40
0.0
  9
$DIMEXE
 40
1.0
  9
$DIMTP
 40
0.0
  9
$DIMTM
 40
0.0
  9
$DIMTXT
 40
3.5
  9
$DIMCEN
 40
2.5
  9
$DIMTSZ
 40
0.0
  9
$DIMTOL
 70
     0
  9
$DIMLIM
 70
     0
  9
$DIMTIH
 70
     1
  9
$DIMTOH
 70
     1
  9
$DIMSE1
 70
     0
  9
$DIMSE2
 70
     0
  9
$DIMTAD
 70
     1
  9
$DIMZIN
 70
     0
  9
$DIMBLK
  1

  9
$DIMASO
 70
     1
  9
$DIMSHO
 70
     1
  9
$DIMPOST
  1

  9
$DIMAPOST
  1

  9
$DIMALT
 70
     0
  9
$DIMALTD
 70
     3
  9
$DIMALTF
 40
0.0393700787401575
  9
$DIMLFAC
 40
1.0
  9
$DIMTOFL
 70
     1
  9
$DIMTVP
 40
0.0
  9
$DIMTIX
 70
     0
  9
$DIMSOXD
 70
     0
  9
$DIMSAH
 70
     0
  9
$DIMBLK1
  1

  9
$DIMBLK2
  1

  9
$DIMSTYLE
  2
ISO-25
  9
$DIMCLRD
 70
     0
  9
$DIMCLRE
 70
     0
  9
$DIMCLRT
 70
     0
  9
$DIMTFAC
 40
1.0
  9
$DIMGAP
 40
1.524
  9
$DIMJUST
 70
     0
  9
$DIMSD1
 70
     0
  9
$DIMSD2
 70
     0
  9
$DIMTOLJ
 70
     0
  9
$DIMTZIN
 70
     0
  9
$DIMALTZ
 70
     0
  9
$DIMALTTZ
 70
     0
  9
$DIMUPT
 70
     0
  9
$DIMDEC
 70
     2
  9
$DIMTDEC
 70
     2
  9
$DIMALTU
 70
     2
  9
$DIMALTTD
 70
     3
  9
$DIMTXSTY
  7
Standard
  9
$DIMAUNIT
 70
     0
  9
$DIMADEC
 70
     2
  9
$DIMALTRND
 40
0.0
  9
$DIMAZIN
 70
     0
  9
$DIMDSEP
 70
    44
  9
$DIMATFIT
 70
     3
  9
$DIMFRAC
 70
     0
  9
$DIMLDRBLK
  1

  9
$DIMLUNIT
 70
     2
  9
$DIMLWD
 70
    -2
  9
$DIMLWE
 70
    -2
  9
$DIMTMOVE
 70
     0
  9
$LUNITS
 70
     2
  9
$LUPREC
 70
     2
  9
$SKETCHINC
 40
1.0
  9
$FILLETRAD
 40
10.0
  9
$AUNITS
 70
     0
  9
$AUPREC
 70
     2
  9
$MENU
  1
.
  9
$ELEVATION
 40
0.0
  9
$PELEVATION
 40
0.0
  9
$THICKNESS
 40
0.0
  9
$LIMCHECK
 70
     0
  9
$CHAMFERA
 40
0.0
  9
$CHAMFERB
 40
0.0
  9
$CHAMFERC
 40
0.0
  9
$CHAMFERD
 40
0.0
  9
$SKPOLY
 70
     0
  9
$TDCREATE
 40
2458323.43814441
  9
$TDUCREATE
 40
2458323.06314441
  9
$TDUPDATE
 40
2458330.766404653
  9
$TDUUPDATE
 40
2458330.391404653
  9
$TDINDWG
 40
0.0006352894
  9
$TDUSRTIMER
 40
2458330.390986945
  9
$USRTIMER
 70
     1
  9
$ANGBASE
 50
0.0
  9
$ANGDIR
 70
     0
  9
$PDMODE
 70
     0
  9
$PDSIZE
 40
-1.0
  9
$PLINEWID
 40
0.0
  9
$SPLFRAME
 70
     0
  9
$SPLINETYPE
 70
     6
  9
$SPLINESEGS
 70
     8
  9
$HANDSEED
  5
21B
  9
$SURFTAB1
 70
     6
  9
$SURFTAB2
 70
     6
  9
$SURFTYPE
 70
     6
  9
$SURFU
 70
     6
  9
$SURFV
 70
     6
  9
$UCSBASE
  2

  9
$UCSNAME
  2

  9
$UCSORG
 10
0.0
 20
0.0
 30
0.0
  9
$UCSXDIR
 10
1.0
 20
0.0
 30
0.0
  9
$UCSYDIR
 10
0.0
 20
1.0
 30
0.0
  9
$UCSORTHOREF
  2

  9
$UCSORTHOVIEW
 70
     0
  9
$UCSORGTOP
 10
0.0
 20
0.0
 30
0.0
  9
$UCSORGBOTTOM
 10
0.0
 20
0.0
 30
0.0
  9
$UCSORGLEFT
 10
0.0
 20
0.0
 30
0.0
  9
$UCSORGRIGHT
 10
0.0
 20
0.0
 30
0.0
  9
$UCSORGFRONT
 10
0.0
 20
0.0
 30
0.0
  9
$UCSORGBACK
 10
0.0
 20
0.0
 30
0.0
  9
$PUCSBASE
  2

  9
$PUCSNAME
  2

  9
$PUCSORG
 10
0.0
 20
0.0
 30
0.0
  9
$PUCSXDIR
 10
1.0
 20
0.0
 30
0.0
  9
$PUCSYDIR
 10
0.0
 20
1.0
 30
0.0
  9
$PUCSORTHOREF
  2

  9
$PUCSORTHOVIEW
 70
     0
  9
$PUCSORGTOP
 10
0.0
 20
0.0
 30
0.0
  9
$PUCSORGBOTTOM
 10
0.0
 20
0.0
 30
0.0
  9
$PUCSORGLEFT
 10
0.0
 20
0.0
 30
0.0
  9
$PUCSORGRIGHT
 10
0.0
 20
0.0
 30
0.0
  9
$PUCSORGFRONT
 10
0.0
 20
0.0
 30
0.0
  9
$PUCSORGBACK
 10
0.0
 20
0.0
 30
0.0
  9
$USERI1
 70
     0
  9
$USERI2
 70
     0
  9
$USERI3
 70
     0
  9
$USERI4
 70
     0
  9
$USERI5
 70
     0
  9
$USERR1
 40
0.0
  9
$USERR2
 40
0.0
  9
$USERR3
 40
0.0
  9
$USERR4
 40
0.0
  9
$USERR5
 40
0.0
  9
$WORLDVIEW
 70
     1
  9
$SHADEDGE
 70
     3
  9
$SHADEDIF
 70
    70
  9
$TILEMODE
 70
     1
  9
$MAXACTVP
 70
    64
  9
$PINSBASE
 10
0.0
 20
0.0
 30
0.0
  9
$PLIMCHECK
 70
     0
  9
$PEXTMIN
 10
1.000000000000000E+20
 20
1.000000000000000E+20
 30
1.000000000000000E+20
  9
$PEXTMAX
 10
-1.000000000000000E+20
 20
-1.000000000000000E+20
 30
-1.000000000000000E+20
  9
$PLIMMIN
 10
0.0
 20
0.0
  9
$PLIMMAX
 10
0.0
 20
0.0
  9
$UNITMODE
 70
     0
  9
$VISRETAIN
 70
     1
  9
$PLINEGEN
 70
     0
  9
$PSLTSCALE
 70
     1
  9
$TREEDEPTH
 70
  3020
  9
$CMLSTYLE
  2
Standard
  9
$CMLJUST
 70
     0
  9
$CMLSCALE
 40
20.0
  9
$PROXYGRAPHICS
 70
     1
  9
$MEASUREMENT
 70
     1
  9
$CELWEIGHT
370
    -1
  9
$ENDCAPS
280
     0
  9
$JOINSTYLE
280
     0
  9
$LWDISPLAY
290
     1
  9
$INSUNITS
 70
     4
  9
$HYPERLINKBASE
  1

  9
$STYLESHEET
  1

  9
$XEDIT
290
     1
  9
$CEPSNTYPE
380
     0
  9
$PSTYLEMODE
290
     1
  9
$FINGERPRINTGUID
  2
{D2BB3CBB-28C4-4970-8FC5-C486AAB478EE}
  9
$VERSIONGUID
  2
{FAEB1C32-E019-11D5-929B-00C0DF256EC4}
  9
$EXTNAMES
290
     1
  9
$PSVPSCALE
 40
0.0
  9
$OLESTARTUP
290
     0
  0
ENDSEC
  0
SECTION
  2
CLASSES
  0
CLASS
  1
ACDBDICTIONARYWDFLT
  2
AcDbDictionaryWithDefault
  3
ObjectDBX Classes
 90
        0
280
     0
281
     0
  0
CLASS
  1
VISUALSTYLE
  2
AcDbVisualStyle
  3
ObjectDBX Classes
 90
     4095
280
     0
281
     0
  0
CLASS
  1
MATERIAL
  2
AcDbMaterial
  3
ObjectDBX Classes
 90
     1153
280
     0
281
     0
  0
CLASS
  1
SCALE
  2
AcDbScale
  3
ObjectDBX Classes
 90
     1153
280
     0
281
     0
  0
CLASS
  1
SUN
  2
AcDbSun
  3
SCENEOE
 90
     1153
280
     0
281
     0
  0
CLASS
  1
ACDBPLACEHOLDER
  2
AcDbPlaceHolder
  3
ObjectDBX Classes
 90
        0
280
     0
281
     0
  0
CLASS
  1
LAYOUT
  2
AcDbLayout
  3
ObjectDBX Classes
 90
        0
280
     0
281
     0
  0
CLASS
  1
TABLESTYLE
  2
AcDbTableStyle
  3
ObjectDBX Classes
 90
     4095
280
     0
281
     0
  0
CLASS
  1
MLEADERSTYLE
  2
AcDbMLeaderStyle
  3
ACDB_MLEADERSTYLE_CLASS
 90
     4095
280
     0
281
     0
  0
CLASS
  1
DICTIONARYVAR
  2
AcDbDictionaryVar
  3
ObjectDBX Classes
 90
        0
280
     0
281
     0
  0
CLASS
  1
RASTERVARIABLES
  2
AcDbRasterVariables
  3
ISM
 90
        0
280
     0
281
     0
  0
ENDSEC
  0
SECTION
  2
TABLES
  0
TABLE
  2
VPORT
  5
8
330
0
100
AcDbSymbolTable
 70
     1
  0
VPORT
  5
29
330
8
100
AcDbSymbolTableRecord
100
AcDbViewportTableRecord
  2
*Active
 70
     0
 10
0.0
 20
0.0
 11
1.0
 21
1.0
 12
10.13174190767901
 22
-1.198403694405883
 13
0.0
 23
0.0
 14
10.0
 24
10.0
 15
10.0
 25
10.0
 16
0.0
 26
0.0
 36
1.0
 17
0.0
 27
0.0
 37
0.0
 40
99.49774353658798
 41
1.782762691853601
 42
50.0
 43
0.0
 44
0.0
 50
0.0
 51
0.0
 71
    16
 72
  2000
 73
     1
 74
     3
 75
     0
 76
     0
 77
     0
 78
     0
281
     0
 65
     1
110
0.0
120
0.0
130
0.0
111
1.0
121
0.0
131
0.0
112
0.0
122
1.0
132
0.0
 79
     0
146
0.0
  0
ENDTAB
  0
TABLE
  2
LTYPE
  5
5
330
0
100
AcDbSymbolTable
 70
     6
  0
LTYPE
  5
14
330
5
100
AcDbSymbolTableRecord
100
AcDbLinetypeTableRecord
  2
ByBlock
 70
     0
  3

 72
    65
 73
     0
 40
0.0
  0
LTYPE
  5
15
330
5
100
AcDbSymbolTableRecord
100
AcDbLinetypeTableRecord
  2
ByLayer
 70
     0
  3

 72
    65
 73
     0
 40
0.0
  0
LTYPE
  5
16
330
5
100
AcDbSymbolTableRecord
100
AcDbLinetypeTableRecord
  2
Continuous
 70
     0
  3
Solid line
 72
    65
 73
     0
 40
0.0
  0
LTYPE
  5
6A
330
5
100
AcDbSymbolTableRecord
100
AcDbLinetypeTableRecord
  2
HIDDEN
 70
     0
  3
Hidden __ __ __ __ __ __ __ __ __ __ __ __ __ __
 72
    65
 73
     2
 40
1.905
 49
1.27
 74
     0
 49
-0.635
 74
     0
  0
LTYPE
  5
6B
330
5
100
AcDbSymbolTableRecord
100
AcDbLinetypeTableRecord
  2
PHANTOM
 70
     0
  3
Phantom ______  __  __  ______  __  __  ______
 72
    65
 73
     6
 40
12.7
 49
6.35
 74
     0
 49
-1.27
 74
     0
 49
1.27
 74
     0
 49
-1.27
 74
     0
 49
1.27
 74
     0
 49
-1.27
 74
     0
  0
LTYPE
  5
6C
330
5
100
AcDbSymbolTableRecord
100
AcDbLinetypeTableRecord
  2
CENTER
 70
     0
  3
Center ____ _ ____ _ ____ _ ____ _ ____ _ ____
 72
    65
 73
     4
 40
10.16
 49
6.35
 74
     0
 49
-1.27
 74
     0
 49
1.27
 74
     0
 49
-1.27
 74
     0
  0
LTYPE
  5
6D
330
5
100
AcDbSymbolTableRecord
100
AcDbLinetypeTableRecord
  2
CENTERX2
 70
     0
  3
Center (2x) ________  __  ________  __  _____
 72
    65
 73
     4
 40
20.32
 49
12.7
 74
     0
 49
-2.54
 74
     0
 49
2.54
 74
     0
 49
-2.54
 74
     0
  0
LTYPE
  5
6E
330
5
100
AcDbSymbolTableRecord
100
AcDbLinetypeTableRecord
  2
DOT2
 70
     0
  3
Dot (.5x) ........................................
 72
    65
 73
     2
 40
0.635
 49
0.0
 74
     0
 49
-0.635
 74
     0
  0
ENDTAB
  0
TABLE
  2
LAYER
  5
2
102
{ACAD_XDICTIONARY
360
18E
102
}
330
0
100
AcDbSymbolTable
 70
    18
  0
LAYER
  5
10
330
2
100
AcDbSymbolTableRecord
100
AcDbLayerTableRecord
  2
0
 70
     0
 62
     7
  6
Continuous
370
    -3
390
F
  0
LAYER
  5
6F
330
2
100
AcDbSymbolTableRecord
100
AcDbLayerTableRecord
  2
FORMAT
 70
     0
 62
     2
  6
Continuous
370
    -3
390
F
  0
LAYER
  5
70
330
2
100
AcDbSymbolTableRecord
100
AcDbLayerTableRecord
  2
외형선
 70
     0
 62
     4
  6
Continuous
370
    30
390
F
  0
LAYER
  5
71
330
2
100
AcDbSymbolTableRecord
100
AcDbLayerTableRecord
  2
숨은선
 70
     0
 62
     2
  6
HIDDEN
370
    15
390
F
  0
LAYER
  5
72
330
2
100
AcDbSymbolTableRecord
100
AcDbLayerTableRecord
  2
중심선
 70
     0
 62
     1
  6
CENTERX2
370
    -3
390
F
  0
LAYER
  5
73
330
2
100
AcDbSymbolTableRecord
100
AcDbLayerTableRecord
  2
파단선
 70
     0
 62
     4
  6
Continuous
370
    -3
390
F
  0
LAYER
  5
74
330
2
100
AcDbSymbolTableRecord
100
AcDbLayerTableRecord
  2
해칭선
 70
     0
 62
   100
  6
Continuous
370
    -3
390
F
  0
LAYER
  5
75
330
2
100
AcDbSymbolTableRecord
100
AcDbLayerTableRecord
  2
가는실선
 70
     0
 62
     4
  6
Continuous
370
    -3
390
F
  0
LAYER
  5
76
330
2
100
AcDbSymbolTableRecord
100
AcDbLayerTableRecord
  2
치수_보조선
 70
     0
 62
     4
  6
Continuous
370
    -3
390
F
  0
LAYER
  5
77
330
2
100
AcDbSymbolTableRecord
100
AcDbLayerTableRecord
  2
치수문자_일반주서
 70
     0
 62
     7
  6
Continuous
370
    15
390
F
  0
LAYER
  5
78
330
2
100
AcDbSymbolTableRecord
100
AcDbLayerTableRecord
  2
개별주서
 70
     0
 62
   100
  6
Continuous
370
    30
390
F
  0
LAYER
  5
79
330
2
100
AcDbSymbolTableRecord
100
AcDbLayerTableRecord
  2
중간선
 70
     0
 62
     2
  6
Continuous
370
    15
390
F
  0
LAYER
  5
7A
330
2
100
AcDbSymbolTableRecord
100
AcDbLayerTableRecord
  2
윤곽선
 70
     0
 62
     3
  6
Continuous
370
    40
390
F
  0
LAYER
  5
7B
330
2
100
AcDbSymbolTableRecord
100
AcDbLayerTableRecord
  2
중심마크
 70
     0
 62
   100
  6
Continuous
370
    30
390
F
  0
LAYER
  5
7C
330
2
100
AcDbSymbolTableRecord
100
AcDbLayerTableRecord
  2
가상선
 70
     0
 62
     4
  6
PHANTOM
370
    -3
390
F
  0
LAYER
  5
7D
330
2
100
AcDbSymbolTableRecord
100
AcDbLayerTableRecord
  2
특수지정선
 70
     0
 62
     5
  6
CENTERX2
370
    60
390
F
  0
LAYER
  5
7E
330
2
100
AcDbSymbolTableRecord
100
AcDbLayerTableRecord
  2
참조1
 70
     0
 62
    -4
  6
Continuous
370
    -3
390
F
  0
LAYER
  5
15A
330
2
100
AcDbSymbolTableRecord
100
AcDbLayerTableRecord
  2
Defpoints
 70
     0
 62
     7
  6
Continuous
290
     0
370
    -3
390
F
  0
ENDTAB
  0
TABLE
  2
STYLE
  5
3
330
0
100
AcDbSymbolTable
 70
     2
  0
STYLE
  5
11
330
3
100
AcDbSymbolTableRecord
100
AcDbTextStyleTableRecord
  2
Standard
 70
     0
 40
0.0
 41
1.0
 50
0.0
 71
     0
 42
3.5
  3
txt
  4

  0
STYLE
  5
94
330
3
100
AcDbSymbolTableRecord
100
AcDbTextStyleTableRecord
  2
SLDTEXTSTYLE0
 70
     0
 40
0.0
 41
0.75
 50
0.0
 71
     0
 42
3.5
  3
TXT
  4

  0
ENDTAB
  0
TABLE
  2
VIEW
  5
6
330
0
100
AcDbSymbolTable
 70
     0
  0
ENDTAB
  0
TABLE
  2
UCS
  5
7
330
0
100
AcDbSymbolTable
 70
     0
  0
ENDTAB
  0
TABLE
  2
APPID
  5
9
330
0
100
AcDbSymbolTable
 70
     2
  0
APPID
  5
12
330
9
100
AcDbSymbolTableRecord
100
AcDbRegAppTableRecord
  2
ACAD
 70
     0
  0
APPID
  5
161
330
9
100
AcDbSymbolTableRecord
100
AcDbRegAppTableRecord
  2
PE_URL
 70
     0
  0
ENDTAB
  0
TABLE
  2
DIMSTYLE
  5
A
330
0
100
AcDbSymbolTable
 70
     3
100
AcDbDimStyleTable
  0
DIMSTYLE
105
27
330
A
100
AcDbSymbolTableRecord
100
AcDbDimStyleTableRecord
  2
ISO-25
 70
     0
 41
2.5
 42
0.625
 43
3.75
 44
1.25
 73
     0
 74
     0
 77
     1
 78
     8
140
2.5
141
2.5
143
0.03937007874016
147
0.625
171
     3
172
     1
178
     0
271
     2
272
     2
274
     3
278
    44
283
     0
284
     8
340
11
  0
DIMSTYLE
105
DB
102
{ACAD_REACTORS
330
DA
330
116
330
EF
330
103
102
}
330
A
100
AcDbSymbolTableRecord
100
AcDbDimStyleTableRecord
  2
SLDDIMSTYLE0
 70
     0
 41
3.302
 44
0.0
 45
0.000000001
 73
     0
 74
     0
 77
     1
 78
     4
 79
     1
140
3.5
143
0.0393700787401575
147
0.875
148
0.000000001
170
     1
172
     1
173
     1
178
     0
271
     2
272
     2
276
     2
284
    12
289
     0
340
94
  0
DIMSTYLE
105
F0
330
A
100
AcDbSymbolTableRecord
100
AcDbDimStyleTableRecord
  2
SLDDIMSTYLE1
 70
     0
 41
3.302
 44
0.0
 45
0.000000001
 73
     0
 74
     0
 77
     1
 78
     4
 79
     1
140
3.5
143
0.0393700787401575
147
0.875
148
0.000000001
170
     1
173
     1
178
     0
271
     2
272
     2
276
     2
284
    12
340
94
  0
ENDTAB
  0
TABLE
  2
BLOCK_RECORD
  5
1
330
0
100
AcDbSymbolTable
 70
     9
  0
BLOCK_RECORD
  5
1F
330
1
100
AcDbSymbolTableRecord
100
AcDbBlockTableRecord
  2
*Model_Space
340
22
  0
BLOCK_RECORD
  5
1B
330
1
100
AcDbSymbolTableRecord
100
AcDbBlockTableRecord
  2
*Paper_Space
340
1E
  0
BLOCK_RECORD
  5
23
330
1
100
AcDbSymbolTableRecord
100
AcDbBlockTableRecord
  2
*Paper_Space0
340
26
  0
BLOCK_RECORD
  5
7F
330
1
100
AcDbSymbolTableRecord
100
AcDbBlockTableRecord
  2
블럭10
340
0
102
{BLKREFS
331
D3
102
}
  0
BLOCK_RECORD
  5
DC
330
1
100
AcDbSymbolTableRecord
100
AcDbBlockTableRecord
  2
_D
340
0
  0
BLOCK_RECORD
  5
F1
330
1
100
AcDbSymbolTableRecord
100
AcDbBlockTableRecord
  2
_D_1
340
0
  0
BLOCK_RECORD
  5
104
330
1
100
AcDbSymbolTableRecord
100
AcDbBlockTableRecord
  2
_D_2
340
0
  0
BLOCK_RECORD
  5
117
330
1
100
AcDbSymbolTableRecord
100
AcDbBlockTableRecord
  2
_D_3
340
0
  0
BLOCK_RECORD
  5
130
330
1
100
AcDbSymbolTableRecord
100
AcDbBlockTableRecord
  2
SW_DOWELSYMBOL_0
340
0
102
{BLKREFS
331
136
102
}
  0
BLOCK_RECORD
  5
192
330
1
100
AcDbSymbolTableRecord
100
AcDbBlockTableRecord
  2
*D7
340
0
  0
BLOCK_RECORD
  5
1A1
330
1
100
AcDbSymbolTableRecord
100
AcDbBlockTableRecord
  2
*D8
340
0
  0
ENDTAB
  0
ENDSEC
  0
SECTION
  2
BLOCKS
  0
BLOCK
  5
20
330
1F
100
AcDbEntity
  8
0
100
AcDbBlockBegin
  2
*Model_Space
 70
     0
 10
0.0
 20
0.0
 30
0.0
  3
*Model_Space
  1
*Model_Space
  0
ENDBLK
  5
21
330
1F
100
AcDbEntity
  8
0
100
AcDbBlockEnd
  0
BLOCK
  5
1C
330
1B
100
AcDbEntity
 67
     1
  8
0
100
AcDbBlockBegin
  2
*Paper_Space
 70
     0
 10
0.0
 20
0.0
 30
0.0
  3
*Paper_Space
  1
*Paper_Space
  0
ENDBLK
  5
1D
330
1B
100
AcDbEntity
 67
     1
  8
0
100
AcDbBlockEnd
  0
BLOCK
  5
24
330
23
100
AcDbEntity
  8
0
100
AcDbBlockBegin
  2
*Paper_Space0
 70
     0
 10
0.0
 20
0.0
 30
0.0
  3
*Paper_Space0
  1
*Paper_Space0
  0
ENDBLK
  5
25
330
23
100
AcDbEntity
  8
0
100
AcDbBlockEnd
  0
BLOCK
  5
80
330
7F
100
AcDbEntity
  8
0
100
AcDbBlockBegin
  2
블럭10
 70
     2
 10
0.0
 20
0.0
 30
0.0
  3
블럭10
  1
블럭10
  0
ELLIPSE
  5
82
330
7F
100
AcDbEntity
  8
중심선
100
AcDbEllipse
 10
20.54032771741204
 20
12.0471743016438
 30
0.0
 11
6.600054785286829
 21
-1.261213355974178E-13
 31
0.0
210
0.0
220
0.0
230
1.0
 40
0.636358354079598
 41
0.9219305317359503
 42
6.513795318482858
  0
ELLIPSE
  5
83
330
7F
100
AcDbEntity
  8
중심선
100
AcDbEllipse
 10
20.54032771746488
 20
12.04717430159265
 30
0.0
 11
3.960054785062283
 21
1.540847449632565E-10
 31
0.0
210
0.0
220
0.0
230
1.0
 40
0.3939339440162632
 41
1.131841032648279
 42
5.62031148352944
  0
LINE
  5
84
330
7F
100
AcDbEntity
  8
중심선
100
AcDbLine
 10
2.268634060543552
 20
16.24717430164393
 30
0.0
 11
5.714909304380834
 21
16.24717430164393
 31
0.0
  0
LINE
  5
85
330
7F
100
AcDbEntity
  8
중심선
100
AcDbLine
 10
5.245725140726316
 20
7.84717430164391
 30
0.0
 11
8.692000384563599
 21
7.84717430164391
 31
0.0
  0
LINE
  5
86
330
7F
100
AcDbEntity
  8
중심선
100
AcDbLine
 10
15.74043728645272
 20
16.24717430164393
 30
0.0
 11
8.692000384563599
 21
7.84717430164391
 31
0.0
  0
LINE
  5
87
330
7F
100
AcDbEntity
  8
중심선
100
AcDbLine
 10
0.1404042013395286
 20
13.71084872107135
 30
0.0
 11
3.58671253028996
 21
13.71088815037384
 31
0.0
  0
LINE
  5
88
330
7F
100
AcDbEntity
  8
중심선
100
AcDbLine
 10
2.750260043222114
 20
10.84717430164391
 30
0.0
 11
6.196535287059397
 21
10.84717430164391
 31
0.0
  0
LINE
  5
89
330
7F
100
AcDbEntity
  8
중심선
100
AcDbLine
 10
12.29416204261559
 20
16.24717430164393
 30
0.0
 11
5.245725140726316
 21
7.84717430164391
 31
0.0
  0
LINE
  5
8A
330
7F
100
AcDbEntity
  8
중심선
100
AcDbLine
 10
10.72767329541681
 20
16.24717430164393
 30
0.0
 11
6.196535287059397
 21
10.84717430164391
 31
0.0
  0
LINE
  5
8B
330
7F
100
AcDbEntity
  8
중심선
100
AcDbLine
 10
7.28139805157953
 20
16.24717430164393
 30
0.0
 11
2.750260043222114
 21
10.84717430164391
 31
0.0
  0
LINE
  5
8C
330
7F
100
AcDbEntity
  8
중심선
100
AcDbLine
 10
5.714909304380834
 20
16.24717430164393
 30
0.0
 11
3.58671253028996
 21
13.71088815037384
 31
0.0
  0
LINE
  5
8D
330
7F
100
AcDbEntity
  8
중심선
100
AcDbLine
 10
2.268634060543552
 20
16.24717430164393
 30
0.0
 11
0.1404042013395286
 21
13.71084872107135
 31
0.0
  0
LINE
  5
8E
330
7F
100
AcDbEntity
  8
중심선
100
AcDbLine
 10
7.28139805157953
 20
16.24717430164393
 30
0.0
 11
10.72767329541681
 21
16.24717430164393
 31
0.0
  0
LINE
  5
8F
330
7F
100
AcDbEntity
  8
중심선
100
AcDbLine
 10
12.29416204261559
 20
16.24717430164393
 30
0.0
 11
15.74043728645272
 21
16.24717430164393
 31
0.0
  0
LINE
  5
90
330
7F
100
AcDbEntity
  8
중심선
100
AcDbLine
 10
19.22036997980202
 20
11.08717430171403
 30
0.0
 11
23.66174974927406
 21
11.08717430171406
 31
0.0
  0
LINE
  5
91
330
7F
100
AcDbEntity
  8
중심선
100
AcDbLine
 10
19.22039502424796
 20
13.00717430171391
 30
0.0
 11
19.22036997980202
 21
11.08717430171403
 31
0.0
  0
LINE
  5
92
330
7F
100
AcDbEntity
  8
중심선
100
AcDbLine
 10
19.22039502424796
 20
13.00717430171391
 30
0.0
 11
26.96566020931264
 21
13.00717430171391
 31
0.0
  0
LINE
  5
93
330
7F
100
AcDbEntity
  8
중심선
100
AcDbLine
 10
22.22332737316547
 20
13.45928029700563
 30
0.0
 11
24.52862924686651
 21
15.39360700705356
 31
0.0
  0
ATTDEF
  5
95
330
7F
100
AcDbEntity
  8
FORMAT
 62
     2
100
AcDbText
 10
4.408487351596664
 20
2.075366912832191
 30
0.0
 40
4.233333333333333
  1
E1042064
 41
0.75
  7
SLDTEXTSTYLE0
 11
4.408487351596664
 21
-0.0412997538344756
 31
0.0
100
AcDbAttributeDefinition
  3

  2
AUTOATTR0
 70
     0
 74
     1
  0
ENDBLK
  5
81
330
7F
100
AcDbEntity
  8
0
100
AcDbBlockEnd
  0
BLOCK
  5
DD
330
DC
100
AcDbEntity
  8
0
100
AcDbBlockBegin
  2
_D
 70
     0
 10
0.0
 20
0.0
 30
0.0
  3
_D
  1
_D
  0
LINE
  5
DF
330
DC
100
AcDbEntity
  8
치수문자_일반주서
 62
     0
370
    -2
100
AcDbLine
 10
-36.95749999999372
 20
12.69999999999999
 30
0.0
 11
-66.49999999999375
 21
12.69999999999987
 31
0.0
  0
LINE
  5
E0
330
DC
100
AcDbEntity
  8
치수문자_일반주서
 62
     0
370
    -2
100
AcDbLine
 10
-49.0224999999937
 20
-12.69999999999999
 30
0.0
 11
-66.49999999999366
 21
-12.70000000000006
 31
0.0
  0
LINE
  5
E1
330
DC
100
AcDbEntity
  8
치수문자_일반주서
 62
     0
370
    -2
100
AcDbLine
 10
-66.49999999999375
 20
12.69999999999987
 30
0.0
 11
-66.49999999999386
 21
44.55399999999992
 31
0.0
  0
LINE
  5
E2
330
DC
100
AcDbEntity
  8
치수문자_일반주서
 62
     0
370
    -2
100
AcDbLine
 10
-66.49999999999375
 20
12.69999999999987
 30
0.0
 11
-66.49999999999366
 21
-12.70000000000006
 31
0.0
  0
LINE
  5
E3
330
DC
100
AcDbEntity
  8
치수문자_일반주서
 62
     0
370
    -2
100
AcDbLine
 10
-66.49999999999376
 20
16.00199999999987
 30
0.0
 11
-66.49999999999378
 21
19.30399999999987
 31
0.0
  0
LINE
  5
E4
330
DC
100
AcDbEntity
  8
치수문자_일반주서
 62
     0
370
    -2
100
AcDbLine
 10
-66.49999999999365
 20
-16.00200000000006
 30
0.0
 11
-66.49999999999363
 21
-19.30400000000006
 31
0.0
  0
SOLID
  5
E5
330
DC
100
AcDbEntity
  8
치수문자_일반주서
 62
     0
100
AcDbTrace
 10
-67.05033333332709
 20
16.00199999999987
 30
0.0
 11
-65.94966666666043
 21
16.00199999999988
 31
0.0
 12
-66.49999999999375
 22
12.69999999999987
 32
0.0
 13
-66.49999999999375
 23
12.69999999999987
 33
0.0
  0
SOLID
  5
E6
330
DC
100
AcDbEntity
  8
치수문자_일반주서
 62
     0
100
AcDbTrace
 10
-65.94966666666032
 20
-16.00200000000006
 30
0.0
 11
-67.05033333332698
 21
-16.00200000000006
 31
0.0
 12
-66.49999999999366
 22
-12.70000000000006
 32
0.0
 13
-66.49999999999366
 23
-12.70000000000006
 33
0.0
  0
MTEXT
  5
E7
330
DC
100
AcDbEntity
  8
치수문자_일반주서
 62
     0
100
AcDbMText
 10
-71.37499999999382
 20
31.92899999999991
 30
0.0
 40
4.0
 41
0.0
 71
     2
 72
     1
  1
\A1;%%c25.40 [1]
  7
SLDTEXTSTYLE0
 11
-3.356894814614655E-15
 21
1.0
 31
0.0
 73
     1
 44
1.0
  0
POINT
  5
1B1
330
DC
100
AcDbEntity
  8
Defpoints
 62
     0
100
AcDbPoint
 10
-36.89499999999372
 20
12.69999999999999
 30
0.0
  0
POINT
  5
1B2
330
DC
100
AcDbEntity
  8
Defpoints
 62
     0
100
AcDbPoint
 10
-48.9599999999937
 20
-12.69999999999999
 30
0.0
  0
POINT
  5
1B3
330
DC
100
AcDbEntity
  8
Defpoints
 62
     0
100
AcDbPoint
 10
-66.49999999999366
 20
-12.70000000000006
 30
0.0
  0
ENDBLK
  5
DE
330
DC
100
AcDbEntity
  8
0
100
AcDbBlockEnd
  0
BLOCK
  5
F2
330
F1
100
AcDbEntity
  8
0
100
AcDbBlockBegin
  2
_D_1
 70
     0
 10
0.0
 20
0.0
 30
0.0
  3
_D_1
  1
_D_1
  0
LINE
  5
F4
330
F1
100
AcDbEntity
  8
치수문자_일반주서
 62
     0
370
    -2
100
AcDbLine
 10
62.80000000000629
 20
12.66982239648509
 30
0.0
 11
62.80000000000629
 21
27.7
 31
0.0
  0
LINE
  5
F5
330
F1
100
AcDbEntity
  8
치수문자_일반주서
 62
     0
370
    -2
100
AcDbLine
 10
12.00000000000629
 20
12.73326140992456
 30
0.0
 11
12.0000000000063
 21
27.7
 31
0.0
  0
LINE
  5
F6
330
F1
100
AcDbEntity
  8
치수문자_일반주서
 62
     0
370
    -2
100
AcDbLine
 10
59.49800000000629
 20
27.7
 30
0.0
 11
15.3020000000063
 21
27.7
 31
0.0
  0
SOLID
  5
F7
330
F1
100
AcDbEntity
  8
치수문자_일반주서
 62
     0
100
AcDbTrace
 10
59.49800000000629
 20
27.14966666666666
 30
0.0
 11
59.49800000000629
 21
28.25033333333333
 31
0.0
 12
62.80000000000629
 22
27.7
 32
0.0
 13
62.80000000000629
 23
27.7
 33
0.0
  0
SOLID
  5
F8
330
F1
100
AcDbEntity
  8
치수문자_일반주서
 62
     0
100
AcDbTrace
 10
15.3020000000063
 20
28.25033333333333
 30
0.0
 11
15.3020000000063
 21
27.14966666666666
 31
0.0
 12
12.0000000000063
 22
27.7
 32
0.0
 13
12.0000000000063
 23
27.7
 33
0.0
  0
MTEXT
  5
F9
330
F1
100
AcDbEntity
  8
치수문자_일반주서
 62
     0
100
AcDbMText
 10
37.40000000000633
 20
32.575
 30
0.0
 40
4.0
 41
0.0
 71
     2
 72
     1
  1
\A1;50.80 [2]
  7
SLDTEXTSTYLE0
 73
     1
 44
1.0
  0
POINT
  5
FA
330
F1
100
AcDbEntity
  8
Defpoints
 62
     0
100
AcDbPoint
 10
62.80000000000629
 20
12.60732239648509
 30
0.0
  0
POINT
  5
FB
330
F1
100
AcDbEntity
  8
Defpoints
 62
     0
100
AcDbPoint
 10
12.00000000000629
 20
12.67076140992456
 30
0.0
  0
POINT
  5
FC
330
F1
100
AcDbEntity
  8
Defpoints
 62
     0
100
AcDbPoint
 10
12.00000000000629
 20
27.7
 30
0.0
  0
ENDBLK
  5
F3
330
F1
100
AcDbEntity
  8
0
100
AcDbBlockEnd
  0
BLOCK
  5
105
330
104
100
AcDbEntity
  8
0
100
AcDbBlockBegin
  2
_D_2
 70
     0
 10
0.0
 20
0.0
 30
0.0
  3
_D_2
  1
_D_2
  0
LINE
  5
107
330
104
100
AcDbEntity
  8
치수문자_일반주서
 62
     0
370
    -2
100
AcDbLine
 10
62.80000000000629
 20
12.66982239648509
 30
0.0
 11
62.80000000000629
 21
42.7
 31
0.0
  0
LINE
  5
108
330
104
100
AcDbEntity
  8
치수문자_일반주서
 62
     0
370
    -2
100
AcDbLine
 10
-51.49999999999371
 20
10.85749999999999
 30
0.0
 11
-51.49999999999371
 21
42.7
 31
0.0
  0
LINE
  5
109
330
104
100
AcDbEntity
  8
치수문자_일반주서
 62
     0
370
    -2
100
AcDbLine
 10
59.49800000000629
 20
42.7
 30
0.0
 11
-48.19799999999371
 21
42.7
 31
0.0
  0
SOLID
  5
10A
330
104
100
AcDbEntity
  8
치수문자_일반주서
 62
     0
100
AcDbTrace
 10
59.49800000000629
 20
42.14966666666666
 30
0.0
 11
59.49800000000629
 21
43.25033333333333
 31
0.0
 12
62.80000000000629
 22
42.7
 32
0.0
 13
62.80000000000629
 23
42.7
 33
0.0
  0
SOLID
  5
10B
330
104
100
AcDbEntity
  8
치수문자_일반주서
 62
     0
100
AcDbTrace
 10
-48.19799999999371
 20
43.25033333333333
 30
0.0
 11
-48.19799999999371
 21
42.14966666666666
 31
0.0
 12
-51.49999999999371
 22
42.7
 32
0.0
 13
-51.49999999999371
 23
42.7
 33
0.0
  0
MTEXT
  5
10C
330
104
100
AcDbEntity
  8
치수문자_일반주서
 62
     0
100
AcDbMText
 10
5.650000000006308
 20
47.575
 30
0.0
 40
4.0
 41
0.0
 71
     2
 72
     1
  1
\A1;114.30 [4 1/2]
  7
SLDTEXTSTYLE0
 73
     1
 44
1.0
  0
POINT
  5
10D
330
104
100
AcDbEntity
  8
Defpoints
 62
     0
100
AcDbPoint
 10
62.80000000000629
 20
12.60732239648509
 30
0.0
  0
POINT
  5
10E
330
104
100
AcDbEntity
  8
Defpoints
 62
     0
100
AcDbPoint
 10
-51.49999999999371
 20
10.79499999999999
 30
0.0
  0
POINT
  5
10F
330
104
100
AcDbEntity
  8
Defpoints
 62
     0
100
AcDbPoint
 10
-51.49999999999371
 20
42.7
 30
0.0
  0
ENDBLK
  5
106
330
104
100
AcDbEntity
  8
0
100
AcDbBlockEnd
  0
BLOCK
  5
118
330
117
100
AcDbEntity
  8
0
100
AcDbBlockBegin
  2
_D_3
 70
     0
 10
0.0
 20
0.0
 30
0.0
  3
_D_3
  1
_D_3
  0
LINE
  5
11A
330
117
100
AcDbEntity
  8
치수문자_일반주서
 62
     0
370
    -2
100
AcDbLine
 10
62.86250000000629
 20
12.7
 30
0.0
 11
77.80000000000628
 21
12.70000000000006
 31
0.0
  0
LINE
  5
11B
330
117
100
AcDbEntity
  8
치수문자_일반주서
 62
     0
370
    -2
100
AcDbLine
 10
62.86250000000629
 20
-12.70000000000001
 30
0.0
 11
77.80000000000636
 21
-12.69999999999995
 31
0.0
  0
LINE
  5
11C
330
117
100
AcDbEntity
  8
치수문자_일반주서
 62
     0
370
    -2
100
AcDbLine
 10
77.80000000000628
 20
12.70000000000006
 30
0.0
 11
77.80000000000616
 21
44.55400000000006
 31
0.0
  0
LINE
  5
11D
330
117
100
AcDbEntity
  8
치수문자_일반주서
 62
     0
370
    -2
100
AcDbLine
 10
77.80000000000628
 20
12.70000000000006
 30
0.0
 11
77.80000000000636
 21
-12.69999999999995
 31
0.0
  0
LINE
  5
11E
330
117
100
AcDbEntity
  8
치수문자_일반주서
 62
     0
370
    -2
100
AcDbLine
 10
77.80000000000626
 20
16.00200000000006
 30
0.0
 11
77.80000000000625
 21
19.30400000000006
 31
0.0
  0
LINE
  5
11F
330
117
100
AcDbEntity
  8
치수문자_일반주서
 62
     0
370
    -2
100
AcDbLine
 10
77.80000000000638
 20
-16.00199999999995
 30
0.0
 11
77.80000000000639
 21
-19.30399999999995
 31
0.0
  0
SOLID
  5
120
330
117
100
AcDbEntity
  8
치수문자_일반주서
 62
     0
100
AcDbTrace
 10
77.24966666667294
 20
16.00200000000005
 30
0.0
 11
78.35033333333959
 21
16.00200000000006
 31
0.0
 12
77.80000000000628
 22
12.70000000000006
 32
0.0
 13
77.80000000000628
 23
12.70000000000006
 33
0.0
  0
SOLID
  5
121
330
117
100
AcDbEntity
  8
치수문자_일반주서
 62
     0
100
AcDbTrace
 10
78.3503333333397
 20
-16.00199999999995
 30
0.0
 11
77.24966666667305
 21
-16.00199999999995
 31
0.0
 12
77.80000000000636
 22
-12.69999999999995
 32
0.0
 13
77.80000000000636
 23
-12.69999999999995
 33
0.0
  0
MTEXT
  5
122
330
117
100
AcDbEntity
  8
치수문자_일반주서
 62
     0
100
AcDbMText
 10
72.92500000000621
 20
31.92900000000004
 30
0.0
 40
4.0
 41
0.0
 71
     2
 72
     1
  1
\A1;%%c25.40 [1]
  7
SLDTEXTSTYLE0
 11
-3.356894814614645E-15
 21
1.0
 31
0.0
 73
     1
 44
1.0
  0
POINT
  5
123
330
117
100
AcDbEntity
  8
Defpoints
 62
     0
100
AcDbPoint
 10
62.80000000000629
 20
12.7
 30
0.0
  0
POINT
  5
124
330
117
100
AcDbEntity
  8
Defpoints
 62
     0
100
AcDbPoint
 10
62.80000000000629
 20
-12.70000000000001
 30
0.0
  0
POINT
  5
125
330
117
100
AcDbEntity
  8
Defpoints
 62
     0
100
AcDbPoint
 10
77.80000000000636
 20
-12.69999999999995
 30
0.0
  0
ENDBLK
  5
119
330
117
100
AcDbEntity
  8
0
100
AcDbBlockEnd
  0
BLOCK
  5
131
330
130
100
AcDbEntity
  8
0
100
AcDbBlockBegin
  2
SW_DOWELSYMBOL_0
 70
     0
 10
0.0
 20
0.0
 30
0.0
  3
SW_DOWELSYMBOL_0
  1
SW_DOWELSYMBOL_0
  0
CIRCLE
  5
133
330
130
100
AcDbEntity
  8
해칭선
 62
     0
100
AcDbCircle
 10
0.0
 20
0.0
 30
0.0
 40
3.000000000000001
  0
HATCH
  5
134
330
130
100
AcDbEntity
  8
0
  6
Continuous
 62
     0
370
     0
100
AcDbHatch
 10
0.0
 20
0.0
 30
0.0
210
0.0
220
0.0
230
1.0
  2
SOLID
 70
     1
 71
     0
 91
        1
 92
        0
 93
        3
 72
     2
 10
0.0
 20
0.0
 40
3.000000000000001
 50
0.0
 51
90.0
 73
     1
 72
     1
 10
0.0
 20
3.000000000000001
 11
0.0
 21
0.0
 72
     1
 10
0.0
 20
0.0
 11
3.000000000000001
 21
0.0
 97
        0
 75
     0
 76
     1
 98
        1
 10
0.0
 20
0.0
  0
HATCH
  5
135
330
130
100
AcDbEntity
  8
0
  6
Continuous
 62
     0
370
     0
100
AcDbHatch
 10
0.0
 20
0.0
 30
0.0
210
0.0
220
0.0
230
1.0
  2
SOLID
 70
     1
 71
     0
 91
        1
 92
        0
 93
        3
 72
     2
 10
0.0
 20
0.0
 40
3.000000000000001
 50
180.0
 51
270.0000000000007
 73
     1
 72
     1
 10
0.0
 20
-3.000000000000001
 11
0.0
 21
0.0
 72
     1
 10
0.0
 20
0.0
 11
-3.000000000000001
 21
0.0
 97
        0
 75
     0
 76
     1
 98
        1
 10
0.0
 20
0.0
  0
ENDBLK
  5
132
330
130
100
AcDbEntity
  8
0
100
AcDbBlockEnd
  0
BLOCK
  5
193
330
192
100
AcDbEntity
  8
0
100
AcDbBlockBegin
  2
*D7
 70
     1
 10
0.0
 20
0.0
 30
0.0
  3
*D7
  1
*D7
  0
LINE
  5
195
330
192
100
AcDbEntity
  8
치수문자_일반주서
 62
     0
370
    -2
100
AcDbLine
 10
41.27500000000002
 20
18.97348359472763
 30
0.0
 11
41.27500000000002
 21
33.9804917973638
 31
0.0
  0
LINE
  5
196
330
192
100
AcDbEntity
  8
치수문자_일반주서
 62
     0
370
    -2
100
AcDbLine
 10
0.0
 20
19.04030862143908
 30
0.0
 11
0.0
 21
33.9804917973638
 31
0.0
  0
LINE
  5
197
330
192
100
AcDbEntity
  8
치수문자_일반주서
 62
     0
370
    -2
100
AcDbLine
 10
37.97300000000002
 20
33.9804917973638
 30
0.0
 11
3.302
 21
33.9804917973638
 31
0.0
  0
SOLID
  5
198
330
192
100
AcDbEntity
  8
치수문자_일반주서
 62
     0
100
AcDbTrace
 10
37.97300000000002
 20
33.43015846403046
 30
0.0
 11
37.97300000000002
 21
34.53082513069713
 31
0.0
 12
41.27500000000002
 22
33.9804917973638
 32
0.0
 13
41.27500000000002
 23
33.9804917973638
 33
0.0
  0
SOLID
  5
199
330
192
100
AcDbEntity
  8
치수문자_일반주서
 62
     0
100
AcDbTrace
 10
3.302
 20
34.53082513069713
 30
0.0
 11
3.302
 21
33.43015846403046
 31
0.0
 12
0.0
 22
33.9804917973638
 32
0.0
 13
0.0
 23
33.9804917973638
 33
0.0
  0
MTEXT
  5
19A
330
192
100
AcDbEntity
  8
치수문자_일반주서
 62
     0
100
AcDbMText
 10
20.63750000000002
 20
38.8554917973638
 30
0.0
 40
4.0
 41
0.0
 71
     2
 72
     1
  1
\A1;41.28 [1 5/8]
  7
SLDTEXTSTYLE0
 73
     1
 44
1.0
  0
POINT
  5
19B
330
192
100
AcDbEntity
  8
Defpoints
 62
     0
100
AcDbPoint
 10
41.27500000000002
 20
18.91098359472763
 30
0.0
  0
POINT
  5
19C
330
192
100
AcDbEntity
  8
Defpoints
 62
     0
100
AcDbPoint
 10
0.0
 20
18.97780862143908
 30
0.0
  0
POINT
  5
19D
330
192
100
AcDbEntity
  8
Defpoints
 62
     0
100
AcDbPoint
 10
0.0
 20
33.9804917973638
 30
0.0
  0
ENDBLK
  5
194
330
192
100
AcDbEntity
  8
0
100
AcDbBlockEnd
  0
BLOCK
  5
1A2
330
1A1
100
AcDbEntity
  8
0
100
AcDbBlockBegin
  2
*D8
 70
     1
 10
0.0
 20
0.0
 30
0.0
  3
*D8
  1
*D8
  0
LINE
  5
1A4
330
1A1
100
AcDbEntity
  8
치수문자_일반주서
 62
     0
370
    -2
100
AcDbLine
 10
128.5509843840629
 20
-42.8549326176686
 30
0.0
 11
128.5509843840629
 21
-27.84792441503242
 31
0.0
  0
LINE
  5
1A5
330
1A1
100
AcDbEntity
  8
치수문자_일반주서
 62
     0
370
    -2
100
AcDbLine
 10
87.27598438406287
 20
-42.78810759095714
 30
0.0
 11
87.27598438406287
 21
-27.84792441503242
 31
0.0
  0
LINE
  5
1A6
330
1A1
100
AcDbEntity
  8
치수문자_일반주서
 62
     0
370
    -2
100
AcDbLine
 10
125.2489843840629
 20
-27.84792441503242
 30
0.0
 11
90.57798438406286
 21
-27.84792441503242
 31
0.0
  0
SOLID
  5
1A7
330
1A1
100
AcDbEntity
  8
치수문자_일반주서
 62
     0
100
AcDbTrace
 10
125.2489843840629
 20
-28.39825774836576
 30
0.0
 11
125.2489843840629
 21
-27.29759108169909
 31
0.0
 12
128.5509843840629
 22
-27.84792441503242
 32
0.0
 13
128.5509843840629
 23
-27.84792441503242
 33
0.0
  0
SOLID
  5
1A8
330
1A1
100
AcDbEntity
  8
치수문자_일반주서
 62
     0
100
AcDbTrace
 10
90.57798438406286
 20
-27.29759108169909
 30
0.0
 11
90.57798438406286
 21
-28.39825774836576
 31
0.0
 12
87.27598438406287
 22
-27.84792441503242
 32
0.0
 13
87.27598438406287
 23
-27.84792441503242
 33
0.0
  0
MTEXT
  5
1A9
330
1A1
100
AcDbEntity
  8
치수문자_일반주서
 62
     0
100
AcDbMText
 10
107.9134843840629
 20
-22.97292441503242
 30
0.0
 40
4.0
 41
0.0
 71
     2
 72
     1
  1
\A1;41.28 [1 5/8]
  7
SLDTEXTSTYLE0
 73
     1
 44
1.0
  0
POINT
  5
1AA
330
1A1
100
AcDbEntity
  8
Defpoints
 62
     0
100
AcDbPoint
 10
128.5509843840629
 20
-42.9174326176686
 30
0.0
  0
POINT
  5
1AB
330
1A1
100
AcDbEntity
  8
Defpoints
 62
     0
100
AcDbPoint
 10
87.27598438406287
 20
-42.85060759095714
 30
0.0
  0
POINT
  5
1AC
330
1A1
100
AcDbEntity
  8
Defpoints
 62
     0
100
AcDbPoint
 10
87.27598438406287
 20
-27.84792441503242
 30
0.0
  0
ENDBLK
  5
1A3
330
1A1
100
AcDbEntity
  8
0
100
AcDbBlockEnd
  0
ENDSEC
  0
SECTION
  2
ENTITIES
  0
LINE
  5
96
330
1F
100
AcDbEntity
  8
0
  6
Continuous
 62
     1
370
    15
100
AcDbLine
 10
46.87330312281558
 20
-2.471737411166465
 30
0.0
 11
46.94389557329313
 21
-2.540028500392829
 31
0.0
1001
PE_URL
1000

  0
LINE
  5
97
330
1F
100
AcDbEntity
  8
0
  6
Continuous
 62
     1
370
    15
100
AcDbLine
 10
37.73631480652231
 20
12.7
 30
0.0
 11
34.66667233632609
 21
12.7
 31
0.0
1001
PE_URL
1000

  0
LINE
  5
98
330
1F
100
AcDbEntity
  8
0
  6
Continuous
 62
     1
370
    15
100
AcDbLine
 10
34.66667233632602
 20
-12.70000000000001
 30
0.0
 11
37.73631480652222
 21
-12.70000000000001
 31
0.0
1001
PE_URL
1000

  0
LINE
  5
99
330
1F
100
AcDbEntity
  8
0
  6
Continuous
 62
     1
370
    15
100
AcDbLine
 10
61.26386496060834
 20
-12.70000000000001
 30
0.0
 11
62.80000000000629
 21
-12.70000000000001
 31
0.0
1001
PE_URL
1000

  0
LINE
  5
9A
330
1F
100
AcDbEntity
  8
0
  6
Continuous
 62
     1
370
    15
100
AcDbLine
 10
24.43626345523889
 20
12.7
 30
0.0
 11
21.36745327210027
 21
12.7
 31
0.0
1001
PE_URL
1000

  0
LINE
  5
9B
330
1F
100
AcDbEntity
  8
0
  6
Continuous
 62
     1
370
    15
100
AcDbLine
 10
47.96500858244641
 20
-12.70000000000001
 30
0.0
 11
51.03641595544945
 21
-12.70000000000001
 31
0.0
1001
PE_URL
1000

  0
LINE
  5
9C
330
1F
100
AcDbEntity
  8
0
  6
Continuous
 62
     1
370
    15
100
AcDbLine
 10
51.03641595544945
 20
12.7
 30
0.0
 11
47.96500858244649
 21
12.7
 31
0.0
1001
PE_URL
1000

  0
LINE
  5
9D
330
1F
100
AcDbEntity
  8
0
  6
Continuous
 62
     1
370
    15
100
AcDbLine
 10
21.36745327210027
 20
-12.70000000000001
 30
0.0
 11
24.43626345523879
 21
-12.70000000000001
 31
0.0
1001
PE_URL
1000

  0
LINE
  5
9E
330
1F
100
AcDbEntity
  8
0
  6
Continuous
 62
     1
370
    15
100
AcDbLine
 10
62.80000000000629
 20
12.7
 30
0.0
 11
61.26386496060835
 21
12.7
 31
0.0
1001
PE_URL
1000

  0
LINE
  5
9F
330
1F
100
AcDbEntity
  8
외형선
  6
Continuous
370
    15
100
AcDbLine
 10
-48.95999999999371
 20
-12.70000000000001
 30
0.0
 11
11.13693643533973
 21
-12.70000000000001
 31
0.0
  0
LINE
  5
A0
330
1F
100
AcDbEntity
  8
외형선
  6
Continuous
370
    15
100
AcDbLine
 10
11.13693643533975
 20
12.7
 30
0.0
 11
-14.06992499999369
 21
12.7
 31
0.0
1001
PE_URL
1000

  0
LINE
  5
A2
330
1F
100
AcDbEntity
  8
외형선
  6
Continuous
370
    15
100
AcDbLine
 10
-51.49999999999371
 20
-10.16000000000001
 30
0.0
 11
-48.95999999999371
 21
-12.70000000000001
 31
0.0
  0
SPLINE
  5
A3
330
1F
100
AcDbEntity
  8
0
  6
Continuous
 62
     1
370
    15
100
AcDbSpline
210
0.0
220
0.0
230
1.0
 70
     8
 71
     3
 72
    31
 73
    27
 74
     0
 42
0.000000001
 43
0.00000001
 40
0.0
 40
0.0
 40
0.0
 40
0.0
 40
0.0450957682638993
 40
0.0901980191992993
 40
0.1353244929585533
 40
0.1804588028633548
 40
0.2255652725685298
 40
0.2706609762620706
 40
0.3125531969233666
 40
0.3544844348382108
 40
0.3963857552193051
 40
0.4382658175467911
 40
0.4801621491503329
 40
0.5220942883752421
 40
0.5639908716205716
 40
0.6058709170168755
 40
0.6477719520780519
 40
0.6897032870041256
 40
0.7315957255856709
 40
0.7734763493777799
 40
0.8153826796008085
 40
0.8573115047905489
 40
0.8992003918953777
 40
0.9410821893103524
 40
0.9829944054866704
 40
1.0
 40
1.0
 40
1.0
 40
1.0
 10
12.00000000000629
 20
12.67076140992456
 30
0.0
 10
12.6635772697856
 20
12.59569961035894
 30
0.0
 10
13.99082720085477
 20
12.44556522083631
 30
0.0
 10
15.98214396384141
 20
11.83145785011219
 30
0.0
 10
17.97473747864726
 20
10.94924998485786
 30
0.0
 10
19.96772672579742
 20
9.792440190588929
 30
0.0
 10
21.95925585613044
 20
8.396509801170506
 30
0.0
 10
23.90308485956989
 20
6.832280039773745
 30
0.0
 10
25.79976967788568
 20
5.152551480105086
 30
0.0
 10
27.65117476550829
 20
3.406745019767069
 30
0.0
 10
29.5010939769962
 20
1.587770716249083
 30
0.0
 10
31.35005103610597
 20
-0.2647983834079925
 30
0.0
 10
33.19974261133577
 20
-2.111916515716271
 30
0.0
 10
35.05116063434096
 20
-3.913110055605967
 30
0.0
 10
36.90086456281914
 20
-5.632603019210856
 30
0.0
 10
38.74981863266528
 20
-7.23260915483804
 30
0.0
 10
40.59973265879178
 20
-8.679422969763102
 30
0.0
 10
42.45111127499163
 20
-9.941659833679086
 30
0.0
 10
44.30062234538087
 20
-10.99417679814172
 30
0.0
 10
46.14960237769314
 20
-11.81355105087605
 30
0.0
 10
47.99976920977089
 20
-12.38289841213091
 30
0.0
 10
49.85102415114565
 20
-12.68876801331662
 30
0.0
 10
51.70037758646837
 20
-12.73010907784631
 30
0.0
 10
53.54939345283442
 20
-12.48649171037897
 30
0.0
 10
55.03311187386208
 20
-12.12466661314672
 30
0.0
 10
55.9004299372811
 20
-11.75950878669308
 30
0.0
 10
56.15076611114682
 20
-11.65411237332752
 30
0.0
1001
PE_URL
1000

  0
SPLINE
  5
A4
330
1F
100
AcDbEntity
  8
0
  6
Continuous
 62
     1
370
    15
100
AcDbSpline
210
0.0
220
0.0
230
1.0
 70
     8
 71
     3
 72
    32
 73
    28
 74
     0
 42
0.000000001
 43
0.00000001
 40
0.0
 40
0.0
 40
0.0
 40
0.0
 40
0.0069957427474156
 40
0.0480780149304182
 40
0.0891626052647702
 40
0.1302851366952333
 40
0.1713955108738117
 40
0.2124760482464426
 40
0.253563539672792
 40
0.2946902051100725
 40
0.3357948059422572
 40
0.3768741921451447
 40
0.4179651671032655
 40
0.4590942942619535
 40
0.5001937012364768
 40
0.5412725201091169
 40
0.5823675604375417
 40
0.6234974765076522
 40
0.6645922700085645
 40
0.7056711054884681
 40
0.746770792324322
 40
0.787899824327747
 40
0.8289905855347521
 40
0.873223542458068
 40
0.9174670594234681
 40
0.9617378839647563
 40
1.0
 40
1.0
 40
1.0
 40
1.0
 10
61.26386496060835
 20
-12.68098719490168
 30
0.0
 10
61.15887822241505
 20
-12.68701232407509
 30
0.0
 10
60.43736027234197
 20
-12.72841982872699
 30
0.0
 10
59.10016620611781
 20
-12.54488367706789
 30
0.0
 10
57.25089584274591
 20
-12.11747403800235
 30
0.0
 10
55.39985951128191
 20
-11.40902008946804
 30
0.0
 10
53.5494061605402
 20
-10.46541826083379
 30
0.0
 10
51.70037418195569
 20
-9.298139994227641
 30
0.0
 10
49.85102506443329
 20
-7.934187147317728
 30
0.0
 10
47.99976896509905
 20
-6.402999221403354
 30
0.0
 10
46.14960244319244
 20
-4.735551364678377
 30
0.0
 10
44.30062232782959
 20
-2.967656998596307
 30
0.0
 10
42.45111127970122
 20
-1.136690336786333
 30
0.0
 10
40.59973265752601
 20
0.7171023693497585
 30
0.0
 10
38.74981863302048
 20
2.556793118609775
 30
0.0
 10
36.90086456266295
 20
4.342260227209954
 30
0.0
 10
35.05116063461067
 20
6.03586713939381
 30
0.0
 10
33.19974261041279
 20
7.600594763607884
 30
0.0
 10
31.35005103952397
 20
9.00535984746368
 30
0.0
 10
29.50109396424865
 20
10.21920960293704
 30
0.0
 10
27.65117481312299
 20
11.21653769954333
 30
0.0
 10
25.79976950011733
 20
11.97598688905084
 30
0.0
 10
23.90308554372432
 20
12.49471830598201
 30
0.0
 10
21.95925308415694
 20
12.73958298551421
 30
0.0
 10
19.96773705107544
 20
12.67004176677301
 30
0.0
 10
18.06477644827007
 20
12.33378631181835
 30
0.0
 10
16.8262543985623
 20
11.87832596660463
 30
0.0
 10
16.2520779055512
 20
11.6671754071276
 30
0.0
1001
PE_URL
1000

  0
LINE
  5
A5
330
1F
100
AcDbEntity
  8
0
  6
Continuous
 62
     1
370
    15
100
AcDbLine
 10
62.80000000000629
 20
-12.60732239648509
 30
0.0
 11
62.80000000000629
 21
-7.619346334187523
 31
0.0
1001
PE_URL
1000

  0
SPLINE
  5
A6
330
1F
100
AcDbEntity
  8
0
  6
Continuous
 62
     1
370
    15
100
AcDbSpline
210
0.0
220
0.0
230
1.0
 70
     8
 71
     3
 72
    28
 73
    24
 74
     0
 42
0.000000001
 43
0.00000001
 40
0.0
 40
0.0
 40
0.0
 40
0.0
 40
0.0355383131885413
 40
0.0837942395790062
 40
0.132015735831507
 40
0.1802127675768494
 40
0.2284285225707008
 40
0.2766854862201239
 40
0.3249015308120935
 40
0.3730985430724428
 40
0.4213197109688626
 40
0.4695757490032232
 40
0.5177870237720148
 40
0.5659847016703654
 40
0.6142119634231383
 40
0.662465113165672
 40
0.7106723007715863
 40
0.7588713293159334
 40
0.8071053648283851
 40
0.855353664217799
 40
0.9035574480265649
 40
0.9517585119915748
 40
1.0
 40
1.0
 40
1.0
 40
1.0
 10
24.43626345523888
 20
12.67391754568045
 30
0.0
 10
24.89061291643869
 20
12.67020109350671
 30
0.0
 10
25.96190370625155
 20
12.66143823292358
 30
0.0
 10
27.651181846881
 20
12.33351185131202
 30
0.0
 10
29.5010920812195
 20
11.74692185521018
 30
0.0
 10
31.35005154417683
 20
10.90229961150286
 30
0.0
 10
33.1997424750363
 20
9.82904496288603
 30
0.0
 10
35.0511606708654
 20
8.54778201265653
 30
0.0
 10
36.90086455295114
 20
7.08479561781203
 30
0.0
 10
38.74981863564351
 20
5.471774594009794
 30
0.0
 10
40.59973265674842
 20
3.742786577611515
 30
0.0
 10
42.45111128018584
 20
1.935581611605024
 30
0.0
 10
44.30062232666958
 20
0.0861546392573235
 30
0.0
 10
46.14960244734822
 20
-1.764902859156118
 30
0.0
 10
47.9997689496217
 20
-3.578447592792808
 30
0.0
 10
49.85102512219336
 20
-5.315431308521042
 30
0.0
 10
51.70037396664371
 20
-6.940886740465519
 30
0.0
 10
53.54940696421405
 20
-8.419217590731808
 30
0.0
 10
55.39985650910666
 20
-9.718557560853407
 30
0.0
 10
57.25090704606954
 20
-10.81319638859075
 30
0.0
 10
59.10012443916614
 20
-11.67421048452448
 30
0.0
 10
60.94923718579371
 20
-12.30695220775174
 30
0.0
 10
62.1829066971135
 20
-12.50717102623246
 30
0.0
 10
62.80000000000631
 20
-12.60732239648509
 30
0.0
1001
PE_URL
1000

  0
SPLINE
  5
A7
330
1F
100
AcDbEntity
  8
0
  6
Continuous
 62
     1
370
    15
100
AcDbSpline
210
0.0
220
0.0
230
1.0
 70
     8
 71
     3
 72
    25
 73
    21
 74
     0
 42
0.000000001
 43
0.00000001
 40
0.0
 40
0.0
 40
0.0
 40
0.0
 40
0.0556637349421874
 40
0.1112808263555195
 40
0.1669010560771449
 40
0.2225726503727973
 40
0.2782277862070873
 40
0.3338425290378822
 40
0.3894666862515924
 40
0.4451438771567518
 40
0.5007911970471546
 40
0.5564043814268355
 40
0.6120332546383392
 40
0.6677137782166268
 40
0.7233540666737375
 40
0.778966483002954
 40
0.834600859904001
 40
0.8902824515088699
 40
0.9459164942553632
 40
0.9999999999999999
 40
0.9999999999999999
 40
0.9999999999999999
 40
0.9999999999999999
 10
62.80000000000631
 20
-7.629959239149603
 30
0.0
 10
62.18290669711353
 20
-7.121346660744231
 30
0.0
 10
60.94923718579371
 20
-6.104547696777025
 30
0.0
 10
59.10012443916614
 20
-4.405953746531386
 30
0.0
 10
57.25090704606965
 20
-2.625517385193437
 30
0.0
 10
55.39985650910597
 20
-0.7873285726853979
 30
0.0
 10
53.54940696421669
 20
1.067168875928416
 30
0.0
 10
51.700373966634
 20
2.899649364359083
 30
0.0
 10
49.8510251222298
 20
4.670785825331401
 30
0.0
 10
47.9997689494854
 20
6.341934406665176
 30
0.0
 10
46.14960244785634
 20
7.879522337838089
 30
0.0
 10
44.30062232477434
 20
9.250275246292464
 30
0.0
 10
42.45111128726413
 20
10.42515739654048
 30
0.0
 10
40.59973263031295
 20
11.37853276111142
 30
0.0
 10
38.74981873419859
 20
12.09156604048037
 30
0.0
 10
36.90086418527442
 20
12.54803087125896
 30
0.0
 10
35.05116204417432
 20
12.74001479352395
 30
0.0
 10
33.19973734684759
 20
12.65709149493477
 30
0.0
 10
31.36701218855688
 20
12.32809621615253
 30
0.0
 10
30.15137952385491
 20
11.89445116680636
 30
0.0
 10
29.55215289959168
 20
11.68069279506017
 30
0.0
1001
PE_URL
1000

  0
SPLINE
  5
A8
330
1F
100
AcDbEntity
  8
0
  6
Continuous
 62
     1
370
    15
100
AcDbSpline
210
0.0
220
0.0
230
1.0
 70
     8
 71
     3
 72
    17
 73
    13
 74
     0
 42
0.000000001
 43
0.00000001
 40
0.0
 40
0.0
 40
0.0
 40
0.0
 40
0.1134378721222229
 40
0.226892051327993
 40
0.3404071627609005
 40
0.4539419859253246
 40
0.5674067773966059
 40
0.6808444870928552
 40
0.786223873080527
 40
0.8917014065083898
 40
0.997103682733673
 40
1.0
 40
1.0
 40
1.0
 40
1.0
 10
12.00000000000629
 20
-7.081272097575734
 30
0.0
 10
12.66357727029139
 20
-7.615547977071025
 30
0.0
 10
13.99082720237225
 20
-8.684176540053445
 30
0.0
 10
15.98214395776918
 20
-10.0276411253224
 30
0.0
 10
17.97473750143342
 20
-11.13734422365631
 30
0.0
 10
19.96772664073641
 20
-11.97004792670267
 30
0.0
 10
21.959256173338
 20
-12.5105789935724
 30
0.0
 10
23.90308371155763
 20
-12.73589816610637
 30
0.0
 10
25.79977362653777
 20
-12.67632328978475
 30
0.0
 10
27.65115998178099
 20
-12.32135419676607
 30
0.0
 10
28.90178530408146
 20
-11.97706676872685
 30
0.0
 10
29.53521263781614
 20
-11.68841251039041
 30
0.0
 10
29.55215289959159
 20
-11.68069279506019
 30
0.0
1001
PE_URL
1000

  0
SPLINE
  5
A9
330
1F
100
AcDbEntity
  8
외형선
  6
Continuous
370
    15
100
AcDbSpline
210
0.0
220
0.0
230
1.0
 70
    24
 71
     3
 72
    34
 73
    30
 74
     0
 42
0.000000001
 43
0.00000001
 40
0.0
 40
0.0
 40
0.0
 40
0.0
 40
0.1250000000000012
 40
0.1250000000000012
 40
0.1562500000000016
 40
0.1562500000000016
 40
0.1875000000000018
 40
0.1875000000000018
 40
0.2500000000000018
 40
0.2500000000000018
 40
0.3750000000000016
 40
0.3750000000000016
 40
0.5000000000000012
 40
0.5000000000000012
 40
0.5625000000000011
 40
0.5625000000000011
 40
0.6250000000000009
 40
0.6250000000000009
 40
0.6875000000000008
 40
0.6875000000000008
 40
0.7500000000000007
 40
0.7500000000000007
 40
0.8125000000000004
 40
0.8125000000000004
 40
0.8750000000000003
 40
0.8750000000000003
 40
0.9375000000000001
 40
0.9375000000000001
 40
1.0
 40
1.0
 40
1.0
 40
1.0
 10
12.00000000000631
 20
2.696649150278066
 30
0.0
 10
12.00000000000629
 20
2.690572648142556
 30
0.0
 10
12.00000000000628
 20
2.617645494524175
 30
0.0
 10
12.00000000000629
 20
2.487877803301535
 30
0.0
 10
12.00000000000631
 20
2.459922380447146
 30
0.0
 10
12.00000000000631
 20
2.400841540002381
 30
0.0
 10
12.00000000000631
 20
2.369156522388692
 30
0.0
 10
12.00000000000629
 20
2.262500631094737
 30
0.0
 10
12.00000000000626
 20
2.177533391839193
 30
0.0
 10
12.00000000000628
 20
1.871022222552868
 30
0.0
 10
12.00000000000629
 20
1.597237894373435
 30
0.0
 10
12.00000000000631
 20
0.8606868275217239
 30
0.0
 10
12.00000000000629
 20
0.3956746645775762
 30
0.0
 10
12.00000000000629
 20
-0.4475570821227727
 30
0.0
 10
12.00000000000629
 20
-0.7522894951127844
 30
0.0
 10
12.00000000000631
 20
-1.399043692221756
 30
0.0
 10
12.00000000000631
 20
-1.741045697891357
 30
0.0
 10
12.00000000000632
 20
-2.444358452528427
 30
0.0
 10
12.00000000000628
 20
-2.805551804792649
 30
0.0
 10
12.00000000000631
 20
-3.523202107413924
 30
0.0
 10
12.00000000000629
 20
-3.879472133738021
 30
0.0
 10
12.00000000000628
 20
-4.561902454328131
 30
0.0
 10
12.00000000000631
 20
-4.887886093479056
 30
0.0
 10
12.00000000000631
 20
-5.488833018924943
 30
0.0
 10
12.00000000000631
 20
-5.763708311497809
 30
0.0
 10
12.00000000000631
 20
-6.25022616123831
 30
0.0
 10
12.00000000000631
 20
-6.461890842341741
 30
0.0
 10
12.00000000000631
 20
-6.819477825628626
 30
0.0
 10
12.00000000000631
 20
-6.965494113312334
 30
0.0
 10
12.00000000000629
 20
-7.081272097575614
 30
0.0
  0
SPLINE
  5
AA
330
1F
100
AcDbEntity
  8
0
  6
Continuous
 62
     1
370
    15
100
AcDbSpline
210
0.0
220
0.0
230
1.0
 70
     8
 71
     3
 72
    19
 73
    15
 74
     0
 42
0.000000001
 43
0.00000001
 40
0.0
 40
0.0
 40
0.0
 40
0.0
 40
0.0647087327981283
 40
0.1463171501753122
 40
0.2278938771915519
 40
0.3095120120362361
 40
0.391188422211665
 40
0.4727888320264275
 40
0.5606291958025548
 40
0.6484905303209223
 40
0.7364060938026399
 40
0.8243063935270781
 40
0.9121595104495036
 40
1.0
 40
1.0
 40
1.0
 40
1.0
 10
34.66667233632602
 20
-12.677826243272
 30
0.0
 10
34.17755974521224
 20
-12.67042894890426
 30
0.0
 10
33.07159525862748
 20
-12.65370244254114
 30
0.0
 10
31.35003948982943
 20
-12.30804512058831
 30
0.0
 10
29.50109707194598
 20
-11.7065899206553
 30
0.0
 10
27.65117393550236
 20
-10.84886736002093
 30
0.0
 10
25.79976989957573
 20
-9.764202426095947
 30
0.0
 10
23.90308479511675
 20
-8.438298476875548
 30
0.0
 10
21.95925587393947
 20
-6.883941011344016
 30
0.0
 10
19.9677267210218
 20
-5.122567792176439
 30
0.0
 10
17.97473747992653
 20
-3.235574362315841
 30
0.0
 10
15.98214396350049
 20
-1.270186562531858
 30
0.0
 10
13.99082720093995
 20
0.7312801682192482
 30
0.0
 10
12.66357726981397
 20
2.041557546814094
 30
0.0
 10
12.00000000000631
 20
2.696649150278054
 30
0.0
1001
PE_URL
1000

  0
SPLINE
  5
AB
330
1F
100
AcDbEntity
  8
0
  6
Continuous
 62
     1
370
    15
100
AcDbSpline
210
0.0
220
0.0
230
1.0
 70
     8
 71
     3
 72
    24
 73
    20
 74
     0
 42
0.000000001
 43
0.00000001
 40
0.0
 40
0.0
 40
0.0
 40
0.0
 40
0.064534907926415
 40
0.1290790929673913
 40
0.1936579424074303
 40
0.2582480058693362
 40
0.3227982282377484
 40
0.3873330437598808
 40
0.4472834716445755
 40
0.5072897356966581
 40
0.5672531858582083
 40
0.6271862143951775
 40
0.6871425252992671
 40
0.7471500791832852
 40
0.8071067502027521
 40
0.8670397545101246
 40
0.9270027963607548
 40
0.987009199242067
 40
1.0
 40
1.0
 40
1.0
 40
1.0
 10
12.00000000000628
 20
5.589489312348881
 30
0.0
 10
12.66357726978538
 20
4.980152245115293
 30
0.0
 10
13.9908272008542
 20
3.761390516352861
 30
0.0
 10
15.98214396384363
 20
1.803809379635368
 30
0.0
 10
17.97473747863899
 20
-0.1880666760608361
 30
0.0
 10
19.9677267258282
 20
-2.177710628189954
 30
0.0
 10
21.95925585601558
 20
-4.113685489591397
 30
0.0
 10
23.90308485998563
 20
-5.905006792899826
 30
0.0
 10
25.79976967645561
 20
-7.518995413641119
 30
0.0
 10
27.65117477086267
 20
-8.93249197222522
 30
0.0
 10
29.50109395703065
 20
-10.15761398474717
 30
0.0
 10
31.35005111059107
 20
-11.16752658771514
 30
0.0
 10
33.19974233312745
 20
-11.94078437294608
 30
0.0
 10
35.05116167323197
 20
-12.46117154164861
 30
0.0
 10
36.90086069004445
 20
-12.71645889490339
 30
0.0
 10
38.74983308314404
 20
-12.70786285279708
 30
0.0
 10
40.59967868147577
 20
-12.40922128428157
 30
0.0
 10
41.96802836284215
 20
-12.05192446403161
 30
0.0
 10
42.7185879364572
 20
-11.72174255101669
 30
0.0
 10
42.85215976375596
 20
-11.66298238991452
 30
0.0
1001
PE_URL
1000

  0
SPLINE
  5
AC
330
1F
100
AcDbEntity
  8
외형선
  6
Continuous
370
    15
100
AcDbSpline
210
0.0
220
0.0
230
1.0
 70
    24
 71
     3
 72
    16
 73
    12
 74
     0
 42
0.000000001
 43
0.00000001
 40
0.0
 40
0.0
 40
0.0
 40
0.0
 40
0.1079026091461844
 40
0.2183750054846438
 40
0.3369164798318586
 40
0.4588956649657114
 40
0.5774371393129287
 40
0.6994163244467861
 40
0.8179577987940018
 40
0.9399369839278564
 40
1.0
 40
1.0
 40
1.0
 40
1.0
 10
12.00000000000629
 20
12.09604817226554
 30
0.0
 10
12.00000000000629
 20
11.86705762265956
 30
0.0
 10
12.00000000000631
 20
11.40362292982102
 30
0.0
 10
12.00000000000624
 20
10.6295295961196
 30
0.0
 10
12.00000000000636
 20
9.800170958156654
 30
0.0
 10
12.00000000000625
 20
8.944729600660908
 30
0.0
 10
12.00000000000628
 20
8.101255199141487
 30
0.0
 10
12.00000000000639
 20
7.306447285291301
 30
0.0
 10
12.00000000000631
 20
6.575897383021208
 30
0.0
 10
12.00000000000632
 20
6.023679612959498
 30
0.0
 10
12.00000000000632
 20
5.75977824207341
 30
0.0
 10
12.00000000000631
 20
5.672706606068222
 30
0.0
  0
SPLINE
  5
AD
330
1F
100
AcDbEntity
  8
0
  6
Continuous
 62
     1
370
    15
100
AcDbSpline
210
0.0
220
0.0
230
1.0
 70
     8
 71
     3
 72
    26
 73
    22
 74
     0
 42
0.000000001
 43
0.00000001
 40
0.0
 40
0.0
 40
0.0
 40
0.0
 40
0.0504823625578424
 40
0.1018949118745436
 40
0.1533219649972903
 40
0.2047967671755733
 40
0.2562343733152759
 40
0.3076462125947294
 40
0.359078353696401
 40
0.4105541432299288
 40
0.461985975416769
 40
0.5133978354808991
 40
0.5648357918786212
 40
0.6163104749661605
 40
0.6677372605705534
 40
0.723096633955827
 40
0.7784692236701313
 40
0.8338759899440641
 40
0.889273136585266
 40
0.9446405473483167
 40
1.0
 40
1.0
 40
1.0
 40
1.0
 10
47.96500858244641
 20
-12.69753200481725
 30
0.0
 10
47.35973406711203
 20
-12.67353831274083
 30
0.0
 10
46.1380322632546
 20
-12.62510882141362
 30
0.0
 10
44.30063431060546
 20
-12.21455430341426
 30
0.0
 10
42.45110806514193
 20
-11.56274983333173
 30
0.0
 10
40.59973351852707
 20
-10.66120402195317
 30
0.0
 10
38.7498184025022
 20
-9.534776671121591
 30
0.0
 10
36.90086462450353
 20
-8.205981732998062
 30
0.0
 10
35.05116061779385
 20
-6.703298822164887
 30
0.0
 10
33.19974261576695
 20
-5.059682625159291
 30
0.0
 10
31.35005103491962
 20
-3.307814519247416
 30
0.0
 10
29.50109397731419
 20
-1.486010644061618
 30
0.0
 10
27.65117476542304
 20
0.367322472435078
 30
0.0
 10
25.79976967790847
 20
2.211804728690852
 30
0.0
 10
23.9030848595632
 20
4.056692321360574
 30
0.0
 10
21.95925585613228
 20
5.854429794392632
 30
0.0
 10
19.96772672579692
 20
7.552016558444332
 30
0.0
 10
17.97473747864736
 20
9.065327351586134
 30
0.0
 10
15.98214396384141
 20
10.35059723445588
 30
0.0
 10
13.99082720085474
 20
11.40314177851413
 30
0.0
 10
12.66357726978559
 20
11.86509044133727
 30
0.0
 10
12.00000000000631
 20
12.09604817226548
 30
0.0
1001
PE_URL
1000

  0
LINE
  5
AE
330
1F
100
AcDbEntity
  8
0
  6
Continuous
 62
     1
370
    15
100
AcDbLine
 10
62.80000000000629
 20
-4.977363157335304
 30
0.0
 11
62.80000000000629
 21
4.977363157335532
 31
0.0
1001
PE_URL
1000

  0
SPLINE
  5
AF
330
1F
100
AcDbEntity
  8
0
  6
Continuous
 62
     1
370
    15
100
AcDbSpline
210
0.0
220
0.0
230
1.0
 70
     8
 71
     3
 72
    21
 73
    17
 74
     0
 42
0.000000001
 43
0.00000001
 40
0.0
 40
0.0
 40
0.0
 40
0.0
 40
0.0404383461544571
 40
0.1142476874883044
 40
0.1881104025172715
 40
0.2619046010151854
 40
0.3356779875731311
 40
0.4094966564190075
 40
0.483354950507408
 40
0.5571428930224607
 40
0.6309183469357967
 40
0.7047473839822385
 40
0.7785982539167946
 40
0.8523809864372223
 40
0.9261595558507631
 40
1.0
 40
1.0
 40
1.0
 40
1.0
 10
37.73631480652231
 20
12.66665994435323
 30
0.0
 10
38.07406323863364
 20
12.67180666794892
 30
0.0
 10
39.02828073244843
 20
12.68634735333458
 30
0.0
 10
40.59973444604552
 20
12.4141065318049
 30
0.0
 10
42.45111080109013
 20
11.8794143565095
 30
0.0
 10
44.30062245494945
 20
11.07973741705347
 30
0.0
 10
46.14960241295692
 20
10.04885302873338
 30
0.0
 10
47.99976895884494
 20
8.804225603807838
 30
0.0
 10
49.85102511972405
 20
7.37403265678013
 30
0.0
 10
51.70037396730493
 20
5.786666685881
 30
0.0
 10
53.54940696403675
 20
4.076802987472111
 30
0.0
 10
55.3998565091542
 20
2.281068114566525
 30
0.0
 10
57.25090704605677
 20
0.4369585705919835
 30
0.0
 10
59.10012443916958
 20
-1.415358941702205
 30
0.0
 10
60.94923718579289
 20
-3.245176661498658
 30
0.0
 10
62.18290669711325
 20
-4.399806337123924
 30
0.0
 10
62.80000000000631
 20
-4.977363157335306
 30
0.0
1001
PE_URL
1000

  0
SPLINE
  5
B0
330
1F
100
AcDbEntity
  8
0
  6
Continuous
 62
     1
370
    15
100
AcDbSpline
210
0.0
220
0.0
230
1.0
 70
     8
 71
     3
 72
    18
 73
    14
 74
     0
 42
0.000000001
 43
0.00000001
 40
0.0
 40
0.0
 40
0.0
 40
0.0
 40
0.0927761442179505
 40
0.1854745464955799
 40
0.2781781794704154
 40
0.3709674230700599
 40
0.4637292349390355
 40
0.5564237227751997
 40
0.6491339017996748
 40
0.7419324734088626
 40
0.8346812582479769
 40
0.9273731485745513
 40
1.0
 40
1.0
 40
1.0
 40
1.0
 10
62.80000000000631
 20
4.977363157335534
 30
0.0
 10
62.18290669693121
 20
5.534562132190256
 30
0.0
 10
60.94923718524691
 20
6.648493175996085
 30
0.0
 10
59.10012444135136
 20
8.151148963632801
 30
0.0
 10
57.25090703787107
 20
9.488677433840255
 30
0.0
 10
55.39985653974183
 20
10.62257644456416
 30
0.0
 10
53.54940684995556
 20
11.5323271611544
 30
0.0
 10
51.70037439275227
 20
12.19794508678154
 30
0.0
 10
49.85102353095428
 20
12.6046097496165
 30
0.0
 10
47.99977489313913
 20
12.7462317350022
 30
0.0
 10
46.14958028554358
 20
12.6102490722276
 30
0.0
 10
44.4342478166743
 20
12.26296115800653
 30
0.0
 10
43.33505197632823
 20
11.84611067679201
 30
0.0
 10
42.85215976375604
 20
11.6629823899145
 30
0.0
1001
PE_URL
1000

  0
LINE
  5
B1
330
1F
100
AcDbEntity
  8
0
  6
Continuous
 62
     1
370
    15
100
AcDbLine
 10
62.80000000000629
 20
-7.629959239149605
 30
0.0
 11
62.80000000000629
 21
-4.977363157335304
 31
0.0
1001
PE_URL
1000

  0
LINE
  5
B2
330
1F
100
AcDbEntity
  8
외형선
  6
Continuous
370
    15
100
AcDbLine
 10
12.00000000000629
 20
2.696649150278063
 30
0.0
 11
12.00000000000629
 21
5.589489312348871
 31
0.0
  0
LINE
  5
B3
330
1F
100
AcDbEntity
  8
0
  6
Continuous
 62
     1
370
    15
100
AcDbLine
 10
62.80000000000629
 20
-12.70000000000001
 30
0.0
 11
62.80000000000629
 21
-12.60732239648509
 31
0.0
1001
PE_URL
1000

  0
LINE
  5
B4
330
1F
100
AcDbEntity
  8
외형선
  6
Continuous
370
    15
100
AcDbLine
 10
12.00000000000629
 20
12.09604817226554
 30
0.0
 11
12.00000000000629
 21
12.67076140992456
 31
0.0
  0
SPLINE
  5
B5
330
1F
100
AcDbEntity
  8
0
  6
Continuous
 62
     1
370
    15
100
AcDbSpline
210
0.0
220
0.0
230
1.0
 70
     8
 71
     3
 72
    10
 73
     6
 74
     0
 42
0.000000001
 43
0.00000001
 40
0.0
 40
0.0
 40
0.0
 40
0.0
 40
0.4682059735203764
 40
0.9364792532567869
 40
0.9999999999999999
 40
0.9999999999999999
 40
0.9999999999999999
 40
0.9999999999999999
 10
12.00000000000629
 20
-12.67076140992457
 30
0.0
 10
12.66358798726234
 20
-12.59063266678223
 30
0.0
 10
13.99085935482566
 20
-12.43036366171564
 30
0.0
 10
15.40804813572116
 20
-12.04739268259169
 30
0.0
 10
16.16201899274638
 20
-11.70774501223148
 30
0.0
 10
16.2520779055512
 20
-11.66717540712761
 30
0.0
1001
PE_URL
1000

  0
SPLINE
  5
B6
330
1F
100
AcDbEntity
  8
0
  6
Continuous
 62
     1
370
    15
100
AcDbSpline
210
0.0
220
0.0
230
1.0
 70
     8
 71
     3
 72
    14
 73
    10
 74
     0
 42
0.000000001
 43
0.00000001
 40
0.0
 40
0.0
 40
0.0
 40
0.0
 40
0.0564574553181504
 40
0.213641970195944
 40
0.3709406482314828
 40
0.5282858429842305
 40
0.6854858655175381
 40
0.8426770182181077
 40
1.0
 40
1.0
 40
1.0
 40
1.0
 10
51.03641595544946
 20
12.66901585052437
 30
0.0
 10
51.25777138809124
 20
12.67727824630019
 30
0.0
 10
52.09540763075698
 20
12.7085441703865
 30
0.0
 10
53.5493771203507
 20
12.48482369465216
 30
0.0
 10
55.39986451088148
 20
12.00262779817064
 30
0.0
 10
57.25090490467151
 20
11.24935154495341
 30
0.0
 10
59.10012500993113
 20
10.2590656836344
 30
0.0
 10
60.94923704296625
 20
9.061721959926073
 30
0.0
 10
62.18290664949107
 20
8.107346822008868
 30
0.0
 10
62.80000000000631
 20
7.629959239149657
 30
0.0
1001
PE_URL
1000

  0
LINE
  5
B7
330
1F
100
AcDbEntity
  8
0
  6
Continuous
 62
     1
370
    15
100
AcDbLine
 10
62.80000000000629
 20
4.977363157335532
 30
0.0
 11
62.80000000000629
 21
7.629959239149659
 31
0.0
1001
PE_URL
1000

  0
SPLINE
  5
B8
330
1F
100
AcDbEntity
  8
0
  6
Continuous
 62
     1
370
    15
100
AcDbSpline
210
0.0
220
0.0
230
1.0
 70
     8
 71
     3
 72
    11
 73
     7
 74
     0
 42
0.000000001
 43
0.00000001
 40
0.0
 40
0.0
 40
0.0
 40
0.0
 40
0.2783312547540752
 40
0.5564292813224033
 40
0.8345430001414588
 40
1.0
 40
1.0
 40
1.0
 40
1.0
 10
62.80000000000631
 20
12.60732239648509
 30
0.0
 10
62.18290746472412
 20
12.6564825810549
 30
0.0
 10
60.94923948798222
 20
12.75476175632763
 30
0.0
 10
59.10011523919777
 20
12.55022574315508
 30
0.0
 10
57.50112272632467
 20
12.19549728237689
 30
0.0
 10
56.51762290187464
 20
11.80119258017803
 30
0.0
 10
56.15076611114682
 20
11.65411237332751
 30
0.0
1001
PE_URL
1000

  0
SPLINE
  5
B9
330
1F
100
AcDbEntity
  8
0
  6
Continuous
 62
     1
370
    15
100
AcDbSpline
210
0.0
220
0.0
230
1.0
 70
     8
 71
     3
 72
    12
 73
     8
 74
     0
 42
0.000000001
 43
0.00000001
 40
0.0
 40
0.0
 40
0.0
 40
0.0
 40
0.1494102151718334
 40
0.3621500889887015
 40
0.5748530272543545
 40
0.7874417916132609
 40
1.0
 40
1.0
 40
1.0
 40
1.0
 10
21.36745327210029
 20
-12.66739943898695
 30
0.0
 10
20.90099116549581
 20
-12.66543749379215
 30
0.0
 10
19.77035031056907
 20
-12.66068200484467
 30
0.0
 10
17.97472908114811
 20
-12.29382172532654
 30
0.0
 10
15.98214620167895
 20
-11.62267053301385
 30
0.0
 10
13.99082664161432
 20
-10.67139011089561
 30
0.0
 10
12.66357708338104
 20
-9.823375735587465
 30
0.0
 10
12.00000000000631
 20
-9.39939902198744
 30
0.0
1001
PE_URL
1000

  0
LINE
  5
BA
330
1F
100
AcDbEntity
  8
0
  6
Continuous
 62
     1
370
    15
100
AcDbLine
 10
62.80000000000629
 20
12.60732239648509
 30
0.0
 11
62.80000000000629
 21
12.7
 31
0.0
1001
PE_URL
1000

  0
LINE
  5
BB
330
1F
100
AcDbEntity
  8
외형선
  6
Continuous
370
    15
100
AcDbLine
 10
12.00000000000629
 20
-9.399399021987495
 30
0.0
 11
12.00000000000629
 21
-7.081272097575734
 31
0.0
  0
LINE
  5
BC
330
1F
100
AcDbEntity
  8
0
  6
Continuous
 62
     1
370
    15
100
AcDbLine
 10
62.80000000000629
 20
7.602392618483611
 30
0.0
 11
62.80000000000629
 21
12.60732239648509
 31
0.0
1001
PE_URL
1000

  0
SPLINE
  5
BD
330
1F
100
AcDbEntity
  8
외형선
  6
Continuous
370
    15
100
AcDbSpline
210
0.0
220
0.0
230
1.0
 70
    24
 71
     3
 72
    12
 73
     8
 74
     0
 42
0.000000001
 43
0.00000001
 40
0.0
 40
0.0
 40
0.0
 40
0.0
 40
0.1159378987235673
 40
0.3743116182073007
 40
0.6326853376910334
 40
0.8910590571747663
 40
1.0
 40
1.0
 40
1.0
 40
1.0
 10
12.00000000000628
 20
-9.482626315706844
 30
0.0
 10
12.00000000000628
 20
-9.591918232829702
 30
0.0
 10
12.00000000000628
 20
-9.944772949066843
 30
0.0
 10
12.00000000000624
 20
-10.61148102699703
 30
0.0
 10
12.00000000000628
 20
-11.45255642712311
 30
0.0
 10
12.00000000000628
 20
-12.14808612604841
 30
0.0
 10
12.00000000000629
 20
-12.55120221187404
 30
0.0
 10
12.00000000000631
 20
-12.67076140992457
 30
0.0
  0
LINE
  5
BE
330
1F
100
AcDbEntity
  8
외형선
  6
Continuous
370
    15
100
AcDbLine
 10
11.13693643533975
 20
12.69534895818686
 30
0.0
 11
12.00000000000629
 21
12.67076140992456
 31
0.0
  0
SPLINE
  5
BF
330
1F
100
AcDbEntity
  8
외형선
  6
Continuous
370
    15
100
AcDbSpline
210
0.0
220
0.0
230
1.0
 70
     8
 71
     3
 72
     8
 73
     4
 74
     0
 42
0.000000001
 43
0.00000001
 40
0.0
 40
0.0
 40
0.0
 40
0.0
 40
1.0
 40
1.0
 40
1.0
 40
1.0
 10
12.00000000000629
 20
12.09604817226547
 30
0.0
 10
11.66653456350702
 20
12.19752777236255
 30
0.0
 10
11.33257497495293
 20
12.28656106825256
 30
0.0
 10
10.99966832217147
 20
12.3627566460606
 30
0.0
  0
LINE
  5
C0
330
1F
100
AcDbEntity
  8
외형선
  6
Continuous
370
    15
100
AcDbLine
 10
10.99966832217146
 20
6.468384758867662
 30
0.0
 11
10.99966832217146
 21
12.36276165385266
 31
0.0
  0
SPLINE
  5
C1
330
1F
100
AcDbEntity
  8
외형선
  6
Continuous
370
    15
100
AcDbSpline
210
0.0
220
0.0
230
1.0
 70
     8
 71
     3
 72
     8
 73
     4
 74
     0
 42
0.000000001
 43
0.00000001
 40
0.0
 40
0.0
 40
0.0
 40
0.0
 40
1.0
 40
1.0
 40
1.0
 40
1.0
 10
12.00000000000629
 20
5.58948931234888
 30
0.0
 10
11.66653456350702
 20
5.888535002522297
 30
0.0
 10
11.33257497495293
 20
6.18195334475366
 30
0.0
 10
10.99966832217147
 20
6.468395199538932
 30
0.0
  0
SPLINE
  5
C2
330
1F
100
AcDbEntity
  8
외형선
  6
Continuous
370
    15
100
AcDbSpline
210
0.0
220
0.0
230
1.0
 70
     8
 71
     3
 72
     8
 73
     4
 74
     0
 42
0.000000001
 43
0.00000001
 40
0.0
 40
0.0
 40
0.0
 40
0.0
 40
1.0
 40
1.0
 40
1.0
 40
1.0
 10
12.00000000000629
 20
2.696649150278054
 30
0.0
 10
11.66653456350702
 20
3.02209011509572
 30
0.0
 10
11.33257497495293
 20
3.344905251430754
 30
0.0
 10
10.99966832217147
 20
3.663604289739465
 30
0.0
  0
SPLINE
  5
C3
330
1F
100
AcDbEntity
  8
외형선
  6
Continuous
370
    15
100
AcDbSpline
210
0.0
220
0.0
230
1.0
 70
     8
 71
     3
 72
     8
 73
     4
 74
     0
 42
0.000000001
 43
0.00000001
 40
0.0
 40
0.0
 40
0.0
 40
0.0
 40
1.0
 40
1.0
 40
1.0
 40
1.0
 10
12.00000000000629
 20
-7.08127209757572
 30
0.0
 10
11.66653456350702
 20
-6.804811991434828
 30
0.0
 10
11.33257497495293
 20
-6.520900408516002
 30
0.0
 10
10.99966832217147
 20
-6.2308643470398
 30
0.0
  0
SPLINE
  5
C4
330
1F
100
AcDbEntity
  8
외형선
  6
Continuous
370
    15
100
AcDbSpline
210
0.0
220
0.0
230
1.0
 70
     8
 71
     3
 72
     8
 73
     4
 74
     0
 42
0.000000001
 43
0.00000001
 40
0.0
 40
0.0
 40
0.0
 40
0.0
 40
1.0
 40
1.0
 40
1.0
 40
1.0
 10
12.00000000000629
 20
-9.39939902198744
 30
0.0
 10
11.66653456350702
 20
-9.17543765726685
 30
0.0
 10
11.33257497495293
 20
-8.94165581682182
 30
0.0
 10
10.99966832217147
 20
-8.699152356321152
 30
0.0
  0
LINE
  5
C5
330
1F
100
AcDbEntity
  8
외형선
  6
Continuous
370
    15
100
AcDbLine
 10
10.99966832217146
 20
-12.69925967758003
 30
0.0
 11
10.99966832217146
 21
-8.699136418226423
 31
0.0
  0
SPLINE
  5
C6
330
1F
100
AcDbEntity
  8
외형선
  6
Continuous
370
    15
100
AcDbSpline
210
0.0
220
0.0
230
1.0
 70
     8
 71
     3
 72
     8
 73
     4
 74
     0
 42
0.000000001
 43
0.00000001
 40
0.0
 40
0.0
 40
0.0
 40
0.0
 40
1.0
 40
1.0
 40
1.0
 40
1.0
 10
12.00000000000629
 20
-12.67076140992457
 30
0.0
 10
11.66653456350702
 20
-12.6933469939571
 30
0.0
 10
11.33257497495293
 20
-12.70285375326964
 30
0.0
 10
10.99966832217147
 20
-12.69925954657871
 30
0.0
  0
LINE
  5
C7
330
1F
100
AcDbEntity
  8
외형선
  6
Continuous
370
    15
100
AcDbLine
 10
-48.95999999999371
 20
-0.0000000000000056
 30
0.0
 11
-48.95999999999371
 21
10.79499999999999
 31
0.0
  0
LINE
  5
C8
330
1F
100
AcDbEntity
  8
외형선
  6
Continuous
370
    15
100
AcDbLine
 10
-48.95999999999371
 20
-12.70000000000001
 30
0.0
 11
-48.95999999999371
 21
-0.0000000000000056
 31
0.0
  0
LINE
  5
C9
330
1F
100
AcDbEntity
  8
외형선
  6
Continuous
370
    15
100
AcDbLine
 10
10.99966832217146
 20
-6.230874918712387
 30
0.0
 11
10.99966832217146
 21
3.663625235626255
 31
0.0
  0
LINE
  5
CA
330
1F
100
AcDbEntity
  8
외형선
  6
Continuous
370
    15
100
AcDbLine
 10
-51.49999999999371
 20
-0.0000000000000056
 30
0.0
 11
-51.49999999999371
 21
10.79499999999999
 31
0.0
  0
LINE
  5
CB
330
1F
100
AcDbEntity
  8
외형선
  6
Continuous
370
    15
100
AcDbLine
 10
-51.49999999999371
 20
-10.16000000000001
 30
0.0
 11
-51.49999999999371
 21
-0.0000000000000056
 31
0.0
  0
SPLINE
  5
CC
330
1F
100
AcDbEntity
  8
외형선
  6
Continuous
370
    15
100
AcDbSpline
210
0.0
220
0.0
230
1.0
 70
    24
 71
     3
 72
    34
 73
    30
 74
     0
 42
0.000000001
 43
0.00000001
 40
0.0
 40
0.0
 40
0.0
 40
0.0
 40
0.0625000000000001
 40
0.0625000000000001
 40
0.1250000000000002
 40
0.1250000000000002
 40
0.1875000000000003
 40
0.1875000000000003
 40
0.2500000000000004
 40
0.2500000000000004
 40
0.3125000000000005
 40
0.3125000000000005
 40
0.3750000000000006
 40
0.3750000000000006
 40
0.4375000000000006
 40
0.4375000000000006
 40
0.5000000000000007
 40
0.5000000000000007
 40
0.6250000000000006
 40
0.6250000000000006
 40
0.7500000000000004
 40
0.7500000000000004
 40
0.8125000000000002
 40
0.8125000000000002
 40
0.84375
 40
0.84375
 40
0.8749999999999999
 40
0.8749999999999999
 40
1.0
 40
1.0
 40
1.0
 40
1.0
 10
12.00000000000629
 20
-7.081272097575615
 30
0.0
 10
12.00000000000632
 20
-6.965494113312338
 30
0.0
 10
12.00000000000631
 20
-6.81947782562863
 30
0.0
 10
12.00000000000632
 20
-6.461890842341757
 30
0.0
 10
12.00000000000632
 20
-6.250226161238334
 30
0.0
 10
12.00000000000633
 20
-5.763708311497848
 30
0.0
 10
12.00000000000632
 20
-5.48883301892499
 30
0.0
 10
12.00000000000632
 20
-4.887886093479126
 30
0.0
 10
12.00000000000629
 20
-4.56190245432821
 30
0.0
 10
12.00000000000626
 20
-3.87947213373812
 30
0.0
 10
12.00000000000631
 20
-3.523202107414031
 30
0.0
 10
12.00000000000629
 20
-2.805551804792774
 30
0.0
 10
12.00000000000632
 20
-2.444358452528565
 30
0.0
 10
12.00000000000631
 20
-1.741045697891506
 30
0.0
 10
12.00000000000632
 20
-1.399043692221907
 30
0.0
 10
12.00000000000631
 20
-0.7522894951129395
 30
0.0
 10
12.00000000000632
 20
-0.4475570821229287
 30
0.0
 10
12.00000000000633
 20
0.3956746645774257
 30
0.0
 10
12.00000000000632
 20
0.8606868275215787
 30
0.0
 10
12.00000000000632
 20
1.597237894373317
 30
0.0
 10
12.00000000000631
 20
1.871022222552764
 30
0.0
 10
12.00000000000632
 20
2.177533391839111
 30
0.0
 10
12.00000000000632
 20
2.262500631094661
 30
0.0
 10
12.00000000000628
 20
2.369156522388625
 30
0.0
 10
12.00000000000628
 20
2.400841540002315
 30
0.0
 10
12.00000000000629
 20
2.459922380447082
 30
0.0
 10
12.00000000000631
 20
2.487877803301476
 30
0.0
 10
12.00000000000631
 20
2.617645494524124
 30
0.0
 10
12.00000000000628
 20
2.690572648142519
 30
0.0
 10
12.00000000000629
 20
2.696649150278054
 30
0.0
  0
SPLINE
  5
CD
330
1F
100
AcDbEntity
  8
외형선
  6
Continuous
370
    15
100
AcDbSpline
210
0.0
220
0.0
230
1.0
 70
    24
 71
     3
 72
    16
 73
    12
 74
     0
 42
0.000000001
 43
0.00000001
 40
0.0
 40
0.0
 40
0.0
 40
0.0
 40
0.102531879483829
 40
0.2229720492942685
 40
0.3434122191047071
 40
0.4638523889151456
 40
0.5842925587255856
 40
0.7047327285360251
 40
0.825172898346464
 40
0.9456130681569035
 40
1.0
 40
1.0
 40
1.0
 40
1.0
 10
12.00000000000633
 20
5.672706606068222
 30
0.0
 10
12.00000000000632
 20
5.83108995893086
 30
0.0
 10
12.00000000000629
 20
6.175520012682579
 30
0.0
 10
12.00000000000625
 20
6.828053350603834
 30
0.0
 10
12.00000000000629
 20
7.583937393475598
 30
0.0
 10
12.00000000000629
 20
8.399249594992694
 30
0.0
 10
12.00000000000629
 20
9.248809329955812
 30
0.0
 10
12.00000000000628
 20
10.10892481510576
 30
0.0
 10
12.00000000000632
 20
10.95364902536897
 30
0.0
 10
12.00000000000642
 20
11.61630249534577
 30
0.0
 10
12.00000000000629
 20
11.98221615668325
 30
0.0
 10
12.00000000000626
 20
12.09604817226547
 30
0.0
  0
SPLINE
  5
CE
330
1F
100
AcDbEntity
  8
외형선
  6
Continuous
370
    15
100
AcDbSpline
210
0.0
220
0.0
230
1.0
 70
    24
 71
     3
 72
    12
 73
     8
 74
     0
 42
0.000000001
 43
0.00000001
 40
0.0
 40
0.0
 40
0.0
 40
0.0
 40
0.2312373071319782
 40
0.4624746142639563
 40
0.7214153688438023
 40
0.9803561234236483
 40
0.9999999999999999
 40
0.9999999999999999
 40
0.9999999999999999
 40
0.9999999999999999
 10
12.00000000000629
 20
-12.67076140992457
 30
0.0
 10
12.00000000000631
 20
-12.4166415075358
 30
0.0
 10
12.00000000000632
 20
-11.90840170275824
 30
0.0
 10
12.00000000000636
 20
-11.11149111506121
 30
0.0
 10
12.00000000000631
 20
-10.31548909315135
 30
0.0
 10
12.00000000000625
 20
-9.754719581425372
 30
0.0
 10
12.00000000000626
 20
-9.500539360718324
 30
0.0
 10
12.00000000000626
 20
-9.482616315706846
 30
0.0
  0
LINE
  5
CF
330
1F
100
AcDbEntity
  8
중심선
 62
     1
100
AcDbLine
 10
-58.4999999999937
 20
-0.0000000000000121
 30
0.0
 11
69.80000000000629
 21
0.0000000000000033
 31
0.0
  0
LINE
  5
D0
330
1F
100
AcDbEntity
  8
참조1
100
AcDbLine
 10
5.65000000000629
 20
-0.0000000000000113
 30
0.0
 11
5.650000000006296
 21
-40.00000000000001
 31
0.0
  0
LINE
  5
D1
330
1F
100
AcDbEntity
  8
참조1
100
AcDbLine
 10
5.650000000006296
 20
-40.00000000000001
 30
0.0
 11
-19.03385681430238
 21
-40.00000000000001
 31
0.0
  0
CIRCLE
  5
D2
330
1F
100
AcDbEntity
  8
해칭선
100
AcDbCircle
 10
0.0
 20
0.0
 30
0.0
 40
3.000000000000001
  0
INSERT
  5
D3
330
1F
100
AcDbEntity
  8
0
  6
Continuous
 62
     7
100
AcDbBlockReference
 66
     1
  2
블럭10
 10
-8.290272932118915
 20
-52.04717430164394
 30
0.0
  0
ATTRIB
  5
D4
330
D3
100
AcDbEntity
  8
FORMAT
 62
     2
100
AcDbText
 10
-17.4715682208602
 20
-49.97180738881175
 30
0.0
 40
4.233333333333333
  1
E2042064 [ 6 FLUTE ]
 41
0.75
  7
SLDTEXTSTYLE0
 11
-17.4715682208602
 21
-52.08847405547842
 31
0.0
100
AcDbAttribute
  2
AUTOATTR0
 70
     0
 74
     1
  0
SEQEND
  5
D5
330
D3
100
AcDbEntity
  8
0
  6
Continuous
 62
     7
  0
HATCH
  5
D6
330
1F
100
AcDbEntity
  8
중심선
100
AcDbHatch
 10
0.0
 20
0.0
 30
0.0
210
0.0
220
0.0
230
1.0
  2
SOLID
 70
     1
 71
     0
 91
        1
 92
        0
 93
        4
 72
     1
 10
-2.575363627738066
 20
-35.8
 11
-6.021638871575348
 21
-35.8
 72
     1
 10
-6.021638871575348
 20
-35.8
 11
-8.149868730779371
 21
-38.33632558057263
 72
     1
 10
-8.149868730779371
 20
-38.33632558057263
 11
-4.703560401828912
 21
-38.33628615127014
 72
     1
 10
-4.703560401828912
 20
-38.33628615127014
 11
-2.575363627738066
 21
-35.8
 97
        0
 75
     0
 76
     1
 98
        1
 10
-9.524999999993746
 20
-0.0010749287239005
  0
HATCH
  5
D7
330
1F
100
AcDbEntity
  8
중심선
100
AcDbHatch
 10
0.0
 20
0.0
 30
0.0
210
0.0
220
0.0
230
1.0
  2
SOLID
 70
     1
 71
     0
 91
        1
 92
        0
 93
        4
 72
     1
 10
2.437400363297913
 20
-35.8
 11
-1.00887488053937
 21
-35.8
 72
     1
 10
-1.00887488053937
 20
-35.8
 11
-5.540012888896785
 21
-41.20000000000002
 72
     1
 10
-5.540012888896785
 20
-41.20000000000002
 11
-2.093737645059504
 21
-41.20000000000002
 72
     1
 10
-2.093737645059504
 20
-41.20000000000002
 11
2.437400363297912
 21
-35.8
 97
        0
 75
     0
 76
     1
 98
        1
 10
-9.524999999993746
 20
-0.0010749287239005
  0
HATCH
  5
D8
330
1F
100
AcDbEntity
  8
중심선
100
AcDbHatch
 10
0.0
 20
0.0
 30
0.0
210
0.0
220
0.0
230
1.0
  2
SOLID
 70
     1
 71
     0
 91
        1
 92
        0
 93
        4
 72
     1
 10
7.450164354333779
 20
-35.8
 11
4.003889110496694
 21
-35.8
 72
     1
 10
4.003889110496694
 20
-35.8
 11
-3.044547791392584
 21
-44.20000000000002
 72
     1
 10
-3.044547791392584
 20
-44.20000000000002
 11
0.4017274524446979
 21
-44.20000000000002
 72
     1
 10
0.4017274524446979
 20
-44.20000000000002
 11
7.450164354333779
 21
-35.8
 97
        0
 75
     0
 76
     1
 98
        1
 10
-9.524999999993746
 20
-0.0010749287239005
  0
HATCH
  5
D9
330
1F
100
AcDbEntity
  8
중심선
100
AcDbHatch
 10
0.0
 20
0.0
 30
0.0
210
0.0
220
0.0
230
1.0
  2
SOLID
 70
     1
 71
     0
 91
        1
 92
        0
 93
        6
 72
     3
 10
12.25005478534598
 20
-40.00000000005128
 11
3.960054785062283
 21
1.540882976769353E-10
 40
0.3939339440162628
 50
17.09539180608436
 51
320.0019657685082
 73
     0
 72
     1
 10
13.93305444104655
 20
-38.58789400463834
 11
16.23835631474761
 21
-36.65356729459042
 72
     3
 10
12.25005478529313
 20
-40.00000000000016
 11
6.600054785286829
 21
-1.278976924368180E-13
 40
0.636358354079598
 50
39.99873849337385
 51
368.4976242363724
 73
     1
 72
     1
 10
18.67538727719374
 20
-39.03999999993003
 11
10.93012209212908
 21
-39.03999999993003
 72
     1
 10
10.93012209212908
 20
-39.03999999993003
 11
10.93009704768312
 21
-40.95999999992992
 72
     1
 10
10.93009704768312
 20
-40.95999999992992
 11
15.37147681715516
 21
-40.95999999992989
 97
        0
 75
     0
 76
     1
 98
        1
 10
-9.524999999993746
 20
-0.0010749287239005
  0
DIMENSION
  5
DA
330
1F
100
AcDbEntity
  8
치수문자_일반주서
100
AcDbDimension
  2
_D
 10
-66.49999999999366
 20
-12.70000000000006
 30
0.0
 11
-66.49999999999382
 21
31.92899999999992
 31
0.0
 70
   160
  1
%%c<>
 71
     2
 42
25.39999999999993
 52
-270.0
  3
SLDDIMSTYLE0
100
AcDbAlignedDimension
 13
-36.89499999999372
 23
12.69999999999999
 33
0.0
 14
-48.9599999999937
 24
-12.69999999999999
 34
0.0
 50
90.0000000000002
100
AcDbRotatedDimension
1001
PE_URL
1000

1001
ACAD
1000
DSTYLE
1002
{
1070
   171
1070
     8
1070
   273
1070
     7
1070
   140
1040
4.0
1002
}
  0
DIMENSION
  5
EF
330
1F
100
AcDbEntity
  8
치수문자_일반주서
100
AcDbDimension
  2
_D_1
 10
12.0000000000063
 20
27.7
 30
0.0
 11
37.40000000000633
 21
27.7
 31
0.0
 70
   160
  1
<>
 71
     2
 42
50.8
  3
SLDDIMSTYLE0
100
AcDbAlignedDimension
 13
62.80000000000629
 23
12.60732239648509
 33
0.0
 14
12.00000000000629
 24
12.67076140992456
 34
0.0
100
AcDbRotatedDimension
1001
PE_URL
1000

1001
ACAD
1000
DSTYLE
1002
{
1070
   171
1070
     8
1070
   273
1070
     7
1070
   140
1040
4.0
1002
}
  0
DIMENSION
  5
103
330
1F
100
AcDbEntity
  8
치수문자_일반주서
100
AcDbDimension
  2
_D_2
 10
-51.49999999999371
 20
42.7
 30
0.0
 11
5.650000000006308
 21
42.7
 31
0.0
 70
   160
  1
<>
 71
     2
 42
114.3
  3
SLDDIMSTYLE0
100
AcDbAlignedDimension
 13
62.80000000000629
 23
12.60732239648509
 33
0.0
 14
-51.49999999999371
 24
10.79499999999999
 34
0.0
100
AcDbRotatedDimension
1001
PE_URL
1000

1001
ACAD
1000
DSTYLE
1002
{
1070
   171
1070
     8
1070
   273
1070
     7
1070
   140
1040
4.0
1002
}
  0
DIMENSION
  5
116
330
1F
100
AcDbEntity
  8
치수문자_일반주서
100
AcDbDimension
  2
_D_3
 10
77.80000000000636
 20
-12.69999999999995
 30
0.0
 11
77.80000000000621
 21
31.92900000000006
 31
0.0
 70
   160
  1
%%c<>
 71
     2
 42
25.40000000000001
 52
-270.0
  3
SLDDIMSTYLE0
100
AcDbAlignedDimension
 13
62.80000000000629
 23
12.7
 33
0.0
 14
62.80000000000629
 24
-12.70000000000001
 34
0.0
 50
90.0000000000002
100
AcDbRotatedDimension
1001
PE_URL
1000

1001
ACAD
1000
DSTYLE
1002
{
1070
   171
1070
     8
1070
   273
1070
     7
1070
   140
1040
4.0
1002
}
  0
LINE
  5
129
330
1F
100
AcDbEntity
  8
참조1
100
AcDbLine
 10
78.9384838153519
 20
7.439999999999995
 30
0.0
 11
78.9384838153519
 21
-7.440000000000009
 31
0.0
  0
LINE
  5
12A
330
1F
100
AcDbEntity
  8
참조1
100
AcDbLine
 10
91.63848381535189
 20
5.439999999999995
 30
0.0
 11
78.9384838153519
 21
5.439999999999995
 31
0.0
  0
SOLID
  5
12B
330
1F
100
AcDbEntity
  8
참조1
100
AcDbTrace
 10
78.9384838153519
 20
5.439999999999995
 30
0.0
 11
85.2884838153519
 21
4.423999999999995
 31
0.0
 12
85.2884838153519
 22
6.455999999999995
 32
0.0
 13
85.2884838153519
 23
6.455999999999995
 33
0.0
  0
LINE
  5
12C
330
1F
100
AcDbEntity
  8
참조1
100
AcDbLine
 10
91.63848381535189
 20
-5.440000000000009
 30
0.0
 11
78.9384838153519
 21
-5.440000000000009
 31
0.0
  0
SOLID
  5
12D
330
1F
100
AcDbEntity
  8
참조1
100
AcDbTrace
 10
78.9384838153519
 20
-5.440000000000009
 30
0.0
 11
85.2884838153519
 21
-6.456000000000009
 31
0.0
 12
85.2884838153519
 22
-4.424000000000009
 32
0.0
 13
85.2884838153519
 23
-4.424000000000009
 33
0.0
  0
MTEXT
  5
12E
330
1F
100
AcDbEntity
  8
참조1
100
AcDbMText
 10
88.33597390782217
 20
10.98821664464993
 30
0.0
 40
3.5
 41
0.0
 71
     1
 72
     1
  1
A
  7
SLDTEXTSTYLE0
 73
     1
 44
1.0
  0
MTEXT
  5
12F
330
1F
100
AcDbEntity
  8
참조1
100
AcDbMText
 10
88.33597390782217
 20
0.1082166446499246
 30
0.0
 40
3.5
 41
0.0
 71
     1
 72
     1
  1
A
  7
SLDTEXTSTYLE0
 73
     1
 44
1.0
  0
INSERT
  5
136
330
1F
100
AcDbEntity
  8
해칭선
100
AcDbBlockReference
  2
SW_DOWELSYMBOL_0
 10
0.0
 20
0.0
 30
0.0
  0
LINE
  5
1E9
330
1F
100
AcDbEntity
  8
외형선
  6
Continuous
370
    15
100
AcDbLine
 10
-29.08132499999362
 20
10.79499999999999
 30
0.0
 11
-15.97492499999372
 21
10.79499999999999
 31
0.0
1001
PE_URL
1000

  0
LINE
  5
1EA
330
1F
100
AcDbEntity
  8
외형선
  6
Continuous
370
    15
100
AcDbLine
 10
-29.08132499999362
 20
10.79500000000001
 30
0.0
 11
-30.98632499999359
 21
12.7
 31
0.0
1001
PE_URL
1000

  0
LINE
  5
1EB
330
1F
100
AcDbEntity
  8
외형선
  6
Continuous
370
    15
100
AcDbLine
 10
-15.97492499999372
 20
10.79500000000001
 30
0.0
 11
-14.0699249999937
 21
12.7
 31
0.0
1001
PE_URL
1000

  0
LINE
  5
1EC
330
1F
100
AcDbEntity
  8
외형선
  6
Continuous
370
    15
100
AcDbLine
 10
-51.49999999999371
 20
10.79499999999999
 30
0.0
 11
-38.79999999999369
 21
10.79499999999999
 31
0.0
1001
PE_URL
1000

  0
LINE
  5
1ED
330
1F
100
AcDbEntity
  8
외형선
  6
Continuous
370
    15
100
AcDbLine
 10
-38.79999999999369
 20
10.79500000000001
 30
0.0
 11
-36.89499999999372
 21
12.69999999999999
 31
0.0
1001
PE_URL
1000

  0
LINE
  5
1EE
330
1F
100
AcDbEntity
  8
외형선
  6
Continuous
370
    15
100
AcDbLine
 10
-30.98632499999359
 20
12.7
 30
0.0
 11
-36.89499999999371
 21
12.7
 31
0.0
  0
ENDSEC
  0
SECTION
  2
OBJECTS
  0
DICTIONARY
  5
C
330
0
100
AcDbDictionary
281
     1
  3
ACAD_DETAILVIEWSTYLE
350
1F4
  3
ACAD_GROUP
350
D
  3
ACAD_IMAGE_VARS
350
219
  3
ACAD_LAYOUT
350
1A
  3
ACAD_MLINESTYLE
350
17
  3
ACAD_PLOTSETTINGS
350
19
  3
ACAD_PLOTSTYLENAME
350
E
  3
ACAD_SCALELIST
350
47
  3
ACAD_SECTIONVIEWSTYLE
350
1F5
  3
AcDbVariableDictionary
350
1EF
  3
APPDATA
350
158
  3
DWGPROPS
350
21A
  0
DICTIONARY
  5
18E
330
2
100
AcDbDictionary
280
     1
281
     1
  3
ACAD_LAYERSTATES
360
18F
  0
DICTIONARY
  5
1F4
102
{ACAD_REACTORS
330
C
102
}
330
C
100
AcDbDictionary
281
     1
  0
DICTIONARY
  5
D
102
{ACAD_REACTORS
330
C
102
}
330
C
100
AcDbDictionary
281
     1
  0
RASTERVARIABLES
  5
219
102
{ACAD_REACTORS
330
C
102
}
330
C
100
AcDbRasterVariables
 90
        0
 70
     1
 71
     1
 72
     1
  0
DICTIONARY
  5
1A
102
{ACAD_REACTORS
330
C
102
}
330
C
100
AcDbDictionary
281
     1
  3
Layout1
350
1E
  3
Layout2
350
26
  3
Model
350
22
  0
DICTIONARY
  5
17
102
{ACAD_REACTORS
330
C
102
}
330
C
100
AcDbDictionary
281
     1
  3
Standard
350
18
  0
DICTIONARY
  5
19
102
{ACAD_REACTORS
330
C
102
}
330
C
100
AcDbDictionary
281
     1
  0
ACDBDICTIONARYWDFLT
  5
E
102
{ACAD_REACTORS
330
C
102
}
330
C
100
AcDbDictionary
281
     1
  3
Normal
350
F
100
AcDbDictionaryWithDefault
340
F
  0
DICTIONARY
  5
47
102
{ACAD_REACTORS
330
C
102
}
330
C
100
AcDbDictionary
281
     1
  3
A0
350
48
  3
A1
350
49
  3
A2
350
4A
  3
A3
350
4B
  3
A4
350
4C
  3
A5
350
4D
  3
A6
350
4E
  3
A7
350
4F
  3
A8
350
50
  3
A9
350
51
  3
B0
350
52
  3
B1
350
53
  3
B2
350
54
  3
B3
350
55
  3
B4
350
56
  3
B5
350
57
  3
B6
350
58
  3
B7
350
59
  3
B8
350
5A
  3
B9
350
5B
  3
C0
350
5C
  3
C1
350
5D
  3
C2
350
5E
  3
C3
350
5F
  3
C4
350
60
  3
C5
350
61
  3
C6
350
62
  3
C7
350
63
  3
C8
350
64
  3
C9
350
65
  3
D0
350
66
  3
D1
350
67
  3
D2
350
68
  0
DICTIONARY
  5
1F5
102
{ACAD_REACTORS
330
C
102
}
330
C
100
AcDbDictionary
281
     1
  0
DICTIONARY
  5
1EF
102
{ACAD_REACTORS
330
C
102
}
330
C
100
AcDbDictionary
281
     1
  0
DICTIONARY
  5
158
102
{ACAD_REACTORS
330
C
102
}
330
C
100
AcDbDictionary
281
     1
  0
XRECORD
  5
21A
102
{ACAD_REACTORS
330
C
102
}
330
C
100
AcDbXrecord
280
     1
  1
DWGPROPS COOKIE
  2

  3

  4

  6

  7

  8
12016016
  9

300
=
301
=
302
=
303
=
304
=
305
=
306
=
307
=
308
=
309
=
 40
0.0
 41
2458323.06314441
 42
2458330.391404653
  1

 90
        0
  0
DICTIONARY
  5
18F
102
{ACAD_REACTORS
330
18E
102
}
330
18E
100
AcDbDictionary
281
     1
  0
LAYOUT
  5
1E
102
{ACAD_REACTORS
330
1A
102
}
330
1A
100
AcDbPlotSettings
  1

  2
none_device
  4

  6

 40
0.0
 41
0.0
 42
0.0
 43
0.0
 44
0.0
 45
0.0
 46
0.0
 47
0.0
 48
0.0
 49
0.0
140
0.0
141
0.0
142
1.0
143
1.0
 70
   688
 72
     1
 73
     0
 74
     5
  7

 75
    16
147
1.0
148
0.0
149
0.0
100
AcDbLayout
  1
Layout1
 70
     1
 71
     1
 10
0.0
 20
0.0
 11
420.0
 21
297.0
 12
0.0
 22
0.0
 32
0.0
 14
1.000000000000000E+20
 24
1.000000000000000E+20
 34
1.000000000000000E+20
 15
-1.000000000000000E+20
 25
-1.000000000000000E+20
 35
-1.000000000000000E+20
146
0.0
 13
0.0
 23
0.0
 33
0.0
 16
1.0
 26
0.0
 36
0.0
 17
0.0
 27
1.0
 37
0.0
 76
     0
330
1B
  0
LAYOUT
  5
26
102
{ACAD_REACTORS
330
1A
102
}
330
1A
100
AcDbPlotSettings
  1

  2
none_device
  4

  6

 40
0.0
 41
0.0
 42
0.0
 43
0.0
 44
0.0
 45
0.0
 46
0.0
 47
0.0
 48
0.0
 49
0.0
140
0.0
141
0.0
142
1.0
143
1.0
 70
   688
 72
     1
 73
     0
 74
     5
  7

 75
    16
147
1.0
148
0.0
149
0.0
100
AcDbLayout
  1
Layout2
 70
     1
 71
     2
 10
0.0
 20
0.0
 11
0.0
 21
0.0
 12
0.0
 22
0.0
 32
0.0
 14
0.0
 24
0.0
 34
0.0
 15
0.0
 25
0.0
 35
0.0
146
0.0
 13
0.0
 23
0.0
 33
0.0
 16
1.0
 26
0.0
 36
0.0
 17
0.0
 27
1.0
 37
0.0
 76
     0
330
23
  0
LAYOUT
  5
22
102
{ACAD_REACTORS
330
1A
102
}
330
1A
100
AcDbPlotSettings
  1

  2
none_device
  4
ANSI_A_(11.00_x_8.50_Inches)
  6

 40
6.35
 41
19.05
 42
6.35000508
 43
19.05000254
 44
279.4
 45
215.9
 46
64.33777981118065
 47
85.03722345594286
 48
0.0
 49
0.0
140
0.0
141
0.0
142
0.0420885210409535
143
1.0
 70
  1696
 72
     0
 73
     0
 74
     0
  7

 75
     0
147
0.0235690232323232
148
0.0
149
0.0
100
AcDbLayout
  1
Model
 70
     1
 71
     0
 10
0.0
 20
0.0
 11
420.0
 21
297.0
 12
0.0
 22
0.0
 32
0.0
 14
-71.37499999999386
 24
-49.97180738881175
 34
0.0
 15
91.63848381535189
 25
47.57499999999999
 35
0.0
146
0.0
 13
0.0
 23
0.0
 33
0.0
 16
1.0
 26
0.0
 36
0.0
 17
0.0
 27
1.0
 37
0.0
 76
     0
330
1F
331
29
  0
MLINESTYLE
  5
18
102
{ACAD_REACTORS
330
17
102
}
330
17
100
AcDbMlineStyle
  2
Standard
 70
     0
  3

 62
   256
 51
90.0
 52
90.0
 71
     2
 49
0.5
 62
   256
  6
BYLAYER
 49
-0.5
 62
   256
  6
BYLAYER
  0
ACDBPLACEHOLDER
  5
F
102
{ACAD_REACTORS
330
E
102
}
330
E
  0
SCALE
  5
48
102
{ACAD_REACTORS
330
47
102
}
330
47
100
AcDbScale
 70
     0
300
1:1
140
1.0
141
1.0
290
     1
  0
SCALE
  5
49
102
{ACAD_REACTORS
330
47
102
}
330
47
100
AcDbScale
 70
     0
300
1:2
140
1.0
141
2.0
290
     0
  0
SCALE
  5
4A
102
{ACAD_REACTORS
330
47
102
}
330
47
100
AcDbScale
 70
     0
300
1:4
140
1.0
141
4.0
290
     0
  0
SCALE
  5
4B
102
{ACAD_REACTORS
330
47
102
}
330
47
100
AcDbScale
 70
     0
300
1:5
140
1.0
141
5.0
290
     0
  0
SCALE
  5
4C
102
{ACAD_REACTORS
330
47
102
}
330
47
100
AcDbScale
 70
     0
300
1:8
140
1.0
141
8.0
290
     0
  0
SCALE
  5
4D
102
{ACAD_REACTORS
330
47
102
}
330
47
100
AcDbScale
 70
     0
300
1:10
140
1.0
141
10.0
290
     0
  0
SCALE
  5
4E
102
{ACAD_REACTORS
330
47
102
}
330
47
100
AcDbScale
 70
     0
300
1:16
140
1.0
141
16.0
290
     0
  0
SCALE
  5
4F
102
{ACAD_REACTORS
330
47
102
}
330
47
100
AcDbScale
 70
     0
300
1:20
140
1.0
141
20.0
290
     0
  0
SCALE
  5
50
102
{ACAD_REACTORS
330
47
102
}
330
47
100
AcDbScale
 70
     0
300
1:30
140
1.0
141
30.0
290
     0
  0
SCALE
  5
51
102
{ACAD_REACTORS
330
47
102
}
330
47
100
AcDbScale
 70
     0
300
1:40
140
1.0
141
40.0
290
     0
  0
SCALE
  5
52
102
{ACAD_REACTORS
330
47
102
}
330
47
100
AcDbScale
 70
     0
300
1:50
140
1.0
141
50.0
290
     0
  0
SCALE
  5
53
102
{ACAD_REACTORS
330
47
102
}
330
47
100
AcDbScale
 70
     0
300
1:100
140
1.0
141
100.0
290
     0
  0
SCALE
  5
54
102
{ACAD_REACTORS
330
47
102
}
330
47
100
AcDbScale
 70
     0
300
2:1
140
2.0
141
1.0
290
     0
  0
SCALE
  5
55
102
{ACAD_REACTORS
330
47
102
}
330
47
100
AcDbScale
 70
     0
300
4:1
140
4.0
141
1.0
290
     0
  0
SCALE
  5
56
102
{ACAD_REACTORS
330
47
102
}
330
47
100
AcDbScale
 70
     0
300
8:1
140
8.0
141
1.0
290
     0
  0
SCALE
  5
57
102
{ACAD_REACTORS
330
47
102
}
330
47
100
AcDbScale
 70
     0
300
10:1
140
10.0
141
1.0
290
     0
  0
SCALE
  5
58
102
{ACAD_REACTORS
330
47
102
}
330
47
100
AcDbScale
 70
     0
300
100:1
140
100.0
141
1.0
290
     0
  0
SCALE
  5
59
102
{ACAD_REACTORS
330
47
102
}
330
47
100
AcDbScale
 70
     0
300
1/128" = 1'-0"
140
0.0078125
141
12.0
290
     0
  0
SCALE
  5
5A
102
{ACAD_REACTORS
330
47
102
}
330
47
100
AcDbScale
 70
     0
300
1/64" = 1'-0"
140
0.015625
141
12.0
290
     0
  0
SCALE
  5
5B
102
{ACAD_REACTORS
330
47
102
}
330
47
100
AcDbScale
 70
     0
300
1/32" = 1'-0"
140
0.03125
141
12.0
290
     0
  0
SCALE
  5
5C
102
{ACAD_REACTORS
330
47
102
}
330
47
100
AcDbScale
 70
     0
300
1/16" = 1'-0"
140
0.0625
141
12.0
290
     0
  0
SCALE
  5
5D
102
{ACAD_REACTORS
330
47
102
}
330
47
100
AcDbScale
 70
     0
300
3/32" = 1'-0"
140
0.09375
141
12.0
290
     0
  0
SCALE
  5
5E
102
{ACAD_REACTORS
330
47
102
}
330
47
100
AcDbScale
 70
     0
300
1/8" = 1'-0"
140
0.125
141
12.0
290
     0
  0
SCALE
  5
5F
102
{ACAD_REACTORS
330
47
102
}
330
47
100
AcDbScale
 70
     0
300
3/16" = 1'-0"
140
0.1875
141
12.0
290
     0
  0
SCALE
  5
60
102
{ACAD_REACTORS
330
47
102
}
330
47
100
AcDbScale
 70
     0
300
1/4" = 1'-0"
140
0.25
141
12.0
290
     0
  0
SCALE
  5
61
102
{ACAD_REACTORS
330
47
102
}
330
47
100
AcDbScale
 70
     0
300
3/8" = 1'-0"
140
0.375
141
12.0
290
     0
  0
SCALE
  5
62
102
{ACAD_REACTORS
330
47
102
}
330
47
100
AcDbScale
 70
     0
300
1/2" = 1'-0"
140
0.5
141
12.0
290
     0
  0
SCALE
  5
63
102
{ACAD_REACTORS
330
47
102
}
330
47
100
AcDbScale
 70
     0
300
3/4" = 1'-0"
140
0.75
141
12.0
290
     0
  0
SCALE
  5
64
102
{ACAD_REACTORS
330
47
102
}
330
47
100
AcDbScale
 70
     0
300
1" = 1'-0"
140
1.0
141
12.0
290
     0
  0
SCALE
  5
65
102
{ACAD_REACTORS
330
47
102
}
330
47
100
AcDbScale
 70
     0
300
1-1/2" = 1'-0"
140
1.5
141
12.0
290
     0
  0
SCALE
  5
66
102
{ACAD_REACTORS
330
47
102
}
330
47
100
AcDbScale
 70
     0
300
3" = 1'-0"
140
3.0
141
12.0
290
     0
  0
SCALE
  5
67
102
{ACAD_REACTORS
330
47
102
}
330
47
100
AcDbScale
 70
     0
300
6" = 1'-0"
140
6.0
141
12.0
290
     0
  0
SCALE
  5
68
102
{ACAD_REACTORS
330
47
102
}
330
47
100
AcDbScale
 70
     0
300
1'-0" = 1'-0"
140
12.0
141
12.0
290
     0
  0
ENDSEC
  0
EOF
