  0
SECTION
  2
HEADER
  9
$ACADVER
  1
AC1015
  9
$ACADMAINTVER
 70
     6
  9
$DWGCODEPAGE
  3
ANSI_949
  9
$INSBASE
 10
0.0
 20
0.0
 30
0.0
  9
$EXTMIN
 10
-71.37500000000014
 20
-49.97180738881183
 30
0.0
  9
$EXTMAX
 10
107.5134838153456
 20
63.02274999999997
 30
0.0
  9
$LIMMIN
 10
0.0
 20
0.0
  9
$LIMMAX
 10
420.0
 20
297.0
  9
$ORTHOMODE
 70
     1
  9
$REGENMODE
 70
     1
  9
$FILLMODE
 70
     1
  9
$QTEXTMODE
 70
     0
  9
$MIRRTEXT
 70
     1
  9
$LTSCALE
 40
1.0
  9
$ATTMODE
 70
     1
  9
$TEXTSIZE
 40
3.5
  9
$TRACEWID
 40
1.0
  9
$TEXTSTYLE
  7
Standard
  9
$CLAYER
  8
0
  9
$CELTYPE
  6
ByLayer
  9
$CECOLOR
 62
   256
  9
$CELTSCALE
 40
1.0
  9
$DISPSILH
 70
     0
  9
$DIMSCALE
 40
1.0
  9
$DIMASZ
 40
3.302
  9
$DIMEXO
 40
1.0
  9
$DIMDLI
 40
3.75
  9
$DIMRND
 40
0.0
  9
$DIMDLE
 40
0.0
  9
$DIMEXE
 40
1.0
  9
$DIMTP
 40
0.0
  9
$DIMTM
 40
0.0
  9
$DIMTXT
 40
3.5
  9
$DIMCEN
 40
2.5
  9
$DIMTSZ
 40
0.0
  9
$DIMTOL
 70
     0
  9
$DIMLIM
 70
     0
  9
$DIMTIH
 70
     1
  9
$DIMTOH
 70
     1
  9
$DIMSE1
 70
     0
  9
$DIMSE2
 70
     0
  9
$DIMTAD
 70
     1
  9
$DIMZIN
 70
     0
  9
$DIMBLK
  1

  9
$DIMASO
 70
     1
  9
$DIMSHO
 70
     1
  9
$DIMPOST
  1

  9
$DIMAPOST
  1

  9
$DIMALT
 70
     0
  9
$DIMALTD
 70
     3
  9
$DIMALTF
 40
0.0393700787401575
  9
$DIMLFAC
 40
1.0
  9
$DIMTOFL
 70
     1
  9
$DIMTVP
 40
0.0
  9
$DIMTIX
 70
     0
  9
$DIMSOXD
 70
     0
  9
$DIMSAH
 70
     0
  9
$DIMBLK1
  1

  9
$DIMBLK2
  1

  9
$DIMSTYLE
  2
ISO-25
  9
$DIMCLRD
 70
     0
  9
$DIMCLRE
 70
     0
  9
$DIMCLRT
 70
     0
  9
$DIMTFAC
 40
1.0
  9
$DIMGAP
 40
1.524
  9
$DIMJUST
 70
     0
  9
$DIMSD1
 70
     0
  9
$DIMSD2
 70
     0
  9
$DIMTOLJ
 70
     0
  9
$DIMTZIN
 70
     0
  9
$DIMALTZ
 70
     0
  9
$DIMALTTZ
 70
     0
  9
$DIMUPT
 70
     0
  9
$DIMDEC
 70
     2
  9
$DIMTDEC
 70
     2
  9
$DIMALTU
 70
     2
  9
$DIMALTTD
 70
     3
  9
$DIMTXSTY
  7
Standard
  9
$DIMAUNIT
 70
     0
  9
$DIMADEC
 70
     2
  9
$DIMALTRND
 40
0.0
  9
$DIMAZIN
 70
     0
  9
$DIMDSEP
 70
    44
  9
$DIMATFIT
 70
     3
  9
$DIMFRAC
 70
     0
  9
$DIMLDRBLK
  1

  9
$DIMLUNIT
 70
     2
  9
$DIMLWD
 70
    -2
  9
$DIMLWE
 70
    -2
  9
$DIMTMOVE
 70
     0
  9
$LUNITS
 70
     2
  9
$LUPREC
 70
     2
  9
$SKETCHINC
 40
1.0
  9
$FILLETRAD
 40
10.0
  9
$AUNITS
 70
     0
  9
$AUPREC
 70
     2
  9
$MENU
  1
.
  9
$ELEVATION
 40
0.0
  9
$PELEVATION
 40
0.0
  9
$THICKNESS
 40
0.0
  9
$LIMCHECK
 70
     0
  9
$CHAMFERA
 40
0.0
  9
$CHAMFERB
 40
0.0
  9
$CHAMFERC
 40
0.0
  9
$CHAMFERD
 40
0.0
  9
$SKPOLY
 70
     0
  9
$TDCREATE
 40
2458323.437720625
  9
$TDUCREATE
 40
2458323.062720625
  9
$TDUPDATE
 40
2458330.765480486
  9
$TDUUPDATE
 40
2458330.390480486
  9
$TDINDWG
 40
0.0078798958
  9
$TDUSRTIMER
 40
2458330.382920428
  9
$USRTIMER
 70
     1
  9
$ANGBASE
 50
0.0
  9
$ANGDIR
 70
     0
  9
$PDMODE
 70
     0
  9
$PDSIZE
 40
-1.0
  9
$PLINEWID
 40
0.0
  9
$SPLFRAME
 70
     0
  9
$SPLINETYPE
 70
     6
  9
$SPLINESEGS
 70
     8
  9
$HANDSEED
  5
21B
  9
$SURFTAB1
 70
     6
  9
$SURFTAB2
 70
     6
  9
$SURFTYPE
 70
     6
  9
$SURFU
 70
     6
  9
$SURFV
 70
     6
  9
$UCSBASE
  2

  9
$UCSNAME
  2

  9
$UCSORG
 10
0.0
 20
0.0
 30
0.0
  9
$UCSXDIR
 10
1.0
 20
0.0
 30
0.0
  9
$UCSYDIR
 10
0.0
 20
1.0
 30
0.0
  9
$UCSORTHOREF
  2

  9
$UCSORTHOVIEW
 70
     0
  9
$UCSORGTOP
 10
0.0
 20
0.0
 30
0.0
  9
$UCSORGBOTTOM
 10
0.0
 20
0.0
 30
0.0
  9
$UCSORGLEFT
 10
0.0
 20
0.0
 30
0.0
  9
$UCSORGRIGHT
 10
0.0
 20
0.0
 30
0.0
  9
$UCSORGFRONT
 10
0.0
 20
0.0
 30
0.0
  9
$UCSORGBACK
 10
0.0
 20
0.0
 30
0.0
  9
$PUCSBASE
  2

  9
$PUCSNAME
  2

  9
$PUCSORG
 10
0.0
 20
0.0
 30
0.0
  9
$PUCSXDIR
 10
1.0
 20
0.0
 30
0.0
  9
$PUCSYDIR
 10
0.0
 20
1.0
 30
0.0
  9
$PUCSORTHOREF
  2

  9
$PUCSORTHOVIEW
 70
     0
  9
$PUCSORGTOP
 10
0.0
 20
0.0
 30
0.0
  9
$PUCSORGBOTTOM
 10
0.0
 20
0.0
 30
0.0
  9
$PUCSORGLEFT
 10
0.0
 20
0.0
 30
0.0
  9
$PUCSORGRIGHT
 10
0.0
 20
0.0
 30
0.0
  9
$PUCSORGFRONT
 10
0.0
 20
0.0
 30
0.0
  9
$PUCSORGBACK
 10
0.0
 20
0.0
 30
0.0
  9
$USERI1
 70
     0
  9
$USERI2
 70
     0
  9
$USERI3
 70
     0
  9
$USERI4
 70
     0
  9
$USERI5
 70
     0
  9
$USERR1
 40
0.0
  9
$USERR2
 40
0.0
  9
$USERR3
 40
0.0
  9
$USERR4
 40
0.0
  9
$USERR5
 40
0.0
  9
$WORLDVIEW
 70
     1
  9
$SHADEDGE
 70
     3
  9
$SHADEDIF
 70
    70
  9
$TILEMODE
 70
     1
  9
$MAXACTVP
 70
    64
  9
$PINSBASE
 10
0.0
 20
0.0
 30
0.0
  9
$PLIMCHECK
 70
     0
  9
$PEXTMIN
 10
1.000000000000000E+20
 20
1.000000000000000E+20
 30
1.000000000000000E+20
  9
$PEXTMAX
 10
-1.000000000000000E+20
 20
-1.000000000000000E+20
 30
-1.000000000000000E+20
  9
$PLIMMIN
 10
0.0
 20
0.0
  9
$PLIMMAX
 10
0.0
 20
0.0
  9
$UNITMODE
 70
     0
  9
$VISRETAIN
 70
     1
  9
$PLINEGEN
 70
     0
  9
$PSLTSCALE
 70
     1
  9
$TREEDEPTH
 70
  3020
  9
$CMLSTYLE
  2
Standard
  9
$CMLJUST
 70
     0
  9
$CMLSCALE
 40
20.0
  9
$PROXYGRAPHICS
 70
     1
  9
$MEASUREMENT
 70
     1
  9
$CELWEIGHT
370
    -1
  9
$ENDCAPS
280
     0
  9
$JOINSTYLE
280
     0
  9
$LWDISPLAY
290
     1
  9
$INSUNITS
 70
     4
  9
$HYPERLINKBASE
  1

  9
$STYLESHEET
  1

  9
$XEDIT
290
     1
  9
$CEPSNTYPE
380
     0
  9
$PSTYLEMODE
290
     1
  9
$FINGERPRINTGUID
  2
{370AF396-B27C-494E-AC73-3D14C070CDCE}
  9
$VERSIONGUID
  2
{FAEB1C32-E019-11D5-929B-00C0DF256EC4}
  9
$EXTNAMES
290
     1
  9
$PSVPSCALE
 40
0.0
  9
$OLESTARTUP
290
     0
  0
ENDSEC
  0
SECTION
  2
CLASSES
  0
CLASS
  1
ACDBDICTIONARYWDFLT
  2
AcDbDictionaryWithDefault
  3
ObjectDBX Classes
 90
        0
280
     0
281
     0
  0
CLASS
  1
VISUALSTYLE
  2
AcDbVisualStyle
  3
ObjectDBX Classes
 90
     4095
280
     0
281
     0
  0
CLASS
  1
MATERIAL
  2
AcDbMaterial
  3
ObjectDBX Classes
 90
     1153
280
     0
281
     0
  0
CLASS
  1
SCALE
  2
AcDbScale
  3
ObjectDBX Classes
 90
     1153
280
     0
281
     0
  0
CLASS
  1
SUN
  2
AcDbSun
  3
SCENEOE
 90
     1153
280
     0
281
     0
  0
CLASS
  1
ACDBPLACEHOLDER
  2
AcDbPlaceHolder
  3
ObjectDBX Classes
 90
        0
280
     0
281
     0
  0
CLASS
  1
LAYOUT
  2
AcDbLayout
  3
ObjectDBX Classes
 90
        0
280
     0
281
     0
  0
CLASS
  1
TABLESTYLE
  2
AcDbTableStyle
  3
ObjectDBX Classes
 90
     4095
280
     0
281
     0
  0
CLASS
  1
MLEADERSTYLE
  2
AcDbMLeaderStyle
  3
ACDB_MLEADERSTYLE_CLASS
 90
     4095
280
     0
281
     0
  0
CLASS
  1
RASTERVARIABLES
  2
AcDbRasterVariables
  3
ISM
 90
        0
280
     0
281
     0
  0
ENDSEC
  0
SECTION
  2
TABLES
  0
TABLE
  2
VPORT
  5
8
330
0
100
AcDbSymbolTable
 70
     1
  0
VPORT
  5
29
330
8
100
AcDbSymbolTableRecord
100
AcDbViewportTableRecord
  2
*Active
 70
     0
 10
0.0
 20
0.0
 11
1.0
 21
1.0
 12
3.59680172729405
 22
-1.075844604636412
 13
0.0
 23
0.0
 14
10.0
 24
10.0
 15
10.0
 25
10.0
 16
0.0
 26
0.0
 36
1.0
 17
0.0
 27
0.0
 37
0.0
 40
140.3057765629701
 41
1.516441005802708
 42
50.0
 43
0.0
 44
0.0
 50
0.0
 51
0.0
 71
    16
 72
  2000
 73
     1
 74
     3
 75
     0
 76
     0
 77
     0
 78
     0
281
     0
 65
     1
110
0.0
120
0.0
130
0.0
111
1.0
121
0.0
131
0.0
112
0.0
122
1.0
132
0.0
 79
     0
146
0.0
  0
ENDTAB
  0
TABLE
  2
LTYPE
  5
5
330
0
100
AcDbSymbolTable
 70
     6
  0
LTYPE
  5
14
330
5
100
AcDbSymbolTableRecord
100
AcDbLinetypeTableRecord
  2
ByBlock
 70
     0
  3

 72
    65
 73
     0
 40
0.0
  0
LTYPE
  5
15
330
5
100
AcDbSymbolTableRecord
100
AcDbLinetypeTableRecord
  2
ByLayer
 70
     0
  3

 72
    65
 73
     0
 40
0.0
  0
LTYPE
  5
16
330
5
100
AcDbSymbolTableRecord
100
AcDbLinetypeTableRecord
  2
Continuous
 70
     0
  3
Solid line
 72
    65
 73
     0
 40
0.0
  0
LTYPE
  5
6A
330
5
100
AcDbSymbolTableRecord
100
AcDbLinetypeTableRecord
  2
HIDDEN
 70
     0
  3
Hidden __ __ __ __ __ __ __ __ __ __ __ __ __ __
 72
    65
 73
     2
 40
1.905
 49
1.27
 74
     0
 49
-0.635
 74
     0
  0
LTYPE
  5
6B
330
5
100
AcDbSymbolTableRecord
100
AcDbLinetypeTableRecord
  2
PHANTOM
 70
     0
  3
Phantom ______  __  __  ______  __  __  ______
 72
    65
 73
     6
 40
12.7
 49
6.35
 74
     0
 49
-1.27
 74
     0
 49
1.27
 74
     0
 49
-1.27
 74
     0
 49
1.27
 74
     0
 49
-1.27
 74
     0
  0
LTYPE
  5
6C
330
5
100
AcDbSymbolTableRecord
100
AcDbLinetypeTableRecord
  2
CENTER
 70
     0
  3
Center ____ _ ____ _ ____ _ ____ _ ____ _ ____
 72
    65
 73
     4
 40
10.16
 49
6.35
 74
     0
 49
-1.27
 74
     0
 49
1.27
 74
     0
 49
-1.27
 74
     0
  0
LTYPE
  5
6D
330
5
100
AcDbSymbolTableRecord
100
AcDbLinetypeTableRecord
  2
CENTERX2
 70
     0
  3
Center (2x) ________  __  ________  __  _____
 72
    65
 73
     4
 40
20.32
 49
12.7
 74
     0
 49
-2.54
 74
     0
 49
2.54
 74
     0
 49
-2.54
 74
     0
  0
LTYPE
  5
6E
330
5
100
AcDbSymbolTableRecord
100
AcDbLinetypeTableRecord
  2
DOT2
 70
     0
  3
Dot (.5x) ........................................
 72
    65
 73
     2
 40
0.635
 49
0.0
 74
     0
 49
-0.635
 74
     0
  0
ENDTAB
  0
TABLE
  2
LAYER
  5
2
102
{ACAD_XDICTIONARY
360
191
102
}
330
0
100
AcDbSymbolTable
 70
    18
  0
LAYER
  5
10
330
2
100
AcDbSymbolTableRecord
100
AcDbLayerTableRecord
  2
0
 70
     0
 62
     7
  6
Continuous
370
    -3
390
F
  0
LAYER
  5
6F
330
2
100
AcDbSymbolTableRecord
100
AcDbLayerTableRecord
  2
FORMAT
 70
     0
 62
     2
  6
Continuous
370
    -3
390
F
  0
LAYER
  5
70
330
2
100
AcDbSymbolTableRecord
100
AcDbLayerTableRecord
  2
외형선
 70
     0
 62
     4
  6
Continuous
370
    30
390
F
  0
LAYER
  5
71
330
2
100
AcDbSymbolTableRecord
100
AcDbLayerTableRecord
  2
숨은선
 70
     0
 62
     2
  6
HIDDEN
370
    15
390
F
  0
LAYER
  5
72
330
2
100
AcDbSymbolTableRecord
100
AcDbLayerTableRecord
  2
중심선
 70
     0
 62
     1
  6
CENTERX2
370
    -3
390
F
  0
LAYER
  5
73
330
2
100
AcDbSymbolTableRecord
100
AcDbLayerTableRecord
  2
파단선
 70
     0
 62
     4
  6
Continuous
370
    -3
390
F
  0
LAYER
  5
74
330
2
100
AcDbSymbolTableRecord
100
AcDbLayerTableRecord
  2
해칭선
 70
     0
 62
   100
  6
Continuous
370
    -3
390
F
  0
LAYER
  5
75
330
2
100
AcDbSymbolTableRecord
100
AcDbLayerTableRecord
  2
가는실선
 70
     0
 62
     4
  6
Continuous
370
    -3
390
F
  0
LAYER
  5
76
330
2
100
AcDbSymbolTableRecord
100
AcDbLayerTableRecord
  2
치수_보조선
 70
     0
 62
     4
  6
Continuous
370
    -3
390
F
  0
LAYER
  5
77
330
2
100
AcDbSymbolTableRecord
100
AcDbLayerTableRecord
  2
치수문자_일반주서
 70
     0
 62
     7
  6
Continuous
370
    15
390
F
  0
LAYER
  5
78
330
2
100
AcDbSymbolTableRecord
100
AcDbLayerTableRecord
  2
개별주서
 70
     0
 62
   100
  6
Continuous
370
    30
390
F
  0
LAYER
  5
79
330
2
100
AcDbSymbolTableRecord
100
AcDbLayerTableRecord
  2
중간선
 70
     0
 62
     2
  6
Continuous
370
    15
390
F
  0
LAYER
  5
7A
330
2
100
AcDbSymbolTableRecord
100
AcDbLayerTableRecord
  2
윤곽선
 70
     0
 62
     3
  6
Continuous
370
    40
390
F
  0
LAYER
  5
7B
330
2
100
AcDbSymbolTableRecord
100
AcDbLayerTableRecord
  2
중심마크
 70
     0
 62
   100
  6
Continuous
370
    30
390
F
  0
LAYER
  5
7C
330
2
100
AcDbSymbolTableRecord
100
AcDbLayerTableRecord
  2
가상선
 70
     0
 62
     4
  6
PHANTOM
370
    -3
390
F
  0
LAYER
  5
7D
330
2
100
AcDbSymbolTableRecord
100
AcDbLayerTableRecord
  2
특수지정선
 70
     0
 62
     5
  6
CENTERX2
370
    60
390
F
  0
LAYER
  5
7E
330
2
100
AcDbSymbolTableRecord
100
AcDbLayerTableRecord
  2
참조1
 70
     0
 62
    -4
  6
Continuous
370
    -3
390
F
  0
LAYER
  5
15E
330
2
100
AcDbSymbolTableRecord
100
AcDbLayerTableRecord
  2
Defpoints
 70
     0
 62
     7
  6
Continuous
290
     0
370
    -3
390
F
  0
ENDTAB
  0
TABLE
  2
STYLE
  5
3
330
0
100
AcDbSymbolTable
 70
     2
  0
STYLE
  5
11
330
3
100
AcDbSymbolTableRecord
100
AcDbTextStyleTableRecord
  2
Standard
 70
     0
 40
0.0
 41
1.0
 50
0.0
 71
     0
 42
3.5
  3
txt
  4

  0
STYLE
  5
94
330
3
100
AcDbSymbolTableRecord
100
AcDbTextStyleTableRecord
  2
SLDTEXTSTYLE0
 70
     0
 40
0.0
 41
0.75
 50
0.0
 71
     0
 42
3.5
  3
TXT
  4

  0
ENDTAB
  0
TABLE
  2
VIEW
  5
6
330
0
100
AcDbSymbolTable
 70
     0
  0
ENDTAB
  0
TABLE
  2
UCS
  5
7
330
0
100
AcDbSymbolTable
 70
     0
  0
ENDTAB
  0
TABLE
  2
APPID
  5
9
330
0
100
AcDbSymbolTable
 70
     2
  0
APPID
  5
12
330
9
100
AcDbSymbolTableRecord
100
AcDbRegAppTableRecord
  2
ACAD
 70
     0
  0
APPID
  5
1B0
330
9
100
AcDbSymbolTableRecord
100
AcDbRegAppTableRecord
  2
PE_URL
 70
     0
  0
ENDTAB
  0
TABLE
  2
DIMSTYLE
  5
A
330
0
100
AcDbSymbolTable
 70
     4
100
AcDbDimStyleTable
  0
DIMSTYLE
105
27
330
A
100
AcDbSymbolTableRecord
100
AcDbDimStyleTableRecord
  2
ISO-25
 70
     0
 41
2.5
 42
0.625
 43
3.75
 44
1.25
 73
     0
 74
     0
 77
     1
 78
     8
140
2.5
141
2.5
143
0.03937007874016
147
0.625
171
     3
172
     1
178
     0
271
     2
272
     2
274
     3
278
    44
283
     0
284
     8
340
11
  0
DIMSTYLE
105
DF
102
{ACAD_REACTORS
330
DE
330
F3
330
107
330
11A
102
}
330
A
100
AcDbSymbolTableRecord
100
AcDbDimStyleTableRecord
  2
SLDDIMSTYLE0
 70
     0
 41
3.302
 44
0.0
 45
0.000000001
 73
     0
 74
     0
 77
     1
 78
    12
 79
     3
140
3.5
143
0.0393700787401575
147
0.875
148
0.000000001
170
     1
172
     1
173
     1
178
     0
271
     2
272
     2
276
     2
284
    12
289
     0
340
94
  0
DIMSTYLE
105
F4
330
A
100
AcDbSymbolTableRecord
100
AcDbDimStyleTableRecord
  2
SLDDIMSTYLE1
 70
     0
 41
3.302
 44
0.0
 45
0.000000001
 73
     0
 74
     0
 77
     1
 78
    12
 79
     3
140
3.5
143
0.0393700787401575
147
0.875
148
0.000000001
170
     1
173
     1
178
     0
271
     2
272
     2
276
     2
284
    12
340
94
  0
DIMSTYLE
105
163
102
{ACAD_REACTORS
102
}
330
A
100
AcDbSymbolTableRecord
100
AcDbDimStyleTableRecord
  2
SLDDIMSTYLE2
 70
     0
 41
3.302
 44
0.0
 45
0.000000001
 73
     0
 74
     0
 77
     1
 78
    12
 79
     3
140
3.5
147
0.875
172
     1
173
     1
178
     0
271
     2
272
     2
276
     2
284
    12
289
     0
340
94
  0
ENDTAB
  0
TABLE
  2
BLOCK_RECORD
  5
1
330
0
100
AcDbSymbolTable
 70
     9
  0
BLOCK_RECORD
  5
1F
330
1
100
AcDbSymbolTableRecord
100
AcDbBlockTableRecord
  2
*Model_Space
340
22
  0
BLOCK_RECORD
  5
1B
330
1
100
AcDbSymbolTableRecord
100
AcDbBlockTableRecord
  2
*Paper_Space
340
1E
  0
BLOCK_RECORD
  5
23
330
1
100
AcDbSymbolTableRecord
100
AcDbBlockTableRecord
  2
*Paper_Space0
340
26
  0
BLOCK_RECORD
  5
7F
330
1
100
AcDbSymbolTableRecord
100
AcDbBlockTableRecord
  2
블럭10
340
0
102
{BLKREFS
331
D7
102
}
  0
BLOCK_RECORD
  5
E0
330
1
100
AcDbSymbolTableRecord
100
AcDbBlockTableRecord
  2
_D
340
0
  0
BLOCK_RECORD
  5
F5
330
1
100
AcDbSymbolTableRecord
100
AcDbBlockTableRecord
  2
_D_1
340
0
  0
BLOCK_RECORD
  5
108
330
1
100
AcDbSymbolTableRecord
100
AcDbBlockTableRecord
  2
_D_2
340
0
  0
BLOCK_RECORD
  5
11B
330
1
100
AcDbSymbolTableRecord
100
AcDbBlockTableRecord
  2
_D_3
340
0
  0
BLOCK_RECORD
  5
134
330
1
100
AcDbSymbolTableRecord
100
AcDbBlockTableRecord
  2
SW_DOWELSYMBOL_0
340
0
102
{BLKREFS
331
13A
102
}
  0
BLOCK_RECORD
  5
195
330
1
100
AcDbSymbolTableRecord
100
AcDbBlockTableRecord
  2
*D7
340
0
  0
BLOCK_RECORD
  5
1A4
330
1
100
AcDbSymbolTableRecord
100
AcDbBlockTableRecord
  2
*D8
340
0
  0
ENDTAB
  0
ENDSEC
  0
SECTION
  2
BLOCKS
  0
BLOCK
  5
20
330
1F
100
AcDbEntity
  8
0
100
AcDbBlockBegin
  2
*Model_Space
 70
     0
 10
0.0
 20
0.0
 30
0.0
  3
*Model_Space
  1
*Model_Space
  0
ENDBLK
  5
21
330
1F
100
AcDbEntity
  8
0
100
AcDbBlockEnd
  0
BLOCK
  5
1C
330
1B
100
AcDbEntity
 67
     1
  8
0
100
AcDbBlockBegin
  2
*Paper_Space
 70
     0
 10
0.0
 20
0.0
 30
0.0
  3
*Paper_Space
  1
*Paper_Space
  0
ENDBLK
  5
1D
330
1B
100
AcDbEntity
 67
     1
  8
0
100
AcDbBlockEnd
  0
BLOCK
  5
24
330
23
100
AcDbEntity
  8
0
100
AcDbBlockBegin
  2
*Paper_Space0
 70
     0
 10
0.0
 20
0.0
 30
0.0
  3
*Paper_Space0
  1
*Paper_Space0
  0
ENDBLK
  5
25
330
23
100
AcDbEntity
  8
0
100
AcDbBlockEnd
  0
BLOCK
  5
80
330
7F
100
AcDbEntity
  8
0
100
AcDbBlockBegin
  2
블럭10
 70
     2
 10
0.0
 20
0.0
 30
0.0
  3
블럭10
  1
블럭10
  0
ELLIPSE
  5
82
330
7F
100
AcDbEntity
  8
중심선
100
AcDbEllipse
 10
20.54032771741204
 20
12.0471743016438
 30
0.0
 11
6.600054785286829
 21
-1.261213355974178E-13
 31
0.0
210
0.0
220
0.0
230
1.0
 40
0.636358354079598
 41
0.9219305317359503
 42
6.513795318482858
  0
ELLIPSE
  5
83
330
7F
100
AcDbEntity
  8
중심선
100
AcDbEllipse
 10
20.54032771746488
 20
12.04717430159265
 30
0.0
 11
3.960054785062283
 21
1.540847449632565E-10
 31
0.0
210
0.0
220
0.0
230
1.0
 40
0.3939339440162632
 41
1.131841032648279
 42
5.62031148352944
  0
LINE
  5
84
330
7F
100
AcDbEntity
  8
중심선
100
AcDbLine
 10
2.268634060543552
 20
16.24717430164393
 30
0.0
 11
5.714909304380834
 21
16.24717430164393
 31
0.0
  0
LINE
  5
85
330
7F
100
AcDbEntity
  8
중심선
100
AcDbLine
 10
5.245725140726316
 20
7.84717430164391
 30
0.0
 11
8.692000384563599
 21
7.84717430164391
 31
0.0
  0
LINE
  5
86
330
7F
100
AcDbEntity
  8
중심선
100
AcDbLine
 10
15.74043728645272
 20
16.24717430164393
 30
0.0
 11
8.692000384563599
 21
7.84717430164391
 31
0.0
  0
LINE
  5
87
330
7F
100
AcDbEntity
  8
중심선
100
AcDbLine
 10
0.1404042013395286
 20
13.71084872107135
 30
0.0
 11
3.58671253028996
 21
13.71088815037384
 31
0.0
  0
LINE
  5
88
330
7F
100
AcDbEntity
  8
중심선
100
AcDbLine
 10
2.750260043222114
 20
10.84717430164391
 30
0.0
 11
6.196535287059397
 21
10.84717430164391
 31
0.0
  0
LINE
  5
89
330
7F
100
AcDbEntity
  8
중심선
100
AcDbLine
 10
12.29416204261559
 20
16.24717430164393
 30
0.0
 11
5.245725140726316
 21
7.84717430164391
 31
0.0
  0
LINE
  5
8A
330
7F
100
AcDbEntity
  8
중심선
100
AcDbLine
 10
10.72767329541681
 20
16.24717430164393
 30
0.0
 11
6.196535287059397
 21
10.84717430164391
 31
0.0
  0
LINE
  5
8B
330
7F
100
AcDbEntity
  8
중심선
100
AcDbLine
 10
7.28139805157953
 20
16.24717430164393
 30
0.0
 11
2.750260043222114
 21
10.84717430164391
 31
0.0
  0
LINE
  5
8C
330
7F
100
AcDbEntity
  8
중심선
100
AcDbLine
 10
5.714909304380834
 20
16.24717430164393
 30
0.0
 11
3.58671253028996
 21
13.71088815037384
 31
0.0
  0
LINE
  5
8D
330
7F
100
AcDbEntity
  8
중심선
100
AcDbLine
 10
2.268634060543552
 20
16.24717430164393
 30
0.0
 11
0.1404042013395286
 21
13.71084872107135
 31
0.0
  0
LINE
  5
8E
330
7F
100
AcDbEntity
  8
중심선
100
AcDbLine
 10
7.28139805157953
 20
16.24717430164393
 30
0.0
 11
10.72767329541681
 21
16.24717430164393
 31
0.0
  0
LINE
  5
8F
330
7F
100
AcDbEntity
  8
중심선
100
AcDbLine
 10
12.29416204261559
 20
16.24717430164393
 30
0.0
 11
15.74043728645272
 21
16.24717430164393
 31
0.0
  0
LINE
  5
90
330
7F
100
AcDbEntity
  8
중심선
100
AcDbLine
 10
19.22036997980202
 20
11.08717430171403
 30
0.0
 11
23.66174974927406
 21
11.08717430171406
 31
0.0
  0
LINE
  5
91
330
7F
100
AcDbEntity
  8
중심선
100
AcDbLine
 10
19.22039502424796
 20
13.00717430171391
 30
0.0
 11
19.22036997980202
 21
11.08717430171403
 31
0.0
  0
LINE
  5
92
330
7F
100
AcDbEntity
  8
중심선
100
AcDbLine
 10
19.22039502424796
 20
13.00717430171391
 30
0.0
 11
26.96566020931264
 21
13.00717430171391
 31
0.0
  0
LINE
  5
93
330
7F
100
AcDbEntity
  8
중심선
100
AcDbLine
 10
22.22332737316547
 20
13.45928029700563
 30
0.0
 11
24.52862924686651
 21
15.39360700705356
 31
0.0
  0
ATTDEF
  5
95
330
7F
100
AcDbEntity
  8
FORMAT
 62
     2
100
AcDbText
 10
4.408487351596664
 20
2.075366912832191
 30
0.0
 40
4.233333333333333
  1
E1042048
 41
0.75
  7
SLDTEXTSTYLE0
 11
4.408487351596664
 21
-0.0412997538344756
 31
0.0
100
AcDbAttributeDefinition
  3

  2
AUTOATTR0
 70
     0
 74
     1
  0
ENDBLK
  5
81
330
7F
100
AcDbEntity
  8
0
100
AcDbBlockEnd
  0
BLOCK
  5
E1
330
E0
100
AcDbEntity
  8
0
100
AcDbBlockBegin
  2
_D
 70
     0
 10
0.0
 20
0.0
 30
0.0
  3
_D
  1
_D
  0
LINE
  5
E3
330
E0
100
AcDbEntity
  8
치수문자_일반주서
 62
     0
370
    -2
100
AcDbLine
 10
-49.65750000000001
 20
9.525000000000006
 30
0.0
 11
-66.5
 21
9.524999999999942
 31
0.0
  0
LINE
  5
E4
330
E0
100
AcDbEntity
  8
치수문자_일반주서
 62
     0
370
    -2
100
AcDbLine
 10
-49.65750000000001
 20
-9.525000000000006
 30
0.0
 11
-66.49999999999993
 21
-9.52500000000007
 31
0.0
  0
LINE
  5
E5
330
E0
100
AcDbEntity
  8
치수문자_일반주서
 62
     0
370
    -2
100
AcDbLine
 10
-66.5
 20
9.524999999999942
 30
0.0
 11
-66.50000000000014
 21
47.37899999999994
 31
0.0
  0
LINE
  5
E6
330
E0
100
AcDbEntity
  8
치수문자_일반주서
 62
     0
370
    -2
100
AcDbLine
 10
-66.5
 20
9.524999999999942
 30
0.0
 11
-66.49999999999993
 21
-9.52500000000007
 31
0.0
  0
LINE
  5
E7
330
E0
100
AcDbEntity
  8
치수문자_일반주서
 62
     0
370
    -2
100
AcDbLine
 10
-66.50000000000001
 20
12.82699999999994
 30
0.0
 11
-66.50000000000003
 21
16.12899999999994
 31
0.0
  0
LINE
  5
E8
330
E0
100
AcDbEntity
  8
치수문자_일반주서
 62
     0
370
    -2
100
AcDbLine
 10
-66.49999999999991
 20
-12.82700000000007
 30
0.0
 11
-66.4999999999999
 21
-16.12900000000007
 31
0.0
  0
SOLID
  5
E9
330
E0
100
AcDbEntity
  8
치수문자_일반주서
 62
     0
100
AcDbTrace
 10
-67.05033333333334
 20
12.82699999999994
 30
0.0
 11
-65.94966666666669
 21
12.82699999999994
 31
0.0
 12
-66.5
 22
9.524999999999942
 32
0.0
 13
-66.5
 23
9.524999999999942
 33
0.0
  0
SOLID
  5
EA
330
E0
100
AcDbEntity
  8
치수문자_일반주서
 62
     0
100
AcDbTrace
 10
-65.94966666666659
 20
-12.82700000000007
 30
0.0
 11
-67.05033333333324
 21
-12.82700000000007
 31
0.0
 12
-66.49999999999993
 22
-9.52500000000007
 32
0.0
 13
-66.49999999999993
 23
-9.52500000000007
 33
0.0
  0
MTEXT
  5
EB
330
E0
100
AcDbEntity
  8
치수문자_일반주서
 62
     0
100
AcDbMText
 10
-71.37500000000009
 20
31.75399999999992
 30
0.0
 40
4.0
 41
0.0
 71
     2
 72
     1
  1
\A1;%%c19.05 [3/4]
  7
SLDTEXTSTYLE0
 11
-3.729883127349605E-15
 21
1.0
 31
0.0
 73
     1
 44
1.0
  0
POINT
  5
1B5
330
E0
100
AcDbEntity
  8
Defpoints
 62
     0
100
AcDbPoint
 10
-49.59500000000001
 20
9.525000000000006
 30
0.0
  0
POINT
  5
1B6
330
E0
100
AcDbEntity
  8
Defpoints
 62
     0
100
AcDbPoint
 10
-49.59500000000001
 20
-9.525000000000006
 30
0.0
  0
POINT
  5
1B7
330
E0
100
AcDbEntity
  8
Defpoints
 62
     0
100
AcDbPoint
 10
-66.49999999999994
 20
-9.52500000000007
 30
0.0
  0
ENDBLK
  5
E2
330
E0
100
AcDbEntity
  8
0
100
AcDbBlockEnd
  0
BLOCK
  5
F6
330
F5
100
AcDbEntity
  8
0
100
AcDbBlockBegin
  2
_D_1
 70
     0
 10
0.0
 20
0.0
 30
0.0
  3
_D_1
  1
_D_1
  0
LINE
  5
F8
330
F5
100
AcDbEntity
  8
치수문자_일반주서
 62
     0
370
    -2
100
AcDbLine
 10
62.8
 20
9.51799179736373
 30
0.0
 11
62.8
 21
24.5249999999999
 31
0.0
  0
LINE
  5
F9
330
F5
100
AcDbEntity
  8
치수문자_일반주서
 62
     0
370
    -2
100
AcDbLine
 10
12.0
 20
16.73124999999992
 30
0.0
 11
12.0
 21
24.5249999999999
 31
0.0
  0
LINE
  5
FA
330
F5
100
AcDbEntity
  8
치수문자_일반주서
 62
     0
370
    -2
100
AcDbLine
 10
59.498
 20
24.5249999999999
 30
0.0
 11
15.302
 21
24.5249999999999
 31
0.0
  0
SOLID
  5
FB
330
F5
100
AcDbEntity
  8
치수문자_일반주서
 62
     0
100
AcDbTrace
 10
59.498
 20
23.97466666666656
 30
0.0
 11
59.498
 21
25.07533333333323
 31
0.0
 12
62.8
 22
24.5249999999999
 32
0.0
 13
62.8
 23
24.5249999999999
 33
0.0
  0
SOLID
  5
FC
330
F5
100
AcDbEntity
  8
치수문자_일반주서
 62
     0
100
AcDbTrace
 10
15.302
 20
25.07533333333323
 30
0.0
 11
15.302
 21
23.97466666666656
 31
0.0
 12
12.0
 22
24.5249999999999
 32
0.0
 13
12.0
 23
24.5249999999999
 33
0.0
  0
MTEXT
  5
FD
330
F5
100
AcDbEntity
  8
치수문자_일반주서
 62
     0
100
AcDbMText
 10
37.4
 20
29.3999999999999
 30
0.0
 40
4.0
 41
0.0
 71
     2
 72
     1
  1
\A1;50.8 [2]
  7
SLDTEXTSTYLE0
 73
     1
 44
1.0
  0
POINT
  5
FE
330
F5
100
AcDbEntity
  8
Defpoints
 62
     0
100
AcDbPoint
 10
62.8
 20
9.45549179736373
 30
0.0
  0
POINT
  5
FF
330
F5
100
AcDbEntity
  8
Defpoints
 62
     0
100
AcDbPoint
 10
12.0
 20
16.66874999999992
 30
0.0
  0
POINT
  5
100
330
F5
100
AcDbEntity
  8
Defpoints
 62
     0
100
AcDbPoint
 10
12.0
 20
24.5249999999999
 30
0.0
  0
ENDBLK
  5
F7
330
F5
100
AcDbEntity
  8
0
100
AcDbBlockEnd
  0
BLOCK
  5
109
330
108
100
AcDbEntity
  8
0
100
AcDbBlockBegin
  2
_D_2
 70
     0
 10
0.0
 20
0.0
 30
0.0
  3
_D_2
  1
_D_2
  0
LINE
  5
10B
330
108
100
AcDbEntity
  8
치수문자_일반주서
 62
     0
370
    -2
100
AcDbLine
 10
62.8
 20
9.51799179736373
 30
0.0
 11
62.8
 21
39.52499999999989
 31
0.0
  0
LINE
  5
10C
330
108
100
AcDbEntity
  8
치수문자_일반주서
 62
     0
370
    -2
100
AcDbLine
 10
-51.5
 20
7.682500000000005
 30
0.0
 11
-51.5
 21
39.52499999999989
 31
0.0
  0
LINE
  5
10D
330
108
100
AcDbEntity
  8
치수문자_일반주서
 62
     0
370
    -2
100
AcDbLine
 10
59.498
 20
39.52499999999989
 30
0.0
 11
-48.198
 21
39.52499999999989
 31
0.0
  0
SOLID
  5
10E
330
108
100
AcDbEntity
  8
치수문자_일반주서
 62
     0
100
AcDbTrace
 10
59.498
 20
38.97466666666656
 30
0.0
 11
59.498
 21
40.07533333333323
 31
0.0
 12
62.8
 22
39.52499999999989
 32
0.0
 13
62.8
 23
39.52499999999989
 33
0.0
  0
SOLID
  5
10F
330
108
100
AcDbEntity
  8
치수문자_일반주서
 62
     0
100
AcDbTrace
 10
-48.198
 20
40.07533333333323
 30
0.0
 11
-48.198
 21
38.97466666666656
 31
0.0
 12
-51.5
 22
39.52499999999989
 32
0.0
 13
-51.5
 23
39.52499999999989
 33
0.0
  0
MTEXT
  5
110
330
108
100
AcDbEntity
  8
치수문자_일반주서
 62
     0
100
AcDbMText
 10
5.649999999999999
 20
44.39999999999989
 30
0.0
 40
4.0
 41
0.0
 71
     2
 72
     1
  1
\A1;114.3 [4 1/2]
  7
SLDTEXTSTYLE0
 73
     1
 44
1.0
  0
POINT
  5
111
330
108
100
AcDbEntity
  8
Defpoints
 62
     0
100
AcDbPoint
 10
62.8
 20
9.45549179736373
 30
0.0
  0
POINT
  5
112
330
108
100
AcDbEntity
  8
Defpoints
 62
     0
100
AcDbPoint
 10
-51.5
 20
7.620000000000005
 30
0.0
  0
POINT
  5
113
330
108
100
AcDbEntity
  8
Defpoints
 62
     0
100
AcDbPoint
 10
-51.5
 20
39.52499999999989
 30
0.0
  0
ENDBLK
  5
10A
330
108
100
AcDbEntity
  8
0
100
AcDbBlockEnd
  0
BLOCK
  5
11C
330
11B
100
AcDbEntity
  8
0
100
AcDbBlockBegin
  2
_D_3
 70
     0
 10
0.0
 20
0.0
 30
0.0
  3
_D_3
  1
_D_3
  0
LINE
  5
11E
330
11B
100
AcDbEntity
  8
치수문자_일반주서
 62
     0
370
    -2
100
AcDbLine
 10
62.8625
 20
16.66874999999992
 30
0.0
 11
77.80000000000005
 21
16.66874999999998
 31
0.0
  0
LINE
  5
11F
330
11B
100
AcDbEntity
  8
치수문자_일반주서
 62
     0
370
    -2
100
AcDbLine
 10
62.8625
 20
-16.66875000000008
 30
0.0
 11
77.80000000000017
 21
-16.66875000000002
 31
0.0
  0
LINE
  5
120
330
11B
100
AcDbEntity
  8
치수문자_일반주서
 62
     0
370
    -2
100
AcDbLine
 10
77.80000000000005
 20
16.66874999999998
 30
0.0
 11
77.7999999999999
 21
63.02274999999997
 31
0.0
  0
LINE
  5
121
330
11B
100
AcDbEntity
  8
치수문자_일반주서
 62
     0
370
    -2
100
AcDbLine
 10
77.80000000000005
 20
16.66874999999998
 30
0.0
 11
77.80000000000017
 21
-16.66875000000002
 31
0.0
  0
LINE
  5
122
330
11B
100
AcDbEntity
  8
치수문자_일반주서
 62
     0
370
    -2
100
AcDbLine
 10
77.80000000000004
 20
19.97074999999998
 30
0.0
 11
77.80000000000003
 21
23.27274999999998
 31
0.0
  0
LINE
  5
123
330
11B
100
AcDbEntity
  8
치수문자_일반주서
 62
     0
370
    -2
100
AcDbLine
 10
77.80000000000018
 20
-19.97075000000002
 30
0.0
 11
77.8000000000002
 21
-23.27275000000002
 31
0.0
  0
SOLID
  5
124
330
11B
100
AcDbEntity
  8
치수문자_일반주서
 62
     0
100
AcDbTrace
 10
77.24966666666671
 20
19.97074999999997
 30
0.0
 11
78.35033333333337
 21
19.97074999999998
 31
0.0
 12
77.80000000000005
 22
16.66874999999998
 32
0.0
 13
77.80000000000005
 23
16.66874999999998
 33
0.0
  0
SOLID
  5
125
330
11B
100
AcDbEntity
  8
치수문자_일반주서
 62
     0
100
AcDbTrace
 10
78.35033333333351
 20
-19.97075000000001
 30
0.0
 11
77.24966666666685
 21
-19.97075000000002
 31
0.0
 12
77.80000000000017
 22
-16.66875000000002
 32
0.0
 13
77.80000000000017
 23
-16.66875000000002
 33
0.0
  0
MTEXT
  5
126
330
11B
100
AcDbEntity
  8
치수문자_일반주서
 62
     0
100
AcDbMText
 10
72.92499999999997
 20
43.14774999999996
 30
0.0
 40
4.0
 41
0.0
 71
     2
 72
     1
  1
\A1;%%c33.34 [1 5/16]
  7
SLDTEXTSTYLE0
 11
-3.410178859291070E-15
 21
1.0
 31
0.0
 73
     1
 44
1.0
  0
POINT
  5
213
330
11B
100
AcDbEntity
  8
Defpoints
 62
     0
100
AcDbPoint
 10
62.8
 20
16.66874999999992
 30
0.0
  0
POINT
  5
214
330
11B
100
AcDbEntity
  8
Defpoints
 62
     0
100
AcDbPoint
 10
62.8
 20
-16.66875000000008
 30
0.0
  0
POINT
  5
215
330
11B
100
AcDbEntity
  8
Defpoints
 62
     0
100
AcDbPoint
 10
77.80000000000017
 20
-16.66875000000002
 30
0.0
  0
ENDBLK
  5
11D
330
11B
100
AcDbEntity
  8
0
100
AcDbBlockEnd
  0
BLOCK
  5
135
330
134
100
AcDbEntity
  8
0
100
AcDbBlockBegin
  2
SW_DOWELSYMBOL_0
 70
     0
 10
0.0
 20
0.0
 30
0.0
  3
SW_DOWELSYMBOL_0
  1
SW_DOWELSYMBOL_0
  0
CIRCLE
  5
137
330
134
100
AcDbEntity
  8
해칭선
 62
     0
100
AcDbCircle
 10
0.0
 20
0.0
 30
0.0
 40
3.000000000000002
  0
HATCH
  5
138
330
134
100
AcDbEntity
  8
0
  6
Continuous
 62
     0
370
     0
100
AcDbHatch
 10
0.0
 20
0.0
 30
0.0
210
0.0
220
0.0
230
1.0
  2
SOLID
 70
     1
 71
     0
 91
        1
 92
        0
 93
        3
 72
     2
 10
0.0
 20
0.0
 40
3.000000000000002
 50
0.0
 51
90.0
 73
     1
 72
     1
 10
0.0
 20
3.000000000000002
 11
0.0
 21
0.0
 72
     1
 10
0.0
 20
0.0
 11
3.000000000000003
 21
0.0
 97
        0
 75
     0
 76
     1
 98
        1
 10
0.0
 20
0.0
  0
HATCH
  5
139
330
134
100
AcDbEntity
  8
0
  6
Continuous
 62
     0
370
     0
100
AcDbHatch
 10
0.0
 20
0.0
 30
0.0
210
0.0
220
0.0
230
1.0
  2
SOLID
 70
     1
 71
     0
 91
        1
 92
        0
 93
        3
 72
     2
 10
0.0
 20
0.0
 40
3.000000000000002
 50
180.0
 51
270.0000000000007
 73
     1
 72
     1
 10
0.0
 20
-3.000000000000002
 11
0.0
 21
0.0
 72
     1
 10
0.0
 20
0.0
 11
-3.000000000000002
 21
0.0
 97
        0
 75
     0
 76
     1
 98
        1
 10
0.0
 20
0.0
  0
ENDBLK
  5
136
330
134
100
AcDbEntity
  8
0
100
AcDbBlockEnd
  0
BLOCK
  5
196
330
195
100
AcDbEntity
  8
0
100
AcDbBlockBegin
  2
*D7
 70
     1
 10
0.0
 20
0.0
 30
0.0
  3
*D7
  1
*D7
  0
LINE
  5
198
330
195
100
AcDbEntity
  8
치수문자_일반주서
 62
     0
370
    -2
100
AcDbLine
 10
0.0
 20
0.0625000000000001
 30
0.0
 11
0.0
 21
31.64047088264928
 31
0.0
  0
LINE
  5
199
330
195
100
AcDbEntity
  8
치수문자_일반주서
 62
     0
370
    -2
100
AcDbLine
 10
38.00011895067188
 20
10.47787127993619
 30
0.0
 11
38.00011895067188
 21
31.64047088264928
 31
0.0
  0
LINE
  5
19A
330
195
100
AcDbEntity
  8
치수문자_일반주서
 62
     0
370
    -2
100
AcDbLine
 10
4.0
 20
31.64047088264928
 30
0.0
 11
34.00011895067188
 21
31.64047088264928
 31
0.0
  0
SOLID
  5
19B
330
195
100
AcDbEntity
  8
치수문자_일반주서
 62
     0
100
AcDbTrace
 10
4.0
 20
32.30713754931594
 30
0.0
 11
4.0
 21
30.97380421598261
 31
0.0
 12
0.0
 22
31.64047088264928
 32
0.0
 13
0.0
 23
31.64047088264928
 33
0.0
  0
SOLID
  5
19C
330
195
100
AcDbEntity
  8
치수문자_일반주서
 62
     0
100
AcDbTrace
 10
34.00011895067188
 20
30.97380421598261
 30
0.0
 11
34.00011895067188
 21
32.30713754931594
 31
0.0
 12
38.00011895067188
 22
31.64047088264928
 32
0.0
 13
38.00011895067188
 23
31.64047088264928
 33
0.0
  0
MTEXT
  5
19D
330
195
100
AcDbEntity
  8
치수문자_일반주서
 62
     0
100
AcDbMText
 10
19.06814435762387
 20
36.51547088264928
 30
0.0
 40
4.0
 41
0.0
 71
     2
 72
     1
  1
\A1;38
  7
SLDTEXTSTYLE0
 73
     1
 44
1.0
  0
POINT
  5
19E
330
195
100
AcDbEntity
  8
Defpoints
 62
     0
100
AcDbPoint
 10
0.0
 20
0.0000000000000001
 30
0.0
  0
POINT
  5
19F
330
195
100
AcDbEntity
  8
Defpoints
 62
     0
100
AcDbPoint
 10
38.00011895067188
 20
10.41537127993619
 30
0.0
  0
POINT
  5
1A0
330
195
100
AcDbEntity
  8
Defpoints
 62
     0
100
AcDbPoint
 10
38.00011895067188
 20
31.64047088264928
 30
0.0
  0
ENDBLK
  5
197
330
195
100
AcDbEntity
  8
0
100
AcDbBlockEnd
  0
BLOCK
  5
1A5
330
1A4
100
AcDbEntity
  8
0
100
AcDbBlockBegin
  2
*D8
 70
     1
 10
0.0
 20
0.0
 30
0.0
  3
*D8
  1
*D8
  0
LINE
  5
1A7
330
1A4
100
AcDbEntity
  8
치수문자_일반주서
 62
     0
370
    -2
100
AcDbLine
 10
75.97619231182918
 20
-61.22306017980141
 30
0.0
 11
75.97619231182918
 21
-29.64508929715213
 31
0.0
  0
LINE
  5
1A8
330
1A4
100
AcDbEntity
  8
치수문자_일반주서
 62
     0
370
    -2
100
AcDbLine
 10
113.9763112625011
 20
-50.80768889986522
 30
0.0
 11
113.9763112625011
 21
-29.64508929715213
 31
0.0
  0
LINE
  5
1A9
330
1A4
100
AcDbEntity
  8
치수문자_일반주서
 62
     0
370
    -2
100
AcDbLine
 10
79.97619231182918
 20
-29.64508929715213
 30
0.0
 11
109.9763112625011
 21
-29.64508929715213
 31
0.0
  0
SOLID
  5
1AA
330
1A4
100
AcDbEntity
  8
치수문자_일반주서
 62
     0
100
AcDbTrace
 10
79.97619231182918
 20
-28.97842263048546
 30
0.0
 11
79.97619231182918
 21
-30.3117559638188
 31
0.0
 12
75.97619231182918
 22
-29.64508929715213
 32
0.0
 13
75.97619231182918
 23
-29.64508929715213
 33
0.0
  0
SOLID
  5
1AB
330
1A4
100
AcDbEntity
  8
치수문자_일반주서
 62
     0
100
AcDbTrace
 10
109.9763112625011
 20
-30.3117559638188
 30
0.0
 11
109.9763112625011
 21
-28.97842263048546
 31
0.0
 12
113.9763112625011
 22
-29.64508929715213
 32
0.0
 13
113.9763112625011
 23
-29.64508929715213
 33
0.0
  0
MTEXT
  5
1AC
330
1A4
100
AcDbEntity
  8
치수문자_일반주서
 62
     0
100
AcDbMText
 10
95.04433666945306
 20
-24.77008929715213
 30
0.0
 40
4.0
 41
0.0
 71
     2
 72
     1
  1
\A1;38
  7
SLDTEXTSTYLE0
 73
     1
 44
1.0
  0
POINT
  5
1AD
330
1A4
100
AcDbEntity
  8
Defpoints
 62
     0
100
AcDbPoint
 10
75.97619231182918
 20
-61.28556017980141
 30
0.0
  0
POINT
  5
1AE
330
1A4
100
AcDbEntity
  8
Defpoints
 62
     0
100
AcDbPoint
 10
113.9763112625011
 20
-50.87018889986522
 30
0.0
  0
POINT
  5
1AF
330
1A4
100
AcDbEntity
  8
Defpoints
 62
     0
100
AcDbPoint
 10
113.9763112625011
 20
-29.64508929715213
 30
0.0
  0
ENDBLK
  5
1A6
330
1A4
100
AcDbEntity
  8
0
100
AcDbBlockEnd
  0
ENDSEC
  0
SECTION
  2
ENTITIES
  0
LINE
  5
96
330
1F
100
AcDbEntity
  8
0
  6
Continuous
 62
     1
370
    15
100
AcDbLine
 10
24.43676596256576
 20
-3.239349869914261
 30
0.0
 11
24.53434260373443
 21
-3.333919912374975
 31
0.0
1001
PE_URL
1000

  0
LINE
  5
97
330
1F
100
AcDbEntity
  8
0
  6
Continuous
 62
     1
370
    15
100
AcDbLine
 10
29.90492689531313
 20
16.66874999999977
 30
0.0
 11
25.87281974678088
 21
16.66874999999977
 31
0.0
1001
PE_URL
1000

  0
LINE
  5
98
330
1F
100
AcDbEntity
  8
0
  6
Continuous
 62
     1
370
    15
100
AcDbLine
 10
25.87281974678073
 20
-16.66875000000008
 30
0.0
 11
29.90492689531298
 21
-16.66875000000008
 31
0.0
1001
PE_URL
1000

  0
LINE
  5
99
330
1F
100
AcDbEntity
  8
0
  6
Continuous
 62
     1
370
    15
100
AcDbLine
 10
60.78347929167359
 20
-16.66875000000008
 30
0.0
 11
62.8
 21
-16.66875000000008
 31
0.0
1001
PE_URL
1000

  0
LINE
  5
9A
330
1F
100
AcDbEntity
  8
0
  6
Continuous
 62
     1
370
    15
100
AcDbLine
 10
12.4494554313471
 20
16.66874999999977
 30
0.0
 11
12.0
 21
16.66874999999977
 31
0.0
1001
PE_URL
1000

  0
LINE
  5
9B
330
1F
100
AcDbEntity
  8
0
  6
Continuous
 62
     1
370
    15
100
AcDbLine
 10
43.32903703591094
 20
-16.66875000000008
 30
0.0
 11
47.36021485654926
 21
-16.66875000000008
 31
0.0
1001
PE_URL
1000

  0
LINE
  5
9D
330
1F
100
AcDbEntity
  8
0
  6
Continuous
 62
     1
370
    15
100
AcDbLine
 10
12.0
 20
-16.66875000000008
 30
0.0
 11
12.449455431347
 21
-16.66875000000008
 31
0.0
1001
PE_URL
1000

  0
LINE
  5
9E
330
1F
100
AcDbEntity
  8
0
  6
Continuous
 62
     1
370
    15
100
AcDbLine
 10
62.8
 20
16.66874999999977
 30
0.0
 11
60.78347929167363
 21
16.66874999999977
 31
0.0
1001
PE_URL
1000

  0
LINE
  5
A0
330
1F
100
AcDbEntity
  8
0
  6
Continuous
 62
     1
370
    15
100
AcDbLine
 10
47.36021485654929
 20
16.66874999999977
 30
0.0
 11
43.3290370359111
 21
16.66874999999977
 31
0.0
1001
PE_URL
1000

  0
LINE
  5
A1
330
1F
100
AcDbEntity
  8
외형선
  6
Continuous
370
    15
100
AcDbLine
 10
-49.59499999999991
 20
-9.525000000000087
 30
0.0
 11
12.0
 21
-9.525000000000087
 31
0.0
  0
LINE
  5
A2
330
1F
100
AcDbEntity
  8
외형선
  6
Continuous
370
    15
100
AcDbLine
 10
12.0
 20
9.52499999999991
 30
0.0
 11
-2.131925000000015
 21
9.52499999999991
 31
0.0
  0
LINE
  5
A3
330
1F
100
AcDbEntity
  8
외형선
  6
Continuous
370
    15
100
AcDbLine
 10
-49.595
 20
9.524999999999999
 30
0.0
 11
-51.5
 21
7.620000000000005
 31
0.0
  0
LINE
  5
A4
330
1F
100
AcDbEntity
  8
외형선
  6
Continuous
370
    15
100
AcDbLine
 10
-51.5
 20
-7.620000000000005
 30
0.0
 11
-49.595
 21
-9.524999999999999
 31
0.0
  0
SPLINE
  5
A6
330
1F
100
AcDbEntity
  8
0
  6
Continuous
 62
     1
370
    15
100
AcDbSpline
210
0.0
220
0.0
230
1.0
 70
     8
 71
     3
 72
    27
 73
    23
 74
     0
 42
0.000000001
 43
0.00000001
 40
0.0
 40
0.0
 40
0.0
 40
0.0
 40
0.010621130384621
 40
0.0553103356962516
 40
0.1000235952205715
 40
0.144793012593145
 40
0.189495537381884
 40
0.2341892878839403
 40
0.2789501686486359
 40
0.323679292547674
 40
0.3683668399039782
 40
0.4130937058042314
 40
0.457856199732353
 40
0.5025508683821793
 40
0.5472520483610601
 40
0.5920208772638855
 40
0.636735970336883
 40
0.6814247480487925
 40
0.7261680831555413
 40
0.7709167358010489
 40
0.8156064320028231
 40
0.825774092262572
 40
0.825774092262572
 40
0.825774092262572
 40
0.825774092262572
 10
60.78347929167359
 20
-16.6308608966463
 30
0.0
 10
60.57425536131376
 20
-16.64236531735993
 30
0.0
 10
59.48470600029214
 20
-16.70227545391026
 30
0.0
 10
57.51651129228863
 20
-16.39638073904525
 30
0.0
 10
54.87489014382801
 20
-15.70242903380932
 30
0.0
 10
52.22998349823175
 20
-14.58182949487119
 30
0.0
 10
49.58908847721828
 20
-13.10342851148278
 30
0.0
 10
46.94872553811184
 20
-11.29352355715905
 30
0.0
 10
44.30431433662631
 20
-9.20340180793397
 30
0.0
 10
41.66186019829497
 20
-6.881122823978555
 30
0.0
 10
39.02188314343645
 20
-4.385238400826347
 30
0.0
 10
36.37956515463522
 20
-1.780323860764841
 30
0.0
 10
33.73505487435675
 20
0.8673092349628133
 30
0.0
 10
31.09463443220805
 20
3.496254390091643
 30
0.0
 10
28.45382643588267
 20
6.037297086622527
 30
0.0
 10
25.80892654265661
 20
8.424015710527488
 30
0.0
 10
23.16730710710133
 20
10.60207298358548
 30
0.0
 10
20.52725060976103
 20
12.51449060271182
 30
0.0
 10
17.88392727641507
 20
14.11187123273592
 30
0.0
 10
15.24027080434463
 20
15.35532493533356
 30
0.0
 10
13.27999806274454
 20
15.99406616768272
 30
0.0
 10
12.20015766794029
 20
16.24283745155192
 30
0.0
 10
12.0
 20
16.28541897937972
 30
0.0
1001
PE_URL
1000

  0
LINE
  5
A7
330
1F
100
AcDbEntity
  8
0
  6
Continuous
 62
     1
370
    15
100
AcDbLine
 10
62.8
 20
-16.54711064538674
 30
0.0
 11
62.8
 21
-9.994143855733979
 31
0.0
1001
PE_URL
1000

  0
SPLINE
  5
A8
330
1F
100
AcDbEntity
  8
0
  6
Continuous
 62
     1
370
    15
100
AcDbSpline
210
0.0
220
0.0
230
1.0
 70
     8
 71
     3
 72
    27
 73
    23
 74
     0
 42
0.000000001
 43
0.00000001
 40
0.0
 40
0.0
 40
0.0
 40
0.0
 40
0.0029990537496655
 40
0.0554340628778992
 40
0.1079382463780368
 40
0.1604361907399152
 40
0.2128701221918942
 40
0.2653349298036183
 40
0.3178627863721936
 40
0.3703112695673505
 40
0.4227521129343723
 40
0.4752725365936945
 40
0.5277511574186876
 40
0.5801836452782315
 40
0.6326649154429382
 40
0.685183446356367
 40
0.7376232124485183
 40
0.7900732735267929
 40
0.8426018205546745
 40
0.8950644768395852
 40
0.9474989099999485
 40
0.9999999999999999
 40
0.9999999999999999
 40
0.9999999999999999
 40
0.9999999999999999
 10
12.44945543134712
 20
16.65748619813793
 30
0.0
 10
12.49978445178893
 20
16.66120685835757
 30
0.0
 10
13.43005857043914
 20
16.72997898776213
 30
0.0
 10
15.24015388710179
 20
16.47489022436036
 30
0.0
 10
17.88395861882847
 20
15.86451831679365
 30
0.0
 10
20.52724222359286
 20
14.80987235073267
 30
0.0
 10
23.16730935440302
 20
13.39547264434367
 30
0.0
 10
25.80892593949697
 20
11.64189941477107
 30
0.0
 10
28.4538265973496
 20
9.599536331832429
 30
0.0
 10
31.09463438882894
 20
7.31371564534621
 30
0.0
 10
33.73505488656275
 20
4.844237803935545
 30
0.0
 10
36.37956514925918
 20
2.256251085245613
 30
0.0
 10
39.02188315272414
 20
-0.3901296744772418
 30
0.0
 10
41.66186016653045
 20
-3.027750893080614
 30
0.0
 10
44.30431445456141
 20
-5.588310581541094
 30
0.0
 10
46.94872509812348
 20
-8.007233423093965
 30
0.0
 10
49.58909011657438
 20
-10.22822140693366
 30
0.0
 10
52.22997737458435
 20
-12.19173389561249
 30
0.0
 10
54.87491302345276
 20
-13.84966192850926
 30
0.0
 10
57.51642604724589
 20
-15.15423861071055
 30
0.0
 10
60.1565098876834
 20
-16.10845128895205
 30
0.0
 10
61.91846355485606
 20
-16.40082895214383
 30
0.0
 10
62.8
 20
-16.54711064538674
 30
0.0
1001
PE_URL
1000

  0
SPLINE
  5
A9
330
1F
100
AcDbEntity
  8
0
  6
Continuous
 62
     1
370
    15
100
AcDbSpline
210
0.0
220
0.0
230
1.0
 70
     8
 71
     3
 72
    24
 73
    20
 74
     0
 42
0.000000001
 43
0.00000001
 40
0.0
 40
0.0
 40
0.0
 40
0.0
 40
0.0605770353720136
 40
0.1210771604601533
 40
0.1816098500762692
 40
0.2422185660352196
 40
0.3027367229953863
 40
0.3632430013500115
 40
0.4238401604723424
 40
0.4843943272359753
 40
0.5448922077886856
 40
0.6054433176796805
 40
0.6660426606982873
 40
0.7265501820388764
 40
0.7870665183991001
 40
0.8476744376892998
 40
0.9082096095586483
 40
0.9687091557634441
 40
1.0
 40
1.0
 40
1.0
 40
1.0
 10
62.8
 20
-10.01432150138396
 30
0.0
 10
61.91846355485593
 20
-9.285965535976334
 30
0.0
 10
60.156509887683
 20
-7.830178346091658
 30
0.0
 10
57.51642604724766
 20
-5.380621108431999
 30
0.0
 10
54.87491302344606
 20
-2.814509860524721
 30
0.0
 10
52.22997737460896
 20
-0.1758873294551685
 30
0.0
 10
49.58909011648268
 20
2.469099228752984
 30
0.0
 10
46.94872509846543
 20
5.052636488431016
 30
0.0
 10
44.30431445328334
 20
7.506601168751381
 30
0.0
 10
41.66186017129455
 20
9.774047506158135
 30
0.0
 10
39.021883134956
 20
11.79722137694977
 30
0.0
 10
36.37956521566073
 20
13.52374077506235
 30
0.0
 10
33.73505463869471
 20
14.91024119287179
 30
0.0
 10
31.09463531235578
 20
15.92479985838677
 30
0.0
 10
28.45382314776946
 20
16.53815082737336
 30
0.0
 10
25.80893882863595
 20
16.74182651257009
 30
0.0
 10
23.16726133012348
 20
16.5064876521828
 30
0.0
 10
20.95307020333604
 20
16.02276469889017
 30
0.0
 10
19.61742156747192
 20
15.47416083640021
 30
0.0
 10
19.16210622107631
 20
15.28714476722122
 30
0.0
1001
PE_URL
1000

  0
SPLINE
  5
AA
330
1F
100
AcDbEntity
  8
0
  6
Continuous
 62
     1
370
    15
100
AcDbSpline
210
0.0
220
0.0
230
1.0
 70
     8
 71
     3
 72
    18
 73
    14
 74
     0
 42
0.000000001
 43
0.00000001
 40
0.4653827561972169
 40
0.4653827561972169
 40
0.4653827561972169
 40
0.4653827561972169
 40
0.4784271564405538
 40
0.5357608349324862
 40
0.5931701503178713
 40
0.6505726436819969
 40
0.7079051438172372
 40
0.7652714046754244
 40
0.8227066047534467
 40
0.8800550161086664
 40
0.9373950738952053
 40
0.994822146654544
 40
1.0
 40
1.0
 40
1.0
 40
1.0
 10
12.0
 20
-7.941991813897667
 30
0.0
 10
12.20015763973414
 20
-8.118095206916445
 30
0.0
 10
13.27999645424345
 20
-9.058996400497847
 30
0.0
 10
15.2402713322305
 20
-10.67057313531511
 30
0.0
 10
17.88392709142656
 20
-12.57174749194558
 30
0.0
 10
20.52725082139827
 20
-14.15822198776069
 30
0.0
 10
23.16730644603218
 20
-15.39049172148504
 30
0.0
 10
25.80892897841742
 20
-16.23708335852468
 30
0.0
 10
28.45381734852045
 20
-16.67333730167391
 30
0.0
 10
31.09466828372143
 20
-16.7027523926879
 30
0.0
 10
33.73492847292658
 20
-16.27301094580681
 30
0.0
 10
35.57791619939545
 20
-15.79363131155456
 30
0.0
 10
36.53888960995917
 20
-15.35568016018094
 30
0.0
 10
36.61836864936332
 20
-15.31945862019396
 30
0.0
1001
PE_URL
1000

  0
SPLINE
  5
AC
330
1F
100
AcDbEntity
  8
0
  6
Continuous
 62
     1
370
    15
100
AcDbSpline
210
0.0
220
0.0
230
1.0
 70
     8
 71
     3
 72
    20
 73
    16
 74
     0
 42
0.000000001
 43
0.00000001
 40
0.0
 40
0.0
 40
0.0
 40
0.0
 40
0.0316067779912803
 40
0.0816447707909824
 40
0.1317267897486503
 40
0.1818487024822671
 40
0.231894669208825
 40
0.2819479268666514
 40
0.3320769330622588
 40
0.3821457696306413
 40
0.432185140096574
 40
0.4822856001208207
 40
0.5323920143533841
 40
0.5824324132800839
 40
0.5938174667086578
 40
0.5938174667086578
 40
0.5938174667086578
 40
0.5938174667086578
 10
43.32903703591094
 20
-16.62002178103772
 30
0.0
 10
42.77307552818475
 20
-16.62312629156851
 30
0.0
 10
41.33694844558767
 20
-16.63114568066205
 30
0.0
 10
39.02193038721083
 20
-16.17162358690349
 30
0.0
 10
36.37955247914911
 20
-15.30695631202087
 30
0.0
 10
33.73505826608006
 20
-14.04221669880629
 30
0.0
 10
31.09463352405355
 20
-12.4285190639958
 30
0.0
 10
28.45382667899656
 20
-10.50167495717813
 30
0.0
 10
25.80892648002683
 20
-8.314548310065604
 30
0.0
 10
23.16730711466847
 20
-5.916622358644663
 30
0.0
 10
20.52725064203904
 20
-3.369715891450381
 30
0.0
 10
17.88392713951898
 20
-0.7402020278132329
 30
0.0
 10
15.24027131936282
 20
1.907564422599655
 30
0.0
 10
13.27999645319799
 20
3.83968893080635
 30
0.0
 10
12.20015763987823
 20
4.875184188359178
 30
0.0
 10
12.00000000000001
 20
5.066002158527179
 30
0.0
1001
PE_URL
1000

  0
LINE
  5
AD
330
1F
100
AcDbEntity
  8
0
  6
Continuous
 62
     1
370
    15
100
AcDbLine
 10
62.8
 20
-6.532789144002707
 30
0.0
 11
62.8
 21
6.532789144002707
 31
0.0
1001
PE_URL
1000

  0
SPLINE
  5
AE
330
1F
100
AcDbEntity
  8
0
  6
Continuous
 62
     1
370
    15
100
AcDbSpline
210
0.0
220
0.0
230
1.0
 70
     8
 71
     3
 72
    20
 73
    16
 74
     0
 42
0.000000001
 43
0.00000001
 40
0.0
 40
0.0
 40
0.0
 40
0.0
 40
0.0361778070629655
 40
0.1164454793440665
 40
0.1968349598267959
 40
0.2771604555222694
 40
0.3574153385899841
 40
0.4377448894515885
 40
0.5181314728354661
 40
0.5983974962043699
 40
0.6786792774161922
 40
0.7590811917928767
 40
0.8393822516404659
 40
0.9196401122493226
 40
1.0
 40
1.0
 40
1.0
 40
1.0
 10
29.90492689531313
 20
16.61696361644406
 30
0.0
 10
30.30154418704548
 20
16.6285465734145
 30
0.0
 10
31.57813595424522
 20
16.66582862797071
 30
0.0
 10
33.73498739068857
 20
16.2830088640918
 30
0.0
 10
36.37958323076805
 20
15.49593571583528
 30
0.0
 10
39.02187831432572
 20
14.2960827297864
 30
0.0
 10
41.66186146380984
 20
12.74344192308147
 30
0.0
 10
44.30431410652783
 20
10.87015375728009
 30
0.0
 10
46.94872519125012
 20
8.726304697359922
 30
0.0
 10
49.58909009163274
 20
6.361010360160578
 30
0.0
 10
52.22997738127927
 20
3.836469949671987
 30
0.0
 10
54.87491302166082
 20
1.218108403780096
 30
0.0
 10
57.51642604772316
 20
-1.430483738908399
 30
0.0
 10
60.15650988756396
 20
-4.055425488740496
 30
0.0
 10
61.9184635548162
 20
-5.706651629883224
 30
0.0
 10
62.8
 20
-6.532789144002705
 30
0.0
1001
PE_URL
1000

  0
SPLINE
  5
AF
330
1F
100
AcDbEntity
  8
0
  6
Continuous
 62
     1
370
    15
100
AcDbSpline
210
0.0
220
0.0
230
1.0
 70
     8
 71
     3
 72
    17
 73
    13
 74
     0
 42
0.000000001
 43
0.00000001
 40
0.0
 40
0.0
 40
0.0
 40
0.0
 40
0.1009651853894501
 40
0.2018021825798246
 40
0.3026934558433685
 40
0.4037114440204375
 40
0.5045784953607212
 40
0.6054257483466731
 40
0.7064244744693241
 40
0.8073515442053657
 40
0.9081848003751646
 40
1.0
 40
1.0
 40
1.0
 40
1.0
 10
62.8
 20
6.532789144002709
 30
0.0
 10
61.91846355576529
 20
7.327288038290369
 30
0.0
 10
60.15650989040988
 20
8.915277109038511
 30
0.0
 10
57.51642603635374
 20
11.03215161247109
 30
0.0
 10
54.87491306434607
 20
12.88352694070074
 30
0.0
 10
52.22997722180091
 20
14.40709028342345
 30
0.0
 10
49.58909068576395
 20
15.57232260660061
 30
0.0
 10
46.9487229728915
 20
16.34583341358698
 30
0.0
 10
44.30432239699557
 20
16.71151722008719
 30
0.0
 10
41.6618305614671
 20
16.64944762312765
 30
0.0
 10
39.10141810734424
 20
16.21723189540399
 30
0.0
 10
37.41981262056836
 20
15.60922931993288
 30
0.0
 10
36.61836864936343
 20
15.31945862019364
 30
0.0
1001
PE_URL
1000

  0
SPLINE
  5
B1
330
1F
100
AcDbEntity
  8
0
  6
Continuous
 62
     1
370
    15
100
AcDbSpline
210
0.0
220
0.0
230
1.0
 70
     8
 71
     3
 72
    11
 73
     7
 74
     0
 42
0.000000001
 43
0.00000001
 40
0.7495052807233266
 40
0.7495052807233266
 40
0.7495052807233266
 40
0.7495052807233266
 40
0.7705135839714236
 40
0.862850269927446
 40
0.9553087701514716
 40
0.9999999999999999
 40
0.9999999999999999
 40
0.9999999999999999
 40
0.9999999999999999
 10
11.99999999999996
 20
-16.6635476816928
 30
0.0
 10
12.20015818277661
 20
-16.66881067200351
 30
0.0
 10
13.27999251396172
 20
-16.67704719031525
 30
0.0
 10
15.24022283530695
 20
-16.49113384778708
 30
0.0
 10
17.42868735224123
 20
-16.00604329258717
 30
0.0
 10
18.73608217718364
 20
-15.4638291580696
 30
0.0
 10
19.16210622107619
 20
-15.28714476722153
 30
0.0
1001
PE_URL
1000

  0
SPLINE
  5
B3
330
1F
100
AcDbEntity
  8
0
  6
Continuous
 62
     1
370
    15
100
AcDbSpline
210
0.0
220
0.0
230
1.0
 70
     8
 71
     3
 72
    14
 73
    10
 74
     0
 42
0.000000001
 43
0.00000001
 40
0.0
 40
0.0
 40
0.0
 40
0.0
 40
0.0018245045924714
 40
0.0766497175848269
 40
0.1514308950544305
 40
0.2263033676194617
 40
0.3011847384321064
 40
0.3759674528816205
 40
0.3929818117136478
 40
0.3929818117136478
 40
0.3929818117136478
 40
0.3929818117136478
 10
25.87281974678078
 20
-16.66377904248748
 30
0.0
 10
25.85133774728922
 20
-16.66543115087583
 30
0.0
 10
24.94885210763745
 20
-16.73483828852259
 30
0.0
 10
23.16736310470836
 20
-16.48777554069351
 30
0.0
 10
20.52723562291386
 20
-15.89251068896393
 30
0.0
 10
17.88393116665783
 20
-14.84980898136097
 30
0.0
 10
15.24027024185345
 20
-13.4485067664571
 30
0.0
 10
13.27999636565192
 20
-12.15403249384727
 30
0.0
 10
12.20015765194348
 20
-11.36779702711011
 30
0.0
 10
12.0
 20
-11.21965481400589
 30
0.0
1001
PE_URL
1000

  0
LINE
  5
B4
330
1F
100
AcDbEntity
  8
0
  6
Continuous
 62
     1
370
    15
100
AcDbLine
 10
62.8
 20
-10.01432150138395
 30
0.0
 11
62.8
 21
-6.532789144002707
 31
0.0
1001
PE_URL
1000

  0
LINE
  5
B6
330
1F
100
AcDbEntity
  8
0
  6
Continuous
 62
     1
370
    15
100
AcDbLine
 10
62.8
 20
-16.66875000000008
 30
0.0
 11
62.8
 21
-16.54711064538674
 31
0.0
1001
PE_URL
1000

  0
LINE
  5
B7
330
1F
100
AcDbEntity
  8
0
  6
Continuous
 62
     1
370
    15
100
AcDbLine
 10
62.8
 20
16.54711064538645
 30
0.0
 11
62.8
 21
16.66874999999977
 31
0.0
1001
PE_URL
1000

  0
SPLINE
  5
B8
330
1F
100
AcDbEntity
  8
0
  6
Continuous
 62
     1
370
    15
100
AcDbSpline
210
0.0
220
0.0
230
1.0
 70
     8
 71
     3
 72
    11
 73
     7
 74
     0
 42
0.000000001
 43
0.00000001
 40
0.0
 40
0.0
 40
0.0
 40
0.0
 40
0.3028575261632664
 40
0.605330536013255
 40
0.9079663536388797
 40
1.0
 40
1.0
 40
1.0
 40
1.0
 10
62.8
 20
16.54711064538645
 30
0.0
 10
61.91846472088515
 20
16.61471441829265
 30
0.0
 10
60.15651338429024
 20
16.74983613248036
 30
0.0
 10
57.51641207840177
 20
16.39527204001147
 30
0.0
 10
55.48864591478676
 20
15.9104632841813
 30
0.0
 10
54.33969363151152
 20
15.41097529281543
 30
0.0
 10
54.07176748628459
 20
15.29449883503572
 30
0.0
1001
PE_URL
1000

  0
SPLINE
  5
BC
330
1F
100
AcDbEntity
  8
0
  6
Continuous
 62
     1
370
    15
100
AcDbSpline
210
0.0
220
0.0
230
1.0
 70
     8
 71
     3
 72
    13
 73
     9
 74
     0
 42
0.000000001
 43
0.00000001
 40
0.0
 40
0.0
 40
0.0
 40
0.0
 40
0.14439379469308
 40
0.3154325445233918
 40
0.4867272356895962
 40
0.6578070582727822
 40
0.828794845730752
 40
1.0
 40
1.0
 40
1.0
 40
1.0
 10
47.36021485654929
 20
16.64128772233988
 30
0.0
 10
48.10316079793088
 20
16.62364779473092
 30
0.0
 10
49.72614833165039
 20
16.58511284755589
 30
0.0
 10
52.22993281604654
 20
16.02103111904184
 30
0.0
 10
54.87492494981575
 20
15.06969015599845
 30
0.0
 10
57.51642287061215
 20
13.72324351920103
 30
0.0
 10
60.15651068284146
 20
12.05315379927429
 30
0.0
 10
61.91846382002092
 20
10.69422000667907
 30
0.0
 10
62.8
 20
10.01432150138372
 30
0.0
1001
PE_URL
1000

  0
LINE
  5
BD
330
1F
100
AcDbEntity
  8
0
  6
Continuous
 62
     1
370
    15
100
AcDbLine
 10
62.8
 20
6.532789144002707
 30
0.0
 11
62.8
 21
10.01432150138372
 31
0.0
1001
PE_URL
1000

  0
LINE
  5
BF
330
1F
100
AcDbEntity
  8
0
  6
Continuous
 62
     1
370
    15
100
AcDbLine
 10
62.8
 20
9.99246019451557
 30
0.0
 11
62.8
 21
16.54711064538645
 31
0.0
1001
PE_URL
1000

  0
LINE
  5
CB
330
1F
100
AcDbEntity
  8
외형선
  6
Continuous
370
    15
100
AcDbLine
 10
-49.595
 20
0.0
 30
0.0
 11
-49.595
 21
9.525000000000002
 31
0.0
  0
LINE
  5
CC
330
1F
100
AcDbEntity
  8
외형선
  6
Continuous
370
    15
100
AcDbLine
 10
-49.595
 20
-9.525000000000015
 30
0.0
 11
-49.595
 21
0.0
 31
0.0
  0
LINE
  5
CE
330
1F
100
AcDbEntity
  8
외형선
  6
Continuous
370
    15
100
AcDbLine
 10
-51.5
 20
0.0
 30
0.0
 11
-51.5
 21
7.620000000000005
 31
0.0
  0
LINE
  5
CF
330
1F
100
AcDbEntity
  8
외형선
  6
Continuous
370
    15
100
AcDbLine
 10
-51.5
 20
-7.620000000000005
 30
0.0
 11
-51.5
 21
0.0
 31
0.0
  0
LINE
  5
D3
330
1F
100
AcDbEntity
  8
중심선
 62
     1
100
AcDbLine
 10
-58.5
 20
-0.0000000000000973
 30
0.0
 11
69.80000000000001
 21
-0.0000000000000843
 31
0.0
  0
LINE
  5
D4
330
1F
100
AcDbEntity
  8
참조1
100
AcDbLine
 10
13.5875
 20
-0.0000000000000952
 30
0.0
 11
13.58750000000001
 21
-40.00000000000009
 31
0.0
  0
LINE
  5
D5
330
1F
100
AcDbEntity
  8
참조1
100
AcDbLine
 10
13.58750000000001
 20
-40.00000000000009
 30
0.0
 11
-3.158856814308683
 21
-40.00000000000009
 31
0.0
  0
CIRCLE
  5
D6
330
1F
100
AcDbEntity
  8
해칭선
100
AcDbCircle
 10
0.0
 20
0.0
 30
0.0
 40
3.000000000000001
  0
INSERT
  5
D7
330
1F
100
AcDbEntity
  8
0
  6
Continuous
 62
     7
100
AcDbBlockReference
 66
     1
  2
블럭10
 10
-0.3527729321252053
 20
-52.04717430164402
 30
0.0
  0
ATTRIB
  5
D8
330
D7
100
AcDbEntity
  8
FORMAT
 62
     2
100
AcDbText
 10
-9.534068220866484
 20
-49.97180738881183
 30
0.0
 40
4.233333333333333
  1
E2042048 [ 6 FLUTE ]
 41
0.75
  7
SLDTEXTSTYLE0
 11
-9.534068220866484
 21
-52.0884740554785
 31
0.0
100
AcDbAttribute
  2
AUTOATTR0
 70
     0
 74
     1
  0
SEQEND
  5
D9
330
D7
100
AcDbEntity
  8
0
  6
Continuous
 62
     7
  0
HATCH
  5
DA
330
1F
100
AcDbEntity
  8
중심선
100
AcDbHatch
 10
0.0
 20
0.0
 30
0.0
210
0.0
220
0.0
230
1.0
  2
SOLID
 70
     1
 71
     0
 91
        1
 92
        0
 93
        4
 72
     1
 10
5.362136372255645
 20
-35.80000000000008
 11
1.915861128418363
 21
-35.80000000000008
 72
     1
 10
1.915861128418363
 20
-35.80000000000008
 11
-0.2123687307856592
 21
-38.3363255805727
 72
     1
 10
-0.2123687307856592
 20
-38.33632558057269
 11
3.233939598164772
 21
-38.3362861512702
 72
     1
 10
3.233939598164771
 20
-38.3362861512702
 11
5.362136372255645
 21
-35.80000000000008
 97
        0
 75
     0
 76
     1
 98
        1
 10
6.349999999999952
 20
-0.0010749287239844
  0
HATCH
  5
DB
330
1F
100
AcDbEntity
  8
중심선
100
AcDbHatch
 10
0.0
 20
0.0
 30
0.0
210
0.0
220
0.0
230
1.0
  2
SOLID
 70
     1
 71
     0
 91
        1
 92
        0
 93
        4
 72
     1
 10
10.37490036329162
 20
-35.80000000000008
 11
6.928625119454342
 21
-35.80000000000008
 72
     1
 10
6.928625119454342
 20
-35.80000000000008
 11
2.397487111096925
 21
-41.2000000000001
 72
     1
 10
2.397487111096925
 20
-41.2000000000001
 11
5.843762354934207
 21
-41.2000000000001
 72
     1
 10
5.843762354934208
 20
-41.2000000000001
 11
10.37490036329162
 21
-35.80000000000008
 97
        0
 75
     0
 76
     1
 98
        1
 10
6.349999999999952
 20
-0.0010749287239844
  0
HATCH
  5
DC
330
1F
100
AcDbEntity
  8
중심선
100
AcDbHatch
 10
0.0
 20
0.0
 30
0.0
210
0.0
220
0.0
230
1.0
  2
SOLID
 70
     1
 71
     0
 91
        1
 92
        0
 93
        4
 72
     1
 10
15.38766435432746
 20
-35.80000000000011
 11
11.94138911049038
 21
-35.80000000000006
 72
     1
 10
11.94138911049038
 20
-35.80000000000007
 11
4.892952208601129
 21
-44.2000000000001
 72
     1
 10
4.892952208601128
 20
-44.2000000000001
 11
8.33922745243841
 21
-44.2000000000001
 72
     1
 10
8.33922745243841
 20
-44.2000000000001
 11
15.38766435432746
 21
-35.80000000000012
 97
        0
 75
     0
 76
     1
 98
        1
 10
6.349999999999952
 20
-0.0010749287239844
  0
HATCH
  5
DD
330
1F
100
AcDbEntity
  8
중심선
100
AcDbHatch
 10
0.0
 20
0.0
 30
0.0
210
0.0
220
0.0
230
1.0
  2
SOLID
 70
     1
 71
     0
 91
        1
 92
        0
 93
        6
 72
     3
 10
20.18755478533969
 20
-40.00000000005136
 11
3.960054785062287
 21
1.540882976769353E-10
 40
0.3939339440162625
 50
17.09539180608436
 51
320.0019657685082
 73
     0
 72
     1
 10
21.87055444104029
 20
-38.58789400463839
 11
24.17585631474136
 21
-36.65356729459044
 72
     3
 10
20.18755478528685
 20
-40.00000000000024
 11
6.600054785286826
 21
-1.278976924368180E-13
 40
0.6363583540795983
 50
39.99873849337419
 51
368.4976242363724
 73
     1
 72
     1
 10
26.61288727718746
 20
-39.03999999993012
 11
18.86762209212279
 21
-39.03999999993012
 72
     1
 10
18.86762209212279
 20
-39.03999999993012
 11
18.86759704767683
 21
-40.95999999993001
 72
     1
 10
18.86759704767683
 20
-40.95999999993001
 11
23.30897681714887
 21
-40.95999999992998
 97
        0
 75
     0
 76
     1
 98
        1
 10
6.349999999999952
 20
-0.0010749287239844
  0
DIMENSION
  5
DE
330
1F
100
AcDbEntity
  8
치수문자_일반주서
100
AcDbDimension
  2
_D
 10
-66.49999999999993
 20
-9.52500000000007
 30
0.0
 11
-66.50000000000009
 21
31.75399999999994
 31
0.0
 70
   160
  1
%%c<>
 71
     2
 42
19.05000000000001
 52
-270.0
  3
SLDDIMSTYLE0
100
AcDbAlignedDimension
 13
-49.59500000000001
 23
9.525000000000006
 33
0.0
 14
-49.59500000000001
 24
-9.525000000000006
 34
0.0
 50
90.0000000000002
100
AcDbRotatedDimension
1001
ACAD
1000
DSTYLE
1002
{
1070
   171
1070
     8
1070
   273
1070
     7
1070
   140
1040
4.0
1002
}
  0
DIMENSION
  5
F3
330
1F
100
AcDbEntity
  8
치수문자_일반주서
100
AcDbDimension
  2
_D_1
 10
12.0
 20
24.5249999999999
 30
0.0
 11
37.4
 21
24.5249999999999
 31
0.0
 70
   160
  1
<>
 71
     2
 42
50.8
  3
SLDDIMSTYLE0
100
AcDbAlignedDimension
 13
62.8
 23
9.45549179736373
 33
0.0
 14
12.0
 24
16.66874999999992
 34
0.0
100
AcDbRotatedDimension
1001
PE_URL
1000

1001
ACAD
1000
DSTYLE
1002
{
1070
   171
1070
     8
1070
   273
1070
     7
1070
   140
1040
4.0
1002
}
  0
DIMENSION
  5
107
330
1F
100
AcDbEntity
  8
치수문자_일반주서
100
AcDbDimension
  2
_D_2
 10
-51.5
 20
39.52499999999989
 30
0.0
 11
5.649999999999999
 21
39.52499999999989
 31
0.0
 70
   160
  1
<>
 71
     2
 42
114.3
  3
SLDDIMSTYLE0
100
AcDbAlignedDimension
 13
62.8
 23
9.45549179736373
 33
0.0
 14
-51.5
 24
7.620000000000005
 34
0.0
100
AcDbRotatedDimension
1001
PE_URL
1000

1001
ACAD
1000
DSTYLE
1002
{
1070
   171
1070
     8
1070
   273
1070
     7
1070
   140
1040
4.0
1002
}
  0
DIMENSION
  5
11A
330
1F
100
AcDbEntity
  8
치수문자_일반주서
100
AcDbDimension
  2
_D_3
 10
77.80000000000017
 20
-16.66875000000002
 30
0.0
 11
77.79999999999997
 21
43.14774999999997
 31
0.0
 70
   160
  1
%%c<>
 71
     2
 42
33.3375
 52
-270.0
  3
SLDDIMSTYLE0
100
AcDbAlignedDimension
 13
62.8
 23
16.66874999999992
 33
0.0
 14
62.8
 24
-16.66875000000008
 34
0.0
 50
90.0000000000002
100
AcDbRotatedDimension
1001
PE_URL
1000

1001
ACAD
1000
DSTYLE
1002
{
1070
   171
1070
     8
1070
   273
1070
     7
1070
   140
1040
4.0
1002
}
  0
LINE
  5
12D
330
1F
100
AcDbEntity
  8
참조1
100
AcDbLine
 10
94.81348381534559
 20
7.439999999999911
 30
0.0
 11
94.81348381534559
 21
-7.440000000000094
 31
0.0
  0
LINE
  5
12E
330
1F
100
AcDbEntity
  8
참조1
100
AcDbLine
 10
107.5134838153456
 20
5.439999999999911
 30
0.0
 11
94.81348381534559
 21
5.439999999999911
 31
0.0
  0
SOLID
  5
12F
330
1F
100
AcDbEntity
  8
참조1
100
AcDbTrace
 10
94.81348381534559
 20
5.439999999999911
 30
0.0
 11
101.1634838153456
 21
4.423999999999911
 31
0.0
 12
101.1634838153456
 22
6.455999999999911
 32
0.0
 13
101.1634838153456
 23
6.455999999999911
 33
0.0
  0
LINE
  5
130
330
1F
100
AcDbEntity
  8
참조1
100
AcDbLine
 10
107.5134838153456
 20
-5.440000000000094
 30
0.0
 11
94.81348381534559
 21
-5.440000000000094
 31
0.0
  0
SOLID
  5
131
330
1F
100
AcDbEntity
  8
참조1
100
AcDbTrace
 10
94.81348381534559
 20
-5.440000000000094
 30
0.0
 11
101.1634838153456
 21
-6.456000000000094
 31
0.0
 12
101.1634838153456
 22
-4.424000000000094
 32
0.0
 13
101.1634838153456
 23
-4.424000000000094
 33
0.0
  0
MTEXT
  5
132
330
1F
100
AcDbEntity
  8
참조1
100
AcDbMText
 10
104.2109739078159
 20
10.98821664464985
 30
0.0
 40
3.5
 41
0.0
 71
     1
 72
     1
  1
A
  7
SLDTEXTSTYLE0
 73
     1
 44
1.0
  0
MTEXT
  5
133
330
1F
100
AcDbEntity
  8
참조1
100
AcDbMText
 10
104.2109739078159
 20
0.1082166446498406
 30
0.0
 40
3.5
 41
0.0
 71
     1
 72
     1
  1
A
  7
SLDTEXTSTYLE0
 73
     1
 44
1.0
  0
INSERT
  5
13A
330
1F
100
AcDbEntity
  8
해칭선
100
AcDbBlockReference
  2
SW_DOWELSYMBOL_0
 10
0.0
 20
0.0
 30
0.0
  0
LINE
  5
1E2
330
1F
100
AcDbEntity
  8
외형선
  6
Continuous
370
    15
100
AcDbLine
 10
-31.49432499999998
 20
7.619999999999998
 30
0.0
 11
-19.91192499999997
 21
7.619999999999998
 31
0.0
1001
PE_URL
1000

  0
LINE
  5
1E3
330
1F
100
AcDbEntity
  8
외형선
  6
Continuous
370
    15
100
AcDbLine
 10
-31.49432499999998
 20
7.619999999999984
 30
0.0
 11
-33.39932500000012
 21
9.525000000000013
 31
0.0
1001
PE_URL
1000

  0
LINE
  5
1E4
330
1F
100
AcDbEntity
  8
외형선
  6
Continuous
370
    15
100
AcDbLine
 10
-19.91192499999997
 20
7.619999999999984
 30
0.0
 11
-18.006925
 21
9.525000000000013
 31
0.0
1001
PE_URL
1000

  0
LINE
  5
1E7
330
1F
100
AcDbEntity
  8
외형선
  6
Continuous
370
    15
100
AcDbLine
 10
12.0
 20
9.52499999999991
 30
0.0
 11
-18.0069250000001
 21
9.52499999999991
 31
0.0
  0
LINE
  5
20F
330
1F
100
AcDbEntity
  8
외형선
  6
Continuous
370
    15
100
AcDbLine
 10
12.0
 20
16.66874999999992
 30
0.0
 11
12.0
 21
-16.66874999999992
 31
0.0
  0
SPLINE
  5
212
330
1F
100
AcDbEntity
  8
0
  6
Continuous
 62
     1
370
    15
100
AcDbSpline
210
0.0
220
0.0
230
1.0
 70
     8
 71
     3
 72
    24
 73
    20
 74
     0
 42
0.000000001
 43
0.00000001
 40
0.2878551319495425
 40
0.2878551319495425
 40
0.2878551319495425
 40
0.2878551319495425
 40
0.2980226941958862
 40
0.3427118862373791
 40
0.3874600340574971
 40
0.4322028643988451
 40
0.4768911379608354
 40
0.5216057265870412
 40
0.5663740504368616
 40
0.6110747261259085
 40
0.6557688905593577
 40
0.7005308795059416
 40
0.7452572408265887
 40
0.7899442840468545
 40
0.8346729033408139
 40
0.8794332791421704
 40
0.9241265254382078
 40
0.9688285459219412
 40
1.0
 40
1.0
 40
1.0
 40
1.0
 10
12.00000000000001
 20
8.720663112412664
 30
0.0
 10
12.20015763876123
 20
8.54997560134343
 30
0.0
 10
13.27999638938387
 20
7.618825964790257
 30
0.0
 10
15.24027134014104
 20
5.833507621132258
 30
0.0
 10
17.88392713278075
 20
3.284937054422439
 30
0.0
 10
20.52725064819821
 20
0.6537783479992089
 30
0.0
 10
23.16730709678031
 20
-1.99570835573627
 30
0.0
 10
25.80892654550404
 20
-4.594554169531051
 30
0.0
 10
28.45382643483138
 20
-7.075630886583771
 30
0.0
 10
31.09463443356658
 20
-9.382358932901402
 30
0.0
 10
33.73505486997031
 20
-11.4536708172019
 30
0.0
 10
36.37956517084321
 20
-13.23570461648975
 30
0.0
 10
39.02188308307586
 20
-14.68723458723055
 30
0.0
 10
41.66186042342342
 20
-15.77107845467447
 30
0.0
 10
44.30431349529003
 20
-16.45789810486134
 30
0.0
 10
46.94872867842041
 20
-16.73591786944177
 30
0.0
 10
49.58907677632291
 20
-16.58029363326631
 30
0.0
 10
51.9623684804757
 20
-16.11417872883962
 30
0.0
 10
53.45751107005492
 20
-15.53318939696233
 30
0.0
 10
54.07176748628457
 20
-15.29449883503603
 30
0.0
  0
LINE
  5
218
330
1F
100
AcDbEntity
  8
외형선
  6
Continuous
370
    15
100
AcDbLine
 10
-33.39932500000001
 20
9.52499999999991
 30
0.0
 11
-49.595
 21
9.52499999999991
 31
0.0
  0
ENDSEC
  0
SECTION
  2
OBJECTS
  0
DICTIONARY
  5
C
330
0
100
AcDbDictionary
281
     1
  3
ACAD_GROUP
350
D
  3
ACAD_IMAGE_VARS
350
20B
  3
ACAD_LAYOUT
350
1A
  3
ACAD_MLINESTYLE
350
17
  3
ACAD_PLOTSETTINGS
350
19
  3
ACAD_PLOTSTYLENAME
350
E
  3
ACAD_SCALELIST
350
47
  3
APPDATA
350
15C
  3
DWGPROPS
350
21A
  0
DICTIONARY
  5
191
330
2
100
AcDbDictionary
280
     1
281
     1
  3
ACAD_LAYERSTATES
360
192
  0
DICTIONARY
  5
D
102
{ACAD_REACTORS
330
C
102
}
330
C
100
AcDbDictionary
281
     1
  0
RASTERVARIABLES
  5
20B
102
{ACAD_REACTORS
330
C
102
}
330
C
100
AcDbRasterVariables
 90
        0
 70
     1
 71
     1
 72
     1
  0
DICTIONARY
  5
1A
102
{ACAD_REACTORS
330
C
102
}
330
C
100
AcDbDictionary
281
     1
  3
Layout1
350
1E
  3
Layout2
350
26
  3
Model
350
22
  0
DICTIONARY
  5
17
102
{ACAD_REACTORS
330
C
102
}
330
C
100
AcDbDictionary
281
     1
  3
Standard
350
18
  0
DICTIONARY
  5
19
102
{ACAD_REACTORS
330
C
102
}
330
C
100
AcDbDictionary
281
     1
  0
ACDBDICTIONARYWDFLT
  5
E
102
{ACAD_REACTORS
330
C
102
}
330
C
100
AcDbDictionary
281
     1
  3
Normal
350
F
100
AcDbDictionaryWithDefault
340
F
  0
DICTIONARY
  5
47
102
{ACAD_REACTORS
330
C
102
}
330
C
100
AcDbDictionary
281
     1
  3
A0
350
48
  3
A1
350
49
  3
A2
350
4A
  3
A3
350
4B
  3
A4
350
4C
  3
A5
350
4D
  3
A6
350
4E
  3
A7
350
4F
  3
A8
350
50
  3
A9
350
51
  3
B0
350
52
  3
B1
350
53
  3
B2
350
54
  3
B3
350
55
  3
B4
350
56
  3
B5
350
57
  3
B6
350
58
  3
B7
350
59
  3
B8
350
5A
  3
B9
350
5B
  3
C0
350
5C
  3
C1
350
5D
  3
C2
350
5E
  3
C3
350
5F
  3
C4
350
60
  3
C5
350
61
  3
C6
350
62
  3
C7
350
63
  3
C8
350
64
  3
C9
350
65
  3
D0
350
66
  3
D1
350
67
  3
D2
350
68
  0
DICTIONARY
  5
15C
102
{ACAD_REACTORS
330
C
102
}
330
C
100
AcDbDictionary
281
     1
  0
XRECORD
  5
21A
102
{ACAD_REACTORS
330
C
102
}
330
C
100
AcDbXrecord
280
     1
  1
DWGPROPS COOKIE
  2

  3

  4

  6

  7

  8
12016016
  9

300
=
301
=
302
=
303
=
304
=
305
=
306
=
307
=
308
=
309
=
 40
0.0
 41
2458323.062720625
 42
2458330.390480486
  1

 90
        0
  0
DICTIONARY
  5
192
102
{ACAD_REACTORS
330
191
102
}
330
191
100
AcDbDictionary
281
     1
  0
LAYOUT
  5
1E
102
{ACAD_REACTORS
330
1A
102
}
330
1A
100
AcDbPlotSettings
  1

  2
none_device
  4

  6

 40
0.0
 41
0.0
 42
0.0
 43
0.0
 44
0.0
 45
0.0
 46
0.0
 47
0.0
 48
0.0
 49
0.0
140
0.0
141
0.0
142
1.0
143
1.0
 70
   688
 72
     1
 73
     0
 74
     5
  7

 75
    16
147
1.0
148
0.0
149
0.0
100
AcDbLayout
  1
Layout1
 70
     1
 71
     1
 10
0.0
 20
0.0
 11
420.0
 21
297.0
 12
0.0
 22
0.0
 32
0.0
 14
1.000000000000000E+20
 24
1.000000000000000E+20
 34
1.000000000000000E+20
 15
-1.000000000000000E+20
 25
-1.000000000000000E+20
 35
-1.000000000000000E+20
146
0.0
 13
0.0
 23
0.0
 33
0.0
 16
1.0
 26
0.0
 36
0.0
 17
0.0
 27
1.0
 37
0.0
 76
     0
330
1B
  0
LAYOUT
  5
26
102
{ACAD_REACTORS
330
1A
102
}
330
1A
100
AcDbPlotSettings
  1

  2
none_device
  4

  6

 40
0.0
 41
0.0
 42
0.0
 43
0.0
 44
0.0
 45
0.0
 46
0.0
 47
0.0
 48
0.0
 49
0.0
140
0.0
141
0.0
142
1.0
143
1.0
 70
   688
 72
     1
 73
     0
 74
     5
  7

 75
    16
147
1.0
148
0.0
149
0.0
100
AcDbLayout
  1
Layout2
 70
     1
 71
     2
 10
0.0
 20
0.0
 11
0.0
 21
0.0
 12
0.0
 22
0.0
 32
0.0
 14
0.0
 24
0.0
 34
0.0
 15
0.0
 25
0.0
 35
0.0
146
0.0
 13
0.0
 23
0.0
 33
0.0
 16
1.0
 26
0.0
 36
0.0
 17
0.0
 27
1.0
 37
0.0
 76
     0
330
23
  0
LAYOUT
  5
22
102
{ACAD_REACTORS
330
1A
102
}
330
1A
100
AcDbPlotSettings
  1

  2
none_device
  4
ANSI_A_(11.00_x_8.50_Inches)
  6

 40
6.35
 41
19.05
 42
6.35000508
 43
19.05000254
 44
279.4
 45
215.9
 46
64.84532668141956
 47
86.72728550712552
 48
0.0
 49
0.0
140
0.0
141
0.0
142
0.0419854803796379
143
1.0
 70
  1696
 72
     0
 73
     0
 74
     0
  7

 75
     0
147
0.0235690232323232
148
0.0
149
0.0
100
AcDbLayout
  1
Model
 70
     1
 71
     0
 10
0.0
 20
0.0
 11
420.0
 21
297.0
 12
0.0
 22
0.0
 32
0.0
 14
-71.37500000000014
 24
-49.97180738881183
 34
0.0
 15
107.5134838153456
 25
63.02274999999997
 35
0.0
146
0.0
 13
0.0
 23
0.0
 33
0.0
 16
1.0
 26
0.0
 36
0.0
 17
0.0
 27
1.0
 37
0.0
 76
     0
330
1F
331
29
  0
MLINESTYLE
  5
18
102
{ACAD_REACTORS
330
17
102
}
330
17
100
AcDbMlineStyle
  2
Standard
 70
     0
  3

 62
   256
 51
90.0
 52
90.0
 71
     2
 49
0.5
 62
   256
  6
BYLAYER
 49
-0.5
 62
   256
  6
BYLAYER
  0
ACDBPLACEHOLDER
  5
F
102
{ACAD_REACTORS
330
E
102
}
330
E
  0
SCALE
  5
48
102
{ACAD_REACTORS
330
47
102
}
330
47
100
AcDbScale
 70
     0
300
1:1
140
1.0
141
1.0
290
     1
  0
SCALE
  5
49
102
{ACAD_REACTORS
330
47
102
}
330
47
100
AcDbScale
 70
     0
300
1:2
140
1.0
141
2.0
290
     0
  0
SCALE
  5
4A
102
{ACAD_REACTORS
330
47
102
}
330
47
100
AcDbScale
 70
     0
300
1:4
140
1.0
141
4.0
290
     0
  0
SCALE
  5
4B
102
{ACAD_REACTORS
330
47
102
}
330
47
100
AcDbScale
 70
     0
300
1:5
140
1.0
141
5.0
290
     0
  0
SCALE
  5
4C
102
{ACAD_REACTORS
330
47
102
}
330
47
100
AcDbScale
 70
     0
300
1:8
140
1.0
141
8.0
290
     0
  0
SCALE
  5
4D
102
{ACAD_REACTORS
330
47
102
}
330
47
100
AcDbScale
 70
     0
300
1:10
140
1.0
141
10.0
290
     0
  0
SCALE
  5
4E
102
{ACAD_REACTORS
330
47
102
}
330
47
100
AcDbScale
 70
     0
300
1:16
140
1.0
141
16.0
290
     0
  0
SCALE
  5
4F
102
{ACAD_REACTORS
330
47
102
}
330
47
100
AcDbScale
 70
     0
300
1:20
140
1.0
141
20.0
290
     0
  0
SCALE
  5
50
102
{ACAD_REACTORS
330
47
102
}
330
47
100
AcDbScale
 70
     0
300
1:30
140
1.0
141
30.0
290
     0
  0
SCALE
  5
51
102
{ACAD_REACTORS
330
47
102
}
330
47
100
AcDbScale
 70
     0
300
1:40
140
1.0
141
40.0
290
     0
  0
SCALE
  5
52
102
{ACAD_REACTORS
330
47
102
}
330
47
100
AcDbScale
 70
     0
300
1:50
140
1.0
141
50.0
290
     0
  0
SCALE
  5
53
102
{ACAD_REACTORS
330
47
102
}
330
47
100
AcDbScale
 70
     0
300
1:100
140
1.0
141
100.0
290
     0
  0
SCALE
  5
54
102
{ACAD_REACTORS
330
47
102
}
330
47
100
AcDbScale
 70
     0
300
2:1
140
2.0
141
1.0
290
     0
  0
SCALE
  5
55
102
{ACAD_REACTORS
330
47
102
}
330
47
100
AcDbScale
 70
     0
300
4:1
140
4.0
141
1.0
290
     0
  0
SCALE
  5
56
102
{ACAD_REACTORS
330
47
102
}
330
47
100
AcDbScale
 70
     0
300
8:1
140
8.0
141
1.0
290
     0
  0
SCALE
  5
57
102
{ACAD_REACTORS
330
47
102
}
330
47
100
AcDbScale
 70
     0
300
10:1
140
10.0
141
1.0
290
     0
  0
SCALE
  5
58
102
{ACAD_REACTORS
330
47
102
}
330
47
100
AcDbScale
 70
     0
300
100:1
140
100.0
141
1.0
290
     0
  0
SCALE
  5
59
102
{ACAD_REACTORS
330
47
102
}
330
47
100
AcDbScale
 70
     0
300
1/128" = 1'-0"
140
0.0078125
141
12.0
290
     0
  0
SCALE
  5
5A
102
{ACAD_REACTORS
330
47
102
}
330
47
100
AcDbScale
 70
     0
300
1/64" = 1'-0"
140
0.015625
141
12.0
290
     0
  0
SCALE
  5
5B
102
{ACAD_REACTORS
330
47
102
}
330
47
100
AcDbScale
 70
     0
300
1/32" = 1'-0"
140
0.03125
141
12.0
290
     0
  0
SCALE
  5
5C
102
{ACAD_REACTORS
330
47
102
}
330
47
100
AcDbScale
 70
     0
300
1/16" = 1'-0"
140
0.0625
141
12.0
290
     0
  0
SCALE
  5
5D
102
{ACAD_REACTORS
330
47
102
}
330
47
100
AcDbScale
 70
     0
300
3/32" = 1'-0"
140
0.09375
141
12.0
290
     0
  0
SCALE
  5
5E
102
{ACAD_REACTORS
330
47
102
}
330
47
100
AcDbScale
 70
     0
300
1/8" = 1'-0"
140
0.125
141
12.0
290
     0
  0
SCALE
  5
5F
102
{ACAD_REACTORS
330
47
102
}
330
47
100
AcDbScale
 70
     0
300
3/16" = 1'-0"
140
0.1875
141
12.0
290
     0
  0
SCALE
  5
60
102
{ACAD_REACTORS
330
47
102
}
330
47
100
AcDbScale
 70
     0
300
1/4" = 1'-0"
140
0.25
141
12.0
290
     0
  0
SCALE
  5
61
102
{ACAD_REACTORS
330
47
102
}
330
47
100
AcDbScale
 70
     0
300
3/8" = 1'-0"
140
0.375
141
12.0
290
     0
  0
SCALE
  5
62
102
{ACAD_REACTORS
330
47
102
}
330
47
100
AcDbScale
 70
     0
300
1/2" = 1'-0"
140
0.5
141
12.0
290
     0
  0
SCALE
  5
63
102
{ACAD_REACTORS
330
47
102
}
330
47
100
AcDbScale
 70
     0
300
3/4" = 1'-0"
140
0.75
141
12.0
290
     0
  0
SCALE
  5
64
102
{ACAD_REACTORS
330
47
102
}
330
47
100
AcDbScale
 70
     0
300
1" = 1'-0"
140
1.0
141
12.0
290
     0
  0
SCALE
  5
65
102
{ACAD_REACTORS
330
47
102
}
330
47
100
AcDbScale
 70
     0
300
1-1/2" = 1'-0"
140
1.5
141
12.0
290
     0
  0
SCALE
  5
66
102
{ACAD_REACTORS
330
47
102
}
330
47
100
AcDbScale
 70
     0
300
3" = 1'-0"
140
3.0
141
12.0
290
     0
  0
SCALE
  5
67
102
{ACAD_REACTORS
330
47
102
}
330
47
100
AcDbScale
 70
     0
300
6" = 1'-0"
140
6.0
141
12.0
290
     0
  0
SCALE
  5
68
102
{ACAD_REACTORS
330
47
102
}
330
47
100
AcDbScale
 70
     0
300
1'-0" = 1'-0"
140
12.0
141
12.0
290
     0
  0
ENDSEC
  0
EOF
