  0
SECTION
  2
HEADER
  9
$ACADVER
  1
AC1015
  9
$ACADMAINTVER
 70
     6
  9
$DWGCODEPAGE
  3
ANSI_949
  9
$INSBASE
 10
0.0
 20
0.0
 30
0.0
  9
$EXTMIN
 10
-103.1249999999982
 20
-49.97180738881175
 30
0.0
  9
$EXTMAX
 10
91.20000000000189
 20
60.27499999999997
 30
0.0
  9
$LIMMIN
 10
0.0
 20
0.0
  9
$LIMMAX
 10
420.0
 20
297.0
  9
$ORTHOMODE
 70
     1
  9
$REGENMODE
 70
     1
  9
$FILLMODE
 70
     1
  9
$QTEXTMODE
 70
     0
  9
$MIRRTEXT
 70
     1
  9
$LTSCALE
 40
1.0
  9
$ATTMODE
 70
     1
  9
$TEXTSIZE
 40
3.5
  9
$TRACEWID
 40
1.0
  9
$TEXTSTYLE
  7
Standard
  9
$CLAYER
  8
0
  9
$CELTYPE
  6
ByLayer
  9
$CECOLOR
 62
   256
  9
$CELTSCALE
 40
1.0
  9
$DISPSILH
 70
     0
  9
$DIMSCALE
 40
1.0
  9
$DIMASZ
 40
3.302
  9
$DIMEXO
 40
1.0
  9
$DIMDLI
 40
3.75
  9
$DIMRND
 40
0.0
  9
$DIMDLE
 40
0.0
  9
$DIMEXE
 40
1.0
  9
$DIMTP
 40
0.0
  9
$DIMTM
 40
0.0
  9
$DIMTXT
 40
3.5
  9
$DIMCEN
 40
2.5
  9
$DIMTSZ
 40
0.0
  9
$DIMTOL
 70
     0
  9
$DIMLIM
 70
     0
  9
$DIMTIH
 70
     1
  9
$DIMTOH
 70
     1
  9
$DIMSE1
 70
     0
  9
$DIMSE2
 70
     0
  9
$DIMTAD
 70
     1
  9
$DIMZIN
 70
     0
  9
$DIMBLK
  1

  9
$DIMASO
 70
     1
  9
$DIMSHO
 70
     1
  9
$DIMPOST
  1

  9
$DIMAPOST
  1

  9
$DIMALT
 70
     0
  9
$DIMALTD
 70
     3
  9
$DIMALTF
 40
0.0393700787401575
  9
$DIMLFAC
 40
1.0
  9
$DIMTOFL
 70
     1
  9
$DIMTVP
 40
0.0
  9
$DIMTIX
 70
     0
  9
$DIMSOXD
 70
     0
  9
$DIMSAH
 70
     0
  9
$DIMBLK1
  1

  9
$DIMBLK2
  1

  9
$DIMSTYLE
  2
ISO-25
  9
$DIMCLRD
 70
     0
  9
$DIMCLRE
 70
     0
  9
$DIMCLRT
 70
     0
  9
$DIMTFAC
 40
1.0
  9
$DIMGAP
 40
1.524
  9
$DIMJUST
 70
     0
  9
$DIMSD1
 70
     0
  9
$DIMSD2
 70
     0
  9
$DIMTOLJ
 70
     0
  9
$DIMTZIN
 70
     0
  9
$DIMALTZ
 70
     0
  9
$DIMALTTZ
 70
     0
  9
$DIMUPT
 70
     0
  9
$DIMDEC
 70
     2
  9
$DIMTDEC
 70
     2
  9
$DIMALTU
 70
     2
  9
$DIMALTTD
 70
     3
  9
$DIMTXSTY
  7
Standard
  9
$DIMAUNIT
 70
     0
  9
$DIMADEC
 70
     2
  9
$DIMALTRND
 40
0.0
  9
$DIMAZIN
 70
     0
  9
$DIMDSEP
 70
    44
  9
$DIMATFIT
 70
     3
  9
$DIMFRAC
 70
     0
  9
$DIMLDRBLK
  1

  9
$DIMLUNIT
 70
     2
  9
$DIMLWD
 70
    -2
  9
$DIMLWE
 70
    -2
  9
$DIMTMOVE
 70
     0
  9
$LUNITS
 70
     2
  9
$LUPREC
 70
     2
  9
$SKETCHINC
 40
1.0
  9
$FILLETRAD
 40
10.0
  9
$AUNITS
 70
     0
  9
$AUPREC
 70
     2
  9
$MENU
  1
.
  9
$ELEVATION
 40
0.0
  9
$PELEVATION
 40
0.0
  9
$THICKNESS
 40
0.0
  9
$LIMCHECK
 70
     0
  9
$CHAMFERA
 40
0.0
  9
$CHAMFERB
 40
0.0
  9
$CHAMFERC
 40
0.0
  9
$CHAMFERD
 40
0.0
  9
$SKPOLY
 70
     0
  9
$TDCREATE
 40
2458323.438567975
  9
$TDUCREATE
 40
2458323.063567975
  9
$TDUPDATE
 40
2458330.765816042
  9
$TDUUPDATE
 40
2458330.390816042
  9
$TDINDWG
 40
0.0012067708
  9
$TDUSRTIMER
 40
2458330.390767535
  9
$USRTIMER
 70
     1
  9
$ANGBASE
 50
0.0
  9
$ANGDIR
 70
     0
  9
$PDMODE
 70
     0
  9
$PDSIZE
 40
-1.0
  9
$PLINEWID
 40
0.0
  9
$SPLFRAME
 70
     0
  9
$SPLINETYPE
 70
     6
  9
$SPLINESEGS
 70
     8
  9
$HANDSEED
  5
2B7
  9
$SURFTAB1
 70
     6
  9
$SURFTAB2
 70
     6
  9
$SURFTYPE
 70
     6
  9
$SURFU
 70
     6
  9
$SURFV
 70
     6
  9
$UCSBASE
  2

  9
$UCSNAME
  2

  9
$UCSORG
 10
0.0
 20
0.0
 30
0.0
  9
$UCSXDIR
 10
1.0
 20
0.0
 30
0.0
  9
$UCSYDIR
 10
0.0
 20
1.0
 30
0.0
  9
$UCSORTHOREF
  2

  9
$UCSORTHOVIEW
 70
     0
  9
$UCSORGTOP
 10
0.0
 20
0.0
 30
0.0
  9
$UCSORGBOTTOM
 10
0.0
 20
0.0
 30
0.0
  9
$UCSORGLEFT
 10
0.0
 20
0.0
 30
0.0
  9
$UCSORGRIGHT
 10
0.0
 20
0.0
 30
0.0
  9
$UCSORGFRONT
 10
0.0
 20
0.0
 30
0.0
  9
$UCSORGBACK
 10
0.0
 20
0.0
 30
0.0
  9
$PUCSBASE
  2

  9
$PUCSNAME
  2

  9
$PUCSORG
 10
0.0
 20
0.0
 30
0.0
  9
$PUCSXDIR
 10
1.0
 20
0.0
 30
0.0
  9
$PUCSYDIR
 10
0.0
 20
1.0
 30
0.0
  9
$PUCSORTHOREF
  2

  9
$PUCSORTHOVIEW
 70
     0
  9
$PUCSORGTOP
 10
0.0
 20
0.0
 30
0.0
  9
$PUCSORGBOTTOM
 10
0.0
 20
0.0
 30
0.0
  9
$PUCSORGLEFT
 10
0.0
 20
0.0
 30
0.0
  9
$PUCSORGRIGHT
 10
0.0
 20
0.0
 30
0.0
  9
$PUCSORGFRONT
 10
0.0
 20
0.0
 30
0.0
  9
$PUCSORGBACK
 10
0.0
 20
0.0
 30
0.0
  9
$USERI1
 70
     0
  9
$USERI2
 70
     0
  9
$USERI3
 70
     0
  9
$USERI4
 70
     0
  9
$USERI5
 70
     0
  9
$USERR1
 40
0.0
  9
$USERR2
 40
0.0
  9
$USERR3
 40
0.0
  9
$USERR4
 40
0.0
  9
$USERR5
 40
0.0
  9
$WORLDVIEW
 70
     1
  9
$SHADEDGE
 70
     3
  9
$SHADEDIF
 70
    70
  9
$TILEMODE
 70
     1
  9
$MAXACTVP
 70
    64
  9
$PINSBASE
 10
0.0
 20
0.0
 30
0.0
  9
$PLIMCHECK
 70
     0
  9
$PEXTMIN
 10
1.000000000000000E+20
 20
1.000000000000000E+20
 30
1.000000000000000E+20
  9
$PEXTMAX
 10
-1.000000000000000E+20
 20
-1.000000000000000E+20
 30
-1.000000000000000E+20
  9
$PLIMMIN
 10
0.0
 20
0.0
  9
$PLIMMAX
 10
0.0
 20
0.0
  9
$UNITMODE
 70
     0
  9
$VISRETAIN
 70
     1
  9
$PLINEGEN
 70
     0
  9
$PSLTSCALE
 70
     1
  9
$TREEDEPTH
 70
  3020
  9
$CMLSTYLE
  2
Standard
  9
$CMLJUST
 70
     0
  9
$CMLSCALE
 40
20.0
  9
$PROXYGRAPHICS
 70
     1
  9
$MEASUREMENT
 70
     1
  9
$CELWEIGHT
370
    -1
  9
$ENDCAPS
280
     0
  9
$JOINSTYLE
280
     0
  9
$LWDISPLAY
290
     1
  9
$INSUNITS
 70
     4
  9
$HYPERLINKBASE
  1

  9
$STYLESHEET
  1

  9
$XEDIT
290
     1
  9
$CEPSNTYPE
380
     0
  9
$PSTYLEMODE
290
     1
  9
$FINGERPRINTGUID
  2
{28215CE5-64E7-437D-9DDB-DABA1CF57FAD}
  9
$VERSIONGUID
  2
{FAEB1C32-E019-11D5-929B-00C0DF256EC4}
  9
$EXTNAMES
290
     1
  9
$PSVPSCALE
 40
0.0
  9
$OLESTARTUP
290
     0
  0
ENDSEC
  0
SECTION
  2
CLASSES
  0
CLASS
  1
ACDBDICTIONARYWDFLT
  2
AcDbDictionaryWithDefault
  3
ObjectDBX Classes
 90
        0
280
     0
281
     0
  0
CLASS
  1
VISUALSTYLE
  2
AcDbVisualStyle
  3
ObjectDBX Classes
 90
     4095
280
     0
281
     0
  0
CLASS
  1
MATERIAL
  2
AcDbMaterial
  3
ObjectDBX Classes
 90
     1153
280
     0
281
     0
  0
CLASS
  1
SCALE
  2
AcDbScale
  3
ObjectDBX Classes
 90
     1153
280
     0
281
     0
  0
CLASS
  1
SUN
  2
AcDbSun
  3
SCENEOE
 90
     1153
280
     0
281
     0
  0
CLASS
  1
ACDBPLACEHOLDER
  2
AcDbPlaceHolder
  3
ObjectDBX Classes
 90
        0
280
     0
281
     0
  0
CLASS
  1
LAYOUT
  2
AcDbLayout
  3
ObjectDBX Classes
 90
        0
280
     0
281
     0
  0
CLASS
  1
TABLESTYLE
  2
AcDbTableStyle
  3
ObjectDBX Classes
 90
     4095
280
     0
281
     0
  0
CLASS
  1
MLEADERSTYLE
  2
AcDbMLeaderStyle
  3
ACDB_MLEADERSTYLE_CLASS
 90
     4095
280
     0
281
     0
  0
CLASS
  1
RASTERVARIABLES
  2
AcDbRasterVariables
  3
ISM
 90
        0
280
     0
281
     0
  0
ENDSEC
  0
SECTION
  2
TABLES
  0
TABLE
  2
VPORT
  5
8
330
0
100
AcDbSymbolTable
 70
     1
  0
VPORT
  5
29
330
8
100
AcDbSymbolTableRecord
100
AcDbViewportTableRecord
  2
*Active
 70
     0
 10
0.0
 20
0.0
 11
1.0
 21
1.0
 12
-31.33112241735323
 22
-20.89912062015635
 13
0.0
 23
0.0
 14
10.0
 24
10.0
 15
10.0
 25
10.0
 16
0.0
 26
0.0
 36
1.0
 17
0.0
 27
0.0
 37
0.0
 40
132.2008388350061
 41
1.516441005802708
 42
50.0
 43
0.0
 44
0.0
 50
0.0
 51
0.0
 71
    16
 72
  2000
 73
     1
 74
     3
 75
     0
 76
     0
 77
     0
 78
     0
281
     0
 65
     1
110
0.0
120
0.0
130
0.0
111
1.0
121
0.0
131
0.0
112
0.0
122
1.0
132
0.0
 79
     0
146
0.0
  0
ENDTAB
  0
TABLE
  2
LTYPE
  5
5
330
0
100
AcDbSymbolTable
 70
     6
  0
LTYPE
  5
14
330
5
100
AcDbSymbolTableRecord
100
AcDbLinetypeTableRecord
  2
ByBlock
 70
     0
  3

 72
    65
 73
     0
 40
0.0
  0
LTYPE
  5
15
330
5
100
AcDbSymbolTableRecord
100
AcDbLinetypeTableRecord
  2
ByLayer
 70
     0
  3

 72
    65
 73
     0
 40
0.0
  0
LTYPE
  5
16
330
5
100
AcDbSymbolTableRecord
100
AcDbLinetypeTableRecord
  2
Continuous
 70
     0
  3
Solid line
 72
    65
 73
     0
 40
0.0
  0
LTYPE
  5
6A
330
5
100
AcDbSymbolTableRecord
100
AcDbLinetypeTableRecord
  2
HIDDEN
 70
     0
  3
Hidden __ __ __ __ __ __ __ __ __ __ __ __ __ __
 72
    65
 73
     2
 40
1.905
 49
1.27
 74
     0
 49
-0.635
 74
     0
  0
LTYPE
  5
6B
330
5
100
AcDbSymbolTableRecord
100
AcDbLinetypeTableRecord
  2
PHANTOM
 70
     0
  3
Phantom ______  __  __  ______  __  __  ______
 72
    65
 73
     6
 40
12.7
 49
6.35
 74
     0
 49
-1.27
 74
     0
 49
1.27
 74
     0
 49
-1.27
 74
     0
 49
1.27
 74
     0
 49
-1.27
 74
     0
  0
LTYPE
  5
6C
330
5
100
AcDbSymbolTableRecord
100
AcDbLinetypeTableRecord
  2
CENTER
 70
     0
  3
Center ____ _ ____ _ ____ _ ____ _ ____ _ ____
 72
    65
 73
     4
 40
10.16
 49
6.35
 74
     0
 49
-1.27
 74
     0
 49
1.27
 74
     0
 49
-1.27
 74
     0
  0
LTYPE
  5
6D
330
5
100
AcDbSymbolTableRecord
100
AcDbLinetypeTableRecord
  2
CENTERX2
 70
     0
  3
Center (2x) ________  __  ________  __  _____
 72
    65
 73
     4
 40
20.32
 49
12.7
 74
     0
 49
-2.54
 74
     0
 49
2.54
 74
     0
 49
-2.54
 74
     0
  0
LTYPE
  5
6E
330
5
100
AcDbSymbolTableRecord
100
AcDbLinetypeTableRecord
  2
DOT2
 70
     0
  3
Dot (.5x) ........................................
 72
    65
 73
     2
 40
0.635
 49
0.0
 74
     0
 49
-0.635
 74
     0
  0
ENDTAB
  0
TABLE
  2
LAYER
  5
2
102
{ACAD_XDICTIONARY
360
185
102
}
330
0
100
AcDbSymbolTable
 70
    18
  0
LAYER
  5
10
330
2
100
AcDbSymbolTableRecord
100
AcDbLayerTableRecord
  2
0
 70
     0
 62
     7
  6
Continuous
370
    -3
390
F
  0
LAYER
  5
6F
330
2
100
AcDbSymbolTableRecord
100
AcDbLayerTableRecord
  2
FORMAT
 70
     0
 62
     2
  6
Continuous
370
    -3
390
F
  0
LAYER
  5
70
330
2
100
AcDbSymbolTableRecord
100
AcDbLayerTableRecord
  2
외형선
 70
     0
 62
     4
  6
Continuous
370
    30
390
F
  0
LAYER
  5
71
330
2
100
AcDbSymbolTableRecord
100
AcDbLayerTableRecord
  2
숨은선
 70
     0
 62
     2
  6
HIDDEN
370
    15
390
F
  0
LAYER
  5
72
330
2
100
AcDbSymbolTableRecord
100
AcDbLayerTableRecord
  2
중심선
 70
     0
 62
     1
  6
CENTERX2
370
    -3
390
F
  0
LAYER
  5
73
330
2
100
AcDbSymbolTableRecord
100
AcDbLayerTableRecord
  2
파단선
 70
     0
 62
     4
  6
Continuous
370
    -3
390
F
  0
LAYER
  5
74
330
2
100
AcDbSymbolTableRecord
100
AcDbLayerTableRecord
  2
해칭선
 70
     0
 62
   100
  6
Continuous
370
    -3
390
F
  0
LAYER
  5
75
330
2
100
AcDbSymbolTableRecord
100
AcDbLayerTableRecord
  2
가는실선
 70
     0
 62
     4
  6
Continuous
370
    -3
390
F
  0
LAYER
  5
76
330
2
100
AcDbSymbolTableRecord
100
AcDbLayerTableRecord
  2
치수_보조선
 70
     0
 62
     4
  6
Continuous
370
    -3
390
F
  0
LAYER
  5
77
330
2
100
AcDbSymbolTableRecord
100
AcDbLayerTableRecord
  2
치수문자_일반주서
 70
     0
 62
     7
  6
Continuous
370
    15
390
F
  0
LAYER
  5
78
330
2
100
AcDbSymbolTableRecord
100
AcDbLayerTableRecord
  2
개별주서
 70
     0
 62
   100
  6
Continuous
370
    30
390
F
  0
LAYER
  5
79
330
2
100
AcDbSymbolTableRecord
100
AcDbLayerTableRecord
  2
중간선
 70
     0
 62
     2
  6
Continuous
370
    15
390
F
  0
LAYER
  5
7A
330
2
100
AcDbSymbolTableRecord
100
AcDbLayerTableRecord
  2
윤곽선
 70
     0
 62
     3
  6
Continuous
370
    40
390
F
  0
LAYER
  5
7B
330
2
100
AcDbSymbolTableRecord
100
AcDbLayerTableRecord
  2
중심마크
 70
     0
 62
   100
  6
Continuous
370
    30
390
F
  0
LAYER
  5
7C
330
2
100
AcDbSymbolTableRecord
100
AcDbLayerTableRecord
  2
가상선
 70
     0
 62
     4
  6
PHANTOM
370
    -3
390
F
  0
LAYER
  5
7D
330
2
100
AcDbSymbolTableRecord
100
AcDbLayerTableRecord
  2
특수지정선
 70
     0
 62
     5
  6
CENTERX2
370
    60
390
F
  0
LAYER
  5
7E
330
2
100
AcDbSymbolTableRecord
100
AcDbLayerTableRecord
  2
참조1
 70
     0
 62
    -4
  6
Continuous
370
    -3
390
F
  0
LAYER
  5
151
330
2
100
AcDbSymbolTableRecord
100
AcDbLayerTableRecord
  2
Defpoints
 70
     0
 62
     7
  6
Continuous
290
     0
370
    -3
390
F
  0
ENDTAB
  0
TABLE
  2
STYLE
  5
3
330
0
100
AcDbSymbolTable
 70
     2
  0
STYLE
  5
11
330
3
100
AcDbSymbolTableRecord
100
AcDbTextStyleTableRecord
  2
Standard
 70
     0
 40
0.0
 41
1.0
 50
0.0
 71
     0
 42
3.5
  3
txt
  4

  0
STYLE
  5
94
330
3
100
AcDbSymbolTableRecord
100
AcDbTextStyleTableRecord
  2
SLDTEXTSTYLE0
 70
     0
 40
0.0
 41
0.75
 50
0.0
 71
     0
 42
3.5
  3
TXT
  4

  0
ENDTAB
  0
TABLE
  2
VIEW
  5
6
330
0
100
AcDbSymbolTable
 70
     0
  0
ENDTAB
  0
TABLE
  2
UCS
  5
7
330
0
100
AcDbSymbolTable
 70
     0
  0
ENDTAB
  0
TABLE
  2
APPID
  5
9
330
0
100
AcDbSymbolTable
 70
     4
  0
APPID
  5
12
330
9
100
AcDbSymbolTableRecord
100
AcDbRegAppTableRecord
  2
ACAD
 70
     0
  0
APPID
  5
158
330
9
100
AcDbSymbolTableRecord
100
AcDbRegAppTableRecord
  2
PE_URL
 70
     0
  0
APPID
  5
1E4
330
9
100
AcDbSymbolTableRecord
100
AcDbRegAppTableRecord
  2
ACAD_DSTYLE_DIMFLIPARROW_SYMBOL
 70
     0
  0
APPID
  5
1E5
330
9
100
AcDbSymbolTableRecord
100
AcDbRegAppTableRecord
  2
ACAD_DSTYLE_DIMFLIPARROW_WHICH_SYMBOL
 70
     0
  0
ENDTAB
  0
TABLE
  2
DIMSTYLE
  5
A
330
0
100
AcDbSymbolTable
 70
     3
100
AcDbDimStyleTable
  0
DIMSTYLE
105
27
330
A
100
AcDbSymbolTableRecord
100
AcDbDimStyleTableRecord
  2
ISO-25
 70
     0
 41
2.5
 42
0.625
 43
3.75
 44
1.25
 73
     0
 74
     0
 77
     1
 78
     8
140
2.5
141
2.5
143
0.03937007874016
147
0.625
171
     3
172
     1
178
     0
271
     2
272
     2
274
     3
278
    44
283
     0
284
     8
340
11
  0
DIMSTYLE
105
D4
102
{ACAD_REACTORS
330
D3
330
E6
330
10D
330
F9
102
}
330
A
100
AcDbSymbolTableRecord
100
AcDbDimStyleTableRecord
  2
SLDDIMSTYLE0
 70
     0
 41
3.302
 44
0.0
 45
0.000000001
 73
     0
 74
     0
 77
     1
 78
     4
 79
     1
140
3.5
143
0.0393700787401575
147
0.875
148
0.000000001
170
     1
173
     1
178
     0
271
     2
272
     2
276
     2
284
    12
340
94
  0
DIMSTYLE
105
FA
330
A
100
AcDbSymbolTableRecord
100
AcDbDimStyleTableRecord
  2
SLDDIMSTYLE1
 70
     0
 41
3.302
 44
0.0
 45
0.000000001
 73
     0
 74
     0
 77
     1
 78
    12
 79
     3
140
3.5
143
0.0393700787401575
147
0.875
148
0.000000001
170
     1
173
     1
178
     0
271
     2
272
     2
276
     2
284
    12
340
94
  0
ENDTAB
  0
TABLE
  2
BLOCK_RECORD
  5
1
330
0
100
AcDbSymbolTable
 70
     9
  0
BLOCK_RECORD
  5
1F
330
1
100
AcDbSymbolTableRecord
100
AcDbBlockTableRecord
  2
*Model_Space
340
22
  0
BLOCK_RECORD
  5
1B
330
1
100
AcDbSymbolTableRecord
100
AcDbBlockTableRecord
  2
*Paper_Space
340
1E
  0
BLOCK_RECORD
  5
23
330
1
100
AcDbSymbolTableRecord
100
AcDbBlockTableRecord
  2
*Paper_Space0
340
26
  0
BLOCK_RECORD
  5
7F
330
1
100
AcDbSymbolTableRecord
100
AcDbBlockTableRecord
  2
블럭10
340
0
102
{BLKREFS
331
CC
102
}
  0
BLOCK_RECORD
  5
D5
330
1
100
AcDbSymbolTableRecord
100
AcDbBlockTableRecord
  2
_D
340
0
  0
BLOCK_RECORD
  5
E7
330
1
100
AcDbSymbolTableRecord
100
AcDbBlockTableRecord
  2
_D_1
340
0
  0
BLOCK_RECORD
  5
FB
330
1
100
AcDbSymbolTableRecord
100
AcDbBlockTableRecord
  2
_D_2
340
0
  0
BLOCK_RECORD
  5
10E
330
1
100
AcDbSymbolTableRecord
100
AcDbBlockTableRecord
  2
_D_3
340
0
  0
BLOCK_RECORD
  5
127
330
1
100
AcDbSymbolTableRecord
100
AcDbBlockTableRecord
  2
SW_DOWELSYMBOL_0
340
0
102
{BLKREFS
331
12D
331
27B
102
}
  0
BLOCK_RECORD
  5
189
330
1
100
AcDbSymbolTableRecord
100
AcDbBlockTableRecord
  2
*D7
340
0
  0
BLOCK_RECORD
  5
198
330
1
100
AcDbSymbolTableRecord
100
AcDbBlockTableRecord
  2
*D8
340
0
  0
ENDTAB
  0
ENDSEC
  0
SECTION
  2
BLOCKS
  0
BLOCK
  5
20
330
1F
100
AcDbEntity
  8
0
100
AcDbBlockBegin
  2
*Model_Space
 70
     0
 10
0.0
 20
0.0
 30
0.0
  3
*Model_Space
  1
*Model_Space
  0
ENDBLK
  5
21
330
1F
100
AcDbEntity
  8
0
100
AcDbBlockEnd
  0
BLOCK
  5
1C
330
1B
100
AcDbEntity
 67
     1
  8
0
100
AcDbBlockBegin
  2
*Paper_Space
 70
     0
 10
0.0
 20
0.0
 30
0.0
  3
*Paper_Space
  1
*Paper_Space
  0
ENDBLK
  5
1D
330
1B
100
AcDbEntity
 67
     1
  8
0
100
AcDbBlockEnd
  0
BLOCK
  5
24
330
23
100
AcDbEntity
  8
0
100
AcDbBlockBegin
  2
*Paper_Space0
 70
     0
 10
0.0
 20
0.0
 30
0.0
  3
*Paper_Space0
  1
*Paper_Space0
  0
ENDBLK
  5
25
330
23
100
AcDbEntity
  8
0
100
AcDbBlockEnd
  0
BLOCK
  5
80
330
7F
100
AcDbEntity
  8
0
100
AcDbBlockBegin
  2
블럭10
 70
     2
 10
0.0
 20
0.0
 30
0.0
  3
블럭10
  1
블럭10
  0
ELLIPSE
  5
82
330
7F
100
AcDbEntity
  8
중심선
100
AcDbEllipse
 10
20.54032771741204
 20
12.0471743016438
 30
0.0
 11
6.600054785286829
 21
-1.261213355974178E-13
 31
0.0
210
0.0
220
0.0
230
1.0
 40
0.636358354079598
 41
0.9219305317359503
 42
6.513795318482858
  0
ELLIPSE
  5
83
330
7F
100
AcDbEntity
  8
중심선
100
AcDbEllipse
 10
20.54032771746488
 20
12.04717430159265
 30
0.0
 11
3.960054785062283
 21
1.540847449632565E-10
 31
0.0
210
0.0
220
0.0
230
1.0
 40
0.3939339440162632
 41
1.131841032648279
 42
5.62031148352944
  0
LINE
  5
84
330
7F
100
AcDbEntity
  8
중심선
100
AcDbLine
 10
2.268634060543552
 20
16.24717430164393
 30
0.0
 11
5.714909304380834
 21
16.24717430164393
 31
0.0
  0
LINE
  5
85
330
7F
100
AcDbEntity
  8
중심선
100
AcDbLine
 10
5.245725140726316
 20
7.84717430164391
 30
0.0
 11
8.692000384563599
 21
7.84717430164391
 31
0.0
  0
LINE
  5
86
330
7F
100
AcDbEntity
  8
중심선
100
AcDbLine
 10
15.74043728645272
 20
16.24717430164393
 30
0.0
 11
8.692000384563599
 21
7.84717430164391
 31
0.0
  0
LINE
  5
87
330
7F
100
AcDbEntity
  8
중심선
100
AcDbLine
 10
0.1404042013395286
 20
13.71084872107135
 30
0.0
 11
3.58671253028996
 21
13.71088815037384
 31
0.0
  0
LINE
  5
88
330
7F
100
AcDbEntity
  8
중심선
100
AcDbLine
 10
2.750260043222114
 20
10.84717430164391
 30
0.0
 11
6.196535287059397
 21
10.84717430164391
 31
0.0
  0
LINE
  5
89
330
7F
100
AcDbEntity
  8
중심선
100
AcDbLine
 10
12.29416204261559
 20
16.24717430164393
 30
0.0
 11
5.245725140726316
 21
7.84717430164391
 31
0.0
  0
LINE
  5
8A
330
7F
100
AcDbEntity
  8
중심선
100
AcDbLine
 10
10.72767329541681
 20
16.24717430164393
 30
0.0
 11
6.196535287059397
 21
10.84717430164391
 31
0.0
  0
LINE
  5
8B
330
7F
100
AcDbEntity
  8
중심선
100
AcDbLine
 10
7.28139805157953
 20
16.24717430164393
 30
0.0
 11
2.750260043222114
 21
10.84717430164391
 31
0.0
  0
LINE
  5
8C
330
7F
100
AcDbEntity
  8
중심선
100
AcDbLine
 10
5.714909304380834
 20
16.24717430164393
 30
0.0
 11
3.58671253028996
 21
13.71088815037384
 31
0.0
  0
LINE
  5
8D
330
7F
100
AcDbEntity
  8
중심선
100
AcDbLine
 10
2.268634060543552
 20
16.24717430164393
 30
0.0
 11
0.1404042013395286
 21
13.71084872107135
 31
0.0
  0
LINE
  5
8E
330
7F
100
AcDbEntity
  8
중심선
100
AcDbLine
 10
7.28139805157953
 20
16.24717430164393
 30
0.0
 11
10.72767329541681
 21
16.24717430164393
 31
0.0
  0
LINE
  5
8F
330
7F
100
AcDbEntity
  8
중심선
100
AcDbLine
 10
12.29416204261559
 20
16.24717430164393
 30
0.0
 11
15.74043728645272
 21
16.24717430164393
 31
0.0
  0
LINE
  5
90
330
7F
100
AcDbEntity
  8
중심선
100
AcDbLine
 10
19.22036997980202
 20
11.08717430171403
 30
0.0
 11
23.66174974927406
 21
11.08717430171406
 31
0.0
  0
LINE
  5
91
330
7F
100
AcDbEntity
  8
중심선
100
AcDbLine
 10
19.22039502424796
 20
13.00717430171391
 30
0.0
 11
19.22036997980202
 21
11.08717430171403
 31
0.0
  0
LINE
  5
92
330
7F
100
AcDbEntity
  8
중심선
100
AcDbLine
 10
19.22039502424796
 20
13.00717430171391
 30
0.0
 11
26.96566020931264
 21
13.00717430171391
 31
0.0
  0
LINE
  5
93
330
7F
100
AcDbEntity
  8
중심선
100
AcDbLine
 10
22.22332737316547
 20
13.45928029700563
 30
0.0
 11
24.52862924686651
 21
15.39360700705356
 31
0.0
  0
ATTDEF
  5
95
330
7F
100
AcDbEntity
  8
FORMAT
 62
     2
100
AcDbText
 10
4.408487351596664
 20
2.075366912832191
 30
0.0
 40
4.233333333333333
  1
E1042164
 41
0.75
  7
SLDTEXTSTYLE0
 11
4.408487351596664
 21
-0.0412997538344756
 31
0.0
100
AcDbAttributeDefinition
  3

  2
AUTOATTR0
 70
     0
 74
     1
  0
ENDBLK
  5
81
330
7F
100
AcDbEntity
  8
0
100
AcDbBlockEnd
  0
BLOCK
  5
D6
330
D5
100
AcDbEntity
  8
0
100
AcDbBlockBegin
  2
_D
 70
     0
 10
0.0
 20
0.0
 30
0.0
  3
_D
  1
_D
  0
LINE
  5
D8
330
D5
100
AcDbEntity
  8
치수문자_일반주서
 62
     0
370
    -2
100
AcDbLine
 10
-68.7074999999981
 20
25.39999999999998
 30
0.0
 11
-98.24999999999811
 21
25.39999999999987
 31
0.0
  0
LINE
  5
D9
330
D5
100
AcDbEntity
  8
치수문자_일반주서
 62
     0
370
    -2
100
AcDbLine
 10
-78.2324999999981
 20
-25.40000000000001
 30
0.0
 11
-98.24999999999794
 21
-25.40000000000009
 31
0.0
  0
LINE
  5
DA
330
D5
100
AcDbEntity
  8
치수문자_일반주서
 62
     0
370
    -2
100
AcDbLine
 10
-98.24999999999811
 20
25.39999999999987
 30
0.0
 11
-98.24999999999821
 21
54.45199999999993
 31
0.0
  0
LINE
  5
DB
330
D5
100
AcDbEntity
  8
치수문자_일반주서
 62
     0
370
    -2
100
AcDbLine
 10
-98.24999999999811
 20
25.39999999999987
 30
0.0
 11
-98.24999999999794
 21
-25.40000000000009
 31
0.0
  0
LINE
  5
DC
330
D5
100
AcDbEntity
  8
치수문자_일반주서
 62
     0
370
    -2
100
AcDbLine
 10
-98.24999999999812
 20
28.70199999999987
 30
0.0
 11
-98.24999999999814
 21
32.00399999999986
 31
0.0
  0
LINE
  5
DD
330
D5
100
AcDbEntity
  8
치수문자_일반주서
 62
     0
370
    -2
100
AcDbLine
 10
-98.24999999999793
 20
-28.70200000000009
 30
0.0
 11
-98.24999999999791
 21
-32.00400000000009
 31
0.0
  0
SOLID
  5
DE
330
D5
100
AcDbEntity
  8
치수문자_일반주서
 62
     0
100
AcDbTrace
 10
-98.80033333333145
 20
28.70199999999986
 30
0.0
 11
-97.6996666666648
 21
28.70199999999987
 31
0.0
 12
-98.24999999999811
 22
25.39999999999987
 32
0.0
 13
-98.24999999999811
 23
25.39999999999987
 33
0.0
  0
SOLID
  5
DF
330
D5
100
AcDbEntity
  8
치수문자_일반주서
 62
     0
100
AcDbTrace
 10
-97.6996666666646
 20
-28.70200000000009
 30
0.0
 11
-98.80033333333125
 21
-28.70200000000009
 31
0.0
 12
-98.24999999999794
 22
-25.40000000000009
 32
0.0
 13
-98.24999999999794
 23
-25.40000000000009
 33
0.0
  0
MTEXT
  5
E0
330
D5
100
AcDbEntity
  8
치수문자_일반주서
 62
     0
100
AcDbMText
 10
-103.1249999999982
 20
41.57699999999991
 30
0.0
 40
4.0
 41
0.0
 71
     2
 72
     1
  1
\A1;%%c50.80 [2]
  7
SLDTEXTSTYLE0
 11
-3.356894814614650E-15
 21
1.0
 31
0.0
 73
     1
 44
1.0
  0
POINT
  5
1A8
330
D5
100
AcDbEntity
  8
Defpoints
 62
     0
100
AcDbPoint
 10
-68.6449999999981
 20
25.39999999999998
 30
0.0
  0
POINT
  5
1A9
330
D5
100
AcDbEntity
  8
Defpoints
 62
     0
100
AcDbPoint
 10
-78.1699999999981
 20
-25.40000000000001
 30
0.0
  0
POINT
  5
1AA
330
D5
100
AcDbEntity
  8
Defpoints
 62
     0
100
AcDbPoint
 10
-98.24999999999794
 20
-25.40000000000009
 30
0.0
  0
ENDBLK
  5
D7
330
D5
100
AcDbEntity
  8
0
100
AcDbBlockEnd
  0
BLOCK
  5
E8
330
E7
100
AcDbEntity
  8
0
100
AcDbBlockBegin
  2
_D_1
 70
     0
 10
0.0
 20
0.0
 30
0.0
  3
_D_1
  1
_D_1
  0
LINE
  5
EA
330
E7
100
AcDbEntity
  8
치수문자_일반주서
 62
     0
370
    -2
100
AcDbLine
 10
62.80000000000192
 20
25.27714479297016
 30
0.0
 11
62.80000000000192
 21
40.39999999999997
 31
0.0
  0
LINE
  5
EB
330
E7
100
AcDbEntity
  8
치수문자_일반주서
 62
     0
370
    -2
100
AcDbLine
 10
12.00000000000191
 20
25.46249999999999
 30
0.0
 11
12.00000000000191
 21
40.39999999999997
 31
0.0
  0
LINE
  5
EC
330
E7
100
AcDbEntity
  8
치수문자_일반주서
 62
     0
370
    -2
100
AcDbLine
 10
59.49800000000192
 20
40.39999999999997
 30
0.0
 11
15.30200000000191
 21
40.39999999999997
 31
0.0
  0
SOLID
  5
ED
330
E7
100
AcDbEntity
  8
치수문자_일반주서
 62
     0
100
AcDbTrace
 10
59.49800000000192
 20
39.84966666666664
 30
0.0
 11
59.49800000000192
 21
40.9503333333333
 31
0.0
 12
62.80000000000192
 22
40.39999999999997
 32
0.0
 13
62.80000000000192
 23
40.39999999999997
 33
0.0
  0
SOLID
  5
EE
330
E7
100
AcDbEntity
  8
치수문자_일반주서
 62
     0
100
AcDbTrace
 10
15.30200000000191
 20
40.9503333333333
 30
0.0
 11
15.30200000000191
 21
39.84966666666664
 31
0.0
 12
12.00000000000191
 22
40.39999999999997
 32
0.0
 13
12.00000000000191
 23
40.39999999999997
 33
0.0
  0
MTEXT
  5
EF
330
E7
100
AcDbEntity
  8
치수문자_일반주서
 62
     0
100
AcDbMText
 10
37.43913627814769
 20
45.27499999999997
 30
0.0
 40
4.0
 41
0.0
 71
     2
 72
     1
  1
\A1;50.80 [2]
  7
SLDTEXTSTYLE0
 73
     1
 44
1.0
  0
POINT
  5
F0
330
E7
100
AcDbEntity
  8
Defpoints
 62
     0
100
AcDbPoint
 10
62.80000000000192
 20
25.21464479297016
 30
0.0
  0
POINT
  5
F1
330
E7
100
AcDbEntity
  8
Defpoints
 62
     0
100
AcDbPoint
 10
12.00000000000191
 20
25.39999999999999
 30
0.0
  0
POINT
  5
F2
330
E7
100
AcDbEntity
  8
Defpoints
 62
     0
100
AcDbPoint
 10
12.00000000000191
 20
40.39999999999997
 30
0.0
  0
ENDBLK
  5
E9
330
E7
100
AcDbEntity
  8
0
100
AcDbBlockEnd
  0
BLOCK
  5
FC
330
FB
100
AcDbEntity
  8
0
100
AcDbBlockBegin
  2
_D_2
 70
     0
 10
0.0
 20
0.0
 30
0.0
  3
_D_2
  1
_D_2
  0
LINE
  5
FE
330
FB
100
AcDbEntity
  8
치수문자_일반주서
 62
     0
370
    -2
100
AcDbLine
 10
62.80000000000192
 20
25.27714479297016
 30
0.0
 11
62.80000000000192
 21
55.39999999999997
 31
0.0
  0
LINE
  5
FF
330
FB
100
AcDbEntity
  8
치수문자_일반주서
 62
     0
370
    -2
100
AcDbLine
 10
-83.2499999999981
 20
23.55749999999998
 30
0.0
 11
-83.24999999999812
 21
55.39999999999997
 31
0.0
  0
LINE
  5
100
330
FB
100
AcDbEntity
  8
치수문자_일반주서
 62
     0
370
    -2
100
AcDbLine
 10
59.49800000000192
 20
55.39999999999997
 30
0.0
 11
-79.94799999999813
 21
55.39999999999997
 31
0.0
  0
SOLID
  5
101
330
FB
100
AcDbEntity
  8
치수문자_일반주서
 62
     0
100
AcDbTrace
 10
59.49800000000192
 20
54.84966666666664
 30
0.0
 11
59.49800000000192
 21
55.9503333333333
 31
0.0
 12
62.80000000000192
 22
55.39999999999997
 32
0.0
 13
62.80000000000192
 23
55.39999999999997
 33
0.0
  0
SOLID
  5
102
330
FB
100
AcDbEntity
  8
치수문자_일반주서
 62
     0
100
AcDbTrace
 10
-79.94799999999813
 20
55.9503333333333
 30
0.0
 11
-79.94799999999813
 21
54.84966666666664
 31
0.0
 12
-83.24999999999812
 22
55.39999999999997
 32
0.0
 13
-83.24999999999812
 23
55.39999999999997
 33
0.0
  0
MTEXT
  5
103
330
FB
100
AcDbEntity
  8
치수문자_일반주서
 62
     0
100
AcDbMText
 10
-10.18586372185232
 20
60.27499999999997
 30
0.0
 40
4.0
 41
0.0
 71
     2
 72
     1
  1
\A1;146.05 [5 3/4]
  7
SLDTEXTSTYLE0
 73
     1
 44
1.0
  0
POINT
  5
104
330
FB
100
AcDbEntity
  8
Defpoints
 62
     0
100
AcDbPoint
 10
62.80000000000192
 20
25.21464479297016
 30
0.0
  0
POINT
  5
105
330
FB
100
AcDbEntity
  8
Defpoints
 62
     0
100
AcDbPoint
 10
-83.2499999999981
 20
23.49499999999998
 30
0.0
  0
POINT
  5
106
330
FB
100
AcDbEntity
  8
Defpoints
 62
     0
100
AcDbPoint
 10
-83.2499999999981
 20
55.39999999999997
 30
0.0
  0
ENDBLK
  5
FD
330
FB
100
AcDbEntity
  8
0
100
AcDbBlockEnd
  0
BLOCK
  5
10F
330
10E
100
AcDbEntity
  8
0
100
AcDbBlockBegin
  2
_D_3
 70
     0
 10
0.0
 20
0.0
 30
0.0
  3
_D_3
  1
_D_3
  0
LINE
  5
111
330
10E
100
AcDbEntity
  8
치수문자_일반주서
 62
     0
370
    -2
100
AcDbLine
 10
62.86250000000192
 20
25.39999999999998
 30
0.0
 11
77.80000000000192
 21
25.40000000000004
 31
0.0
  0
LINE
  5
112
330
10E
100
AcDbEntity
  8
치수문자_일반주서
 62
     0
370
    -2
100
AcDbLine
 10
62.86250000000192
 20
-25.4
 30
0.0
 11
77.80000000000209
 21
-25.39999999999993
 31
0.0
  0
LINE
  5
113
330
10E
100
AcDbEntity
  8
치수문자_일반주서
 62
     0
370
    -2
100
AcDbLine
 10
77.80000000000192
 20
25.40000000000004
 30
0.0
 11
77.80000000000182
 21
54.45200000000004
 31
0.0
  0
LINE
  5
114
330
10E
100
AcDbEntity
  8
치수문자_일반주서
 62
     0
370
    -2
100
AcDbLine
 10
77.80000000000192
 20
25.40000000000004
 30
0.0
 11
77.80000000000209
 21
-25.39999999999993
 31
0.0
  0
LINE
  5
115
330
10E
100
AcDbEntity
  8
치수문자_일반주서
 62
     0
370
    -2
100
AcDbLine
 10
77.8000000000019
 20
28.70200000000004
 30
0.0
 11
77.80000000000189
 21
32.00400000000004
 31
0.0
  0
LINE
  5
116
330
10E
100
AcDbEntity
  8
치수문자_일반주서
 62
     0
370
    -2
100
AcDbLine
 10
77.8000000000021
 20
-28.70199999999993
 30
0.0
 11
77.80000000000211
 21
-32.00399999999993
 31
0.0
  0
SOLID
  5
117
330
10E
100
AcDbEntity
  8
치수문자_일반주서
 62
     0
100
AcDbTrace
 10
77.24966666666857
 20
28.70200000000004
 30
0.0
 11
78.35033333333523
 21
28.70200000000004
 31
0.0
 12
77.80000000000192
 22
25.40000000000004
 32
0.0
 13
77.80000000000192
 23
25.40000000000004
 33
0.0
  0
SOLID
  5
118
330
10E
100
AcDbEntity
  8
치수문자_일반주서
 62
     0
100
AcDbTrace
 10
78.35033333333543
 20
-28.70199999999993
 30
0.0
 11
77.24966666666877
 21
-28.70199999999994
 31
0.0
 12
77.80000000000209
 22
-25.39999999999993
 32
0.0
 13
77.80000000000209
 23
-25.39999999999993
 33
0.0
  0
MTEXT
  5
119
330
10E
100
AcDbEntity
  8
치수문자_일반주서
 62
     0
100
AcDbMText
 10
72.92500000000186
 20
41.57700000000003
 30
0.0
 40
4.0
 41
0.0
 71
     2
 72
     1
  1
\A1;%%c50.80 [2]
  7
SLDTEXTSTYLE0
 11
-3.356894814614648E-15
 21
1.0
 31
0.0
 73
     1
 44
1.0
  0
POINT
  5
11A
330
10E
100
AcDbEntity
  8
Defpoints
 62
     0
100
AcDbPoint
 10
62.80000000000192
 20
25.39999999999998
 30
0.0
  0
POINT
  5
1AB
330
10E
100
AcDbEntity
  8
Defpoints
 62
     0
100
AcDbPoint
 10
62.80000000000192
 20
-25.4
 30
0.0
  0
POINT
  5
1AC
330
10E
100
AcDbEntity
  8
Defpoints
 62
     0
100
AcDbPoint
 10
77.80000000000209
 20
-25.39999999999994
 30
0.0
  0
ENDBLK
  5
110
330
10E
100
AcDbEntity
  8
0
100
AcDbBlockEnd
  0
BLOCK
  5
128
330
127
100
AcDbEntity
  8
0
100
AcDbBlockBegin
  2
SW_DOWELSYMBOL_0
 70
     0
 10
0.0
 20
0.0
 30
0.0
  3
SW_DOWELSYMBOL_0
  1
SW_DOWELSYMBOL_0
  0
CIRCLE
  5
12A
330
127
100
AcDbEntity
  8
해칭선
 62
     0
100
AcDbCircle
 10
0.0
 20
0.0
 30
0.0
 40
3.000000000000001
  0
HATCH
  5
12B
330
127
100
AcDbEntity
  8
0
  6
Continuous
 62
     0
370
     0
100
AcDbHatch
 10
0.0
 20
0.0
 30
0.0
210
0.0
220
0.0
230
1.0
  2
SOLID
 70
     1
 71
     0
 91
        1
 92
        0
 93
        3
 72
     2
 10
0.0
 20
0.0
 40
3.000000000000001
 50
0.0
 51
90.0
 73
     1
 72
     1
 10
0.0
 20
3.000000000000001
 11
0.0
 21
0.0
 72
     1
 10
0.0
 20
0.0
 11
3.000000000000003
 21
0.0
 97
        0
 75
     0
 76
     1
 98
        1
 10
0.0
 20
0.0
  0
HATCH
  5
12C
330
127
100
AcDbEntity
  8
0
  6
Continuous
 62
     0
370
     0
100
AcDbHatch
 10
0.0
 20
0.0
 30
0.0
210
0.0
220
0.0
230
1.0
  2
SOLID
 70
     1
 71
     0
 91
        1
 92
        0
 93
        3
 72
     2
 10
0.0
 20
0.0
 40
3.000000000000001
 50
180.0
 51
270.0000000000007
 73
     1
 72
     1
 10
0.0
 20
-3.000000000000001
 11
0.0
 21
0.0
 72
     1
 10
0.0
 20
0.0
 11
-3.000000000000003
 21
0.0
 97
        0
 75
     0
 76
     1
 98
        1
 10
0.0
 20
0.0
  0
ENDBLK
  5
129
330
127
100
AcDbEntity
  8
0
100
AcDbBlockEnd
  0
BLOCK
  5
18A
330
189
100
AcDbEntity
  8
0
100
AcDbBlockBegin
  2
*D7
 70
     1
 10
0.0
 20
0.0
 30
0.0
  3
*D7
  1
*D7
  0
LINE
  5
18C
330
189
100
AcDbEntity
  8
치수문자_일반주서
 62
     0
370
    -2
100
AcDbLine
 10
41.27500000000002
 20
18.97348359472763
 30
0.0
 11
41.27500000000002
 21
33.9804917973638
 31
0.0
  0
LINE
  5
18D
330
189
100
AcDbEntity
  8
치수문자_일반주서
 62
     0
370
    -2
100
AcDbLine
 10
0.0
 20
19.04030862143908
 30
0.0
 11
0.0
 21
33.9804917973638
 31
0.0
  0
LINE
  5
18E
330
189
100
AcDbEntity
  8
치수문자_일반주서
 62
     0
370
    -2
100
AcDbLine
 10
37.97300000000002
 20
33.9804917973638
 30
0.0
 11
3.302
 21
33.9804917973638
 31
0.0
  0
SOLID
  5
18F
330
189
100
AcDbEntity
  8
치수문자_일반주서
 62
     0
100
AcDbTrace
 10
37.97300000000002
 20
33.43015846403046
 30
0.0
 11
37.97300000000002
 21
34.53082513069713
 31
0.0
 12
41.27500000000002
 22
33.9804917973638
 32
0.0
 13
41.27500000000002
 23
33.9804917973638
 33
0.0
  0
SOLID
  5
190
330
189
100
AcDbEntity
  8
치수문자_일반주서
 62
     0
100
AcDbTrace
 10
3.302
 20
34.53082513069713
 30
0.0
 11
3.302
 21
33.43015846403046
 31
0.0
 12
0.0
 22
33.9804917973638
 32
0.0
 13
0.0
 23
33.9804917973638
 33
0.0
  0
MTEXT
  5
191
330
189
100
AcDbEntity
  8
치수문자_일반주서
 62
     0
100
AcDbMText
 10
20.63750000000002
 20
38.8554917973638
 30
0.0
 40
4.0
 41
0.0
 71
     2
 72
     1
  1
\A1;41.28 [1 5/8]
  7
SLDTEXTSTYLE0
 73
     1
 44
1.0
  0
POINT
  5
192
330
189
100
AcDbEntity
  8
Defpoints
 62
     0
100
AcDbPoint
 10
41.27500000000002
 20
18.91098359472763
 30
0.0
  0
POINT
  5
193
330
189
100
AcDbEntity
  8
Defpoints
 62
     0
100
AcDbPoint
 10
0.0
 20
18.97780862143908
 30
0.0
  0
POINT
  5
194
330
189
100
AcDbEntity
  8
Defpoints
 62
     0
100
AcDbPoint
 10
0.0
 20
33.9804917973638
 30
0.0
  0
ENDBLK
  5
18B
330
189
100
AcDbEntity
  8
0
100
AcDbBlockEnd
  0
BLOCK
  5
199
330
198
100
AcDbEntity
  8
0
100
AcDbBlockBegin
  2
*D8
 70
     1
 10
0.0
 20
0.0
 30
0.0
  3
*D8
  1
*D8
  0
LINE
  5
19B
330
198
100
AcDbEntity
  8
치수문자_일반주서
 62
     0
370
    -2
100
AcDbLine
 10
255.9382994930276
 20
-55.73931970397526
 30
0.0
 11
255.9382994930276
 21
-40.73231150133908
 31
0.0
  0
LINE
  5
19C
330
198
100
AcDbEntity
  8
치수문자_일반주서
 62
     0
370
    -2
100
AcDbLine
 10
214.6632994930276
 20
-55.6724946772638
 30
0.0
 11
214.6632994930276
 21
-40.73231150133908
 31
0.0
  0
LINE
  5
19D
330
198
100
AcDbEntity
  8
치수문자_일반주서
 62
     0
370
    -2
100
AcDbLine
 10
252.6362994930276
 20
-40.73231150133908
 30
0.0
 11
217.9652994930276
 21
-40.73231150133908
 31
0.0
  0
SOLID
  5
19E
330
198
100
AcDbEntity
  8
치수문자_일반주서
 62
     0
100
AcDbTrace
 10
252.6362994930276
 20
-41.28264483467242
 30
0.0
 11
252.6362994930276
 21
-40.18197816800575
 31
0.0
 12
255.9382994930276
 22
-40.73231150133908
 32
0.0
 13
255.9382994930276
 23
-40.73231150133908
 33
0.0
  0
SOLID
  5
19F
330
198
100
AcDbEntity
  8
치수문자_일반주서
 62
     0
100
AcDbTrace
 10
217.9652994930276
 20
-40.18197816800575
 30
0.0
 11
217.9652994930276
 21
-41.28264483467242
 31
0.0
 12
214.6632994930276
 22
-40.73231150133908
 32
0.0
 13
214.6632994930276
 23
-40.73231150133908
 33
0.0
  0
MTEXT
  5
1A0
330
198
100
AcDbEntity
  8
치수문자_일반주서
 62
     0
100
AcDbMText
 10
235.3007994930276
 20
-35.85731150133908
 30
0.0
 40
4.0
 41
0.0
 71
     2
 72
     1
  1
\A1;41.28 [1 5/8]
  7
SLDTEXTSTYLE0
 73
     1
 44
1.0
  0
POINT
  5
1A1
330
198
100
AcDbEntity
  8
Defpoints
 62
     0
100
AcDbPoint
 10
255.9382994930276
 20
-55.80181970397526
 30
0.0
  0
POINT
  5
1A2
330
198
100
AcDbEntity
  8
Defpoints
 62
     0
100
AcDbPoint
 10
214.6632994930276
 20
-55.7349946772638
 30
0.0
  0
POINT
  5
1A3
330
198
100
AcDbEntity
  8
Defpoints
 62
     0
100
AcDbPoint
 10
214.6632994930276
 20
-40.73231150133908
 30
0.0
  0
ENDBLK
  5
19A
330
198
100
AcDbEntity
  8
0
100
AcDbBlockEnd
  0
ENDSEC
  0
SECTION
  2
ENTITIES
  0
LINE
  5
96
330
1F
100
AcDbEntity
  8
0
  6
Continuous
 62
     1
370
    15
100
AcDbLine
 10
12.67170575203524
 20
25.39999999999998
 30
0.0
 11
12.00000000000191
 21
25.39999999999998
 31
0.0
1001
PE_URL
1000

  0
LINE
  5
97
330
1F
100
AcDbEntity
  8
0
  6
Continuous
 62
     1
370
    15
100
AcDbLine
 10
59.72867766752733
 20
-25.4
 30
0.0
 11
62.80000000000192
 21
-25.4
 31
0.0
1001
PE_URL
1000

  0
LINE
  5
98
330
1F
100
AcDbEntity
  8
0
  6
Continuous
 62
     1
370
    15
100
AcDbLine
 10
39.27175441717738
 20
25.39999999999998
 30
0.0
 11
33.13123775105618
 21
25.39999999999998
 31
0.0
1001
PE_URL
1000

  0
LINE
  5
99
330
1F
100
AcDbEntity
  8
0
  6
Continuous
 62
     1
370
    15
100
AcDbLine
 10
33.13123775105598
 20
-25.4
 30
0.0
 11
39.27175441717738
 21
-25.4
 31
0.0
1001
PE_URL
1000

  0
LINE
  5
9A
330
1F
100
AcDbEntity
  8
0
  6
Continuous
 62
     1
370
    15
100
AcDbLine
 10
62.80000000000192
 20
25.39999999999998
 30
0.0
 11
59.72867766752733
 21
25.39999999999998
 31
0.0
1001
PE_URL
1000

  0
LINE
  5
9B
330
1F
100
AcDbEntity
  8
외형선
  6
Continuous
370
    15
100
AcDbLine
 10
12.00000000000191
 20
-25.4
 30
0.0
 11
12.67170575203508
 21
-25.4
 31
0.0
  0
LINE
  5
A0
330
1F
100
AcDbEntity
  8
0
  6
Continuous
 62
     1
370
    15
100
AcDbLine
 10
62.80000000000192
 20
-9.9547263146706
 30
0.0
 11
62.80000000000192
 21
9.954726314671065
 31
0.0
1001
PE_URL
1000

  0
SPLINE
  5
A1
330
1F
100
AcDbEntity
  8
0
  6
Continuous
 62
     1
370
    15
100
AcDbSpline
210
0.0
220
0.0
230
1.0
 70
     8
 71
     3
 72
    23
 73
    19
 74
     0
 42
0.000000001
 43
0.00000001
 40
0.0
 40
0.0
 40
0.0
 40
0.0
 40
0.0501662761727933
 40
0.1137483496514482
 40
0.1773056747677272
 40
0.2408499471515509
 40
0.304397243988235
 40
0.3668310083514209
 40
0.4292777226463126
 40
0.4916963342475514
 40
0.5541045517271332
 40
0.6177950670088467
 40
0.6815092242415653
 40
0.7452229065173499
 40
0.8089131822232574
 40
0.8725956845227815
 40
0.9362860795625805
 40
1.0
 40
1.0
 40
1.0
 40
1.0
 10
12.67170575203524
 20
25.36677534625222
 30
0.0
 10
13.50995707040896
 20
25.35611586577773
 30
0.0
 10
15.41063041777358
 20
25.33194627607292
 30
0.0
 10
18.37415649139494
 20
24.82041018555421
 30
0.0
 10
21.56015545378549
 20
23.92591062487148
 30
0.0
 10
24.7453580025991
 20
22.64324636639098
 30
0.0
 10
27.91181546950725
 20
21.01772261268908
 30
0.0
 10
31.06048852859218
 20
19.07778761685886
 30
0.0
 10
34.19094590583526
 20
16.86095666298109
 30
0.0
 10
37.31979842786424
 20
14.38792792666269
 30
0.0
 10
40.46927243527733
 20
11.67880108127005
 30
0.0
 10
43.64064183277575
 20
8.769596735482375
 30
0.0
 10
46.83465082710703
 20
5.702710232921116
 30
0.0
 10
50.02864347906917
 20
2.54602882800923
 30
0.0
 10
53.22125718246249
 20
-0.6519596811225057
 30
0.0
 10
56.41337427386367
 20
-3.836359019174029
 30
0.0
 10
59.60599614443094
 20
-6.971764903085859
 30
0.0
 10
61.73520099452372
 20
-8.960283449833303
 30
0.0
 10
62.80000000000198
 20
-9.954726314670602
 30
0.0
1001
PE_URL
1000

  0
SPLINE
  5
A2
330
1F
100
AcDbEntity
  8
0
  6
Continuous
 62
     1
370
    15
100
AcDbSpline
210
0.0
220
0.0
230
1.0
 70
     8
 71
     3
 72
    20
 73
    16
 74
     0
 42
0.000000001
 43
0.00000001
 40
0.0
 40
0.0
 40
0.0
 40
0.0
 40
0.0798761983513658
 40
0.1597224945146244
 40
0.2395590501910182
 40
0.3194060691167961
 40
0.3992836459054536
 40
0.4777332858135315
 40
0.5561510999269883
 40
0.6345618541138985
 40
0.712990349034736
 40
0.7930499726575295
 40
0.8730881120404584
 40
0.9531035403868514
 40
1.0
 40
1.0
 40
1.0
 40
1.0
 10
62.80000000000189
 20
9.954726314671067
 30
0.0
 10
61.73752226979877
 20
10.91678287056248
 30
0.0
 10
59.61296455502397
 20
12.8405358300509
 30
0.0
 10
56.42732565190878
 20
15.4829446554596
 30
0.0
 10
53.2421765260702
 20
17.89305545191143
 30
0.0
 10
50.0565024247402
 20
20.01919892053449
 30
0.0
 10
46.88835724736443
 20
21.820536056249
 30
0.0
 10
43.73935061711676
 20
23.27498290528224
 30
0.0
 10
40.61076265129983
 20
24.36798098107104
 30
0.0
 10
37.48250722625408
 20
25.09181818894881
 30
0.0
 10
34.33215108700094
 20
25.43649472497916
 30
0.0
 10
31.15901971339408
 20
25.39314218565409
 30
0.0
 10
27.96558606915534
 20
24.93203285452853
 30
0.0
 10
25.21363269581457
 20
24.24892233659035
 30
0.0
 10
23.5259840045516
 20
23.57298102838436
 30
0.0
 10
22.90236434241067
 20
23.3232073092254
 30
0.0
1001
PE_URL
1000

  0
SPLINE
  5
A3
330
1F
100
AcDbEntity
  8
0
  6
Continuous
 62
     1
370
    15
100
AcDbSpline
210
0.0
220
0.0
230
1.0
 70
     8
 71
     3
 72
    19
 73
    15
 74
     0
 42
0.000000001
 43
0.00000001
 40
0.0
 40
0.0
 40
0.0
 40
0.0
 40
0.0849683561007415
 40
0.1699589651643272
 40
0.2549164929162072
 40
0.3398565729879373
 40
0.4248006958672803
 40
0.5082563519830081
 40
0.5917293183643942
 40
0.6751647196756401
 40
0.7585862270906668
 40
0.8437217910823582
 40
0.9288889574378206
 40
1.0
 40
1.0
 40
1.0
 40
1.0
 10
12.00000000000188
 20
-12.11361622269765
 30
0.0
 10
13.06213834050443
 20
-13.02880641755625
 30
0.0
 10
15.18669319242056
 20
-14.85942649289686
 30
0.0
 10
18.37415137166185
 20
-17.31987249842099
 30
0.0
 10
21.56015682615867
 20
-19.52238905997419
 30
0.0
 10
24.74535763083178
 20
-21.41420428940897
 30
0.0
 10
27.91181558141101
 20
-22.96136954326717
 30
0.0
 10
31.06048844685071
 20
-24.14542812074325
 30
0.0
 10
34.19094612202257
 20
-24.95650587836577
 30
0.0
 10
37.31979764530042
 20
-25.3886973599503
 30
0.0
 10
40.4692753742852
 20
-25.43902552076769
 30
0.0
 10
43.64063061300612
 20
-25.08450672945644
 30
0.0
 10
46.65896076737904
 20
-24.40983826496122
 30
0.0
 10
48.61271645309402
 20
-23.67599638987463
 30
0.0
 10
49.50173101683395
 20
-23.34207740542623
 30
0.0
1001
PE_URL
1000

  0
SPLINE
  5
A4
330
1F
100
AcDbEntity
  8
외형선
  6
Continuous
370
    15
100
AcDbSpline
210
0.0
220
0.0
230
1.0
 70
    24
 71
     3
 72
    36
 73
    32
 74
     0
 42
0.000000001
 43
0.00000001
 40
0.0
 40
0.0
 40
0.0
 40
0.0
 40
0.1249999999999996
 40
0.1249999999999996
 40
0.1562499999999996
 40
0.1562499999999996
 40
0.1874999999999996
 40
0.1874999999999996
 40
0.2499999999999997
 40
0.2499999999999997
 40
0.375
 40
0.375
 40
0.4375
 40
0.4375
 40
0.5
 40
0.5
 40
0.5625
 40
0.5625
 40
0.6249999999999999
 40
0.6249999999999999
 40
0.6875
 40
0.6875
 40
0.75
 40
0.75
 40
0.8125
 40
0.8125
 40
0.875
 40
0.875
 40
0.9375
 40
0.9375
 40
1.0
 40
1.0
 40
1.0
 40
1.0
 10
12.00000000000193
 20
7.707146068126988
 30
0.0
 10
12.00000000000194
 20
7.604244693912346
 30
0.0
 10
12.00000000000195
 20
7.378044024001214
 30
0.0
 10
12.00000000000194
 20
7.031126456766733
 30
0.0
 10
12.00000000000189
 20
6.958375852363568
 30
0.0
 10
12.0000000000019
 20
6.807758815224582
 30
0.0
 10
12.00000000000195
 20
6.728420776818684
 30
0.0
 10
12.00000000000194
 20
6.465837190214622
 30
0.0
 10
12.00000000000197
 20
6.262108659479785
 30
0.0
 10
12.00000000000194
 20
5.546100606064847
 30
0.0
 10
12.00000000000195
 20
4.927392275262986
 30
0.0
 10
12.00000000000193
 20
3.722258558500788
 30
0.0
 10
12.00000000000193
 20
3.274617105359367
 30
0.0
 10
12.00000000000191
 20
2.28490012106678
 30
0.0
 10
12.00000000000191
 20
1.742677354320925
 30
0.0
 10
12.00000000000195
 20
0.572017133584204
 30
0.0
 10
12.00000000000194
 20
-0.0565031890208302
 30
0.0
 10
12.00000000000195
 20
-1.376706266469504
 30
0.0
 10
12.00000000000194
 20
-2.068321616116377
 30
0.0
 10
12.0000000000019
 20
-3.476275894830693
 30
0.0
 10
12.00000000000194
 20
-4.192356762401936
 30
0.0
 10
12.00000000000195
 20
-5.600230847659549
 30
0.0
 10
12.00000000000193
 20
-6.291644658317074
 30
0.0
 10
12.00000000000193
 20
-7.600553581129132
 30
0.0
 10
12.00000000000191
 20
-8.21771261841538
 30
0.0
 10
12.00000000000194
 20
-9.339274754994383
 30
0.0
 10
12.00000000000195
 20
-9.843533654600876
 30
0.0
 10
12.00000000000191
 20
-10.7189444958811
 30
0.0
 10
12.0000000000019
 20
-11.09017169853845
 30
0.0
 10
12.00000000000191
 20
-11.69866153773529
 30
0.0
 10
12.00000000000197
 20
-11.93613115778972
 30
0.0
 10
12.00000000000195
 20
-12.11361622269749
 30
0.0
  0
SPLINE
  5
A5
330
1F
100
AcDbEntity
  8
0
  6
Continuous
 62
     1
370
    15
100
AcDbSpline
210
0.0
220
0.0
230
1.0
 70
     8
 71
     3
 72
    23
 73
    19
 74
     0
 42
0.000000001
 43
0.00000001
 40
0.0
 40
0.0
 40
0.0
 40
0.0
 40
0.0024293839600446
 40
0.0691752732744601
 40
0.1359130202267451
 40
0.2026595137198067
 40
0.2694315514376033
 40
0.3350099343265741
 40
0.4005617130890268
 40
0.4661075902492951
 40
0.5316682974157124
 40
0.5985925134864839
 40
0.6654987702433623
 40
0.7323860421705908
 40
0.7992707679641188
 40
0.8661693971251703
 40
0.933093535632425
 40
1.0
 40
1.0
 40
1.0
 40
1.0
 10
59.72867766752736
 20
-25.3930004916127
 30
0.0
 10
59.690022229634
 20
-25.3953223457335
 30
0.0
 10
58.58933146860394
 20
-25.46143577035132
 30
0.0
 10
56.42736710140188
 20
-25.2229163945938
 30
0.0
 10
53.24216541840494
 20
-24.64818445730564
 30
0.0
 10
50.05650540396021
 20
-23.63969909627939
 30
0.0
 10
46.88835646591235
 20
-22.28042399982866
 30
0.0
 10
43.73935082082046
 20
-20.58333852701296
 30
0.0
 10
40.61076261165434
 20
-18.5850954458127
 30
0.0
 10
37.48250718119082
 20
-16.30504594972637
 30
0.0
 10
34.33215130880553
 20
-13.76050366054149
 30
0.0
 10
31.15901885200524
 20
-10.98544963106744
 30
0.0
 10
27.96558928417806
 20
-8.017837159663458
 30
0.0
 10
24.77325605413193
 20
-4.9239781380435
 30
0.0
 10
21.58107758926032
 20
-1.751873908064798
 30
0.0
 10
18.38807589238828
 20
1.445888988863807
 30
0.0
 10
15.19364922542652
 20
4.628847079261892
 30
0.0
 10
13.06445601223096
 20
6.681136749367085
 30
0.0
 10
12.0000000000019
 20
7.707146068127019
 30
0.0
1001
PE_URL
1000

  0
LINE
  5
A6
330
1F
100
AcDbEntity
  8
0
  6
Continuous
 62
     1
370
    15
100
AcDbLine
 10
62.80000000000192
 20
-25.21464479297015
 30
0.0
 11
62.80000000000192
 21
-15.25938465264864
 31
0.0
1001
PE_URL
1000

  0
SPLINE
  5
A7
330
1F
100
AcDbEntity
  8
0
  6
Continuous
 62
     1
370
    15
100
AcDbSpline
210
0.0
220
0.0
230
1.0
 70
     8
 71
     3
 72
    50
 73
    46
 74
     0
 42
0.000000001
 43
0.00000001
 40
0.0
 40
0.0
 40
0.0
 40
0.0
 40
0.0624999999999992
 40
0.0624999999999992
 40
0.0937499999999992
 40
0.0937499999999992
 40
0.1249999999999992
 40
0.1249999999999992
 40
0.1874999999999983
 40
0.1874999999999983
 40
0.2187499999999983
 40
0.2187499999999983
 40
0.2499999999999983
 40
0.2499999999999983
 40
0.3124999999999975
 40
0.3124999999999975
 40
0.3749999999999968
 40
0.3749999999999968
 40
0.4062499999999964
 40
0.4062499999999964
 40
0.4374999999999963
 40
0.4374999999999963
 40
0.4999999999999967
 40
0.4999999999999967
 40
0.5312499999999966
 40
0.5312499999999966
 40
0.5624999999999966
 40
0.5624999999999966
 40
0.6249999999999968
 40
0.6249999999999968
 40
0.6874999999999971
 40
0.6874999999999971
 40
0.7187499999999976
 40
0.7187499999999976
 40
0.7499999999999979
 40
0.7499999999999979
 40
0.8124999999999987
 40
0.8124999999999987
 40
0.843749999999999
 40
0.843749999999999
 40
0.8749999999999993
 40
0.8749999999999993
 40
0.9374999999999997
 40
0.9374999999999997
 40
1.0
 40
1.0
 40
1.0
 40
1.0
 10
62.80000000000198
 20
-25.21464479297015
 30
0.0
 10
61.74495244054494
 20
-25.08715568499299
 30
0.0
 10
60.6821141939917
 20
-24.89357245888872
 30
0.0
 10
59.09477259826982
 20
-24.50715345992003
 30
0.0
 10
58.56783422016962
 20
-24.36250975527987
 30
0.0
 10
57.50973166010352
 20
-24.04133405003677
 30
0.0
 10
56.97948504330223
 20
-23.86485623415714
 30
0.0
 10
55.38981612919698
 20
-23.28922927060502
 30
0.0
 10
54.33556340233776
 20
-22.84450422148628
 30
0.0
 10
52.74602207386243
 20
-22.08886944558299
 30
0.0
 10
52.21573503791614
 20
-21.82235069920743
 30
0.0
 10
51.15738653149614
 20
-21.26162957338583
 30
0.0
 10
50.63043374898714
 20
-20.9676572791271
 30
0.0
 10
49.04347425362155
 20
-20.04427580287619
 30
0.0
 10
47.9805590400214
 20
-19.37373975698669
 30
0.0
 10
45.86965252122311
 20
-17.93866688399185
 30
0.0
 10
44.80770473389834
 20
-17.17100535662996
 30
0.0
 10
43.22000740458713
 20
-15.95669830759924
 30
0.0
 10
42.69302581346009
 20
-15.54186577598813
 30
0.0
 10
41.63518677064982
 20
-14.69151469755063
 30
0.0
 10
41.10498942479568
 20
-14.25614914536543
 30
0.0
 10
39.51521942103629
 20
-12.92325328636255
 30
0.0
 10
38.46091776574654
 20
-12.00024002399263
 30
0.0
 10
36.87153051178746
 20
-10.57019733518219
 30
0.0
 10
36.34121191075032
 20
-10.0861555470409
 30
0.0
 10
35.28263504252089
 20
-9.106198348701124
 30
0.0
 10
34.75561023896532
 20
-8.610678688218343
 30
0.0
 10
33.16905918953152
 20
-7.106580980549121
 30
0.0
 10
32.10608484665088
 20
-6.081003813163536
 30
0.0
 10
29.99440177635919
 20
-4.008160838613571
 30
0.0
 10
28.93329594658029
 20
-2.956869409193742
 30
0.0
 10
27.34526927018145
 20
-1.373671744042207
 30
0.0
 10
26.81818685098556
 20
-0.845453811774478
 30
0.0
 10
25.76062888172074
 20
0.2125235647288113
 30
0.0
 10
25.23048965587116
 20
0.7421716628593983
 30
0.0
 10
23.64064506405054
 20
2.328440053992605
 30
0.0
 10
22.58624555461767
 20
3.380812840715856
 30
0.0
 10
20.99703885550082
 20
4.944592417121949
 30
0.0
 10
20.46669754518589
 20
5.463165967204538
 30
0.0
 10
19.40790991236172
 20
6.491907129359708
 30
0.0
 10
18.88075547511139
 20
7.001664529796996
 30
0.0
 10
17.29463919453914
 20
8.5177826064643
 30
0.0
 10
16.2316235634649
 20
9.510687653057095
 30
0.0
 10
14.11919883301633
 20
11.43768978541824
 30
0.0
 10
13.05888641247464
 20
12.37512626813685
 30
0.0
 10
12.00000000000188
 20
13.27749369934256
 30
0.0
1001
PE_URL
1000

  0
SPLINE
  5
A8
330
1F
100
AcDbEntity
  8
외형선
  6
Continuous
370
    15
100
AcDbSpline
210
0.0
220
0.0
230
1.0
 70
    24
 71
     3
 72
    15
 73
    11
 74
     0
 42
0.000000001
 43
0.00000001
 40
0.0
 40
0.0
 40
0.0
 40
0.0
 40
0.1548967158178311
 40
0.2910026447735143
 40
0.4310556548893829
 40
0.5671615838450703
 40
0.707214593960942
 40
0.8433205229166244
 40
0.9833735330324939
 40
1.0
 40
1.0
 40
1.0
 40
1.0
 10
12.0000000000019
 20
24.81353306774241
 30
0.0
 10
12.00000000000191
 20
24.21316698314784
 30
0.0
 10
12.00000000000194
 20
23.08526625570564
 30
0.0
 10
12.00000000000195
 20
21.30744182439614
 30
0.0
 10
12.00000000000195
 20
19.59739268979036
 30
0.0
 10
12.00000000000197
 20
17.90242763034149
 30
0.0
 10
12.0000000000019
 20
16.29679436006845
 30
0.0
 10
12.00000000000189
 20
14.82310993426033
 30
0.0
 10
12.00000000000212
 20
13.84778115263027
 30
0.0
 10
12.00000000000191
 20
13.43301350658324
 30
0.0
 10
12.00000000000193
 20
13.38899931471482
 30
0.0
  0
SPLINE
  5
A9
330
1F
100
AcDbEntity
  8
0
  6
Continuous
 62
     1
370
    15
100
AcDbSpline
210
0.0
220
0.0
230
1.0
 70
     8
 71
     3
 72
    50
 73
    46
 74
     0
 42
0.000000001
 43
0.00000001
 40
0.0
 40
0.0
 40
0.0
 40
0.0
 40
0.0625000000000003
 40
0.0625000000000003
 40
0.0937500000000001
 40
0.0937500000000001
 40
0.1249999999999998
 40
0.1249999999999998
 40
0.1874999999999993
 40
0.1874999999999993
 40
0.218749999999999
 40
0.218749999999999
 40
0.2499999999999987
 40
0.2499999999999987
 40
0.312499999999999
 40
0.312499999999999
 40
0.3749999999999993
 40
0.3749999999999993
 40
0.406249999999999
 40
0.406249999999999
 40
0.4374999999999987
 40
0.4374999999999987
 40
0.4999999999999986
 40
0.4999999999999986
 40
0.5312499999999986
 40
0.5312499999999986
 40
0.5624999999999986
 40
0.5624999999999986
 40
0.6249999999999984
 40
0.6249999999999984
 40
0.6874999999999983
 40
0.6874999999999983
 40
0.7187499999999983
 40
0.7187499999999983
 40
0.7499999999999984
 40
0.7499999999999984
 40
0.8124999999999989
 40
0.8124999999999989
 40
0.843749999999999
 40
0.843749999999999
 40
0.8749999999999992
 40
0.8749999999999992
 40
0.9374999999999997
 40
0.9374999999999997
 40
1.0
 40
1.0
 40
1.0
 40
1.0
 10
62.80000000000189
 20
-15.25991847829918
 30
0.0
 10
61.74495244054483
 20
-14.41476308857171
 30
0.0
 10
60.68211419399162
 20
-13.52772490626134
 30
0.0
 10
59.09477259826982
 20
-12.149709159205
 30
0.0
 10
58.56783422016959
 20
-11.6828037708607
 30
0.0
 10
57.50973166010341
 20
-10.73315973828049
 30
0.0
 10
56.97948504330217
 20
-10.25067767252305
 30
0.0
 10
55.38981612919704
 20
-8.784457568671222
 30
0.0
 10
54.33556340233765
 20
-7.7832586003234
 30
0.0
 10
52.7460220738624
 20
-6.252427035631914
 30
0.0
 10
52.21573503791617
 20
-5.737598345173832
 30
0.0
 10
51.15738653149619
 20
-4.701863315398503
 30
0.0
 10
50.63043374898717
 20
-4.181327082433961
 30
0.0
 10
49.0434742536216
 20
-2.610574941486693
 30
0.0
 10
47.98055904002141
 20
-1.552229670352746
 30
0.0
 10
45.86965252122305
 20
0.5620838820387106
 30
0.0
 10
44.80770473389834
 20
1.622691591474997
 30
0.0
 10
43.22000740458716
 20
3.201404643418978
 30
0.0
 10
42.69302581346009
 20
3.725157112799435
 30
0.0
 10
41.63518677064987
 20
4.768415337609745
 30
0.0
 10
41.10498942479571
 20
5.287697621543705
 30
0.0
 10
39.5152194210362
 20
6.833923860049136
 30
0.0
 10
38.46091776574654
 20
7.84783106686825
 30
0.0
 10
36.87153051178742
 20
9.336644118443065
 30
0.0
 10
36.34121191075025
 20
9.827312490787074
 30
0.0
 10
35.28263504252089
 20
10.79458178354857
 30
0.0
 10
34.75561023896538
 20
11.27082259671545
 30
0.0
 10
33.16905918953154
 20
12.67827503586056
 30
0.0
 10
32.10608484665085
 20
13.58744536291749
 30
0.0
 10
29.99440177635913
 20
15.32641847774721
 30
0.0
 10
28.93329594658021
 20
16.15964665317544
 30
0.0
 10
27.34526927018143
 20
17.34219167367836
 30
0.0
 10
26.81818685098551
 20
17.7247910890407
 30
0.0
 10
25.76062888172071
 20
18.46726420622528
 30
0.0
 10
25.23048965587112
 20
18.82703218763726
 30
0.0
 10
23.64064506405051
 20
19.86869009071721
 30
0.0
 10
22.58624555461762
 20
20.51199235639361
 30
0.0
 10
20.99703885550079
 20
21.39594804872802
 30
0.0
 10
20.46669754518587
 20
21.67695132159476
 30
0.0
 10
19.40790991236169
 20
22.21003264453596
 30
0.0
 10
18.88075547511134
 20
22.4619256648302
 30
0.0
 10
17.29463919453915
 20
23.17404873256661
 30
0.0
 10
16.23162356346486
 20
23.59032317268562
 30
0.0
 10
14.11919883301626
 20
24.29634248996897
 30
0.0
 10
13.05888641247464
 20
24.58738639860269
 30
0.0
 10
12.00000000000191
 20
24.81353306774241
 30
0.0
1001
PE_URL
1000

  0
LINE
  5
AA
330
1F
100
AcDbEntity
  8
0
  6
Continuous
 62
     1
370
    15
100
AcDbLine
 10
62.80000000000192
 20
-15.25991847829919
 30
0.0
 11
62.80000000000192
 21
-9.9547263146706
 31
0.0
1001
PE_URL
1000

  0
LINE
  5
AB
330
1F
100
AcDbEntity
  8
외형선
  6
Continuous
370
    15
100
AcDbLine
 10
12.0000000000019
 20
24.81353306774241
 30
0.0
 11
12.00000000000191
 21
25.39999999999998
 31
0.0
  0
LINE
  5
AC
330
1F
100
AcDbEntity
  8
0
  6
Continuous
 62
     1
370
    15
100
AcDbLine
 10
62.80000000000192
 20
-25.4
 30
0.0
 11
62.80000000000192
 21
-25.21464479297015
 31
0.0
1001
PE_URL
1000

  0
LINE
  5
AD
330
1F
100
AcDbEntity
  8
외형선
  6
Continuous
370
    15
100
AcDbLine
 10
12.0000000000019
 20
7.707146068127007
 30
0.0
 11
12.00000000000189
 21
13.27749369934257
 31
0.0
  0
SPLINE
  5
AE
330
1F
100
AcDbEntity
  8
0
  6
Continuous
 62
     1
370
    15
100
AcDbSpline
210
0.0
220
0.0
230
1.0
 70
     8
 71
     3
 72
    15
 73
    11
 74
     0
 42
0.000000001
 43
0.00000001
 40
0.0
 40
0.0
 40
0.0
 40
0.0
 40
0.0499957183751908
 40
0.1856917934324342
 40
0.321438238940347
 40
0.4571836725269164
 40
0.5928792371549945
 40
0.728558240121868
 40
0.864254058997233
 40
1.0
 40
1.0
 40
1.0
 40
1.0
 10
39.27175441717738
 20
25.35480369147333
 30
0.0
 10
39.66379740837781
 20
25.36651292363468
 30
0.0
 10
41.11990542131419
 20
25.41000281417772
 30
0.0
 10
43.64064456791342
 20
25.07498537002976
 30
0.0
 10
46.83465009411234
 20
24.35070670984573
 30
0.0
 10
50.02864367538948
 20
23.21617287501535
 30
0.0
 10
53.2212571298923
 20
21.7231915282866
 30
0.0
 10
56.41337428788346
 20
19.88103684812043
 30
0.0
 10
59.60599614092435
 20
17.7427025069538
 30
0.0
 10
61.7352009933547
 20
16.087615025978
 30
0.0
 10
62.80000000000198
 20
15.2599184782993
 30
0.0
1001
PE_URL
1000

  0
LINE
  5
AF
330
1F
100
AcDbEntity
  8
0
  6
Continuous
 62
     1
370
    15
100
AcDbLine
 10
62.80000000000192
 20
9.954726314671065
 30
0.0
 11
62.80000000000192
 21
15.2599184782993
 31
0.0
1001
PE_URL
1000

  0
SPLINE
  5
B0
330
1F
100
AcDbEntity
  8
0
  6
Continuous
 62
     1
370
    15
100
AcDbSpline
210
0.0
220
0.0
230
1.0
 70
     8
 71
     3
 72
    14
 73
    10
 74
     0
 42
0.000000001
 43
0.00000001
 40
0.0
 40
0.0
 40
0.0
 40
0.0
 40
0.0933245004433081
 40
0.2444483977462759
 40
0.3955294132384025
 40
0.5466046776742527
 40
0.6977113462147055
 40
0.8488756337582648
 40
1.0
 40
1.0
 40
1.0
 40
1.0
 10
33.13123775105601
 20
-25.35259031280239
 30
0.0
 10
32.47376797387705
 20
-25.35644820647549
 30
0.0
 10
30.75163249139869
 20
-25.36655333345271
 30
0.0
 10
27.9655812880983
 20
-24.93183346306892
 30
0.0
 10
24.77325819625774
 20
-24.1034551841673
 30
0.0
 10
21.58107701535995
 20
-22.87902897861759
 30
0.0
 10
18.38807604550829
 20
-21.29270308776808
 30
0.0
 10
15.19364918715225
 20
-19.38891501497315
 30
0.0
 10
13.06445599947398
 20
-17.86716268208112
 30
0.0
 10
12.0000000000019
 20
-17.10638699961527
 30
0.0
1001
PE_URL
1000

  0
LINE
  5
B1
330
1F
100
AcDbEntity
  8
외형선
  6
Continuous
370
    15
100
AcDbLine
 10
12.0000000000019
 20
-17.10638699961527
 30
0.0
 11
12.00000000000189
 21
-12.11361622269766
 31
0.0
  0
SPLINE
  5
B2
330
1F
100
AcDbEntity
  8
0
  6
Continuous
 62
     1
370
    15
100
AcDbSpline
210
0.0
220
0.0
230
1.0
 70
     8
 71
     3
 72
    12
 73
     8
 74
     0
 42
0.000000001
 43
0.00000001
 40
0.0
 40
0.0
 40
0.0
 40
0.0
 40
0.2396415279376026
 40
0.4791933444693721
 40
0.7187159379634491
 40
0.9582699228998003
 40
1.0
 40
1.0
 40
1.0
 40
1.0
 10
62.80000000000189
 20
25.21464479297016
 30
0.0
 10
61.73752160722905
 20
25.30404021820086
 30
0.0
 10
59.61296256756281
 20
25.48279760288803
 30
0.0
 10
56.42733359787764
 20
25.25256632958261
 30
0.0
 10
53.24214673072556
 20
24.62111166335862
 30
0.0
 10
50.93381854850646
 20
23.96695465992758
 30
0.0
 10
49.68674187509124
 20
23.42280506669267
 30
0.0
 10
49.50173101683395
 20
23.34207740542622
 30
0.0
1001
PE_URL
1000

  0
LINE
  5
B3
330
1F
100
AcDbEntity
  8
0
  6
Continuous
 62
     1
370
    15
100
AcDbLine
 10
62.80000000000192
 20
15.2515525438938
 30
0.0
 11
62.80000000000192
 21
25.21464479297016
 31
0.0
1001
PE_URL
1000

  0
SPLINE
  5
B4
330
1F
100
AcDbEntity
  8
0
  6
Continuous
 62
     1
370
    15
100
AcDbSpline
210
0.0
220
0.0
230
1.0
 70
     8
 71
     3
 72
    11
 73
     7
 74
     0
 42
0.000000001
 43
0.00000001
 40
0.0
 40
0.0
 40
0.0
 40
0.0
 40
0.2922817649540878
 40
0.5846400776437567
 40
0.8768845942731517
 40
1.0
 40
1.0
 40
1.0
 40
1.0
 10
12.00000000000191
 20
-25.39110992204002
 30
0.0
 10
13.06213867118134
 20
-25.38184692270561
 30
0.0
 10
15.18669418453785
 20
-25.36331849808447
 30
0.0
 10
18.3741474026241
 20
-24.80951196309704
 30
0.0
 10
20.94581720492206
 20
-24.1373358947056
 30
0.0
 10
22.4550251940913
 20
-23.50934726009751
 30
0.0
 10
22.9023643424105
 20
-23.32320730922542
 30
0.0
1001
PE_URL
1000

  0
SPLINE
  5
B5
330
1F
100
AcDbEntity
  8
외형선
  6
Continuous
370
    15
100
AcDbSpline
210
0.0
220
0.0
230
1.0
 70
    24
 71
     3
 72
    13
 73
     9
 74
     0
 42
0.000000001
 43
0.00000001
 40
0.0
 40
0.0
 40
0.0
 40
0.0
 40
0.1763976790418531
 40
0.3786797010888102
 40
0.5752608563167974
 40
0.7775428783637497
 40
0.8882792815150684
 40
1.0
 40
1.0
 40
1.0
 40
1.0
 10
12.00000000000195
 20
-17.21790261498754
 30
0.0
 10
12.00000000000197
 20
-17.63957888797157
 30
0.0
 10
12.00000000000198
 20
-18.54480760683668
 30
0.0
 10
12.00000000000186
 20
-20.09043595535982
 30
0.0
 10
12.00000000000197
 20
-21.77551813819546
 30
0.0
 10
12.00000000000185
 20
-23.23995905188044
 30
0.0
 10
12.00000000000204
 20
-24.45337180809734
 30
0.0
 10
12.00000000000197
 20
-25.07760985332693
 30
0.0
 10
12.00000000000191
 20
-25.39110992204002
 30
0.0
  0
LINE
  5
B6
330
1F
100
AcDbEntity
  8
0
  6
Continuous
 62
     1
370
    15
100
AcDbLine
 10
62.80000000000192
 20
25.21464479297016
 30
0.0
 11
62.80000000000192
 21
25.39999999999998
 31
0.0
1001
PE_URL
1000

  0
LINE
  5
B7
330
1F
100
AcDbEntity
  8
외형선
  6
Continuous
370
    15
100
AcDbLine
 10
12.00000000000191
 20
-25.4
 30
0.0
 11
12.00000000000191
 21
-25.39110992204002
 31
0.0
  0
SPLINE
  5
B8
330
1F
100
AcDbEntity
  8
외형선
  6
Continuous
370
    15
100
AcDbSpline
210
0.0
220
0.0
230
1.0
 70
     8
 71
     3
 72
     8
 73
     4
 74
     0
 42
0.000000001
 43
0.00000001
 40
0.0
 40
0.0
 40
0.0
 40
0.0
 40
1.0
 40
1.0
 40
1.0
 40
1.0
 10
12.00000000000191
 20
24.81353306774241
 30
0.0
 10
11.66615833321304
 20
24.88483172647963
 30
0.0
 10
11.33267709160974
 20
24.94967714558806
 30
0.0
 10
10.99994277463376
 20
25.00801532244832
 30
0.0
  0
LINE
  5
B9
330
1F
100
AcDbEntity
  8
외형선
  6
Continuous
370
    15
100
AcDbLine
 10
10.99994277463376
 20
14.12003022283259
 30
0.0
 11
10.99994277463376
 21
25.00801668214187
 31
0.0
  0
SPLINE
  5
BA
330
1F
100
AcDbEntity
  8
외형선
  6
Continuous
370
    15
100
AcDbSpline
210
0.0
220
0.0
230
1.0
 70
     8
 71
     3
 72
     8
 73
     4
 74
     0
 42
0.000000001
 43
0.00000001
 40
0.0
 40
0.0
 40
0.0
 40
0.0
 40
1.0
 40
1.0
 40
1.0
 40
1.0
 10
12.00000000000188
 20
13.27749369934256
 30
0.0
 10
11.666158333213
 20
13.56198865908638
 30
0.0
 10
11.33267709160972
 20
13.84294182069087
 30
0.0
 10
10.99994277463374
 20
14.12003829432863
 30
0.0
  0
SPLINE
  5
BB
330
1F
100
AcDbEntity
  8
외형선
  6
Continuous
370
    15
100
AcDbSpline
210
0.0
220
0.0
230
1.0
 70
     8
 71
     3
 72
     8
 73
     4
 74
     0
 42
0.000000001
 43
0.00000001
 40
0.0
 40
0.0
 40
0.0
 40
0.0
 40
1.0
 40
1.0
 40
1.0
 40
1.0
 10
12.00000000000191
 20
7.707146068126991
 30
0.0
 10
11.66615833321304
 20
8.025132818010263
 30
0.0
 10
11.33267709160974
 20
8.341008618318895
 30
0.0
 10
10.99994277463376
 20
8.654413237892847
 30
0.0
  0
LINE
  5
BC
330
1F
100
AcDbEntity
  8
외형선
  6
Continuous
370
    15
100
AcDbLine
 10
10.99994277463376
 20
-11.22491201120927
 30
0.0
 11
10.99994277463376
 21
8.654420542450602
 31
0.0
  0
SPLINE
  5
BD
330
1F
100
AcDbEntity
  8
외형선
  6
Continuous
370
    15
100
AcDbSpline
210
0.0
220
0.0
230
1.0
 70
     8
 71
     3
 72
     8
 73
     4
 74
     0
 42
0.000000001
 43
0.00000001
 40
0.0
 40
0.0
 40
0.0
 40
0.0
 40
1.0
 40
1.0
 40
1.0
 40
1.0
 10
12.00000000000188
 20
-12.11361622269765
 30
0.0
 10
11.666158333213
 20
-11.82029258161412
 30
0.0
 10
11.33267709160972
 20
-11.52393674728189
 30
0.0
 10
10.99994277463374
 20
-11.2249033007168
 30
0.0
  0
SPLINE
  5
BE
330
1F
100
AcDbEntity
  8
외형선
  6
Continuous
370
    15
100
AcDbSpline
210
0.0
220
0.0
230
1.0
 70
     8
 71
     3
 72
     8
 73
     4
 74
     0
 42
0.000000001
 43
0.00000001
 40
0.0
 40
0.0
 40
0.0
 40
0.0
 40
1.0
 40
1.0
 40
1.0
 40
1.0
 10
12.00000000000191
 20
-17.10638699961529
 30
0.0
 10
11.66615833321304
 20
-16.85969890846923
 30
0.0
 10
11.33267709160974
 20
-16.60866852726904
 30
0.0
 10
10.99994277463376
 20
-16.35360208455535
 30
0.0
  0
LINE
  5
BF
330
1F
100
AcDbEntity
  8
외형선
  6
Continuous
370
    15
100
AcDbLine
 10
10.99994277463376
 20
-25.34494223404167
 30
0.0
 11
10.99994277463376
 21
-16.35359613969115
 31
0.0
  0
SPLINE
  5
C0
330
1F
100
AcDbEntity
  8
외형선
  6
Continuous
370
    15
100
AcDbSpline
210
0.0
220
0.0
230
1.0
 70
     8
 71
     3
 72
     8
 73
     4
 74
     0
 42
0.000000001
 43
0.00000001
 40
0.0
 40
0.0
 40
0.0
 40
0.0
 40
1.0
 40
1.0
 40
1.0
 40
1.0
 10
12.00000000000188
 20
-25.39110992204002
 30
0.0
 10
11.666158333213
 20
-25.38228124070031
 30
0.0
 10
11.33267709160972
 20
-25.36687856797257
 30
0.0
 10
10.99994277463374
 20
-25.34494159504524
 30
0.0
  0
LINE
  5
C4
330
1F
100
AcDbEntity
  8
외형선
  6
Continuous
370
    15
100
AcDbLine
 10
-83.2499999999981
 20
-20.32000000000001
 30
0.0
 11
-83.2499999999981
 21
-0.0000000000000056
 31
0.0
  0
SPLINE
  5
C5
330
1F
100
AcDbEntity
  8
외형선
  6
Continuous
370
    15
100
AcDbSpline
210
0.0
220
0.0
230
1.0
 70
    24
 71
     3
 72
    36
 73
    32
 74
     0
 42
0.000000001
 43
0.00000001
 40
0.0
 40
0.0
 40
0.0
 40
0.0
 40
0.0624999999999999
 40
0.0624999999999999
 40
0.1249999999999998
 40
0.1249999999999998
 40
0.1874999999999996
 40
0.1874999999999996
 40
0.2499999999999995
 40
0.2499999999999995
 40
0.3124999999999994
 40
0.3124999999999994
 40
0.3749999999999992
 40
0.3749999999999992
 40
0.4374999999999991
 40
0.4374999999999991
 40
0.499999999999999
 40
0.499999999999999
 40
0.5624999999999989
 40
0.5624999999999989
 40
0.6249999999999988
 40
0.6249999999999988
 40
0.7499999999999987
 40
0.7499999999999987
 40
0.8124999999999987
 40
0.8124999999999987
 40
0.8437499999999987
 40
0.8437499999999987
 40
0.8749999999999986
 40
0.8749999999999986
 40
1.0
 40
1.0
 40
1.0
 40
1.0
 10
12.00000000000194
 20
-12.11361622269748
 30
0.0
 10
12.00000000000191
 20
-11.93613115778978
 30
0.0
 10
12.0000000000019
 20
-11.69866153773546
 30
0.0
 10
12.00000000000191
 20
-11.09017169853895
 30
0.0
 10
12.0000000000019
 20
-10.71894449588183
 30
0.0
 10
12.00000000000195
 20
-9.843533654602142
 30
0.0
 10
12.00000000000191
 20
-9.339274754995966
 30
0.0
 10
12.00000000000186
 20
-8.217712618417643
 30
0.0
 10
12.00000000000188
 20
-7.600553581131762
 30
0.0
 10
12.00000000000189
 20
-6.291644658320432
 30
0.0
 10
12.0000000000019
 20
-5.600230847663259
 30
0.0
 10
12.00000000000189
 20
-4.192356762406281
 30
0.0
 10
12.0000000000019
 20
-3.47627589483532
 30
0.0
 10
12.0000000000019
 20
-2.068321616121434
 30
0.0
 10
12.0000000000019
 20
-1.376706266474725
 30
0.0
 10
12.00000000000191
 20
-0.0565031890262238
 30
0.0
 10
12.00000000000191
 20
0.5720171335787833
 30
0.0
 10
12.0000000000019
 20
1.742677354315577
 30
0.0
 10
12.00000000000191
 20
2.284900121061531
 30
0.0
 10
12.00000000000197
 20
3.274617105354385
 30
0.0
 10
12.0000000000019
 20
3.722258558495974
 30
0.0
 10
12.00000000000191
 20
4.927392275258757
 30
0.0
 10
12.00000000000194
 20
5.546100606061097
 30
0.0
 10
12.0000000000019
 20
6.262108659476726
 30
0.0
 10
12.00000000000191
 20
6.465837190211793
 30
0.0
 10
12.0000000000019
 20
6.728420776816184
 30
0.0
 10
12.00000000000193
 20
6.807758815222225
 30
0.0
 10
12.00000000000194
 20
6.958375852361264
 30
0.0
 10
12.00000000000194
 20
7.031126456764456
 30
0.0
 10
12.00000000000188
 20
7.378044023999164
 30
0.0
 10
12.0000000000019
 20
7.604244693910669
 30
0.0
 10
12.00000000000193
 20
7.70714606812605
 30
0.0
  0
SPLINE
  5
C6
330
1F
100
AcDbEntity
  8
외형선
  6
Continuous
370
    15
100
AcDbSpline
210
0.0
220
0.0
230
1.0
 70
    24
 71
     3
 72
    15
 73
    11
 74
     0
 42
0.000000001
 43
0.00000001
 40
0.0
 40
0.0
 40
0.0
 40
0.0
 40
0.1381849388583248
 40
0.2764213244607908
 40
0.4146577100632567
 40
0.5528940956657292
 40
0.6911304812682014
 40
0.8293668668706717
 40
0.967603252473142
 40
1.0
 40
1.0
 40
1.0
 40
1.0
 10
12.00000000000193
 20
13.38899931471482
 30
0.0
 10
12.0000000000019
 20
13.80507001440775
 30
0.0
 10
12.00000000000188
 20
14.63736631839471
 30
0.0
 10
12.00000000000195
 20
16.11602382868453
 30
0.0
 10
12.00000000000191
 20
17.70776735451263
 30
0.0
 10
12.0000000000019
 20
19.39008022990661
 30
0.0
 10
12.0000000000018
 20
21.10811591437681
 30
0.0
 10
12.00000000000185
 20
22.81350985160839
 30
0.0
 10
12.00000000000208
 20
24.04306496568502
 30
0.0
 10
12.00000000000189
 20
24.69059224494052
 30
0.0
 10
12.00000000000188
 20
24.81353306773426
 30
0.0
  0
SPLINE
  5
C7
330
1F
100
AcDbEntity
  8
외형선
  6
Continuous
370
    15
100
AcDbSpline
210
0.0
220
0.0
230
1.0
 70
    24
 71
     3
 72
    14
 73
    10
 74
     0
 42
0.000000001
 43
0.00000001
 40
0.0
 40
0.0
 40
0.0
 40
0.0
 40
0.0005193144106095
 40
0.2001531907886593
 40
0.3997870671667088
 40
0.5994209435447596
 40
0.79905481992281
 40
0.998688696300862
 40
1.0
 40
1.0
 40
1.0
 40
1.0
 10
12.00000000000189
 20
-25.39110992204001
 30
0.0
 10
12.0000000000019
 20
-25.38966397666788
 30
0.0
 10
12.00000000000612
 20
-24.83237041033203
 30
0.0
 10
12.00000000000003
 20
-23.6946119101102
 30
0.0
 10
12.00000000000244
 20
-21.97685788271129
 30
0.0
 10
12.00000000000183
 20
-20.28521212267743
 30
0.0
 10
12.00000000000133
 20
-18.693748484156
 30
0.0
 10
12.00000000000326
 20
-17.65992744947484
 30
0.0
 10
12.00000000000186
 20
-17.22075849054706
 30
0.0
 10
12.00000000000189
 20
-17.21789261498753
 30
0.0
  0
LINE
  5
C8
330
1F
100
AcDbEntity
  8
중심선
 62
     1
100
AcDbLine
 10
-90.2499999999981
 20
-0.000000000000011
 30
0.0
 11
69.80000000000192
 21
0.0000000000000079
 31
0.0
  0
LINE
  5
C9
330
1F
100
AcDbEntity
  8
참조1
100
AcDbLine
 10
-10.22499999999809
 20
-0.0000000000000113
 30
0.0
 11
-10.22499999999809
 21
-40.00000000000001
 31
0.0
  0
LINE
  5
CA
330
1F
100
AcDbEntity
  8
참조1
100
AcDbLine
 10
-10.22499999999809
 20
-40.00000000000001
 30
0.0
 11
-50.78385681430677
 21
-40.00000000000001
 31
0.0
  0
CIRCLE
  5
CB
330
1F
100
AcDbEntity
  8
해칭선
100
AcDbCircle
 10
0.0
 20
0.0
 30
0.0
 40
3.000000000000004
  0
INSERT
  5
CC
330
1F
100
AcDbEntity
  8
0
  6
Continuous
 62
     7
100
AcDbBlockReference
 66
     1
  2
블럭10
 10
-24.1652729321233
 20
-52.04717430164394
 30
0.0
  0
ATTRIB
  5
CD
330
CC
100
AcDbEntity
  8
FORMAT
 62
     2
100
AcDbText
 10
-33.34656822086458
 20
-49.97180738881175
 30
0.0
 40
4.233333333333333
  1
E2042164 [ 6 FLUTE ]
 41
0.75
  7
SLDTEXTSTYLE0
 11
-33.34656822086458
 21
-52.08847405547842
 31
0.0
100
AcDbAttribute
  2
AUTOATTR0
 70
     0
 74
     1
  0
SEQEND
  5
CE
330
CC
100
AcDbEntity
  8
0
  6
Continuous
 62
     7
  0
HATCH
  5
CF
330
1F
100
AcDbEntity
  8
중심선
100
AcDbHatch
 10
0.0
 20
0.0
 30
0.0
210
0.0
220
0.0
230
1.0
  2
SOLID
 70
     1
 71
     0
 91
        1
 92
        0
 93
        4
 72
     1
 10
-18.45036362774246
 20
-35.8
 11
-21.89663887157974
 21
-35.8
 72
     1
 10
-21.89663887157974
 20
-35.8
 11
-24.02486873078376
 21
-38.33632558057261
 72
     1
 10
-24.02486873078376
 20
-38.33632558057261
 11
-20.57856040183333
 21
-38.33628615127012
 72
     1
 10
-20.57856040183333
 20
-38.33628615127012
 11
-18.45036362774246
 21
-35.8
 97
        0
 75
     0
 76
     1
 98
        1
 10
-41.27499999999814
 20
-0.0010749287239005
  0
HATCH
  5
D0
330
1F
100
AcDbEntity
  8
중심선
100
AcDbHatch
 10
0.0
 20
0.0
 30
0.0
210
0.0
220
0.0
230
1.0
  2
SOLID
 70
     1
 71
     0
 91
        1
 92
        0
 93
        4
 72
     1
 10
-13.43759963670645
 20
-35.8
 11
-16.88387488054373
 21
-35.79999999999998
 72
     1
 10
-16.88387488054373
 20
-35.79999999999998
 11
-21.41501288890118
 21
-41.20000000000002
 72
     1
 10
-21.41501288890118
 20
-41.20000000000002
 11
-17.96873764506389
 21
-41.20000000000002
 72
     1
 10
-17.96873764506389
 20
-41.20000000000002
 11
-13.43759963670645
 21
-35.8
 97
        0
 75
     0
 76
     1
 98
        1
 10
-41.27499999999814
 20
-0.0010749287239005
  0
HATCH
  5
D1
330
1F
100
AcDbEntity
  8
중심선
100
AcDbHatch
 10
0.0
 20
0.0
 30
0.0
210
0.0
220
0.0
230
1.0
  2
SOLID
 70
     1
 71
     0
 91
        1
 92
        0
 93
        4
 72
     1
 10
-8.424835645670612
 20
-35.8
 11
-11.87111088950767
 21
-35.79999999999998
 72
     1
 10
-11.87111088950767
 20
-35.79999999999998
 11
-18.91954779139698
 21
-44.20000000000002
 72
     1
 10
-18.91954779139698
 20
-44.20000000000002
 11
-15.47327254755969
 21
-44.20000000000002
 72
     1
 10
-15.47327254755969
 20
-44.20000000000002
 11
-8.424835645670612
 21
-35.8
 97
        0
 75
     0
 76
     1
 98
        1
 10
-41.27499999999814
 20
-0.0010749287239005
  0
HATCH
  5
D2
330
1F
100
AcDbEntity
  8
중심선
100
AcDbHatch
 10
0.0
 20
0.0
 30
0.0
210
0.0
220
0.0
230
1.0
  2
SOLID
 70
     1
 71
     0
 91
        1
 92
        0
 93
        6
 72
     3
 10
-3.62494521465841
 20
-40.00000000005128
 11
3.960054785062283
 21
1.540882976769353E-10
 40
0.3939339440162628
 50
17.09539180608436
 51
320.0019657685081
 73
     0
 72
     1
 10
-1.941945558957812
 20
-38.58789400463831
 11
0.3633563147432497
 21
-36.65356729459039
 72
     3
 10
-3.624945214711261
 20
-40.00000000000016
 11
6.600054785286829
 21
-1.278976924368180E-13
 40
0.636358354079598
 50
39.99873849337385
 51
368.4976242363724
 73
     1
 72
     1
 10
2.800387277189351
 20
-39.03999999993003
 11
-4.944877907875338
 21
-39.03999999993
 72
     1
 10
-4.944877907875338
 20
-39.03999999993
 11
-4.944902952321272
 21
-40.95999999992992
 72
     1
 10
-4.944902952321272
 20
-40.95999999992992
 11
-0.5035231828492286
 21
-40.95999999992989
 97
        0
 75
     0
 76
     1
 98
        1
 10
-41.27499999999814
 20
-0.0010749287239005
  0
DIMENSION
  5
D3
330
1F
100
AcDbEntity
  8
치수문자_일반주서
100
AcDbDimension
  2
_D
 10
-98.24999999999794
 20
-25.40000000000009
 30
0.0
 11
-98.24999999999817
 21
41.57699999999993
 31
0.0
 70
   160
  1
%%c<>
 71
     2
 42
50.79999999999995
 52
-270.0
  3
SLDDIMSTYLE0
100
AcDbAlignedDimension
 13
-68.6449999999981
 23
25.39999999999998
 33
0.0
 14
-78.1699999999981
 24
-25.40000000000001
 34
0.0
 50
90.0000000000002
100
AcDbRotatedDimension
1001
PE_URL
1000

1001
ACAD
1000
DSTYLE
1002
{
1070
   171
1070
     8
1070
   273
1070
     7
1070
   140
1040
4.0
1002
}
1001
ACAD_DSTYLE_DIMFLIPARROW_SYMBOL
1070
   385
1070
     0
1001
ACAD_DSTYLE_DIMFLIPARROW_WHICH_SYMBOL
1070
   386
1070
     3
  0
DIMENSION
  5
E6
330
1F
100
AcDbEntity
  8
치수문자_일반주서
100
AcDbDimension
  2
_D_1
 10
12.00000000000191
 20
40.39999999999997
 30
0.0
 11
37.43913627814769
 21
40.39999999999997
 31
0.0
 70
   160
  1
<>
 71
     2
 42
50.80000000000001
  3
SLDDIMSTYLE0
100
AcDbAlignedDimension
 13
62.80000000000192
 23
25.21464479297016
 33
0.0
 14
12.00000000000191
 24
25.39999999999999
 34
0.0
 50
-0.0000000000000321
100
AcDbRotatedDimension
1001
PE_URL
1000

1001
ACAD
1000
DSTYLE
1002
{
1070
   171
1070
     8
1070
   273
1070
     7
1070
   140
1040
4.0
1002
}
  0
DIMENSION
  5
F9
330
1F
100
AcDbEntity
  8
치수문자_일반주서
100
AcDbDimension
  2
_D_2
 10
-83.24999999999812
 20
55.39999999999997
 30
0.0
 11
-10.18586372185232
 21
55.39999999999997
 31
0.0
 70
   160
  1
<>
 71
     2
 42
146.05
  3
SLDDIMSTYLE0
100
AcDbAlignedDimension
 13
62.80000000000192
 23
25.21464479297016
 33
0.0
 14
-83.2499999999981
 24
23.49499999999998
 34
0.0
 50
0.0000000000000028
100
AcDbRotatedDimension
1001
PE_URL
1000

1001
ACAD
1000
DSTYLE
1002
{
1070
   171
1070
     8
1070
   273
1070
     7
1070
   140
1040
4.0
1002
}
  0
DIMENSION
  5
10D
330
1F
100
AcDbEntity
  8
치수문자_일반주서
100
AcDbDimension
  2
_D_3
 10
77.80000000000209
 20
-25.39999999999993
 30
0.0
 11
77.80000000000186
 21
41.57700000000004
 31
0.0
 70
   160
  1
%%c<>
 71
     2
 42
50.79999999999998
 52
-270.0
  3
SLDDIMSTYLE0
100
AcDbAlignedDimension
 13
62.80000000000192
 23
25.39999999999998
 33
0.0
 14
62.80000000000192
 24
-25.4
 34
0.0
 50
90.0000000000002
100
AcDbRotatedDimension
1001
PE_URL
1000

1001
ACAD
1000
DSTYLE
1002
{
1070
   171
1070
     8
1070
   273
1070
     7
1070
   140
1040
4.0
1002
}
1001
ACAD_DSTYLE_DIMFLIPARROW_SYMBOL
1070
   385
1070
     0
1001
ACAD_DSTYLE_DIMFLIPARROW_WHICH_SYMBOL
1070
   386
1070
     3
  0
LINE
  5
120
330
1F
100
AcDbEntity
  8
참조1
100
AcDbLine
 10
47.1884838153475
 20
7.439999999999995
 30
0.0
 11
47.1884838153475
 21
-7.440000000000009
 31
0.0
  0
LINE
  5
121
330
1F
100
AcDbEntity
  8
참조1
100
AcDbLine
 10
59.88848381534751
 20
5.439999999999995
 30
0.0
 11
47.1884838153475
 21
5.439999999999995
 31
0.0
  0
SOLID
  5
122
330
1F
100
AcDbEntity
  8
참조1
100
AcDbTrace
 10
47.1884838153475
 20
5.439999999999995
 30
0.0
 11
53.5384838153475
 21
4.423999999999995
 31
0.0
 12
53.5384838153475
 22
6.455999999999995
 32
0.0
 13
53.5384838153475
 23
6.455999999999995
 33
0.0
  0
LINE
  5
123
330
1F
100
AcDbEntity
  8
참조1
100
AcDbLine
 10
59.88848381534751
 20
-5.440000000000009
 30
0.0
 11
47.1884838153475
 21
-5.440000000000009
 31
0.0
  0
SOLID
  5
124
330
1F
100
AcDbEntity
  8
참조1
100
AcDbTrace
 10
47.1884838153475
 20
-5.440000000000009
 30
0.0
 11
53.5384838153475
 21
-6.456000000000009
 31
0.0
 12
53.5384838153475
 22
-4.424000000000009
 32
0.0
 13
53.5384838153475
 23
-4.424000000000009
 33
0.0
  0
MTEXT
  5
125
330
1F
100
AcDbEntity
  8
참조1
100
AcDbMText
 10
56.58597390781777
 20
10.98821664464993
 30
0.0
 40
3.5
 41
0.0
 71
     1
 72
     1
  1
A
  7
SLDTEXTSTYLE0
 73
     1
 44
1.0
  0
MTEXT
  5
126
330
1F
100
AcDbEntity
  8
참조1
100
AcDbMText
 10
56.58597390781777
 20
0.1082166446499246
 30
0.0
 40
3.5
 41
0.0
 71
     1
 72
     1
  1
A
  7
SLDTEXTSTYLE0
 73
     1
 44
1.0
  0
INSERT
  5
12D
330
1F
100
AcDbEntity
  8
해칭선
100
AcDbBlockReference
  2
SW_DOWELSYMBOL_0
 10
0.0
 20
0.0
 30
0.0
  0
LINE
  5
274
330
1F
100
AcDbEntity
  8
외형선
  6
Continuous
370
    15
100
AcDbLine
 10
12.00000000000191
 20
25.39999999999998
 30
0.0
 11
-28.18279999999808
 21
25.39999999999998
 31
0.0
  0
LINE
  5
275
330
1F
100
AcDbEntity
  8
외형선
  6
Continuous
370
    15
100
AcDbLine
 10
-82.2499999999981
 20
-25.40000000000009
 30
0.0
 11
-73.72499999999812
 21
-25.40000000000009
 31
0.0
  0
LINE
  5
276
330
1F
100
AcDbEntity
  8
외형선
  6
Continuous
370
    15
100
AcDbLine
 10
-83.2499999999981
 20
-24.40000000000009
 30
0.0
 11
-82.2499999999981
 21
-25.40000000000009
 31
0.0
  0
LINE
  5
277
330
1F
100
AcDbEntity
  8
외형선
  6
Continuous
370
    15
100
AcDbLine
 10
-82.2499999999981
 20
19.86279999999999
 30
0.0
 11
-82.2499999999981
 21
-25.40000000000009
 31
0.0
  0
LINE
  5
278
330
1F
100
AcDbEntity
  8
외형선
  6
Continuous
370
    15
100
AcDbLine
 10
-83.2499999999981
 20
19.86279999999999
 30
0.0
 11
-83.2499999999981
 21
-24.40000000000009
 31
0.0
  0
LINE
  5
279
330
1F
100
AcDbEntity
  8
중심선
 62
     1
100
AcDbLine
 10
-86.2499999999981
 20
0.0
 30
0.0
 11
91.20000000000189
 21
0.0
 31
0.0
  0
CIRCLE
  5
27A
330
1F
100
AcDbEntity
  8
해칭선
100
AcDbCircle
 10
0.00000000000189
 20
0.0
 30
0.0
 40
2.999999999999995
  0
INSERT
  5
27B
330
1F
100
AcDbEntity
  8
해칭선
100
AcDbBlockReference
  2
SW_DOWELSYMBOL_0
 10
0.00000000000189
 20
0.0
 30
0.0
  0
LINE
  5
27C
330
1F
100
AcDbEntity
  8
외형선
  6
Continuous
370
    15
100
AcDbLine
 10
-47.68999999999809
 20
-14.82489881786728
 30
0.0
 11
-47.68999999999809
 21
14.82489881786717
 31
0.0
  0
LINE
  5
27D
330
1F
100
AcDbEntity
  8
외형선
  6
Continuous
370
    15
100
AcDbLine
 10
-47.68999999999809
 20
14.82489881786717
 30
0.0
 11
-29.90999999999809
 21
14.82489881786717
 31
0.0
  0
LINE
  5
27E
330
1F
100
AcDbEntity
  8
외형선
  6
Continuous
370
    15
100
AcDbLine
 10
-47.68999999999809
 20
-14.82489881786728
 30
0.0
 11
-29.90999999999809
 21
-14.82489881786728
 31
0.0
  0
LINE
  5
27F
330
1F
100
AcDbEntity
  8
외형선
  6
Continuous
370
    15
100
AcDbLine
 10
-29.90999999999809
 20
14.82489881786717
 30
0.0
 11
-29.90999999999809
 21
-14.82489881786728
 31
0.0
  0
SPLINE
  5
280
330
1F
100
AcDbEntity
  8
외형선
  6
Continuous
370
    15
100
AcDbSpline
210
0.0
220
0.0
230
1.0
 70
  1064
 71
     3
 72
     9
 73
     5
 74
     3
 42
0.000000001
 43
0.0000000001
 44
0.0
 40
0.0
 40
0.0
 40
0.0
 40
0.0
 40
15.44052883416384
 40
30.88105766832778
 40
30.88105766832778
 40
30.88105766832778
 40
30.88105766832778
 10
-47.68999999999809
 20
14.82489881786717
 30
0.0
 10
-49.84825773012705
 20
9.883265878578115
 30
0.0
 10
-54.16477319038496
 20
-0.0000000000000338
 30
0.0
 10
-49.84825773012705
 20
-9.883265878578186
 30
0.0
 10
-47.68999999999809
 20
-14.82489881786728
 30
0.0
 11
-47.68999999999809
 21
14.82489881786717
 31
0.0
 11
-52.006515460256
 21
0.0
 31
0.0
 11
-47.68999999999809
 21
-14.82489881786728
 31
0.0
  0
SPLINE
  5
281
330
1F
100
AcDbEntity
  8
외형선
  6
Continuous
370
    15
100
AcDbSpline
210
0.0
220
0.0
230
1.0
 70
  1064
 71
     3
 72
     9
 73
     5
 74
     3
 42
0.000000001
 43
0.0000000001
 44
0.0
 40
0.0
 40
0.0
 40
0.0
 40
0.0
 40
15.44052883416385
 40
30.8810576683278
 40
30.8810576683278
 40
30.8810576683278
 40
30.8810576683278
 10
-29.90999999999809
 20
14.82489881786717
 30
0.0
 10
-27.75174226986914
 20
9.883265878578117
 30
0.0
 10
-23.4352268096112
 20
-0.0000000000000346
 30
0.0
 10
-27.75174226986912
 20
-9.883265878578188
 30
0.0
 10
-29.90999999999809
 20
-14.82489881786728
 30
0.0
 11
-29.90999999999809
 21
14.82489881786717
 31
0.0
 11
-25.59348453974016
 21
0.0
 31
0.0
 11
-29.90999999999809
 21
-14.82489881786728
 31
0.0
  0
LINE
  5
282
330
1F
100
AcDbEntity
  8
외형선
  6
Continuous
370
    15
100
AcDbLine
 10
-61.02499999999813
 20
25.39999999999998
 30
0.0
 11
-61.02499999999813
 21
-25.40000000000009
 31
0.0
  0
LINE
  5
283
330
1F
100
AcDbEntity
  8
외형선
  6
Continuous
370
    15
100
AcDbLine
 10
-73.72499999999812
 20
19.86279999999999
 30
0.0
 11
-73.72499999999812
 21
-25.40000000000009
 31
0.0
  0
LINE
  5
284
330
1F
100
AcDbEntity
  8
외형선
  6
Continuous
370
    15
100
AcDbLine
 10
-61.02499999999813
 20
-25.40000000000009
 30
0.0
 11
12.0000000000019
 21
-25.40000000000009
 31
0.0
  0
LINE
  5
285
330
1F
100
AcDbEntity
  8
외형선
  6
Continuous
370
    15
100
AcDbLine
 10
-61.02499999999813
 20
25.01900000000001
 30
0.0
 11
-61.02499999999813
 21
-25.01900000000001
 31
0.0
  0
LINE
  5
286
330
1F
100
AcDbEntity
  8
외형선
  6
Continuous
370
    15
100
AcDbLine
 10
-61.02499999999813
 20
25.01900000000001
 30
0.0
 11
-61.5968037668155
 21
25.01900000000001
 31
0.0
  0
LINE
  5
287
330
1F
100
AcDbEntity
  8
외형선
  6
Continuous
370
    15
100
AcDbLine
 10
-61.02499999999813
 20
-25.01900000000001
 30
0.0
 11
-73.72499999999812
 21
-25.01900000000001
 31
0.0
  0
LINE
  5
288
330
1F
100
AcDbEntity
  8
외형선
  6
Continuous
370
    15
100
AcDbLine
 10
-48.45199999999809
 20
22.91079999999999
 30
0.0
 11
-30.67199999999806
 21
22.91079999999999
 31
0.0
  0
LINE
  5
289
330
1F
100
AcDbEntity
  8
외형선
  6
Continuous
370
    15
100
AcDbLine
 10
-48.45199999999809
 20
22.91079999999999
 30
0.0
 11
-50.94119999999808
 21
25.39999999999998
 31
0.0
  0
LINE
  5
28A
330
1F
100
AcDbEntity
  8
외형선
  6
Continuous
370
    15
100
AcDbLine
 10
-30.67199999999806
 20
22.91079999999999
 30
0.0
 11
-28.18279999999808
 21
25.39999999999998
 31
0.0
  0
LINE
  5
28B
330
1F
100
AcDbEntity
  8
외형선
  6
Continuous
370
    15
100
AcDbLine
 10
-50.94119999999808
 20
25.39999999999998
 30
0.0
 11
-61.02499999999813
 21
25.39999999999998
 31
0.0
  0
LINE
  5
28C
330
1F
100
AcDbEntity
  8
외형선
  6
Continuous
370
    15
100
AcDbLine
 10
-62.09179999999807
 20
23.07205154696237
 30
0.0
 11
-62.09179999999807
 21
-6.942039972351495
 31
0.0
  0
LINE
  5
28D
330
1F
100
AcDbEntity
  8
외형선
  6
Continuous
370
    15
100
AcDbLine
 10
-82.2499999999981
 20
19.86279999999999
 30
0.0
 11
-82.2499999999981
 21
-25.40000000000009
 31
0.0
  0
LINE
  5
28E
330
1F
100
AcDbEntity
  8
외형선
  6
Continuous
370
    15
100
AcDbLine
 10
-67.92357134821518
 20
19.86279999999999
 30
0.0
 11
-83.2499999999981
 21
19.86279999999999
 31
0.0
  0
ARC
  5
28F
330
1F
100
AcDbEntity
  8
외형선
  6
Continuous
370
    15
100
AcDbCircle
 10
-67.17179999999811
 20
25.39999999999998
 30
0.0
 40
5.588
100
AcDbArc
 50
262.2683738127861
 51
356.090436475341
  0
LINE
  5
290
330
1F
100
AcDbEntity
  8
외형선
  6
Continuous
370
    15
100
AcDbLine
 10
-71.87515845852269
 20
19.86279999999999
 30
0.0
 11
-71.87515845852269
 21
-6.942039972351495
 31
0.0
  0
ARC
  5
291
330
1F
100
AcDbEntity
  8
외형선
  6
Continuous
370
    15
100
AcDbCircle
 10
-66.98347922926038
 20
-6.942039972351495
 30
0.0
 40
4.891679229262294
100
AcDbArc
 50
180.0
 51
0.0
  0
ENDSEC
  0
SECTION
  2
OBJECTS
  0
DICTIONARY
  5
C
330
0
100
AcDbDictionary
281
     1
  3
ACAD_GROUP
350
D
  3
ACAD_IMAGE_VARS
350
208
  3
ACAD_LAYOUT
350
1A
  3
ACAD_MLINESTYLE
350
17
  3
ACAD_PLOTSETTINGS
350
19
  3
ACAD_PLOTSTYLENAME
350
E
  3
ACAD_SCALELIST
350
47
  3
APPDATA
350
14F
  3
DWGPROPS
350
2B6
  0
DICTIONARY
  5
185
330
2
100
AcDbDictionary
280
     1
281
     1
  3
ACAD_LAYERSTATES
360
186
  0
DICTIONARY
  5
D
102
{ACAD_REACTORS
330
C
102
}
330
C
100
AcDbDictionary
281
     1
  0
RASTERVARIABLES
  5
208
102
{ACAD_REACTORS
330
C
102
}
330
C
100
AcDbRasterVariables
 90
        0
 70
     1
 71
     1
 72
     1
  0
DICTIONARY
  5
1A
102
{ACAD_REACTORS
330
C
102
}
330
C
100
AcDbDictionary
281
     1
  3
Layout1
350
1E
  3
Layout2
350
26
  3
Model
350
22
  0
DICTIONARY
  5
17
102
{ACAD_REACTORS
330
C
102
}
330
C
100
AcDbDictionary
281
     1
  3
Standard
350
18
  0
DICTIONARY
  5
19
102
{ACAD_REACTORS
330
C
102
}
330
C
100
AcDbDictionary
281
     1
  0
ACDBDICTIONARYWDFLT
  5
E
102
{ACAD_REACTORS
330
C
102
}
330
C
100
AcDbDictionary
281
     1
  3
Normal
350
F
100
AcDbDictionaryWithDefault
340
F
  0
DICTIONARY
  5
47
102
{ACAD_REACTORS
330
C
102
}
330
C
100
AcDbDictionary
281
     1
  3
A0
350
48
  3
A1
350
49
  3
A2
350
4A
  3
A3
350
4B
  3
A4
350
4C
  3
A5
350
4D
  3
A6
350
4E
  3
A7
350
4F
  3
A8
350
50
  3
A9
350
51
  3
B0
350
52
  3
B1
350
53
  3
B2
350
54
  3
B3
350
55
  3
B4
350
56
  3
B5
350
57
  3
B6
350
58
  3
B7
350
59
  3
B8
350
5A
  3
B9
350
5B
  3
C0
350
5C
  3
C1
350
5D
  3
C2
350
5E
  3
C3
350
5F
  3
C4
350
60
  3
C5
350
61
  3
C6
350
62
  3
C7
350
63
  3
C8
350
64
  3
C9
350
65
  3
D0
350
66
  3
D1
350
67
  3
D2
350
68
  0
DICTIONARY
  5
14F
102
{ACAD_REACTORS
330
C
102
}
330
C
100
AcDbDictionary
281
     1
  0
XRECORD
  5
2B6
102
{ACAD_REACTORS
330
C
102
}
330
C
100
AcDbXrecord
280
     1
  1
DWGPROPS COOKIE
  2

  3

  4

  6

  7

  8
12016016
  9

300
=
301
=
302
=
303
=
304
=
305
=
306
=
307
=
308
=
309
=
 40
0.0
 41
2458323.063567975
 42
2458330.390816042
  1

 90
        0
  0
DICTIONARY
  5
186
102
{ACAD_REACTORS
330
185
102
}
330
185
100
AcDbDictionary
281
     1
  0
LAYOUT
  5
1E
102
{ACAD_REACTORS
330
1A
102
}
330
1A
100
AcDbPlotSettings
  1

  2
none_device
  4

  6

 40
0.0
 41
0.0
 42
0.0
 43
0.0
 44
0.0
 45
0.0
 46
0.0
 47
0.0
 48
0.0
 49
0.0
140
0.0
141
0.0
142
1.0
143
1.0
 70
   688
 72
     1
 73
     0
 74
     5
  7

 75
    16
147
1.0
148
0.0
149
0.0
100
AcDbLayout
  1
Layout1
 70
     1
 71
     1
 10
0.0
 20
0.0
 11
420.0
 21
297.0
 12
0.0
 22
0.0
 32
0.0
 14
1.000000000000000E+20
 24
1.000000000000000E+20
 34
1.000000000000000E+20
 15
-1.000000000000000E+20
 25
-1.000000000000000E+20
 35
-1.000000000000000E+20
146
0.0
 13
0.0
 23
0.0
 33
0.0
 16
1.0
 26
0.0
 36
0.0
 17
0.0
 27
1.0
 37
0.0
 76
     0
330
1B
  0
LAYOUT
  5
26
102
{ACAD_REACTORS
330
1A
102
}
330
1A
100
AcDbPlotSettings
  1

  2
none_device
  4

  6

 40
0.0
 41
0.0
 42
0.0
 43
0.0
 44
0.0
 45
0.0
 46
0.0
 47
0.0
 48
0.0
 49
0.0
140
0.0
141
0.0
142
1.0
143
1.0
 70
   688
 72
     1
 73
     0
 74
     5
  7

 75
    16
147
1.0
148
0.0
149
0.0
100
AcDbLayout
  1
Layout2
 70
     1
 71
     2
 10
0.0
 20
0.0
 11
0.0
 21
0.0
 12
0.0
 22
0.0
 32
0.0
 14
0.0
 24
0.0
 34
0.0
 15
0.0
 25
0.0
 35
0.0
146
0.0
 13
0.0
 23
0.0
 33
0.0
 16
1.0
 26
0.0
 36
0.0
 17
0.0
 27
1.0
 37
0.0
 76
     0
330
23
  0
LAYOUT
  5
22
102
{ACAD_REACTORS
330
1A
102
}
330
1A
100
AcDbPlotSettings
  1

  2
none_device
  4
ANSI_A_(11.00_x_8.50_Inches)
  6

 40
6.35
 41
19.05
 42
6.35000508
 43
19.05000254
 44
279.4
 45
215.9
 46
62.28243294049711
 47
73.07021391816443
 48
0.0
 49
0.0
140
0.0
141
0.0
142
0.0425057914709504
143
1.0
 70
  1696
 72
     0
 73
     0
 74
     0
  7

 75
     0
147
0.0235690232323232
148
0.0
149
0.0
100
AcDbLayout
  1
Model
 70
     1
 71
     0
 10
0.0
 20
0.0
 11
420.0
 21
297.0
 12
0.0
 22
0.0
 32
0.0
 14
-103.1249999999982
 24
-49.97180738881175
 34
0.0
 15
91.20000000000189
 25
60.27499999999997
 35
0.0
146
0.0
 13
0.0
 23
0.0
 33
0.0
 16
1.0
 26
0.0
 36
0.0
 17
0.0
 27
1.0
 37
0.0
 76
     0
330
1F
331
29
  0
MLINESTYLE
  5
18
102
{ACAD_REACTORS
330
17
102
}
330
17
100
AcDbMlineStyle
  2
Standard
 70
     0
  3

 62
   256
 51
90.0
 52
90.0
 71
     2
 49
0.5
 62
   256
  6
BYLAYER
 49
-0.5
 62
   256
  6
BYLAYER
  0
ACDBPLACEHOLDER
  5
F
102
{ACAD_REACTORS
330
E
102
}
330
E
  0
SCALE
  5
48
102
{ACAD_REACTORS
330
47
102
}
330
47
100
AcDbScale
 70
     0
300
1:1
140
1.0
141
1.0
290
     1
  0
SCALE
  5
49
102
{ACAD_REACTORS
330
47
102
}
330
47
100
AcDbScale
 70
     0
300
1:2
140
1.0
141
2.0
290
     0
  0
SCALE
  5
4A
102
{ACAD_REACTORS
330
47
102
}
330
47
100
AcDbScale
 70
     0
300
1:4
140
1.0
141
4.0
290
     0
  0
SCALE
  5
4B
102
{ACAD_REACTORS
330
47
102
}
330
47
100
AcDbScale
 70
     0
300
1:5
140
1.0
141
5.0
290
     0
  0
SCALE
  5
4C
102
{ACAD_REACTORS
330
47
102
}
330
47
100
AcDbScale
 70
     0
300
1:8
140
1.0
141
8.0
290
     0
  0
SCALE
  5
4D
102
{ACAD_REACTORS
330
47
102
}
330
47
100
AcDbScale
 70
     0
300
1:10
140
1.0
141
10.0
290
     0
  0
SCALE
  5
4E
102
{ACAD_REACTORS
330
47
102
}
330
47
100
AcDbScale
 70
     0
300
1:16
140
1.0
141
16.0
290
     0
  0
SCALE
  5
4F
102
{ACAD_REACTORS
330
47
102
}
330
47
100
AcDbScale
 70
     0
300
1:20
140
1.0
141
20.0
290
     0
  0
SCALE
  5
50
102
{ACAD_REACTORS
330
47
102
}
330
47
100
AcDbScale
 70
     0
300
1:30
140
1.0
141
30.0
290
     0
  0
SCALE
  5
51
102
{ACAD_REACTORS
330
47
102
}
330
47
100
AcDbScale
 70
     0
300
1:40
140
1.0
141
40.0
290
     0
  0
SCALE
  5
52
102
{ACAD_REACTORS
330
47
102
}
330
47
100
AcDbScale
 70
     0
300
1:50
140
1.0
141
50.0
290
     0
  0
SCALE
  5
53
102
{ACAD_REACTORS
330
47
102
}
330
47
100
AcDbScale
 70
     0
300
1:100
140
1.0
141
100.0
290
     0
  0
SCALE
  5
54
102
{ACAD_REACTORS
330
47
102
}
330
47
100
AcDbScale
 70
     0
300
2:1
140
2.0
141
1.0
290
     0
  0
SCALE
  5
55
102
{ACAD_REACTORS
330
47
102
}
330
47
100
AcDbScale
 70
     0
300
4:1
140
4.0
141
1.0
290
     0
  0
SCALE
  5
56
102
{ACAD_REACTORS
330
47
102
}
330
47
100
AcDbScale
 70
     0
300
8:1
140
8.0
141
1.0
290
     0
  0
SCALE
  5
57
102
{ACAD_REACTORS
330
47
102
}
330
47
100
AcDbScale
 70
     0
300
10:1
140
10.0
141
1.0
290
     0
  0
SCALE
  5
58
102
{ACAD_REACTORS
330
47
102
}
330
47
100
AcDbScale
 70
     0
300
100:1
140
100.0
141
1.0
290
     0
  0
SCALE
  5
59
102
{ACAD_REACTORS
330
47
102
}
330
47
100
AcDbScale
 70
     0
300
1/128" = 1'-0"
140
0.0078125
141
12.0
290
     0
  0
SCALE
  5
5A
102
{ACAD_REACTORS
330
47
102
}
330
47
100
AcDbScale
 70
     0
300
1/64" = 1'-0"
140
0.015625
141
12.0
290
     0
  0
SCALE
  5
5B
102
{ACAD_REACTORS
330
47
102
}
330
47
100
AcDbScale
 70
     0
300
1/32" = 1'-0"
140
0.03125
141
12.0
290
     0
  0
SCALE
  5
5C
102
{ACAD_REACTORS
330
47
102
}
330
47
100
AcDbScale
 70
     0
300
1/16" = 1'-0"
140
0.0625
141
12.0
290
     0
  0
SCALE
  5
5D
102
{ACAD_REACTORS
330
47
102
}
330
47
100
AcDbScale
 70
     0
300
3/32" = 1'-0"
140
0.09375
141
12.0
290
     0
  0
SCALE
  5
5E
102
{ACAD_REACTORS
330
47
102
}
330
47
100
AcDbScale
 70
     0
300
1/8" = 1'-0"
140
0.125
141
12.0
290
     0
  0
SCALE
  5
5F
102
{ACAD_REACTORS
330
47
102
}
330
47
100
AcDbScale
 70
     0
300
3/16" = 1'-0"
140
0.1875
141
12.0
290
     0
  0
SCALE
  5
60
102
{ACAD_REACTORS
330
47
102
}
330
47
100
AcDbScale
 70
     0
300
1/4" = 1'-0"
140
0.25
141
12.0
290
     0
  0
SCALE
  5
61
102
{ACAD_REACTORS
330
47
102
}
330
47
100
AcDbScale
 70
     0
300
3/8" = 1'-0"
140
0.375
141
12.0
290
     0
  0
SCALE
  5
62
102
{ACAD_REACTORS
330
47
102
}
330
47
100
AcDbScale
 70
     0
300
1/2" = 1'-0"
140
0.5
141
12.0
290
     0
  0
SCALE
  5
63
102
{ACAD_REACTORS
330
47
102
}
330
47
100
AcDbScale
 70
     0
300
3/4" = 1'-0"
140
0.75
141
12.0
290
     0
  0
SCALE
  5
64
102
{ACAD_REACTORS
330
47
102
}
330
47
100
AcDbScale
 70
     0
300
1" = 1'-0"
140
1.0
141
12.0
290
     0
  0
SCALE
  5
65
102
{ACAD_REACTORS
330
47
102
}
330
47
100
AcDbScale
 70
     0
300
1-1/2" = 1'-0"
140
1.5
141
12.0
290
     0
  0
SCALE
  5
66
102
{ACAD_REACTORS
330
47
102
}
330
47
100
AcDbScale
 70
     0
300
3" = 1'-0"
140
3.0
141
12.0
290
     0
  0
SCALE
  5
67
102
{ACAD_REACTORS
330
47
102
}
330
47
100
AcDbScale
 70
     0
300
6" = 1'-0"
140
6.0
141
12.0
290
     0
  0
SCALE
  5
68
102
{ACAD_REACTORS
330
47
102
}
330
47
100
AcDbScale
 70
     0
300
1'-0" = 1'-0"
140
12.0
141
12.0
290
     0
  0
ENDSEC
  0
EOF
