  0
SECTION
  2
HEADER
  9
$ACADVER
  1
AC1015
  9
$ACADMAINTVER
 70
     6
  9
$DWGCODEPAGE
  3
ANSI_949
  9
$INSBASE
 10
0.0
 20
0.0
 30
0.0
  9
$EXTMIN
 10
-81.37499999999825
 20
-49.97180738881175
 30
0.0
  9
$EXTMAX
 10
87.75098381534752
 20
58.22899999999986
 30
0.0
  9
$LIMMIN
 10
0.0
 20
0.0
  9
$LIMMAX
 10
420.0
 20
297.0
  9
$ORTHOMODE
 70
     1
  9
$REGENMODE
 70
     1
  9
$FILLMODE
 70
     1
  9
$QTEXTMODE
 70
     0
  9
$MIRRTEXT
 70
     1
  9
$LTSCALE
 40
1.0
  9
$ATTMODE
 70
     1
  9
$TEXTSIZE
 40
3.5
  9
$TRACEWID
 40
1.0
  9
$TEXTSTYLE
  7
Standard
  9
$CLAYER
  8
0
  9
$CELTYPE
  6
ByLayer
  9
$CECOLOR
 62
   256
  9
$CELTSCALE
 40
1.0
  9
$DISPSILH
 70
     0
  9
$DIMSCALE
 40
1.0
  9
$DIMASZ
 40
3.302
  9
$DIMEXO
 40
1.0
  9
$DIMDLI
 40
3.75
  9
$DIMRND
 40
0.0
  9
$DIMDLE
 40
0.0
  9
$DIMEXE
 40
1.0
  9
$DIMTP
 40
0.0
  9
$DIMTM
 40
0.0
  9
$DIMTXT
 40
3.5
  9
$DIMCEN
 40
2.5
  9
$DIMTSZ
 40
0.0
  9
$DIMTOL
 70
     0
  9
$DIMLIM
 70
     0
  9
$DIMTIH
 70
     1
  9
$DIMTOH
 70
     1
  9
$DIMSE1
 70
     0
  9
$DIMSE2
 70
     0
  9
$DIMTAD
 70
     1
  9
$DIMZIN
 70
     0
  9
$DIMBLK
  1

  9
$DIMASO
 70
     1
  9
$DIMSHO
 70
     1
  9
$DIMPOST
  1

  9
$DIMAPOST
  1

  9
$DIMALT
 70
     0
  9
$DIMALTD
 70
     3
  9
$DIMALTF
 40
0.0393700787401575
  9
$DIMLFAC
 40
1.0
  9
$DIMTOFL
 70
     1
  9
$DIMTVP
 40
0.0
  9
$DIMTIX
 70
     0
  9
$DIMSOXD
 70
     0
  9
$DIMSAH
 70
     0
  9
$DIMBLK1
  1

  9
$DIMBLK2
  1

  9
$DIMSTYLE
  2
ISO-25
  9
$DIMCLRD
 70
     0
  9
$DIMCLRE
 70
     0
  9
$DIMCLRT
 70
     0
  9
$DIMTFAC
 40
1.0
  9
$DIMGAP
 40
1.524
  9
$DIMJUST
 70
     0
  9
$DIMSD1
 70
     0
  9
$DIMSD2
 70
     0
  9
$DIMTOLJ
 70
     0
  9
$DIMTZIN
 70
     0
  9
$DIMALTZ
 70
     0
  9
$DIMALTTZ
 70
     0
  9
$DIMUPT
 70
     0
  9
$DIMDEC
 70
     2
  9
$DIMTDEC
 70
     2
  9
$DIMALTU
 70
     2
  9
$DIMALTTD
 70
     3
  9
$DIMTXSTY
  7
Standard
  9
$DIMAUNIT
 70
     0
  9
$DIMADEC
 70
     2
  9
$DIMALTRND
 40
0.0
  9
$DIMAZIN
 70
     0
  9
$DIMDSEP
 70
    44
  9
$DIMATFIT
 70
     3
  9
$DIMFRAC
 70
     0
  9
$DIMLDRBLK
  1

  9
$DIMLUNIT
 70
     2
  9
$DIMLWD
 70
    -2
  9
$DIMLWE
 70
    -2
  9
$DIMTMOVE
 70
     0
  9
$LUNITS
 70
     2
  9
$LUPREC
 70
     2
  9
$SKETCHINC
 40
1.0
  9
$FILLETRAD
 40
10.0
  9
$AUNITS
 70
     0
  9
$AUPREC
 70
     2
  9
$MENU
  1
.
  9
$ELEVATION
 40
0.0
  9
$PELEVATION
 40
0.0
  9
$THICKNESS
 40
0.0
  9
$LIMCHECK
 70
     0
  9
$CHAMFERA
 40
0.0
  9
$CHAMFERB
 40
0.0
  9
$CHAMFERC
 40
0.0
  9
$CHAMFERD
 40
0.0
  9
$SKPOLY
 70
     0
  9
$TDCREATE
 40
2458323.477572558
  9
$TDUCREATE
 40
2458323.102572558
  9
$TDUPDATE
 40
2458330.765761342
  9
$TDUUPDATE
 40
2458330.390761342
  9
$TDINDWG
 40
0.0015515162
  9
$TDUSRTIMER
 40
2458330.39072493
  9
$USRTIMER
 70
     1
  9
$ANGBASE
 50
0.0
  9
$ANGDIR
 70
     0
  9
$PDMODE
 70
     0
  9
$PDSIZE
 40
-1.0
  9
$PLINEWID
 40
0.0
  9
$SPLFRAME
 70
     0
  9
$SPLINETYPE
 70
     6
  9
$SPLINESEGS
 70
     8
  9
$HANDSEED
  5
284
  9
$SURFTAB1
 70
     6
  9
$SURFTAB2
 70
     6
  9
$SURFTYPE
 70
     6
  9
$SURFU
 70
     6
  9
$SURFV
 70
     6
  9
$UCSBASE
  2

  9
$UCSNAME
  2

  9
$UCSORG
 10
0.0
 20
0.0
 30
0.0
  9
$UCSXDIR
 10
1.0
 20
0.0
 30
0.0
  9
$UCSYDIR
 10
0.0
 20
1.0
 30
0.0
  9
$UCSORTHOREF
  2

  9
$UCSORTHOVIEW
 70
     0
  9
$UCSORGTOP
 10
0.0
 20
0.0
 30
0.0
  9
$UCSORGBOTTOM
 10
0.0
 20
0.0
 30
0.0
  9
$UCSORGLEFT
 10
0.0
 20
0.0
 30
0.0
  9
$UCSORGRIGHT
 10
0.0
 20
0.0
 30
0.0
  9
$UCSORGFRONT
 10
0.0
 20
0.0
 30
0.0
  9
$UCSORGBACK
 10
0.0
 20
0.0
 30
0.0
  9
$PUCSBASE
  2

  9
$PUCSNAME
  2

  9
$PUCSORG
 10
0.0
 20
0.0
 30
0.0
  9
$PUCSXDIR
 10
1.0
 20
0.0
 30
0.0
  9
$PUCSYDIR
 10
0.0
 20
1.0
 30
0.0
  9
$PUCSORTHOREF
  2

  9
$PUCSORTHOVIEW
 70
     0
  9
$PUCSORGTOP
 10
0.0
 20
0.0
 30
0.0
  9
$PUCSORGBOTTOM
 10
0.0
 20
0.0
 30
0.0
  9
$PUCSORGLEFT
 10
0.0
 20
0.0
 30
0.0
  9
$PUCSORGRIGHT
 10
0.0
 20
0.0
 30
0.0
  9
$PUCSORGFRONT
 10
0.0
 20
0.0
 30
0.0
  9
$PUCSORGBACK
 10
0.0
 20
0.0
 30
0.0
  9
$USERI1
 70
     0
  9
$USERI2
 70
     0
  9
$USERI3
 70
     0
  9
$USERI4
 70
     0
  9
$USERI5
 70
     0
  9
$USERR1
 40
0.0
  9
$USERR2
 40
0.0
  9
$USERR3
 40
0.0
  9
$USERR4
 40
0.0
  9
$USERR5
 40
0.0
  9
$WORLDVIEW
 70
     1
  9
$SHADEDGE
 70
     3
  9
$SHADEDIF
 70
    70
  9
$TILEMODE
 70
     1
  9
$MAXACTVP
 70
    64
  9
$PINSBASE
 10
0.0
 20
0.0
 30
0.0
  9
$PLIMCHECK
 70
     0
  9
$PEXTMIN
 10
1.000000000000000E+20
 20
1.000000000000000E+20
 30
1.000000000000000E+20
  9
$PEXTMAX
 10
-1.000000000000000E+20
 20
-1.000000000000000E+20
 30
-1.000000000000000E+20
  9
$PLIMMIN
 10
0.0
 20
0.0
  9
$PLIMMAX
 10
0.0
 20
0.0
  9
$UNITMODE
 70
     0
  9
$VISRETAIN
 70
     1
  9
$PLINEGEN
 70
     0
  9
$PSLTSCALE
 70
     1
  9
$TREEDEPTH
 70
  3020
  9
$CMLSTYLE
  2
Standard
  9
$CMLJUST
 70
     0
  9
$CMLSCALE
 40
20.0
  9
$PROXYGRAPHICS
 70
     1
  9
$MEASUREMENT
 70
     1
  9
$CELWEIGHT
370
    -1
  9
$ENDCAPS
280
     0
  9
$JOINSTYLE
280
     0
  9
$LWDISPLAY
290
     1
  9
$INSUNITS
 70
     4
  9
$HYPERLINKBASE
  1

  9
$STYLESHEET
  1

  9
$XEDIT
290
     1
  9
$CEPSNTYPE
380
     0
  9
$PSTYLEMODE
290
     1
  9
$FINGERPRINTGUID
  2
{EEC009E9-18C8-451B-A4C2-327D8A85C4CB}
  9
$VERSIONGUID
  2
{FAEB1C32-E019-11D5-929B-00C0DF256EC4}
  9
$EXTNAMES
290
     1
  9
$PSVPSCALE
 40
0.0
  9
$OLESTARTUP
290
     0
  0
ENDSEC
  0
SECTION
  2
CLASSES
  0
CLASS
  1
ACDBDICTIONARYWDFLT
  2
AcDbDictionaryWithDefault
  3
ObjectDBX Classes
 90
        0
280
     0
281
     0
  0
CLASS
  1
VISUALSTYLE
  2
AcDbVisualStyle
  3
ObjectDBX Classes
 90
     4095
280
     0
281
     0
  0
CLASS
  1
MATERIAL
  2
AcDbMaterial
  3
ObjectDBX Classes
 90
     1153
280
     0
281
     0
  0
CLASS
  1
SCALE
  2
AcDbScale
  3
ObjectDBX Classes
 90
     1153
280
     0
281
     0
  0
CLASS
  1
SUN
  2
AcDbSun
  3
SCENEOE
 90
     1153
280
     0
281
     0
  0
CLASS
  1
ACDBPLACEHOLDER
  2
AcDbPlaceHolder
  3
ObjectDBX Classes
 90
        0
280
     0
281
     0
  0
CLASS
  1
LAYOUT
  2
AcDbLayout
  3
ObjectDBX Classes
 90
        0
280
     0
281
     0
  0
CLASS
  1
TABLESTYLE
  2
AcDbTableStyle
  3
ObjectDBX Classes
 90
     4095
280
     0
281
     0
  0
CLASS
  1
MLEADERSTYLE
  2
AcDbMLeaderStyle
  3
ACDB_MLEADERSTYLE_CLASS
 90
     4095
280
     0
281
     0
  0
CLASS
  1
DICTIONARYVAR
  2
AcDbDictionaryVar
  3
ObjectDBX Classes
 90
        0
280
     0
281
     0
  0
CLASS
  1
RASTERVARIABLES
  2
AcDbRasterVariables
  3
ISM
 90
        0
280
     0
281
     0
  0
ENDSEC
  0
SECTION
  2
TABLES
  0
TABLE
  2
VPORT
  5
8
330
0
100
AcDbSymbolTable
 70
     1
  0
VPORT
  5
29
330
8
100
AcDbSymbolTableRecord
100
AcDbViewportTableRecord
  2
*Active
 70
     0
 10
0.0
 20
0.0
 11
1.0
 21
1.0
 12
3.187991907674629
 22
4.128596305594051
 13
0.0
 23
0.0
 14
10.0
 24
10.0
 15
10.0
 25
10.0
 16
0.0
 26
0.0
 36
1.0
 17
0.0
 27
0.0
 37
0.0
 40
110.3648235365878
 41
1.782762691853601
 42
50.0
 43
0.0
 44
0.0
 50
0.0
 51
0.0
 71
    16
 72
  2000
 73
     1
 74
     3
 75
     0
 76
     0
 77
     0
 78
     0
281
     0
 65
     1
110
0.0
120
0.0
130
0.0
111
1.0
121
0.0
131
0.0
112
0.0
122
1.0
132
0.0
 79
     0
146
0.0
  0
ENDTAB
  0
TABLE
  2
LTYPE
  5
5
330
0
100
AcDbSymbolTable
 70
     6
  0
LTYPE
  5
14
330
5
100
AcDbSymbolTableRecord
100
AcDbLinetypeTableRecord
  2
ByBlock
 70
     0
  3

 72
    65
 73
     0
 40
0.0
  0
LTYPE
  5
15
330
5
100
AcDbSymbolTableRecord
100
AcDbLinetypeTableRecord
  2
ByLayer
 70
     0
  3

 72
    65
 73
     0
 40
0.0
  0
LTYPE
  5
16
330
5
100
AcDbSymbolTableRecord
100
AcDbLinetypeTableRecord
  2
Continuous
 70
     0
  3
Solid line
 72
    65
 73
     0
 40
0.0
  0
LTYPE
  5
6A
330
5
100
AcDbSymbolTableRecord
100
AcDbLinetypeTableRecord
  2
HIDDEN
 70
     0
  3
Hidden __ __ __ __ __ __ __ __ __ __ __ __ __ __
 72
    65
 73
     2
 40
1.905
 49
1.27
 74
     0
 49
-0.635
 74
     0
  0
LTYPE
  5
6B
330
5
100
AcDbSymbolTableRecord
100
AcDbLinetypeTableRecord
  2
PHANTOM
 70
     0
  3
Phantom ______  __  __  ______  __  __  ______
 72
    65
 73
     6
 40
12.7
 49
6.35
 74
     0
 49
-1.27
 74
     0
 49
1.27
 74
     0
 49
-1.27
 74
     0
 49
1.27
 74
     0
 49
-1.27
 74
     0
  0
LTYPE
  5
6C
330
5
100
AcDbSymbolTableRecord
100
AcDbLinetypeTableRecord
  2
CENTER
 70
     0
  3
Center ____ _ ____ _ ____ _ ____ _ ____ _ ____
 72
    65
 73
     4
 40
10.16
 49
6.35
 74
     0
 49
-1.27
 74
     0
 49
1.27
 74
     0
 49
-1.27
 74
     0
  0
LTYPE
  5
6D
330
5
100
AcDbSymbolTableRecord
100
AcDbLinetypeTableRecord
  2
CENTERX2
 70
     0
  3
Center (2x) ________  __  ________  __  _____
 72
    65
 73
     4
 40
20.32
 49
12.7
 74
     0
 49
-2.54
 74
     0
 49
2.54
 74
     0
 49
-2.54
 74
     0
  0
LTYPE
  5
6E
330
5
100
AcDbSymbolTableRecord
100
AcDbLinetypeTableRecord
  2
DOT2
 70
     0
  3
Dot (.5x) ........................................
 72
    65
 73
     2
 40
0.635
 49
0.0
 74
     0
 49
-0.635
 74
     0
  0
ENDTAB
  0
TABLE
  2
LAYER
  5
2
102
{ACAD_XDICTIONARY
360
189
102
}
330
0
100
AcDbSymbolTable
 70
    18
  0
LAYER
  5
10
330
2
100
AcDbSymbolTableRecord
100
AcDbLayerTableRecord
  2
0
 70
     0
 62
     7
  6
Continuous
370
    -3
390
F
  0
LAYER
  5
6F
330
2
100
AcDbSymbolTableRecord
100
AcDbLayerTableRecord
  2
FORMAT
 70
     0
 62
     2
  6
Continuous
370
    -3
390
F
  0
LAYER
  5
70
330
2
100
AcDbSymbolTableRecord
100
AcDbLayerTableRecord
  2
외형선
 70
     0
 62
     4
  6
Continuous
370
    30
390
F
  0
LAYER
  5
71
330
2
100
AcDbSymbolTableRecord
100
AcDbLayerTableRecord
  2
숨은선
 70
     0
 62
     2
  6
HIDDEN
370
    15
390
F
  0
LAYER
  5
72
330
2
100
AcDbSymbolTableRecord
100
AcDbLayerTableRecord
  2
중심선
 70
     0
 62
     1
  6
CENTERX2
370
    -3
390
F
  0
LAYER
  5
73
330
2
100
AcDbSymbolTableRecord
100
AcDbLayerTableRecord
  2
파단선
 70
     0
 62
     4
  6
Continuous
370
    -3
390
F
  0
LAYER
  5
74
330
2
100
AcDbSymbolTableRecord
100
AcDbLayerTableRecord
  2
해칭선
 70
     0
 62
   100
  6
Continuous
370
    -3
390
F
  0
LAYER
  5
75
330
2
100
AcDbSymbolTableRecord
100
AcDbLayerTableRecord
  2
가는실선
 70
     0
 62
     4
  6
Continuous
370
    -3
390
F
  0
LAYER
  5
76
330
2
100
AcDbSymbolTableRecord
100
AcDbLayerTableRecord
  2
치수_보조선
 70
     0
 62
     4
  6
Continuous
370
    -3
390
F
  0
LAYER
  5
77
330
2
100
AcDbSymbolTableRecord
100
AcDbLayerTableRecord
  2
치수문자_일반주서
 70
     0
 62
     7
  6
Continuous
370
    15
390
F
  0
LAYER
  5
78
330
2
100
AcDbSymbolTableRecord
100
AcDbLayerTableRecord
  2
개별주서
 70
     0
 62
   100
  6
Continuous
370
    30
390
F
  0
LAYER
  5
79
330
2
100
AcDbSymbolTableRecord
100
AcDbLayerTableRecord
  2
중간선
 70
     0
 62
     2
  6
Continuous
370
    15
390
F
  0
LAYER
  5
7A
330
2
100
AcDbSymbolTableRecord
100
AcDbLayerTableRecord
  2
윤곽선
 70
     0
 62
     3
  6
Continuous
370
    40
390
F
  0
LAYER
  5
7B
330
2
100
AcDbSymbolTableRecord
100
AcDbLayerTableRecord
  2
중심마크
 70
     0
 62
   100
  6
Continuous
370
    30
390
F
  0
LAYER
  5
7C
330
2
100
AcDbSymbolTableRecord
100
AcDbLayerTableRecord
  2
가상선
 70
     0
 62
     4
  6
PHANTOM
370
    -3
390
F
  0
LAYER
  5
7D
330
2
100
AcDbSymbolTableRecord
100
AcDbLayerTableRecord
  2
특수지정선
 70
     0
 62
     5
  6
CENTERX2
370
    60
390
F
  0
LAYER
  5
7E
330
2
100
AcDbSymbolTableRecord
100
AcDbLayerTableRecord
  2
참조1
 70
     0
 62
    -4
  6
Continuous
370
    -3
390
F
  0
LAYER
  5
128
330
2
100
AcDbSymbolTableRecord
100
AcDbLayerTableRecord
  2
Defpoints
 70
     0
 62
     7
  6
Continuous
290
     0
370
    -3
390
F
  0
ENDTAB
  0
TABLE
  2
STYLE
  5
3
330
0
100
AcDbSymbolTable
 70
     2
  0
STYLE
  5
11
330
3
100
AcDbSymbolTableRecord
100
AcDbTextStyleTableRecord
  2
Standard
 70
     0
 40
0.0
 41
1.0
 50
0.0
 71
     0
 42
3.5
  3
txt
  4

  0
STYLE
  5
94
330
3
100
AcDbSymbolTableRecord
100
AcDbTextStyleTableRecord
  2
SLDTEXTSTYLE0
 70
     0
 40
0.0
 41
0.75
 50
0.0
 71
     0
 42
3.5
  3
TXT
  4

  0
ENDTAB
  0
TABLE
  2
VIEW
  5
6
330
0
100
AcDbSymbolTable
 70
     0
  0
ENDTAB
  0
TABLE
  2
UCS
  5
7
330
0
100
AcDbSymbolTable
 70
     0
  0
ENDTAB
  0
TABLE
  2
APPID
  5
9
330
0
100
AcDbSymbolTable
 70
     2
  0
APPID
  5
12
330
9
100
AcDbSymbolTableRecord
100
AcDbRegAppTableRecord
  2
ACAD
 70
     0
  0
APPID
  5
132
330
9
100
AcDbSymbolTableRecord
100
AcDbRegAppTableRecord
  2
PE_URL
 70
     0
  0
ENDTAB
  0
TABLE
  2
DIMSTYLE
  5
A
330
0
100
AcDbSymbolTable
 70
     3
100
AcDbDimStyleTable
  0
DIMSTYLE
105
27
330
A
100
AcDbSymbolTableRecord
100
AcDbDimStyleTableRecord
  2
ISO-25
 70
     0
 41
2.5
 42
0.625
 43
3.75
 44
1.25
 73
     0
 74
     0
 77
     1
 78
     8
140
2.5
141
2.5
143
0.03937007874016
147
0.625
171
     3
172
     1
178
     0
271
     2
272
     2
274
     3
278
    44
283
     0
284
     8
340
11
  0
DIMSTYLE
105
A8
102
{ACAD_REACTORS
330
A7
330
BC
330
1C4
330
E4
102
}
330
A
100
AcDbSymbolTableRecord
100
AcDbDimStyleTableRecord
  2
SLDDIMSTYLE0
 70
     0
 41
3.302
 44
0.0
 45
0.000000001
 73
     0
 74
     0
 77
     1
 78
    12
 79
     3
140
3.5
143
0.0393700787401575
147
0.875
148
0.000000001
170
     1
172
     1
173
     1
178
     0
271
     2
272
     2
276
     2
284
    12
289
     0
340
94
  0
DIMSTYLE
105
D1
330
A
100
AcDbSymbolTableRecord
100
AcDbDimStyleTableRecord
  2
SLDDIMSTYLE1
 70
     0
 41
3.302
 44
0.0
 45
0.000000001
 73
     0
 74
     0
 77
     1
 78
    12
 79
     3
140
3.5
143
0.0393700787401575
147
0.875
148
0.000000001
170
     1
173
     1
178
     0
271
     2
272
     2
276
     2
284
    12
340
94
  0
ENDTAB
  0
TABLE
  2
BLOCK_RECORD
  5
1
330
0
100
AcDbSymbolTable
 70
     9
  0
BLOCK_RECORD
  5
1F
330
1
100
AcDbSymbolTableRecord
100
AcDbBlockTableRecord
  2
*Model_Space
340
22
  0
BLOCK_RECORD
  5
1B
330
1
100
AcDbSymbolTableRecord
100
AcDbBlockTableRecord
  2
*Paper_Space
340
1E
  0
BLOCK_RECORD
  5
23
330
1
100
AcDbSymbolTableRecord
100
AcDbBlockTableRecord
  2
*Paper_Space0
340
26
  0
BLOCK_RECORD
  5
7F
330
1
100
AcDbSymbolTableRecord
100
AcDbBlockTableRecord
  2
블럭10
340
0
102
{BLKREFS
331
A0
102
}
  0
BLOCK_RECORD
  5
A9
330
1
100
AcDbSymbolTableRecord
100
AcDbBlockTableRecord
  2
_D
340
0
  0
BLOCK_RECORD
  5
BD
330
1
100
AcDbSymbolTableRecord
100
AcDbBlockTableRecord
  2
_D_1
340
0
  0
BLOCK_RECORD
  5
D2
330
1
100
AcDbSymbolTableRecord
100
AcDbBlockTableRecord
  2
_D_2
340
0
  0
BLOCK_RECORD
  5
E5
330
1
100
AcDbSymbolTableRecord
100
AcDbBlockTableRecord
  2
_D_3
340
0
  0
BLOCK_RECORD
  5
FE
330
1
100
AcDbSymbolTableRecord
100
AcDbBlockTableRecord
  2
SW_DOWELSYMBOL_0
340
0
102
{BLKREFS
331
24A
102
}
  0
BLOCK_RECORD
  5
18D
330
1
100
AcDbSymbolTableRecord
100
AcDbBlockTableRecord
  2
*D7
340
0
  0
BLOCK_RECORD
  5
1C6
330
1
100
AcDbSymbolTableRecord
100
AcDbBlockTableRecord
  2
*D8
340
0
  0
ENDTAB
  0
ENDSEC
  0
SECTION
  2
BLOCKS
  0
BLOCK
  5
20
330
1F
100
AcDbEntity
  8
0
100
AcDbBlockBegin
  2
*Model_Space
 70
     0
 10
0.0
 20
0.0
 30
0.0
  3
*Model_Space
  1
*Model_Space
  0
ENDBLK
  5
21
330
1F
100
AcDbEntity
  8
0
100
AcDbBlockEnd
  0
BLOCK
  5
1C
330
1B
100
AcDbEntity
 67
     1
  8
0
100
AcDbBlockBegin
  2
*Paper_Space
 70
     0
 10
0.0
 20
0.0
 30
0.0
  3
*Paper_Space
  1
*Paper_Space
  0
ENDBLK
  5
1D
330
1B
100
AcDbEntity
 67
     1
  8
0
100
AcDbBlockEnd
  0
BLOCK
  5
24
330
23
100
AcDbEntity
  8
0
100
AcDbBlockBegin
  2
*Paper_Space0
 70
     0
 10
0.0
 20
0.0
 30
0.0
  3
*Paper_Space0
  1
*Paper_Space0
  0
ENDBLK
  5
25
330
23
100
AcDbEntity
  8
0
100
AcDbBlockEnd
  0
BLOCK
  5
80
330
7F
100
AcDbEntity
  8
0
100
AcDbBlockBegin
  2
블럭10
 70
     2
 10
0.0
 20
0.0
 30
0.0
  3
블럭10
  1
블럭10
  0
ELLIPSE
  5
82
330
7F
100
AcDbEntity
  8
중심선
100
AcDbEllipse
 10
20.54032771741204
 20
12.0471743016438
 30
0.0
 11
6.600054785286829
 21
-1.261213355974178E-13
 31
0.0
210
0.0
220
0.0
230
1.0
 40
0.636358354079598
 41
0.9219305317359503
 42
6.513795318482858
  0
ELLIPSE
  5
83
330
7F
100
AcDbEntity
  8
중심선
100
AcDbEllipse
 10
20.54032771746488
 20
12.04717430159265
 30
0.0
 11
3.960054785062283
 21
1.540847449632565E-10
 31
0.0
210
0.0
220
0.0
230
1.0
 40
0.3939339440162632
 41
1.131841032648279
 42
5.62031148352944
  0
LINE
  5
84
330
7F
100
AcDbEntity
  8
중심선
100
AcDbLine
 10
2.268634060543552
 20
16.24717430164393
 30
0.0
 11
5.714909304380834
 21
16.24717430164393
 31
0.0
  0
LINE
  5
85
330
7F
100
AcDbEntity
  8
중심선
100
AcDbLine
 10
5.245725140726316
 20
7.84717430164391
 30
0.0
 11
8.692000384563599
 21
7.84717430164391
 31
0.0
  0
LINE
  5
86
330
7F
100
AcDbEntity
  8
중심선
100
AcDbLine
 10
15.74043728645272
 20
16.24717430164393
 30
0.0
 11
8.692000384563599
 21
7.84717430164391
 31
0.0
  0
LINE
  5
87
330
7F
100
AcDbEntity
  8
중심선
100
AcDbLine
 10
0.1404042013395286
 20
13.71084872107135
 30
0.0
 11
3.58671253028996
 21
13.71088815037384
 31
0.0
  0
LINE
  5
88
330
7F
100
AcDbEntity
  8
중심선
100
AcDbLine
 10
2.750260043222114
 20
10.84717430164391
 30
0.0
 11
6.196535287059397
 21
10.84717430164391
 31
0.0
  0
LINE
  5
89
330
7F
100
AcDbEntity
  8
중심선
100
AcDbLine
 10
12.29416204261559
 20
16.24717430164393
 30
0.0
 11
5.245725140726316
 21
7.84717430164391
 31
0.0
  0
LINE
  5
8A
330
7F
100
AcDbEntity
  8
중심선
100
AcDbLine
 10
10.72767329541681
 20
16.24717430164393
 30
0.0
 11
6.196535287059397
 21
10.84717430164391
 31
0.0
  0
LINE
  5
8B
330
7F
100
AcDbEntity
  8
중심선
100
AcDbLine
 10
7.28139805157953
 20
16.24717430164393
 30
0.0
 11
2.750260043222114
 21
10.84717430164391
 31
0.0
  0
LINE
  5
8C
330
7F
100
AcDbEntity
  8
중심선
100
AcDbLine
 10
5.714909304380834
 20
16.24717430164393
 30
0.0
 11
3.58671253028996
 21
13.71088815037384
 31
0.0
  0
LINE
  5
8D
330
7F
100
AcDbEntity
  8
중심선
100
AcDbLine
 10
2.268634060543552
 20
16.24717430164393
 30
0.0
 11
0.1404042013395286
 21
13.71084872107135
 31
0.0
  0
LINE
  5
8E
330
7F
100
AcDbEntity
  8
중심선
100
AcDbLine
 10
7.28139805157953
 20
16.24717430164393
 30
0.0
 11
10.72767329541681
 21
16.24717430164393
 31
0.0
  0
LINE
  5
8F
330
7F
100
AcDbEntity
  8
중심선
100
AcDbLine
 10
12.29416204261559
 20
16.24717430164393
 30
0.0
 11
15.74043728645272
 21
16.24717430164393
 31
0.0
  0
LINE
  5
90
330
7F
100
AcDbEntity
  8
중심선
100
AcDbLine
 10
19.22036997980202
 20
11.08717430171403
 30
0.0
 11
23.66174974927406
 21
11.08717430171406
 31
0.0
  0
LINE
  5
91
330
7F
100
AcDbEntity
  8
중심선
100
AcDbLine
 10
19.22039502424796
 20
13.00717430171391
 30
0.0
 11
19.22036997980202
 21
11.08717430171403
 31
0.0
  0
LINE
  5
92
330
7F
100
AcDbEntity
  8
중심선
100
AcDbLine
 10
19.22039502424796
 20
13.00717430171391
 30
0.0
 11
26.96566020931264
 21
13.00717430171391
 31
0.0
  0
LINE
  5
93
330
7F
100
AcDbEntity
  8
중심선
100
AcDbLine
 10
22.22332737316547
 20
13.45928029700563
 30
0.0
 11
24.52862924686651
 21
15.39360700705356
 31
0.0
  0
ATTDEF
  5
95
330
7F
100
AcDbEntity
  8
FORMAT
 62
     2
100
AcDbText
 10
4.408487351596664
 20
2.075366912832191
 30
0.0
 40
4.233333333333333
  1
E1042200
 41
0.75
  7
SLDTEXTSTYLE0
 11
4.408487351596664
 21
-0.0412997538344756
 31
0.0
100
AcDbAttributeDefinition
  3

  2
AUTOATTR0
 70
     0
 74
     1
  0
ENDBLK
  5
81
330
7F
100
AcDbEntity
  8
0
100
AcDbBlockEnd
  0
BLOCK
  5
AA
330
A9
100
AcDbEntity
  8
0
100
AcDbBlockBegin
  2
_D
 70
     0
 10
0.0
 20
0.0
 30
0.0
  3
_D
  1
_D
  0
LINE
  5
AC
330
A9
100
AcDbEntity
  8
치수문자_일반주서
 62
     0
370
    -2
100
AcDbLine
 10
52.80000000000192
 20
25.39999999999976
 30
0.0
 11
67.8000000000018
 21
25.39999999999982
 31
0.0
  0
LINE
  5
AD
330
A9
100
AcDbEntity
  8
치수문자_일반주서
 62
     0
370
    -2
100
AcDbLine
 10
52.86250000000192
 20
-25.40000000000022
 30
0.0
 11
67.80000000000197
 21
-25.40000000000017
 31
0.0
  0
LINE
  5
AE
330
A9
100
AcDbEntity
  8
치수문자_일반주서
 62
     0
370
    -2
100
AcDbLine
 10
67.8000000000018
 20
25.39999999999982
 30
0.0
 11
67.8000000000017
 21
55.25399999999982
 31
0.0
  0
LINE
  5
AF
330
A9
100
AcDbEntity
  8
치수문자_일반주서
 62
     0
370
    -2
100
AcDbLine
 10
67.8000000000018
 20
25.39999999999982
 30
0.0
 11
67.80000000000197
 21
-25.40000000000017
 31
0.0
  0
LINE
  5
B0
330
A9
100
AcDbEntity
  8
치수문자_일반주서
 62
     0
370
    -2
100
AcDbLine
 10
67.80000000000179
 20
28.70199999999982
 30
0.0
 11
67.80000000000177
 21
32.00399999999982
 31
0.0
  0
LINE
  5
B1
330
A9
100
AcDbEntity
  8
치수문자_일반주서
 62
     0
370
    -2
100
AcDbLine
 10
67.80000000000199
 20
-28.70200000000017
 30
0.0
 11
67.800000000002
 21
-32.00400000000017
 31
0.0
  0
SOLID
  5
B2
330
A9
100
AcDbEntity
  8
치수문자_일반주서
 62
     0
100
AcDbTrace
 10
67.24966666666846
 20
28.70199999999981
 30
0.0
 11
68.35033333333512
 21
28.70199999999982
 31
0.0
 12
67.8000000000018
 22
25.39999999999982
 32
0.0
 13
67.8000000000018
 23
25.39999999999982
 33
0.0
  0
SOLID
  5
B3
330
A9
100
AcDbEntity
  8
치수문자_일반주서
 62
     0
100
AcDbTrace
 10
68.35033333333531
 20
-28.70200000000017
 30
0.0
 11
67.24966666666866
 21
-28.70200000000017
 31
0.0
 12
67.80000000000197
 22
-25.40000000000017
 32
0.0
 13
67.80000000000197
 23
-25.40000000000017
 33
0.0
  0
MTEXT
  5
B4
330
A9
100
AcDbEntity
  8
치수문자_일반주서
 62
     0
100
AcDbMText
 10
62.92500000000175
 20
43.62899999999981
 30
0.0
 40
4.0
 41
0.0
 71
     2
 72
     1
  1
\A1;%%c50.8 [2]
  7
SLDTEXTSTYLE0
 11
-3.356894814614648E-15
 21
1.0
 31
0.0
 73
     1
 44
1.0
  0
POINT
  5
25C
330
A9
100
AcDbEntity
  8
Defpoints
 62
     0
100
AcDbPoint
 10
52.73750000000192
 20
25.39999999999976
 30
0.0
  0
POINT
  5
25D
330
A9
100
AcDbEntity
  8
Defpoints
 62
     0
100
AcDbPoint
 10
52.80000000000192
 20
-25.40000000000022
 30
0.0
  0
POINT
  5
25E
330
A9
100
AcDbEntity
  8
Defpoints
 62
     0
100
AcDbPoint
 10
67.80000000000197
 20
-25.40000000000017
 30
0.0
  0
ENDBLK
  5
AB
330
A9
100
AcDbEntity
  8
0
100
AcDbBlockEnd
  0
BLOCK
  5
BE
330
BD
100
AcDbEntity
  8
0
100
AcDbBlockBegin
  2
_D_1
 70
     0
 10
0.0
 20
0.0
 30
0.0
  3
_D_1
  1
_D_1
  0
LINE
  5
C0
330
BD
100
AcDbEntity
  8
치수문자_일반주서
 62
     0
370
    -2
100
AcDbLine
 10
-46.95749999999809
 20
15.87499999999995
 30
0.0
 11
-76.4999999999981
 21
15.87499999999984
 31
0.0
  0
LINE
  5
C1
330
BD
100
AcDbEntity
  8
치수문자_일반주서
 62
     0
370
    -2
100
AcDbLine
 10
-58.32499999999809
 20
-15.87500000000003
 30
0.0
 11
-76.49999999999798
 21
-15.8750000000001
 31
0.0
  0
LINE
  5
C2
330
BD
100
AcDbEntity
  8
치수문자_일반주서
 62
     0
370
    -2
100
AcDbLine
 10
-76.4999999999981
 20
15.87499999999984
 30
0.0
 11
-76.49999999999825
 21
58.22899999999986
 31
0.0
  0
LINE
  5
C3
330
BD
100
AcDbEntity
  8
치수문자_일반주서
 62
     0
370
    -2
100
AcDbLine
 10
-76.4999999999981
 20
15.87499999999984
 30
0.0
 11
-76.49999999999798
 21
-15.8750000000001
 31
0.0
  0
LINE
  5
C4
330
BD
100
AcDbEntity
  8
치수문자_일반주서
 62
     0
370
    -2
100
AcDbLine
 10
-76.49999999999811
 20
19.17699999999984
 30
0.0
 11
-76.49999999999812
 21
22.47899999999984
 31
0.0
  0
LINE
  5
C5
330
BD
100
AcDbEntity
  8
치수문자_일반주서
 62
     0
370
    -2
100
AcDbLine
 10
-76.49999999999797
 20
-19.1770000000001
 30
0.0
 11
-76.49999999999795
 21
-22.4790000000001
 31
0.0
  0
SOLID
  5
C6
330
BD
100
AcDbEntity
  8
치수문자_일반주서
 62
     0
100
AcDbTrace
 10
-77.05033333333144
 20
19.17699999999984
 30
0.0
 11
-75.94966666666478
 21
19.17699999999985
 31
0.0
 12
-76.4999999999981
 22
15.87499999999984
 32
0.0
 13
-76.4999999999981
 23
15.87499999999984
 33
0.0
  0
SOLID
  5
C7
330
BD
100
AcDbEntity
  8
치수문자_일반주서
 62
     0
100
AcDbTrace
 10
-75.94966666666464
 20
-19.1770000000001
 30
0.0
 11
-77.0503333333313
 21
-19.1770000000001
 31
0.0
 12
-76.49999999999798
 22
-15.8750000000001
 32
0.0
 13
-76.49999999999798
 23
-15.8750000000001
 33
0.0
  0
MTEXT
  5
C8
330
BD
100
AcDbEntity
  8
치수문자_일반주서
 62
     0
100
AcDbMText
 10
-81.37499999999818
 20
40.35399999999984
 30
0.0
 40
4.0
 41
0.0
 71
     2
 72
     1
  1
\A1;%%c31.75 [1 1/4]
  7
SLDTEXTSTYLE0
 11
-3.580687802255629E-15
 21
1.0
 31
0.0
 73
     1
 44
1.0
  0
POINT
  5
259
330
BD
100
AcDbEntity
  8
Defpoints
 62
     0
100
AcDbPoint
 10
-46.89499999999809
 20
15.87499999999995
 30
0.0
  0
POINT
  5
25A
330
BD
100
AcDbEntity
  8
Defpoints
 62
     0
100
AcDbPoint
 10
-58.26249999999809
 20
-15.87500000000003
 30
0.0
  0
POINT
  5
25B
330
BD
100
AcDbEntity
  8
Defpoints
 62
     0
100
AcDbPoint
 10
-76.49999999999798
 20
-15.8750000000001
 30
0.0
  0
ENDBLK
  5
BF
330
BD
100
AcDbEntity
  8
0
100
AcDbBlockEnd
  0
BLOCK
  5
D3
330
D2
100
AcDbEntity
  8
0
100
AcDbBlockBegin
  2
_D_2
 70
     0
 10
0.0
 20
0.0
 30
0.0
  3
_D_2
  1
_D_2
  0
LINE
  5
D5
330
D2
100
AcDbEntity
  8
치수문자_일반주서
 62
     0
370
    -2
100
AcDbLine
 10
78.9119459855236
 20
12.10873741649756
 30
0.0
 11
78.9119459855236
 21
22.33656116902758
 31
0.0
  0
LINE
  5
D6
330
D2
100
AcDbEntity
  8
치수문자_일반주서
 62
     0
370
    -2
100
AcDbLine
 10
33.91194598552359
 20
12.56352630229547
 30
0.0
 11
33.91194598552359
 21
22.33656116902758
 31
0.0
  0
LINE
  5
D7
330
D2
100
AcDbEntity
  8
치수문자_일반주서
 62
     0
370
    -2
100
AcDbLine
 10
75.60994598552361
 20
22.33656116902758
 30
0.0
 11
37.21394598552359
 21
22.33656116902758
 31
0.0
  0
SOLID
  5
D8
330
D2
100
AcDbEntity
  8
치수문자_일반주서
 62
     0
100
AcDbTrace
 10
75.60994598552361
 20
21.78622783569425
 30
0.0
 11
75.60994598552361
 21
22.88689450236092
 31
0.0
 12
78.9119459855236
 22
22.33656116902758
 32
0.0
 13
78.9119459855236
 23
22.33656116902758
 33
0.0
  0
SOLID
  5
D9
330
D2
100
AcDbEntity
  8
치수문자_일반주서
 62
     0
100
AcDbTrace
 10
37.21394598552359
 20
22.88689450236092
 30
0.0
 11
37.21394598552359
 21
21.78622783569425
 31
0.0
 12
33.91194598552359
 22
22.33656116902758
 32
0.0
 13
33.91194598552359
 23
22.33656116902758
 33
0.0
  0
MTEXT
  5
DA
330
D2
100
AcDbEntity
  8
치수문자_일반주서
 62
     0
100
AcDbMText
 10
56.41194598552356
 20
27.21156116902758
 30
0.0
 40
4.0
 41
0.0
 71
     2
 72
     1
  1
\A1;45 [1 99/128]
  7
SLDTEXTSTYLE0
 73
     1
 44
1.0
  0
POINT
  5
DB
330
D2
100
AcDbEntity
  8
Defpoints
 62
     0
100
AcDbPoint
 10
78.9119459855236
 20
12.04623741649756
 30
0.0
  0
POINT
  5
DC
330
D2
100
AcDbEntity
  8
Defpoints
 62
     0
100
AcDbPoint
 10
33.91194598552359
 20
12.50102630229547
 30
0.0
  0
POINT
  5
DD
330
D2
100
AcDbEntity
  8
Defpoints
 62
     0
100
AcDbPoint
 10
33.91194598552359
 20
22.33656116902759
 30
0.0
  0
ENDBLK
  5
D4
330
D2
100
AcDbEntity
  8
0
100
AcDbBlockEnd
  0
BLOCK
  5
E6
330
E5
100
AcDbEntity
  8
0
100
AcDbBlockBegin
  2
_D_3
 70
     0
 10
0.0
 20
0.0
 30
0.0
  3
_D_3
  1
_D_3
  0
LINE
  5
E8
330
E5
100
AcDbEntity
  8
치수문자_일반주서
 62
     0
370
    -2
100
AcDbLine
 10
52.80000000000192
 20
25.46249999999976
 30
0.0
 11
52.80000000000193
 21
50.87499999999997
 31
0.0
  0
LINE
  5
E9
330
E5
100
AcDbEntity
  8
치수문자_일반주서
 62
     0
370
    -2
100
AcDbLine
 10
-61.49999999999808
 20
14.03249999999997
 30
0.0
 11
-61.49999999999807
 21
50.87499999999997
 31
0.0
  0
LINE
  5
EA
330
E5
100
AcDbEntity
  8
치수문자_일반주서
 62
     0
370
    -2
100
AcDbLine
 10
49.49800000000193
 20
50.87499999999997
 30
0.0
 11
-58.19799999999807
 21
50.87499999999997
 31
0.0
  0
SOLID
  5
EB
330
E5
100
AcDbEntity
  8
치수문자_일반주서
 62
     0
100
AcDbTrace
 10
49.49800000000193
 20
50.32466666666664
 30
0.0
 11
49.49800000000193
 21
51.42533333333331
 31
0.0
 12
52.80000000000193
 22
50.87499999999997
 32
0.0
 13
52.80000000000193
 23
50.87499999999997
 33
0.0
  0
SOLID
  5
EC
330
E5
100
AcDbEntity
  8
치수문자_일반주서
 62
     0
100
AcDbTrace
 10
-58.19799999999807
 20
51.42533333333331
 30
0.0
 11
-58.19799999999807
 21
50.32466666666664
 31
0.0
 12
-61.49999999999807
 22
50.87499999999997
 32
0.0
 13
-61.49999999999807
 23
50.87499999999997
 33
0.0
  0
MTEXT
  5
ED
330
E5
100
AcDbEntity
  8
치수문자_일반주서
 62
     0
100
AcDbMText
 10
-4.349999999998076
 20
55.74999999999997
 30
0.0
 40
4.0
 41
0.0
 71
     2
 72
     1
  1
\A1;114.3 [4 1/2]
  7
SLDTEXTSTYLE0
 73
     1
 44
1.0
  0
POINT
  5
EE
330
E5
100
AcDbEntity
  8
Defpoints
 62
     0
100
AcDbPoint
 10
52.80000000000192
 20
25.39999999999976
 30
0.0
  0
POINT
  5
EF
330
E5
100
AcDbEntity
  8
Defpoints
 62
     0
100
AcDbPoint
 10
-61.49999999999808
 20
13.96999999999997
 30
0.0
  0
POINT
  5
F0
330
E5
100
AcDbEntity
  8
Defpoints
 62
     0
100
AcDbPoint
 10
-61.49999999999808
 20
50.87499999999997
 30
0.0
  0
ENDBLK
  5
E7
330
E5
100
AcDbEntity
  8
0
100
AcDbBlockEnd
  0
BLOCK
  5
FF
330
FE
100
AcDbEntity
  8
0
100
AcDbBlockBegin
  2
SW_DOWELSYMBOL_0
 70
     0
 10
0.0
 20
0.0
 30
0.0
  3
SW_DOWELSYMBOL_0
  1
SW_DOWELSYMBOL_0
  0
CIRCLE
  5
101
330
FE
100
AcDbEntity
  8
해칭선
 62
     0
100
AcDbCircle
 10
0.0
 20
0.0
 30
0.0
 40
3.000000000000001
  0
HATCH
  5
102
330
FE
100
AcDbEntity
  8
0
  6
Continuous
 62
     0
370
     0
100
AcDbHatch
 10
0.0
 20
0.0
 30
0.0
210
0.0
220
0.0
230
1.0
  2
SOLID
 70
     1
 71
     0
 91
        1
 92
        0
 93
        3
 72
     2
 10
0.0
 20
0.0
 40
3.000000000000001
 50
0.0
 51
90.0
 73
     1
 72
     1
 10
0.0
 20
3.000000000000001
 11
0.0
 21
0.0
 72
     1
 10
0.0
 20
0.0
 11
3.000000000000001
 21
0.0
 97
        0
 75
     0
 76
     1
 98
        1
 10
0.0
 20
0.0
  0
HATCH
  5
103
330
FE
100
AcDbEntity
  8
0
  6
Continuous
 62
     0
370
     0
100
AcDbHatch
 10
0.0
 20
0.0
 30
0.0
210
0.0
220
0.0
230
1.0
  2
SOLID
 70
     1
 71
     0
 91
        1
 92
        0
 93
        3
 72
     2
 10
0.0
 20
0.0
 40
3.000000000000001
 50
180.0
 51
270.0000000000007
 73
     1
 72
     1
 10
0.0
 20
-3.000000000000001
 11
0.0
 21
0.0
 72
     1
 10
0.0
 20
0.0
 11
-3.000000000000001
 21
0.0
 97
        0
 75
     0
 76
     1
 98
        1
 10
0.0
 20
0.0
  0
ENDBLK
  5
100
330
FE
100
AcDbEntity
  8
0
100
AcDbBlockEnd
  0
BLOCK
  5
18E
330
18D
100
AcDbEntity
  8
0
100
AcDbBlockBegin
  2
*D7
 70
     1
 10
0.0
 20
0.0
 30
0.0
  3
*D7
  1
*D7
  0
LINE
  5
190
330
18D
100
AcDbEntity
  8
치수문자_일반주서
 62
     0
370
    -2
100
AcDbLine
 10
153.05
 20
50.6915374277802
 30
0.0
 11
153.05
 21
65.81439263481
 31
0.0
  0
LINE
  5
191
330
18D
100
AcDbEntity
  8
치수문자_일반주서
 62
     0
370
    -2
100
AcDbLine
 10
102.25
 20
50.87689263481003
 30
0.0
 11
102.25
 21
65.81439263481
 31
0.0
  0
LINE
  5
192
330
18D
100
AcDbEntity
  8
치수문자_일반주서
 62
     0
370
    -2
100
AcDbLine
 10
149.748
 20
65.81439263481
 30
0.0
 11
105.552
 21
65.81439263481
 31
0.0
  0
SOLID
  5
193
330
18D
100
AcDbEntity
  8
치수문자_일반주서
 62
     0
100
AcDbTrace
 10
149.748
 20
65.26405930147668
 30
0.0
 11
149.748
 21
66.36472596814333
 31
0.0
 12
153.05
 22
65.81439263481
 32
0.0
 13
153.05
 23
65.81439263481
 33
0.0
  0
SOLID
  5
194
330
18D
100
AcDbEntity
  8
치수문자_일반주서
 62
     0
100
AcDbTrace
 10
105.552
 20
66.36472596814333
 30
0.0
 11
105.552
 21
65.26405930147668
 31
0.0
 12
102.25
 22
65.81439263481
 32
0.0
 13
102.25
 23
65.81439263481
 33
0.0
  0
MTEXT
  5
195
330
18D
100
AcDbEntity
  8
치수문자_일반주서
 62
     0
100
AcDbMText
 10
127.6891362781458
 20
70.68939263481
 30
0.0
 40
4.0
 41
0.0
 71
     2
 72
     1
  1
\A1;50.8 [2]
  7
SLDTEXTSTYLE0
 73
     1
 44
1.0
  0
POINT
  5
196
330
18D
100
AcDbEntity
  8
Defpoints
 62
     0
100
AcDbPoint
 10
153.05
 20
50.6290374277802
 30
0.0
  0
POINT
  5
197
330
18D
100
AcDbEntity
  8
Defpoints
 62
     0
100
AcDbPoint
 10
102.25
 20
50.81439263481003
 30
0.0
  0
POINT
  5
198
330
18D
100
AcDbEntity
  8
Defpoints
 62
     0
100
AcDbPoint
 10
102.25
 20
65.81439263481
 30
0.0
  0
ENDBLK
  5
18F
330
18D
100
AcDbEntity
  8
0
100
AcDbBlockEnd
  0
BLOCK
  5
1C7
330
1C6
100
AcDbEntity
  8
0
100
AcDbBlockBegin
  2
*D8
 70
     1
 10
0.0
 20
0.0
 30
0.0
  3
*D8
  1
*D8
  0
LINE
  5
1C9
330
1C6
100
AcDbEntity
  8
치수문자_일반주서
 62
     0
370
    -2
100
AcDbLine
 10
52.80000000000192
 20
25.46249999999976
 30
0.0
 11
52.80000000000192
 21
35.87499999999997
 31
0.0
  0
LINE
  5
1CA
330
1C6
100
AcDbEntity
  8
치수문자_일반주서
 62
     0
370
    -2
100
AcDbLine
 10
2.000000000001911
 20
25.46249999999977
 30
0.0
 11
2.000000000001911
 21
35.87499999999997
 31
0.0
  0
LINE
  5
1CB
330
1C6
100
AcDbEntity
  8
치수문자_일반주서
 62
     0
370
    -2
100
AcDbLine
 10
49.49800000000192
 20
35.87499999999997
 30
0.0
 11
5.302000000001911
 21
35.87499999999997
 31
0.0
  0
SOLID
  5
1CC
330
1C6
100
AcDbEntity
  8
치수문자_일반주서
 62
     0
100
AcDbTrace
 10
49.49800000000192
 20
35.32466666666664
 30
0.0
 11
49.49800000000192
 21
36.42533333333331
 31
0.0
 12
52.80000000000192
 22
35.87499999999997
 32
0.0
 13
52.80000000000192
 23
35.87499999999997
 33
0.0
  0
SOLID
  5
1CD
330
1C6
100
AcDbEntity
  8
치수문자_일반주서
 62
     0
100
AcDbTrace
 10
5.302000000001911
 20
36.42533333333331
 30
0.0
 11
5.302000000001911
 21
35.32466666666664
 31
0.0
 12
2.000000000001911
 22
35.87499999999997
 32
0.0
 13
2.000000000001911
 23
35.87499999999997
 33
0.0
  0
MTEXT
  5
1CE
330
1C6
100
AcDbEntity
  8
치수문자_일반주서
 62
     0
100
AcDbMText
 10
27.40000000000192
 20
40.74999999999997
 30
0.0
 40
4.0
 41
0.0
 71
     2
 72
     1
  1
\A1;50.8 [2]
  7
SLDTEXTSTYLE0
 73
     1
 44
1.0
  0
POINT
  5
1CF
330
1C6
100
AcDbEntity
  8
Defpoints
 62
     0
100
AcDbPoint
 10
52.80000000000192
 20
25.39999999999976
 30
0.0
  0
POINT
  5
1D0
330
1C6
100
AcDbEntity
  8
Defpoints
 62
     0
100
AcDbPoint
 10
2.000000000001911
 20
25.39999999999977
 30
0.0
  0
POINT
  5
1D1
330
1C6
100
AcDbEntity
  8
Defpoints
 62
     0
100
AcDbPoint
 10
2.000000000001911
 20
35.87499999999997
 30
0.0
  0
ENDBLK
  5
1C8
330
1C6
100
AcDbEntity
  8
0
100
AcDbBlockEnd
  0
ENDSEC
  0
SECTION
  2
ENTITIES
  0
LINE
  5
9C
330
1F
100
AcDbEntity
  8
중심선
 62
     1
100
AcDbLine
 10
-68.49999999999808
 20
-0.0000000000000088
 30
0.0
 11
59.80000000000192
 21
0.0000000000000058
 31
0.0
  0
LINE
  5
9D
330
1F
100
AcDbEntity
  8
참조1
100
AcDbLine
 10
-7.76249999999806
 20
-0.0000000000000087
 30
0.0
 11
-7.762499999998052
 21
-40.00000000000001
 31
0.0
  0
LINE
  5
9E
330
1F
100
AcDbEntity
  8
참조1
100
AcDbLine
 10
-7.762499999998052
 20
-40.00000000000001
 30
0.0
 11
-22.92135681430673
 21
-40.0
 31
0.0
  0
INSERT
  5
A0
330
1F
100
AcDbEntity
  8
0
  6
Continuous
 62
     7
100
AcDbBlockReference
 66
     1
  2
블럭10
 10
-21.70277293212326
 20
-52.04717430164393
 30
0.0
  0
ATTRIB
  5
A1
330
A0
100
AcDbEntity
  8
FORMAT
 62
     2
100
AcDbText
 10
-30.88406822086454
 20
-49.97180738881174
 30
0.0
 40
4.233333333333333
  1
E2042200 [ 6 FLUTE ]
 41
0.75
  7
SLDTEXTSTYLE0
 11
-30.88406822086454
 21
-52.08847405547841
 31
0.0
100
AcDbAttribute
  2
AUTOATTR0
 70
     0
 74
     1
  0
SEQEND
  5
A2
330
A0
100
AcDbEntity
  8
0
  6
Continuous
 62
     7
  0
HATCH
  5
A3
330
1F
100
AcDbEntity
  8
중심선
100
AcDbHatch
 10
0.0
 20
0.0
 30
0.0
210
0.0
220
0.0
230
1.0
  2
SOLID
 70
     1
 71
     0
 91
        1
 92
        0
 93
        4
 72
     1
 10
-15.98786362774243
 20
-35.8
 11
-19.43413887157971
 21
-35.8
 72
     1
 10
-19.43413887157971
 20
-35.8
 11
-21.56236873078374
 21
-38.3363255805726
 72
     1
 10
-21.56236873078373
 20
-38.3363255805726
 11
-18.1160604018333
 21
-38.33628615127011
 72
     1
 10
-18.1160604018333
 20
-38.33628615127011
 11
-15.98786362774243
 21
-35.8
 97
        0
 75
     0
 76
     1
 98
        1
 10
-26.17444598552165
 20
-0.0010749287238979
  0
HATCH
  5
A4
330
1F
100
AcDbEntity
  8
중심선
100
AcDbHatch
 10
0.0
 20
0.0
 30
0.0
210
0.0
220
0.0
230
1.0
  2
SOLID
 70
     1
 71
     0
 91
        1
 92
        0
 93
        4
 72
     1
 10
-10.97509963670645
 20
-35.8
 11
-14.42137488054373
 21
-35.8
 72
     1
 10
-14.42137488054373
 20
-35.8
 11
-18.95251288890115
 21
-41.20000000000002
 72
     1
 10
-18.95251288890115
 20
-41.20000000000002
 11
-15.50623764506387
 21
-41.20000000000002
 72
     1
 10
-15.50623764506387
 20
-41.20000000000002
 11
-10.97509963670645
 21
-35.8
 97
        0
 75
     0
 76
     1
 98
        1
 10
-26.17444598552165
 20
-0.0010749287238979
  0
HATCH
  5
A5
330
1F
100
AcDbEntity
  8
중심선
100
AcDbHatch
 10
0.0
 20
0.0
 30
0.0
210
0.0
220
0.0
230
1.0
  2
SOLID
 70
     1
 71
     0
 91
        1
 92
        0
 93
        4
 72
     1
 10
-5.962335645670581
 20
-35.8
 11
-9.408610889507695
 21
-35.8
 72
     1
 10
-9.408610889507695
 20
-35.8
 11
-16.45704779139695
 21
-44.20000000000002
 72
     1
 10
-16.45704779139695
 20
-44.20000000000002
 11
-13.01077254755966
 21
-44.20000000000002
 72
     1
 10
-13.01077254755966
 20
-44.20000000000002
 11
-5.962335645670581
 21
-35.8
 97
        0
 75
     0
 76
     1
 98
        1
 10
-26.17444598552165
 20
-0.0010749287238979
  0
HATCH
  5
A6
330
1F
100
AcDbEntity
  8
중심선
100
AcDbHatch
 10
0.0
 20
0.0
 30
0.0
210
0.0
220
0.0
230
1.0
  2
SOLID
 70
     1
 71
     0
 91
        1
 92
        0
 93
        6
 72
     3
 10
-1.162445214658383
 20
-40.00000000005127
 11
3.960054785062283
 21
1.540882976769353E-10
 40
0.3939339440162628
 50
17.09539180608436
 51
320.0019657685075
 73
     0
 72
     1
 10
0.5205544410422149
 20
-38.58789400463827
 11
2.825856314743252
 21
-36.65356729459038
 72
     3
 10
-1.16244521471123
 20
-40.00000000000015
 11
6.600054785286829
 21
-1.278976924368180E-13
 40
0.636358354079598
 50
39.99873849337408
 51
368.4976242363724
 73
     1
 72
     1
 10
5.262887277189382
 20
-39.03999999993002
 11
-2.482377907875307
 21
-39.03999999993
 72
     1
 10
-2.482377907875307
 20
-39.03999999993
 11
-2.482402952321241
 21
-40.95999999992991
 72
     1
 10
-2.482402952321241
 20
-40.95999999992991
 11
1.958976817150798
 21
-40.95999999992988
 97
        0
 75
     0
 76
     1
 98
        1
 10
-26.17444598552165
 20
-0.0010749287238979
  0
DIMENSION
  5
A7
330
1F
100
AcDbEntity
  8
치수문자_일반주서
100
AcDbDimension
  2
_D
 10
67.80000000000197
 20
-25.40000000000017
 30
0.0
 11
67.80000000000175
 21
43.62899999999982
 31
0.0
 70
   160
  1
%%c<>
 71
     2
 42
50.79999999999998
 52
-270.0
  3
SLDDIMSTYLE0
100
AcDbAlignedDimension
 13
52.73750000000192
 23
25.39999999999976
 33
0.0
 14
52.80000000000192
 24
-25.40000000000022
 34
0.0
 50
90.0000000000002
100
AcDbRotatedDimension
1001
PE_URL
1000

1001
ACAD
1000
DSTYLE
1002
{
1070
   171
1070
     8
1070
   273
1070
     7
1070
   140
1040
4.0
1002
}
  0
DIMENSION
  5
BC
330
1F
100
AcDbEntity
  8
치수문자_일반주서
100
AcDbDimension
  2
_D_1
 10
-76.49999999999798
 20
-15.8750000000001
 30
0.0
 11
-76.49999999999818
 21
40.35399999999986
 31
0.0
 70
   160
  1
%%c<>
 71
     2
 42
31.74999999999995
 52
-270.0
  3
SLDDIMSTYLE0
100
AcDbAlignedDimension
 13
-46.89499999999809
 23
15.87499999999995
 33
0.0
 14
-58.26249999999809
 24
-15.87500000000003
 34
0.0
 50
90.0000000000002
100
AcDbRotatedDimension
1001
PE_URL
1000

1001
ACAD
1000
DSTYLE
1002
{
1070
   171
1070
     8
1070
   273
1070
     7
1070
   140
1040
4.0
1002
}
  0
DIMENSION
  5
E4
330
1F
100
AcDbEntity
  8
치수문자_일반주서
100
AcDbDimension
  2
_D_3
 10
-61.49999999999807
 20
50.87499999999997
 30
0.0
 11
-4.349999999998076
 21
50.87499999999997
 31
0.0
 70
   160
  1
<>
 71
     2
 42
114.3
  3
SLDDIMSTYLE0
100
AcDbAlignedDimension
 13
52.80000000000192
 23
25.39999999999976
 33
0.0
 14
-61.49999999999808
 24
13.96999999999997
 34
0.0
 50
0.0000000000000034
100
AcDbRotatedDimension
1001
PE_URL
1000

1001
ACAD
1000
DSTYLE
1002
{
1070
   171
1070
     8
1070
   273
1070
     7
1070
   140
1040
4.0
1002
}
  0
LINE
  5
F7
330
1F
100
AcDbEntity
  8
참조1
100
AcDbLine
 10
75.05098381534754
 20
7.439999999999998
 30
0.0
 11
75.05098381534754
 21
-7.440000000000007
 31
0.0
  0
LINE
  5
F8
330
1F
100
AcDbEntity
  8
참조1
100
AcDbLine
 10
87.75098381534752
 20
5.439999999999998
 30
0.0
 11
75.05098381534754
 21
5.439999999999998
 31
0.0
  0
SOLID
  5
F9
330
1F
100
AcDbEntity
  8
참조1
100
AcDbTrace
 10
75.05098381534754
 20
5.439999999999998
 30
0.0
 11
81.40098381534753
 21
4.423999999999998
 31
0.0
 12
81.40098381534753
 22
6.455999999999998
 32
0.0
 13
81.40098381534753
 23
6.455999999999998
 33
0.0
  0
LINE
  5
FA
330
1F
100
AcDbEntity
  8
참조1
100
AcDbLine
 10
87.75098381534752
 20
-5.440000000000007
 30
0.0
 11
75.05098381534754
 21
-5.440000000000007
 31
0.0
  0
SOLID
  5
FB
330
1F
100
AcDbEntity
  8
참조1
100
AcDbTrace
 10
75.05098381534754
 20
-5.440000000000007
 30
0.0
 11
81.40098381534753
 21
-6.456000000000007
 31
0.0
 12
81.40098381534753
 22
-4.424000000000007
 32
0.0
 13
81.40098381534753
 23
-4.424000000000007
 33
0.0
  0
MTEXT
  5
FC
330
1F
100
AcDbEntity
  8
참조1
100
AcDbMText
 10
84.4484739078178
 20
10.98821664464993
 30
0.0
 40
3.5
 41
0.0
 71
     1
 72
     1
  1
A
  7
SLDTEXTSTYLE0
 73
     1
 44
1.0
  0
MTEXT
  5
FD
330
1F
100
AcDbEntity
  8
참조1
100
AcDbMText
 10
84.4484739078178
 20
0.108216644649928
 30
0.0
 40
3.5
 41
0.0
 71
     1
 72
     1
  1
A
  7
SLDTEXTSTYLE0
 73
     1
 44
1.0
  0
LINE
  5
19A
330
1F
100
AcDbEntity
  8
0
  6
Continuous
 62
     1
370
    15
100
AcDbLine
 10
2.671705752035244
 20
25.39999999999976
 30
0.0
 11
2.000000000001911
 21
25.39999999999976
 31
0.0
1001
PE_URL
1000

  0
LINE
  5
19B
330
1F
100
AcDbEntity
  8
0
  6
Continuous
 62
     1
370
    15
100
AcDbLine
 10
49.72867766752734
 20
-25.40000000000022
 30
0.0
 11
52.80000000000192
 21
-25.40000000000022
 31
0.0
1001
PE_URL
1000

  0
LINE
  5
19C
330
1F
100
AcDbEntity
  8
0
  6
Continuous
 62
     1
370
    15
100
AcDbLine
 10
29.2717544171774
 20
25.39999999999976
 30
0.0
 11
23.13123775105618
 21
25.39999999999976
 31
0.0
1001
PE_URL
1000

  0
LINE
  5
19D
330
1F
100
AcDbEntity
  8
0
  6
Continuous
 62
     1
370
    15
100
AcDbLine
 10
23.13123775105598
 20
-25.40000000000022
 30
0.0
 11
29.2717544171774
 21
-25.40000000000022
 31
0.0
1001
PE_URL
1000

  0
LINE
  5
19E
330
1F
100
AcDbEntity
  8
0
  6
Continuous
 62
     1
370
    15
100
AcDbLine
 10
52.80000000000192
 20
25.39999999999976
 30
0.0
 11
49.72867766752734
 21
25.39999999999976
 31
0.0
1001
PE_URL
1000

  0
LINE
  5
19F
330
1F
100
AcDbEntity
  8
외형선
  6
Continuous
370
    15
100
AcDbLine
 10
2.000000000001911
 20
-25.40000000000022
 30
0.0
 11
2.671705752035088
 21
-25.40000000000022
 31
0.0
  0
LINE
  5
1A0
330
1F
100
AcDbEntity
  8
0
  6
Continuous
 62
     1
370
    15
100
AcDbLine
 10
52.80000000000192
 20
-9.954726314670825
 30
0.0
 11
52.80000000000192
 21
9.954726314670847
 31
0.0
1001
PE_URL
1000

  0
SPLINE
  5
1A1
330
1F
100
AcDbEntity
  8
0
  6
Continuous
 62
     1
370
    15
100
AcDbSpline
210
0.0
220
0.0
230
1.0
 70
     8
 71
     3
 72
    23
 73
    19
 74
     0
 42
0.000000001
 43
0.00000001
 40
0.0
 40
0.0
 40
0.0
 40
0.0
 40
0.0501662761727933
 40
0.1137483496514482
 40
0.1773056747677272
 40
0.2408499471515509
 40
0.304397243988235
 40
0.3668310083514209
 40
0.4292777226463126
 40
0.4916963342475514
 40
0.5541045517271332
 40
0.6177950670088467
 40
0.6815092242415653
 40
0.7452229065173499
 40
0.8089131822232574
 40
0.8725956845227815
 40
0.9362860795625805
 40
1.0
 40
1.0
 40
1.0
 40
1.0
 10
2.671705752035244
 20
25.36677534625199
 30
0.0
 10
3.509957070408966
 20
25.35611586577751
 30
0.0
 10
5.410630417773582
 20
25.3319462760727
 30
0.0
 10
8.374156491394949
 20
24.82041018555399
 30
0.0
 10
11.56015545378549
 20
23.92591062487126
 30
0.0
 10
14.74535800259911
 20
22.64324636639077
 30
0.0
 10
17.91181546950725
 20
21.01772261268885
 30
0.0
 10
21.06048852859218
 20
19.07778761685864
 30
0.0
 10
24.19094590583527
 20
16.86095666298086
 30
0.0
 10
27.31979842786425
 20
14.38792792666247
 30
0.0
 10
30.46927243527734
 20
11.67880108126982
 30
0.0
 10
33.64064183277575
 20
8.769596735482164
 30
0.0
 10
36.83465082710703
 20
5.702710232920905
 30
0.0
 10
40.02864347906917
 20
2.546028828009011
 30
0.0
 10
43.2212571824625
 20
-0.6519596811227216
 30
0.0
 10
46.41337427386367
 20
-3.836359019174242
 30
0.0
 10
49.60599614443095
 20
-6.971764903086071
 30
0.0
 10
51.73520099452373
 20
-8.960283449833529
 30
0.0
 10
52.80000000000198
 20
-9.954726314670825
 30
0.0
1001
PE_URL
1000

  0
SPLINE
  5
1A2
330
1F
100
AcDbEntity
  8
0
  6
Continuous
 62
     1
370
    15
100
AcDbSpline
210
0.0
220
0.0
230
1.0
 70
     8
 71
     3
 72
    20
 73
    16
 74
     0
 42
0.000000001
 43
0.00000001
 40
0.0
 40
0.0
 40
0.0
 40
0.0
 40
0.0798761983513658
 40
0.1597224945146244
 40
0.2395590501910182
 40
0.3194060691167961
 40
0.3992836459054536
 40
0.4777332858135315
 40
0.5561510999269883
 40
0.6345618541138985
 40
0.712990349034736
 40
0.7930499726575295
 40
0.8730881120404584
 40
0.9531035403868514
 40
1.0
 40
1.0
 40
1.0
 40
1.0
 10
52.80000000000189
 20
9.954726314670847
 30
0.0
 10
51.73752226979878
 20
10.91678287056225
 30
0.0
 10
49.61296455502399
 20
12.84053583005068
 30
0.0
 10
46.42732565190878
 20
15.48294465545939
 30
0.0
 10
43.24217652607022
 20
17.89305545191121
 30
0.0
 10
40.05650242474022
 20
20.01919892053428
 30
0.0
 10
36.88835724736445
 20
21.82053605624878
 30
0.0
 10
33.73935061711678
 20
23.27498290528203
 30
0.0
 10
30.61076265129984
 20
24.36798098107081
 30
0.0
 10
27.48250722625409
 20
25.09181818894859
 30
0.0
 10
24.33215108700094
 20
25.43649472497894
 30
0.0
 10
21.15901971339409
 20
25.39314218565387
 30
0.0
 10
17.96558606915534
 20
24.93203285452831
 30
0.0
 10
15.21363269581457
 20
24.24892233659014
 30
0.0
 10
13.52598400455161
 20
23.57298102838413
 30
0.0
 10
12.90236434241067
 20
23.32320730922518
 30
0.0
1001
PE_URL
1000

  0
SPLINE
  5
1A3
330
1F
100
AcDbEntity
  8
0
  6
Continuous
 62
     1
370
    15
100
AcDbSpline
210
0.0
220
0.0
230
1.0
 70
     8
 71
     3
 72
    19
 73
    15
 74
     0
 42
0.000000001
 43
0.00000001
 40
0.0
 40
0.0
 40
0.0
 40
0.0
 40
0.0849683561007415
 40
0.1699589651643272
 40
0.2549164929162072
 40
0.3398565729879373
 40
0.4248006958672803
 40
0.5082563519830081
 40
0.5917293183643942
 40
0.6751647196756401
 40
0.7585862270906668
 40
0.8437217910823582
 40
0.9288889574378206
 40
1.0
 40
1.0
 40
1.0
 40
1.0
 10
2.000000000001883
 20
-12.11361622269787
 30
0.0
 10
3.06213834050444
 20
-13.02880641755647
 30
0.0
 10
5.18669319242057
 20
-14.85942649289708
 30
0.0
 10
8.37415137166186
 20
-17.31987249842121
 30
0.0
 10
11.56015682615868
 20
-19.52238905997442
 30
0.0
 10
14.74535763083178
 20
-21.41420428940919
 30
0.0
 10
17.91181558141101
 20
-22.96136954326738
 30
0.0
 10
21.06048844685072
 20
-24.14542812074348
 30
0.0
 10
24.19094612202257
 20
-24.95650587836599
 30
0.0
 10
27.31979764530042
 20
-25.38869735995052
 30
0.0
 10
30.46927537428522
 20
-25.4390255207679
 30
0.0
 10
33.64063061300613
 20
-25.08450672945665
 30
0.0
 10
36.65896076737906
 20
-24.40983826496144
 30
0.0
 10
38.61271645309402
 20
-23.67599638987486
 30
0.0
 10
39.50173101683396
 20
-23.34207740542645
 30
0.0
1001
PE_URL
1000

  0
SPLINE
  5
1A4
330
1F
100
AcDbEntity
  8
외형선
  6
Continuous
370
    15
100
AcDbSpline
210
0.0
220
0.0
230
1.0
 70
    24
 71
     3
 72
    36
 73
    32
 74
     0
 42
0.000000001
 43
0.00000001
 40
0.0
 40
0.0
 40
0.0
 40
0.0
 40
0.1249999999999996
 40
0.1249999999999996
 40
0.1562499999999996
 40
0.1562499999999996
 40
0.1874999999999996
 40
0.1874999999999996
 40
0.2499999999999997
 40
0.2499999999999997
 40
0.375
 40
0.375
 40
0.4375
 40
0.4375
 40
0.5
 40
0.5
 40
0.5625
 40
0.5625
 40
0.6249999999999999
 40
0.6249999999999999
 40
0.6875
 40
0.6875
 40
0.75
 40
0.75
 40
0.8125
 40
0.8125
 40
0.875
 40
0.875
 40
0.9375
 40
0.9375
 40
1.0
 40
1.0
 40
1.0
 40
1.0
 10
2.00000000000194
 20
7.707146068126772
 30
0.0
 10
2.00000000000194
 20
7.604244693912134
 30
0.0
 10
2.000000000001954
 20
7.378044024000997
 30
0.0
 10
2.00000000000194
 20
7.031126456766512
 30
0.0
 10
2.000000000001897
 20
6.958375852363358
 30
0.0
 10
2.000000000001911
 20
6.807758815224358
 30
0.0
 10
2.000000000001954
 20
6.728420776818465
 30
0.0
 10
2.00000000000194
 20
6.465837190214399
 30
0.0
 10
2.000000000001982
 20
6.262108659479563
 30
0.0
 10
2.00000000000194
 20
5.546100606064624
 30
0.0
 10
2.000000000001954
 20
4.927392275262773
 30
0.0
 10
2.00000000000194
 20
3.722258558500568
 30
0.0
 10
2.00000000000194
 20
3.274617105359153
 30
0.0
 10
2.000000000001911
 20
2.284900121066554
 30
0.0
 10
2.000000000001911
 20
1.742677354320702
 30
0.0
 10
2.000000000001954
 20
0.5720171335839809
 30
0.0
 10
2.00000000000194
 20
-0.0565031890210462
 30
0.0
 10
2.000000000001954
 20
-1.376706266469728
 30
0.0
 10
2.00000000000194
 20
-2.068321616116594
 30
0.0
 10
2.000000000001911
 20
-3.476275894830908
 30
0.0
 10
2.00000000000194
 20
-4.192356762402158
 30
0.0
 10
2.000000000001954
 20
-5.600230847659762
 30
0.0
 10
2.00000000000194
 20
-6.291644658317298
 30
0.0
 10
2.00000000000194
 20
-7.60055358112935
 30
0.0
 10
2.000000000001911
 20
-8.217712618415593
 30
0.0
 10
2.00000000000194
 20
-9.339274754994594
 30
0.0
 10
2.000000000001954
 20
-9.843533654601092
 30
0.0
 10
2.000000000001911
 20
-10.71894449588132
 30
0.0
 10
2.000000000001911
 20
-11.09017169853867
 30
0.0
 10
2.000000000001911
 20
-11.69866153773551
 30
0.0
 10
2.000000000001982
 20
-11.93613115778993
 30
0.0
 10
2.000000000001954
 20
-12.1136162226977
 30
0.0
  0
SPLINE
  5
1A5
330
1F
100
AcDbEntity
  8
0
  6
Continuous
 62
     1
370
    15
100
AcDbSpline
210
0.0
220
0.0
230
1.0
 70
     8
 71
     3
 72
    23
 73
    19
 74
     0
 42
0.000000001
 43
0.00000001
 40
0.0
 40
0.0
 40
0.0
 40
0.0
 40
0.0024293839600446
 40
0.0691752732744601
 40
0.1359130202267451
 40
0.2026595137198067
 40
0.2694315514376033
 40
0.3350099343265741
 40
0.4005617130890268
 40
0.4661075902492951
 40
0.5316682974157124
 40
0.5985925134864839
 40
0.6654987702433623
 40
0.7323860421705908
 40
0.7992707679641188
 40
0.8661693971251703
 40
0.933093535632425
 40
1.0
 40
1.0
 40
1.0
 40
1.0
 10
49.72867766752737
 20
-25.39300049161293
 30
0.0
 10
49.690022229634
 20
-25.39532234573372
 30
0.0
 10
48.58933146860395
 20
-25.46143577035153
 30
0.0
 10
46.42736710140188
 20
-25.22291639459403
 30
0.0
 10
43.24216541840494
 20
-24.64818445730586
 30
0.0
 10
40.05650540396022
 20
-23.6396990962796
 30
0.0
 10
36.88835646591236
 20
-22.28042399982889
 30
0.0
 10
33.73935082082048
 20
-20.58333852701319
 30
0.0
 10
30.61076261165434
 20
-18.58509544581293
 30
0.0
 10
27.48250718119082
 20
-16.30504594972659
 30
0.0
 10
24.33215130880553
 20
-13.7605036605417
 30
0.0
 10
21.15901885200524
 20
-10.98544963106766
 30
0.0
 10
17.96558928417807
 20
-8.017837159663674
 30
0.0
 10
14.77325605413194
 20
-4.923978138043711
 30
0.0
 10
11.58107758926032
 20
-1.751873908065025
 30
0.0
 10
8.388075892388294
 20
1.445888988863584
 30
0.0
 10
5.193649225426533
 20
4.628847079261672
 30
0.0
 10
3.06445601223097
 20
6.681136749366869
 30
0.0
 10
2.000000000001911
 20
7.707146068126801
 30
0.0
1001
PE_URL
1000

  0
LINE
  5
1A6
330
1F
100
AcDbEntity
  8
0
  6
Continuous
 62
     1
370
    15
100
AcDbLine
 10
52.80000000000192
 20
-25.21464479297038
 30
0.0
 11
52.80000000000192
 21
-15.25938465264887
 31
0.0
1001
PE_URL
1000

  0
SPLINE
  5
1A7
330
1F
100
AcDbEntity
  8
0
  6
Continuous
 62
     1
370
    15
100
AcDbSpline
210
0.0
220
0.0
230
1.0
 70
     8
 71
     3
 72
    50
 73
    46
 74
     0
 42
0.000000001
 43
0.00000001
 40
0.0
 40
0.0
 40
0.0
 40
0.0
 40
0.0624999999999992
 40
0.0624999999999992
 40
0.0937499999999992
 40
0.0937499999999992
 40
0.1249999999999992
 40
0.1249999999999992
 40
0.1874999999999983
 40
0.1874999999999983
 40
0.2187499999999983
 40
0.2187499999999983
 40
0.2499999999999983
 40
0.2499999999999983
 40
0.3124999999999975
 40
0.3124999999999975
 40
0.3749999999999968
 40
0.3749999999999968
 40
0.4062499999999964
 40
0.4062499999999964
 40
0.4374999999999963
 40
0.4374999999999963
 40
0.4999999999999967
 40
0.4999999999999967
 40
0.5312499999999966
 40
0.5312499999999966
 40
0.5624999999999966
 40
0.5624999999999966
 40
0.6249999999999968
 40
0.6249999999999968
 40
0.6874999999999971
 40
0.6874999999999971
 40
0.7187499999999976
 40
0.7187499999999976
 40
0.7499999999999979
 40
0.7499999999999979
 40
0.8124999999999987
 40
0.8124999999999987
 40
0.843749999999999
 40
0.843749999999999
 40
0.8749999999999993
 40
0.8749999999999993
 40
0.9374999999999997
 40
0.9374999999999997
 40
1.0
 40
1.0
 40
1.0
 40
1.0
 10
52.80000000000198
 20
-25.21464479297038
 30
0.0
 10
51.74495244054496
 20
-25.08715568499321
 30
0.0
 10
50.68211419399172
 20
-24.89357245888894
 30
0.0
 10
49.09477259826983
 20
-24.50715345992025
 30
0.0
 10
48.56783422016964
 20
-24.36250975528009
 30
0.0
 10
47.50973166010352
 20
-24.041334050037
 30
0.0
 10
46.97948504330223
 20
-23.86485623415736
 30
0.0
 10
45.38981612919699
 20
-23.28922927060524
 30
0.0
 10
44.33556340233776
 20
-22.84450422148649
 30
0.0
 10
42.74602207386244
 20
-22.08886944558322
 30
0.0
 10
42.21573503791615
 20
-21.82235069920765
 30
0.0
 10
41.15738653149615
 20
-21.26162957338605
 30
0.0
 10
40.63043374898715
 20
-20.96765727912731
 30
0.0
 10
39.04347425362156
 20
-20.0442758028764
 30
0.0
 10
37.98055904002141
 20
-19.37373975698691
 30
0.0
 10
35.86965252122312
 20
-17.93866688399207
 30
0.0
 10
34.80770473389834
 20
-17.17100535663018
 30
0.0
 10
33.22000740458714
 20
-15.95669830759946
 30
0.0
 10
32.69302581346009
 20
-15.54186577598835
 30
0.0
 10
31.63518677064983
 20
-14.69151469755085
 30
0.0
 10
31.1049894247957
 20
-14.25614914536564
 30
0.0
 10
29.51521942103629
 20
-12.92325328636277
 30
0.0
 10
28.46091776574654
 20
-12.00024002399285
 30
0.0
 10
26.87153051178746
 20
-10.5701973351824
 30
0.0
 10
26.34121191075032
 20
-10.08615554704112
 30
0.0
 10
25.2826350425209
 20
-9.106198348701344
 30
0.0
 10
24.75561023896532
 20
-8.61067868821856
 30
0.0
 10
23.16905918953152
 20
-7.106580980549341
 30
0.0
 10
22.10608484665088
 20
-6.081003813163764
 30
0.0
 10
19.99440177635919
 20
-4.008160838613793
 30
0.0
 10
18.93329594658029
 20
-2.956869409193959
 30
0.0
 10
17.34526927018145
 20
-1.373671744042428
 30
0.0
 10
16.81818685098556
 20
-0.845453811774692
 30
0.0
 10
15.76062888172076
 20
0.2125235647285963
 30
0.0
 10
15.23048965587117
 20
0.7421716628591754
 30
0.0
 10
13.64064506405055
 20
2.328440053992378
 30
0.0
 10
12.58624555461768
 20
3.380812840715632
 30
0.0
 10
10.99703885550083
 20
4.944592417121723
 30
0.0
 10
10.4666975451859
 20
5.463165967204316
 30
0.0
 10
9.407909912361724
 20
6.491907129359487
 30
0.0
 10
8.880755475111393
 20
7.001664529796781
 30
0.0
 10
7.294639194539151
 20
8.517782606464078
 30
0.0
 10
6.2316235634649
 20
9.510687653056873
 30
0.0
 10
4.119198833016334
 20
11.43768978541803
 30
0.0
 10
3.058886412474642
 20
12.37512626813662
 30
0.0
 10
2.000000000001883
 20
13.27749369934234
 30
0.0
1001
PE_URL
1000

  0
SPLINE
  5
1A8
330
1F
100
AcDbEntity
  8
외형선
  6
Continuous
370
    15
100
AcDbSpline
210
0.0
220
0.0
230
1.0
 70
    24
 71
     3
 72
    15
 73
    11
 74
     0
 42
0.000000001
 43
0.00000001
 40
0.0
 40
0.0
 40
0.0
 40
0.0
 40
0.1548967158178311
 40
0.2910026447735143
 40
0.4310556548893829
 40
0.5671615838450703
 40
0.707214593960942
 40
0.8433205229166244
 40
0.9833735330324939
 40
1.0
 40
1.0
 40
1.0
 40
1.0
 10
2.000000000001911
 20
24.81353306774218
 30
0.0
 10
2.000000000001911
 20
24.21316698314763
 30
0.0
 10
2.00000000000194
 20
23.08526625570542
 30
0.0
 10
2.000000000001954
 20
21.30744182439592
 30
0.0
 10
2.000000000001954
 20
19.59739268979014
 30
0.0
 10
2.000000000001982
 20
17.90242763034126
 30
0.0
 10
2.000000000001911
 20
16.29679436006823
 30
0.0
 10
2.000000000001897
 20
14.82310993426011
 30
0.0
 10
2.000000000002125
 20
13.84778115263006
 30
0.0
 10
2.000000000001911
 20
13.43301350658302
 30
0.0
 10
2.00000000000194
 20
13.38899931471459
 30
0.0
  0
SPLINE
  5
1A9
330
1F
100
AcDbEntity
  8
0
  6
Continuous
 62
     1
370
    15
100
AcDbSpline
210
0.0
220
0.0
230
1.0
 70
     8
 71
     3
 72
    50
 73
    46
 74
     0
 42
0.000000001
 43
0.00000001
 40
0.0
 40
0.0
 40
0.0
 40
0.0
 40
0.0625000000000003
 40
0.0625000000000003
 40
0.0937500000000001
 40
0.0937500000000001
 40
0.1249999999999998
 40
0.1249999999999998
 40
0.1874999999999993
 40
0.1874999999999993
 40
0.218749999999999
 40
0.218749999999999
 40
0.2499999999999987
 40
0.2499999999999987
 40
0.312499999999999
 40
0.312499999999999
 40
0.3749999999999993
 40
0.3749999999999993
 40
0.406249999999999
 40
0.406249999999999
 40
0.4374999999999987
 40
0.4374999999999987
 40
0.4999999999999986
 40
0.4999999999999986
 40
0.5312499999999986
 40
0.5312499999999986
 40
0.5624999999999986
 40
0.5624999999999986
 40
0.6249999999999984
 40
0.6249999999999984
 40
0.6874999999999983
 40
0.6874999999999983
 40
0.7187499999999983
 40
0.7187499999999983
 40
0.7499999999999984
 40
0.7499999999999984
 40
0.8124999999999989
 40
0.8124999999999989
 40
0.843749999999999
 40
0.843749999999999
 40
0.8749999999999992
 40
0.8749999999999992
 40
0.9374999999999997
 40
0.9374999999999997
 40
1.0
 40
1.0
 40
1.0
 40
1.0
 10
52.80000000000189
 20
-15.2599184782994
 30
0.0
 10
51.74495244054484
 20
-14.41476308857193
 30
0.0
 10
50.68211419399163
 20
-13.52772490626156
 30
0.0
 10
49.09477259826983
 20
-12.14970915920522
 30
0.0
 10
48.56783422016961
 20
-11.68280377086092
 30
0.0
 10
47.50973166010343
 20
-10.73315973828071
 30
0.0
 10
46.97948504330217
 20
-10.25067767252327
 30
0.0
 10
45.38981612919705
 20
-8.784457568671446
 30
0.0
 10
44.33556340233765
 20
-7.783258600323623
 30
0.0
 10
42.74602207386241
 20
-6.252427035632141
 30
0.0
 10
42.21573503791618
 20
-5.737598345174052
 30
0.0
 10
41.15738653149621
 20
-4.701863315398728
 30
0.0
 10
40.63043374898718
 20
-4.181327082434183
 30
0.0
 10
39.04347425362162
 20
-2.610574941486905
 30
0.0
 10
37.98055904002141
 20
-1.55222967035296
 30
0.0
 10
35.86965252122307
 20
0.5620838820384905
 30
0.0
 10
34.80770473389834
 20
1.622691591474774
 30
0.0
 10
33.22000740458717
 20
3.201404643418752
 30
0.0
 10
32.69302581346009
 20
3.725157112799221
 30
0.0
 10
31.63518677064989
 20
4.768415337609523
 30
0.0
 10
31.10498942479573
 20
5.287697621543484
 30
0.0
 10
29.5152194210362
 20
6.83392386004891
 30
0.0
 10
28.46091776574654
 20
7.847831066868022
 30
0.0
 10
26.87153051178743
 20
9.336644118442845
 30
0.0
 10
26.34121191075025
 20
9.827312490786849
 30
0.0
 10
25.2826350425209
 20
10.79458178354835
 30
0.0
 10
24.75561023896538
 20
11.27082259671523
 30
0.0
 10
23.16905918953154
 20
12.67827503586033
 30
0.0
 10
22.10608484665085
 20
13.58744536291726
 30
0.0
 10
19.99440177635913
 20
15.32641847774698
 30
0.0
 10
18.93329594658022
 20
16.15964665317523
 30
0.0
 10
17.34526927018144
 20
17.34219167367814
 30
0.0
 10
16.81818685098552
 20
17.72479108904048
 30
0.0
 10
15.76062888172071
 20
18.46726420622506
 30
0.0
 10
15.23048965587113
 20
18.82703218763704
 30
0.0
 10
13.64064506405052
 20
19.86869009071699
 30
0.0
 10
12.58624555461763
 20
20.51199235639339
 30
0.0
 10
10.9970388555008
 20
21.3959480487278
 30
0.0
 10
10.46669754518587
 20
21.67695132159454
 30
0.0
 10
9.407909912361696
 20
22.21003264453574
 30
0.0
 10
8.88075547511135
 20
22.46192566482997
 30
0.0
 10
7.294639194539151
 20
23.17404873256639
 30
0.0
 10
6.231623563464872
 20
23.5903231726854
 30
0.0
 10
4.119198833016263
 20
24.29634248996875
 30
0.0
 10
3.058886412474642
 20
24.58738639860247
 30
0.0
 10
2.000000000001911
 20
24.81353306774218
 30
0.0
1001
PE_URL
1000

  0
LINE
  5
1AA
330
1F
100
AcDbEntity
  8
0
  6
Continuous
 62
     1
370
    15
100
AcDbLine
 10
52.80000000000192
 20
-15.25991847829942
 30
0.0
 11
52.80000000000192
 21
-9.954726314670825
 31
0.0
1001
PE_URL
1000

  0
LINE
  5
1AB
330
1F
100
AcDbEntity
  8
외형선
  6
Continuous
370
    15
100
AcDbLine
 10
2.000000000001911
 20
24.81353306774218
 30
0.0
 11
2.000000000001911
 21
25.39999999999976
 31
0.0
  0
LINE
  5
1AC
330
1F
100
AcDbEntity
  8
0
  6
Continuous
 62
     1
370
    15
100
AcDbLine
 10
52.80000000000192
 20
-25.40000000000022
 30
0.0
 11
52.80000000000192
 21
-25.21464479297038
 31
0.0
1001
PE_URL
1000

  0
LINE
  5
1AD
330
1F
100
AcDbEntity
  8
외형선
  6
Continuous
370
    15
100
AcDbLine
 10
2.000000000001911
 20
7.707146068126787
 30
0.0
 11
2.000000000001897
 21
13.27749369934235
 31
0.0
  0
SPLINE
  5
1AE
330
1F
100
AcDbEntity
  8
0
  6
Continuous
 62
     1
370
    15
100
AcDbSpline
210
0.0
220
0.0
230
1.0
 70
     8
 71
     3
 72
    15
 73
    11
 74
     0
 42
0.000000001
 43
0.00000001
 40
0.0
 40
0.0
 40
0.0
 40
0.0
 40
0.0499957183751908
 40
0.1856917934324342
 40
0.321438238940347
 40
0.4571836725269164
 40
0.5928792371549945
 40
0.728558240121868
 40
0.864254058997233
 40
1.0
 40
1.0
 40
1.0
 40
1.0
 10
29.2717544171774
 20
25.3548036914731
 30
0.0
 10
29.66379740837781
 20
25.36651292363446
 30
0.0
 10
31.11990542131421
 20
25.4100028141775
 30
0.0
 10
33.64064456791343
 20
25.07498537002953
 30
0.0
 10
36.83465009411234
 20
24.35070670984551
 30
0.0
 10
40.02864367538948
 20
23.21617287501513
 30
0.0
 10
43.22125712989232
 20
21.72319152828637
 30
0.0
 10
46.41337428788345
 20
19.88103684812021
 30
0.0
 10
49.60599614092437
 20
17.74270250695357
 30
0.0
 10
51.73520099335472
 20
16.08761502597778
 30
0.0
 10
52.80000000000198
 20
15.25991847829908
 30
0.0
1001
PE_URL
1000

  0
LINE
  5
1AF
330
1F
100
AcDbEntity
  8
0
  6
Continuous
 62
     1
370
    15
100
AcDbLine
 10
52.80000000000192
 20
9.954726314670847
 30
0.0
 11
52.80000000000192
 21
15.25991847829908
 31
0.0
1001
PE_URL
1000

  0
SPLINE
  5
1B0
330
1F
100
AcDbEntity
  8
0
  6
Continuous
 62
     1
370
    15
100
AcDbSpline
210
0.0
220
0.0
230
1.0
 70
     8
 71
     3
 72
    14
 73
    10
 74
     0
 42
0.000000001
 43
0.00000001
 40
0.0
 40
0.0
 40
0.0
 40
0.0
 40
0.0933245004433081
 40
0.2444483977462759
 40
0.3955294132384025
 40
0.5466046776742527
 40
0.6977113462147055
 40
0.8488756337582648
 40
1.0
 40
1.0
 40
1.0
 40
1.0
 10
23.13123775105601
 20
-25.35259031280261
 30
0.0
 10
22.47376797387705
 20
-25.35644820647571
 30
0.0
 10
20.7516324913987
 20
-25.36655333345293
 30
0.0
 10
17.9655812880983
 20
-24.93183346306914
 30
0.0
 10
14.77325819625775
 20
-24.10345518416752
 30
0.0
 10
11.58107701535996
 20
-22.87902897861781
 30
0.0
 10
8.388076045508292
 20
-21.29270308776831
 30
0.0
 10
5.193649187152253
 20
-19.38891501497337
 30
0.0
 10
3.064455999473985
 20
-17.86716268208133
 30
0.0
 10
2.000000000001911
 20
-17.1063869996155
 30
0.0
1001
PE_URL
1000

  0
LINE
  5
1B1
330
1F
100
AcDbEntity
  8
외형선
  6
Continuous
370
    15
100
AcDbLine
 10
2.000000000001911
 20
-17.1063869996155
 30
0.0
 11
2.000000000001897
 21
-12.11361622269787
 31
0.0
  0
SPLINE
  5
1B2
330
1F
100
AcDbEntity
  8
0
  6
Continuous
 62
     1
370
    15
100
AcDbSpline
210
0.0
220
0.0
230
1.0
 70
     8
 71
     3
 72
    12
 73
     8
 74
     0
 42
0.000000001
 43
0.00000001
 40
0.0
 40
0.0
 40
0.0
 40
0.0
 40
0.2396415279376026
 40
0.4791933444693721
 40
0.7187159379634491
 40
0.9582699228998003
 40
1.0
 40
1.0
 40
1.0
 40
1.0
 10
52.80000000000189
 20
25.21464479296995
 30
0.0
 10
51.73752160722905
 20
25.30404021820064
 30
0.0
 10
49.61296256756282
 20
25.48279760288781
 30
0.0
 10
46.42733359787764
 20
25.25256632958239
 30
0.0
 10
43.24214673072556
 20
24.6211116633584
 30
0.0
 10
40.93381854850646
 20
23.96695465992736
 30
0.0
 10
39.68674187509126
 20
23.42280506669246
 30
0.0
 10
39.50173101683396
 20
23.34207740542601
 30
0.0
1001
PE_URL
1000

  0
LINE
  5
1B3
330
1F
100
AcDbEntity
  8
0
  6
Continuous
 62
     1
370
    15
100
AcDbLine
 10
52.80000000000192
 20
15.25155254389358
 30
0.0
 11
52.80000000000192
 21
25.21464479296995
 31
0.0
1001
PE_URL
1000

  0
SPLINE
  5
1B4
330
1F
100
AcDbEntity
  8
0
  6
Continuous
 62
     1
370
    15
100
AcDbSpline
210
0.0
220
0.0
230
1.0
 70
     8
 71
     3
 72
    11
 73
     7
 74
     0
 42
0.000000001
 43
0.00000001
 40
0.0
 40
0.0
 40
0.0
 40
0.0
 40
0.2922817649540878
 40
0.5846400776437567
 40
0.8768845942731517
 40
1.0
 40
1.0
 40
1.0
 40
1.0
 10
2.000000000001911
 20
-25.39110992204025
 30
0.0
 10
3.062138671181351
 20
-25.38184692270582
 30
0.0
 10
5.186694184537863
 20
-25.36331849808468
 30
0.0
 10
8.37414740262411
 20
-24.80951196309727
 30
0.0
 10
10.94581720492207
 20
-24.13733589470582
 30
0.0
 10
12.4550251940913
 20
-23.50934726009773
 30
0.0
 10
12.9023643424105
 20
-23.32320730922564
 30
0.0
1001
PE_URL
1000

  0
SPLINE
  5
1B5
330
1F
100
AcDbEntity
  8
외형선
  6
Continuous
370
    15
100
AcDbSpline
210
0.0
220
0.0
230
1.0
 70
    24
 71
     3
 72
    13
 73
     9
 74
     0
 42
0.000000001
 43
0.00000001
 40
0.0
 40
0.0
 40
0.0
 40
0.0
 40
0.1763976790418531
 40
0.3786797010888102
 40
0.5752608563167974
 40
0.7775428783637497
 40
0.8882792815150684
 40
1.0
 40
1.0
 40
1.0
 40
1.0
 10
2.000000000001954
 20
-17.21790261498777
 30
0.0
 10
2.000000000001982
 20
-17.6395788879718
 30
0.0
 10
2.000000000001982
 20
-18.5448076068369
 30
0.0
 10
2.000000000001869
 20
-20.09043595536004
 30
0.0
 10
2.000000000001982
 20
-21.77551813819568
 30
0.0
 10
2.000000000001855
 20
-23.23995905188066
 30
0.0
 10
2.000000000002053
 20
-24.45337180809756
 30
0.0
 10
2.000000000001982
 20
-25.07760985332715
 30
0.0
 10
2.000000000001911
 20
-25.39110992204025
 30
0.0
  0
LINE
  5
1B6
330
1F
100
AcDbEntity
  8
0
  6
Continuous
 62
     1
370
    15
100
AcDbLine
 10
52.80000000000192
 20
25.21464479296995
 30
0.0
 11
52.80000000000192
 21
25.39999999999976
 31
0.0
1001
PE_URL
1000

  0
LINE
  5
1B7
330
1F
100
AcDbEntity
  8
외형선
  6
Continuous
370
    15
100
AcDbLine
 10
2.000000000001911
 20
-25.40000000000022
 30
0.0
 11
2.000000000001911
 21
-25.39110992204025
 31
0.0
  0
SPLINE
  5
1C1
330
1F
100
AcDbEntity
  8
외형선
  6
Continuous
370
    15
100
AcDbSpline
210
0.0
220
0.0
230
1.0
 70
    24
 71
     3
 72
    36
 73
    32
 74
     0
 42
0.000000001
 43
0.00000001
 40
0.0
 40
0.0
 40
0.0
 40
0.0
 40
0.0624999999999999
 40
0.0624999999999999
 40
0.1249999999999998
 40
0.1249999999999998
 40
0.1874999999999996
 40
0.1874999999999996
 40
0.2499999999999995
 40
0.2499999999999995
 40
0.3124999999999994
 40
0.3124999999999994
 40
0.3749999999999992
 40
0.3749999999999992
 40
0.4374999999999991
 40
0.4374999999999991
 40
0.499999999999999
 40
0.499999999999999
 40
0.5624999999999989
 40
0.5624999999999989
 40
0.6249999999999988
 40
0.6249999999999988
 40
0.7499999999999987
 40
0.7499999999999987
 40
0.8124999999999987
 40
0.8124999999999987
 40
0.8437499999999987
 40
0.8437499999999987
 40
0.8749999999999986
 40
0.8749999999999986
 40
1.0
 40
1.0
 40
1.0
 40
1.0
 10
2.00000000000194
 20
-12.1136162226977
 30
0.0
 10
2.000000000001911
 20
-11.93613115779
 30
0.0
 10
2.000000000001911
 20
-11.69866153773568
 30
0.0
 10
2.000000000001911
 20
-11.09017169853917
 30
0.0
 10
2.000000000001911
 20
-10.71894449588205
 30
0.0
 10
2.000000000001954
 20
-9.843533654602357
 30
0.0
 10
2.000000000001911
 20
-9.339274754996186
 30
0.0
 10
2.000000000001869
 20
-8.217712618417867
 30
0.0
 10
2.000000000001883
 20
-7.600553581131979
 30
0.0
 10
2.000000000001897
 20
-6.291644658320652
 30
0.0
 10
2.000000000001911
 20
-5.600230847663485
 30
0.0
 10
2.000000000001897
 20
-4.192356762406493
 30
0.0
 10
2.000000000001911
 20
-3.476275894835541
 30
0.0
 10
2.000000000001911
 20
-2.068321616121653
 30
0.0
 10
2.000000000001911
 20
-1.376706266474943
 30
0.0
 10
2.000000000001911
 20
-0.0565031890264463
 30
0.0
 10
2.000000000001911
 20
0.5720171335785665
 30
0.0
 10
2.000000000001911
 20
1.742677354315359
 30
0.0
 10
2.000000000001911
 20
2.28490012106131
 30
0.0
 10
2.000000000001982
 20
3.274617105354165
 30
0.0
 10
2.000000000001911
 20
3.72225855849575
 30
0.0
 10
2.000000000001911
 20
4.927392275258538
 30
0.0
 10
2.00000000000194
 20
5.546100606060887
 30
0.0
 10
2.000000000001911
 20
6.262108659476508
 30
0.0
 10
2.000000000001911
 20
6.465837190211571
 30
0.0
 10
2.000000000001911
 20
6.728420776815963
 30
0.0
 10
2.00000000000194
 20
6.807758815221999
 30
0.0
 10
2.00000000000194
 20
6.958375852361042
 30
0.0
 10
2.00000000000194
 20
7.031126456764238
 30
0.0
 10
2.000000000001883
 20
7.378044023998936
 30
0.0
 10
2.000000000001911
 20
7.604244693910457
 30
0.0
 10
2.00000000000194
 20
7.707146068125835
 30
0.0
  0
SPLINE
  5
1C2
330
1F
100
AcDbEntity
  8
외형선
  6
Continuous
370
    15
100
AcDbSpline
210
0.0
220
0.0
230
1.0
 70
    24
 71
     3
 72
    15
 73
    11
 74
     0
 42
0.000000001
 43
0.00000001
 40
0.0
 40
0.0
 40
0.0
 40
0.0
 40
0.1381849388583248
 40
0.2764213244607908
 40
0.4146577100632567
 40
0.5528940956657292
 40
0.6911304812682014
 40
0.8293668668706717
 40
0.967603252473142
 40
1.0
 40
1.0
 40
1.0
 40
1.0
 10
2.00000000000194
 20
13.38899931471459
 30
0.0
 10
2.000000000001911
 20
13.80507001440753
 30
0.0
 10
2.000000000001883
 20
14.63736631839449
 30
0.0
 10
2.000000000001954
 20
16.11602382868432
 30
0.0
 10
2.000000000001911
 20
17.70776735451241
 30
0.0
 10
2.000000000001911
 20
19.39008022990638
 30
0.0
 10
2.000000000001812
 20
21.10811591437659
 30
0.0
 10
2.000000000001855
 20
22.81350985160817
 30
0.0
 10
2.000000000002082
 20
24.0430649656848
 30
0.0
 10
2.000000000001897
 20
24.6905922449403
 30
0.0
 10
2.000000000001883
 20
24.81353306773404
 30
0.0
  0
SPLINE
  5
1C3
330
1F
100
AcDbEntity
  8
외형선
  6
Continuous
370
    15
100
AcDbSpline
210
0.0
220
0.0
230
1.0
 70
    24
 71
     3
 72
    14
 73
    10
 74
     0
 42
0.000000001
 43
0.00000001
 40
0.0
 40
0.0
 40
0.0
 40
0.0
 40
0.0005193144106095
 40
0.2001531907886593
 40
0.3997870671667088
 40
0.5994209435447596
 40
0.79905481992281
 40
0.998688696300862
 40
1.0
 40
1.0
 40
1.0
 40
1.0
 10
2.000000000001897
 20
-25.39110992204023
 30
0.0
 10
2.000000000001911
 20
-25.38966397666809
 30
0.0
 10
2.000000000006132
 20
-24.83237041033225
 30
0.0
 10
2.000000000000036
 20
-23.69461191011041
 30
0.0
 10
2.000000000002451
 20
-21.9768578827115
 30
0.0
 10
2.00000000000184
 20
-20.28521212267765
 30
0.0
 10
2.000000000001343
 20
-18.69374848415622
 30
0.0
 10
2.000000000003261
 20
-17.65992744947505
 30
0.0
 10
2.000000000001869
 20
-17.22075849054727
 30
0.0
 10
2.000000000001897
 20
-17.21789261498775
 30
0.0
  0
DIMENSION
  5
1C4
330
1F
100
AcDbEntity
  8
치수문자_일반주서
100
AcDbDimension
  2
*D8
 10
2.000000000001911
 20
35.87499999999997
 30
0.0
 11
27.40000000000192
 21
35.87499999999997
 31
0.0
 70
   160
  1
<>
 71
     2
 42
50.80000000000001
  3
SLDDIMSTYLE0
100
AcDbAlignedDimension
 13
52.80000000000192
 23
25.39999999999976
 33
0.0
 14
2.000000000001911
 24
25.39999999999977
 34
0.0
 50
-0.0000000000000321
100
AcDbRotatedDimension
1001
PE_URL
1000

1001
ACAD
1000
DSTYLE
1002
{
1070
   171
1070
     8
1070
   273
1070
     7
1070
   140
1040
4.0
1002
}
  0
LINE
  5
22F
330
1F
100
AcDbEntity
  8
외형선
  6
Continuous
370
    15
100
AcDbLine
 10
-58.32499999999809
 20
-15.87500000000003
 30
0.0
 11
2.000000000001904
 21
-15.87500000000003
 31
0.0
  0
LINE
  5
230
330
1F
100
AcDbEntity
  8
외형선
  6
Continuous
370
    15
100
AcDbLine
 10
2.000000000001911
 20
15.87499999999997
 30
0.0
 11
-24.06992499999807
 21
15.87499999999997
 31
0.0
1001
PE_URL
1000

  0
LINE
  5
232
330
1F
100
AcDbEntity
  8
외형선
  6
Continuous
370
    15
100
AcDbLine
 10
-61.49999999999808
 20
-12.70000000000006
 30
0.0
 11
-58.32499999999809
 21
-15.87500000000005
 31
0.0
  0
LINE
  5
241
330
1F
100
AcDbEntity
  8
외형선
  6
Continuous
370
    15
100
AcDbLine
 10
-58.32499999999809
 20
-0.0000000000000312
 30
0.0
 11
-58.32499999999809
 21
13.96999999999997
 31
0.0
  0
LINE
  5
242
330
1F
100
AcDbEntity
  8
외형선
  6
Continuous
370
    15
100
AcDbLine
 10
-58.32499999999809
 20
-15.87500000000003
 30
0.0
 11
-58.32499999999809
 21
-0.0000000000000312
 31
0.0
  0
LINE
  5
244
330
1F
100
AcDbEntity
  8
외형선
  6
Continuous
370
    15
100
AcDbLine
 10
-61.49999999999808
 20
-0.0000000000000312
 30
0.0
 11
-61.49999999999808
 21
13.96999999999997
 31
0.0
  0
LINE
  5
245
330
1F
100
AcDbEntity
  8
외형선
  6
Continuous
370
    15
100
AcDbLine
 10
-61.49999999999808
 20
-12.70000000000006
 30
0.0
 11
-61.49999999999808
 21
-0.0000000000000312
 31
0.0
  0
CIRCLE
  5
249
330
1F
100
AcDbEntity
  8
해칭선
100
AcDbCircle
 10
0.0
 20
0.0
 30
0.0
 40
3.000000000000001
  0
INSERT
  5
24A
330
1F
100
AcDbEntity
  8
해칭선
100
AcDbBlockReference
  2
SW_DOWELSYMBOL_0
 10
0.0
 20
0.0
 30
0.0
  0
LINE
  5
24B
330
1F
100
AcDbEntity
  8
외형선
  6
Continuous
370
    15
100
AcDbLine
 10
-39.081324999998
 20
13.96999999999997
 30
0.0
 11
-25.9749249999981
 21
13.96999999999997
 31
0.0
1001
PE_URL
1000

  0
LINE
  5
24C
330
1F
100
AcDbEntity
  8
외형선
  6
Continuous
370
    15
100
AcDbLine
 10
-39.081324999998
 20
13.96999999999997
 30
0.0
 11
-40.98632499999796
 21
15.87499999999997
 31
0.0
1001
PE_URL
1000

  0
LINE
  5
24D
330
1F
100
AcDbEntity
  8
외형선
  6
Continuous
370
    15
100
AcDbLine
 10
-25.9749249999981
 20
13.96999999999997
 30
0.0
 11
-24.06992499999807
 21
15.87499999999997
 31
0.0
1001
PE_URL
1000

  0
LINE
  5
24E
330
1F
100
AcDbEntity
  8
외형선
  6
Continuous
370
    15
100
AcDbLine
 10
-61.49999999999808
 20
13.96999999999997
 30
0.0
 11
-48.79999999999807
 21
13.96999999999997
 31
0.0
1001
PE_URL
1000

  0
LINE
  5
24F
330
1F
100
AcDbEntity
  8
외형선
  6
Continuous
370
    15
100
AcDbLine
 10
-48.79999999999807
 20
13.96999999999997
 30
0.0
 11
-46.89499999999809
 21
15.87499999999995
 31
0.0
1001
PE_URL
1000

  0
LINE
  5
250
330
1F
100
AcDbEntity
  8
외형선
  6
Continuous
370
    15
100
AcDbLine
 10
-40.98632499999796
 20
15.87499999999997
 30
0.0
 11
-46.89499999999808
 21
15.87499999999997
 31
0.0
1001
PE_URL
1000

  0
ENDSEC
  0
SECTION
  2
OBJECTS
  0
DICTIONARY
  5
C
330
0
100
AcDbDictionary
281
     1
  3
ACAD_DETAILVIEWSTYLE
350
1D7
  3
ACAD_GROUP
350
D
  3
ACAD_IMAGE_VARS
350
282
  3
ACAD_LAYOUT
350
1A
  3
ACAD_MLINESTYLE
350
17
  3
ACAD_PLOTSETTINGS
350
19
  3
ACAD_PLOTSTYLENAME
350
E
  3
ACAD_SCALELIST
350
47
  3
ACAD_SECTIONVIEWSTYLE
350
1D8
  3
AcDbVariableDictionary
350
1D2
  3
APPDATA
350
126
  3
DWGPROPS
350
283
  0
DICTIONARY
  5
189
330
2
100
AcDbDictionary
280
     1
281
     1
  3
ACAD_LAYERSTATES
360
18A
  0
DICTIONARY
  5
1D7
102
{ACAD_REACTORS
330
C
102
}
330
C
100
AcDbDictionary
281
     1
  0
DICTIONARY
  5
D
102
{ACAD_REACTORS
330
C
102
}
330
C
100
AcDbDictionary
281
     1
  0
RASTERVARIABLES
  5
282
102
{ACAD_REACTORS
330
C
102
}
330
C
100
AcDbRasterVariables
 90
        0
 70
     1
 71
     1
 72
     1
  0
DICTIONARY
  5
1A
102
{ACAD_REACTORS
330
C
102
}
330
C
100
AcDbDictionary
281
     1
  3
Layout1
350
1E
  3
Layout2
350
26
  3
Model
350
22
  0
DICTIONARY
  5
17
102
{ACAD_REACTORS
330
C
102
}
330
C
100
AcDbDictionary
281
     1
  3
Standard
350
18
  0
DICTIONARY
  5
19
102
{ACAD_REACTORS
330
C
102
}
330
C
100
AcDbDictionary
281
     1
  0
ACDBDICTIONARYWDFLT
  5
E
102
{ACAD_REACTORS
330
C
102
}
330
C
100
AcDbDictionary
281
     1
  3
Normal
350
F
100
AcDbDictionaryWithDefault
340
F
  0
DICTIONARY
  5
47
102
{ACAD_REACTORS
330
C
102
}
330
C
100
AcDbDictionary
281
     1
  3
A0
350
48
  3
A1
350
49
  3
A2
350
4A
  3
A3
350
4B
  3
A4
350
4C
  3
A5
350
4D
  3
A6
350
4E
  3
A7
350
4F
  3
A8
350
50
  3
A9
350
51
  3
B0
350
52
  3
B1
350
53
  3
B2
350
54
  3
B3
350
55
  3
B4
350
56
  3
B5
350
57
  3
B6
350
58
  3
B7
350
59
  3
B8
350
5A
  3
B9
350
5B
  3
C0
350
5C
  3
C1
350
5D
  3
C2
350
5E
  3
C3
350
5F
  3
C4
350
60
  3
C5
350
61
  3
C6
350
62
  3
C7
350
63
  3
C8
350
64
  3
C9
350
65
  3
D0
350
66
  3
D1
350
67
  3
D2
350
68
  0
DICTIONARY
  5
1D8
102
{ACAD_REACTORS
330
C
102
}
330
C
100
AcDbDictionary
281
     1
  0
DICTIONARY
  5
1D2
102
{ACAD_REACTORS
330
C
102
}
330
C
100
AcDbDictionary
281
     1
  0
DICTIONARY
  5
126
102
{ACAD_REACTORS
330
C
102
}
330
C
100
AcDbDictionary
281
     1
  0
XRECORD
  5
283
102
{ACAD_REACTORS
330
C
102
}
330
C
100
AcDbXrecord
280
     1
  1
DWGPROPS COOKIE
  2

  3

  4

  6

  7

  8
12016016
  9

300
=
301
=
302
=
303
=
304
=
305
=
306
=
307
=
308
=
309
=
 40
0.0
 41
2458323.102572558
 42
2458330.390761342
  1

 90
        0
  0
DICTIONARY
  5
18A
102
{ACAD_REACTORS
330
189
102
}
330
189
100
AcDbDictionary
281
     1
  0
LAYOUT
  5
1E
102
{ACAD_REACTORS
330
1A
102
}
330
1A
100
AcDbPlotSettings
  1

  2
none_device
  4

  6

 40
0.0
 41
0.0
 42
0.0
 43
0.0
 44
0.0
 45
0.0
 46
0.0
 47
0.0
 48
0.0
 49
0.0
140
0.0
141
0.0
142
1.0
143
1.0
 70
   688
 72
     1
 73
     0
 74
     5
  7

 75
    16
147
1.0
148
0.0
149
0.0
100
AcDbLayout
  1
Layout1
 70
     1
 71
     1
 10
0.0
 20
0.0
 11
420.0
 21
297.0
 12
0.0
 22
0.0
 32
0.0
 14
1.000000000000000E+20
 24
1.000000000000000E+20
 34
1.000000000000000E+20
 15
-1.000000000000000E+20
 25
-1.000000000000000E+20
 35
-1.000000000000000E+20
146
0.0
 13
0.0
 23
0.0
 33
0.0
 16
1.0
 26
0.0
 36
0.0
 17
0.0
 27
1.0
 37
0.0
 76
     0
330
1B
  0
LAYOUT
  5
26
102
{ACAD_REACTORS
330
1A
102
}
330
1A
100
AcDbPlotSettings
  1

  2
none_device
  4

  6

 40
0.0
 41
0.0
 42
0.0
 43
0.0
 44
0.0
 45
0.0
 46
0.0
 47
0.0
 48
0.0
 49
0.0
140
0.0
141
0.0
142
1.0
143
1.0
 70
   688
 72
     1
 73
     0
 74
     5
  7

 75
    16
147
1.0
148
0.0
149
0.0
100
AcDbLayout
  1
Layout2
 70
     1
 71
     2
 10
0.0
 20
0.0
 11
0.0
 21
0.0
 12
0.0
 22
0.0
 32
0.0
 14
0.0
 24
0.0
 34
0.0
 15
0.0
 25
0.0
 35
0.0
146
0.0
 13
0.0
 23
0.0
 33
0.0
 16
1.0
 26
0.0
 36
0.0
 17
0.0
 27
1.0
 37
0.0
 76
     0
330
23
  0
LAYOUT
  5
22
102
{ACAD_REACTORS
330
1A
102
}
330
1A
100
AcDbPlotSettings
  1

  2
none_device
  4
ANSI_A_(11.00_x_8.50_Inches)
  6

 40
6.35
 41
19.05
 42
6.35000508
 43
19.05000254
 44
279.4
 45
215.9
 46
96.39525648754174
 47
90.09827952143297
 48
0.0
 49
0.0
140
0.0
141
0.0
142
0.0605651527843098
143
1.0
 70
  1696
 72
     0
 73
     0
 74
     0
  7

 75
     0
147
0.0235690232323232
148
0.0
149
0.0
100
AcDbLayout
  1
Model
 70
     1
 71
     0
 10
0.0
 20
0.0
 11
420.0
 21
297.0
 12
0.0
 22
0.0
 32
0.0
 14
-81.37499999999825
 24
-49.97180738881175
 34
0.0
 15
87.75098381534752
 25
58.22899999999986
 35
0.0
146
0.0
 13
0.0
 23
0.0
 33
0.0
 16
1.0
 26
0.0
 36
0.0
 17
0.0
 27
1.0
 37
0.0
 76
     0
330
1F
331
29
  0
MLINESTYLE
  5
18
102
{ACAD_REACTORS
330
17
102
}
330
17
100
AcDbMlineStyle
  2
Standard
 70
     0
  3

 62
   256
 51
90.0
 52
90.0
 71
     2
 49
0.5
 62
   256
  6
BYLAYER
 49
-0.5
 62
   256
  6
BYLAYER
  0
ACDBPLACEHOLDER
  5
F
102
{ACAD_REACTORS
330
E
102
}
330
E
  0
SCALE
  5
48
102
{ACAD_REACTORS
330
47
102
}
330
47
100
AcDbScale
 70
     0
300
1:1
140
1.0
141
1.0
290
     1
  0
SCALE
  5
49
102
{ACAD_REACTORS
330
47
102
}
330
47
100
AcDbScale
 70
     0
300
1:2
140
1.0
141
2.0
290
     0
  0
SCALE
  5
4A
102
{ACAD_REACTORS
330
47
102
}
330
47
100
AcDbScale
 70
     0
300
1:4
140
1.0
141
4.0
290
     0
  0
SCALE
  5
4B
102
{ACAD_REACTORS
330
47
102
}
330
47
100
AcDbScale
 70
     0
300
1:5
140
1.0
141
5.0
290
     0
  0
SCALE
  5
4C
102
{ACAD_REACTORS
330
47
102
}
330
47
100
AcDbScale
 70
     0
300
1:8
140
1.0
141
8.0
290
     0
  0
SCALE
  5
4D
102
{ACAD_REACTORS
330
47
102
}
330
47
100
AcDbScale
 70
     0
300
1:10
140
1.0
141
10.0
290
     0
  0
SCALE
  5
4E
102
{ACAD_REACTORS
330
47
102
}
330
47
100
AcDbScale
 70
     0
300
1:16
140
1.0
141
16.0
290
     0
  0
SCALE
  5
4F
102
{ACAD_REACTORS
330
47
102
}
330
47
100
AcDbScale
 70
     0
300
1:20
140
1.0
141
20.0
290
     0
  0
SCALE
  5
50
102
{ACAD_REACTORS
330
47
102
}
330
47
100
AcDbScale
 70
     0
300
1:30
140
1.0
141
30.0
290
     0
  0
SCALE
  5
51
102
{ACAD_REACTORS
330
47
102
}
330
47
100
AcDbScale
 70
     0
300
1:40
140
1.0
141
40.0
290
     0
  0
SCALE
  5
52
102
{ACAD_REACTORS
330
47
102
}
330
47
100
AcDbScale
 70
     0
300
1:50
140
1.0
141
50.0
290
     0
  0
SCALE
  5
53
102
{ACAD_REACTORS
330
47
102
}
330
47
100
AcDbScale
 70
     0
300
1:100
140
1.0
141
100.0
290
     0
  0
SCALE
  5
54
102
{ACAD_REACTORS
330
47
102
}
330
47
100
AcDbScale
 70
     0
300
2:1
140
2.0
141
1.0
290
     0
  0
SCALE
  5
55
102
{ACAD_REACTORS
330
47
102
}
330
47
100
AcDbScale
 70
     0
300
4:1
140
4.0
141
1.0
290
     0
  0
SCALE
  5
56
102
{ACAD_REACTORS
330
47
102
}
330
47
100
AcDbScale
 70
     0
300
8:1
140
8.0
141
1.0
290
     0
  0
SCALE
  5
57
102
{ACAD_REACTORS
330
47
102
}
330
47
100
AcDbScale
 70
     0
300
10:1
140
10.0
141
1.0
290
     0
  0
SCALE
  5
58
102
{ACAD_REACTORS
330
47
102
}
330
47
100
AcDbScale
 70
     0
300
100:1
140
100.0
141
1.0
290
     0
  0
SCALE
  5
59
102
{ACAD_REACTORS
330
47
102
}
330
47
100
AcDbScale
 70
     0
300
1/128" = 1'-0"
140
0.0078125
141
12.0
290
     0
  0
SCALE
  5
5A
102
{ACAD_REACTORS
330
47
102
}
330
47
100
AcDbScale
 70
     0
300
1/64" = 1'-0"
140
0.015625
141
12.0
290
     0
  0
SCALE
  5
5B
102
{ACAD_REACTORS
330
47
102
}
330
47
100
AcDbScale
 70
     0
300
1/32" = 1'-0"
140
0.03125
141
12.0
290
     0
  0
SCALE
  5
5C
102
{ACAD_REACTORS
330
47
102
}
330
47
100
AcDbScale
 70
     0
300
1/16" = 1'-0"
140
0.0625
141
12.0
290
     0
  0
SCALE
  5
5D
102
{ACAD_REACTORS
330
47
102
}
330
47
100
AcDbScale
 70
     0
300
3/32" = 1'-0"
140
0.09375
141
12.0
290
     0
  0
SCALE
  5
5E
102
{ACAD_REACTORS
330
47
102
}
330
47
100
AcDbScale
 70
     0
300
1/8" = 1'-0"
140
0.125
141
12.0
290
     0
  0
SCALE
  5
5F
102
{ACAD_REACTORS
330
47
102
}
330
47
100
AcDbScale
 70
     0
300
3/16" = 1'-0"
140
0.1875
141
12.0
290
     0
  0
SCALE
  5
60
102
{ACAD_REACTORS
330
47
102
}
330
47
100
AcDbScale
 70
     0
300
1/4" = 1'-0"
140
0.25
141
12.0
290
     0
  0
SCALE
  5
61
102
{ACAD_REACTORS
330
47
102
}
330
47
100
AcDbScale
 70
     0
300
3/8" = 1'-0"
140
0.375
141
12.0
290
     0
  0
SCALE
  5
62
102
{ACAD_REACTORS
330
47
102
}
330
47
100
AcDbScale
 70
     0
300
1/2" = 1'-0"
140
0.5
141
12.0
290
     0
  0
SCALE
  5
63
102
{ACAD_REACTORS
330
47
102
}
330
47
100
AcDbScale
 70
     0
300
3/4" = 1'-0"
140
0.75
141
12.0
290
     0
  0
SCALE
  5
64
102
{ACAD_REACTORS
330
47
102
}
330
47
100
AcDbScale
 70
     0
300
1" = 1'-0"
140
1.0
141
12.0
290
     0
  0
SCALE
  5
65
102
{ACAD_REACTORS
330
47
102
}
330
47
100
AcDbScale
 70
     0
300
1-1/2" = 1'-0"
140
1.5
141
12.0
290
     0
  0
SCALE
  5
66
102
{ACAD_REACTORS
330
47
102
}
330
47
100
AcDbScale
 70
     0
300
3" = 1'-0"
140
3.0
141
12.0
290
     0
  0
SCALE
  5
67
102
{ACAD_REACTORS
330
47
102
}
330
47
100
AcDbScale
 70
     0
300
6" = 1'-0"
140
6.0
141
12.0
290
     0
  0
SCALE
  5
68
102
{ACAD_REACTORS
330
47
102
}
330
47
100
AcDbScale
 70
     0
300
1'-0" = 1'-0"
140
12.0
141
12.0
290
     0
  0
ENDSEC
  0
EOF
