  0
SECTION
  2
HEADER
  9
$ACADVER
  1
AC1015
  9
$ACADMAINTVER
 70
     6
  9
$DWGCODEPAGE
  3
ANSI_949
  9
$INSBASE
 10
0.0
 20
0.0
 30
0.0
  9
$EXTMIN
 10
-53.26875000000008
 20
-49.97180738881175
 30
0.0
  9
$EXTMAX
 10
100.1753750329551
 20
37.61649999999996
 30
0.0
  9
$LIMMIN
 10
0.0
 20
0.0
  9
$LIMMAX
 10
420.0
 20
297.0
  9
$ORTHOMODE
 70
     1
  9
$REGENMODE
 70
     1
  9
$FILLMODE
 70
     1
  9
$QTEXTMODE
 70
     0
  9
$MIRRTEXT
 70
     1
  9
$LTSCALE
 40
1.0
  9
$ATTMODE
 70
     1
  9
$TEXTSIZE
 40
3.5
  9
$TRACEWID
 40
1.0
  9
$TEXTSTYLE
  7
Standard
  9
$CLAYER
  8
0
  9
$CELTYPE
  6
ByLayer
  9
$CECOLOR
 62
   256
  9
$CELTSCALE
 40
1.0
  9
$DISPSILH
 70
     0
  9
$DIMSCALE
 40
1.0
  9
$DIMASZ
 40
3.302
  9
$DIMEXO
 40
1.0
  9
$DIMDLI
 40
3.75
  9
$DIMRND
 40
0.0
  9
$DIMDLE
 40
0.0
  9
$DIMEXE
 40
1.0
  9
$DIMTP
 40
0.0
  9
$DIMTM
 40
0.0
  9
$DIMTXT
 40
3.5
  9
$DIMCEN
 40
2.5
  9
$DIMTSZ
 40
0.0
  9
$DIMTOL
 70
     0
  9
$DIMLIM
 70
     0
  9
$DIMTIH
 70
     1
  9
$DIMTOH
 70
     1
  9
$DIMSE1
 70
     0
  9
$DIMSE2
 70
     0
  9
$DIMTAD
 70
     1
  9
$DIMZIN
 70
     0
  9
$DIMBLK
  1

  9
$DIMASO
 70
     1
  9
$DIMSHO
 70
     1
  9
$DIMPOST
  1

  9
$DIMAPOST
  1

  9
$DIMALT
 70
     0
  9
$DIMALTD
 70
     3
  9
$DIMALTF
 40
0.0393700787401575
  9
$DIMLFAC
 40
1.0
  9
$DIMTOFL
 70
     1
  9
$DIMTVP
 40
0.0
  9
$DIMTIX
 70
     0
  9
$DIMSOXD
 70
     0
  9
$DIMSAH
 70
     0
  9
$DIMBLK1
  1

  9
$DIMBLK2
  1

  9
$DIMSTYLE
  2
ISO-25
  9
$DIMCLRD
 70
     0
  9
$DIMCLRE
 70
     0
  9
$DIMCLRT
 70
     0
  9
$DIMTFAC
 40
1.0
  9
$DIMGAP
 40
1.524
  9
$DIMJUST
 70
     0
  9
$DIMSD1
 70
     0
  9
$DIMSD2
 70
     0
  9
$DIMTOLJ
 70
     0
  9
$DIMTZIN
 70
     0
  9
$DIMALTZ
 70
     0
  9
$DIMALTTZ
 70
     0
  9
$DIMUPT
 70
     0
  9
$DIMDEC
 70
     2
  9
$DIMTDEC
 70
     2
  9
$DIMALTU
 70
     2
  9
$DIMALTTD
 70
     3
  9
$DIMTXSTY
  7
Standard
  9
$DIMAUNIT
 70
     0
  9
$DIMADEC
 70
     2
  9
$DIMALTRND
 40
0.0
  9
$DIMAZIN
 70
     0
  9
$DIMDSEP
 70
    44
  9
$DIMATFIT
 70
     3
  9
$DIMFRAC
 70
     0
  9
$DIMLDRBLK
  1

  9
$DIMLUNIT
 70
     2
  9
$DIMLWD
 70
    -2
  9
$DIMLWE
 70
    -2
  9
$DIMTMOVE
 70
     0
  9
$LUNITS
 70
     2
  9
$LUPREC
 70
     2
  9
$SKETCHINC
 40
1.0
  9
$FILLETRAD
 40
10.0
  9
$AUNITS
 70
     0
  9
$AUPREC
 70
     2
  9
$MENU
  1
.
  9
$ELEVATION
 40
0.0
  9
$PELEVATION
 40
0.0
  9
$THICKNESS
 40
0.0
  9
$LIMCHECK
 70
     0
  9
$CHAMFERA
 40
0.0
  9
$CHAMFERB
 40
0.0
  9
$CHAMFERC
 40
0.0
  9
$CHAMFERD
 40
0.0
  9
$SKPOLY
 70
     0
  9
$TDCREATE
 40
2458313.393770289
  9
$TDUCREATE
 40
2458313.018770289
  9
$TDUPDATE
 40
2458330.777113241
  9
$TDUUPDATE
 40
2458330.402113241
  9
$TDINDWG
 40
0.0004580556
  9
$TDUSRTIMER
 40
2458330.402077257
  9
$USRTIMER
 70
     1
  9
$ANGBASE
 50
0.0
  9
$ANGDIR
 70
     0
  9
$PDMODE
 70
     0
  9
$PDSIZE
 40
-1.0
  9
$PLINEWID
 40
0.0
  9
$SPLFRAME
 70
     0
  9
$SPLINETYPE
 70
     6
  9
$SPLINESEGS
 70
     8
  9
$HANDSEED
  5
276
  9
$SURFTAB1
 70
     6
  9
$SURFTAB2
 70
     6
  9
$SURFTYPE
 70
     6
  9
$SURFU
 70
     6
  9
$SURFV
 70
     6
  9
$UCSBASE
  2

  9
$UCSNAME
  2

  9
$UCSORG
 10
0.0
 20
0.0
 30
0.0
  9
$UCSXDIR
 10
1.0
 20
0.0
 30
0.0
  9
$UCSYDIR
 10
0.0
 20
1.0
 30
0.0
  9
$UCSORTHOREF
  2

  9
$UCSORTHOVIEW
 70
     0
  9
$UCSORGTOP
 10
0.0
 20
0.0
 30
0.0
  9
$UCSORGBOTTOM
 10
0.0
 20
0.0
 30
0.0
  9
$UCSORGLEFT
 10
0.0
 20
0.0
 30
0.0
  9
$UCSORGRIGHT
 10
0.0
 20
0.0
 30
0.0
  9
$UCSORGFRONT
 10
0.0
 20
0.0
 30
0.0
  9
$UCSORGBACK
 10
0.0
 20
0.0
 30
0.0
  9
$PUCSBASE
  2

  9
$PUCSNAME
  2

  9
$PUCSORG
 10
0.0
 20
0.0
 30
0.0
  9
$PUCSXDIR
 10
1.0
 20
0.0
 30
0.0
  9
$PUCSYDIR
 10
0.0
 20
1.0
 30
0.0
  9
$PUCSORTHOREF
  2

  9
$PUCSORTHOVIEW
 70
     0
  9
$PUCSORGTOP
 10
0.0
 20
0.0
 30
0.0
  9
$PUCSORGBOTTOM
 10
0.0
 20
0.0
 30
0.0
  9
$PUCSORGLEFT
 10
0.0
 20
0.0
 30
0.0
  9
$PUCSORGRIGHT
 10
0.0
 20
0.0
 30
0.0
  9
$PUCSORGFRONT
 10
0.0
 20
0.0
 30
0.0
  9
$PUCSORGBACK
 10
0.0
 20
0.0
 30
0.0
  9
$USERI1
 70
     0
  9
$USERI2
 70
     0
  9
$USERI3
 70
     0
  9
$USERI4
 70
     0
  9
$USERI5
 70
     0
  9
$USERR1
 40
0.0
  9
$USERR2
 40
0.0
  9
$USERR3
 40
0.0
  9
$USERR4
 40
0.0
  9
$USERR5
 40
0.0
  9
$WORLDVIEW
 70
     1
  9
$SHADEDGE
 70
     3
  9
$SHADEDIF
 70
    70
  9
$TILEMODE
 70
     1
  9
$MAXACTVP
 70
    64
  9
$PINSBASE
 10
0.0
 20
0.0
 30
0.0
  9
$PLIMCHECK
 70
     0
  9
$PEXTMIN
 10
1.000000000000000E+20
 20
1.000000000000000E+20
 30
1.000000000000000E+20
  9
$PEXTMAX
 10
-1.000000000000000E+20
 20
-1.000000000000000E+20
 30
-1.000000000000000E+20
  9
$PLIMMIN
 10
0.0
 20
0.0
  9
$PLIMMAX
 10
0.0
 20
0.0
  9
$UNITMODE
 70
     0
  9
$VISRETAIN
 70
     1
  9
$PLINEGEN
 70
     0
  9
$PSLTSCALE
 70
     1
  9
$TREEDEPTH
 70
  3020
  9
$CMLSTYLE
  2
Standard
  9
$CMLJUST
 70
     0
  9
$CMLSCALE
 40
20.0
  9
$PROXYGRAPHICS
 70
     1
  9
$MEASUREMENT
 70
     1
  9
$CELWEIGHT
370
    -1
  9
$ENDCAPS
280
     0
  9
$JOINSTYLE
280
     0
  9
$LWDISPLAY
290
     1
  9
$INSUNITS
 70
     4
  9
$HYPERLINKBASE
  1

  9
$STYLESHEET
  1

  9
$XEDIT
290
     1
  9
$CEPSNTYPE
380
     0
  9
$PSTYLEMODE
290
     1
  9
$FINGERPRINTGUID
  2
{BB37EE97-B138-42E3-8B8D-CFDAB4CE7BBC}
  9
$VERSIONGUID
  2
{FAEB1C32-E019-11D5-929B-00C0DF256EC4}
  9
$EXTNAMES
290
     1
  9
$PSVPSCALE
 40
0.0
  9
$OLESTARTUP
290
     0
  0
ENDSEC
  0
SECTION
  2
CLASSES
  0
CLASS
  1
ACDBDICTIONARYWDFLT
  2
AcDbDictionaryWithDefault
  3
ObjectDBX Classes
 90
        0
280
     0
281
     0
  0
CLASS
  1
VISUALSTYLE
  2
AcDbVisualStyle
  3
ObjectDBX Classes
 90
     4095
280
     0
281
     0
  0
CLASS
  1
MATERIAL
  2
AcDbMaterial
  3
ObjectDBX Classes
 90
     1153
280
     0
281
     0
  0
CLASS
  1
SCALE
  2
AcDbScale
  3
ObjectDBX Classes
 90
     1153
280
     0
281
     0
  0
CLASS
  1
SUN
  2
AcDbSun
  3
SCENEOE
 90
     1153
280
     0
281
     0
  0
CLASS
  1
ACDBPLACEHOLDER
  2
AcDbPlaceHolder
  3
ObjectDBX Classes
 90
        0
280
     0
281
     0
  0
CLASS
  1
LAYOUT
  2
AcDbLayout
  3
ObjectDBX Classes
 90
        0
280
     0
281
     0
  0
CLASS
  1
TABLESTYLE
  2
AcDbTableStyle
  3
ObjectDBX Classes
 90
     4095
280
     0
281
     0
  0
CLASS
  1
MLEADERSTYLE
  2
AcDbMLeaderStyle
  3
ACDB_MLEADERSTYLE_CLASS
 90
     4095
280
     0
281
     0
  0
CLASS
  1
RASTERVARIABLES
  2
AcDbRasterVariables
  3
ISM
 90
        0
280
     0
281
     0
  0
ENDSEC
  0
SECTION
  2
TABLES
  0
TABLE
  2
VPORT
  5
8
330
0
100
AcDbSymbolTable
 70
     1
  0
VPORT
  5
29
330
8
100
AcDbSymbolTableRecord
100
AcDbViewportTableRecord
  2
*Active
 70
     0
 10
0.0
 20
0.0
 11
1.0
 21
1.0
 12
23.45331251647748
 22
-6.177653694405898
 13
0.0
 23
0.0
 14
10.0
 24
10.0
 15
10.0
 25
10.0
 16
0.0
 26
0.0
 36
1.0
 17
0.0
 27
0.0
 37
0.0
 40
89.34007353658794
 41
1.782762691853601
 42
50.0
 43
0.0
 44
0.0
 50
0.0
 51
0.0
 71
    16
 72
  2000
 73
     1
 74
     3
 75
     0
 76
     0
 77
     0
 78
     0
281
     0
 65
     1
110
0.0
120
0.0
130
0.0
111
1.0
121
0.0
131
0.0
112
0.0
122
1.0
132
0.0
 79
     0
146
0.0
  0
ENDTAB
  0
TABLE
  2
LTYPE
  5
5
330
0
100
AcDbSymbolTable
 70
     6
  0
LTYPE
  5
14
330
5
100
AcDbSymbolTableRecord
100
AcDbLinetypeTableRecord
  2
ByBlock
 70
     0
  3

 72
    65
 73
     0
 40
0.0
  0
LTYPE
  5
15
330
5
100
AcDbSymbolTableRecord
100
AcDbLinetypeTableRecord
  2
ByLayer
 70
     0
  3

 72
    65
 73
     0
 40
0.0
  0
LTYPE
  5
16
330
5
100
AcDbSymbolTableRecord
100
AcDbLinetypeTableRecord
  2
Continuous
 70
     0
  3
Solid line
 72
    65
 73
     0
 40
0.0
  0
LTYPE
  5
6A
330
5
100
AcDbSymbolTableRecord
100
AcDbLinetypeTableRecord
  2
HIDDEN
 70
     0
  3
Hidden __ __ __ __ __ __ __ __ __ __ __ __ __ __
 72
    65
 73
     2
 40
1.905
 49
1.27
 74
     0
 49
-0.635
 74
     0
  0
LTYPE
  5
6B
330
5
100
AcDbSymbolTableRecord
100
AcDbLinetypeTableRecord
  2
PHANTOM
 70
     0
  3
Phantom ______  __  __  ______  __  __  ______
 72
    65
 73
     6
 40
12.7
 49
6.35
 74
     0
 49
-1.27
 74
     0
 49
1.27
 74
     0
 49
-1.27
 74
     0
 49
1.27
 74
     0
 49
-1.27
 74
     0
  0
LTYPE
  5
6C
330
5
100
AcDbSymbolTableRecord
100
AcDbLinetypeTableRecord
  2
CENTER
 70
     0
  3
Center ____ _ ____ _ ____ _ ____ _ ____ _ ____
 72
    65
 73
     4
 40
10.16
 49
6.35
 74
     0
 49
-1.27
 74
     0
 49
1.27
 74
     0
 49
-1.27
 74
     0
  0
LTYPE
  5
6D
330
5
100
AcDbSymbolTableRecord
100
AcDbLinetypeTableRecord
  2
CENTERX2
 70
     0
  3
Center (2x) ________  __  ________  __  _____
 72
    65
 73
     4
 40
20.32
 49
12.7
 74
     0
 49
-2.54
 74
     0
 49
2.54
 74
     0
 49
-2.54
 74
     0
  0
LTYPE
  5
6E
330
5
100
AcDbSymbolTableRecord
100
AcDbLinetypeTableRecord
  2
DOT2
 70
     0
  3
Dot (.5x) ........................................
 72
    65
 73
     2
 40
0.635
 49
0.0
 74
     0
 49
-0.635
 74
     0
  0
ENDTAB
  0
TABLE
  2
LAYER
  5
2
102
{ACAD_XDICTIONARY
360
192
102
}
330
0
100
AcDbSymbolTable
 70
    18
  0
LAYER
  5
10
330
2
100
AcDbSymbolTableRecord
100
AcDbLayerTableRecord
  2
0
 70
     0
 62
     7
  6
Continuous
370
    -3
390
F
  0
LAYER
  5
6F
330
2
100
AcDbSymbolTableRecord
100
AcDbLayerTableRecord
  2
FORMAT
 70
     0
 62
     2
  6
Continuous
370
    -3
390
F
  0
LAYER
  5
70
330
2
100
AcDbSymbolTableRecord
100
AcDbLayerTableRecord
  2
외형선
 70
     0
 62
     4
  6
Continuous
370
    30
390
F
  0
LAYER
  5
71
330
2
100
AcDbSymbolTableRecord
100
AcDbLayerTableRecord
  2
숨은선
 70
     0
 62
     2
  6
HIDDEN
370
    15
390
F
  0
LAYER
  5
72
330
2
100
AcDbSymbolTableRecord
100
AcDbLayerTableRecord
  2
중심선
 70
     0
 62
     1
  6
CENTERX2
370
    -3
390
F
  0
LAYER
  5
73
330
2
100
AcDbSymbolTableRecord
100
AcDbLayerTableRecord
  2
파단선
 70
     0
 62
     4
  6
Continuous
370
    -3
390
F
  0
LAYER
  5
74
330
2
100
AcDbSymbolTableRecord
100
AcDbLayerTableRecord
  2
해칭선
 70
     0
 62
   100
  6
Continuous
370
    -3
390
F
  0
LAYER
  5
75
330
2
100
AcDbSymbolTableRecord
100
AcDbLayerTableRecord
  2
가는실선
 70
     0
 62
     4
  6
Continuous
370
    -3
390
F
  0
LAYER
  5
76
330
2
100
AcDbSymbolTableRecord
100
AcDbLayerTableRecord
  2
치수_보조선
 70
     0
 62
     4
  6
Continuous
370
    -3
390
F
  0
LAYER
  5
77
330
2
100
AcDbSymbolTableRecord
100
AcDbLayerTableRecord
  2
치수문자_일반주서
 70
     0
 62
     7
  6
Continuous
370
    15
390
F
  0
LAYER
  5
78
330
2
100
AcDbSymbolTableRecord
100
AcDbLayerTableRecord
  2
개별주서
 70
     0
 62
   100
  6
Continuous
370
    30
390
F
  0
LAYER
  5
79
330
2
100
AcDbSymbolTableRecord
100
AcDbLayerTableRecord
  2
중간선
 70
     0
 62
     2
  6
Continuous
370
    15
390
F
  0
LAYER
  5
7A
330
2
100
AcDbSymbolTableRecord
100
AcDbLayerTableRecord
  2
윤곽선
 70
     0
 62
     3
  6
Continuous
370
    40
390
F
  0
LAYER
  5
7B
330
2
100
AcDbSymbolTableRecord
100
AcDbLayerTableRecord
  2
중심마크
 70
     0
 62
   100
  6
Continuous
370
    30
390
F
  0
LAYER
  5
7C
330
2
100
AcDbSymbolTableRecord
100
AcDbLayerTableRecord
  2
가상선
 70
     0
 62
     4
  6
PHANTOM
370
    -3
390
F
  0
LAYER
  5
7D
330
2
100
AcDbSymbolTableRecord
100
AcDbLayerTableRecord
  2
특수지정선
 70
     0
 62
     5
  6
CENTERX2
370
    60
390
F
  0
LAYER
  5
7E
330
2
100
AcDbSymbolTableRecord
100
AcDbLayerTableRecord
  2
참조1
 70
     0
 62
    -4
  6
Continuous
370
    -3
390
F
  0
LAYER
  5
15F
330
2
100
AcDbSymbolTableRecord
100
AcDbLayerTableRecord
  2
Defpoints
 70
     0
 62
     7
  6
Continuous
290
     0
370
    -3
390
F
  0
ENDTAB
  0
TABLE
  2
STYLE
  5
3
330
0
100
AcDbSymbolTable
 70
     2
  0
STYLE
  5
11
330
3
100
AcDbSymbolTableRecord
100
AcDbTextStyleTableRecord
  2
Standard
 70
     0
 40
0.0
 41
1.0
 50
0.0
 71
     0
 42
3.5
  3
txt
  4

  0
STYLE
  5
94
330
3
100
AcDbSymbolTableRecord
100
AcDbTextStyleTableRecord
  2
SLDTEXTSTYLE0
 70
     0
 40
0.0
 41
0.75
 50
0.0
 71
     0
 42
3.5
  3
TXT
  4

  0
ENDTAB
  0
TABLE
  2
VIEW
  5
6
330
0
100
AcDbSymbolTable
 70
     0
  0
ENDTAB
  0
TABLE
  2
UCS
  5
7
330
0
100
AcDbSymbolTable
 70
     0
  0
ENDTAB
  0
TABLE
  2
APPID
  5
9
330
0
100
AcDbSymbolTable
 70
     2
  0
APPID
  5
12
330
9
100
AcDbSymbolTableRecord
100
AcDbRegAppTableRecord
  2
ACAD
 70
     0
  0
APPID
  5
1B1
330
9
100
AcDbSymbolTableRecord
100
AcDbRegAppTableRecord
  2
PE_URL
 70
     0
  0
ENDTAB
  0
TABLE
  2
DIMSTYLE
  5
A
330
0
100
AcDbSymbolTable
 70
     3
100
AcDbDimStyleTable
  0
DIMSTYLE
105
27
330
A
100
AcDbSymbolTableRecord
100
AcDbDimStyleTableRecord
  2
ISO-25
 70
     0
 41
2.5
 42
0.625
 43
3.75
 44
1.25
 73
     0
 74
     0
 77
     1
 78
     8
140
2.5
141
2.5
143
0.03937007874016
147
0.625
171
     3
172
     1
178
     0
271
     2
272
     2
274
     3
278
    44
283
     0
284
     8
340
11
  0
DIMSTYLE
105
DE
102
{ACAD_REACTORS
330
DD
330
F2
330
11B
330
106
102
}
330
A
100
AcDbSymbolTableRecord
100
AcDbDimStyleTableRecord
  2
SLDDIMSTYLE0
 70
     0
 41
3.302
 44
0.0
 45
0.000000001
 73
     0
 74
     0
 77
     1
 78
    12
 79
     3
140
3.5
143
0.0393700787401575
147
0.875
148
0.000000001
170
     1
172
     1
173
     1
178
     0
271
     2
272
     2
276
     2
284
    12
289
     0
340
94
  0
DIMSTYLE
105
107
330
A
100
AcDbSymbolTableRecord
100
AcDbDimStyleTableRecord
  2
SLDDIMSTYLE1
 70
     0
 41
3.302
 44
0.0
 45
0.000000001
 73
     0
 74
     0
 77
     1
 78
    12
 79
     3
140
3.5
143
0.0393700787401575
147
0.875
148
0.000000001
170
     1
173
     1
178
     0
271
     2
272
     2
276
     2
284
    12
340
94
  0
ENDTAB
  0
TABLE
  2
BLOCK_RECORD
  5
1
330
0
100
AcDbSymbolTable
 70
     9
  0
BLOCK_RECORD
  5
1F
330
1
100
AcDbSymbolTableRecord
100
AcDbBlockTableRecord
  2
*Model_Space
340
22
  0
BLOCK_RECORD
  5
1B
330
1
100
AcDbSymbolTableRecord
100
AcDbBlockTableRecord
  2
*Paper_Space
340
1E
  0
BLOCK_RECORD
  5
23
330
1
100
AcDbSymbolTableRecord
100
AcDbBlockTableRecord
  2
*Paper_Space0
340
26
  0
BLOCK_RECORD
  5
7F
330
1
100
AcDbSymbolTableRecord
100
AcDbBlockTableRecord
  2
블럭10
340
0
102
{BLKREFS
331
D6
102
}
  0
BLOCK_RECORD
  5
DF
330
1
100
AcDbSymbolTableRecord
100
AcDbBlockTableRecord
  2
_D
340
0
  0
BLOCK_RECORD
  5
F3
330
1
100
AcDbSymbolTableRecord
100
AcDbBlockTableRecord
  2
_D_1
340
0
  0
BLOCK_RECORD
  5
108
330
1
100
AcDbSymbolTableRecord
100
AcDbBlockTableRecord
  2
_D_2
340
0
  0
BLOCK_RECORD
  5
11C
330
1
100
AcDbSymbolTableRecord
100
AcDbBlockTableRecord
  2
_D_3
340
0
  0
BLOCK_RECORD
  5
135
330
1
100
AcDbSymbolTableRecord
100
AcDbBlockTableRecord
  2
SW_DOWELSYMBOL_0
340
0
102
{BLKREFS
331
13B
102
}
  0
BLOCK_RECORD
  5
196
330
1
100
AcDbSymbolTableRecord
100
AcDbBlockTableRecord
  2
*D7
340
0
  0
BLOCK_RECORD
  5
1A5
330
1
100
AcDbSymbolTableRecord
100
AcDbBlockTableRecord
  2
*D8
340
0
  0
ENDTAB
  0
ENDSEC
  0
SECTION
  2
BLOCKS
  0
BLOCK
  5
20
330
1F
100
AcDbEntity
  8
0
100
AcDbBlockBegin
  2
*Model_Space
 70
     0
 10
0.0
 20
0.0
 30
0.0
  3
*Model_Space
  1
*Model_Space
  0
ENDBLK
  5
21
330
1F
100
AcDbEntity
  8
0
100
AcDbBlockEnd
  0
BLOCK
  5
1C
330
1B
100
AcDbEntity
 67
     1
  8
0
100
AcDbBlockBegin
  2
*Paper_Space
 70
     0
 10
0.0
 20
0.0
 30
0.0
  3
*Paper_Space
  1
*Paper_Space
  0
ENDBLK
  5
1D
330
1B
100
AcDbEntity
 67
     1
  8
0
100
AcDbBlockEnd
  0
BLOCK
  5
24
330
23
100
AcDbEntity
  8
0
100
AcDbBlockBegin
  2
*Paper_Space0
 70
     0
 10
0.0
 20
0.0
 30
0.0
  3
*Paper_Space0
  1
*Paper_Space0
  0
ENDBLK
  5
25
330
23
100
AcDbEntity
  8
0
100
AcDbBlockEnd
  0
BLOCK
  5
80
330
7F
100
AcDbEntity
  8
0
100
AcDbBlockBegin
  2
블럭10
 70
     2
 10
0.0
 20
0.0
 30
0.0
  3
블럭10
  1
블럭10
  0
ELLIPSE
  5
82
330
7F
100
AcDbEntity
  8
중심선
100
AcDbEllipse
 10
20.54032771741204
 20
12.0471743016438
 30
0.0
 11
6.600054785286829
 21
-1.261213355974178E-13
 31
0.0
210
0.0
220
0.0
230
1.0
 40
0.636358354079598
 41
0.9219305317359503
 42
6.513795318482858
  0
ELLIPSE
  5
83
330
7F
100
AcDbEntity
  8
중심선
100
AcDbEllipse
 10
20.54032771746488
 20
12.04717430159265
 30
0.0
 11
3.960054785062283
 21
1.540847449632565E-10
 31
0.0
210
0.0
220
0.0
230
1.0
 40
0.3939339440162632
 41
1.131841032648279
 42
5.62031148352944
  0
LINE
  5
84
330
7F
100
AcDbEntity
  8
중심선
100
AcDbLine
 10
2.268634060543552
 20
16.24717430164393
 30
0.0
 11
5.714909304380834
 21
16.24717430164393
 31
0.0
  0
LINE
  5
85
330
7F
100
AcDbEntity
  8
중심선
100
AcDbLine
 10
5.245725140726316
 20
7.84717430164391
 30
0.0
 11
8.692000384563599
 21
7.84717430164391
 31
0.0
  0
LINE
  5
86
330
7F
100
AcDbEntity
  8
중심선
100
AcDbLine
 10
15.74043728645272
 20
16.24717430164393
 30
0.0
 11
8.692000384563599
 21
7.84717430164391
 31
0.0
  0
LINE
  5
87
330
7F
100
AcDbEntity
  8
중심선
100
AcDbLine
 10
0.1404042013395286
 20
13.71084872107135
 30
0.0
 11
3.58671253028996
 21
13.71088815037384
 31
0.0
  0
LINE
  5
88
330
7F
100
AcDbEntity
  8
중심선
100
AcDbLine
 10
2.750260043222114
 20
10.84717430164391
 30
0.0
 11
6.196535287059397
 21
10.84717430164391
 31
0.0
  0
LINE
  5
89
330
7F
100
AcDbEntity
  8
중심선
100
AcDbLine
 10
12.29416204261559
 20
16.24717430164393
 30
0.0
 11
5.245725140726316
 21
7.84717430164391
 31
0.0
  0
LINE
  5
8A
330
7F
100
AcDbEntity
  8
중심선
100
AcDbLine
 10
10.72767329541681
 20
16.24717430164393
 30
0.0
 11
6.196535287059397
 21
10.84717430164391
 31
0.0
  0
LINE
  5
8B
330
7F
100
AcDbEntity
  8
중심선
100
AcDbLine
 10
7.28139805157953
 20
16.24717430164393
 30
0.0
 11
2.750260043222114
 21
10.84717430164391
 31
0.0
  0
LINE
  5
8C
330
7F
100
AcDbEntity
  8
중심선
100
AcDbLine
 10
5.714909304380834
 20
16.24717430164393
 30
0.0
 11
3.58671253028996
 21
13.71088815037384
 31
0.0
  0
LINE
  5
8D
330
7F
100
AcDbEntity
  8
중심선
100
AcDbLine
 10
2.268634060543552
 20
16.24717430164393
 30
0.0
 11
0.1404042013395286
 21
13.71084872107135
 31
0.0
  0
LINE
  5
8E
330
7F
100
AcDbEntity
  8
중심선
100
AcDbLine
 10
7.28139805157953
 20
16.24717430164393
 30
0.0
 11
10.72767329541681
 21
16.24717430164393
 31
0.0
  0
LINE
  5
8F
330
7F
100
AcDbEntity
  8
중심선
100
AcDbLine
 10
12.29416204261559
 20
16.24717430164393
 30
0.0
 11
15.74043728645272
 21
16.24717430164393
 31
0.0
  0
LINE
  5
90
330
7F
100
AcDbEntity
  8
중심선
100
AcDbLine
 10
19.22036997980202
 20
11.08717430171403
 30
0.0
 11
23.66174974927406
 21
11.08717430171406
 31
0.0
  0
LINE
  5
91
330
7F
100
AcDbEntity
  8
중심선
100
AcDbLine
 10
19.22039502424796
 20
13.00717430171391
 30
0.0
 11
19.22036997980202
 21
11.08717430171403
 31
0.0
  0
LINE
  5
92
330
7F
100
AcDbEntity
  8
중심선
100
AcDbLine
 10
19.22039502424796
 20
13.00717430171391
 30
0.0
 11
26.96566020931264
 21
13.00717430171391
 31
0.0
  0
LINE
  5
93
330
7F
100
AcDbEntity
  8
중심선
100
AcDbLine
 10
22.22332737316547
 20
13.45928029700563
 30
0.0
 11
24.52862924686651
 21
15.39360700705356
 31
0.0
  0
ATTDEF
  5
95
330
7F
100
AcDbEntity
  8
FORMAT
 62
     2
100
AcDbText
 10
4.408487351596664
 20
2.075366912832191
 30
0.0
 40
4.233333333333333
  1
E1050008
 41
0.75
  7
SLDTEXTSTYLE0
 11
4.408487351596664
 21
-0.0412997538344756
 31
0.0
100
AcDbAttributeDefinition
  3

  2
AUTOATTR0
 70
     0
 74
     1
  0
ENDBLK
  5
81
330
7F
100
AcDbEntity
  8
0
100
AcDbBlockEnd
  0
BLOCK
  5
E0
330
DF
100
AcDbEntity
  8
0
100
AcDbBlockBegin
  2
_D
 70
     0
 10
0.0
 20
0.0
 30
0.0
  3
_D
  1
_D
  0
LINE
  5
E2
330
DF
100
AcDbEntity
  8
치수문자_일반주서
 62
     0
370
    -2
100
AcDbLine
 10
-16.58198868596884
 20
4.762499999999995
 30
0.0
 11
-48.89374999999998
 21
4.762499999999875
 31
0.0
  0
LINE
  5
E3
330
DF
100
AcDbEntity
  8
치수문자_일반주서
 62
     0
370
    -2
100
AcDbLine
 10
-16.58198868596883
 20
-4.762500000000003
 30
0.0
 11
-48.89374999999994
 21
-4.762500000000124
 31
0.0
  0
LINE
  5
E4
330
DF
100
AcDbEntity
  8
치수문자_일반주서
 62
     0
370
    -2
100
AcDbLine
 10
-48.89374999999998
 20
4.762499999999875
 30
0.0
 11
-48.8937500000001
 21
37.61649999999996
 31
0.0
  0
LINE
  5
E5
330
DF
100
AcDbEntity
  8
치수문자_일반주서
 62
     0
370
    -2
100
AcDbLine
 10
-48.89374999999998
 20
4.762499999999875
 30
0.0
 11
-48.89374999999994
 21
-4.762500000000124
 31
0.0
  0
LINE
  5
E6
330
DF
100
AcDbEntity
  8
치수문자_일반주서
 62
     0
370
    -2
100
AcDbLine
 10
-48.89374999999999
 20
8.064499999999875
 30
0.0
 11
-48.89375
 21
11.36649999999987
 31
0.0
  0
LINE
  5
E7
330
DF
100
AcDbEntity
  8
치수문자_일반주서
 62
     0
370
    -2
100
AcDbLine
 10
-48.89374999999993
 20
-8.064500000000123
 30
0.0
 11
-48.89374999999991
 21
-11.36650000000012
 31
0.0
  0
SOLID
  5
E8
330
DF
100
AcDbEntity
  8
치수문자_일반주서
 62
     0
100
AcDbTrace
 10
-49.44408333333332
 20
8.064499999999873
 30
0.0
 11
-48.34341666666666
 21
8.064499999999876
 31
0.0
 12
-48.89374999999998
 22
4.762499999999875
 32
0.0
 13
-48.89374999999998
 23
4.762499999999875
 33
0.0
  0
SOLID
  5
E9
330
DF
100
AcDbEntity
  8
치수문자_일반주서
 62
     0
100
AcDbTrace
 10
-48.34341666666659
 20
-8.064500000000121
 30
0.0
 11
-49.44408333333326
 21
-8.064500000000125
 31
0.0
 12
-48.89374999999994
 22
-4.762500000000124
 32
0.0
 13
-48.89374999999994
 23
-4.762500000000124
 33
0.0
  0
MTEXT
  5
EA
330
DF
100
AcDbEntity
  8
치수문자_일반주서
 62
     0
100
AcDbMText
 10
-53.26875000000005
 20
24.49149999999995
 30
0.0
 40
3.5
 41
0.0
 71
     2
 72
     1
  1
\A1;%%c9.53 [3/8]
  7
SLDTEXTSTYLE0
 11
-3.729883127349608E-15
 21
1.0
 31
0.0
 73
     1
 44
1.0
  0
POINT
  5
1B5
330
DF
100
AcDbEntity
  8
Defpoints
 62
     0
100
AcDbPoint
 10
-16.51948868596884
 20
4.762499999999995
 30
0.0
  0
POINT
  5
1B6
330
DF
100
AcDbEntity
  8
Defpoints
 62
     0
100
AcDbPoint
 10
-16.51948868596883
 20
-4.762500000000003
 30
0.0
  0
POINT
  5
1B7
330
DF
100
AcDbEntity
  8
Defpoints
 62
     0
100
AcDbPoint
 10
-48.89374999999994
 20
-4.762500000000124
 30
0.0
  0
ENDBLK
  5
E1
330
DF
100
AcDbEntity
  8
0
100
AcDbBlockEnd
  0
BLOCK
  5
F4
330
F3
100
AcDbEntity
  8
0
100
AcDbBlockBegin
  2
_D_1
 70
     0
 10
0.0
 20
0.0
 30
0.0
  3
_D_1
  1
_D_1
  0
LINE
  5
F6
330
F3
100
AcDbEntity
  8
치수문자_일반주서
 62
     0
370
    -2
100
AcDbLine
 10
38.95625000000001
 20
-1.58615826917706
 30
0.0
 11
77.6948527506487
 21
-1.586158269176916
 31
0.0
  0
LINE
  5
F7
330
F3
100
AcDbEntity
  8
치수문자_일반주서
 62
     0
370
    -2
100
AcDbLine
 10
38.95625000000001
 20
1.58615826917706
 30
0.0
 11
77.69485275064869
 21
1.586158269177204
 31
0.0
  0
LINE
  5
F8
330
F3
100
AcDbEntity
  8
치수문자_일반주서
 62
     0
370
    -2
100
AcDbLine
 10
77.69485275064869
 20
1.586158269177204
 30
0.0
 11
77.69485275064855
 21
32.6901582691772
 31
0.0
  0
LINE
  5
F9
330
F3
100
AcDbEntity
  8
치수문자_일반주서
 62
     0
370
    -2
100
AcDbLine
 10
77.6948527506487
 20
-1.586158269176916
 30
0.0
 11
77.69485275064869
 21
1.586158269177204
 31
0.0
  0
LINE
  5
FA
330
F3
100
AcDbEntity
  8
치수문자_일반주서
 62
     0
370
    -2
100
AcDbLine
 10
77.69485275064872
 20
-4.888158269176916
 30
0.0
 11
77.69485275064874
 21
-8.190158269176916
 31
0.0
  0
LINE
  5
FB
330
F3
100
AcDbEntity
  8
치수문자_일반주서
 62
     0
370
    -2
100
AcDbLine
 10
77.69485275064868
 20
4.888158269177204
 30
0.0
 11
77.69485275064866
 21
8.190158269177203
 31
0.0
  0
SOLID
  5
FC
330
F3
100
AcDbEntity
  8
치수문자_일반주서
 62
     0
100
AcDbTrace
 10
78.24518608398205
 20
-4.888158269176913
 30
0.0
 11
77.1445194173154
 21
-4.888158269176919
 31
0.0
 12
77.6948527506487
 22
-1.586158269176916
 32
0.0
 13
77.6948527506487
 23
-1.586158269176916
 33
0.0
  0
SOLID
  5
FD
330
F3
100
AcDbEntity
  8
치수문자_일반주서
 62
     0
100
AcDbTrace
 10
77.14451941731535
 20
4.888158269177201
 30
0.0
 11
78.245186083982
 21
4.888158269177207
 31
0.0
 12
77.69485275064869
 22
1.586158269177204
 32
0.0
 13
77.69485275064869
 23
1.586158269177204
 33
0.0
  0
MTEXT
  5
FE
330
F3
100
AcDbEntity
  8
치수문자_일반주서
 62
     0
100
AcDbMText
 10
73.31985275064861
 20
20.44015826917719
 30
0.0
 40
3.5
 41
0.0
 71
     2
 72
     1
  1
\A1;%%c3.17 [1/8]
  7
SLDTEXTSTYLE0
 11
-4.479645881294985E-15
 21
1.0
 31
0.0
 73
     1
 44
1.0
  0
POINT
  5
FF
330
F3
100
AcDbEntity
  8
Defpoints
 62
     0
100
AcDbPoint
 10
38.89375000000001
 20
-1.586158269177061
 30
0.0
  0
POINT
  5
100
330
F3
100
AcDbEntity
  8
Defpoints
 62
     0
100
AcDbPoint
 10
38.89375000000001
 20
1.58615826917706
 30
0.0
  0
POINT
  5
101
330
F3
100
AcDbEntity
  8
Defpoints
 62
     0
100
AcDbPoint
 10
77.69485275064869
 20
1.586158269177205
 30
0.0
  0
ENDBLK
  5
F5
330
F3
100
AcDbEntity
  8
0
100
AcDbBlockEnd
  0
BLOCK
  5
109
330
108
100
AcDbEntity
  8
0
100
AcDbBlockBegin
  2
_D_2
 70
     0
 10
0.0
 20
0.0
 30
0.0
  3
_D_2
  1
_D_2
  0
LINE
  5
10B
330
108
100
AcDbEntity
  8
치수문자_일반주서
 62
     0
370
    -2
100
AcDbLine
 10
38.89375000000001
 20
1.64865826917706
 30
0.0
 11
38.89375000000001
 21
14.76249999999998
 31
0.0
  0
LINE
  5
10C
330
108
100
AcDbEntity
  8
치수문자_일반주서
 62
     0
370
    -2
100
AcDbLine
 10
29.36875000000001
 20
1.126615960438772
 30
0.0
 11
29.36875000000001
 21
14.76249999999998
 31
0.0
  0
LINE
  5
10D
330
108
100
AcDbEntity
  8
치수문자_일반주서
 62
     0
370
    -2
100
AcDbLine
 10
38.89375000000001
 20
14.76249999999998
 30
0.0
 11
69.12275000000001
 21
14.76249999999998
 31
0.0
  0
LINE
  5
10E
330
108
100
AcDbEntity
  8
치수문자_일반주서
 62
     0
370
    -2
100
AcDbLine
 10
38.89375000000001
 20
14.76249999999998
 30
0.0
 11
29.36875000000001
 21
14.76249999999998
 31
0.0
  0
LINE
  5
10F
330
108
100
AcDbEntity
  8
치수문자_일반주서
 62
     0
370
    -2
100
AcDbLine
 10
42.19575000000001
 20
14.76249999999998
 30
0.0
 11
45.49775000000001
 21
14.76249999999998
 31
0.0
  0
LINE
  5
110
330
108
100
AcDbEntity
  8
치수문자_일반주서
 62
     0
370
    -2
100
AcDbLine
 10
26.06675000000001
 20
14.76249999999998
 30
0.0
 11
22.76475000000001
 21
14.76249999999998
 31
0.0
  0
SOLID
  5
111
330
108
100
AcDbEntity
  8
치수문자_일반주서
 62
     0
100
AcDbTrace
 10
42.19575000000001
 20
15.31283333333331
 30
0.0
 11
42.19575000000001
 21
14.21216666666665
 31
0.0
 12
38.89375000000001
 22
14.76249999999998
 32
0.0
 13
38.89375000000001
 23
14.76249999999998
 33
0.0
  0
SOLID
  5
112
330
108
100
AcDbEntity
  8
치수문자_일반주서
 62
     0
100
AcDbTrace
 10
26.06675000000001
 20
14.21216666666665
 30
0.0
 11
26.06675000000001
 21
15.31283333333331
 31
0.0
 12
29.36875000000001
 22
14.76249999999998
 32
0.0
 13
29.36875000000001
 23
14.76249999999998
 33
0.0
  0
MTEXT
  5
113
330
108
100
AcDbEntity
  8
치수문자_일반주서
 62
     0
100
AcDbMText
 10
57.31025000000001
 20
19.13749999999998
 30
0.0
 40
3.5
 41
0.0
 71
     2
 72
     1
  1
\A1;9.53 [3/8]
  7
SLDTEXTSTYLE0
 73
     1
 44
1.0
  0
POINT
  5
114
330
108
100
AcDbEntity
  8
Defpoints
 62
     0
100
AcDbPoint
 10
38.89375000000001
 20
1.58615826917706
 30
0.0
  0
POINT
  5
115
330
108
100
AcDbEntity
  8
Defpoints
 62
     0
100
AcDbPoint
 10
29.36875000000001
 20
1.064115960438772
 30
0.0
  0
POINT
  5
116
330
108
100
AcDbEntity
  8
Defpoints
 62
     0
100
AcDbPoint
 10
29.36875000000001
 20
14.76249999999998
 30
0.0
  0
ENDBLK
  5
10A
330
108
100
AcDbEntity
  8
0
100
AcDbBlockEnd
  0
BLOCK
  5
11D
330
11C
100
AcDbEntity
  8
0
100
AcDbBlockBegin
  2
_D_3
 70
     0
 10
0.0
 20
0.0
 30
0.0
  3
_D_3
  1
_D_3
  0
LINE
  5
11F
330
11C
100
AcDbEntity
  8
치수문자_일반주서
 62
     0
370
    -2
100
AcDbLine
 10
-38.89375
 20
1.648658269177041
 30
0.0
 11
-38.89375
 21
24.76249999999999
 31
0.0
  0
LINE
  5
120
330
11C
100
AcDbEntity
  8
치수문자_일반주서
 62
     0
370
    -2
100
AcDbLine
 10
38.89375000000001
 20
1.64865826917706
 30
0.0
 11
38.89375000000001
 21
24.76249999999999
 31
0.0
  0
LINE
  5
121
330
11C
100
AcDbEntity
  8
치수문자_일반주서
 62
     0
370
    -2
100
AcDbLine
 10
-35.59175
 20
24.76249999999999
 30
0.0
 11
35.59175000000001
 21
24.76249999999999
 31
0.0
  0
SOLID
  5
122
330
11C
100
AcDbEntity
  8
치수문자_일반주서
 62
     0
100
AcDbTrace
 10
-35.59175
 20
25.31283333333332
 30
0.0
 11
-35.59175
 21
24.21216666666665
 31
0.0
 12
-38.89375
 22
24.76249999999999
 32
0.0
 13
-38.89375
 23
24.76249999999999
 33
0.0
  0
SOLID
  5
123
330
11C
100
AcDbEntity
  8
치수문자_일반주서
 62
     0
100
AcDbTrace
 10
35.59175000000001
 20
24.21216666666665
 30
0.0
 11
35.59175000000001
 21
25.31283333333332
 31
0.0
 12
38.89375000000001
 22
24.76249999999999
 32
0.0
 13
38.89375000000001
 23
24.76249999999999
 33
0.0
  0
MTEXT
  5
124
330
11C
100
AcDbEntity
  8
치수문자_일반주서
 62
     0
100
AcDbMText
 10
0.0000000000000213
 20
29.13749999999999
 30
0.0
 40
3.5
 41
0.0
 71
     2
 72
     1
  1
\A1;77.79 [3 1/16]
  7
SLDTEXTSTYLE0
 73
     1
 44
1.0
  0
POINT
  5
125
330
11C
100
AcDbEntity
  8
Defpoints
 62
     0
100
AcDbPoint
 10
-38.89375
 20
1.586158269177041
 30
0.0
  0
POINT
  5
126
330
11C
100
AcDbEntity
  8
Defpoints
 62
     0
100
AcDbPoint
 10
38.89375000000001
 20
1.58615826917706
 30
0.0
  0
POINT
  5
127
330
11C
100
AcDbEntity
  8
Defpoints
 62
     0
100
AcDbPoint
 10
38.89375000000001
 20
24.76249999999999
 30
0.0
  0
ENDBLK
  5
11E
330
11C
100
AcDbEntity
  8
0
100
AcDbBlockEnd
  0
BLOCK
  5
136
330
135
100
AcDbEntity
  8
0
100
AcDbBlockBegin
  2
SW_DOWELSYMBOL_0
 70
     0
 10
0.0
 20
0.0
 30
0.0
  3
SW_DOWELSYMBOL_0
  1
SW_DOWELSYMBOL_0
  0
CIRCLE
  5
138
330
135
100
AcDbEntity
  8
해칭선
 62
     0
100
AcDbCircle
 10
0.0
 20
0.0
 30
0.0
 40
3.000000000000001
  0
HATCH
  5
139
330
135
100
AcDbEntity
  8
0
  6
Continuous
 62
     0
370
     0
100
AcDbHatch
 10
0.0
 20
0.0
 30
0.0
210
0.0
220
0.0
230
1.0
  2
SOLID
 70
     1
 71
     0
 91
        1
 92
        0
 93
        3
 72
     2
 10
0.0
 20
0.0
 40
3.000000000000001
 50
0.0
 51
90.0
 73
     1
 72
     1
 10
0.0
 20
3.000000000000001
 11
0.0
 21
0.0
 72
     1
 10
0.0
 20
0.0
 11
3.000000000000001
 21
0.0
 97
        0
 75
     0
 76
     1
 98
        1
 10
0.0
 20
0.0
  0
HATCH
  5
13A
330
135
100
AcDbEntity
  8
0
  6
Continuous
 62
     0
370
     0
100
AcDbHatch
 10
0.0
 20
0.0
 30
0.0
210
0.0
220
0.0
230
1.0
  2
SOLID
 70
     1
 71
     0
 91
        1
 92
        0
 93
        3
 72
     2
 10
0.0
 20
0.0
 40
3.000000000000001
 50
180.0
 51
270.0000000000007
 73
     1
 72
     1
 10
0.0
 20
-3.000000000000001
 11
0.0
 21
0.0
 72
     1
 10
0.0
 20
0.0
 11
-3.000000000000001
 21
0.0
 97
        0
 75
     0
 76
     1
 98
        1
 10
0.0
 20
0.0
  0
ENDBLK
  5
137
330
135
100
AcDbEntity
  8
0
100
AcDbBlockEnd
  0
BLOCK
  5
197
330
196
100
AcDbEntity
  8
0
100
AcDbBlockBegin
  2
*D7
 70
     1
 10
0.0
 20
0.0
 30
0.0
  3
*D7
  1
*D7
  0
LINE
  5
199
330
196
100
AcDbEntity
  8
치수문자_일반주서
 62
     0
370
    -2
100
AcDbLine
 10
0.0
 20
0.0625
 30
0.0
 11
0.0
 21
33.34302707304683
 31
0.0
  0
LINE
  5
19A
330
196
100
AcDbEntity
  8
치수문자_일반주서
 62
     0
370
    -2
100
AcDbLine
 10
25.99995813577124
 20
7.726047483784873
 30
0.0
 11
25.99995813577124
 21
33.34302707304683
 31
0.0
  0
LINE
  5
19B
330
196
100
AcDbEntity
  8
치수문자_일반주서
 62
     0
370
    -2
100
AcDbLine
 10
3.302
 20
33.34302707304683
 30
0.0
 11
22.69795813577124
 21
33.34302707304683
 31
0.0
  0
SOLID
  5
19C
330
196
100
AcDbEntity
  8
치수문자_일반주서
 62
     0
100
AcDbTrace
 10
3.302
 20
33.89336040638016
 30
0.0
 11
3.302
 21
32.79269373971349
 31
0.0
 12
0.0
 22
33.34302707304683
 32
0.0
 13
0.0
 23
33.34302707304683
 33
0.0
  0
SOLID
  5
19D
330
196
100
AcDbEntity
  8
치수문자_일반주서
 62
     0
100
AcDbTrace
 10
22.69795813577124
 20
32.79269373971349
 30
0.0
 11
22.69795813577124
 21
33.89336040638016
 31
0.0
 12
25.99995813577124
 22
33.34302707304683
 32
0.0
 13
25.99995813577124
 23
33.34302707304683
 33
0.0
  0
MTEXT
  5
19E
330
196
100
AcDbEntity
  8
치수문자_일반주서
 62
     0
100
AcDbMText
 10
13.04655386270326
 20
37.71802707304683
 30
0.0
 40
3.5
 41
0.0
 71
     2
 72
     1
  1
\A1;26 [1.02]
  7
SLDTEXTSTYLE0
 73
     1
 44
1.0
  0
POINT
  5
19F
330
196
100
AcDbEntity
  8
Defpoints
 62
     0
100
AcDbPoint
 10
0.0
 20
0.0
 30
0.0
  0
POINT
  5
1A0
330
196
100
AcDbEntity
  8
Defpoints
 62
     0
100
AcDbPoint
 10
25.99995813577124
 20
7.663547483784873
 30
0.0
  0
POINT
  5
1A1
330
196
100
AcDbEntity
  8
Defpoints
 62
     0
100
AcDbPoint
 10
25.99995813577124
 20
33.34302707304683
 30
0.0
  0
ENDBLK
  5
198
330
196
100
AcDbEntity
  8
0
100
AcDbBlockEnd
  0
BLOCK
  5
1A6
330
1A5
100
AcDbEntity
  8
0
100
AcDbBlockBegin
  2
*D8
 70
     1
 10
0.0
 20
0.0
 30
0.0
  3
*D8
  1
*D8
  0
LINE
  5
1A8
330
1A5
100
AcDbEntity
  8
치수문자_일반주서
 62
     0
370
    -2
100
AcDbLine
 10
53.73745957581245
 20
-23.68883789013553
 30
0.0
 11
53.73745957581245
 21
9.591689182911296
 31
0.0
  0
LINE
  5
1A9
330
1A5
100
AcDbEntity
  8
치수문자_일반주서
 62
     0
370
    -2
100
AcDbLine
 10
79.73741771158369
 20
-16.02529040635066
 30
0.0
 11
79.73741771158369
 21
9.591689182911296
 31
0.0
  0
LINE
  5
1AA
330
1A5
100
AcDbEntity
  8
치수문자_일반주서
 62
     0
370
    -2
100
AcDbLine
 10
57.03945957581245
 20
9.591689182911296
 30
0.0
 11
76.43541771158368
 21
9.591689182911296
 31
0.0
  0
SOLID
  5
1AB
330
1A5
100
AcDbEntity
  8
치수문자_일반주서
 62
     0
100
AcDbTrace
 10
57.03945957581245
 20
10.14202251624463
 30
0.0
 11
57.03945957581245
 21
9.041355849577963
 31
0.0
 12
53.73745957581245
 22
9.591689182911296
 32
0.0
 13
53.73745957581245
 23
9.591689182911296
 33
0.0
  0
SOLID
  5
1AC
330
1A5
100
AcDbEntity
  8
치수문자_일반주서
 62
     0
100
AcDbTrace
 10
76.43541771158368
 20
9.041355849577963
 30
0.0
 11
76.43541771158368
 21
10.14202251624463
 31
0.0
 12
79.73741771158369
 22
9.591689182911296
 32
0.0
 13
79.73741771158369
 23
9.591689182911296
 33
0.0
  0
MTEXT
  5
1AD
330
1A5
100
AcDbEntity
  8
치수문자_일반주서
 62
     0
100
AcDbMText
 10
66.78401343851571
 20
13.9666891829113
 30
0.0
 40
3.5
 41
0.0
 71
     2
 72
     1
  1
\A1;26 [1.02]
  7
SLDTEXTSTYLE0
 73
     1
 44
1.0
  0
POINT
  5
1AE
330
1A5
100
AcDbEntity
  8
Defpoints
 62
     0
100
AcDbPoint
 10
53.73745957581245
 20
-23.75133789013553
 30
0.0
  0
POINT
  5
1AF
330
1A5
100
AcDbEntity
  8
Defpoints
 62
     0
100
AcDbPoint
 10
79.73741771158369
 20
-16.08779040635066
 30
0.0
  0
POINT
  5
1B0
330
1A5
100
AcDbEntity
  8
Defpoints
 62
     0
100
AcDbPoint
 10
79.73741771158369
 20
9.591689182911296
 30
0.0
  0
ENDBLK
  5
1A7
330
1A5
100
AcDbEntity
  8
0
100
AcDbBlockEnd
  0
ENDSEC
  0
SECTION
  2
ENTITIES
  0
LINE
  5
96
330
1F
100
AcDbEntity
  8
외형선
  6
Continuous
370
    15
100
AcDbLine
 10
16.51948868596886
 20
4.762499999999997
 30
0.0
 11
4.838700000000163
 21
4.762499999999996
 31
0.0
  0
LINE
  5
97
330
1F
100
AcDbEntity
  8
외형선
  6
Continuous
370
    15
100
AcDbLine
 10
-16.51948868596883
 20
-4.7625
 30
0.0
 11
16.51948868596886
 21
-4.762499999999998
 31
0.0
  0
LINE
  5
98
330
1F
100
AcDbEntity
  8
외형선
  6
Continuous
370
    15
100
AcDbLine
 10
16.51948868596886
 20
-4.7625
 30
0.0
 11
28.36875000000001
 21
-1.5875
 31
0.0
  0
LINE
  5
99
330
1F
100
AcDbEntity
  8
외형선
  6
Continuous
370
    15
100
AcDbLine
 10
28.36875000000001
 20
1.587499999999999
 30
0.0
 11
16.51948868596886
 21
4.762499999999998
 31
0.0
  0
LINE
  5
9C
330
1F
100
AcDbEntity
  8
외형선
  6
Continuous
370
    15
100
AcDbLine
 10
28.47879797477744
 20
1.587499999999999
 30
0.0
 11
28.36875000000001
 21
1.587499999999999
 31
0.0
  0
LINE
  5
9D
330
1F
100
AcDbEntity
  8
외형선
  6
Continuous
370
    15
100
AcDbLine
 10
28.36875000000001
 20
-1.5875
 30
0.0
 11
28.47879797477744
 21
-1.5875
 31
0.0
  0
SPLINE
  5
9E
330
1F
100
AcDbEntity
  8
외형선
  6
Continuous
370
    15
100
AcDbSpline
210
0.0
220
0.0
230
1.0
 70
     8
 71
     3
 72
     9
 73
     5
 74
     0
 42
0.000000001
 43
0.00000001
 40
0.0
 40
0.0
 40
0.0
 40
0.0
 40
0.4366873180895269
 40
1.0
 40
1.0
 40
1.0
 40
1.0
 10
29.36875000000001
 20
1.064092140547915
 30
0.0
 10
29.23875688333099
 20
1.057497509111744
 30
0.0
 10
28.94107680130406
 20
1.042396013915999
 30
0.0
 10
28.64537988032031
 20
1.045586728143362
 30
0.0
 10
28.47881005472828
 20
1.047384097931988
 30
0.0
  0
ARC
  5
9F
330
1F
100
AcDbEntity
  8
외형선
  6
Continuous
370
    15
100
AcDbCircle
 10
28.828790928598
 20
-1.395231983355051
 30
0.0
 40
0.3499929538805873
100
AcDbArc
 50
153.2698060081829
 51
179.9670247459056
  0
SPLINE
  5
A0
330
1F
100
AcDbEntity
  8
0
  6
Continuous
 62
     1
370
    15
100
AcDbSpline
210
0.0
220
0.0
230
1.0
 70
     8
 71
     3
 72
     9
 73
     5
 74
     0
 42
0.000000001
 43
0.00000001
 40
0.0
 40
0.0
 40
0.0
 40
0.0
 40
0.4995904696935487
 40
1.0
 40
1.0
 40
1.0
 40
1.0
 10
34.78017622143731
 20
0.4068129860357799
 30
0.0
 10
34.70708542361197
 20
0.4417973221260051
 30
0.0
 10
34.56078399822614
 20
0.5118233498676569
 30
0.0
 10
34.41446821926966
 20
0.588611055208747
 30
0.0
 10
34.34125040904562
 20
0.6270363547717922
 30
0.0
1001
PE_URL
1000

  0
LINE
  5
A1
330
1F
100
AcDbEntity
  8
0
  6
Continuous
 62
     1
370
    15
100
AcDbLine
 10
31.13795814727431
 20
1.5875
 30
0.0
 11
30.36791129344
 21
1.5875
 31
0.0
1001
PE_URL
1000

  0
SPLINE
  5
A2
330
1F
100
AcDbEntity
  8
0
  6
Continuous
 62
     1
370
    15
100
AcDbSpline
210
0.0
220
0.0
230
1.0
 70
     8
 71
     3
 72
     9
 73
     5
 74
     0
 42
0.000000001
 43
0.00000001
 40
0.0
 40
0.0
 40
0.0
 40
0.0
 40
0.9592447985379351
 40
1.0
 40
1.0
 40
1.0
 40
1.0
 10
34.25708863350207
 20
1.261516708159531
 30
0.0
 10
33.83498553672689
 20
1.245895682507087
 30
0.0
 10
33.3949486478967
 20
1.22961097012058
 30
0.0
 10
32.95567486837806
 20
1.248142755042004
 30
0.0
 10
32.93777217699677
 20
1.248898021669928
 30
0.0
1001
PE_URL
1000

  0
SPLINE
  5
A3
330
1F
100
AcDbEntity
  8
0
  6
Continuous
 62
     1
370
    15
100
AcDbSpline
210
0.0
220
0.0
230
1.0
 70
     8
 71
     3
 72
     9
 73
     5
 74
     0
 42
0.000000001
 43
0.00000001
 40
0.0
 40
0.0
 40
0.0
 40
0.0
 40
0.4999733995820645
 40
1.0
 40
1.0
 40
1.0
 40
1.0
 10
31.86946624805604
 20
-1.320982253768186
 30
0.0
 10
32.26733586827787
 20
-1.287788802982799
 30
0.0
 10
33.06311744496658
 20
-1.221398369385462
 30
0.0
 10
33.85908412195939
 20
-1.248143454281218
 30
0.0
 10
34.25708863350207
 20
-1.261516708159532
 30
0.0
1001
PE_URL
1000

  0
SPLINE
  5
A4
330
1F
100
AcDbEntity
  8
0
  6
Continuous
 62
     1
370
    15
100
AcDbSpline
210
0.0
220
0.0
230
1.0
 70
     8
 71
     3
 72
    18
 73
    14
 74
     0
 42
0.000000001
 43
0.00000001
 40
0.0
 40
0.0
 40
0.0
 40
0.0
 40
0.137491413852039
 40
0.2331512041091632
 40
0.3002144170047631
 40
0.3787656586615673
 40
0.4687362961748979
 40
0.5519458820764089
 40
0.6550509666933418
 40
0.7383433661712958
 40
0.7972685768692978
 40
0.8846394496925553
 40
0.9999999999999999
 40
0.9999999999999999
 40
0.9999999999999999
 40
0.9999999999999999
 10
38.30138705339311
 20
1.085611237001345
 30
0.0
 10
38.17420846534175
 20
1.075852504071162
 30
0.0
 10
37.95854524601529
 20
1.059304122834058
 30
0.0
 10
37.68166940041021
 20
1.048796480179751
 30
0.0
 10
37.45858329957464
 20
1.044514413077656
 30
0.0
 10
37.24095654777287
 20
1.044461991254569
 30
0.0
 10
37.00872919627913
 20
1.049485420470892
 30
0.0
 10
36.7534846126285
 20
1.060584414332013
 30
0.0
 10
36.50426995319972
 20
1.077152818643793
 30
0.0
 10
36.27783040071701
 20
1.097592472062416
 30
0.0
 10
36.06596045532237
 20
1.120300575251697
 30
0.0
 10
35.82425364467574
 20
1.149689888039698
 30
0.0
 10
35.63655188127061
 20
1.177972633070592
 30
0.0
 10
35.52974367963266
 20
1.19406640373813
 30
0.0
1001
PE_URL
1000

  0
SPLINE
  5
A5
330
1F
100
AcDbEntity
  8
0
  6
Continuous
 62
     1
370
    15
100
AcDbSpline
210
0.0
220
0.0
230
1.0
 70
     8
 71
     3
 72
    12
 73
     8
 74
     0
 42
0.000000001
 43
0.00000001
 40
0.0
 40
0.0
 40
0.0
 40
0.0
 40
0.265586016520925
 40
0.4667334799409893
 40
0.6023926107290339
 40
0.7941505082500178
 40
0.9999999999999999
 40
0.9999999999999999
 40
0.9999999999999999
 40
0.9999999999999999
 10
35.52974367963266
 20
-1.194066403738131
 30
0.0
 10
35.63655186339864
 20
-1.177975588016713
 30
0.0
 10
35.82425359539604
 20
-1.149698035925958
 30
0.0
 10
36.06596057921963
 20
-1.120280090122202
 30
0.0
 10
36.27783004858618
 20
-1.097650693250121
 30
0.0
 10
36.49163405081205
 20
-1.077958098373592
 30
0.0
 10
36.6512530635765
 20
-1.068171397647973
 30
0.0
 10
36.73389109681688
 20
-1.063104622168846
 30
0.0
1001
PE_URL
1000

  0
SPLINE
  5
A6
330
1F
100
AcDbEntity
  8
0
  6
Continuous
 62
     1
370
    15
100
AcDbSpline
210
0.0
220
0.0
230
1.0
 70
     8
 71
     3
 72
     9
 73
     5
 74
     0
 42
0.000000001
 43
0.00000001
 40
0.0
 40
0.0
 40
0.0
 40
0.0
 40
0.5025349159016272
 40
1.0
 40
1.0
 40
1.0
 40
1.0
 10
29.79592325188409
 20
1.095769613620011
 30
0.0
 10
29.72437173029658
 20
1.089684779975172
 30
0.0
 10
29.58199053582947
 20
1.077576499630269
 30
0.0
 10
29.43958952889184
 20
1.068571709317927
 30
0.0
 10
29.36874999999992
 20
1.06409214054791
 30
0.0
1001
PE_URL
1000

  0
LINE
  5
A7
330
1F
100
AcDbEntity
  8
0
  6
Continuous
 62
     1
370
    15
100
AcDbLine
 10
30.36791129344001
 20
-1.587500000000001
 30
0.0
 11
31.13795814727432
 21
-1.587500000000001
 31
0.0
1001
PE_URL
1000

  0
LINE
  5
A8
330
1F
100
AcDbEntity
  8
외형선
  6
Continuous
370
    15
100
AcDbLine
 10
16.51948868596886
 20
4.762499999999998
 30
0.0
 11
16.51948868596886
 21
-4.762499999999998
 31
0.0
  0
LINE
  5
AA
330
1F
100
AcDbEntity
  8
외형선
  6
Continuous
370
    15
100
AcDbLine
 10
28.36875000000001
 20
1.587499999999999
 30
0.0
 11
28.36875000000001
 21
-1.587499999999999
 31
0.0
  0
SPLINE
  5
AC
330
1F
100
AcDbEntity
  8
외형선
  6
Continuous
370
    15
100
AcDbSpline
210
0.0
220
0.0
230
1.0
 70
     8
 71
     3
 72
     8
 73
     4
 74
     0
 42
0.000000001
 43
0.00000001
 40
0.0
 40
0.0
 40
0.0
 40
0.0
 40
1.0
 40
1.0
 40
1.0
 40
1.0
 10
29.36875000000001
 20
1.483662624305113
 30
0.0
 10
29.07510102678263
 20
1.422931400264773
 30
0.0
 10
28.77305681906536
 20
1.335370569183873
 30
0.0
 10
28.47879797477744
 20
1.226964101768934
 30
0.0
  0
SPLINE
  5
AD
330
1F
100
AcDbEntity
  8
외형선
  6
Continuous
370
    15
100
AcDbSpline
210
0.0
220
0.0
230
1.0
 70
     8
 71
     3
 72
     8
 73
     4
 74
     0
 42
0.000000001
 43
0.00000001
 40
0.0
 40
0.0
 40
0.0
 40
0.0
 40
1.0
 40
1.0
 40
1.0
 40
1.0
 10
29.36875000000001
 20
-1.269993571115281
 30
0.0
 10
29.07511768264475
 20
-1.16756336789099
 30
0.0
 10
28.77308907004388
 20
-1.04170857480222
 30
0.0
 10
28.47884804604392
 20
-0.9010607330287301
 30
0.0
  0
LINE
  5
AE
330
1F
100
AcDbEntity
  8
외형선
  6
Continuous
370
    15
100
AcDbLine
 10
29.36875000000001
 20
-1.269993571115281
 30
0.0
 11
29.36875000000001
 21
-1.483662624305115
 31
0.0
  0
SPLINE
  5
AF
330
1F
100
AcDbEntity
  8
외형선
  6
Continuous
370
    15
100
AcDbSpline
210
0.0
220
0.0
230
1.0
 70
     8
 71
     3
 72
     8
 73
     4
 74
     0
 42
0.000000001
 43
0.00000001
 40
0.0
 40
0.0
 40
0.0
 40
0.0
 40
1.0
 40
1.0
 40
1.0
 40
1.0
 10
29.36875000000001
 20
-1.483662624305114
 30
0.0
 10
29.07510102678263
 20
-1.422931400264773
 30
0.0
 10
28.77305681906536
 20
-1.335370569183874
 30
0.0
 10
28.47879797477744
 20
-1.226964101768935
 30
0.0
  0
LINE
  5
B0
330
1F
100
AcDbEntity
  8
외형선
  6
Continuous
370
    15
100
AcDbLine
 10
28.47879797477744
 20
-1.5875
 30
0.0
 11
28.47879797477744
 21
-1.226619885995871
 31
0.0
  0
LINE
  5
B1
330
1F
100
AcDbEntity
  8
외형선
  6
Continuous
370
    15
100
AcDbLine
 10
28.47879797477744
 20
-0.901004717910603
 30
0.0
 11
28.47879797477744
 21
1.587499999999999
 31
0.0
  0
SPLINE
  5
B2
330
1F
100
AcDbEntity
  8
외형선
  6
Continuous
370
    15
100
AcDbSpline
210
0.0
220
0.0
230
1.0
 70
     8
 71
     3
 72
     8
 73
     4
 74
     0
 42
0.000000001
 43
0.00000001
 40
0.0
 40
0.0
 40
0.0
 40
0.0
 40
1.0
 40
1.0
 40
1.0
 40
1.0
 10
29.36874999999999
 20
-1.028733898204999
 30
0.0
 10
29.07511768264474
 20
-0.9348297869370664
 30
0.0
 10
28.77308907004387
 20
-0.8218510739607551
 30
0.0
 10
28.47884804604392
 20
-0.6975501586593095
 30
0.0
  0
SPLINE
  5
B3
330
1F
100
AcDbEntity
  8
외형선
  6
Continuous
370
    15
100
AcDbSpline
210
0.0
220
0.0
230
1.0
 70
     8
 71
     3
 72
     8
 73
     4
 74
     0
 42
0.000000001
 43
0.00000001
 40
0.0
 40
0.0
 40
0.0
 40
0.0
 40
1.0
 40
1.0
 40
1.0
 40
1.0
 10
29.36875000000001
 20
0.4025998071203741
 30
0.0
 10
29.07510711595805
 20
0.5321328442318426
 30
0.0
 10
28.77306860964498
 20
0.655720730604021
 30
0.0
 10
28.47881628023016
 20
0.7648288532026049
 30
0.0
  0
SPLINE
  5
B4
330
1F
100
AcDbEntity
  8
외형선
  6
Continuous
370
    15
100
AcDbSpline
210
0.0
220
0.0
230
1.0
 70
    24
 71
     3
 72
    10
 73
     6
 74
     0
 42
0.000000001
 43
0.00000001
 40
0.0
 40
0.0
 40
0.0
 40
0.0
 40
0.5
 40
0.5
 40
1.0
 40
1.0
 40
1.0
 40
1.0
 10
29.36875000000001
 20
0.4025998071203724
 30
0.0
 10
29.36875000000001
 20
0.1629524061890449
 30
0.0
 10
29.36875000000001
 20
-0.0994395948683169
 30
0.0
 10
29.36875000000001
 20
-0.5997616510978062
 30
0.0
 10
29.36875000000001
 20
-0.8355381245503005
 30
0.0
 10
29.36875000000001
 20
-1.028733898205004
 30
0.0
  0
SPLINE
  5
B5
330
1F
100
AcDbEntity
  8
외형선
  6
Continuous
370
    15
100
AcDbSpline
210
0.0
220
0.0
230
1.0
 70
    24
 71
     3
 72
     8
 73
     4
 74
     0
 42
0.000000001
 43
0.00000001
 40
0.0
 40
0.0
 40
0.0
 40
0.0
 40
1.0
 40
1.0
 40
1.0
 40
1.0
 10
29.36875000000001
 20
-1.028733898205005
 30
0.0
 10
29.36875000000001
 20
-1.106609660428163
 30
0.0
 10
29.36875000000001
 20
-1.187535123394708
 30
0.0
 10
29.36875000000001
 20
-1.269993571114862
 30
0.0
  0
SPLINE
  5
B6
330
1F
100
AcDbEntity
  8
외형선
  6
Continuous
370
    15
100
AcDbSpline
210
0.0
220
0.0
230
1.0
 70
    24
 71
     3
 72
    12
 73
     8
 74
     0
 42
0.000000001
 43
0.00000001
 40
0.0
 40
0.0
 40
0.0
 40
0.0
 40
0.059218930544974
 40
0.2505781081812087
 40
0.4365442549625478
 40
0.6279034325987923
 40
1.0
 40
1.0
 40
1.0
 40
1.0
 10
29.36875000000001
 20
1.058856583839426
 30
0.0
 10
29.36875000000001
 20
1.060159146760587
 30
0.0
 10
29.36875000000001
 20
1.065670792269343
 30
0.0
 10
29.36875000000001
 20
1.025108251946436
 30
0.0
 10
29.36875000000001
 20
0.9358705154735298
 30
0.0
 10
29.36875000000001
 20
0.7571728971867062
 30
0.0
 10
29.36875000000001
 20
0.5436239144336362
 30
0.0
 10
29.36875000000001
 20
0.4025998071203719
 30
0.0
  0
SPLINE
  5
B7
330
1F
100
AcDbEntity
  8
외형선
  6
Continuous
370
    15
100
AcDbSpline
210
0.0
220
0.0
230
1.0
 70
    24
 71
     3
 72
    10
 73
     6
 74
     0
 42
0.000000001
 43
0.00000001
 40
0.0
 40
0.0
 40
0.0
 40
0.0
 40
0.4999999999999999
 40
0.4999999999999999
 40
1.0
 40
1.0
 40
1.0
 40
1.0
 10
29.36875000000001
 20
1.483662624305103
 30
0.0
 10
29.36875000000001
 20
1.401810142460642
 30
0.0
 10
29.36875000000001
 20
1.319160190886574
 30
0.0
 10
29.36875000000001
 20
1.170832093560163
 30
0.0
 10
29.36875000000001
 20
1.105493175026516
 30
0.0
 10
29.36875000000001
 20
1.053935010226743
 30
0.0
  0
SPLINE
  5
B8
330
1F
100
AcDbEntity
  8
0
  6
Continuous
 62
     1
370
    15
100
AcDbSpline
210
0.0
220
0.0
230
1.0
 70
     8
 71
     3
 72
    38
 73
    34
 74
     0
 42
0.000000001
 43
0.00000001
 40
0.0
 40
0.0
 40
0.0
 40
0.0
 40
0.0625
 40
0.0625
 40
0.1250000000000001
 40
0.1250000000000001
 40
0.1875000000000001
 40
0.1875000000000001
 40
0.2500000000000002
 40
0.2500000000000002
 40
0.3125000000000002
 40
0.3125000000000002
 40
0.3750000000000002
 40
0.3750000000000002
 40
0.4375000000000003
 40
0.4375000000000003
 40
0.5000000000000003
 40
0.5000000000000003
 40
0.5625000000000003
 40
0.5625000000000003
 40
0.6250000000000004
 40
0.6250000000000004
 40
0.6875000000000004
 40
0.6875000000000004
 40
0.7500000000000003
 40
0.7500000000000003
 40
0.8125000000000003
 40
0.8125000000000003
 40
0.8750000000000002
 40
0.8750000000000002
 40
0.9375000000000002
 40
0.9375000000000002
 40
1.0
 40
1.0
 40
1.0
 40
1.0
 10
38.89375000000001
 20
-1.58615826917706
 30
0.0
 10
38.69775017442154
 20
-1.581468119098028
 30
0.0
 10
38.49669627196325
 20
-1.564302173387233
 30
0.0
 10
38.09841273521354
 20
-1.505827503480509
 30
0.0
 10
37.90315683559761
 20
-1.464819891069907
 30
0.0
 10
37.50425148072986
 20
-1.360037182869543
 30
0.0
 10
37.30526114337179
 20
-1.296556515398502
 30
0.0
 10
36.91142549020947
 20
-1.150969576381771
 30
0.0
 10
36.71012099838353
 20
-1.068017963315924
 30
0.0
 10
36.31272764047934
 20
-0.8874140850266266
 30
0.0
 10
36.11701993103544
 20
-0.7899464117528183
 30
0.0
 10
35.71776252056273
 20
-0.5829220931530449
 30
0.0
 10
35.52039230656636
 20
-0.4744178822334376
 30
0.0
 10
35.12497906305059
 20
-0.2516224952184734
 30
0.0
 10
34.92356300927145
 20
-0.1366767953232889
 30
0.0
 10
34.52732618883168
 20
0.0923187916355366
 30
0.0
 10
34.33071587517374
 20
0.2067018184709004
 30
0.0
 10
33.93137696644497
 20
0.4316269274518794
 30
0.0
 10
33.73517981071708
 20
0.5409348979546423
 30
0.0
 10
33.3384509016194
 20
0.7502463018051323
 30
0.0
 10
33.13706257293428
 20
0.8503204502744959
 30
0.0
 10
32.74224605558132
 20
1.034402684541089
 30
0.0
 10
32.54428436942654
 20
1.119173217800034
 30
0.0
 10
32.14513470391127
 20
1.270343783585555
 30
0.0
 10
31.94966091115413
 20
1.336081947643285
 30
0.0
 10
31.55188120424636
 20
1.44651282164846
 30
0.0
 10
31.35065982316239
 20
1.490923864838663
 30
0.0
 10
30.9575242028011
 20
1.555314526333398
 30
0.0
 10
30.75776540310865
 20
1.575763126083852
 30
0.0
 10
30.35907529480903
 20
1.591634593025909
 30
0.0
 10
30.16387354501333
 20
1.58716995594642
 30
0.0
 10
29.76531026718236
 20
1.553533779720711
 30
0.0
 10
29.56513056842728
 20
1.524277213103616
 30
0.0
 10
29.36875000000001
 20
1.483662624305115
 30
0.0
1001
PE_URL
1000

  0
SPLINE
  5
B9
330
1F
100
AcDbEntity
  8
0
  6
Continuous
 62
     1
370
    15
100
AcDbSpline
210
0.0
220
0.0
230
1.0
 70
     8
 71
     3
 72
    14
 73
    10
 74
     0
 42
0.000000001
 43
0.00000001
 40
0.0
 40
0.0
 40
0.0
 40
0.0
 40
0.0764103374274077
 40
0.2446834448298824
 40
0.4129567927861897
 40
0.5812303789407718
 40
0.7495042009354774
 40
0.9156438443748945
 40
1.0
 40
1.0
 40
1.0
 40
1.0
 10
34.94832126787173
 20
-0.1485134530456372
 30
0.0
 10
34.8169527509137
 20
-0.0963712700405069
 30
0.0
 10
34.39628059641601
 20
0.0705999721787313
 30
0.0
 10
33.68630427522115
 20
0.3594099409131873
 30
0.0
 10
32.81839177747454
 20
0.6732575834580878
 30
0.0
 10
31.95047830923195
 20
0.9229375582362649
 30
0.0
 10
31.08623163818164
 20
1.075025330989573
 30
0.0
 10
30.36626472344136
 20
1.131110975399692
 30
0.0
 10
29.93560054673398
 20
1.094458925171731
 30
0.0
 10
29.79057147060512
 20
1.082116099205963
 30
0.0
1001
PE_URL
1000

  0
SPLINE
  5
BA
330
1F
100
AcDbEntity
  8
외형선
  6
Continuous
370
    15
100
AcDbSpline
210
0.0
220
0.0
230
1.0
 70
    24
 71
     3
 72
    10
 73
     6
 74
     0
 42
0.000000001
 43
0.00000001
 40
0.0
 40
0.0
 40
0.0
 40
0.0
 40
0.5
 40
0.5
 40
1.0
 40
1.0
 40
1.0
 40
1.0
 10
29.36875000000001
 20
1.483662624305102
 30
0.0
 10
29.36875000000001
 20
1.401810142460642
 30
0.0
 10
29.36875000000001
 20
1.319160190886574
 30
0.0
 10
29.36875000000001
 20
1.170832093560163
 30
0.0
 10
29.36875000000001
 20
1.105493175026516
 30
0.0
 10
29.36875000000001
 20
1.053935010226743
 30
0.0
  0
SPLINE
  5
BB
330
1F
100
AcDbEntity
  8
0
  6
Continuous
 62
     1
370
    15
100
AcDbSpline
210
0.0
220
0.0
230
1.0
 70
     8
 71
     3
 72
    16
 73
    12
 74
     0
 42
0.000000001
 43
0.00000001
 40
0.0
 40
0.0
 40
0.0
 40
0.0
 40
0.1145906180749906
 40
0.2291867028553616
 40
0.3437879264036999
 40
0.4583939587318023
 40
0.5730044679279745
 40
0.6876191202859719
 40
0.7957100908507246
 40
0.9038053416487482
 40
1.0
 40
1.0
 40
1.0
 40
1.0
 10
38.89375000000001
 20
-1.506443629905642
 30
0.0
 10
38.59750370322108
 20
-1.437197331360719
 30
0.0
 10
38.00499697682013
 20
-1.298701430779547
 30
0.0
 10
37.11620548219773
 20
-0.9145688812104482
 30
0.0
 10
36.2273676778915
 20
-0.4468927069180562
 30
0.0
 10
35.3384818187972
 20
0.0701784677401805
 30
0.0
 10
34.44956614208317
 20
0.5788943549870748
 30
0.0
 10
33.57744458989711
 20
1.020372247347544
 30
0.0
 10
32.7223159191503
 20
1.349870391431752
 30
0.0
 10
31.91475980125215
 20
1.55416016771912
 30
0.0
 10
31.386637040612
 20
1.571938093526505
 30
0.0
 10
31.13795814727431
 20
1.580309243655049
 30
0.0
1001
PE_URL
1000

  0
SPLINE
  5
BC
330
1F
100
AcDbEntity
  8
0
  6
Continuous
 62
     1
370
    15
100
AcDbSpline
210
0.0
220
0.0
230
1.0
 70
     8
 71
     3
 72
    14
 73
    10
 74
     0
 42
0.000000001
 43
0.00000001
 40
0.0
 40
0.0
 40
0.0
 40
0.0
 40
0.1577892898838101
 40
0.3151624993533835
 40
0.472523885389723
 40
0.630278039285591
 40
0.7881010532027279
 40
0.945487458357148
 40
1.0
 40
1.0
 40
1.0
 40
1.0
 10
38.89375000000001
 20
-1.252493469684544
 30
0.0
 10
38.67640553353155
 20
-1.206091526314791
 30
0.0
 10
38.24228972425659
 20
-1.113409998575905
 30
0.0
 10
37.59180148190793
 20
-0.8932165621380139
 30
0.0
 10
36.94136147512768
 20
-0.6282397684081251
 30
0.0
 10
36.28996365279379
 20
-0.3267618467622387
 30
0.0
 10
35.63843923371662
 20
-0.0092838343521319
 30
0.0
 10
35.12948926374903
 20
0.2449677218705213
 30
0.0
 10
34.83775833795648
 20
0.378258423253062
 30
0.0
 10
34.76270844044099
 20
0.4125484233665229
 30
0.0
1001
PE_URL
1000

  0
LINE
  5
BD
330
1F
100
AcDbEntity
  8
0
  6
Continuous
 62
     1
370
    15
100
AcDbLine
 10
38.89375000000001
 20
-1.506443629905643
 30
0.0
 11
38.89375000000001
 21
-1.252493469684544
 31
0.0
1001
PE_URL
1000

  0
LINE
  5
BE
330
1F
100
AcDbEntity
  8
0
  6
Continuous
 62
     1
370
    15
100
AcDbLine
 10
38.89375000000001
 20
-1.586158269177061
 30
0.0
 11
38.89375000000001
 21
-1.506443629905642
 31
0.0
1001
PE_URL
1000

  0
SPLINE
  5
BF
330
1F
100
AcDbEntity
  8
0
  6
Continuous
 62
     1
370
    15
100
AcDbSpline
210
0.0
220
0.0
230
1.0
 70
     8
 71
     3
 72
     8
 73
     4
 74
     0
 42
0.000000001
 43
0.00000001
 40
0.0
 40
0.0
 40
0.0
 40
0.0
 40
1.0
 40
1.0
 40
1.0
 40
1.0
 10
37.91095542367653
 20
0.4445952940611986
 30
0.0
 10
37.85473835895935
 20
0.5111941627036212
 30
0.0
 10
37.80455531521135
 20
0.5753123870125872
 30
0.0
 10
37.76183004190776
 20
0.6363646498196521
 30
0.0
1001
PE_URL
1000

  0
LINE
  5
C0
330
1F
100
AcDbEntity
  8
0
  6
Continuous
 62
     1
370
    15
100
AcDbLine
 10
37.78193878093834
 20
0.6532378853236512
 30
0.0
 11
38.89375000000001
 21
0.0000000000000009
 31
0.0
1001
PE_URL
1000

  0
LINE
  5
C1
330
1F
100
AcDbEntity
  8
0
  6
Continuous
 62
     1
370
    15
100
AcDbLine
 10
38.89375000000001
 20
0.0000000000000009
 30
0.0
 11
38.89375000000001
 21
-0.4242481768220602
 31
0.0
1001
PE_URL
1000

  0
SPLINE
  5
C2
330
1F
100
AcDbEntity
  8
0
  6
Continuous
 62
     1
370
    15
100
AcDbSpline
210
0.0
220
0.0
230
1.0
 70
     8
 71
     3
 72
    10
 73
     6
 74
     0
 42
0.000000001
 43
0.00000001
 40
0.0
 40
0.0
 40
0.0
 40
0.0
 40
0.5
 40
0.5
 40
1.0
 40
1.0
 40
1.0
 40
1.0
 10
38.89375000000001
 20
-0.4242481768220601
 30
0.0
 10
38.72361692683486
 20
-0.2904929793873595
 30
0.0
 10
38.55632873071863
 20
-0.1512488725093313
 30
0.0
 10
38.22757815368846
 20
0.1384796766034564
 30
0.0
 10
38.06458634149638
 20
0.2904950568623468
 30
0.0
 10
37.91095542367653
 20
0.4445952940611996
 30
0.0
1001
PE_URL
1000

  0
SPLINE
  5
C3
330
1F
100
AcDbEntity
  8
0
  6
Continuous
 62
     1
370
    15
100
AcDbSpline
210
0.0
220
0.0
230
1.0
 70
     8
 71
     3
 72
    12
 73
     8
 74
     0
 42
0.000000001
 43
0.00000001
 40
0.0
 40
0.0
 40
0.0
 40
0.0
 40
0.221717672591544
 40
0.4434857736956987
 40
0.680938915357435
 40
0.9183923940394766
 40
1.0
 40
1.0
 40
1.0
 40
1.0
 10
37.91095542367653
 20
0.444595294061197
 30
0.0
 10
37.64083869643468
 20
0.557585986288686
 30
0.0
 10
37.10054380532924
 20
0.7835930698793322
 30
0.0
 10
36.27092750224175
 20
1.052835726188075
 30
0.0
 10
35.4221264320802
 20
1.225254362714876
 30
0.0
 10
34.74409426251905
 20
1.292278610999986
 30
0.0
 10
34.35536391520758
 20
1.256529717993251
 30
0.0
 10
34.25593670664082
 20
1.247386072107113
 30
0.0
1001
PE_URL
1000

  0
SPLINE
  5
C4
330
1F
100
AcDbEntity
  8
0
  6
Continuous
 62
     1
370
    15
100
AcDbSpline
210
0.0
220
0.0
230
1.0
 70
    24
 71
     3
 72
    10
 73
     6
 74
     0
 42
0.000000001
 43
0.00000001
 40
0.0
 40
0.0
 40
0.0
 40
0.0
 40
0.5
 40
0.5
 40
1.0
 40
1.0
 40
1.0
 40
1.0
 10
38.89375000000001
 20
-1.252493469684543
 30
0.0
 10
38.89375000000001
 20
-1.156480080043541
 30
0.0
 10
38.89375000000001
 20
-1.035163480701519
 30
0.0
 10
38.89375
 20
-0.7531140626517041
 30
0.0
 10
38.89375000000001
 20
-0.5926255658439541
 30
0.0
 10
38.89375000000001
 20
-0.4242481768221112
 30
0.0
1001
PE_URL
1000

  0
SPLINE
  5
C5
330
1F
100
AcDbEntity
  8
0
  6
Continuous
 62
     1
370
    15
100
AcDbSpline
210
0.0
220
0.0
230
1.0
 70
     8
 71
     3
 72
    12
 73
     8
 74
     0
 42
0.000000001
 43
0.00000001
 40
0.0
 40
0.0
 40
0.0
 40
0.0
 40
0.0545865412024705
 40
0.3149539517224959
 40
0.5756352259163838
 40
0.8355551987546421
 40
1.0
 40
1.0
 40
1.0
 40
1.0
 10
31.87062150962827
 20
-1.314788908558526
 30
0.0
 10
31.82510888411424
 20
-1.321235293506671
 30
0.0
 10
31.56250969861647
 20
-1.358429707532868
 30
0.0
 10
31.0823569193128
 20
-1.353807283181419
 30
0.0
 10
30.43076839974054
 20
-1.294652658670878
 30
0.0
 10
29.85957079024502
 20
-1.176372938079262
 30
0.0
 10
29.50582815001791
 20
-1.069967046552856
 30
0.0
 10
29.36874999999998
 20
-1.028733898204998
 30
0.0
1001
PE_URL
1000

  0
SPLINE
  5
C6
330
1F
100
AcDbEntity
  8
0
  6
Continuous
 62
     1
370
    15
100
AcDbSpline
210
0.0
220
0.0
230
1.0
 70
     8
 71
     3
 72
    15
 73
    11
 74
     0
 42
0.000000001
 43
0.00000001
 40
0.0
 40
0.0
 40
0.0
 40
0.0
 40
0.0180630281374498
 40
0.1588491541424248
 40
0.2996354780516387
 40
0.440421997947908
 40
0.5812087119119296
 40
0.7219956180222984
 40
0.8609975327929218
 40
1.0
 40
1.0
 40
1.0
 40
1.0
 10
35.53348121511003
 20
-1.187155537073291
 30
0.0
 10
35.49636329528492
 20
-1.195083251885637
 30
0.0
 10
35.16994238053699
 20
-1.264800842017303
 30
0.0
 10
34.5542179025224
 20
-1.284146560343499
 30
0.0
 10
33.6863074087791
 20
-1.226322929259301
 30
0.0
 10
32.81839540353057
 20
-1.036170041810473
 30
0.0
 10
31.95048252215379
 20
-0.7464309718183949
 30
0.0
 10
31.08623492890467
 20
-0.384409413575289
 30
0.0
 10
30.2256601644813
 20
0.0158748833866446
 30
0.0
 10
29.65438709989556
 20
0.2736913284358001
 30
0.0
 10
29.36875000000001
 20
0.4025998071203741
 30
0.0
1001
PE_URL
1000

  0
SPLINE
  5
C7
330
1F
100
AcDbEntity
  8
외형선
  6
Continuous
370
    15
100
AcDbSpline
210
0.0
220
0.0
230
1.0
 70
    24
 71
     3
 72
    10
 73
     6
 74
     0
 42
0.000000001
 43
0.00000001
 40
0.0
 40
0.0
 40
0.0
 40
0.0
 40
0.5
 40
0.5
 40
1.0
 40
1.0
 40
1.0
 40
1.0
 10
29.36875000000001
 20
0.4025998071203724
 30
0.0
 10
29.36875000000001
 20
0.1629524061890449
 30
0.0
 10
29.36875000000001
 20
-0.0994395948683169
 30
0.0
 10
29.36875000000001
 20
-0.5997616510978062
 30
0.0
 10
29.36875000000001
 20
-0.8355381245503005
 30
0.0
 10
29.36875000000001
 20
-1.028733898205004
 30
0.0
  0
SPLINE
  5
C8
330
1F
100
AcDbEntity
  8
0
  6
Continuous
 62
     1
370
    15
100
AcDbSpline
210
0.0
220
0.0
230
1.0
 70
    24
 71
     3
 72
     8
 73
     4
 74
     0
 42
0.000000001
 43
0.00000001
 40
0.0
 40
0.0
 40
0.0
 40
0.0
 40
1.0
 40
1.0
 40
1.0
 40
1.0
 10
37.92765102197993
 20
0.775504973039668
 30
0.0
 10
37.87532355845532
 20
0.7315970176957269
 30
0.0
 10
37.81968116363164
 20
0.6849075047213318
 30
0.0
 10
37.76183004190778
 20
0.6363646498196417
 30
0.0
1001
PE_URL
1000

  0
LINE
  5
C9
330
1F
100
AcDbEntity
  8
0
  6
Continuous
 62
     1
370
    15
100
AcDbLine
 10
38.89375000000001
 20
1.111249999999999
 30
0.0
 11
38.2985923234278
 21
1.073600328071526
 31
0.0
1001
PE_URL
1000

  0
SPLINE
  5
CA
330
1F
100
AcDbEntity
  8
0
  6
Continuous
 62
     1
370
    15
100
AcDbSpline
210
0.0
220
0.0
230
1.0
 70
     8
 71
     3
 72
     8
 73
     4
 74
     0
 42
0.000000001
 43
0.00000001
 40
0.0
 40
0.0
 40
0.0
 40
0.0
 40
1.0
 40
1.0
 40
1.0
 40
1.0
 10
38.89375000000001
 20
1.111250000000001
 30
0.0
 10
38.5672391193413
 20
1.022562296472511
 30
0.0
 10
38.24385172563279
 20
0.9136763805407345
 30
0.0
 10
37.92765102198986
 20
0.7755049730440192
 30
0.0
1001
PE_URL
1000

  0
SPLINE
  5
CB
330
1F
100
AcDbEntity
  8
외형선
  6
Continuous
370
    15
100
AcDbSpline
210
0.0
220
0.0
230
1.0
 70
    24
 71
     3
 72
    12
 73
     8
 74
     0
 42
0.000000001
 43
0.00000001
 40
0.0
 40
0.0
 40
0.0
 40
0.0
 40
0.0598705046911204
 40
0.2510971491622821
 40
0.4369344979296784
 40
0.62816114240085
 40
1.0
 40
1.0
 40
1.0
 40
1.0
 10
29.36875000000001
 20
1.058829672102983
 30
0.0
 10
29.36875000000001
 20
1.060152139538561
 30
0.0
 10
29.36875000000001
 20
1.065698573540523
 30
0.0
 10
29.36875000000001
 20
1.025121618110165
 30
0.0
 10
29.36875000000001
 20
0.9358669542948203
 30
0.0
 10
29.36875000000001
 20
0.7571748347515208
 30
0.0
 10
29.36875000000001
 20
0.5436246850599356
 30
0.0
 10
29.36875000000001
 20
0.4025998071203712
 30
0.0
  0
SPLINE
  5
CC
330
1F
100
AcDbEntity
  8
0
  6
Continuous
 62
     1
370
    15
100
AcDbSpline
210
0.0
220
0.0
230
1.0
 70
     8
 71
     3
 72
    12
 73
     8
 74
     0
 42
0.000000001
 43
0.00000001
 40
0.0
 40
0.0
 40
0.0
 40
0.0
 40
0.0572228894508627
 40
0.2929012679275979
 40
0.528589741024818
 40
0.764289067085866
 40
1.0
 40
1.0
 40
1.0
 40
1.0
 10
32.92586366639298
 20
-1.253456875760939
 30
0.0
 10
32.8580156363488
 20
-1.280254671192005
 30
0.0
 10
32.5107284892467
 20
-1.417421953982984
 30
0.0
 10
31.88398383686985
 20
-1.548084181171533
 30
0.0
 10
31.04561570330843
 20
-1.611458765424472
 30
0.0
 10
30.20720138650237
 20
-1.525652565667845
 30
0.0
 10
29.64823838301341
 20
-1.355214634781718
 30
0.0
 10
29.36875000000007
 20
-1.269993571115305
 30
0.0
1001
PE_URL
1000

  0
SPLINE
  5
CD
330
1F
100
AcDbEntity
  8
외형선
  6
Continuous
370
    15
100
AcDbSpline
210
0.0
220
0.0
230
1.0
 70
    24
 71
     3
 72
     8
 73
     4
 74
     0
 42
0.000000001
 43
0.00000001
 40
0.0
 40
0.0
 40
0.0
 40
0.0
 40
1.0
 40
1.0
 40
1.0
 40
1.0
 10
29.36875000000001
 20
-1.028733898205005
 30
0.0
 10
29.36875000000001
 20
-1.106609660428163
 30
0.0
 10
29.36875000000001
 20
-1.187535123394708
 30
0.0
 10
29.36875000000001
 20
-1.269993571114861
 30
0.0
  0
SPLINE
  5
CE
330
1F
100
AcDbEntity
  8
0
  6
Continuous
 62
     1
370
    15
100
AcDbSpline
210
0.0
220
0.0
230
1.0
 70
     8
 71
     3
 72
     9
 73
     5
 74
     0
 42
0.000000001
 43
0.00000001
 40
0.0
 40
0.0
 40
0.0
 40
0.0
 40
0.8894831011862052
 40
1.0
 40
1.0
 40
1.0
 40
1.0
 10
29.36875000000001
 20
-1.483662624305116
 30
0.0
 10
29.66499545255274
 20
-1.542207094580929
 30
0.0
 10
29.99804894413415
 20
-1.60802562468874
 30
0.0
 10
30.33110317293601
 20
-1.581461455844776
 30
0.0
 10
30.36791129344001
 20
-1.578525666284575
 30
0.0
1001
PE_URL
1000

  0
SPLINE
  5
CF
330
1F
100
AcDbEntity
  8
0
  6
Continuous
 62
     1
370
    15
100
AcDbSpline
210
0.0
220
0.0
230
1.0
 70
     8
 71
     3
 72
    10
 73
     6
 74
     0
 42
0.000000001
 43
0.00000001
 40
0.0
 40
0.0
 40
0.0
 40
0.0
 40
0.2235769855221
 40
0.6117783750412328
 40
1.0
 40
1.0
 40
1.0
 40
1.0
 10
36.73389109681688
 20
1.063104622168846
 30
0.0
 10
36.8948539156584
 20
1.132842215956714
 30
0.0
 10
37.33529983867217
 20
1.323666650355443
 30
0.0
 10
38.05525182722864
 20
1.520789487047718
 30
0.0
 10
38.61424575283694
 20
1.564368296544631
 30
0.0
 10
38.89375000000001
 20
1.586158269177059
 30
0.0
1001
PE_URL
1000

  0
LINE
  5
D0
330
1F
100
AcDbEntity
  8
0
  6
Continuous
 62
     1
370
    15
100
AcDbLine
 10
38.89375000000001
 20
0.0000000000000009
 30
0.0
 11
38.89375000000001
 21
1.111250000000001
 31
0.0
1001
PE_URL
1000

  0
SPLINE
  5
D1
330
1F
100
AcDbEntity
  8
0
  6
Continuous
 62
     1
370
    15
100
AcDbSpline
210
0.0
220
0.0
230
1.0
 70
    24
 71
     3
 72
    10
 73
     6
 74
     0
 42
0.000000001
 43
0.00000001
 40
0.0
 40
0.0
 40
0.0
 40
0.0
 40
0.5
 40
0.5
 40
1.0
 40
1.0
 40
1.0
 40
1.0
 10
38.89375000000001
 20
1.111249999999999
 30
0.0
 10
38.89375000000001
 20
1.17861120768161
 30
0.0
 10
38.89375
 20
1.256891169326548
 30
0.0
 10
38.89375
 20
1.421122318025357
 30
0.0
 10
38.89375000000001
 20
1.506654079334837
 30
0.0
 10
38.89375000000001
 20
1.58615826917706
 30
0.0
1001
PE_URL
1000

  0
LINE
  5
D2
330
1F
100
AcDbEntity
  8
중심선
 62
     1
100
AcDbLine
 10
-41.89375000000001
 20
-0.0000000000000051
 30
0.0
 11
41.89375
 21
0.0000000000000051
 31
0.0
  0
LINE
  5
D3
330
1F
100
AcDbEntity
  8
참조1
100
AcDbLine
 10
0.0
 20
-0.0000000000000047
 30
0.0
 11
0.0000000000000071
 21
-40.00000000000001
 31
0.0
  0
LINE
  5
D4
330
1F
100
AcDbEntity
  8
참조1
100
AcDbLine
 10
0.0000000000000071
 20
-40.00000000000001
 30
0.0
 11
-10.49696559669922
 21
-40.0
 31
0.0
  0
CIRCLE
  5
D5
330
1F
100
AcDbEntity
  8
해칭선
100
AcDbCircle
 10
0.0
 20
0.0
 30
0.0
 40
3.000000000000001
  0
INSERT
  5
D6
330
1F
100
AcDbEntity
  8
0
  6
Continuous
 62
     7
100
AcDbBlockReference
 66
     1
  2
블럭10
 10
-13.94027293212521
 20
-52.04717430164393
 30
0.0
  0
ATTRIB
  5
D7
330
D6
100
AcDbEntity
  8
FORMAT
 62
     2
100
AcDbText
 10
-23.12156822086649
 20
-49.97180738881174
 30
0.0
 40
4.233333333333333
  1
E2050008 [ 2 FLUTE ]
 41
0.75
  7
SLDTEXTSTYLE0
 11
-23.12156822086649
 21
-52.08847405547841
 31
0.0
100
AcDbAttribute
  2
AUTOATTR0
 70
     0
 74
     1
  0
SEQEND
  5
D8
330
D6
100
AcDbEntity
  8
0
  6
Continuous
 62
     7
  0
HATCH
  5
D9
330
1F
100
AcDbEntity
  8
중심선
100
AcDbHatch
 10
0.0
 20
0.0
 30
0.0
210
0.0
220
0.0
230
1.0
  2
SOLID
 70
     1
 71
     0
 91
        1
 92
        0
 93
        4
 72
     1
 10
-8.225363627744372
 20
-35.8
 11
-11.67163887158165
 21
-35.8
 72
     1
 10
-11.67163887158165
 20
-35.8
 11
-13.79986873078568
 21
-38.3363255805726
 72
     1
 10
-13.79986873078568
 20
-38.3363255805726
 11
-10.35356040183525
 21
-38.33628615127011
 72
     1
 10
-10.35356040183525
 20
-38.33628615127011
 11
-8.225363627744372
 21
-35.8
 97
        0
 75
     0
 76
     1
 98
        1
 10
18.96296167873052
 20
-0.0010749287238939
  0
HATCH
  5
DA
330
1F
100
AcDbEntity
  8
중심선
100
AcDbHatch
 10
0.0
 20
0.0
 30
0.0
210
0.0
220
0.0
230
1.0
  2
SOLID
 70
     1
 71
     0
 91
        1
 92
        0
 93
        4
 72
     1
 10
-3.212599636708394
 20
-35.8
 11
-6.658874880545675
 21
-35.8
 72
     1
 10
-6.658874880545675
 20
-35.8
 11
-11.19001288890309
 21
-41.20000000000002
 72
     1
 10
-11.19001288890309
 20
-41.20000000000002
 11
-7.743737645065806
 21
-41.20000000000002
 72
     1
 10
-7.743737645065806
 20
-41.20000000000002
 11
-3.212599636708394
 21
-35.8
 97
        0
 75
     0
 76
     1
 98
        1
 10
18.96296167873052
 20
-0.0010749287238939
  0
HATCH
  5
DB
330
1F
100
AcDbEntity
  8
중심선
100
AcDbHatch
 10
0.0
 20
0.0
 30
0.0
210
0.0
220
0.0
230
1.0
  2
SOLID
 70
     1
 71
     0
 91
        1
 92
        0
 93
        4
 72
     1
 10
1.800164354327475
 20
-35.8
 11
-1.646110889509639
 21
-35.8
 72
     1
 10
-1.646110889509639
 20
-35.8
 11
-8.69454779139889
 21
-44.20000000000002
 72
     1
 10
-8.69454779139889
 20
-44.20000000000002
 11
-5.248272547561605
 21
-44.20000000000002
 72
     1
 10
-5.248272547561605
 20
-44.20000000000002
 11
1.800164354327475
 21
-35.8
 97
        0
 75
     0
 76
     1
 98
        1
 10
18.96296167873052
 20
-0.0010749287238939
  0
HATCH
  5
DC
330
1F
100
AcDbEntity
  8
중심선
100
AcDbHatch
 10
0.0
 20
0.0
 30
0.0
210
0.0
220
0.0
230
1.0
  2
SOLID
 70
     1
 71
     0
 91
        1
 92
        0
 93
        6
 72
     3
 10
6.600054785339674
 20
-40.00000000005127
 11
3.960054785062283
 21
1.540882976769353E-10
 40
0.3939339440162628
 50
17.09539180608436
 51
320.0019657685075
 73
     0
 72
     1
 10
8.28305444104027
 20
-38.58789400463827
 11
10.58835631474131
 21
-36.65356729459035
 72
     3
 10
6.600054785286828
 20
-40.00000000000015
 11
6.600054785286829
 21
-1.278976924368180E-13
 40
0.636358354079598
 50
39.9987384933743
 51
368.4976242363725
 73
     1
 72
     1
 10
13.02538727718744
 20
-39.03999999993002
 11
5.280122092122751
 21
-39.03999999993002
 72
     1
 10
5.280122092122751
 20
-39.03999999993002
 11
5.280097047676817
 21
-40.95999999992991
 72
     1
 10
5.280097047676817
 20
-40.95999999992991
 11
9.721476817148854
 21
-40.95999999992988
 97
        0
 75
     0
 76
     1
 98
        1
 10
18.96296167873052
 20
-0.0010749287238939
  0
DIMENSION
  5
DD
330
1F
100
AcDbEntity
  8
치수문자_일반주서
100
AcDbDimension
  2
_D
 10
-48.89374999999994
 20
-4.762500000000124
 30
0.0
 11
-48.89375000000005
 21
24.49149999999996
 31
0.0
 70
   160
  1
%%c<>
 71
     2
 42
9.524999999999999
 52
-270.0
  3
SLDDIMSTYLE0
100
AcDbAlignedDimension
 13
-16.51948868596884
 23
4.762499999999995
 33
0.0
 14
-16.51948868596883
 24
-4.762500000000003
 34
0.0
 50
90.0000000000002
100
AcDbRotatedDimension
1001
PE_URL
1000

1001
ACAD
1000
DSTYLE
1002
{
1070
   171
1070
     8
1070
   273
1070
     7
1002
}
  0
DIMENSION
  5
F2
330
1F
100
AcDbEntity
  8
치수문자_일반주서
100
AcDbDimension
  2
_D_1
 10
77.69485275064869
 20
1.586158269177204
 30
0.0
 11
77.69485275064861
 21
20.4401582691772
 31
0.0
 70
   160
  1
%%c<>
 71
     2
 42
3.17231653835412
 52
-270.0
  3
SLDDIMSTYLE0
100
AcDbAlignedDimension
 13
38.89375000000001
 23
-1.586158269177061
 33
0.0
 14
38.89375000000001
 24
1.58615826917706
 34
0.0
 50
90.0000000000002
100
AcDbRotatedDimension
1001
PE_URL
1000

1001
ACAD
1000
DSTYLE
1002
{
1070
   171
1070
     8
1070
   273
1070
     7
1002
}
  0
DIMENSION
  5
106
330
1F
100
AcDbEntity
  8
치수문자_일반주서
100
AcDbDimension
  2
_D_2
 10
29.36875000000001
 20
14.76249999999998
 30
0.0
 11
57.31025000000001
 21
14.76249999999998
 31
0.0
 70
   160
  1
<>
 71
     2
 42
9.524999999999999
  3
SLDDIMSTYLE0
100
AcDbAlignedDimension
 13
38.89375000000001
 23
1.58615826917706
 33
0.0
 14
29.36875000000001
 24
1.064115960438772
 34
0.0
100
AcDbRotatedDimension
1001
PE_URL
1000

1001
ACAD
1000
DSTYLE
1002
{
1070
   171
1070
     8
1070
   273
1070
     7
1002
}
  0
DIMENSION
  5
11B
330
1F
100
AcDbEntity
  8
치수문자_일반주서
100
AcDbDimension
  2
_D_3
 10
38.89375000000001
 20
24.76249999999999
 30
0.0
 11
0.0000000000000213
 21
24.76249999999999
 31
0.0
 70
   160
  1
<>
 71
     2
 42
77.78750000000001
  3
SLDDIMSTYLE0
100
AcDbAlignedDimension
 13
-38.89375
 23
1.586158269177041
 33
0.0
 14
38.89375000000001
 24
1.58615826917706
 34
0.0
100
AcDbRotatedDimension
1001
PE_URL
1000

1001
ACAD
1000
DSTYLE
1002
{
1070
   171
1070
     8
1070
   273
1070
     7
1002
}
  0
LINE
  5
12E
330
1F
100
AcDbEntity
  8
참조1
100
AcDbLine
 10
87.47537503295504
 20
7.440000000000001
 30
0.0
 11
87.47537503295504
 21
-7.440000000000003
 31
0.0
  0
LINE
  5
12F
330
1F
100
AcDbEntity
  8
참조1
100
AcDbLine
 10
100.1753750329551
 20
5.440000000000001
 30
0.0
 11
87.47537503295504
 21
5.440000000000001
 31
0.0
  0
SOLID
  5
130
330
1F
100
AcDbEntity
  8
참조1
100
AcDbTrace
 10
87.47537503295504
 20
5.440000000000001
 30
0.0
 11
93.82537503295504
 21
4.424000000000001
 31
0.0
 12
93.82537503295504
 22
6.456000000000001
 32
0.0
 13
93.82537503295504
 23
6.456000000000001
 33
0.0
  0
LINE
  5
131
330
1F
100
AcDbEntity
  8
참조1
100
AcDbLine
 10
100.1753750329551
 20
-5.440000000000003
 30
0.0
 11
87.47537503295504
 21
-5.440000000000003
 31
0.0
  0
SOLID
  5
132
330
1F
100
AcDbEntity
  8
참조1
100
AcDbTrace
 10
87.47537503295504
 20
-5.440000000000003
 30
0.0
 11
93.82537503295504
 21
-6.456000000000003
 31
0.0
 12
93.82537503295504
 22
-4.424000000000003
 32
0.0
 13
93.82537503295504
 23
-4.424000000000003
 33
0.0
  0
MTEXT
  5
133
330
1F
100
AcDbEntity
  8
참조1
100
AcDbMText
 10
96.85972516558104
 20
11.01029177718833
 30
0.0
 40
3.5
 41
0.0
 71
     1
 72
     1
  1
A
  7
SLDTEXTSTYLE0
 73
     1
 44
1.0
  0
MTEXT
  5
134
330
1F
100
AcDbEntity
  8
참조1
100
AcDbMText
 10
96.85972516558104
 20
0.1302917771883253
 30
0.0
 40
3.5
 41
0.0
 71
     1
 72
     1
  1
A
  7
SLDTEXTSTYLE0
 73
     1
 44
1.0
  0
INSERT
  5
13B
330
1F
100
AcDbEntity
  8
해칭선
100
AcDbBlockReference
  2
SW_DOWELSYMBOL_0
 10
0.0
 20
0.0
 30
0.0
  0
LINE
  5
1EE
330
1F
100
AcDbEntity
  8
외형선
  6
Continuous
370
    15
100
AcDbLine
 10
-16.51948868596884
 20
4.762499999999996
 30
0.0
 11
-28.36875
 21
1.587499999999984
 31
0.0
  0
LINE
  5
1EF
330
1F
100
AcDbEntity
  8
외형선
  6
Continuous
370
    15
100
AcDbLine
 10
-28.36874999999999
 20
-1.587500000000013
 30
0.0
 11
-16.51948868596883
 21
-4.762500000000003
 31
0.0
  0
LINE
  5
1F0
330
1F
100
AcDbEntity
  8
외형선
  6
Continuous
370
    15
100
AcDbLine
 10
-28.47879797477741
 20
-1.587500000000013
 30
0.0
 11
-28.36874999999999
 21
-1.587500000000013
 31
0.0
  0
LINE
  5
1F1
330
1F
100
AcDbEntity
  8
외형선
  6
Continuous
370
    15
100
AcDbLine
 10
-28.36875
 20
1.587499999999984
 30
0.0
 11
-28.47879797477742
 21
1.587499999999984
 31
0.0
  0
SPLINE
  5
1F2
330
1F
100
AcDbEntity
  8
외형선
  6
Continuous
370
    15
100
AcDbSpline
210
0.0
220
0.0
230
1.0
 70
     8
 71
     3
 72
     9
 73
     5
 74
     0
 42
0.000000001
 43
0.00000001
 40
0.0
 40
0.0
 40
0.0
 40
0.0
 40
0.4366873180895269
 40
1.0
 40
1.0
 40
1.0
 40
1.0
 10
-29.36874999999999
 20
-1.064092140547928
 30
0.0
 10
-29.23875688333098
 20
-1.057497509111759
 30
0.0
 10
-28.94107680130404
 20
-1.042396013916015
 30
0.0
 10
-28.64537988032029
 20
-1.045586728143377
 30
0.0
 10
-28.47881005472826
 20
-1.047384097932003
 30
0.0
  0
ARC
  5
1F3
330
1F
100
AcDbEntity
  8
외형선
  6
Continuous
370
    15
100
AcDbCircle
 10
-28.82879092859799
 20
1.395231983355036
 30
0.0
 40
0.3499929538805873
100
AcDbArc
 50
333.2698060081832
 51
359.9670247459057
  0
SPLINE
  5
1F4
330
1F
100
AcDbEntity
  8
0
  6
Continuous
 62
     1
370
    15
100
AcDbSpline
210
0.0
220
0.0
230
1.0
 70
     8
 71
     3
 72
     9
 73
     5
 74
     0
 42
0.000000001
 43
0.00000001
 40
0.0
 40
0.0
 40
0.0
 40
0.0
 40
0.4995904696935487
 40
1.0
 40
1.0
 40
1.0
 40
1.0
 10
-34.78017622143729
 20
-0.4068129860357992
 30
0.0
 10
-34.70708542361196
 20
-0.4417973221260212
 30
0.0
 10
-34.56078399822613
 20
-0.5118233498676759
 30
0.0
 10
-34.41446821926964
 20
-0.5886110552087658
 30
0.0
 10
-34.3412504090456
 20
-0.6270363547718105
 30
0.0
1001
PE_URL
1000

  0
LINE
  5
1F5
330
1F
100
AcDbEntity
  8
0
  6
Continuous
 62
     1
370
    15
100
AcDbLine
 10
-31.13795814727429
 20
-1.587500000000013
 30
0.0
 11
-30.36791129343998
 21
-1.587500000000013
 31
0.0
1001
PE_URL
1000

  0
SPLINE
  5
1F6
330
1F
100
AcDbEntity
  8
0
  6
Continuous
 62
     1
370
    15
100
AcDbSpline
210
0.0
220
0.0
230
1.0
 70
     8
 71
     3
 72
     9
 73
     5
 74
     0
 42
0.000000001
 43
0.00000001
 40
0.0
 40
0.0
 40
0.0
 40
0.0
 40
0.9592447985379351
 40
1.0
 40
1.0
 40
1.0
 40
1.0
 10
-34.25708863350205
 20
-1.261516708159547
 30
0.0
 10
-33.83498553672688
 20
-1.245895682507104
 30
0.0
 10
-33.39494864789668
 20
-1.229610970120596
 30
0.0
 10
-32.95567486837804
 20
-1.248142755042021
 30
0.0
 10
-32.93777217699676
 20
-1.248898021669945
 30
0.0
1001
PE_URL
1000

  0
SPLINE
  5
1F7
330
1F
100
AcDbEntity
  8
0
  6
Continuous
 62
     1
370
    15
100
AcDbSpline
210
0.0
220
0.0
230
1.0
 70
     8
 71
     3
 72
     9
 73
     5
 74
     0
 42
0.000000001
 43
0.00000001
 40
0.0
 40
0.0
 40
0.0
 40
0.0
 40
0.4999733995820645
 40
1.0
 40
1.0
 40
1.0
 40
1.0
 10
-31.86946624805602
 20
1.320982253768172
 30
0.0
 10
-32.26733586827785
 20
1.287788802982785
 30
0.0
 10
-33.06311744496657
 20
1.221398369385444
 30
0.0
 10
-33.85908412195937
 20
1.248143454281202
 30
0.0
 10
-34.25708863350205
 20
1.261516708159515
 30
0.0
1001
PE_URL
1000

  0
SPLINE
  5
1F8
330
1F
100
AcDbEntity
  8
0
  6
Continuous
 62
     1
370
    15
100
AcDbSpline
210
0.0
220
0.0
230
1.0
 70
     8
 71
     3
 72
    18
 73
    14
 74
     0
 42
0.000000001
 43
0.00000001
 40
0.0
 40
0.0
 40
0.0
 40
0.0
 40
0.137491413852039
 40
0.2331512041091632
 40
0.3002144170047631
 40
0.3787656586615673
 40
0.4687362961748979
 40
0.5519458820764089
 40
0.6550509666933418
 40
0.7383433661712958
 40
0.7972685768692978
 40
0.8846394496925553
 40
0.9999999999999999
 40
0.9999999999999999
 40
0.9999999999999999
 40
0.9999999999999999
 10
-38.30138705339309
 20
-1.085611237001366
 30
0.0
 10
-38.17420846534174
 20
-1.075852504071182
 30
0.0
 10
-37.95854524601528
 20
-1.059304122834078
 30
0.0
 10
-37.6816694004102
 20
-1.048796480179767
 30
0.0
 10
-37.45858329957463
 20
-1.044514413077675
 30
0.0
 10
-37.24095654777285
 20
-1.044461991254586
 30
0.0
 10
-37.00872919627912
 20
-1.049485420470909
 30
0.0
 10
-36.75348461262848
 20
-1.06058441433203
 30
0.0
 10
-36.50426995319971
 20
-1.07715281864381
 30
0.0
 10
-36.27783040071699
 20
-1.097592472062434
 30
0.0
 10
-36.06596045532235
 20
-1.120300575251715
 30
0.0
 10
-35.82425364467572
 20
-1.149689888039717
 30
0.0
 10
-35.63655188127059
 20
-1.17797263307061
 30
0.0
 10
-35.52974367963265
 20
-1.194066403738148
 30
0.0
1001
PE_URL
1000

  0
SPLINE
  5
1F9
330
1F
100
AcDbEntity
  8
0
  6
Continuous
 62
     1
370
    15
100
AcDbSpline
210
0.0
220
0.0
230
1.0
 70
     8
 71
     3
 72
    12
 73
     8
 74
     0
 42
0.000000001
 43
0.00000001
 40
0.0
 40
0.0
 40
0.0
 40
0.0
 40
0.265586016520925
 40
0.4667334799409893
 40
0.6023926107290339
 40
0.7941505082500178
 40
0.9999999999999999
 40
0.9999999999999999
 40
0.9999999999999999
 40
0.9999999999999999
 10
-35.52974367963265
 20
1.194066403738113
 30
0.0
 10
-35.63655186339862
 20
1.177975588016697
 30
0.0
 10
-35.82425359539603
 20
1.14969803592594
 30
0.0
 10
-36.06596057921962
 20
1.120280090122183
 30
0.0
 10
-36.27783004858617
 20
1.097650693250102
 30
0.0
 10
-36.49163405081204
 20
1.077958098373575
 30
0.0
 10
-36.65125306357648
 20
1.068171397647955
 30
0.0
 10
-36.73389109681686
 20
1.063104622168829
 30
0.0
1001
PE_URL
1000

  0
SPLINE
  5
1FA
330
1F
100
AcDbEntity
  8
0
  6
Continuous
 62
     1
370
    15
100
AcDbSpline
210
0.0
220
0.0
230
1.0
 70
     8
 71
     3
 72
     9
 73
     5
 74
     0
 42
0.000000001
 43
0.00000001
 40
0.0
 40
0.0
 40
0.0
 40
0.0
 40
0.5025349159016272
 40
1.0
 40
1.0
 40
1.0
 40
1.0
 10
-29.79592325188407
 20
-1.095769613620025
 30
0.0
 10
-29.72437173029656
 20
-1.089684779975187
 30
0.0
 10
-29.58199053582945
 20
-1.077576499630283
 30
0.0
 10
-29.43958952889182
 20
-1.06857170931794
 30
0.0
 10
-29.36874999999991
 20
-1.064092140547924
 30
0.0
1001
PE_URL
1000

  0
LINE
  5
1FB
330
1F
100
AcDbEntity
  8
0
  6
Continuous
 62
     1
370
    15
100
AcDbLine
 10
-30.36791129343999
 20
1.587499999999988
 30
0.0
 11
-31.1379581472743
 21
1.587499999999988
 31
0.0
1001
PE_URL
1000

  0
LINE
  5
1FC
330
1F
100
AcDbEntity
  8
외형선
  6
Continuous
370
    15
100
AcDbLine
 10
-16.51948868596883
 20
-4.762500000000003
 30
0.0
 11
-16.51948868596884
 21
4.762499999999996
 31
0.0
  0
LINE
  5
1FD
330
1F
100
AcDbEntity
  8
외형선
  6
Continuous
370
    15
100
AcDbLine
 10
-28.36874999999999
 20
-1.587500000000013
 30
0.0
 11
-28.36875
 21
1.587499999999984
 31
0.0
  0
SPLINE
  5
1FE
330
1F
100
AcDbEntity
  8
외형선
  6
Continuous
370
    15
100
AcDbSpline
210
0.0
220
0.0
230
1.0
 70
     8
 71
     3
 72
     8
 73
     4
 74
     0
 42
0.000000001
 43
0.00000001
 40
0.0
 40
0.0
 40
0.0
 40
0.0
 40
1.0
 40
1.0
 40
1.0
 40
1.0
 10
-29.36874999999998
 20
-1.483662624305126
 30
0.0
 10
-29.0751010267826
 20
-1.422931400264787
 30
0.0
 10
-28.77305681906534
 20
-1.335370569183887
 30
0.0
 10
-28.47879797477742
 20
-1.226964101768949
 30
0.0
  0
SPLINE
  5
1FF
330
1F
100
AcDbEntity
  8
외형선
  6
Continuous
370
    15
100
AcDbSpline
210
0.0
220
0.0
230
1.0
 70
     8
 71
     3
 72
     8
 73
     4
 74
     0
 42
0.000000001
 43
0.00000001
 40
0.0
 40
0.0
 40
0.0
 40
0.0
 40
1.0
 40
1.0
 40
1.0
 40
1.0
 10
-29.36874999999999
 20
1.269993571115268
 30
0.0
 10
-29.07511768264473
 20
1.167563367890978
 30
0.0
 10
-28.77308907004386
 20
1.041708574802207
 30
0.0
 10
-28.4788480460439
 20
0.9010607330287144
 30
0.0
  0
LINE
  5
200
330
1F
100
AcDbEntity
  8
외형선
  6
Continuous
370
    15
100
AcDbLine
 10
-29.36875
 20
1.269993571115265
 30
0.0
 11
-29.36874999999999
 21
1.483662624305101
 31
0.0
  0
SPLINE
  5
201
330
1F
100
AcDbEntity
  8
외형선
  6
Continuous
370
    15
100
AcDbSpline
210
0.0
220
0.0
230
1.0
 70
     8
 71
     3
 72
     8
 73
     4
 74
     0
 42
0.000000001
 43
0.00000001
 40
0.0
 40
0.0
 40
0.0
 40
0.0
 40
1.0
 40
1.0
 40
1.0
 40
1.0
 10
-29.36874999999999
 20
1.483662624305101
 30
0.0
 10
-29.07510102678261
 20
1.422931400264758
 30
0.0
 10
-28.77305681906534
 20
1.335370569183858
 30
0.0
 10
-28.47879797477742
 20
1.226964101768921
 30
0.0
  0
LINE
  5
202
330
1F
100
AcDbEntity
  8
외형선
  6
Continuous
370
    15
100
AcDbLine
 10
-28.47879797477742
 20
1.587499999999984
 30
0.0
 11
-28.47879797477742
 21
1.226619885995856
 31
0.0
  0
LINE
  5
203
330
1F
100
AcDbEntity
  8
외형선
  6
Continuous
370
    15
100
AcDbLine
 10
-28.47879797477742
 20
0.9010047179105882
 30
0.0
 11
-28.47879797477741
 21
-1.587500000000013
 31
0.0
  0
SPLINE
  5
204
330
1F
100
AcDbEntity
  8
외형선
  6
Continuous
370
    15
100
AcDbSpline
210
0.0
220
0.0
230
1.0
 70
     8
 71
     3
 72
     8
 73
     4
 74
     0
 42
0.000000001
 43
0.00000001
 40
0.0
 40
0.0
 40
0.0
 40
0.0
 40
1.0
 40
1.0
 40
1.0
 40
1.0
 10
-29.36874999999997
 20
1.028733898204983
 30
0.0
 10
-29.07511768264472
 20
0.9348297869370512
 30
0.0
 10
-28.77308907004386
 20
0.8218510739607403
 30
0.0
 10
-28.4788480460439
 20
0.6975501586592969
 30
0.0
  0
SPLINE
  5
205
330
1F
100
AcDbEntity
  8
외형선
  6
Continuous
370
    15
100
AcDbSpline
210
0.0
220
0.0
230
1.0
 70
     8
 71
     3
 72
     8
 73
     4
 74
     0
 42
0.000000001
 43
0.00000001
 40
0.0
 40
0.0
 40
0.0
 40
0.0
 40
1.0
 40
1.0
 40
1.0
 40
1.0
 10
-29.36874999999999
 20
-0.4025998071203887
 30
0.0
 10
-29.07510711595803
 20
-0.5321328442318567
 30
0.0
 10
-28.77306860964496
 20
-0.6557207306040347
 30
0.0
 10
-28.47881628023014
 20
-0.7648288532026193
 30
0.0
  0
SPLINE
  5
206
330
1F
100
AcDbEntity
  8
외형선
  6
Continuous
370
    15
100
AcDbSpline
210
0.0
220
0.0
230
1.0
 70
    24
 71
     3
 72
    10
 73
     6
 74
     0
 42
0.000000001
 43
0.00000001
 40
0.0
 40
0.0
 40
0.0
 40
0.0
 40
0.5
 40
0.5
 40
1.0
 40
1.0
 40
1.0
 40
1.0
 10
-29.36874999999999
 20
-0.4025998071203851
 30
0.0
 10
-29.36874999999999
 20
-0.1629524061890599
 30
0.0
 10
-29.36874999999999
 20
0.0994395948683042
 30
0.0
 10
-29.36874999999999
 20
0.5997616510977934
 30
0.0
 10
-29.36874999999999
 20
0.8355381245502862
 30
0.0
 10
-29.36874999999999
 20
1.02873389820499
 30
0.0
  0
SPLINE
  5
207
330
1F
100
AcDbEntity
  8
외형선
  6
Continuous
370
    15
100
AcDbSpline
210
0.0
220
0.0
230
1.0
 70
    24
 71
     3
 72
     8
 73
     4
 74
     0
 42
0.000000001
 43
0.00000001
 40
0.0
 40
0.0
 40
0.0
 40
0.0
 40
1.0
 40
1.0
 40
1.0
 40
1.0
 10
-29.36874999999999
 20
1.02873389820499
 30
0.0
 10
-29.36874999999999
 20
1.106609660428148
 30
0.0
 10
-29.36874999999999
 20
1.187535123394692
 30
0.0
 10
-29.36874999999999
 20
1.269993571114849
 30
0.0
  0
SPLINE
  5
208
330
1F
100
AcDbEntity
  8
외형선
  6
Continuous
370
    15
100
AcDbSpline
210
0.0
220
0.0
230
1.0
 70
    24
 71
     3
 72
    12
 73
     8
 74
     0
 42
0.000000001
 43
0.00000001
 40
0.0
 40
0.0
 40
0.0
 40
0.0
 40
0.059218930544974
 40
0.2505781081812087
 40
0.4365442549625478
 40
0.6279034325987923
 40
1.0
 40
1.0
 40
1.0
 40
1.0
 10
-29.36874999999999
 20
-1.058856583839439
 30
0.0
 10
-29.36874999999999
 20
-1.060159146760601
 30
0.0
 10
-29.36874999999999
 20
-1.065670792269358
 30
0.0
 10
-29.36875
 20
-1.025108251946449
 30
0.0
 10
-29.36874999999999
 20
-0.9358705154735425
 30
0.0
 10
-29.36874999999999
 20
-0.7571728971867202
 30
0.0
 10
-29.36874999999999
 20
-0.543623914433649
 30
0.0
 10
-29.36874999999999
 20
-0.4025998071203851
 30
0.0
  0
SPLINE
  5
209
330
1F
100
AcDbEntity
  8
외형선
  6
Continuous
370
    15
100
AcDbSpline
210
0.0
220
0.0
230
1.0
 70
    24
 71
     3
 72
    10
 73
     6
 74
     0
 42
0.000000001
 43
0.00000001
 40
0.0
 40
0.0
 40
0.0
 40
0.0
 40
0.4999999999999999
 40
0.4999999999999999
 40
1.0
 40
1.0
 40
1.0
 40
1.0
 10
-29.36874999999998
 20
-1.483662624305119
 30
0.0
 10
-29.36874999999998
 20
-1.401810142460658
 30
0.0
 10
-29.36874999999999
 20
-1.319160190886588
 30
0.0
 10
-29.36875
 20
-1.170832093560179
 30
0.0
 10
-29.36874999999999
 20
-1.105493175026531
 30
0.0
 10
-29.36874999999999
 20
-1.053935010226756
 30
0.0
  0
SPLINE
  5
20A
330
1F
100
AcDbEntity
  8
0
  6
Continuous
 62
     1
370
    15
100
AcDbSpline
210
0.0
220
0.0
230
1.0
 70
     8
 71
     3
 72
    38
 73
    34
 74
     0
 42
0.000000001
 43
0.00000001
 40
0.0
 40
0.0
 40
0.0
 40
0.0
 40
0.0625
 40
0.0625
 40
0.1250000000000001
 40
0.1250000000000001
 40
0.1875000000000001
 40
0.1875000000000001
 40
0.2500000000000002
 40
0.2500000000000002
 40
0.3125000000000002
 40
0.3125000000000002
 40
0.3750000000000002
 40
0.3750000000000002
 40
0.4375000000000003
 40
0.4375000000000003
 40
0.5000000000000003
 40
0.5000000000000003
 40
0.5625000000000003
 40
0.5625000000000003
 40
0.6250000000000004
 40
0.6250000000000004
 40
0.6875000000000004
 40
0.6875000000000004
 40
0.7500000000000003
 40
0.7500000000000003
 40
0.8125000000000003
 40
0.8125000000000003
 40
0.8750000000000002
 40
0.8750000000000002
 40
0.9375000000000002
 40
0.9375000000000002
 40
1.0
 40
1.0
 40
1.0
 40
1.0
 10
-38.89375
 20
1.586158269177037
 30
0.0
 10
-38.69775017442151
 20
1.581468119098005
 30
0.0
 10
-38.49669627196323
 20
1.564302173387212
 30
0.0
 10
-38.09841273521353
 20
1.505827503480489
 30
0.0
 10
-37.9031568355976
 20
1.464819891069887
 30
0.0
 10
-37.50425148072985
 20
1.360037182869526
 30
0.0
 10
-37.30526114337178
 20
1.296556515398485
 30
0.0
 10
-36.91142549020945
 20
1.150969576381755
 30
0.0
 10
-36.71012099838352
 20
1.068017963315906
 30
0.0
 10
-36.31272764047932
 20
0.8874140850266095
 30
0.0
 10
-36.11701993103543
 20
0.7899464117528012
 30
0.0
 10
-35.71776252056272
 20
0.5829220931530266
 30
0.0
 10
-35.52039230656634
 20
0.4744178822334213
 30
0.0
 10
-35.12497906305057
 20
0.2516224952184558
 30
0.0
 10
-34.92356300927143
 20
0.1366767953232717
 30
0.0
 10
-34.52732618883167
 20
-0.0923187916355559
 30
0.0
 10
-34.33071587517372
 20
-0.2067018184709184
 30
0.0
 10
-33.93137696644494
 20
-0.431626927451898
 30
0.0
 10
-33.73517981071706
 20
-0.54093489795466
 30
0.0
 10
-33.33845090161938
 20
-0.7502463018051486
 30
0.0
 10
-33.13706257293427
 20
-0.8503204502745128
 30
0.0
 10
-32.7422460555813
 20
-1.034402684541107
 30
0.0
 10
-32.54428436942652
 20
-1.119173217800046
 30
0.0
 10
-32.14513470391125
 20
-1.27034378358557
 30
0.0
 10
-31.94966091115411
 20
-1.336081947643301
 30
0.0
 10
-31.55188120424634
 20
-1.446512821648476
 30
0.0
 10
-31.35065982316237
 20
-1.490923864838678
 30
0.0
 10
-30.95752420280107
 20
-1.555314526333412
 30
0.0
 10
-30.75776540310863
 20
-1.575763126083867
 30
0.0
 10
-30.35907529480901
 20
-1.591634593025923
 30
0.0
 10
-30.16387354501331
 20
-1.587169955946433
 30
0.0
 10
-29.76531026718234
 20
-1.553533779720723
 30
0.0
 10
-29.56513056842726
 20
-1.52427721310363
 30
0.0
 10
-29.36874999999999
 20
-1.483662624305129
 30
0.0
1001
PE_URL
1000

  0
SPLINE
  5
20B
330
1F
100
AcDbEntity
  8
0
  6
Continuous
 62
     1
370
    15
100
AcDbSpline
210
0.0
220
0.0
230
1.0
 70
     8
 71
     3
 72
    14
 73
    10
 74
     0
 42
0.000000001
 43
0.00000001
 40
0.0
 40
0.0
 40
0.0
 40
0.0
 40
0.0764103374274077
 40
0.2446834448298824
 40
0.4129567927861897
 40
0.5812303789407718
 40
0.7495042009354774
 40
0.9156438443748945
 40
1.0
 40
1.0
 40
1.0
 40
1.0
 10
-34.94832126787171
 20
0.14851345304562
 30
0.0
 10
-34.81695275091369
 20
0.0963712700404891
 30
0.0
 10
-34.39628059641599
 20
-0.0705999721787478
 30
0.0
 10
-33.68630427522113
 20
-0.3594099409132063
 30
0.0
 10
-32.81839177747452
 20
-0.6732575834581063
 30
0.0
 10
-31.95047830923193
 20
-0.9229375582362778
 30
0.0
 10
-31.08623163818163
 20
-1.075025330989586
 30
0.0
 10
-30.36626472344134
 20
-1.131110975399707
 30
0.0
 10
-29.93560054673396
 20
-1.094458925171743
 30
0.0
 10
-29.79057147060511
 20
-1.082116099205976
 30
0.0
1001
PE_URL
1000

  0
SPLINE
  5
20C
330
1F
100
AcDbEntity
  8
외형선
  6
Continuous
370
    15
100
AcDbSpline
210
0.0
220
0.0
230
1.0
 70
    24
 71
     3
 72
    10
 73
     6
 74
     0
 42
0.000000001
 43
0.00000001
 40
0.0
 40
0.0
 40
0.0
 40
0.0
 40
0.5
 40
0.5
 40
1.0
 40
1.0
 40
1.0
 40
1.0
 10
-29.36874999999999
 20
-1.483662624305115
 30
0.0
 10
-29.36874999999999
 20
-1.401810142460654
 30
0.0
 10
-29.36875
 20
-1.319160190886588
 30
0.0
 10
-29.36875
 20
-1.170832093560179
 30
0.0
 10
-29.36875
 20
-1.105493175026531
 30
0.0
 10
-29.36875
 20
-1.053935010226756
 30
0.0
  0
SPLINE
  5
20D
330
1F
100
AcDbEntity
  8
0
  6
Continuous
 62
     1
370
    15
100
AcDbSpline
210
0.0
220
0.0
230
1.0
 70
     8
 71
     3
 72
    16
 73
    12
 74
     0
 42
0.000000001
 43
0.00000001
 40
0.0
 40
0.0
 40
0.0
 40
0.0
 40
0.1145906180749906
 40
0.2291867028553616
 40
0.3437879264036999
 40
0.4583939587318023
 40
0.5730044679279745
 40
0.6876191202859719
 40
0.7957100908507246
 40
0.9038053416487482
 40
1.0
 40
1.0
 40
1.0
 40
1.0
 10
-38.89375
 20
1.506443629905622
 30
0.0
 10
-38.59750370322107
 20
1.437197331360696
 30
0.0
 10
-38.00499697682011
 20
1.298701430779527
 30
0.0
 10
-37.11620548219771
 20
0.9145688812104318
 30
0.0
 10
-36.22736767789148
 20
0.4468927069180388
 30
0.0
 10
-35.33848181879718
 20
-0.0701784677401989
 30
0.0
 10
-34.44956614208316
 20
-0.5788943549870922
 30
0.0
 10
-33.5774445898971
 20
-1.020372247347563
 30
0.0
 10
-32.72231591915029
 20
-1.349870391431772
 30
0.0
 10
-31.91475980125213
 20
-1.554160167719136
 30
0.0
 10
-31.38663704061198
 20
-1.571938093526519
 30
0.0
 10
-31.13795814727429
 20
-1.580309243655062
 30
0.0
1001
PE_URL
1000

  0
SPLINE
  5
20E
330
1F
100
AcDbEntity
  8
0
  6
Continuous
 62
     1
370
    15
100
AcDbSpline
210
0.0
220
0.0
230
1.0
 70
     8
 71
     3
 72
    14
 73
    10
 74
     0
 42
0.000000001
 43
0.00000001
 40
0.0
 40
0.0
 40
0.0
 40
0.0
 40
0.1577892898838101
 40
0.3151624993533835
 40
0.472523885389723
 40
0.630278039285591
 40
0.7881010532027279
 40
0.945487458357148
 40
1.0
 40
1.0
 40
1.0
 40
1.0
 10
-38.89375
 20
1.252493469684524
 30
0.0
 10
-38.67640553353154
 20
1.206091526314768
 30
0.0
 10
-38.24228972425658
 20
1.113409998575882
 30
0.0
 10
-37.59180148190791
 20
0.8932165621379973
 30
0.0
 10
-36.94136147512766
 20
0.6282397684081076
 30
0.0
 10
-36.28996365279377
 20
0.3267618467622206
 30
0.0
 10
-35.6384392337166
 20
0.0092838343521144
 30
0.0
 10
-35.12948926374901
 20
-0.2449677218705375
 30
0.0
 10
-34.83775833795646
 20
-0.3782584232530795
 30
0.0
 10
-34.76270844044097
 20
-0.4125484233665411
 30
0.0
1001
PE_URL
1000

  0
LINE
  5
20F
330
1F
100
AcDbEntity
  8
0
  6
Continuous
 62
     1
370
    15
100
AcDbLine
 10
-38.89375
 20
1.506443629905622
 30
0.0
 11
-38.89375
 21
1.252493469684524
 31
0.0
1001
PE_URL
1000

  0
LINE
  5
210
330
1F
100
AcDbEntity
  8
0
  6
Continuous
 62
     1
370
    15
100
AcDbLine
 10
-38.89375
 20
1.586158269177041
 30
0.0
 11
-38.89375
 21
1.506443629905622
 31
0.0
1001
PE_URL
1000

  0
SPLINE
  5
211
330
1F
100
AcDbEntity
  8
0
  6
Continuous
 62
     1
370
    15
100
AcDbSpline
210
0.0
220
0.0
230
1.0
 70
     8
 71
     3
 72
     8
 73
     4
 74
     0
 42
0.000000001
 43
0.00000001
 40
0.0
 40
0.0
 40
0.0
 40
0.0
 40
1.0
 40
1.0
 40
1.0
 40
1.0
 10
-37.91095542367651
 20
-0.4445952940612194
 30
0.0
 10
-37.85473835895932
 20
-0.5111941627036423
 30
0.0
 10
-37.80455531521133
 20
-0.5753123870126089
 30
0.0
 10
-37.76183004190774
 20
-0.6363646498196722
 30
0.0
1001
PE_URL
1000

  0
LINE
  5
212
330
1F
100
AcDbEntity
  8
0
  6
Continuous
 62
     1
370
    15
100
AcDbLine
 10
-37.78193878093832
 20
-0.6532378853236729
 30
0.0
 11
-38.89375
 21
-0.0000000000000213
 31
0.0
1001
PE_URL
1000

  0
LINE
  5
213
330
1F
100
AcDbEntity
  8
0
  6
Continuous
 62
     1
370
    15
100
AcDbLine
 10
-38.89375
 20
-0.0000000000000213
 30
0.0
 11
-38.89375
 21
0.4242481768220401
 31
0.0
1001
PE_URL
1000

  0
SPLINE
  5
214
330
1F
100
AcDbEntity
  8
0
  6
Continuous
 62
     1
370
    15
100
AcDbSpline
210
0.0
220
0.0
230
1.0
 70
     8
 71
     3
 72
    10
 73
     6
 74
     0
 42
0.000000001
 43
0.00000001
 40
0.0
 40
0.0
 40
0.0
 40
0.0
 40
0.5
 40
0.5
 40
1.0
 40
1.0
 40
1.0
 40
1.0
 10
-38.89375
 20
0.4242481768220401
 30
0.0
 10
-38.72361692683485
 20
0.2904929793873379
 30
0.0
 10
-38.55632873071862
 20
0.15124887250931
 30
0.0
 10
-38.22757815368844
 20
-0.1384796766034775
 30
0.0
 10
-38.06458634149637
 20
-0.290495056862369
 30
0.0
 10
-37.91095542367651
 20
-0.4445952940612194
 30
0.0
1001
PE_URL
1000

  0
SPLINE
  5
215
330
1F
100
AcDbEntity
  8
0
  6
Continuous
 62
     1
370
    15
100
AcDbSpline
210
0.0
220
0.0
230
1.0
 70
     8
 71
     3
 72
    12
 73
     8
 74
     0
 42
0.000000001
 43
0.00000001
 40
0.0
 40
0.0
 40
0.0
 40
0.0
 40
0.221717672591544
 40
0.4434857736956987
 40
0.680938915357435
 40
0.9183923940394766
 40
1.0
 40
1.0
 40
1.0
 40
1.0
 10
-37.91095542367651
 20
-0.4445952940612194
 30
0.0
 10
-37.64083869643467
 20
-0.5575859862887036
 30
0.0
 10
-37.10054380532922
 20
-0.7835930698793483
 30
0.0
 10
-36.27092750224173
 20
-1.052835726188093
 30
0.0
 10
-35.42212643208019
 20
-1.225254362714892
 30
0.0
 10
-34.74409426251903
 20
-1.292278611000004
 30
0.0
 10
-34.35536391520756
 20
-1.256529717993267
 30
0.0
 10
-34.25593670664081
 20
-1.24738607210713
 30
0.0
1001
PE_URL
1000

  0
SPLINE
  5
216
330
1F
100
AcDbEntity
  8
0
  6
Continuous
 62
     1
370
    15
100
AcDbSpline
210
0.0
220
0.0
230
1.0
 70
    24
 71
     3
 72
    10
 73
     6
 74
     0
 42
0.000000001
 43
0.00000001
 40
0.0
 40
0.0
 40
0.0
 40
0.0
 40
0.5
 40
0.5
 40
1.0
 40
1.0
 40
1.0
 40
1.0
 10
-38.89375
 20
1.25249346968452
 30
0.0
 10
-38.89375
 20
1.156480080043519
 30
0.0
 10
-38.89375
 20
1.035163480701499
 30
0.0
 10
-38.89374999999998
 20
0.753114062651683
 30
0.0
 10
-38.89375
 20
0.5926255658439317
 30
0.0
 10
-38.89375
 20
0.4242481768220898
 30
0.0
1001
PE_URL
1000

  0
SPLINE
  5
217
330
1F
100
AcDbEntity
  8
0
  6
Continuous
 62
     1
370
    15
100
AcDbSpline
210
0.0
220
0.0
230
1.0
 70
     8
 71
     3
 72
    12
 73
     8
 74
     0
 42
0.000000001
 43
0.00000001
 40
0.0
 40
0.0
 40
0.0
 40
0.0
 40
0.0545865412024705
 40
0.3149539517224959
 40
0.5756352259163838
 40
0.8355551987546421
 40
1.0
 40
1.0
 40
1.0
 40
1.0
 10
-31.87062150962825
 20
1.314788908558512
 30
0.0
 10
-31.82510888411422
 20
1.321235293506657
 30
0.0
 10
-31.56250969861646
 20
1.358429707532853
 30
0.0
 10
-31.08235691931278
 20
1.353807283181403
 30
0.0
 10
-30.43076839974052
 20
1.294652658670863
 30
0.0
 10
-29.859570790245
 20
1.176372938079247
 30
0.0
 10
-29.50582815001789
 20
1.06996704655284
 30
0.0
 10
-29.36874999999997
 20
1.028733898204983
 30
0.0
1001
PE_URL
1000

  0
SPLINE
  5
218
330
1F
100
AcDbEntity
  8
0
  6
Continuous
 62
     1
370
    15
100
AcDbSpline
210
0.0
220
0.0
230
1.0
 70
     8
 71
     3
 72
    15
 73
    11
 74
     0
 42
0.000000001
 43
0.00000001
 40
0.0
 40
0.0
 40
0.0
 40
0.0
 40
0.0180630281374498
 40
0.1588491541424248
 40
0.2996354780516387
 40
0.440421997947908
 40
0.5812087119119296
 40
0.7219956180222984
 40
0.8609975327929218
 40
1.0
 40
1.0
 40
1.0
 40
1.0
 10
-35.53348121511002
 20
1.187155537073274
 30
0.0
 10
-35.49636329528491
 20
1.19508325188562
 30
0.0
 10
-35.16994238053697
 20
1.264800842017284
 30
0.0
 10
-34.55421790252238
 20
1.284146560343483
 30
0.0
 10
-33.68630740877909
 20
1.226322929259283
 30
0.0
 10
-32.81839540353056
 20
1.036170041810454
 30
0.0
 10
-31.95048252215377
 20
0.7464309718183806
 30
0.0
 10
-31.08623492890465
 20
0.3844094135752734
 30
0.0
 10
-30.22566016448129
 20
-0.0158748833866582
 30
0.0
 10
-29.65438709989554
 20
-0.2736913284358131
 30
0.0
 10
-29.36874999999999
 20
-0.4025998071203887
 30
0.0
1001
PE_URL
1000

  0
SPLINE
  5
219
330
1F
100
AcDbEntity
  8
외형선
  6
Continuous
370
    15
100
AcDbSpline
210
0.0
220
0.0
230
1.0
 70
    24
 71
     3
 72
    10
 73
     6
 74
     0
 42
0.000000001
 43
0.00000001
 40
0.0
 40
0.0
 40
0.0
 40
0.0
 40
0.5
 40
0.5
 40
1.0
 40
1.0
 40
1.0
 40
1.0
 10
-29.36874999999999
 20
-0.4025998071203851
 30
0.0
 10
-29.36874999999999
 20
-0.1629524061890599
 30
0.0
 10
-29.36874999999999
 20
0.0994395948683042
 30
0.0
 10
-29.36874999999999
 20
0.5997616510977934
 30
0.0
 10
-29.36874999999999
 20
0.8355381245502862
 30
0.0
 10
-29.36874999999999
 20
1.02873389820499
 30
0.0
  0
SPLINE
  5
21A
330
1F
100
AcDbEntity
  8
0
  6
Continuous
 62
     1
370
    15
100
AcDbSpline
210
0.0
220
0.0
230
1.0
 70
    24
 71
     3
 72
     8
 73
     4
 74
     0
 42
0.000000001
 43
0.00000001
 40
0.0
 40
0.0
 40
0.0
 40
0.0
 40
1.0
 40
1.0
 40
1.0
 40
1.0
 10
-37.92765102197991
 20
-0.7755049730396877
 30
0.0
 10
-37.87532355845531
 20
-0.7315970176957478
 30
0.0
 10
-37.81968116363163
 20
-0.6849075047213518
 30
0.0
 10
-37.76183004190776
 20
-0.6363646498196616
 30
0.0
1001
PE_URL
1000

  0
LINE
  5
21B
330
1F
100
AcDbEntity
  8
0
  6
Continuous
 62
     1
370
    15
100
AcDbLine
 10
-38.89375
 20
-1.11125000000002
 30
0.0
 11
-38.29859232342778
 21
-1.073600328071549
 31
0.0
1001
PE_URL
1000

  0
SPLINE
  5
21C
330
1F
100
AcDbEntity
  8
0
  6
Continuous
 62
     1
370
    15
100
AcDbSpline
210
0.0
220
0.0
230
1.0
 70
     8
 71
     3
 72
     8
 73
     4
 74
     0
 42
0.000000001
 43
0.00000001
 40
0.0
 40
0.0
 40
0.0
 40
0.0
 40
1.0
 40
1.0
 40
1.0
 40
1.0
 10
-38.89375
 20
-1.111250000000023
 30
0.0
 10
-38.56723911934128
 20
-1.022562296472532
 30
0.0
 10
-38.24385172563278
 20
-0.9136763805407568
 30
0.0
 10
-37.92765102198985
 20
-0.7755049730440398
 30
0.0
1001
PE_URL
1000

  0
SPLINE
  5
21D
330
1F
100
AcDbEntity
  8
외형선
  6
Continuous
370
    15
100
AcDbSpline
210
0.0
220
0.0
230
1.0
 70
    24
 71
     3
 72
    12
 73
     8
 74
     0
 42
0.000000001
 43
0.00000001
 40
0.0
 40
0.0
 40
0.0
 40
0.0
 40
0.0598705046911204
 40
0.2510971491622821
 40
0.4369344979296784
 40
0.62816114240085
 40
1.0
 40
1.0
 40
1.0
 40
1.0
 10
-29.36875
 20
-1.058829672102998
 30
0.0
 10
-29.36875
 20
-1.060152139538573
 30
0.0
 10
-29.36875
 20
-1.065698573540537
 30
0.0
 10
-29.36875
 20
-1.02512161811018
 30
0.0
 10
-29.36875
 20
-0.9358669542948341
 30
0.0
 10
-29.36875
 20
-0.7571748347515346
 30
0.0
 10
-29.36875
 20
-0.5436246850599495
 30
0.0
 10
-29.36875
 20
-0.4025998071203851
 30
0.0
  0
SPLINE
  5
21E
330
1F
100
AcDbEntity
  8
0
  6
Continuous
 62
     1
370
    15
100
AcDbSpline
210
0.0
220
0.0
230
1.0
 70
     8
 71
     3
 72
    12
 73
     8
 74
     0
 42
0.000000001
 43
0.00000001
 40
0.0
 40
0.0
 40
0.0
 40
0.0
 40
0.0572228894508627
 40
0.2929012679275979
 40
0.528589741024818
 40
0.764289067085866
 40
1.0
 40
1.0
 40
1.0
 40
1.0
 10
-32.92586366639296
 20
1.253456875760921
 30
0.0
 10
-32.85801563634878
 20
1.280254671191987
 30
0.0
 10
-32.51072848924669
 20
1.41742195398297
 30
0.0
 10
-31.88398383686983
 20
1.548084181171518
 30
0.0
 10
-31.04561570330841
 20
1.611458765424459
 30
0.0
 10
-30.20720138650235
 20
1.52565256566783
 30
0.0
 10
-29.64823838301339
 20
1.355214634781703
 30
0.0
 10
-29.36875000000006
 20
1.26999357111529
 30
0.0
1001
PE_URL
1000

  0
SPLINE
  5
21F
330
1F
100
AcDbEntity
  8
외형선
  6
Continuous
370
    15
100
AcDbSpline
210
0.0
220
0.0
230
1.0
 70
    24
 71
     3
 72
     8
 73
     4
 74
     0
 42
0.000000001
 43
0.00000001
 40
0.0
 40
0.0
 40
0.0
 40
0.0
 40
1.0
 40
1.0
 40
1.0
 40
1.0
 10
-29.36874999999999
 20
1.02873389820499
 30
0.0
 10
-29.36874999999999
 20
1.106609660428148
 30
0.0
 10
-29.36874999999999
 20
1.187535123394692
 30
0.0
 10
-29.36874999999999
 20
1.269993571114846
 30
0.0
  0
SPLINE
  5
220
330
1F
100
AcDbEntity
  8
0
  6
Continuous
 62
     1
370
    15
100
AcDbSpline
210
0.0
220
0.0
230
1.0
 70
     8
 71
     3
 72
     9
 73
     5
 74
     0
 42
0.000000001
 43
0.00000001
 40
0.0
 40
0.0
 40
0.0
 40
0.0
 40
0.8894831011862052
 40
1.0
 40
1.0
 40
1.0
 40
1.0
 10
-29.36875
 20
1.483662624305101
 30
0.0
 10
-29.66499545255272
 20
1.542207094580917
 30
0.0
 10
-29.99804894413414
 20
1.608025624688725
 30
0.0
 10
-30.33110317293599
 20
1.58146145584476
 30
0.0
 10
-30.36791129343999
 20
1.578525666284559
 30
0.0
1001
PE_URL
1000

  0
SPLINE
  5
221
330
1F
100
AcDbEntity
  8
0
  6
Continuous
 62
     1
370
    15
100
AcDbSpline
210
0.0
220
0.0
230
1.0
 70
     8
 71
     3
 72
    10
 73
     6
 74
     0
 42
0.000000001
 43
0.00000001
 40
0.0
 40
0.0
 40
0.0
 40
0.0
 40
0.2235769855221
 40
0.6117783750412328
 40
1.0
 40
1.0
 40
1.0
 40
1.0
 10
-36.73389109681686
 20
-1.063104622168865
 30
0.0
 10
-36.89485391565839
 20
-1.132842215956732
 30
0.0
 10
-37.33529983867216
 20
-1.323666650355459
 30
0.0
 10
-38.05525182722862
 20
-1.52078948704774
 30
0.0
 10
-38.61424575283692
 20
-1.564368296544654
 30
0.0
 10
-38.89375
 20
-1.58615826917708
 30
0.0
1001
PE_URL
1000

  0
LINE
  5
222
330
1F
100
AcDbEntity
  8
0
  6
Continuous
 62
     1
370
    15
100
AcDbLine
 10
-38.89375
 20
-0.0000000000000213
 30
0.0
 11
-38.89375
 21
-1.111250000000023
 31
0.0
1001
PE_URL
1000

  0
SPLINE
  5
223
330
1F
100
AcDbEntity
  8
0
  6
Continuous
 62
     1
370
    15
100
AcDbSpline
210
0.0
220
0.0
230
1.0
 70
    24
 71
     3
 72
    10
 73
     6
 74
     0
 42
0.000000001
 43
0.00000001
 40
0.0
 40
0.0
 40
0.0
 40
0.0
 40
0.5
 40
0.5
 40
1.0
 40
1.0
 40
1.0
 40
1.0
 10
-38.89375
 20
-1.11125000000002
 30
0.0
 10
-38.89375
 20
-1.17861120768163
 30
0.0
 10
-38.89374999999998
 20
-1.256891169326568
 30
0.0
 10
-38.89374999999998
 20
-1.421122318025379
 30
0.0
 10
-38.89375
 20
-1.506654079334858
 30
0.0
 10
-38.89375
 20
-1.58615826917708
 30
0.0
1001
PE_URL
1000

  0
LINE
  5
24D
330
1F
100
AcDbEntity
  8
외형선
  6
Continuous
370
    15
100
AcDbLine
 10
-3.568700000000058
 20
3.492500000000014
 30
0.0
 11
3.568700000000069
 21
3.492500000000014
 31
0.0
1001
PE_URL
1000

  0
LINE
  5
24E
330
1F
100
AcDbEntity
  8
외형선
  6
Continuous
370
    15
100
AcDbLine
 10
-3.568700000000058
 20
3.492500000000014
 30
0.0
 11
-4.83870000000004
 21
4.762499999999996
 31
0.0
1001
PE_URL
1000

  0
LINE
  5
24F
330
1F
100
AcDbEntity
  8
외형선
  6
Continuous
370
    15
100
AcDbLine
 10
3.568700000000069
 20
3.492500000000014
 30
0.0
 11
4.838700000000165
 21
4.762499999999996
 31
0.0
1001
PE_URL
1000

  0
LINE
  5
250
330
1F
100
AcDbEntity
  8
외형선
  6
Continuous
370
    15
100
AcDbLine
 10
-4.838700000000038
 20
4.762499999999996
 30
0.0
 11
-16.51948868596884
 21
4.762499999999995
 31
0.0
  0
ENDSEC
  0
SECTION
  2
OBJECTS
  0
DICTIONARY
  5
C
330
0
100
AcDbDictionary
281
     1
  3
ACAD_GROUP
350
D
  3
ACAD_IMAGE_VARS
350
274
  3
ACAD_LAYOUT
350
1A
  3
ACAD_MLINESTYLE
350
17
  3
ACAD_PLOTSETTINGS
350
19
  3
ACAD_PLOTSTYLENAME
350
E
  3
ACAD_SCALELIST
350
47
  3
APPDATA
350
15D
  3
DWGPROPS
350
275
  0
DICTIONARY
  5
192
330
2
100
AcDbDictionary
280
     1
281
     1
  3
ACAD_LAYERSTATES
360
193
  0
DICTIONARY
  5
D
102
{ACAD_REACTORS
330
C
102
}
330
C
100
AcDbDictionary
281
     1
  0
RASTERVARIABLES
  5
274
102
{ACAD_REACTORS
330
C
102
}
330
C
100
AcDbRasterVariables
 90
        0
 70
     1
 71
     1
 72
     1
  0
DICTIONARY
  5
1A
102
{ACAD_REACTORS
330
C
102
}
330
C
100
AcDbDictionary
281
     1
  3
Layout1
350
1E
  3
Layout2
350
26
  3
Model
350
22
  0
DICTIONARY
  5
17
102
{ACAD_REACTORS
330
C
102
}
330
C
100
AcDbDictionary
281
     1
  3
Standard
350
18
  0
DICTIONARY
  5
19
102
{ACAD_REACTORS
330
C
102
}
330
C
100
AcDbDictionary
281
     1
  0
ACDBDICTIONARYWDFLT
  5
E
102
{ACAD_REACTORS
330
C
102
}
330
C
100
AcDbDictionary
281
     1
  3
Normal
350
F
100
AcDbDictionaryWithDefault
340
F
  0
DICTIONARY
  5
47
102
{ACAD_REACTORS
330
C
102
}
330
C
100
AcDbDictionary
281
     1
  3
A0
350
48
  3
A1
350
49
  3
A2
350
4A
  3
A3
350
4B
  3
A4
350
4C
  3
A5
350
4D
  3
A6
350
4E
  3
A7
350
4F
  3
A8
350
50
  3
A9
350
51
  3
B0
350
52
  3
B1
350
53
  3
B2
350
54
  3
B3
350
55
  3
B4
350
56
  3
B5
350
57
  3
B6
350
58
  3
B7
350
59
  3
B8
350
5A
  3
B9
350
5B
  3
C0
350
5C
  3
C1
350
5D
  3
C2
350
5E
  3
C3
350
5F
  3
C4
350
60
  3
C5
350
61
  3
C6
350
62
  3
C7
350
63
  3
C8
350
64
  3
C9
350
65
  3
D0
350
66
  3
D1
350
67
  3
D2
350
68
  0
DICTIONARY
  5
15D
102
{ACAD_REACTORS
330
C
102
}
330
C
100
AcDbDictionary
281
     1
  0
XRECORD
  5
275
102
{ACAD_REACTORS
330
C
102
}
330
C
100
AcDbXrecord
280
     1
  1
DWGPROPS COOKIE
  2

  3

  4

  6

  7

  8
12016016
  9

300
=
301
=
302
=
303
=
304
=
305
=
306
=
307
=
308
=
309
=
 40
0.0
 41
2458313.018770289
 42
2458330.402113241
  1

 90
        0
  0
DICTIONARY
  5
193
102
{ACAD_REACTORS
330
192
102
}
330
192
100
AcDbDictionary
281
     1
  0
LAYOUT
  5
1E
102
{ACAD_REACTORS
330
1A
102
}
330
1A
100
AcDbPlotSettings
  1

  2
none_device
  4

  6

 40
0.0
 41
0.0
 42
0.0
 43
0.0
 44
0.0
 45
0.0
 46
0.0
 47
0.0
 48
0.0
 49
0.0
140
0.0
141
0.0
142
1.0
143
1.0
 70
   688
 72
     1
 73
     0
 74
     5
  7

 75
    16
147
1.0
148
0.0
149
0.0
100
AcDbLayout
  1
Layout1
 70
     1
 71
     1
 10
0.0
 20
0.0
 11
420.0
 21
297.0
 12
0.0
 22
0.0
 32
0.0
 14
1.000000000000000E+20
 24
1.000000000000000E+20
 34
1.000000000000000E+20
 15
-1.000000000000000E+20
 25
-1.000000000000000E+20
 35
-1.000000000000000E+20
146
0.0
 13
0.0
 23
0.0
 33
0.0
 16
1.0
 26
0.0
 36
0.0
 17
0.0
 27
1.0
 37
0.0
 76
     0
330
1B
  0
LAYOUT
  5
26
102
{ACAD_REACTORS
330
1A
102
}
330
1A
100
AcDbPlotSettings
  1

  2
none_device
  4

  6

 40
0.0
 41
0.0
 42
0.0
 43
0.0
 44
0.0
 45
0.0
 46
0.0
 47
0.0
 48
0.0
 49
0.0
140
0.0
141
0.0
142
1.0
143
1.0
 70
   688
 72
     1
 73
     0
 74
     5
  7

 75
    16
147
1.0
148
0.0
149
0.0
100
AcDbLayout
  1
Layout2
 70
     1
 71
     2
 10
0.0
 20
0.0
 11
0.0
 21
0.0
 12
0.0
 22
0.0
 32
0.0
 14
0.0
 24
0.0
 34
0.0
 15
0.0
 25
0.0
 35
0.0
146
0.0
 13
0.0
 23
0.0
 33
0.0
 16
1.0
 26
0.0
 36
0.0
 17
0.0
 27
1.0
 37
0.0
 76
     0
330
23
  0
LAYOUT
  5
22
102
{ACAD_REACTORS
330
1A
102
}
330
1A
100
AcDbPlotSettings
  1

  2
none_device
  4
ANSI_A_(11.00_x_8.50_Inches)
  6

 40
6.35
 41
19.05
 42
6.35000508
 43
19.05000254
 44
279.4
 45
215.9
 46
107.2067422451364
 47
89.96145832895603
 48
0.0
 49
0.0
140
0.0
141
0.0
142
0.054334441692319
143
1.0
 70
  1696
 72
     0
 73
     0
 74
     0
  7

 75
     0
147
0.0235690232323232
148
0.0
149
0.0
100
AcDbLayout
  1
Model
 70
     1
 71
     0
 10
0.0
 20
0.0
 11
420.0
 21
297.0
 12
0.0
 22
0.0
 32
0.0
 14
-53.26875000000008
 24
-49.97180738881175
 34
0.0
 15
100.1753750329551
 25
37.61649999999996
 35
0.0
146
0.0
 13
0.0
 23
0.0
 33
0.0
 16
1.0
 26
0.0
 36
0.0
 17
0.0
 27
1.0
 37
0.0
 76
     0
330
1F
331
29
  0
MLINESTYLE
  5
18
102
{ACAD_REACTORS
330
17
102
}
330
17
100
AcDbMlineStyle
  2
Standard
 70
     0
  3

 62
   256
 51
90.0
 52
90.0
 71
     2
 49
0.5
 62
   256
  6
BYLAYER
 49
-0.5
 62
   256
  6
BYLAYER
  0
ACDBPLACEHOLDER
  5
F
102
{ACAD_REACTORS
330
E
102
}
330
E
  0
SCALE
  5
48
102
{ACAD_REACTORS
330
47
102
}
330
47
100
AcDbScale
 70
     0
300
1:1
140
1.0
141
1.0
290
     1
  0
SCALE
  5
49
102
{ACAD_REACTORS
330
47
102
}
330
47
100
AcDbScale
 70
     0
300
1:2
140
1.0
141
2.0
290
     0
  0
SCALE
  5
4A
102
{ACAD_REACTORS
330
47
102
}
330
47
100
AcDbScale
 70
     0
300
1:4
140
1.0
141
4.0
290
     0
  0
SCALE
  5
4B
102
{ACAD_REACTORS
330
47
102
}
330
47
100
AcDbScale
 70
     0
300
1:5
140
1.0
141
5.0
290
     0
  0
SCALE
  5
4C
102
{ACAD_REACTORS
330
47
102
}
330
47
100
AcDbScale
 70
     0
300
1:8
140
1.0
141
8.0
290
     0
  0
SCALE
  5
4D
102
{ACAD_REACTORS
330
47
102
}
330
47
100
AcDbScale
 70
     0
300
1:10
140
1.0
141
10.0
290
     0
  0
SCALE
  5
4E
102
{ACAD_REACTORS
330
47
102
}
330
47
100
AcDbScale
 70
     0
300
1:16
140
1.0
141
16.0
290
     0
  0
SCALE
  5
4F
102
{ACAD_REACTORS
330
47
102
}
330
47
100
AcDbScale
 70
     0
300
1:20
140
1.0
141
20.0
290
     0
  0
SCALE
  5
50
102
{ACAD_REACTORS
330
47
102
}
330
47
100
AcDbScale
 70
     0
300
1:30
140
1.0
141
30.0
290
     0
  0
SCALE
  5
51
102
{ACAD_REACTORS
330
47
102
}
330
47
100
AcDbScale
 70
     0
300
1:40
140
1.0
141
40.0
290
     0
  0
SCALE
  5
52
102
{ACAD_REACTORS
330
47
102
}
330
47
100
AcDbScale
 70
     0
300
1:50
140
1.0
141
50.0
290
     0
  0
SCALE
  5
53
102
{ACAD_REACTORS
330
47
102
}
330
47
100
AcDbScale
 70
     0
300
1:100
140
1.0
141
100.0
290
     0
  0
SCALE
  5
54
102
{ACAD_REACTORS
330
47
102
}
330
47
100
AcDbScale
 70
     0
300
2:1
140
2.0
141
1.0
290
     0
  0
SCALE
  5
55
102
{ACAD_REACTORS
330
47
102
}
330
47
100
AcDbScale
 70
     0
300
4:1
140
4.0
141
1.0
290
     0
  0
SCALE
  5
56
102
{ACAD_REACTORS
330
47
102
}
330
47
100
AcDbScale
 70
     0
300
8:1
140
8.0
141
1.0
290
     0
  0
SCALE
  5
57
102
{ACAD_REACTORS
330
47
102
}
330
47
100
AcDbScale
 70
     0
300
10:1
140
10.0
141
1.0
290
     0
  0
SCALE
  5
58
102
{ACAD_REACTORS
330
47
102
}
330
47
100
AcDbScale
 70
     0
300
100:1
140
100.0
141
1.0
290
     0
  0
SCALE
  5
59
102
{ACAD_REACTORS
330
47
102
}
330
47
100
AcDbScale
 70
     0
300
1/128" = 1'-0"
140
0.0078125
141
12.0
290
     0
  0
SCALE
  5
5A
102
{ACAD_REACTORS
330
47
102
}
330
47
100
AcDbScale
 70
     0
300
1/64" = 1'-0"
140
0.015625
141
12.0
290
     0
  0
SCALE
  5
5B
102
{ACAD_REACTORS
330
47
102
}
330
47
100
AcDbScale
 70
     0
300
1/32" = 1'-0"
140
0.03125
141
12.0
290
     0
  0
SCALE
  5
5C
102
{ACAD_REACTORS
330
47
102
}
330
47
100
AcDbScale
 70
     0
300
1/16" = 1'-0"
140
0.0625
141
12.0
290
     0
  0
SCALE
  5
5D
102
{ACAD_REACTORS
330
47
102
}
330
47
100
AcDbScale
 70
     0
300
3/32" = 1'-0"
140
0.09375
141
12.0
290
     0
  0
SCALE
  5
5E
102
{ACAD_REACTORS
330
47
102
}
330
47
100
AcDbScale
 70
     0
300
1/8" = 1'-0"
140
0.125
141
12.0
290
     0
  0
SCALE
  5
5F
102
{ACAD_REACTORS
330
47
102
}
330
47
100
AcDbScale
 70
     0
300
3/16" = 1'-0"
140
0.1875
141
12.0
290
     0
  0
SCALE
  5
60
102
{ACAD_REACTORS
330
47
102
}
330
47
100
AcDbScale
 70
     0
300
1/4" = 1'-0"
140
0.25
141
12.0
290
     0
  0
SCALE
  5
61
102
{ACAD_REACTORS
330
47
102
}
330
47
100
AcDbScale
 70
     0
300
3/8" = 1'-0"
140
0.375
141
12.0
290
     0
  0
SCALE
  5
62
102
{ACAD_REACTORS
330
47
102
}
330
47
100
AcDbScale
 70
     0
300
1/2" = 1'-0"
140
0.5
141
12.0
290
     0
  0
SCALE
  5
63
102
{ACAD_REACTORS
330
47
102
}
330
47
100
AcDbScale
 70
     0
300
3/4" = 1'-0"
140
0.75
141
12.0
290
     0
  0
SCALE
  5
64
102
{ACAD_REACTORS
330
47
102
}
330
47
100
AcDbScale
 70
     0
300
1" = 1'-0"
140
1.0
141
12.0
290
     0
  0
SCALE
  5
65
102
{ACAD_REACTORS
330
47
102
}
330
47
100
AcDbScale
 70
     0
300
1-1/2" = 1'-0"
140
1.5
141
12.0
290
     0
  0
SCALE
  5
66
102
{ACAD_REACTORS
330
47
102
}
330
47
100
AcDbScale
 70
     0
300
3" = 1'-0"
140
3.0
141
12.0
290
     0
  0
SCALE
  5
67
102
{ACAD_REACTORS
330
47
102
}
330
47
100
AcDbScale
 70
     0
300
6" = 1'-0"
140
6.0
141
12.0
290
     0
  0
SCALE
  5
68
102
{ACAD_REACTORS
330
47
102
}
330
47
100
AcDbScale
 70
     0
300
1'-0" = 1'-0"
140
12.0
141
12.0
290
     0
  0
ENDSEC
  0
EOF
