  0
SECTION
  2
HEADER
  9
$ACADVER
  1
AC1015
  9
$ACADMAINTVER
 70
     6
  9
$DWGCODEPAGE
  3
ANSI_949
  9
$INSBASE
 10
0.0
 20
0.0
 30
0.0
  9
$EXTMIN
 10
-54.06250000000009
 20
-49.97180738881175
 30
0.0
  9
$EXTMAX
 10
99.38162503295506
 20
37.61649999999996
 30
0.0
  9
$LIMMIN
 10
0.0
 20
0.0
  9
$LIMMAX
 10
420.0
 20
297.0
  9
$ORTHOMODE
 70
     1
  9
$REGENMODE
 70
     1
  9
$FILLMODE
 70
     1
  9
$QTEXTMODE
 70
     0
  9
$MIRRTEXT
 70
     1
  9
$LTSCALE
 40
1.0
  9
$ATTMODE
 70
     1
  9
$TEXTSIZE
 40
3.5
  9
$TRACEWID
 40
1.0
  9
$TEXTSTYLE
  7
Standard
  9
$CLAYER
  8
0
  9
$CELTYPE
  6
ByLayer
  9
$CECOLOR
 62
   256
  9
$CELTSCALE
 40
1.0
  9
$DISPSILH
 70
     0
  9
$DIMSCALE
 40
1.0
  9
$DIMASZ
 40
3.302
  9
$DIMEXO
 40
1.0
  9
$DIMDLI
 40
3.75
  9
$DIMRND
 40
0.0
  9
$DIMDLE
 40
0.0
  9
$DIMEXE
 40
1.0
  9
$DIMTP
 40
0.0
  9
$DIMTM
 40
0.0
  9
$DIMTXT
 40
3.5
  9
$DIMCEN
 40
2.5
  9
$DIMTSZ
 40
0.0
  9
$DIMTOL
 70
     0
  9
$DIMLIM
 70
     0
  9
$DIMTIH
 70
     1
  9
$DIMTOH
 70
     1
  9
$DIMSE1
 70
     0
  9
$DIMSE2
 70
     0
  9
$DIMTAD
 70
     1
  9
$DIMZIN
 70
     0
  9
$DIMBLK
  1

  9
$DIMASO
 70
     1
  9
$DIMSHO
 70
     1
  9
$DIMPOST
  1

  9
$DIMAPOST
  1

  9
$DIMALT
 70
     0
  9
$DIMALTD
 70
     3
  9
$DIMALTF
 40
0.0393700787401575
  9
$DIMLFAC
 40
1.0
  9
$DIMTOFL
 70
     1
  9
$DIMTVP
 40
0.0
  9
$DIMTIX
 70
     0
  9
$DIMSOXD
 70
     0
  9
$DIMSAH
 70
     0
  9
$DIMBLK1
  1

  9
$DIMBLK2
  1

  9
$DIMSTYLE
  2
ISO-25
  9
$DIMCLRD
 70
     0
  9
$DIMCLRE
 70
     0
  9
$DIMCLRT
 70
     0
  9
$DIMTFAC
 40
1.0
  9
$DIMGAP
 40
1.524
  9
$DIMJUST
 70
     0
  9
$DIMSD1
 70
     0
  9
$DIMSD2
 70
     0
  9
$DIMTOLJ
 70
     0
  9
$DIMTZIN
 70
     0
  9
$DIMALTZ
 70
     0
  9
$DIMALTTZ
 70
     0
  9
$DIMUPT
 70
     0
  9
$DIMDEC
 70
     2
  9
$DIMTDEC
 70
     2
  9
$DIMALTU
 70
     2
  9
$DIMALTTD
 70
     3
  9
$DIMTXSTY
  7
Standard
  9
$DIMAUNIT
 70
     0
  9
$DIMADEC
 70
     2
  9
$DIMALTRND
 40
0.0
  9
$DIMAZIN
 70
     0
  9
$DIMDSEP
 70
    44
  9
$DIMATFIT
 70
     3
  9
$DIMFRAC
 70
     0
  9
$DIMLDRBLK
  1

  9
$DIMLUNIT
 70
     2
  9
$DIMLWD
 70
    -2
  9
$DIMLWE
 70
    -2
  9
$DIMTMOVE
 70
     0
  9
$LUNITS
 70
     2
  9
$LUPREC
 70
     2
  9
$SKETCHINC
 40
1.0
  9
$FILLETRAD
 40
10.0
  9
$AUNITS
 70
     0
  9
$AUPREC
 70
     2
  9
$MENU
  1
.
  9
$ELEVATION
 40
0.0
  9
$PELEVATION
 40
0.0
  9
$THICKNESS
 40
0.0
  9
$LIMCHECK
 70
     0
  9
$CHAMFERA
 40
0.0
  9
$CHAMFERB
 40
0.0
  9
$CHAMFERC
 40
0.0
  9
$CHAMFERD
 40
0.0
  9
$SKPOLY
 70
     0
  9
$TDCREATE
 40
2458313.393982095
  9
$TDUCREATE
 40
2458313.018982095
  9
$TDUPDATE
 40
2458330.777059676
  9
$TDUUPDATE
 40
2458330.402059676
  9
$TDINDWG
 40
0.0005377894
  9
$TDUSRTIMER
 40
2458330.402021759
  9
$USRTIMER
 70
     1
  9
$ANGBASE
 50
0.0
  9
$ANGDIR
 70
     0
  9
$PDMODE
 70
     0
  9
$PDSIZE
 40
-1.0
  9
$PLINEWID
 40
0.0
  9
$SPLFRAME
 70
     0
  9
$SPLINETYPE
 70
     6
  9
$SPLINESEGS
 70
     8
  9
$HANDSEED
  5
282
  9
$SURFTAB1
 70
     6
  9
$SURFTAB2
 70
     6
  9
$SURFTYPE
 70
     6
  9
$SURFU
 70
     6
  9
$SURFV
 70
     6
  9
$UCSBASE
  2

  9
$UCSNAME
  2

  9
$UCSORG
 10
0.0
 20
0.0
 30
0.0
  9
$UCSXDIR
 10
1.0
 20
0.0
 30
0.0
  9
$UCSYDIR
 10
0.0
 20
1.0
 30
0.0
  9
$UCSORTHOREF
  2

  9
$UCSORTHOVIEW
 70
     0
  9
$UCSORGTOP
 10
0.0
 20
0.0
 30
0.0
  9
$UCSORGBOTTOM
 10
0.0
 20
0.0
 30
0.0
  9
$UCSORGLEFT
 10
0.0
 20
0.0
 30
0.0
  9
$UCSORGRIGHT
 10
0.0
 20
0.0
 30
0.0
  9
$UCSORGFRONT
 10
0.0
 20
0.0
 30
0.0
  9
$UCSORGBACK
 10
0.0
 20
0.0
 30
0.0
  9
$PUCSBASE
  2

  9
$PUCSNAME
  2

  9
$PUCSORG
 10
0.0
 20
0.0
 30
0.0
  9
$PUCSXDIR
 10
1.0
 20
0.0
 30
0.0
  9
$PUCSYDIR
 10
0.0
 20
1.0
 30
0.0
  9
$PUCSORTHOREF
  2

  9
$PUCSORTHOVIEW
 70
     0
  9
$PUCSORGTOP
 10
0.0
 20
0.0
 30
0.0
  9
$PUCSORGBOTTOM
 10
0.0
 20
0.0
 30
0.0
  9
$PUCSORGLEFT
 10
0.0
 20
0.0
 30
0.0
  9
$PUCSORGRIGHT
 10
0.0
 20
0.0
 30
0.0
  9
$PUCSORGFRONT
 10
0.0
 20
0.0
 30
0.0
  9
$PUCSORGBACK
 10
0.0
 20
0.0
 30
0.0
  9
$USERI1
 70
     0
  9
$USERI2
 70
     0
  9
$USERI3
 70
     0
  9
$USERI4
 70
     0
  9
$USERI5
 70
     0
  9
$USERR1
 40
0.0
  9
$USERR2
 40
0.0
  9
$USERR3
 40
0.0
  9
$USERR4
 40
0.0
  9
$USERR5
 40
0.0
  9
$WORLDVIEW
 70
     1
  9
$SHADEDGE
 70
     3
  9
$SHADEDIF
 70
    70
  9
$TILEMODE
 70
     1
  9
$MAXACTVP
 70
    64
  9
$PINSBASE
 10
0.0
 20
0.0
 30
0.0
  9
$PLIMCHECK
 70
     0
  9
$PEXTMIN
 10
1.000000000000000E+20
 20
1.000000000000000E+20
 30
1.000000000000000E+20
  9
$PEXTMAX
 10
-1.000000000000000E+20
 20
-1.000000000000000E+20
 30
-1.000000000000000E+20
  9
$PLIMMIN
 10
0.0
 20
0.0
  9
$PLIMMAX
 10
0.0
 20
0.0
  9
$UNITMODE
 70
     0
  9
$VISRETAIN
 70
     1
  9
$PLINEGEN
 70
     0
  9
$PSLTSCALE
 70
     1
  9
$TREEDEPTH
 70
  3020
  9
$CMLSTYLE
  2
Standard
  9
$CMLJUST
 70
     0
  9
$CMLSCALE
 40
20.0
  9
$PROXYGRAPHICS
 70
     1
  9
$MEASUREMENT
 70
     1
  9
$CELWEIGHT
370
    -1
  9
$ENDCAPS
280
     0
  9
$JOINSTYLE
280
     0
  9
$LWDISPLAY
290
     1
  9
$INSUNITS
 70
     4
  9
$HYPERLINKBASE
  1

  9
$STYLESHEET
  1

  9
$XEDIT
290
     1
  9
$CEPSNTYPE
380
     0
  9
$PSTYLEMODE
290
     1
  9
$FINGERPRINTGUID
  2
{C592D278-1F9D-482E-9DF1-79DB6D20BFD8}
  9
$VERSIONGUID
  2
{FAEB1C32-E019-11D5-929B-00C0DF256EC4}
  9
$EXTNAMES
290
     1
  9
$PSVPSCALE
 40
0.0
  9
$OLESTARTUP
290
     0
  0
ENDSEC
  0
SECTION
  2
CLASSES
  0
CLASS
  1
ACDBDICTIONARYWDFLT
  2
AcDbDictionaryWithDefault
  3
ObjectDBX Classes
 90
        0
280
     0
281
     0
  0
CLASS
  1
VISUALSTYLE
  2
AcDbVisualStyle
  3
ObjectDBX Classes
 90
     4095
280
     0
281
     0
  0
CLASS
  1
MATERIAL
  2
AcDbMaterial
  3
ObjectDBX Classes
 90
     1153
280
     0
281
     0
  0
CLASS
  1
SCALE
  2
AcDbScale
  3
ObjectDBX Classes
 90
     1153
280
     0
281
     0
  0
CLASS
  1
SUN
  2
AcDbSun
  3
SCENEOE
 90
     1153
280
     0
281
     0
  0
CLASS
  1
ACDBPLACEHOLDER
  2
AcDbPlaceHolder
  3
ObjectDBX Classes
 90
        0
280
     0
281
     0
  0
CLASS
  1
LAYOUT
  2
AcDbLayout
  3
ObjectDBX Classes
 90
        0
280
     0
281
     0
  0
CLASS
  1
TABLESTYLE
  2
AcDbTableStyle
  3
ObjectDBX Classes
 90
     4095
280
     0
281
     0
  0
CLASS
  1
MLEADERSTYLE
  2
AcDbMLeaderStyle
  3
ACDB_MLEADERSTYLE_CLASS
 90
     4095
280
     0
281
     0
  0
CLASS
  1
RASTERVARIABLES
  2
AcDbRasterVariables
  3
ISM
 90
        0
280
     0
281
     0
  0
ENDSEC
  0
SECTION
  2
TABLES
  0
TABLE
  2
VPORT
  5
8
330
0
100
AcDbSymbolTable
 70
     1
  0
VPORT
  5
29
330
8
100
AcDbSymbolTableRecord
100
AcDbViewportTableRecord
  2
*Active
 70
     0
 10
0.0
 20
0.0
 11
1.0
 21
1.0
 12
22.65956251647748
 22
-6.177653694405898
 13
0.0
 23
0.0
 14
10.0
 24
10.0
 15
10.0
 25
10.0
 16
0.0
 26
0.0
 36
1.0
 17
0.0
 27
0.0
 37
0.0
 40
89.34007353658794
 41
1.782762691853601
 42
50.0
 43
0.0
 44
0.0
 50
0.0
 51
0.0
 71
    16
 72
  2000
 73
     1
 74
     3
 75
     0
 76
     0
 77
     0
 78
     0
281
     0
 65
     1
110
0.0
120
0.0
130
0.0
111
1.0
121
0.0
131
0.0
112
0.0
122
1.0
132
0.0
 79
     0
146
0.0
  0
ENDTAB
  0
TABLE
  2
LTYPE
  5
5
330
0
100
AcDbSymbolTable
 70
     6
  0
LTYPE
  5
14
330
5
100
AcDbSymbolTableRecord
100
AcDbLinetypeTableRecord
  2
ByBlock
 70
     0
  3

 72
    65
 73
     0
 40
0.0
  0
LTYPE
  5
15
330
5
100
AcDbSymbolTableRecord
100
AcDbLinetypeTableRecord
  2
ByLayer
 70
     0
  3

 72
    65
 73
     0
 40
0.0
  0
LTYPE
  5
16
330
5
100
AcDbSymbolTableRecord
100
AcDbLinetypeTableRecord
  2
Continuous
 70
     0
  3
Solid line
 72
    65
 73
     0
 40
0.0
  0
LTYPE
  5
6A
330
5
100
AcDbSymbolTableRecord
100
AcDbLinetypeTableRecord
  2
HIDDEN
 70
     0
  3
Hidden __ __ __ __ __ __ __ __ __ __ __ __ __ __
 72
    65
 73
     2
 40
1.905
 49
1.27
 74
     0
 49
-0.635
 74
     0
  0
LTYPE
  5
6B
330
5
100
AcDbSymbolTableRecord
100
AcDbLinetypeTableRecord
  2
PHANTOM
 70
     0
  3
Phantom ______  __  __  ______  __  __  ______
 72
    65
 73
     6
 40
12.7
 49
6.35
 74
     0
 49
-1.27
 74
     0
 49
1.27
 74
     0
 49
-1.27
 74
     0
 49
1.27
 74
     0
 49
-1.27
 74
     0
  0
LTYPE
  5
6C
330
5
100
AcDbSymbolTableRecord
100
AcDbLinetypeTableRecord
  2
CENTER
 70
     0
  3
Center ____ _ ____ _ ____ _ ____ _ ____ _ ____
 72
    65
 73
     4
 40
10.16
 49
6.35
 74
     0
 49
-1.27
 74
     0
 49
1.27
 74
     0
 49
-1.27
 74
     0
  0
LTYPE
  5
6D
330
5
100
AcDbSymbolTableRecord
100
AcDbLinetypeTableRecord
  2
CENTERX2
 70
     0
  3
Center (2x) ________  __  ________  __  _____
 72
    65
 73
     4
 40
20.32
 49
12.7
 74
     0
 49
-2.54
 74
     0
 49
2.54
 74
     0
 49
-2.54
 74
     0
  0
LTYPE
  5
6E
330
5
100
AcDbSymbolTableRecord
100
AcDbLinetypeTableRecord
  2
DOT2
 70
     0
  3
Dot (.5x) ........................................
 72
    65
 73
     2
 40
0.635
 49
0.0
 74
     0
 49
-0.635
 74
     0
  0
ENDTAB
  0
TABLE
  2
LAYER
  5
2
102
{ACAD_XDICTIONARY
360
197
102
}
330
0
100
AcDbSymbolTable
 70
    18
  0
LAYER
  5
10
330
2
100
AcDbSymbolTableRecord
100
AcDbLayerTableRecord
  2
0
 70
     0
 62
     7
  6
Continuous
370
    -3
390
F
  0
LAYER
  5
6F
330
2
100
AcDbSymbolTableRecord
100
AcDbLayerTableRecord
  2
FORMAT
 70
     0
 62
     2
  6
Continuous
370
    -3
390
F
  0
LAYER
  5
70
330
2
100
AcDbSymbolTableRecord
100
AcDbLayerTableRecord
  2
외형선
 70
     0
 62
     4
  6
Continuous
370
    30
390
F
  0
LAYER
  5
71
330
2
100
AcDbSymbolTableRecord
100
AcDbLayerTableRecord
  2
숨은선
 70
     0
 62
     2
  6
HIDDEN
370
    15
390
F
  0
LAYER
  5
72
330
2
100
AcDbSymbolTableRecord
100
AcDbLayerTableRecord
  2
중심선
 70
     0
 62
     1
  6
CENTERX2
370
    -3
390
F
  0
LAYER
  5
73
330
2
100
AcDbSymbolTableRecord
100
AcDbLayerTableRecord
  2
파단선
 70
     0
 62
     4
  6
Continuous
370
    -3
390
F
  0
LAYER
  5
74
330
2
100
AcDbSymbolTableRecord
100
AcDbLayerTableRecord
  2
해칭선
 70
     0
 62
   100
  6
Continuous
370
    -3
390
F
  0
LAYER
  5
75
330
2
100
AcDbSymbolTableRecord
100
AcDbLayerTableRecord
  2
가는실선
 70
     0
 62
     4
  6
Continuous
370
    -3
390
F
  0
LAYER
  5
76
330
2
100
AcDbSymbolTableRecord
100
AcDbLayerTableRecord
  2
치수_보조선
 70
     0
 62
     4
  6
Continuous
370
    -3
390
F
  0
LAYER
  5
77
330
2
100
AcDbSymbolTableRecord
100
AcDbLayerTableRecord
  2
치수문자_일반주서
 70
     0
 62
     7
  6
Continuous
370
    15
390
F
  0
LAYER
  5
78
330
2
100
AcDbSymbolTableRecord
100
AcDbLayerTableRecord
  2
개별주서
 70
     0
 62
   100
  6
Continuous
370
    30
390
F
  0
LAYER
  5
79
330
2
100
AcDbSymbolTableRecord
100
AcDbLayerTableRecord
  2
중간선
 70
     0
 62
     2
  6
Continuous
370
    15
390
F
  0
LAYER
  5
7A
330
2
100
AcDbSymbolTableRecord
100
AcDbLayerTableRecord
  2
윤곽선
 70
     0
 62
     3
  6
Continuous
370
    40
390
F
  0
LAYER
  5
7B
330
2
100
AcDbSymbolTableRecord
100
AcDbLayerTableRecord
  2
중심마크
 70
     0
 62
   100
  6
Continuous
370
    30
390
F
  0
LAYER
  5
7C
330
2
100
AcDbSymbolTableRecord
100
AcDbLayerTableRecord
  2
가상선
 70
     0
 62
     4
  6
PHANTOM
370
    -3
390
F
  0
LAYER
  5
7D
330
2
100
AcDbSymbolTableRecord
100
AcDbLayerTableRecord
  2
특수지정선
 70
     0
 62
     5
  6
CENTERX2
370
    60
390
F
  0
LAYER
  5
7E
330
2
100
AcDbSymbolTableRecord
100
AcDbLayerTableRecord
  2
참조1
 70
     0
 62
    -4
  6
Continuous
370
    -3
390
F
  0
LAYER
  5
160
330
2
100
AcDbSymbolTableRecord
100
AcDbLayerTableRecord
  2
Defpoints
 70
     0
 62
     7
  6
Continuous
290
     0
370
    -3
390
F
  0
ENDTAB
  0
TABLE
  2
STYLE
  5
3
330
0
100
AcDbSymbolTable
 70
     2
  0
STYLE
  5
11
330
3
100
AcDbSymbolTableRecord
100
AcDbTextStyleTableRecord
  2
Standard
 70
     0
 40
0.0
 41
1.0
 50
0.0
 71
     0
 42
3.5
  3
txt
  4

  0
STYLE
  5
94
330
3
100
AcDbSymbolTableRecord
100
AcDbTextStyleTableRecord
  2
SLDTEXTSTYLE0
 70
     0
 40
0.0
 41
0.75
 50
0.0
 71
     0
 42
3.5
  3
TXT
  4

  0
ENDTAB
  0
TABLE
  2
VIEW
  5
6
330
0
100
AcDbSymbolTable
 70
     0
  0
ENDTAB
  0
TABLE
  2
UCS
  5
7
330
0
100
AcDbSymbolTable
 70
     0
  0
ENDTAB
  0
TABLE
  2
APPID
  5
9
330
0
100
AcDbSymbolTable
 70
     2
  0
APPID
  5
12
330
9
100
AcDbSymbolTableRecord
100
AcDbRegAppTableRecord
  2
ACAD
 70
     0
  0
APPID
  5
167
330
9
100
AcDbSymbolTableRecord
100
AcDbRegAppTableRecord
  2
PE_URL
 70
     0
  0
ENDTAB
  0
TABLE
  2
DIMSTYLE
  5
A
330
0
100
AcDbSymbolTable
 70
     3
100
AcDbDimStyleTable
  0
DIMSTYLE
105
27
330
A
100
AcDbSymbolTableRecord
100
AcDbDimStyleTableRecord
  2
ISO-25
 70
     0
 41
2.5
 42
0.625
 43
3.75
 44
1.25
 73
     0
 74
     0
 77
     1
 78
     8
140
2.5
141
2.5
143
0.03937007874016
147
0.625
171
     3
172
     1
178
     0
271
     2
272
     2
274
     3
278
    44
283
     0
284
     8
340
11
  0
DIMSTYLE
105
DF
102
{ACAD_REACTORS
330
DE
330
F3
330
107
330
11C
102
}
330
A
100
AcDbSymbolTableRecord
100
AcDbDimStyleTableRecord
  2
SLDDIMSTYLE0
 70
     0
 41
3.302
 44
0.0
 45
0.000000001
 73
     0
 74
     0
 77
     1
 78
    12
 79
     3
140
3.5
143
0.0393700787401575
147
0.875
148
0.000000001
170
     1
172
     1
173
     1
178
     0
271
     2
272
     2
276
     2
284
    12
289
     0
340
94
  0
DIMSTYLE
105
108
330
A
100
AcDbSymbolTableRecord
100
AcDbDimStyleTableRecord
  2
SLDDIMSTYLE1
 70
     0
 41
3.302
 44
0.0
 45
0.000000001
 73
     0
 74
     0
 77
     1
 78
    12
 79
     3
140
3.5
143
0.0393700787401575
147
0.875
148
0.000000001
170
     1
173
     1
178
     0
271
     2
272
     2
276
     2
284
    12
340
94
  0
ENDTAB
  0
TABLE
  2
BLOCK_RECORD
  5
1
330
0
100
AcDbSymbolTable
 70
     9
  0
BLOCK_RECORD
  5
1F
330
1
100
AcDbSymbolTableRecord
100
AcDbBlockTableRecord
  2
*Model_Space
340
22
  0
BLOCK_RECORD
  5
1B
330
1
100
AcDbSymbolTableRecord
100
AcDbBlockTableRecord
  2
*Paper_Space
340
1E
  0
BLOCK_RECORD
  5
23
330
1
100
AcDbSymbolTableRecord
100
AcDbBlockTableRecord
  2
*Paper_Space0
340
26
  0
BLOCK_RECORD
  5
7F
330
1
100
AcDbSymbolTableRecord
100
AcDbBlockTableRecord
  2
블럭10
340
0
102
{BLKREFS
331
D7
102
}
  0
BLOCK_RECORD
  5
E0
330
1
100
AcDbSymbolTableRecord
100
AcDbBlockTableRecord
  2
_D
340
0
  0
BLOCK_RECORD
  5
F4
330
1
100
AcDbSymbolTableRecord
100
AcDbBlockTableRecord
  2
_D_1
340
0
  0
BLOCK_RECORD
  5
109
330
1
100
AcDbSymbolTableRecord
100
AcDbBlockTableRecord
  2
_D_2
340
0
  0
BLOCK_RECORD
  5
11D
330
1
100
AcDbSymbolTableRecord
100
AcDbBlockTableRecord
  2
_D_3
340
0
  0
BLOCK_RECORD
  5
136
330
1
100
AcDbSymbolTableRecord
100
AcDbBlockTableRecord
  2
SW_DOWELSYMBOL_0
340
0
102
{BLKREFS
331
13C
102
}
  0
BLOCK_RECORD
  5
19B
330
1
100
AcDbSymbolTableRecord
100
AcDbBlockTableRecord
  2
*D7
340
0
  0
BLOCK_RECORD
  5
1AD
330
1
100
AcDbSymbolTableRecord
100
AcDbBlockTableRecord
  2
*D8
340
0
  0
ENDTAB
  0
ENDSEC
  0
SECTION
  2
BLOCKS
  0
BLOCK
  5
20
330
1F
100
AcDbEntity
  8
0
100
AcDbBlockBegin
  2
*Model_Space
 70
     0
 10
0.0
 20
0.0
 30
0.0
  3
*Model_Space
  1
*Model_Space
  0
ENDBLK
  5
21
330
1F
100
AcDbEntity
  8
0
100
AcDbBlockEnd
  0
BLOCK
  5
1C
330
1B
100
AcDbEntity
 67
     1
  8
0
100
AcDbBlockBegin
  2
*Paper_Space
 70
     0
 10
0.0
 20
0.0
 30
0.0
  3
*Paper_Space
  1
*Paper_Space
  0
ENDBLK
  5
1D
330
1B
100
AcDbEntity
 67
     1
  8
0
100
AcDbBlockEnd
  0
BLOCK
  5
24
330
23
100
AcDbEntity
  8
0
100
AcDbBlockBegin
  2
*Paper_Space0
 70
     0
 10
0.0
 20
0.0
 30
0.0
  3
*Paper_Space0
  1
*Paper_Space0
  0
ENDBLK
  5
25
330
23
100
AcDbEntity
  8
0
100
AcDbBlockEnd
  0
BLOCK
  5
80
330
7F
100
AcDbEntity
  8
0
100
AcDbBlockBegin
  2
블럭10
 70
     2
 10
0.0
 20
0.0
 30
0.0
  3
블럭10
  1
블럭10
  0
ELLIPSE
  5
82
330
7F
100
AcDbEntity
  8
중심선
100
AcDbEllipse
 10
20.54032771741204
 20
12.0471743016438
 30
0.0
 11
6.600054785286829
 21
-1.261213355974178E-13
 31
0.0
210
0.0
220
0.0
230
1.0
 40
0.636358354079598
 41
0.9219305317359503
 42
6.513795318482858
  0
ELLIPSE
  5
83
330
7F
100
AcDbEntity
  8
중심선
100
AcDbEllipse
 10
20.54032771746488
 20
12.04717430159265
 30
0.0
 11
3.960054785062283
 21
1.540847449632565E-10
 31
0.0
210
0.0
220
0.0
230
1.0
 40
0.3939339440162632
 41
1.131841032648279
 42
5.62031148352944
  0
LINE
  5
84
330
7F
100
AcDbEntity
  8
중심선
100
AcDbLine
 10
2.268634060543552
 20
16.24717430164393
 30
0.0
 11
5.714909304380834
 21
16.24717430164393
 31
0.0
  0
LINE
  5
85
330
7F
100
AcDbEntity
  8
중심선
100
AcDbLine
 10
5.245725140726316
 20
7.84717430164391
 30
0.0
 11
8.692000384563599
 21
7.84717430164391
 31
0.0
  0
LINE
  5
86
330
7F
100
AcDbEntity
  8
중심선
100
AcDbLine
 10
15.74043728645272
 20
16.24717430164393
 30
0.0
 11
8.692000384563599
 21
7.84717430164391
 31
0.0
  0
LINE
  5
87
330
7F
100
AcDbEntity
  8
중심선
100
AcDbLine
 10
0.1404042013395286
 20
13.71084872107135
 30
0.0
 11
3.58671253028996
 21
13.71088815037384
 31
0.0
  0
LINE
  5
88
330
7F
100
AcDbEntity
  8
중심선
100
AcDbLine
 10
2.750260043222114
 20
10.84717430164391
 30
0.0
 11
6.196535287059397
 21
10.84717430164391
 31
0.0
  0
LINE
  5
89
330
7F
100
AcDbEntity
  8
중심선
100
AcDbLine
 10
12.29416204261559
 20
16.24717430164393
 30
0.0
 11
5.245725140726316
 21
7.84717430164391
 31
0.0
  0
LINE
  5
8A
330
7F
100
AcDbEntity
  8
중심선
100
AcDbLine
 10
10.72767329541681
 20
16.24717430164393
 30
0.0
 11
6.196535287059397
 21
10.84717430164391
 31
0.0
  0
LINE
  5
8B
330
7F
100
AcDbEntity
  8
중심선
100
AcDbLine
 10
7.28139805157953
 20
16.24717430164393
 30
0.0
 11
2.750260043222114
 21
10.84717430164391
 31
0.0
  0
LINE
  5
8C
330
7F
100
AcDbEntity
  8
중심선
100
AcDbLine
 10
5.714909304380834
 20
16.24717430164393
 30
0.0
 11
3.58671253028996
 21
13.71088815037384
 31
0.0
  0
LINE
  5
8D
330
7F
100
AcDbEntity
  8
중심선
100
AcDbLine
 10
2.268634060543552
 20
16.24717430164393
 30
0.0
 11
0.1404042013395286
 21
13.71084872107135
 31
0.0
  0
LINE
  5
8E
330
7F
100
AcDbEntity
  8
중심선
100
AcDbLine
 10
7.28139805157953
 20
16.24717430164393
 30
0.0
 11
10.72767329541681
 21
16.24717430164393
 31
0.0
  0
LINE
  5
8F
330
7F
100
AcDbEntity
  8
중심선
100
AcDbLine
 10
12.29416204261559
 20
16.24717430164393
 30
0.0
 11
15.74043728645272
 21
16.24717430164393
 31
0.0
  0
LINE
  5
90
330
7F
100
AcDbEntity
  8
중심선
100
AcDbLine
 10
19.22036997980202
 20
11.08717430171403
 30
0.0
 11
23.66174974927406
 21
11.08717430171406
 31
0.0
  0
LINE
  5
91
330
7F
100
AcDbEntity
  8
중심선
100
AcDbLine
 10
19.22039502424796
 20
13.00717430171391
 30
0.0
 11
19.22036997980202
 21
11.08717430171403
 31
0.0
  0
LINE
  5
92
330
7F
100
AcDbEntity
  8
중심선
100
AcDbLine
 10
19.22039502424796
 20
13.00717430171391
 30
0.0
 11
26.96566020931264
 21
13.00717430171391
 31
0.0
  0
LINE
  5
93
330
7F
100
AcDbEntity
  8
중심선
100
AcDbLine
 10
22.22332737316547
 20
13.45928029700563
 30
0.0
 11
24.52862924686651
 21
15.39360700705356
 31
0.0
  0
ATTDEF
  5
95
330
7F
100
AcDbEntity
  8
FORMAT
 62
     2
100
AcDbText
 10
4.408487351596664
 20
2.075366912832191
 30
0.0
 40
4.233333333333333
  1
E1050009
 41
0.75
  7
SLDTEXTSTYLE0
 11
4.408487351596664
 21
-0.0412997538344756
 31
0.0
100
AcDbAttributeDefinition
  3

  2
AUTOATTR0
 70
     0
 74
     1
  0
ENDBLK
  5
81
330
7F
100
AcDbEntity
  8
0
100
AcDbBlockEnd
  0
BLOCK
  5
E1
330
E0
100
AcDbEntity
  8
0
100
AcDbBlockBegin
  2
_D
 70
     0
 10
0.0
 20
0.0
 30
0.0
  3
_D
  1
_D
  0
LINE
  5
E3
330
E0
100
AcDbEntity
  8
치수문자_일반주서
 62
     0
370
    -2
100
AcDbLine
 10
-16.5288175180958
 20
4.762499999999999
 30
0.0
 11
-49.68749999999997
 21
4.762499999999875
 31
0.0
  0
LINE
  5
E4
330
E0
100
AcDbEntity
  8
치수문자_일반주서
 62
     0
370
    -2
100
AcDbLine
 10
-16.68120852528141
 20
-4.762500000000003
 30
0.0
 11
-49.68749999999994
 21
-4.762500000000127
 31
0.0
  0
LINE
  5
E5
330
E0
100
AcDbEntity
  8
치수문자_일반주서
 62
     0
370
    -2
100
AcDbLine
 10
-49.68749999999997
 20
4.762499999999875
 30
0.0
 11
-49.68750000000009
 21
37.61649999999996
 31
0.0
  0
LINE
  5
E6
330
E0
100
AcDbEntity
  8
치수문자_일반주서
 62
     0
370
    -2
100
AcDbLine
 10
-49.68749999999997
 20
4.762499999999875
 30
0.0
 11
-49.68749999999994
 21
-4.762500000000127
 31
0.0
  0
LINE
  5
E7
330
E0
100
AcDbEntity
  8
치수문자_일반주서
 62
     0
370
    -2
100
AcDbLine
 10
-49.68749999999999
 20
8.064499999999875
 30
0.0
 11
-49.6875
 21
11.36649999999987
 31
0.0
  0
LINE
  5
E8
330
E0
100
AcDbEntity
  8
치수문자_일반주서
 62
     0
370
    -2
100
AcDbLine
 10
-49.68749999999992
 20
-8.064500000000127
 30
0.0
 11
-49.68749999999991
 21
-11.36650000000013
 31
0.0
  0
SOLID
  5
E9
330
E0
100
AcDbEntity
  8
치수문자_일반주서
 62
     0
100
AcDbTrace
 10
-50.23783333333332
 20
8.064499999999873
 30
0.0
 11
-49.13716666666665
 21
8.064499999999876
 31
0.0
 12
-49.68749999999997
 22
4.762499999999875
 32
0.0
 13
-49.68749999999997
 23
4.762499999999875
 33
0.0
  0
SOLID
  5
EA
330
E0
100
AcDbEntity
  8
치수문자_일반주서
 62
     0
100
AcDbTrace
 10
-49.13716666666659
 20
-8.064500000000125
 30
0.0
 11
-50.23783333333326
 21
-8.064500000000129
 31
0.0
 12
-49.68749999999994
 22
-4.762500000000127
 32
0.0
 13
-49.68749999999994
 23
-4.762500000000127
 33
0.0
  0
MTEXT
  5
EB
330
E0
100
AcDbEntity
  8
치수문자_일반주서
 62
     0
100
AcDbMText
 10
-54.06250000000004
 20
24.49149999999995
 30
0.0
 40
3.5
 41
0.0
 71
     2
 72
     1
  1
\A1;%%c9.53 [3/8]
  7
SLDTEXTSTYLE0
 11
-3.729883127349606E-15
 21
1.0
 31
0.0
 73
     1
 44
1.0
  0
POINT
  5
1BF
330
E0
100
AcDbEntity
  8
Defpoints
 62
     0
100
AcDbPoint
 10
-16.4663175180958
 20
4.762499999999999
 30
0.0
  0
POINT
  5
1C0
330
E0
100
AcDbEntity
  8
Defpoints
 62
     0
100
AcDbPoint
 10
-16.61870852528141
 20
-4.762500000000003
 30
0.0
  0
POINT
  5
1C1
330
E0
100
AcDbEntity
  8
Defpoints
 62
     0
100
AcDbPoint
 10
-49.68749999999994
 20
-4.762500000000126
 30
0.0
  0
ENDBLK
  5
E2
330
E0
100
AcDbEntity
  8
0
100
AcDbBlockEnd
  0
BLOCK
  5
F5
330
F4
100
AcDbEntity
  8
0
100
AcDbBlockBegin
  2
_D_1
 70
     0
 10
0.0
 20
0.0
 30
0.0
  3
_D_1
  1
_D_1
  0
LINE
  5
F7
330
F4
100
AcDbEntity
  8
치수문자_일반주서
 62
     0
370
    -2
100
AcDbLine
 10
39.75000000000001
 20
-1.784428052824193
 30
0.0
 11
77.89700317299486
 21
-1.784428052824051
 31
0.0
  0
LINE
  5
F8
330
F4
100
AcDbEntity
  8
치수문자_일반주서
 62
     0
370
    -2
100
AcDbLine
 10
39.75000000000001
 20
1.784428052824192
 30
0.0
 11
77.89700317299484
 21
1.784428052824335
 31
0.0
  0
LINE
  5
F9
330
F4
100
AcDbEntity
  8
치수문자_일반주서
 62
     0
370
    -2
100
AcDbLine
 10
77.89700317299484
 20
1.784428052824335
 30
0.0
 11
77.8970031729947
 21
37.26342805282434
 31
0.0
  0
LINE
  5
FA
330
F4
100
AcDbEntity
  8
치수문자_일반주서
 62
     0
370
    -2
100
AcDbLine
 10
77.89700317299486
 20
-1.784428052824051
 30
0.0
 11
77.89700317299484
 21
1.784428052824335
 31
0.0
  0
LINE
  5
FB
330
F4
100
AcDbEntity
  8
치수문자_일반주서
 62
     0
370
    -2
100
AcDbLine
 10
77.89700317299487
 20
-5.086428052824051
 30
0.0
 11
77.89700317299489
 21
-8.38842805282405
 31
0.0
  0
LINE
  5
FC
330
F4
100
AcDbEntity
  8
치수문자_일반주서
 62
     0
370
    -2
100
AcDbLine
 10
77.89700317299483
 20
5.086428052824335
 30
0.0
 11
77.89700317299481
 21
8.388428052824334
 31
0.0
  0
SOLID
  5
FD
330
F4
100
AcDbEntity
  8
치수문자_일반주서
 62
     0
100
AcDbTrace
 10
78.4473365063282
 20
-5.086428052824049
 30
0.0
 11
77.34666983966154
 21
-5.086428052824052
 31
0.0
 12
77.89700317299486
 22
-1.784428052824051
 32
0.0
 13
77.89700317299486
 23
-1.784428052824051
 33
0.0
  0
SOLID
  5
FE
330
F4
100
AcDbEntity
  8
치수문자_일반주서
 62
     0
100
AcDbTrace
 10
77.3466698396615
 20
5.086428052824333
 30
0.0
 11
78.44733650632816
 21
5.086428052824337
 31
0.0
 12
77.89700317299484
 22
1.784428052824335
 32
0.0
 13
77.89700317299484
 23
1.784428052824335
 33
0.0
  0
MTEXT
  5
FF
330
F4
100
AcDbEntity
  8
치수문자_일반주서
 62
     0
100
AcDbMText
 10
73.52200317299476
 20
22.82592805282432
 30
0.0
 40
3.5
 41
0.0
 71
     2
 72
     1
  1
\A1;%%c3.57 [9/64]
  7
SLDTEXTSTYLE0
 11
-3.981907450039989E-15
 21
1.0
 31
0.0
 73
     1
 44
1.0
  0
POINT
  5
100
330
F4
100
AcDbEntity
  8
Defpoints
 62
     0
100
AcDbPoint
 10
39.68750000000001
 20
-1.784428052824193
 30
0.0
  0
POINT
  5
101
330
F4
100
AcDbEntity
  8
Defpoints
 62
     0
100
AcDbPoint
 10
39.68750000000001
 20
1.784428052824192
 30
0.0
  0
POINT
  5
102
330
F4
100
AcDbEntity
  8
Defpoints
 62
     0
100
AcDbPoint
 10
77.89700317299484
 20
1.784428052824335
 30
0.0
  0
ENDBLK
  5
F6
330
F4
100
AcDbEntity
  8
0
100
AcDbBlockEnd
  0
BLOCK
  5
10A
330
109
100
AcDbEntity
  8
0
100
AcDbBlockBegin
  2
_D_2
 70
     0
 10
0.0
 20
0.0
 30
0.0
  3
_D_2
  1
_D_2
  0
LINE
  5
10C
330
109
100
AcDbEntity
  8
치수문자_일반주서
 62
     0
370
    -2
100
AcDbLine
 10
39.68750000000001
 20
1.846928052824192
 30
0.0
 11
39.68750000000001
 21
14.7625
 31
0.0
  0
LINE
  5
10D
330
109
100
AcDbEntity
  8
치수문자_일반주서
 62
     0
370
    -2
100
AcDbLine
 10
28.57500000000002
 20
1.242332055377726
 30
0.0
 11
28.57500000000002
 21
14.7625
 31
0.0
  0
LINE
  5
10E
330
109
100
AcDbEntity
  8
치수문자_일반주서
 62
     0
370
    -2
100
AcDbLine
 10
39.68750000000001
 20
14.7625
 30
0.0
 11
70.79150000000001
 21
14.7625
 31
0.0
  0
LINE
  5
10F
330
109
100
AcDbEntity
  8
치수문자_일반주서
 62
     0
370
    -2
100
AcDbLine
 10
39.68750000000001
 20
14.7625
 30
0.0
 11
28.57500000000002
 21
14.7625
 31
0.0
  0
LINE
  5
110
330
109
100
AcDbEntity
  8
치수문자_일반주서
 62
     0
370
    -2
100
AcDbLine
 10
42.98950000000001
 20
14.7625
 30
0.0
 11
46.29150000000001
 21
14.7625
 31
0.0
  0
LINE
  5
111
330
109
100
AcDbEntity
  8
치수문자_일반주서
 62
     0
370
    -2
100
AcDbLine
 10
25.27300000000002
 20
14.7625
 30
0.0
 11
21.97100000000002
 21
14.7625
 31
0.0
  0
SOLID
  5
112
330
109
100
AcDbEntity
  8
치수문자_일반주서
 62
     0
100
AcDbTrace
 10
42.98950000000001
 20
15.31283333333333
 30
0.0
 11
42.98950000000001
 21
14.21216666666666
 31
0.0
 12
39.68750000000001
 22
14.7625
 32
0.0
 13
39.68750000000001
 23
14.7625
 33
0.0
  0
SOLID
  5
113
330
109
100
AcDbEntity
  8
치수문자_일반주서
 62
     0
100
AcDbTrace
 10
25.27300000000002
 20
14.21216666666666
 30
0.0
 11
25.27300000000002
 21
15.31283333333333
 31
0.0
 12
28.57500000000002
 22
14.7625
 32
0.0
 13
28.57500000000002
 23
14.7625
 33
0.0
  0
MTEXT
  5
114
330
109
100
AcDbEntity
  8
치수문자_일반주서
 62
     0
100
AcDbMText
 10
58.54150000000001
 20
19.1375
 30
0.0
 40
3.5
 41
0.0
 71
     2
 72
     1
  1
\A1;11.11 [7/16]
  7
SLDTEXTSTYLE0
 73
     1
 44
1.0
  0
POINT
  5
115
330
109
100
AcDbEntity
  8
Defpoints
 62
     0
100
AcDbPoint
 10
39.68750000000001
 20
1.784428052824192
 30
0.0
  0
POINT
  5
116
330
109
100
AcDbEntity
  8
Defpoints
 62
     0
100
AcDbPoint
 10
28.57500000000002
 20
1.179832055377726
 30
0.0
  0
POINT
  5
117
330
109
100
AcDbEntity
  8
Defpoints
 62
     0
100
AcDbPoint
 10
28.57500000000002
 20
14.7625
 30
0.0
  0
ENDBLK
  5
10B
330
109
100
AcDbEntity
  8
0
100
AcDbBlockEnd
  0
BLOCK
  5
11E
330
11D
100
AcDbEntity
  8
0
100
AcDbBlockBegin
  2
_D_3
 70
     0
 10
0.0
 20
0.0
 30
0.0
  3
_D_3
  1
_D_3
  0
LINE
  5
120
330
11D
100
AcDbEntity
  8
치수문자_일반주서
 62
     0
370
    -2
100
AcDbLine
 10
-39.6875
 20
1.846928052824172
 30
0.0
 11
-39.6875
 21
24.7625
 31
0.0
  0
LINE
  5
121
330
11D
100
AcDbEntity
  8
치수문자_일반주서
 62
     0
370
    -2
100
AcDbLine
 10
39.68750000000001
 20
1.846928052824192
 30
0.0
 11
39.68750000000001
 21
24.7625
 31
0.0
  0
LINE
  5
122
330
11D
100
AcDbEntity
  8
치수문자_일반주서
 62
     0
370
    -2
100
AcDbLine
 10
-36.3855
 20
24.7625
 30
0.0
 11
36.38550000000001
 21
24.7625
 31
0.0
  0
SOLID
  5
123
330
11D
100
AcDbEntity
  8
치수문자_일반주서
 62
     0
100
AcDbTrace
 10
-36.3855
 20
25.31283333333333
 30
0.0
 11
-36.3855
 21
24.21216666666666
 31
0.0
 12
-39.6875
 22
24.7625
 32
0.0
 13
-39.6875
 23
24.7625
 33
0.0
  0
SOLID
  5
124
330
11D
100
AcDbEntity
  8
치수문자_일반주서
 62
     0
100
AcDbTrace
 10
36.38550000000001
 20
24.21216666666666
 30
0.0
 11
36.38550000000001
 21
25.31283333333333
 31
0.0
 12
39.68750000000001
 22
24.7625
 32
0.0
 13
39.68750000000001
 23
24.7625
 33
0.0
  0
MTEXT
  5
125
330
11D
100
AcDbEntity
  8
치수문자_일반주서
 62
     0
100
AcDbMText
 10
0.0000000000000142
 20
29.1375
 30
0.0
 40
3.5
 41
0.0
 71
     2
 72
     1
  1
\A1;79.38 [3 1/8]
  7
SLDTEXTSTYLE0
 73
     1
 44
1.0
  0
POINT
  5
126
330
11D
100
AcDbEntity
  8
Defpoints
 62
     0
100
AcDbPoint
 10
-39.6875
 20
1.784428052824172
 30
0.0
  0
POINT
  5
127
330
11D
100
AcDbEntity
  8
Defpoints
 62
     0
100
AcDbPoint
 10
39.68750000000001
 20
1.784428052824192
 30
0.0
  0
POINT
  5
128
330
11D
100
AcDbEntity
  8
Defpoints
 62
     0
100
AcDbPoint
 10
39.68750000000001
 20
24.7625
 30
0.0
  0
ENDBLK
  5
11F
330
11D
100
AcDbEntity
  8
0
100
AcDbBlockEnd
  0
BLOCK
  5
137
330
136
100
AcDbEntity
  8
0
100
AcDbBlockBegin
  2
SW_DOWELSYMBOL_0
 70
     0
 10
0.0
 20
0.0
 30
0.0
  3
SW_DOWELSYMBOL_0
  1
SW_DOWELSYMBOL_0
  0
CIRCLE
  5
139
330
136
100
AcDbEntity
  8
해칭선
 62
     0
100
AcDbCircle
 10
0.0
 20
0.0
 30
0.0
 40
3.000000000000001
  0
HATCH
  5
13A
330
136
100
AcDbEntity
  8
0
  6
Continuous
 62
     0
370
     0
100
AcDbHatch
 10
0.0
 20
0.0
 30
0.0
210
0.0
220
0.0
230
1.0
  2
SOLID
 70
     1
 71
     0
 91
        1
 92
        0
 93
        3
 72
     2
 10
0.0
 20
0.0
 40
3.000000000000001
 50
0.0
 51
90.0
 73
     1
 72
     1
 10
0.0
 20
3.000000000000001
 11
0.0
 21
0.0
 72
     1
 10
0.0
 20
0.0
 11
3.000000000000001
 21
0.0
 97
        0
 75
     0
 76
     1
 98
        1
 10
0.0
 20
0.0
  0
HATCH
  5
13B
330
136
100
AcDbEntity
  8
0
  6
Continuous
 62
     0
370
     0
100
AcDbHatch
 10
0.0
 20
0.0
 30
0.0
210
0.0
220
0.0
230
1.0
  2
SOLID
 70
     1
 71
     0
 91
        1
 92
        0
 93
        3
 72
     2
 10
0.0
 20
0.0
 40
3.000000000000001
 50
180.0
 51
270.0000000000007
 73
     1
 72
     1
 10
0.0
 20
-3.000000000000001
 11
0.0
 21
0.0
 72
     1
 10
0.0
 20
0.0
 11
-3.000000000000001
 21
0.0
 97
        0
 75
     0
 76
     1
 98
        1
 10
0.0
 20
0.0
  0
ENDBLK
  5
138
330
136
100
AcDbEntity
  8
0
100
AcDbBlockEnd
  0
BLOCK
  5
19C
330
19B
100
AcDbEntity
  8
0
100
AcDbBlockBegin
  2
*D7
 70
     1
 10
0.0
 20
0.0
 30
0.0
  3
*D7
  1
*D7
  0
LINE
  5
19E
330
19B
100
AcDbEntity
  8
치수문자_일반주서
 62
     0
370
    -2
100
AcDbLine
 10
16.129
 20
1.204062975115863
 30
0.0
 11
16.129
 21
14.31790470593878
 31
0.0
  0
LINE
  5
19F
330
19B
100
AcDbEntity
  8
치수문자_일반주서
 62
     0
370
    -2
100
AcDbLine
 10
6.603999999999999
 20
0.6820206663775747
 30
0.0
 11
6.603999999999999
 21
14.31790470593878
 31
0.0
  0
LINE
  5
1A0
330
19B
100
AcDbEntity
  8
치수문자_일반주서
 62
     0
370
    -2
100
AcDbLine
 10
16.129
 20
14.31790470593878
 30
0.0
 11
46.358
 21
14.31790470593878
 31
0.0
  0
LINE
  5
1A1
330
19B
100
AcDbEntity
  8
치수문자_일반주서
 62
     0
370
    -2
100
AcDbLine
 10
16.129
 20
14.31790470593878
 30
0.0
 11
6.603999999999999
 21
14.31790470593878
 31
0.0
  0
LINE
  5
1A2
330
19B
100
AcDbEntity
  8
치수문자_일반주서
 62
     0
370
    -2
100
AcDbLine
 10
19.431
 20
14.31790470593878
 30
0.0
 11
22.733
 21
14.31790470593878
 31
0.0
  0
LINE
  5
1A3
330
19B
100
AcDbEntity
  8
치수문자_일반주서
 62
     0
370
    -2
100
AcDbLine
 10
3.302
 20
14.31790470593878
 30
0.0
 11
0.0
 21
14.31790470593878
 31
0.0
  0
SOLID
  5
1A4
330
19B
100
AcDbEntity
  8
치수문자_일반주서
 62
     0
100
AcDbTrace
 10
19.431
 20
14.86823803927212
 30
0.0
 11
19.431
 21
13.76757137260545
 31
0.0
 12
16.129
 22
14.31790470593878
 32
0.0
 13
16.129
 23
14.31790470593878
 33
0.0
  0
SOLID
  5
1A5
330
19B
100
AcDbEntity
  8
치수문자_일반주서
 62
     0
100
AcDbTrace
 10
3.302
 20
13.76757137260545
 30
0.0
 11
3.302
 21
14.86823803927212
 31
0.0
 12
6.603999999999999
 22
14.31790470593878
 32
0.0
 13
6.603999999999999
 23
14.31790470593878
 33
0.0
  0
MTEXT
  5
1A6
330
19B
100
AcDbEntity
  8
치수문자_일반주서
 62
     0
100
AcDbMText
 10
34.5455
 20
18.69290470593878
 30
0.0
 40
3.5
 41
0.0
 71
     2
 72
     1
  1
\A1;9.53 [3/8]
  7
SLDTEXTSTYLE0
 73
     1
 44
1.0
  0
POINT
  5
1A7
330
19B
100
AcDbEntity
  8
Defpoints
 62
     0
100
AcDbPoint
 10
16.129
 20
1.141562975115863
 30
0.0
  0
POINT
  5
1A8
330
19B
100
AcDbEntity
  8
Defpoints
 62
     0
100
AcDbPoint
 10
6.603999999999999
 20
0.6195206663775747
 30
0.0
  0
POINT
  5
1A9
330
19B
100
AcDbEntity
  8
Defpoints
 62
     0
100
AcDbPoint
 10
6.603999999999999
 20
14.31790470593878
 30
0.0
  0
ENDBLK
  5
19D
330
19B
100
AcDbEntity
  8
0
100
AcDbBlockEnd
  0
BLOCK
  5
1AE
330
1AD
100
AcDbEntity
  8
0
100
AcDbBlockBegin
  2
*D8
 70
     1
 10
0.0
 20
0.0
 30
0.0
  3
*D8
  1
*D8
  0
LINE
  5
1B0
330
1AD
100
AcDbEntity
  8
치수문자_일반주서
 62
     0
370
    -2
100
AcDbLine
 10
78.54157918593262
 20
-21.65594598604691
 30
0.0
 11
78.54157918593262
 21
-8.542104255223993
 31
0.0
  0
LINE
  5
1B1
330
1AD
100
AcDbEntity
  8
치수문자_일반주서
 62
     0
370
    -2
100
AcDbLine
 10
69.01657918593261
 20
-22.1779882947852
 30
0.0
 11
69.01657918593261
 21
-8.542104255223993
 31
0.0
  0
LINE
  5
1B2
330
1AD
100
AcDbEntity
  8
치수문자_일반주서
 62
     0
370
    -2
100
AcDbLine
 10
78.54157918593262
 20
-8.542104255223993
 30
0.0
 11
108.7705791859326
 21
-8.542104255223993
 31
0.0
  0
LINE
  5
1B3
330
1AD
100
AcDbEntity
  8
치수문자_일반주서
 62
     0
370
    -2
100
AcDbLine
 10
78.54157918593262
 20
-8.542104255223993
 30
0.0
 11
69.01657918593261
 21
-8.542104255223993
 31
0.0
  0
LINE
  5
1B4
330
1AD
100
AcDbEntity
  8
치수문자_일반주서
 62
     0
370
    -2
100
AcDbLine
 10
81.84357918593261
 20
-8.542104255223993
 30
0.0
 11
85.1455791859326
 21
-8.542104255223993
 31
0.0
  0
LINE
  5
1B5
330
1AD
100
AcDbEntity
  8
치수문자_일반주서
 62
     0
370
    -2
100
AcDbLine
 10
65.71457918593262
 20
-8.542104255223993
 30
0.0
 11
62.41257918593262
 21
-8.542104255223993
 31
0.0
  0
SOLID
  5
1B6
330
1AD
100
AcDbEntity
  8
치수문자_일반주서
 62
     0
100
AcDbTrace
 10
81.84357918593261
 20
-7.99177092189066
 30
0.0
 11
81.84357918593261
 21
-9.092437588557326
 31
0.0
 12
78.54157918593262
 22
-8.542104255223993
 32
0.0
 13
78.54157918593262
 23
-8.542104255223993
 33
0.0
  0
SOLID
  5
1B7
330
1AD
100
AcDbEntity
  8
치수문자_일반주서
 62
     0
100
AcDbTrace
 10
65.71457918593262
 20
-9.092437588557326
 30
0.0
 11
65.71457918593262
 21
-7.99177092189066
 31
0.0
 12
69.01657918593261
 22
-8.542104255223993
 32
0.0
 13
69.01657918593261
 23
-8.542104255223993
 33
0.0
  0
MTEXT
  5
1B8
330
1AD
100
AcDbEntity
  8
치수문자_일반주서
 62
     0
100
AcDbMText
 10
96.95807918593262
 20
-4.167104255223993
 30
0.0
 40
3.5
 41
0.0
 71
     2
 72
     1
  1
\A1;9.53 [3/8]
  7
SLDTEXTSTYLE0
 73
     1
 44
1.0
  0
POINT
  5
1B9
330
1AD
100
AcDbEntity
  8
Defpoints
 62
     0
100
AcDbPoint
 10
78.54157918593262
 20
-21.71844598604691
 30
0.0
  0
POINT
  5
1BA
330
1AD
100
AcDbEntity
  8
Defpoints
 62
     0
100
AcDbPoint
 10
69.01657918593261
 20
-22.2404882947852
 30
0.0
  0
POINT
  5
1BB
330
1AD
100
AcDbEntity
  8
Defpoints
 62
     0
100
AcDbPoint
 10
69.01657918593261
 20
-8.542104255223993
 30
0.0
  0
ENDBLK
  5
1AF
330
1AD
100
AcDbEntity
  8
0
100
AcDbBlockEnd
  0
ENDSEC
  0
SECTION
  2
ENTITIES
  0
LINE
  5
96
330
1F
100
AcDbEntity
  8
외형선
  6
Continuous
370
    15
100
AcDbLine
 10
16.46631751809581
 20
4.762499999999997
 30
0.0
 11
4.838700000000163
 21
4.762499999999996
 31
0.0
  0
LINE
  5
97
330
1F
100
AcDbEntity
  8
외형선
  6
Continuous
370
    15
100
AcDbLine
 10
-16.4663175180958
 20
-4.7625
 30
0.0
 11
16.46631751809581
 21
-4.762499999999998
 31
0.0
  0
LINE
  5
98
330
1F
100
AcDbEntity
  8
외형선
  6
Continuous
370
    15
100
AcDbLine
 10
16.46631751809581
 20
-4.7625
 30
0.0
 11
27.57500000000002
 21
-1.785937500000001
 31
0.0
  0
LINE
  5
99
330
1F
100
AcDbEntity
  8
외형선
  6
Continuous
370
    15
100
AcDbLine
 10
27.57500000000002
 20
1.7859375
 30
0.0
 11
16.46631751809581
 21
4.762499999999998
 31
0.0
  0
LINE
  5
9C
330
1F
100
AcDbEntity
  8
외형선
  6
Continuous
370
    15
100
AcDbLine
 10
27.68507607781772
 20
1.7859375
 30
0.0
 11
27.57500000000002
 21
1.7859375
 31
0.0
  0
LINE
  5
9D
330
1F
100
AcDbEntity
  8
외형선
  6
Continuous
370
    15
100
AcDbLine
 10
27.57500000000002
 20
-1.785937500000001
 30
0.0
 11
27.68507607781772
 21
-1.785937500000001
 31
0.0
  0
SPLINE
  5
9E
330
1F
100
AcDbEntity
  8
외형선
  6
Continuous
370
    15
100
AcDbSpline
210
0.0
220
0.0
230
1.0
 70
     8
 71
     3
 72
     9
 73
     5
 74
     0
 42
0.000000001
 43
0.00000001
 40
0.0
 40
0.0
 40
0.0
 40
0.0
 40
0.4390593900418358
 40
1.0
 40
1.0
 40
1.0
 40
1.0
 10
28.57500000000002
 20
1.179832054081911
 30
0.0
 10
28.44462542809816
 20
1.177307016474254
 30
0.0
 10
28.14768479806306
 20
1.171556000404614
 30
0.0
 10
27.85133175122066
 20
1.182118502764934
 30
0.0
 10
27.68509529236193
 20
1.188043439281616
 30
0.0
  0
ARC
  5
9F
330
1F
100
AcDbEntity
  8
외형선
  6
Continuous
370
    15
100
AcDbCircle
 10
28.03507601829275
 20
-1.527082244108283
 30
0.0
 40
0.3499999404751118
100
AcDbArc
 50
139.6328616380825
 51
179.9983159818273
  0
LINE
  5
A0
330
1F
100
AcDbEntity
  8
0
  6
Continuous
 62
     1
370
    15
100
AcDbLine
 10
34.22326857050672
 20
0.4201341071491412
 30
0.0
 11
34.05265336612967
 21
0.5135689059096439
 31
0.0
1001
PE_URL
1000

  0
SPLINE
  5
A1
330
1F
100
AcDbEntity
  8
0
  6
Continuous
 62
     1
370
    15
100
AcDbSpline
210
0.0
220
0.0
230
1.0
 70
     8
 71
     3
 72
     9
 73
     5
 74
     0
 42
0.000000001
 43
0.00000001
 40
0.0
 40
0.0
 40
0.0
 40
0.0
 40
0.4370881614461247
 40
1.0
 40
1.0
 40
1.0
 40
1.0
 10
35.05943118440602
 20
0.4578040896811364
 30
0.0
 10
34.98756251416504
 20
0.4920950878086747
 30
0.0
 10
34.82313648623695
 20
0.5705483637200723
 30
0.0
 10
34.65872840834042
 20
0.6567584328258764
 30
0.0
 10
34.56618115493857
 20
0.7052871013280813
 30
0.0
1001
PE_URL
1000

  0
LINE
  5
A2
330
1F
100
AcDbEntity
  8
0
  6
Continuous
 62
     1
370
    15
100
AcDbLine
 10
30.96233945668455
 20
1.785937500000001
 30
0.0
 11
30.09691236745381
 21
1.785937500000001
 31
0.0
1001
PE_URL
1000

  0
SPLINE
  5
A3
330
1F
100
AcDbEntity
  8
0
  6
Continuous
 62
     1
370
    15
100
AcDbSpline
210
0.0
220
0.0
230
1.0
 70
     8
 71
     3
 72
    12
 73
     8
 74
     0
 42
0.000000001
 43
0.00000001
 40
0.0
 40
0.0
 40
0.0
 40
0.0
 40
0.3066501817122487
 40
0.515962083490271
 40
0.6933696082433409
 40
0.8881552267169133
 40
0.9999999999999999
 40
0.9999999999999999
 40
0.9999999999999999
 40
0.9999999999999999
 10
34.47066176493244
 20
1.419174705146173
 30
0.0
 10
34.31885524907472
 20
1.412143598437248
 30
0.0
 10
34.06342932442012
 20
1.400313230535547
 30
0.0
 10
33.71505963424161
 20
1.39450690768058
 30
0.0
 10
33.42071099364386
 20
1.394635337807925
 30
0.0
 10
33.17786188139729
 20
1.398182496908064
 30
0.0
 10
33.02485560355323
 20
1.403556400711069
 30
0.0
 10
32.96904589611255
 20
1.405516555570633
 30
0.0
1001
PE_URL
1000

  0
SPLINE
  5
A4
330
1F
100
AcDbEntity
  8
0
  6
Continuous
 62
     1
370
    15
100
AcDbSpline
210
0.0
220
0.0
230
1.0
 70
     8
 71
     3
 72
    15
 73
    11
 74
     0
 42
0.000000001
 43
0.00000001
 40
0.0
 40
0.0
 40
0.0
 40
0.0
 40
0.1978829012336541
 40
0.3467551827264713
 40
0.4788382071562666
 40
0.5481634103884651
 40
0.6053892090002968
 40
0.6828263054518409
 40
0.8136429942784474
 40
1.0
 40
1.0
 40
1.0
 40
1.0
 10
31.78483757659834
 20
-1.486139483322046
 30
0.0
 10
31.95846410819412
 20
-1.469751525037252
 30
0.0
 10
32.26271424458447
 20
-1.441034493731715
 30
0.0
 10
32.69920975180098
 20
-1.415534806816306
 30
0.0
 10
33.0141578302997
 20
-1.402785479365966
 30
0.0
 10
33.24542014558835
 20
-1.397401907161579
 30
0.0
 10
33.42602322029219
 20
-1.394906766183446
 30
0.0
 10
33.66270929191141
 20
-1.394190947101095
 30
0.0
 10
34.01678645738824
 20
-1.398612959464484
 30
0.0
 10
34.30268224900703
 20
-1.411564791082155
 30
0.0
 10
34.47066176493244
 20
-1.419174705146174
 30
0.0
1001
PE_URL
1000

  0
SPLINE
  5
A5
330
1F
100
AcDbEntity
  8
0
  6
Continuous
 62
     1
370
    15
100
AcDbSpline
210
0.0
220
0.0
230
1.0
 70
     8
 71
     3
 72
    20
 73
    16
 74
     0
 42
0.000000001
 43
0.00000001
 40
0.0
 40
0.0
 40
0.0
 40
0.0
 40
0.1316879273185363
 40
0.2201311092636437
 40
0.2767098910266353
 40
0.3341105326421623
 40
0.3929513848616183
 40
0.451486874214179
 40
0.5104725044973463
 40
0.5795992737207822
 40
0.6487231137439489
 40
0.7167842926315354
 40
0.7813035893874188
 40
0.8667657285865429
 40
1.0
 40
1.0
 40
1.0
 40
1.0
 10
39.02326949910719
 20
1.221499854799736
 30
0.0
 10
38.88566421181054
 20
1.210860440405806
 30
0.0
 10
38.65564157306184
 20
1.193075468463872
 30
0.0
 10
38.36792514754706
 20
1.181445320399282
 30
0.0
 10
38.15874360935176
 20
1.176466521748523
 30
0.0
 10
37.97921842898027
 20
1.174835795371464
 30
0.0
 10
37.7974320287323
 20
1.175880639716096
 30
0.0
 10
37.61423533452046
 20
1.179755158765285
 30
0.0
 10
37.42005303358572
 20
1.186746681295682
 30
0.0
 10
37.21480547590618
 20
1.197425368961141
 30
0.0
 10
37.0001918510848
 20
1.212267784081887
 30
0.0
 10
36.79028704911515
 20
1.230435841194979
 30
0.0
 10
36.56571597911552
 20
1.253581551019668
 30
0.0
 10
36.27181224572673
 20
1.288119897479603
 30
0.0
 10
36.04282695048691
 20
1.322392677017727
 30
0.0
 10
35.90332448270422
 20
1.343272346685305
 30
0.0
1001
PE_URL
1000

  0
SPLINE
  5
A6
330
1F
100
AcDbEntity
  8
0
  6
Continuous
 62
     1
370
    15
100
AcDbSpline
210
0.0
220
0.0
230
1.0
 70
     8
 71
     3
 72
    13
 73
     9
 74
     0
 42
0.000000001
 43
0.00000001
 40
0.0
 40
0.0
 40
0.0
 40
0.0
 40
0.3063563466655466
 40
0.5028663621856364
 40
0.6512208045814959
 40
0.8077193833071309
 40
0.9666614248129178
 40
1.0
 40
1.0
 40
1.0
 40
1.0
 10
35.90332448270422
 20
-1.343272346685306
 30
0.0
 10
36.04282692917123
 20
-1.322389675432454
 30
0.0
 10
36.27181218942256
 20
-1.288111968964357
 30
0.0
 10
36.56571610062538
 20
-1.253598661525848
 30
0.0
 10
36.79028670459276
 20
-1.230387327003275
 30
0.0
 10
37.00019324008122
 20
-1.21246337670498
 30
0.0
 10
37.15797595148992
 20
-1.200861709992885
 30
0.0
 10
37.24498780851845
 20
-1.196451860453814
 30
0.0
 10
37.26007435955831
 20
-1.195687258680891
 30
0.0
1001
PE_URL
1000

  0
SPLINE
  5
A7
330
1F
100
AcDbEntity
  8
0
  6
Continuous
 62
     1
370
    15
100
AcDbSpline
210
0.0
220
0.0
230
1.0
 70
     8
 71
     3
 72
     9
 73
     5
 74
     0
 42
0.000000001
 43
0.00000001
 40
0.0
 40
0.0
 40
0.0
 40
0.0
 40
0.4980579608929105
 40
1.0
 40
1.0
 40
1.0
 40
1.0
 10
29.3052773322866
 20
1.221500261548373
 30
0.0
 10
29.18376412011391
 20
1.211873617377287
 30
0.0
 10
28.9397900815204
 20
1.192545256168428
 30
0.0
 10
28.69691114743234
 20
1.184080747049238
 30
0.0
 10
28.57500000000002
 20
1.179832054081911
 30
0.0
1001
PE_URL
1000

  0
LINE
  5
A8
330
1F
100
AcDbEntity
  8
0
  6
Continuous
 62
     1
370
    15
100
AcDbLine
 10
30.09691236745383
 20
-1.785937500000002
 30
0.0
 11
30.96233945668455
 21
-1.785937500000002
 31
0.0
1001
PE_URL
1000

  0
LINE
  5
A9
330
1F
100
AcDbEntity
  8
외형선
  6
Continuous
370
    15
100
AcDbLine
 10
16.46631751809581
 20
4.762499999999998
 30
0.0
 11
16.46631751809581
 21
-4.762500000000004
 31
0.0
  0
LINE
  5
AB
330
1F
100
AcDbEntity
  8
외형선
  6
Continuous
370
    15
100
AcDbLine
 10
27.57500000000002
 20
1.7859375
 30
0.0
 11
27.57500000000002
 21
-1.785937500000001
 31
0.0
  0
SPLINE
  5
AD
330
1F
100
AcDbEntity
  8
외형선
  6
Continuous
370
    15
100
AcDbSpline
210
0.0
220
0.0
230
1.0
 70
     8
 71
     3
 72
    10
 73
     6
 74
     0
 42
0.000000001
 43
0.00000001
 40
0.0
 40
0.0
 40
0.0
 40
0.0
 40
0.5
 40
0.5
 40
1.0
 40
1.0
 40
1.0
 40
1.0
 10
28.57499999999999
 20
1.574099977167089
 30
0.0
 10
28.42573460015745
 20
1.533548353942728
 30
0.0
 10
28.27614589256924
 20
1.487485648794751
 30
0.0
 10
27.98093669195035
 20
1.385878763679501
 30
0.0
 10
27.83414350739926
 20
1.330239505096295
 30
0.0
 10
27.68507607781772
 20
1.269907787947624
 30
0.0
  0
SPLINE
  5
AE
330
1F
100
AcDbEntity
  8
외형선
  6
Continuous
370
    15
100
AcDbSpline
210
0.0
220
0.0
230
1.0
 70
     8
 71
     3
 72
    10
 73
     6
 74
     0
 42
0.000000001
 43
0.00000001
 40
0.0
 40
0.0
 40
0.0
 40
0.0
 40
0.5
 40
0.5
 40
1.0
 40
1.0
 40
1.0
 40
1.0
 10
28.57499999999999
 20
-1.279870554158638
 30
0.0
 10
28.42574791736428
 20
-1.220005627419351
 30
0.0
 10
28.27617258303761
 20
-1.155641958679876
 30
0.0
 10
27.98098901577489
 20
-1.019998786022655
 30
0.0
 10
27.83420973616308
 20
-0.9485694758357303
 30
0.0
 10
27.68515587501128
 20
-0.8737417943806066
 30
0.0
  0
LINE
  5
AF
330
1F
100
AcDbEntity
  8
외형선
  6
Continuous
370
    15
100
AcDbLine
 10
28.57500000000002
 20
-1.279870554158649
 30
0.0
 11
28.57500000000002
 21
-1.5740999771671
 31
0.0
  0
SPLINE
  5
B0
330
1F
100
AcDbEntity
  8
외형선
  6
Continuous
370
    15
100
AcDbSpline
210
0.0
220
0.0
230
1.0
 70
     8
 71
     3
 72
    10
 73
     6
 74
     0
 42
0.000000001
 43
0.00000001
 40
0.0
 40
0.0
 40
0.0
 40
0.0
 40
0.5
 40
0.5
 40
1.0
 40
1.0
 40
1.0
 40
1.0
 10
28.57499999999999
 20
-1.57409997716709
 30
0.0
 10
28.42573460015745
 20
-1.533548353942729
 30
0.0
 10
28.27614589256924
 20
-1.487485648794752
 30
0.0
 10
27.98093669195035
 20
-1.385878763679502
 30
0.0
 10
27.83414350739926
 20
-1.330239505096296
 30
0.0
 10
27.68507607781772
 20
-1.269907787947625
 30
0.0
  0
LINE
  5
B1
330
1F
100
AcDbEntity
  8
외형선
  6
Continuous
370
    15
100
AcDbLine
 10
27.68507607781772
 20
-1.785937500000001
 30
0.0
 11
27.68507607781772
 21
-1.269478699963158
 31
0.0
  0
LINE
  5
B2
330
1F
100
AcDbEntity
  8
외형선
  6
Continuous
370
    15
100
AcDbLine
 10
27.68507607781772
 20
-0.8736750388075424
 30
0.0
 11
27.68507607781772
 21
1.7859375
 31
0.0
  0
SPLINE
  5
B3
330
1F
100
AcDbEntity
  8
외형선
  6
Continuous
370
    15
100
AcDbSpline
210
0.0
220
0.0
230
1.0
 70
    24
 71
     3
 72
     8
 73
     4
 74
     0
 42
0.000000001
 43
0.00000001
 40
0.0
 40
0.0
 40
0.0
 40
0.0
 40
1.0
 40
1.0
 40
1.0
 40
1.0
 10
28.57500000000002
 20
-1.02209897331048
 30
0.0
 10
28.57500000000002
 20
-1.104280816796938
 30
0.0
 10
28.57500000000002
 20
-1.190740307843003
 30
0.0
 10
28.57500000000002
 20
-1.279870554158195
 30
0.0
  0
SPLINE
  5
B4
330
1F
100
AcDbEntity
  8
외형선
  6
Continuous
370
    15
100
AcDbSpline
210
0.0
220
0.0
230
1.0
 70
     8
 71
     3
 72
    10
 73
     6
 74
     0
 42
0.000000001
 43
0.00000001
 40
0.0
 40
0.0
 40
0.0
 40
0.0
 40
0.5
 40
0.5
 40
1.0
 40
1.0
 40
1.0
 40
1.0
 10
28.57499999999995
 20
-1.022098973310457
 30
0.0
 10
28.42574791736425
 20
-0.968154948771488
 30
0.0
 10
28.27617258303759
 20
-0.9106140075707723
 30
0.0
 10
27.98098901577488
 20
-0.7901898865321977
 30
0.0
 10
27.83420973616307
 20
-0.727170495836753
 30
0.0
 10
27.68515587501128
 20
-0.6615321902487276
 30
0.0
  0
SPLINE
  5
B5
330
1F
100
AcDbEntity
  8
외형선
  6
Continuous
370
    15
100
AcDbSpline
210
0.0
220
0.0
230
1.0
 70
    24
 71
     3
 72
    10
 73
     6
 74
     0
 42
0.000000001
 43
0.00000001
 40
0.0
 40
0.0
 40
0.0
 40
0.0
 40
0.5
 40
0.5
 40
1.0
 40
1.0
 40
1.0
 40
1.0
 10
28.575
 20
0.6226037231793695
 30
0.0
 10
28.575
 20
0.3624528542691531
 30
0.0
 10
28.575
 20
0.0696671610851383
 30
0.0
 10
28.575
 20
-0.5052379305314418
 30
0.0
 10
28.575
 20
-0.7848827127035127
 30
0.0
 10
28.575
 20
-1.022098973310475
 30
0.0
  0
SPLINE
  5
B6
330
1F
100
AcDbEntity
  8
외형선
  6
Continuous
370
    15
100
AcDbSpline
210
0.0
220
0.0
230
1.0
 70
     8
 71
     3
 72
    10
 73
     6
 74
     0
 42
0.000000001
 43
0.00000001
 40
0.0
 40
0.0
 40
0.0
 40
0.0
 40
0.5000000000000001
 40
0.5000000000000001
 40
1.0
 40
1.0
 40
1.0
 40
1.0
 10
28.57499999999994
 20
0.6226037231793966
 30
0.0
 10
28.42573946093684
 20
0.684412165405598
 30
0.0
 10
28.27615563458853
 20
0.7440947607676773
 30
0.0
 10
27.98095579011978
 20
0.8574170113134872
 30
0.0
 10
27.834167680921
 20
0.9112295538149143
 30
0.0
 10
27.68510520380372
 20
0.9619805912785935
 30
0.0
  0
SPLINE
  5
B7
330
1F
100
AcDbEntity
  8
외형선
  6
Continuous
370
    15
100
AcDbSpline
210
0.0
220
0.0
230
1.0
 70
    24
 71
     3
 72
    12
 73
     8
 74
     0
 42
0.000000001
 43
0.00000001
 40
0.0
 40
0.0
 40
0.0
 40
0.0
 40
0.1308602898024051
 40
0.346165697840323
 40
0.5677149772971648
 40
0.7838574886485824
 40
1.0
 40
1.0
 40
1.0
 40
1.0
 10
28.57500000000002
 20
1.172883951922854
 30
0.0
 10
28.57500000000002
 20
1.173675072744074
 30
0.0
 10
28.57500000000002
 20
1.175767830536121
 30
0.0
 10
28.57500000000002
 20
1.116772370816121
 30
0.0
 10
28.57500000000002
 20
1.003713183057274
 30
0.0
 10
28.57500000000002
 20
0.8397080556927036
 30
0.0
 10
28.57500000000002
 20
0.6949718340171437
 30
0.0
 10
28.57500000000002
 20
0.6226037231793637
 30
0.0
  0
SPLINE
  5
B8
330
1F
100
AcDbEntity
  8
외형선
  6
Continuous
370
    15
100
AcDbSpline
210
0.0
220
0.0
230
1.0
 70
    24
 71
     3
 72
    11
 73
     7
 74
     0
 42
0.000000001
 43
0.00000001
 40
0.0
 40
0.0
 40
0.0
 40
0.0
 40
0.0985562289536027
 40
0.6135497845502711
 40
0.8937955099588841
 40
1.0
 40
1.0
 40
1.0
 40
1.0
 10
28.57500000000002
 20
1.574099977167098
 30
0.0
 10
28.57500000000002
 20
1.559161358823907
 30
0.0
 10
28.57500000000002
 20
1.466162812072906
 30
0.0
 10
28.57500000000002
 20
1.338990620899034
 30
0.0
 10
28.57500000000002
 20
1.227343784850578
 30
0.0
 10
28.57500000000002
 20
1.190074439024179
 30
0.0
 10
28.57500000000002
 20
1.179832054081911
 30
0.0
  0
SPLINE
  5
B9
330
1F
100
AcDbEntity
  8
0
  6
Continuous
 62
     1
370
    15
100
AcDbSpline
210
0.0
220
0.0
230
1.0
 70
     8
 71
     3
 72
    46
 73
    42
 74
     0
 42
0.000000001
 43
0.00000001
 40
0.0
 40
0.0
 40
0.0
 40
0.0
 40
0.0624999999999994
 40
0.0624999999999994
 40
0.1249999999999988
 40
0.1249999999999988
 40
0.1562499999999985
 40
0.1562499999999985
 40
0.1874999999999982
 40
0.1874999999999982
 40
0.2499999999999979
 40
0.2499999999999979
 40
0.2812499999999979
 40
0.2812499999999979
 40
0.3124999999999979
 40
0.3124999999999979
 40
0.374999999999998
 40
0.374999999999998
 40
0.4374999999999981
 40
0.4374999999999981
 40
0.4999999999999981
 40
0.4999999999999981
 40
0.5624999999999981
 40
0.5624999999999981
 40
0.5937499999999983
 40
0.5937499999999983
 40
0.6249999999999984
 40
0.6249999999999984
 40
0.6874999999999987
 40
0.6874999999999987
 40
0.7187499999999989
 40
0.7187499999999989
 40
0.749999999999999
 40
0.749999999999999
 40
0.8124999999999992
 40
0.8124999999999992
 40
0.8749999999999996
 40
0.8749999999999996
 40
0.9374999999999998
 40
0.9374999999999998
 40
1.0
 40
1.0
 40
1.0
 40
1.0
 10
39.68750000000001
 20
-1.784428052824192
 30
0.0
 10
39.45883198957046
 20
-1.778956174040512
 30
0.0
 10
39.22404766304133
 20
-1.758376763976824
 30
0.0
 10
38.75973626457566
 20
-1.688098071512045
 30
0.0
 10
38.53167217229668
 20
-1.638720864776178
 30
0.0
 10
38.18237292352971
 20
-1.544152724995479
 30
0.0
 10
38.06572275009663
 20
-1.50927755706098
 30
0.0
 10
37.83418949701033
 20
-1.433517922389021
 30
0.0
 10
37.7202736943246
 20
-1.392765424954924
 30
0.0
 10
37.37411715906476
 20
-1.261514863373738
 30
0.0
 10
37.13896989780577
 20
-1.162018404175392
 30
0.0
 10
36.79286794234753
 20
-1.000360120747278
 30
0.0
 10
36.67893861047835
 20
-0.9444990876443129
 30
0.0
 10
36.44737619760868
 20
-0.8284530871011823
 30
0.0
 10
36.33072050099562
 20
-0.7684160650761532
 30
0.0
 10
35.98143237072276
 20
-0.5839363693989551
 30
0.0
 10
35.75339140356596
 20
-0.4558636777862529
 30
0.0
 10
35.28903628794399
 20
-0.1927238905759558
 30
0.0
 10
35.05436740137361
 20
-0.0579395770249704
 30
0.0
 10
34.59693086513337
 20
0.2080809123468599
 30
0.0
 10
34.3621315862636
 20
0.3416228498597251
 30
0.0
 10
33.89786450952028
 20
0.5997345895769283
 30
0.0
 10
33.66977631938481
 20
0.7240981004861122
 30
0.0
 10
33.32046641020005
 20
0.9012495603852521
 30
0.0
 10
33.20382191358277
 20
0.9585529139797819
 30
0.0
 10
32.97231811985537
 20
1.06860578624477
 30
0.0
 10
32.85841473087099
 20
1.121221745166293
 30
0.0
 10
32.51220406021778
 20
1.272393739716956
 30
0.0
 10
32.27705711424542
 20
1.363846300165841
 30
0.0
 10
31.93101018276099
 20
1.481912508935697
 30
0.0
 10
31.81706620628454
 20
1.518101390533556
 30
0.0
 10
31.58547493333368
 20
1.584347783018717
 30
0.0
 10
31.46881386720087
 20
1.614283738416565
 30
0.0
 10
31.1195373134498
 20
1.693626907434169
 30
0.0
 10
30.89151849858019
 20
1.732377670107536
 30
0.0
 10
30.42712027055838
 20
1.780722419615651
 30
0.0
 10
30.19256587982036
 20
1.790008483135883
 30
0.0
 10
29.73502940308344
 20
1.778568437114608
 30
0.0
 10
29.50021548558909
 20
1.757736126180807
 30
0.0
 10
29.03599333494102
 20
1.686979623332339
 30
0.0
 10
28.80788007431973
 20
1.637367586674971
 30
0.0
 10
28.57499999999999
 20
1.574099977167092
 30
0.0
1001
PE_URL
1000

  0
SPLINE
  5
BA
330
1F
100
AcDbEntity
  8
0
  6
Continuous
 62
     1
370
    15
100
AcDbSpline
210
0.0
220
0.0
230
1.0
 70
     8
 71
     3
 72
    14
 73
    10
 74
     0
 42
0.000000001
 43
0.00000001
 40
0.0
 40
0.0
 40
0.0
 40
0.0
 40
0.0949028444407293
 40
0.2630017733842796
 40
0.4311068118901407
 40
0.5992174161104392
 40
0.7673330398934519
 40
0.9447104601837155
 40
1.0
 40
1.0
 40
1.0
 40
1.0
 10
35.25189622970704
 20
-0.1683499110552606
 30
0.0
 10
35.06367081210313
 20
-0.0931992082553528
 30
0.0
 10
34.54204662984019
 20
0.1150639710405492
 30
0.0
 10
33.687006387776
 20
0.4597424128541233
 30
0.0
 10
32.68676855210241
 20
0.8117817684044634
 30
0.0
 10
31.68648373547942
 20
1.082907677935605
 30
0.0
 10
30.66784405711317
 20
1.235126243583831
 30
0.0
 10
29.87284569204647
 20
1.2776725000235
 30
0.0
 10
29.41133186039919
 20
1.219796093862402
 30
0.0
 10
29.30166056302657
 20
1.206042702055494
 30
0.0
1001
PE_URL
1000

  0
SPLINE
  5
BB
330
1F
100
AcDbEntity
  8
외형선
  6
Continuous
370
    15
100
AcDbSpline
210
0.0
220
0.0
230
1.0
 70
    24
 71
     3
 72
    11
 73
     7
 74
     0
 42
0.000000001
 43
0.00000001
 40
0.0
 40
0.0
 40
0.0
 40
0.0
 40
0.0985562289536037
 40
0.6135497845502736
 40
0.893795509958885
 40
1.0
 40
1.0
 40
1.0
 40
1.0
 10
28.57500000000002
 20
1.574099977167098
 30
0.0
 10
28.57500000000002
 20
1.559161358823906
 30
0.0
 10
28.57500000000002
 20
1.466162812072905
 30
0.0
 10
28.57500000000002
 20
1.338990620899033
 30
0.0
 10
28.57500000000002
 20
1.227343784850578
 30
0.0
 10
28.57500000000002
 20
1.190074439024179
 30
0.0
 10
28.57500000000002
 20
1.179832054081911
 30
0.0
  0
SPLINE
  5
BC
330
1F
100
AcDbEntity
  8
0
  6
Continuous
 62
     1
370
    15
100
AcDbSpline
210
0.0
220
0.0
230
1.0
 70
     8
 71
     3
 72
    17
 73
    13
 74
     0
 42
0.000000001
 43
0.00000001
 40
0.0
 40
0.0
 40
0.0
 40
0.0
 40
0.1019711391392476
 40
0.2039010766434144
 40
0.3057981087391116
 40
0.4076706430933238
 40
0.5095271706993829
 40
0.6113762371618162
 40
0.7132264135856218
 40
0.8252963014110819
 40
0.9373662389149194
 40
0.9999999999999999
 40
0.9999999999999999
 40
0.9999999999999999
 40
0.9999999999999999
 10
39.68750000000002
 20
-1.694749083643847
 30
0.0
 10
39.39089290805146
 20
-1.627198526149962
 30
0.0
 10
38.79779856882085
 20
-1.492124705094994
 30
0.0
 10
37.90840715245564
 20
-1.129782796398616
 30
0.0
 10
37.01935425213186
 20
-0.6847688317647983
 30
0.0
 10
36.13055723845987
 20
-0.1809943059465459
 30
0.0
 10
35.24193471867397
 20
0.3370168318361269
 30
0.0
 10
34.35336245669931
 20
0.8270407215314939
 30
0.0
 10
33.43519484924823
 20
1.265323720324485
 30
0.0
 10
32.48685319211575
 20
1.594636176258945
 30
0.0
 10
31.65271031855311
 20
1.775997211368566
 30
0.0
 10
31.14452950658974
 20
1.767152765008629
 30
0.0
 10
30.96233945668455
 20
1.763981905177313
 30
0.0
1001
PE_URL
1000

  0
SPLINE
  5
BD
330
1F
100
AcDbEntity
  8
0
  6
Continuous
 62
     1
370
    15
100
AcDbSpline
210
0.0
220
0.0
230
1.0
 70
     8
 71
     3
 72
    14
 73
    10
 74
     0
 42
0.000000001
 43
0.00000001
 40
0.0
 40
0.0
 40
0.0
 40
0.0
 40
0.1616137935855039
 40
0.3228456474731053
 40
0.4840154534938038
 40
0.645444610912065
 40
0.8071862378282576
 40
0.9685277193957055
 40
1.0
 40
1.0
 40
1.0
 40
1.0
 10
39.68750000000001
 20
-1.409055153395112
 30
0.0
 10
39.43702878228041
 20
-1.355384544487746
 30
0.0
 10
38.9366782820907
 20
-1.248170165698925
 30
0.0
 10
38.18693731983058
 20
-0.9918505340813777
 30
0.0
 10
37.4374916145391
 20
-0.6836073604529282
 30
0.0
 10
36.6870847641558
 20
-0.332982679867923
 30
0.0
 10
35.9360116438631
 20
0.0332952098385065
 30
0.0
 10
35.38674630889363
 20
0.3081639948265562
 30
0.0
 10
35.08807459395875
 20
0.442930023444534
 30
0.0
 10
35.03932350941416
 20
0.4649273861888669
 30
0.0
1001
PE_URL
1000

  0
LINE
  5
BE
330
1F
100
AcDbEntity
  8
0
  6
Continuous
 62
     1
370
    15
100
AcDbLine
 10
39.68749999999994
 20
-1.694749083643848
 30
0.0
 11
39.68750000000001
 21
-1.409055153395112
 31
0.0
1001
PE_URL
1000

  0
LINE
  5
BF
330
1F
100
AcDbEntity
  8
0
  6
Continuous
 62
     1
370
    15
100
AcDbLine
 10
39.68750000000001
 20
-1.784428052824193
 30
0.0
 11
39.68749999999993
 21
-1.694749083643843
 31
0.0
1001
PE_URL
1000

  0
SPLINE
  5
C0
330
1F
100
AcDbEntity
  8
0
  6
Continuous
 62
     1
370
    15
100
AcDbSpline
210
0.0
220
0.0
230
1.0
 70
     8
 71
     3
 72
     8
 73
     4
 74
     0
 42
0.000000001
 43
0.00000001
 40
0.0
 40
0.0
 40
0.0
 40
0.0
 40
1.0
 40
1.0
 40
1.0
 40
1.0
 10
38.58185610163611
 20
0.5001697058188415
 30
0.0
 10
38.51861190382928
 20
0.5750934330415692
 30
0.0
 10
38.46215597961277
 20
0.647226435389159
 30
0.0
 10
38.41409004714623
 20
0.7159102310471094
 30
0.0
1001
PE_URL
1000

  0
LINE
  5
C1
330
1F
100
AcDbEntity
  8
0
  6
Continuous
 62
     1
370
    15
100
AcDbLine
 10
38.43671237855564
 20
0.7348926209891078
 30
0.0
 11
39.68750000000001
 21
0.000000000000001
 31
0.0
1001
PE_URL
1000

  0
LINE
  5
C2
330
1F
100
AcDbEntity
  8
0
  6
Continuous
 62
     1
370
    15
100
AcDbLine
 10
39.68750000000001
 20
0.000000000000001
 30
0.0
 11
39.68750000000001
 21
-0.4772791989248179
 31
0.0
1001
PE_URL
1000

  0
SPLINE
  5
C3
330
1F
100
AcDbEntity
  8
0
  6
Continuous
 62
     1
370
    15
100
AcDbSpline
210
0.0
220
0.0
230
1.0
 70
     8
 71
     3
 72
    10
 73
     6
 74
     0
 42
0.000000001
 43
0.00000001
 40
0.0
 40
0.0
 40
0.0
 40
0.0
 40
0.5
 40
0.5
 40
1.0
 40
1.0
 40
1.0
 40
1.0
 10
39.68750000000002
 20
-0.4772791989248187
 30
0.0
 10
39.49610029268923
 20
-0.3268046018107809
 30
0.0
 10
39.30790107205847
 20
-0.170154981573
 30
0.0
 10
38.93805667289952
 20
0.1557896361788854
 30
0.0
 10
38.75469088418343
 20
0.3268069389701385
 30
0.0
 10
38.58185610163611
 20
0.5001697058188476
 30
0.0
1001
PE_URL
1000

  0
SPLINE
  5
C4
330
1F
100
AcDbEntity
  8
0
  6
Continuous
 62
     1
370
    15
100
AcDbSpline
210
0.0
220
0.0
230
1.0
 70
     8
 71
     3
 72
    12
 73
     8
 74
     0
 42
0.000000001
 43
0.00000001
 40
0.0
 40
0.0
 40
0.0
 40
0.0
 40
0.2303147152043453
 40
0.4606371559713106
 40
0.7038143383178502
 40
0.947001651117125
 40
1.0
 40
1.0
 40
1.0
 40
1.0
 10
38.58185610163611
 20
0.5001697058188468
 30
0.0
 10
38.26613381128404
 20
0.632045054377723
 30
0.0
 10
37.63467864014792
 20
0.8958001750567852
 30
0.0
 10
36.66987916694394
 20
1.204092243671476
 30
0.0
 10
35.68736396555944
 20
1.390690459281685
 30
0.0
 10
34.94795540978973
 20
1.457581698950645
 30
0.0
 10
34.54191207499238
 20
1.414326360516191
 30
0.0
 10
34.46925620705827
 20
1.406586412861817
 30
0.0
1001
PE_URL
1000

  0
SPLINE
  5
C5
330
1F
100
AcDbEntity
  8
0
  6
Continuous
 62
     1
370
    15
100
AcDbSpline
210
0.0
220
0.0
230
1.0
 70
    24
 71
     3
 72
    10
 73
     6
 74
     0
 42
0.000000001
 43
0.00000001
 40
0.0
 40
0.0
 40
0.0
 40
0.0
 40
0.5000000000000001
 40
0.5000000000000001
 40
1.0
 40
1.0
 40
1.0
 40
1.0
 10
39.68750000000001
 20
-1.409055153395111
 30
0.0
 10
39.68750000000001
 20
-1.301040090048984
 30
0.0
 10
39.68750000000002
 20
-1.16455891578921
 30
0.0
 10
39.68750000000002
 20
-0.8472533204831685
 30
0.0
 10
39.68750000000002
 20
-0.6667037615744497
 30
0.0
 10
39.68750000000002
 20
-0.4772791989248766
 30
0.0
1001
PE_URL
1000

  0
SPLINE
  5
C6
330
1F
100
AcDbEntity
  8
0
  6
Continuous
 62
     1
370
    15
100
AcDbSpline
210
0.0
220
0.0
230
1.0
 70
     8
 71
     3
 72
    12
 73
     8
 74
     0
 42
0.000000001
 43
0.00000001
 40
0.0
 40
0.0
 40
0.0
 40
0.0
 40
0.1094128605694732
 40
0.3426920169550667
 40
0.576452275367161
 40
0.810431630192589
 40
0.9999999999999999
 40
0.9999999999999999
 40
0.9999999999999999
 40
0.9999999999999999
 10
31.78673937765924
 20
-1.475002537912484
 30
0.0
 10
31.66961817920273
 20
-1.489089566739231
 30
0.0
 10
31.30278287740774
 20
-1.533211549259528
 30
0.0
 10
30.68576552300961
 20
-1.512967347932912
 30
0.0
 10
29.93513760956692
 20
-1.416553017571005
 30
0.0
 10
29.23099218841001
 20
-1.247919567818573
 30
0.0
 10
28.77782515968989
 20
-1.091920076292488
 30
0.0
 10
28.57500000000001
 20
-1.022098973310479
 30
0.0
1001
PE_URL
1000

  0
SPLINE
  5
C7
330
1F
100
AcDbEntity
  8
0
  6
Continuous
 62
     1
370
    15
100
AcDbSpline
210
0.0
220
0.0
230
1.0
 70
     8
 71
     3
 72
    15
 73
    11
 74
     0
 42
0.000000001
 43
0.00000001
 40
0.0
 40
0.0
 40
0.0
 40
0.0
 40
0.0303915135224439
 40
0.1667462470319246
 40
0.3031062351234349
 40
0.4394710500951596
 40
0.5758402622617624
 40
0.7122134401279542
 40
0.8560970355254074
 40
1.0
 40
1.0
 40
1.0
 40
1.0
 10
35.91029961972886
 20
-1.330522405806434
 30
0.0
 10
35.83599320846947
 20
-1.345894692547687
 30
0.0
 10
35.42830323940089
 20
-1.430236366433381
 30
0.0
 10
34.68721152700341
 20
-1.445169620971452
 30
0.0
 10
33.68701188956702
 20
-1.357772744331168
 30
0.0
 10
32.68677507562791
 20
-1.118404457831375
 30
0.0
 10
31.68648925131261
 20
-0.7657972219093778
 30
0.0
 10
30.66786364923519
 20
-0.3263528501140021
 30
0.0
 10
29.63062764755993
 20
0.1627938004053275
 30
0.0
 10
28.92689167051281
 20
0.4693268719929406
 30
0.0
 10
28.57500000000002
 20
0.6226037231793633
 30
0.0
1001
PE_URL
1000

  0
SPLINE
  5
C8
330
1F
100
AcDbEntity
  8
외형선
  6
Continuous
370
    15
100
AcDbSpline
210
0.0
220
0.0
230
1.0
 70
    24
 71
     3
 72
    10
 73
     6
 74
     0
 42
0.000000001
 43
0.00000001
 40
0.0
 40
0.0
 40
0.0
 40
0.0
 40
0.5
 40
0.5
 40
1.0
 40
1.0
 40
1.0
 40
1.0
 10
28.575
 20
0.6226037231793695
 30
0.0
 10
28.575
 20
0.3624528542691531
 30
0.0
 10
28.575
 20
0.0696671610851383
 30
0.0
 10
28.575
 20
-0.5052379305314418
 30
0.0
 10
28.575
 20
-0.7848827127035127
 30
0.0
 10
28.575
 20
-1.022098973310475
 30
0.0
  0
SPLINE
  5
C9
330
1F
100
AcDbEntity
  8
0
  6
Continuous
 62
     1
370
    15
100
AcDbSpline
210
0.0
220
0.0
230
1.0
 70
    24
 71
     3
 72
     8
 73
     4
 74
     0
 42
0.000000001
 43
0.00000001
 40
0.0
 40
0.0
 40
0.0
 40
0.0
 40
1.0
 40
1.0
 40
1.0
 40
1.0
 10
38.60063864972746
 20
0.8724430946696506
 30
0.0
 10
38.54168395548606
 20
0.8229742324755237
 30
0.0
 10
38.4793089417671
 20
0.7706353814692605
 30
0.0
 10
38.4140900471463
 20
0.7159102310471483
 30
0.0
1001
PE_URL
1000

  0
LINE
  5
CA
330
1F
100
AcDbEntity
  8
0
  6
Continuous
 62
     1
370
    15
100
AcDbLine
 10
39.68750000000001
 20
1.250156249999999
 30
0.0
 11
39.01978406546974
 21
1.206900051246329
 31
0.0
1001
PE_URL
1000

  0
SPLINE
  5
CB
330
1F
100
AcDbEntity
  8
0
  6
Continuous
 62
     1
370
    15
100
AcDbSpline
210
0.0
220
0.0
230
1.0
 70
     8
 71
     3
 72
     8
 73
     4
 74
     0
 42
0.000000001
 43
0.00000001
 40
0.0
 40
0.0
 40
0.0
 40
0.0
 40
1.0
 40
1.0
 40
1.0
 40
1.0
 10
39.68750000000001
 20
1.250156250000001
 30
0.0
 10
39.32017525925898
 20
1.150382583531579
 30
0.0
 10
38.95636444133694
 20
1.027885928108335
 30
0.0
 10
38.60063864973864
 20
0.872443094674539
 30
0.0
1001
PE_URL
1000

  0
SPLINE
  5
CC
330
1F
100
AcDbEntity
  8
외형선
  6
Continuous
370
    15
100
AcDbSpline
210
0.0
220
0.0
230
1.0
 70
    24
 71
     3
 72
    12
 73
     8
 74
     0
 42
0.000000001
 43
0.00000001
 40
0.0
 40
0.0
 40
0.0
 40
0.0
 40
0.1331101386793771
 40
0.3478582086681913
 40
0.5688339872347488
 40
0.7844169936173745
 40
1.0
 40
1.0
 40
1.0
 40
1.0
 10
28.57500000000002
 20
1.172944766398205
 30
0.0
 10
28.57500000000002
 20
1.173772970464873
 30
0.0
 10
28.57500000000002
 20
1.175937325381044
 30
0.0
 10
28.57500000000002
 20
1.116805392737463
 30
0.0
 10
28.57500000000002
 20
1.00370451344096
 30
0.0
 10
28.57500000000002
 20
0.8397102007392925
 30
0.0
 10
28.57500000000002
 20
0.6949725490326732
 30
0.0
 10
28.57500000000002
 20
0.6226037231793637
 30
0.0
  0
SPLINE
  5
CD
330
1F
100
AcDbEntity
  8
0
  6
Continuous
 62
     1
370
    15
100
AcDbSpline
210
0.0
220
0.0
230
1.0
 70
     8
 71
     3
 72
    12
 73
     8
 74
     0
 42
0.000000001
 43
0.00000001
 40
0.0
 40
0.0
 40
0.0
 40
0.0
 40
0.1095111020921483
 40
0.3321331958501152
 40
0.5547553813701186
 40
0.7773776517285023
 40
0.9999999999999999
 40
0.9999999999999999
 40
0.9999999999999999
 40
0.9999999999999999
 10
32.96795256352141
 20
-1.405897388626554
 30
0.0
 10
32.8075935694409
 20
-1.465287192655209
 30
0.0
 10
32.32124520685703
 20
-1.645408888411235
 30
0.0
 10
31.50890724669297
 20
-1.783419601370544
 30
0.0
 10
30.53093857020831
 20
-1.797992238129077
 30
0.0
 10
29.5529694462431
 20
-1.636089651625353
 30
0.0
 10
28.90098985344425
 20
-1.398610267166359
 30
0.0
 10
28.57500000000006
 20
-1.279870554158667
 30
0.0
1001
PE_URL
1000

  0
SPLINE
  5
CE
330
1F
100
AcDbEntity
  8
외형선
  6
Continuous
370
    15
100
AcDbSpline
210
0.0
220
0.0
230
1.0
 70
    24
 71
     3
 72
     8
 73
     4
 74
     0
 42
0.000000001
 43
0.00000001
 40
0.0
 40
0.0
 40
0.0
 40
0.0
 40
1.0
 40
1.0
 40
1.0
 40
1.0
 10
28.57500000000002
 20
-1.02209897331048
 30
0.0
 10
28.57500000000002
 20
-1.104280816796938
 30
0.0
 10
28.57500000000002
 20
-1.190740307843003
 30
0.0
 10
28.57500000000002
 20
-1.279870554158196
 30
0.0
  0
SPLINE
  5
CF
330
1F
100
AcDbEntity
  8
0
  6
Continuous
 62
     1
370
    15
100
AcDbSpline
210
0.0
220
0.0
230
1.0
 70
     8
 71
     3
 72
     9
 73
     5
 74
     0
 42
0.000000001
 43
0.00000001
 40
0.0
 40
0.0
 40
0.0
 40
0.0
 40
0.5838221745204037
 40
1.0
 40
1.0
 40
1.0
 40
1.0
 10
28.57499999999999
 20
-1.574099977167092
 30
0.0
 10
28.87117454363831
 20
-1.646241159215223
 30
0.0
 10
29.37847720627121
 20
-1.769808206163027
 30
0.0
 10
29.88578296142192
 20
-1.770568064616408
 30
0.0
 10
30.09691236745383
 20
-1.770884300855208
 30
0.0
1001
PE_URL
1000

  0
SPLINE
  5
D0
330
1F
100
AcDbEntity
  8
0
  6
Continuous
 62
     1
370
    15
100
AcDbSpline
210
0.0
220
0.0
230
1.0
 70
     8
 71
     3
 72
    10
 73
     6
 74
     0
 42
0.000000001
 43
0.00000001
 40
0.0
 40
0.0
 40
0.0
 40
0.0
 40
0.1943225162233637
 40
0.5971617394884086
 40
1.0
 40
1.0
 40
1.0
 40
1.0
 10
37.26007435955831
 20
1.19568725868089
 30
0.0
 10
37.41730894516092
 20
1.265258203330151
 30
0.0
 10
37.90049782348041
 20
1.479052812066331
 30
0.0
 10
38.7096397502676
 20
1.705709365983275
 30
0.0
 10
39.36154684309047
 20
1.758188511447403
 30
0.0
 10
39.68750000000001
 20
1.784428052824192
 30
0.0
1001
PE_URL
1000

  0
LINE
  5
D1
330
1F
100
AcDbEntity
  8
0
  6
Continuous
 62
     1
370
    15
100
AcDbLine
 10
39.68750000000001
 20
0.000000000000001
 30
0.0
 11
39.68750000000001
 21
1.250156250000001
 31
0.0
1001
PE_URL
1000

  0
SPLINE
  5
D2
330
1F
100
AcDbEntity
  8
0
  6
Continuous
 62
     1
370
    15
100
AcDbSpline
210
0.0
220
0.0
230
1.0
 70
    24
 71
     3
 72
    10
 73
     6
 74
     0
 42
0.000000001
 43
0.00000001
 40
0.0
 40
0.0
 40
0.0
 40
0.0
 40
0.5
 40
0.5
 40
1.0
 40
1.0
 40
1.0
 40
1.0
 10
39.68750000000001
 20
1.250156249999999
 30
0.0
 10
39.68750000000002
 20
1.325937608641812
 30
0.0
 10
39.68750000000002
 20
1.414002565492366
 30
0.0
 10
39.68750000000001
 20
1.598762607778528
 30
0.0
 10
39.68750000000001
 20
1.694985839251692
 30
0.0
 10
39.68750000000001
 20
1.784428052824192
 30
0.0
1001
PE_URL
1000

  0
LINE
  5
D3
330
1F
100
AcDbEntity
  8
중심선
 62
     1
100
AcDbLine
 10
-42.68750000000001
 20
-0.0000000000000052
 30
0.0
 11
42.6875
 21
0.0000000000000052
 31
0.0
  0
LINE
  5
D4
330
1F
100
AcDbEntity
  8
참조1
100
AcDbLine
 10
0.0
 20
-0.0000000000000048
 30
0.0
 11
0.0000000000000036
 21
-40.00000000000001
 31
0.0
  0
LINE
  5
D5
330
1F
100
AcDbEntity
  8
참조1
100
AcDbLine
 10
0.0000000000000036
 20
-40.00000000000001
 30
0.0
 11
-11.29071559669921
 21
-40.0
 31
0.0
  0
CIRCLE
  5
D6
330
1F
100
AcDbEntity
  8
해칭선
100
AcDbCircle
 10
0.0
 20
0.0
 30
0.0
 40
3.000000000000001
  0
INSERT
  5
D7
330
1F
100
AcDbEntity
  8
0
  6
Continuous
 62
     7
100
AcDbBlockReference
 66
     1
  2
블럭10
 10
-13.94027293212521
 20
-52.04717430164393
 30
0.0
  0
ATTRIB
  5
D8
330
D7
100
AcDbEntity
  8
FORMAT
 62
     2
100
AcDbText
 10
-23.12156822086649
 20
-49.97180738881174
 30
0.0
 40
4.233333333333333
  1
E2050009 [ 2 FLUTE ]
 41
0.75
  7
SLDTEXTSTYLE0
 11
-23.12156822086649
 21
-52.08847405547841
 31
0.0
100
AcDbAttribute
  2
AUTOATTR0
 70
     0
 74
     1
  0
SEQEND
  5
D9
330
D7
100
AcDbEntity
  8
0
  6
Continuous
 62
     7
  0
HATCH
  5
DA
330
1F
100
AcDbEntity
  8
중심선
100
AcDbHatch
 10
0.0
 20
0.0
 30
0.0
210
0.0
220
0.0
230
1.0
  2
SOLID
 70
     1
 71
     0
 91
        1
 92
        0
 93
        4
 72
     1
 10
-8.225363627744358
 20
-35.8
 11
-11.67163887158164
 21
-35.8
 72
     1
 10
-11.67163887158164
 20
-35.8
 11
-13.79986873078566
 21
-38.3363255805726
 72
     1
 10
-13.79986873078566
 20
-38.3363255805726
 11
-10.35356040183523
 21
-38.33628615127011
 72
     1
 10
-10.35356040183523
 20
-38.33628615127011
 11
-8.225363627744358
 21
-35.8
 97
        0
 75
     0
 76
     1
 98
        1
 10
18.16921167873052
 20
-0.001074928723894
  0
HATCH
  5
DB
330
1F
100
AcDbEntity
  8
중심선
100
AcDbHatch
 10
0.0
 20
0.0
 30
0.0
210
0.0
220
0.0
230
1.0
  2
SOLID
 70
     1
 71
     0
 91
        1
 92
        0
 93
        4
 72
     1
 10
-3.212599636708404
 20
-35.80000000000003
 11
-6.658874880545689
 21
-35.8
 72
     1
 10
-6.658874880545689
 20
-35.8
 11
-11.19001288890308
 21
-41.20000000000002
 72
     1
 10
-11.19001288890308
 20
-41.20000000000002
 11
-7.743737645065796
 21
-41.20000000000002
 72
     1
 10
-7.743737645065796
 20
-41.20000000000002
 11
-3.212599636708404
 21
-35.80000000000003
 97
        0
 75
     0
 76
     1
 98
        1
 10
18.16921167873052
 20
-0.001074928723894
  0
HATCH
  5
DC
330
1F
100
AcDbEntity
  8
중심선
100
AcDbHatch
 10
0.0
 20
0.0
 30
0.0
210
0.0
220
0.0
230
1.0
  2
SOLID
 70
     1
 71
     0
 91
        1
 92
        0
 93
        4
 72
     1
 10
1.800164354327489
 20
-35.8
 11
-1.646110889509625
 21
-35.79999999999998
 72
     1
 10
-1.646110889509625
 20
-35.79999999999998
 11
-8.694547791398875
 21
-44.20000000000002
 72
     1
 10
-8.694547791398875
 20
-44.20000000000002
 11
-5.248272547561594
 21
-44.20000000000002
 72
     1
 10
-5.248272547561594
 20
-44.20000000000002
 11
1.800164354327489
 21
-35.8
 97
        0
 75
     0
 76
     1
 98
        1
 10
18.16921167873052
 20
-0.001074928723894
  0
HATCH
  5
DD
330
1F
100
AcDbEntity
  8
중심선
100
AcDbHatch
 10
0.0
 20
0.0
 30
0.0
210
0.0
220
0.0
230
1.0
  2
SOLID
 70
     1
 71
     0
 91
        1
 92
        0
 93
        6
 72
     3
 10
6.600054785339688
 20
-40.00000000005127
 11
3.960054785062283
 21
1.540882976769353E-10
 40
0.3939339440162628
 50
17.09539180608436
 51
320.0019657685077
 73
     0
 72
     1
 10
8.283054441040257
 20
-38.5878940046383
 11
10.58835631474135
 21
-36.65356729459038
 72
     3
 10
6.600054785286842
 20
-40.00000000000015
 11
6.600054785286829
 21
-1.278976924368180E-13
 40
0.636358354079598
 50
39.99873849337385
 51
368.4976242363724
 73
     1
 72
     1
 10
13.02538727718745
 20
-39.03999999993002
 11
5.280122092122765
 21
-39.03999999993002
 72
     1
 10
5.280122092122765
 20
-39.03999999993002
 11
5.280097047676831
 21
-40.95999999992991
 72
     1
 10
5.280097047676831
 20
-40.95999999992991
 11
9.721476817148869
 21
-40.95999999992988
 97
        0
 75
     0
 76
     1
 98
        1
 10
18.16921167873052
 20
-0.001074928723894
  0
DIMENSION
  5
DE
330
1F
100
AcDbEntity
  8
치수문자_일반주서
100
AcDbDimension
  2
_D
 10
-49.68749999999994
 20
-4.762500000000127
 30
0.0
 11
-49.68750000000004
 21
24.49149999999996
 31
0.0
 70
   160
  1
%%c<>
 71
     2
 42
9.525000000000002
 52
-270.0
  3
SLDDIMSTYLE0
100
AcDbAlignedDimension
 13
-16.4663175180958
 23
4.762499999999999
 33
0.0
 14
-16.61870852528141
 24
-4.762500000000003
 34
0.0
 50
90.0000000000002
100
AcDbRotatedDimension
1001
PE_URL
1000

1001
ACAD
1000
DSTYLE
1002
{
1070
   171
1070
     8
1070
   273
1070
     7
1002
}
  0
DIMENSION
  5
F3
330
1F
100
AcDbEntity
  8
치수문자_일반주서
100
AcDbDimension
  2
_D_1
 10
77.89700317299484
 20
1.784428052824335
 30
0.0
 11
77.89700317299476
 21
22.82592805282433
 31
0.0
 70
   160
  1
%%c<>
 71
     2
 42
3.568856105648385
 52
-270.0
  3
SLDDIMSTYLE0
100
AcDbAlignedDimension
 13
39.68750000000001
 23
-1.784428052824193
 33
0.0
 14
39.68750000000001
 24
1.784428052824192
 34
0.0
 50
90.0000000000002
100
AcDbRotatedDimension
1001
PE_URL
1000

1001
ACAD
1000
DSTYLE
1002
{
1070
   171
1070
     8
1070
   273
1070
     7
1002
}
  0
DIMENSION
  5
107
330
1F
100
AcDbEntity
  8
치수문자_일반주서
100
AcDbDimension
  2
_D_2
 10
28.57500000000002
 20
14.7625
 30
0.0
 11
58.54150000000001
 21
14.7625
 31
0.0
 70
   160
  1
<>
 71
     2
 42
11.1125
  3
SLDDIMSTYLE0
100
AcDbAlignedDimension
 13
39.68750000000001
 23
1.784428052824192
 33
0.0
 14
28.57500000000002
 24
1.179832055377726
 34
0.0
100
AcDbRotatedDimension
1001
PE_URL
1000

1001
ACAD
1000
DSTYLE
1002
{
1070
   171
1070
     8
1070
   273
1070
     7
1002
}
  0
DIMENSION
  5
11C
330
1F
100
AcDbEntity
  8
치수문자_일반주서
100
AcDbDimension
  2
_D_3
 10
39.68750000000001
 20
24.7625
 30
0.0
 11
0.0000000000000142
 21
24.7625
 31
0.0
 70
   160
  1
<>
 71
     2
 42
79.37500000000001
  3
SLDDIMSTYLE0
100
AcDbAlignedDimension
 13
-39.6875
 23
1.784428052824172
 33
0.0
 14
39.68750000000001
 24
1.784428052824192
 34
0.0
100
AcDbRotatedDimension
1001
PE_URL
1000

1001
ACAD
1000
DSTYLE
1002
{
1070
   171
1070
     8
1070
   273
1070
     7
1002
}
  0
LINE
  5
12F
330
1F
100
AcDbEntity
  8
참조1
100
AcDbLine
 10
86.68162503295505
 20
7.440000000000001
 30
0.0
 11
86.68162503295505
 21
-7.440000000000003
 31
0.0
  0
LINE
  5
130
330
1F
100
AcDbEntity
  8
참조1
100
AcDbLine
 10
99.38162503295506
 20
5.440000000000001
 30
0.0
 11
86.68162503295505
 21
5.440000000000001
 31
0.0
  0
SOLID
  5
131
330
1F
100
AcDbEntity
  8
참조1
100
AcDbTrace
 10
86.68162503295505
 20
5.440000000000001
 30
0.0
 11
93.03162503295505
 21
4.424000000000001
 31
0.0
 12
93.03162503295505
 22
6.456000000000001
 32
0.0
 13
93.03162503295505
 23
6.456000000000001
 33
0.0
  0
LINE
  5
132
330
1F
100
AcDbEntity
  8
참조1
100
AcDbLine
 10
99.38162503295506
 20
-5.440000000000003
 30
0.0
 11
86.68162503295505
 21
-5.440000000000003
 31
0.0
  0
SOLID
  5
133
330
1F
100
AcDbEntity
  8
참조1
100
AcDbTrace
 10
86.68162503295505
 20
-5.440000000000003
 30
0.0
 11
93.03162503295505
 21
-6.456000000000003
 31
0.0
 12
93.03162503295505
 22
-4.424000000000003
 32
0.0
 13
93.03162503295505
 23
-4.424000000000003
 33
0.0
  0
MTEXT
  5
134
330
1F
100
AcDbEntity
  8
참조1
100
AcDbMText
 10
96.06597516558105
 20
11.01029177718833
 30
0.0
 40
3.5
 41
0.0
 71
     1
 72
     1
  1
A
  7
SLDTEXTSTYLE0
 73
     1
 44
1.0
  0
MTEXT
  5
135
330
1F
100
AcDbEntity
  8
참조1
100
AcDbMText
 10
96.06597516558105
 20
0.1302917771883252
 30
0.0
 40
3.5
 41
0.0
 71
     1
 72
     1
  1
A
  7
SLDTEXTSTYLE0
 73
     1
 44
1.0
  0
INSERT
  5
13C
330
1F
100
AcDbEntity
  8
해칭선
100
AcDbBlockReference
  2
SW_DOWELSYMBOL_0
 10
0.0
 20
0.0
 30
0.0
  0
LINE
  5
1F9
330
1F
100
AcDbEntity
  8
외형선
  6
Continuous
370
    15
100
AcDbLine
 10
-16.4663175180958
 20
4.762499999999996
 30
0.0
 11
-27.57500000000001
 21
1.785937499999989
 31
0.0
  0
LINE
  5
1FA
330
1F
100
AcDbEntity
  8
외형선
  6
Continuous
370
    15
100
AcDbLine
 10
-27.57500000000001
 20
-1.78593750000001
 30
0.0
 11
-16.4663175180958
 21
-4.762500000000003
 31
0.0
  0
LINE
  5
1FB
330
1F
100
AcDbEntity
  8
외형선
  6
Continuous
370
    15
100
AcDbLine
 10
-27.68507607781771
 20
-1.78593750000001
 30
0.0
 11
-27.57500000000001
 21
-1.78593750000001
 31
0.0
  0
LINE
  5
1FC
330
1F
100
AcDbEntity
  8
외형선
  6
Continuous
370
    15
100
AcDbLine
 10
-27.57500000000001
 20
1.785937499999989
 30
0.0
 11
-27.68507607781771
 21
1.785937499999989
 31
0.0
  0
SPLINE
  5
1FD
330
1F
100
AcDbEntity
  8
외형선
  6
Continuous
370
    15
100
AcDbSpline
210
0.0
220
0.0
230
1.0
 70
     8
 71
     3
 72
     9
 73
     5
 74
     0
 42
0.000000001
 43
0.00000001
 40
0.0
 40
0.0
 40
0.0
 40
0.0
 40
0.4390593900418358
 40
1.0
 40
1.0
 40
1.0
 40
1.0
 10
-28.57500000000001
 20
-1.17983205408192
 30
0.0
 10
-28.44462542809815
 20
-1.177307016474263
 30
0.0
 10
-28.14768479806305
 20
-1.171556000404625
 30
0.0
 10
-27.85133175122065
 20
-1.182118502764943
 30
0.0
 10
-27.68509529236192
 20
-1.188043439281628
 30
0.0
  0
ARC
  5
1FE
330
1F
100
AcDbEntity
  8
외형선
  6
Continuous
370
    15
100
AcDbCircle
 10
-28.03507601829274
 20
1.527082244108271
 30
0.0
 40
0.3499999404751118
100
AcDbArc
 50
319.6328616380825
 51
359.9983159818273
  0
LINE
  5
1FF
330
1F
100
AcDbEntity
  8
0
  6
Continuous
 62
     1
370
    15
100
AcDbLine
 10
-34.2232685705067
 20
-0.4201341071491562
 30
0.0
 11
-34.05265336612965
 21
-0.5135689059096578
 31
0.0
1001
PE_URL
1000

  0
SPLINE
  5
200
330
1F
100
AcDbEntity
  8
0
  6
Continuous
 62
     1
370
    15
100
AcDbSpline
210
0.0
220
0.0
230
1.0
 70
     8
 71
     3
 72
     9
 73
     5
 74
     0
 42
0.000000001
 43
0.00000001
 40
0.0
 40
0.0
 40
0.0
 40
0.0
 40
0.4370881614461247
 40
1.0
 40
1.0
 40
1.0
 40
1.0
 10
-35.05943118440601
 20
-0.4578040896811544
 30
0.0
 10
-34.98756251416503
 20
-0.4920950878086927
 30
0.0
 10
-34.82313648623693
 20
-0.5705483637200892
 30
0.0
 10
-34.6587284083404
 20
-0.6567584328258924
 30
0.0
 10
-34.56618115493855
 20
-0.7052871013280999
 30
0.0
1001
PE_URL
1000

  0
LINE
  5
201
330
1F
100
AcDbEntity
  8
0
  6
Continuous
 62
     1
370
    15
100
AcDbLine
 10
-30.96233945668454
 20
-1.785937500000014
 30
0.0
 11
-30.0969123674538
 21
-1.785937500000014
 31
0.0
1001
PE_URL
1000

  0
SPLINE
  5
202
330
1F
100
AcDbEntity
  8
0
  6
Continuous
 62
     1
370
    15
100
AcDbSpline
210
0.0
220
0.0
230
1.0
 70
     8
 71
     3
 72
    12
 73
     8
 74
     0
 42
0.000000001
 43
0.00000001
 40
0.0
 40
0.0
 40
0.0
 40
0.0
 40
0.3066501817122487
 40
0.515962083490271
 40
0.6933696082433409
 40
0.8881552267169133
 40
0.9999999999999999
 40
0.9999999999999999
 40
0.9999999999999999
 40
0.9999999999999999
 10
-34.47066176493243
 20
-1.41917470514619
 30
0.0
 10
-34.3188552490747
 20
-1.412143598437261
 30
0.0
 10
-34.06342932442011
 20
-1.400313230535563
 30
0.0
 10
-33.7150596342416
 20
-1.394506907680594
 30
0.0
 10
-33.42071099364384
 20
-1.394635337807941
 30
0.0
 10
-33.17786188139728
 20
-1.398182496908078
 30
0.0
 10
-33.02485560355321
 20
-1.403556400711082
 30
0.0
 10
-32.96904589611254
 20
-1.405516555570649
 30
0.0
1001
PE_URL
1000

  0
SPLINE
  5
203
330
1F
100
AcDbEntity
  8
0
  6
Continuous
 62
     1
370
    15
100
AcDbSpline
210
0.0
220
0.0
230
1.0
 70
     8
 71
     3
 72
    15
 73
    11
 74
     0
 42
0.000000001
 43
0.00000001
 40
0.0
 40
0.0
 40
0.0
 40
0.0
 40
0.1978829012336541
 40
0.3467551827264713
 40
0.4788382071562666
 40
0.5481634103884651
 40
0.6053892090002968
 40
0.6828263054518409
 40
0.8136429942784474
 40
1.0
 40
1.0
 40
1.0
 40
1.0
 10
-31.78483757659833
 20
1.486139483322031
 30
0.0
 10
-31.95846410819411
 20
1.469751525037239
 30
0.0
 10
-32.26271424458445
 20
1.441034493731699
 30
0.0
 10
-32.69920975180096
 20
1.415534806816293
 30
0.0
 10
-33.01415783029969
 20
1.402785479365953
 30
0.0
 10
-33.24542014558834
 20
1.397401907161566
 30
0.0
 10
-33.42602322029218
 20
1.394906766183432
 30
0.0
 10
-33.6627092919114
 20
1.39419094710108
 30
0.0
 10
-34.01678645738822
 20
1.398612959464469
 30
0.0
 10
-34.30268224900702
 20
1.411564791082142
 30
0.0
 10
-34.47066176493243
 20
1.419174705146155
 30
0.0
1001
PE_URL
1000

  0
SPLINE
  5
204
330
1F
100
AcDbEntity
  8
0
  6
Continuous
 62
     1
370
    15
100
AcDbSpline
210
0.0
220
0.0
230
1.0
 70
     8
 71
     3
 72
    20
 73
    16
 74
     0
 42
0.000000001
 43
0.00000001
 40
0.0
 40
0.0
 40
0.0
 40
0.0
 40
0.1316879273185363
 40
0.2201311092636437
 40
0.2767098910266353
 40
0.3341105326421623
 40
0.3929513848616183
 40
0.451486874214179
 40
0.5104725044973463
 40
0.5795992737207822
 40
0.6487231137439489
 40
0.7167842926315354
 40
0.7813035893874188
 40
0.8667657285865429
 40
1.0
 40
1.0
 40
1.0
 40
1.0
 10
-39.02326949910717
 20
-1.221499854799752
 30
0.0
 10
-38.88566421181052
 20
-1.210860440405824
 30
0.0
 10
-38.65564157306183
 20
-1.193075468463888
 30
0.0
 10
-38.36792514754704
 20
-1.181445320399298
 30
0.0
 10
-38.15874360935175
 20
-1.176466521748541
 30
0.0
 10
-37.97921842898026
 20
-1.174835795371482
 30
0.0
 10
-37.79743202873229
 20
-1.175880639716112
 30
0.0
 10
-37.61423533452044
 20
-1.179755158765303
 30
0.0
 10
-37.42005303358571
 20
-1.186746681295698
 30
0.0
 10
-37.21480547590616
 20
-1.197425368961159
 30
0.0
 10
-37.00019185108479
 20
-1.212267784081906
 30
0.0
 10
-36.79028704911514
 20
-1.230435841194996
 30
0.0
 10
-36.56571597911551
 20
-1.253581551019685
 30
0.0
 10
-36.27181224572671
 20
-1.288119897479621
 30
0.0
 10
-36.0428269504869
 20
-1.322392677017746
 30
0.0
 10
-35.90332448270421
 20
-1.343272346685321
 30
0.0
1001
PE_URL
1000

  0
SPLINE
  5
205
330
1F
100
AcDbEntity
  8
0
  6
Continuous
 62
     1
370
    15
100
AcDbSpline
210
0.0
220
0.0
230
1.0
 70
     8
 71
     3
 72
    13
 73
     9
 74
     0
 42
0.000000001
 43
0.00000001
 40
0.0
 40
0.0
 40
0.0
 40
0.0
 40
0.3063563466655466
 40
0.5028663621856364
 40
0.6512208045814959
 40
0.8077193833071309
 40
0.9666614248129178
 40
1.0
 40
1.0
 40
1.0
 40
1.0
 10
-35.90332448270421
 20
1.343272346685289
 30
0.0
 10
-36.04282692917121
 20
1.322389675432436
 30
0.0
 10
-36.27181218942255
 20
1.288111968964341
 30
0.0
 10
-36.56571610062537
 20
1.253598661525832
 30
0.0
 10
-36.79028670459275
 20
1.230387327003257
 30
0.0
 10
-37.00019324008121
 20
1.212463376704964
 30
0.0
 10
-37.15797595148991
 20
1.200861709992868
 30
0.0
 10
-37.24498780851844
 20
1.196451860453795
 30
0.0
 10
-37.2600743595583
 20
1.195687258680874
 30
0.0
1001
PE_URL
1000

  0
SPLINE
  5
206
330
1F
100
AcDbEntity
  8
0
  6
Continuous
 62
     1
370
    15
100
AcDbSpline
210
0.0
220
0.0
230
1.0
 70
     8
 71
     3
 72
     9
 73
     5
 74
     0
 42
0.000000001
 43
0.00000001
 40
0.0
 40
0.0
 40
0.0
 40
0.0
 40
0.4980579608929105
 40
1.0
 40
1.0
 40
1.0
 40
1.0
 10
-29.30527733228659
 20
-1.221500261548389
 30
0.0
 10
-29.1837641201139
 20
-1.2118736173773
 30
0.0
 10
-28.93979008152039
 20
-1.19254525616844
 30
0.0
 10
-28.69691114743233
 20
-1.184080747049247
 30
0.0
 10
-28.57500000000001
 20
-1.17983205408192
 30
0.0
1001
PE_URL
1000

  0
LINE
  5
207
330
1F
100
AcDbEntity
  8
0
  6
Continuous
 62
     1
370
    15
100
AcDbLine
 10
-30.09691236745382
 20
1.785937499999989
 30
0.0
 11
-30.96233945668454
 21
1.785937499999989
 31
0.0
1001
PE_URL
1000

  0
LINE
  5
208
330
1F
100
AcDbEntity
  8
외형선
  6
Continuous
370
    15
100
AcDbLine
 10
-16.4663175180958
 20
-4.762500000000003
 30
0.0
 11
-16.4663175180958
 21
4.762499999999999
 31
0.0
  0
LINE
  5
209
330
1F
100
AcDbEntity
  8
외형선
  6
Continuous
370
    15
100
AcDbLine
 10
-27.57500000000001
 20
-1.78593750000001
 30
0.0
 11
-27.57500000000001
 21
1.785937499999989
 31
0.0
  0
SPLINE
  5
20A
330
1F
100
AcDbEntity
  8
외형선
  6
Continuous
370
    15
100
AcDbSpline
210
0.0
220
0.0
230
1.0
 70
     8
 71
     3
 72
    10
 73
     6
 74
     0
 42
0.000000001
 43
0.00000001
 40
0.0
 40
0.0
 40
0.0
 40
0.0
 40
0.5
 40
0.5
 40
1.0
 40
1.0
 40
1.0
 40
1.0
 10
-28.57499999999997
 20
-1.574099977167101
 30
0.0
 10
-28.42573460015744
 20
-1.533548353942738
 30
0.0
 10
-28.27614589256923
 20
-1.487485648794763
 30
0.0
 10
-27.98093669195034
 20
-1.385878763679511
 30
0.0
 10
-27.83414350739925
 20
-1.330239505096305
 30
0.0
 10
-27.68507607781771
 20
-1.269907787947634
 30
0.0
  0
SPLINE
  5
20B
330
1F
100
AcDbEntity
  8
외형선
  6
Continuous
370
    15
100
AcDbSpline
210
0.0
220
0.0
230
1.0
 70
     8
 71
     3
 72
    10
 73
     6
 74
     0
 42
0.000000001
 43
0.00000001
 40
0.0
 40
0.0
 40
0.0
 40
0.0
 40
0.5
 40
0.5
 40
1.0
 40
1.0
 40
1.0
 40
1.0
 10
-28.57499999999997
 20
1.279870554158627
 30
0.0
 10
-28.42574791736427
 20
1.22000562741934
 30
0.0
 10
-28.2761725830376
 20
1.155641958679865
 30
0.0
 10
-27.98098901577488
 20
1.019998786022644
 30
0.0
 10
-27.83420973616307
 20
0.9485694758357184
 30
0.0
 10
-27.68515587501127
 20
0.8737417943805958
 30
0.0
  0
LINE
  5
20C
330
1F
100
AcDbEntity
  8
외형선
  6
Continuous
370
    15
100
AcDbLine
 10
-28.57500000000001
 20
1.279870554158638
 30
0.0
 11
-28.57500000000001
 21
1.574099977167091
 31
0.0
  0
SPLINE
  5
20D
330
1F
100
AcDbEntity
  8
외형선
  6
Continuous
370
    15
100
AcDbSpline
210
0.0
220
0.0
230
1.0
 70
     8
 71
     3
 72
    10
 73
     6
 74
     0
 42
0.000000001
 43
0.00000001
 40
0.0
 40
0.0
 40
0.0
 40
0.0
 40
0.5
 40
0.5
 40
1.0
 40
1.0
 40
1.0
 40
1.0
 10
-28.57499999999997
 20
1.57409997716708
 30
0.0
 10
-28.42573460015744
 20
1.533548353942717
 30
0.0
 10
-28.27614589256923
 20
1.487485648794742
 30
0.0
 10
-27.98093669195034
 20
1.385878763679493
 30
0.0
 10
-27.83414350739925
 20
1.330239505096284
 30
0.0
 10
-27.68507607781771
 20
1.269907787947616
 30
0.0
  0
LINE
  5
20E
330
1F
100
AcDbEntity
  8
외형선
  6
Continuous
370
    15
100
AcDbLine
 10
-27.68507607781771
 20
1.785937499999989
 30
0.0
 11
-27.68507607781771
 21
1.269478699963148
 31
0.0
  0
LINE
  5
20F
330
1F
100
AcDbEntity
  8
외형선
  6
Continuous
370
    15
100
AcDbLine
 10
-27.68507607781771
 20
0.8736750388075301
 30
0.0
 11
-27.68507607781771
 21
-1.78593750000001
 31
0.0
  0
SPLINE
  5
210
330
1F
100
AcDbEntity
  8
외형선
  6
Continuous
370
    15
100
AcDbSpline
210
0.0
220
0.0
230
1.0
 70
    24
 71
     3
 72
     8
 73
     4
 74
     0
 42
0.000000001
 43
0.00000001
 40
0.0
 40
0.0
 40
0.0
 40
0.0
 40
1.0
 40
1.0
 40
1.0
 40
1.0
 10
-28.57500000000001
 20
1.02209897331047
 30
0.0
 10
-28.57500000000001
 20
1.104280816796926
 30
0.0
 10
-28.57500000000001
 20
1.190740307842994
 30
0.0
 10
-28.57500000000001
 20
1.279870554158183
 30
0.0
  0
SPLINE
  5
211
330
1F
100
AcDbEntity
  8
외형선
  6
Continuous
370
    15
100
AcDbSpline
210
0.0
220
0.0
230
1.0
 70
     8
 71
     3
 72
    10
 73
     6
 74
     0
 42
0.000000001
 43
0.00000001
 40
0.0
 40
0.0
 40
0.0
 40
0.0
 40
0.5
 40
0.5
 40
1.0
 40
1.0
 40
1.0
 40
1.0
 10
-28.57499999999994
 20
1.022098973310445
 30
0.0
 10
-28.42574791736424
 20
0.9681549487714776
 30
0.0
 10
-28.27617258303758
 20
0.9106140075707607
 30
0.0
 10
-27.98098901577487
 20
0.7901898865321861
 30
0.0
 10
-27.83420973616306
 20
0.7271704958367415
 30
0.0
 10
-27.68515587501127
 20
0.6615321902487175
 30
0.0
  0
SPLINE
  5
212
330
1F
100
AcDbEntity
  8
외형선
  6
Continuous
370
    15
100
AcDbSpline
210
0.0
220
0.0
230
1.0
 70
    24
 71
     3
 72
    10
 73
     6
 74
     0
 42
0.000000001
 43
0.00000001
 40
0.0
 40
0.0
 40
0.0
 40
0.0
 40
0.5
 40
0.5
 40
1.0
 40
1.0
 40
1.0
 40
1.0
 10
-28.57499999999999
 20
-0.6226037231793811
 30
0.0
 10
-28.57499999999999
 20
-0.362452854269165
 30
0.0
 10
-28.57499999999999
 20
-0.0696671610851496
 30
0.0
 10
-28.57499999999999
 20
0.5052379305314325
 30
0.0
 10
-28.57499999999999
 20
0.784882712703503
 30
0.0
 10
-28.57499999999999
 20
1.022098973310463
 30
0.0
  0
SPLINE
  5
213
330
1F
100
AcDbEntity
  8
외형선
  6
Continuous
370
    15
100
AcDbSpline
210
0.0
220
0.0
230
1.0
 70
     8
 71
     3
 72
    10
 73
     6
 74
     0
 42
0.000000001
 43
0.00000001
 40
0.0
 40
0.0
 40
0.0
 40
0.0
 40
0.5000000000000001
 40
0.5000000000000001
 40
1.0
 40
1.0
 40
1.0
 40
1.0
 10
-28.57499999999992
 20
-0.6226037231794059
 30
0.0
 10
-28.42573946093683
 20
-0.6844121654056075
 30
0.0
 10
-28.27615563458852
 20
-0.7440947607676875
 30
0.0
 10
-27.98095579011977
 20
-0.8574170113134976
 30
0.0
 10
-27.83416768092099
 20
-0.9112295538149233
 30
0.0
 10
-27.6851052038037
 20
-0.9619805912786035
 30
0.0
  0
SPLINE
  5
214
330
1F
100
AcDbEntity
  8
외형선
  6
Continuous
370
    15
100
AcDbSpline
210
0.0
220
0.0
230
1.0
 70
    24
 71
     3
 72
    12
 73
     8
 74
     0
 42
0.000000001
 43
0.00000001
 40
0.0
 40
0.0
 40
0.0
 40
0.0
 40
0.1308602898024051
 40
0.346165697840323
 40
0.5677149772971648
 40
0.7838574886485824
 40
1.0
 40
1.0
 40
1.0
 40
1.0
 10
-28.57500000000001
 20
-1.172883951922866
 30
0.0
 10
-28.57500000000001
 20
-1.173675072744086
 30
0.0
 10
-28.57500000000001
 20
-1.175767830536131
 30
0.0
 10
-28.57500000000001
 20
-1.116772370816133
 30
0.0
 10
-28.57500000000001
 20
-1.003713183057286
 30
0.0
 10
-28.57500000000001
 20
-0.8397080556927143
 30
0.0
 10
-28.57500000000001
 20
-0.6949718340171529
 30
0.0
 10
-28.57500000000001
 20
-0.622603723179374
 30
0.0
  0
SPLINE
  5
215
330
1F
100
AcDbEntity
  8
외형선
  6
Continuous
370
    15
100
AcDbSpline
210
0.0
220
0.0
230
1.0
 70
    24
 71
     3
 72
    11
 73
     7
 74
     0
 42
0.000000001
 43
0.00000001
 40
0.0
 40
0.0
 40
0.0
 40
0.0
 40
0.0985562289536027
 40
0.6135497845502711
 40
0.8937955099588841
 40
1.0
 40
1.0
 40
1.0
 40
1.0
 10
-28.57500000000001
 20
-1.574099977167108
 30
0.0
 10
-28.57500000000001
 20
-1.559161358823918
 30
0.0
 10
-28.57500000000001
 20
-1.466162812072916
 30
0.0
 10
-28.57500000000001
 20
-1.338990620899043
 30
0.0
 10
-28.57500000000001
 20
-1.227343784850589
 30
0.0
 10
-28.57500000000001
 20
-1.19007443902419
 30
0.0
 10
-28.57500000000001
 20
-1.17983205408192
 30
0.0
  0
SPLINE
  5
216
330
1F
100
AcDbEntity
  8
0
  6
Continuous
 62
     1
370
    15
100
AcDbSpline
210
0.0
220
0.0
230
1.0
 70
     8
 71
     3
 72
    46
 73
    42
 74
     0
 42
0.000000001
 43
0.00000001
 40
0.0
 40
0.0
 40
0.0
 40
0.0
 40
0.0624999999999994
 40
0.0624999999999994
 40
0.1249999999999988
 40
0.1249999999999988
 40
0.1562499999999985
 40
0.1562499999999985
 40
0.1874999999999982
 40
0.1874999999999982
 40
0.2499999999999979
 40
0.2499999999999979
 40
0.2812499999999979
 40
0.2812499999999979
 40
0.3124999999999979
 40
0.3124999999999979
 40
0.374999999999998
 40
0.374999999999998
 40
0.4374999999999981
 40
0.4374999999999981
 40
0.4999999999999981
 40
0.4999999999999981
 40
0.5624999999999981
 40
0.5624999999999981
 40
0.5937499999999983
 40
0.5937499999999983
 40
0.6249999999999984
 40
0.6249999999999984
 40
0.6874999999999987
 40
0.6874999999999987
 40
0.7187499999999989
 40
0.7187499999999989
 40
0.749999999999999
 40
0.749999999999999
 40
0.8124999999999992
 40
0.8124999999999992
 40
0.8749999999999996
 40
0.8749999999999996
 40
0.9374999999999998
 40
0.9374999999999998
 40
1.0
 40
1.0
 40
1.0
 40
1.0
 10
-39.6875
 20
1.784428052824172
 30
0.0
 10
-39.45883198957044
 20
1.778956174040495
 30
0.0
 10
-39.22404766304131
 20
1.758376763976806
 30
0.0
 10
-38.75973626457565
 20
1.688098071512027
 30
0.0
 10
-38.53167217229667
 20
1.638720864776161
 30
0.0
 10
-38.1823729235297
 20
1.544152724995463
 30
0.0
 10
-38.06572275009661
 20
1.509277557060962
 30
0.0
 10
-37.83418949701031
 20
1.433517922389004
 30
0.0
 10
-37.72027369432459
 20
1.392765424954906
 30
0.0
 10
-37.37411715906475
 20
1.261514863373719
 30
0.0
 10
-37.13896989780575
 20
1.162018404175374
 30
0.0
 10
-36.79286794234751
 20
1.00036012074726
 30
0.0
 10
-36.67893861047833
 20
0.9444990876442958
 30
0.0
 10
-36.44737619760867
 20
0.8284530871011633
 30
0.0
 10
-36.33072050099561
 20
0.7684160650761349
 30
0.0
 10
-35.98143237072274
 20
0.5839363693989377
 30
0.0
 10
-35.75339140356594
 20
0.4558636777862368
 30
0.0
 10
-35.28903628794397
 20
0.1927238905759374
 30
0.0
 10
-35.0543674013736
 20
0.0579395770249533
 30
0.0
 10
-34.59693086513336
 20
-0.2080809123468761
 30
0.0
 10
-34.36213158626359
 20
-0.3416228498597427
 30
0.0
 10
-33.89786450952026
 20
-0.5997345895769435
 30
0.0
 10
-33.66977631938479
 20
-0.7240981004861275
 30
0.0
 10
-33.32046641020003
 20
-0.901249560385267
 30
0.0
 10
-33.20382191358276
 20
-0.9585529139797977
 30
0.0
 10
-32.97231811985535
 20
-1.068605786244785
 30
0.0
 10
-32.85841473087098
 20
-1.121221745166306
 30
0.0
 10
-32.51220406021776
 20
-1.272393739716971
 30
0.0
 10
-32.2770571142454
 20
-1.363846300165854
 30
0.0
 10
-31.93101018276098
 20
-1.481912508935711
 30
0.0
 10
-31.81706620628453
 20
-1.51810139053357
 30
0.0
 10
-31.58547493333367
 20
-1.584347783018732
 30
0.0
 10
-31.46881386720086
 20
-1.614283738416578
 30
0.0
 10
-31.11953731344979
 20
-1.693626907434183
 30
0.0
 10
-30.89151849858018
 20
-1.73237767010755
 30
0.0
 10
-30.42712027055837
 20
-1.780722419615664
 30
0.0
 10
-30.19256587982035
 20
-1.790008483135896
 30
0.0
 10
-29.73502940308343
 20
-1.778568437114622
 30
0.0
 10
-29.50021548558908
 20
-1.75773612618082
 30
0.0
 10
-29.03599333494101
 20
-1.686979623332348
 30
0.0
 10
-28.80788007431972
 20
-1.637367586674983
 30
0.0
 10
-28.57499999999998
 20
-1.574099977167101
 30
0.0
1001
PE_URL
1000

  0
SPLINE
  5
217
330
1F
100
AcDbEntity
  8
0
  6
Continuous
 62
     1
370
    15
100
AcDbSpline
210
0.0
220
0.0
230
1.0
 70
     8
 71
     3
 72
    14
 73
    10
 74
     0
 42
0.000000001
 43
0.00000001
 40
0.0
 40
0.0
 40
0.0
 40
0.0
 40
0.0949028444407293
 40
0.2630017733842796
 40
0.4311068118901407
 40
0.5992174161104392
 40
0.7673330398934519
 40
0.9447104601837155
 40
1.0
 40
1.0
 40
1.0
 40
1.0
 10
-35.25189622970702
 20
0.1683499110552411
 30
0.0
 10
-35.06367081210312
 20
0.093199208255335
 30
0.0
 10
-34.54204662984018
 20
-0.1150639710405663
 30
0.0
 10
-33.68700638777599
 20
-0.459742412854137
 30
0.0
 10
-32.68676855210239
 20
-0.8117817684044759
 30
0.0
 10
-31.68648373547941
 20
-1.082907677935619
 30
0.0
 10
-30.66784405711316
 20
-1.235126243583846
 30
0.0
 10
-29.87284569204646
 20
-1.277672500023513
 30
0.0
 10
-29.41133186039918
 20
-1.219796093862417
 30
0.0
 10
-29.30166056302656
 20
-1.206042702055509
 30
0.0
1001
PE_URL
1000

  0
SPLINE
  5
218
330
1F
100
AcDbEntity
  8
외형선
  6
Continuous
370
    15
100
AcDbSpline
210
0.0
220
0.0
230
1.0
 70
    24
 71
     3
 72
    11
 73
     7
 74
     0
 42
0.000000001
 43
0.00000001
 40
0.0
 40
0.0
 40
0.0
 40
0.0
 40
0.0985562289536037
 40
0.6135497845502736
 40
0.893795509958885
 40
1.0
 40
1.0
 40
1.0
 40
1.0
 10
-28.57500000000001
 20
-1.574099977167108
 30
0.0
 10
-28.57500000000001
 20
-1.559161358823918
 30
0.0
 10
-28.57500000000001
 20
-1.466162812072916
 30
0.0
 10
-28.57500000000001
 20
-1.338990620899043
 30
0.0
 10
-28.57500000000001
 20
-1.227343784850589
 30
0.0
 10
-28.57500000000001
 20
-1.19007443902419
 30
0.0
 10
-28.57500000000001
 20
-1.17983205408192
 30
0.0
  0
SPLINE
  5
219
330
1F
100
AcDbEntity
  8
0
  6
Continuous
 62
     1
370
    15
100
AcDbSpline
210
0.0
220
0.0
230
1.0
 70
     8
 71
     3
 72
    17
 73
    13
 74
     0
 42
0.000000001
 43
0.00000001
 40
0.0
 40
0.0
 40
0.0
 40
0.0
 40
0.1019711391392476
 40
0.2039010766434144
 40
0.3057981087391116
 40
0.4076706430933238
 40
0.5095271706993829
 40
0.6113762371618162
 40
0.7132264135856218
 40
0.8252963014110819
 40
0.9373662389149194
 40
0.9999999999999999
 40
0.9999999999999999
 40
0.9999999999999999
 40
0.9999999999999999
 10
-39.68750000000001
 20
1.694749083643828
 30
0.0
 10
-39.39089290805144
 20
1.627198526149943
 30
0.0
 10
-38.79779856882084
 20
1.492124705094977
 30
0.0
 10
-37.90840715245562
 20
1.129782796398597
 30
0.0
 10
-37.01935425213185
 20
0.6847688317647815
 30
0.0
 10
-36.13055723845986
 20
0.1809943059465269
 30
0.0
 10
-35.24193471867395
 20
-0.3370168318361451
 30
0.0
 10
-34.35336245669929
 20
-0.8270407215315103
 30
0.0
 10
-33.43519484924821
 20
-1.265323720324499
 30
0.0
 10
-32.48685319211573
 20
-1.594636176258959
 30
0.0
 10
-31.6527103185531
 20
-1.77599721136858
 30
0.0
 10
-31.14452950658973
 20
-1.767152765008642
 30
0.0
 10
-30.96233945668454
 20
-1.763981905177328
 30
0.0
1001
PE_URL
1000

  0
SPLINE
  5
21A
330
1F
100
AcDbEntity
  8
0
  6
Continuous
 62
     1
370
    15
100
AcDbSpline
210
0.0
220
0.0
230
1.0
 70
     8
 71
     3
 72
    14
 73
    10
 74
     0
 42
0.000000001
 43
0.00000001
 40
0.0
 40
0.0
 40
0.0
 40
0.0
 40
0.1616137935855039
 40
0.3228456474731053
 40
0.4840154534938038
 40
0.645444610912065
 40
0.8071862378282576
 40
0.9685277193957055
 40
1.0
 40
1.0
 40
1.0
 40
1.0
 10
-39.6875
 20
1.409055153395091
 30
0.0
 10
-39.43702878228039
 20
1.355384544487727
 30
0.0
 10
-38.93667828209068
 20
1.248170165698909
 30
0.0
 10
-38.18693731983056
 20
0.9918505340813617
 30
0.0
 10
-37.43749161453908
 20
0.6836073604529105
 30
0.0
 10
-36.68708476415578
 20
0.3329826798679036
 30
0.0
 10
-35.93601164386308
 20
-0.0332952098385242
 30
0.0
 10
-35.38674630889361
 20
-0.3081639948265753
 30
0.0
 10
-35.08807459395874
 20
-0.4429300234445535
 30
0.0
 10
-35.03932350941415
 20
-0.464927386188883
 30
0.0
1001
PE_URL
1000

  0
LINE
  5
21B
330
1F
100
AcDbEntity
  8
0
  6
Continuous
 62
     1
370
    15
100
AcDbLine
 10
-39.68749999999993
 20
1.694749083643828
 30
0.0
 11
-39.6875
 21
1.409055153395091
 31
0.0
1001
PE_URL
1000

  0
LINE
  5
21C
330
1F
100
AcDbEntity
  8
0
  6
Continuous
 62
     1
370
    15
100
AcDbLine
 10
-39.6875
 20
1.784428052824172
 30
0.0
 11
-39.68749999999991
 21
1.694749083643821
 31
0.0
1001
PE_URL
1000

  0
SPLINE
  5
21D
330
1F
100
AcDbEntity
  8
0
  6
Continuous
 62
     1
370
    15
100
AcDbSpline
210
0.0
220
0.0
230
1.0
 70
     8
 71
     3
 72
     8
 73
     4
 74
     0
 42
0.000000001
 43
0.00000001
 40
0.0
 40
0.0
 40
0.0
 40
0.0
 40
1.0
 40
1.0
 40
1.0
 40
1.0
 10
-38.5818561016361
 20
-0.500169705818859
 30
0.0
 10
-38.51861190382927
 20
-0.5750934330415873
 30
0.0
 10
-38.46215597961276
 20
-0.6472264353891752
 30
0.0
 10
-38.41409004714622
 20
-0.7159102310471255
 30
0.0
1001
PE_URL
1000

  0
LINE
  5
21E
330
1F
100
AcDbEntity
  8
0
  6
Continuous
 62
     1
370
    15
100
AcDbLine
 10
-38.43671237855563
 20
-0.7348926209891253
 30
0.0
 11
-39.6875
 21
-0.0000000000000213
 31
0.0
1001
PE_URL
1000

  0
LINE
  5
21F
330
1F
100
AcDbEntity
  8
0
  6
Continuous
 62
     1
370
    15
100
AcDbLine
 10
-39.6875
 20
-0.0000000000000213
 30
0.0
 11
-39.6875
 21
0.4772791989247978
 31
0.0
1001
PE_URL
1000

  0
SPLINE
  5
220
330
1F
100
AcDbEntity
  8
0
  6
Continuous
 62
     1
370
    15
100
AcDbSpline
210
0.0
220
0.0
230
1.0
 70
     8
 71
     3
 72
    10
 73
     6
 74
     0
 42
0.000000001
 43
0.00000001
 40
0.0
 40
0.0
 40
0.0
 40
0.0
 40
0.5
 40
0.5
 40
1.0
 40
1.0
 40
1.0
 40
1.0
 10
-39.68750000000001
 20
0.4772791989247978
 30
0.0
 10
-39.49610029268922
 20
0.326804601810764
 30
0.0
 10
-39.30790107205846
 20
0.1701549815729813
 30
0.0
 10
-38.93805667289951
 20
-0.155789636178902
 30
0.0
 10
-38.75469088418342
 20
-0.326806938970158
 30
0.0
 10
-38.58185610163609
 20
-0.5001697058188661
 30
0.0
1001
PE_URL
1000

  0
SPLINE
  5
221
330
1F
100
AcDbEntity
  8
0
  6
Continuous
 62
     1
370
    15
100
AcDbSpline
210
0.0
220
0.0
230
1.0
 70
     8
 71
     3
 72
    12
 73
     8
 74
     0
 42
0.000000001
 43
0.00000001
 40
0.0
 40
0.0
 40
0.0
 40
0.0
 40
0.2303147152043453
 40
0.4606371559713106
 40
0.7038143383178502
 40
0.947001651117125
 40
1.0
 40
1.0
 40
1.0
 40
1.0
 10
-38.58185610163609
 20
-0.5001697058188661
 30
0.0
 10
-38.26613381128402
 20
-0.6320450543777412
 30
0.0
 10
-37.6346786401479
 20
-0.8958001750568023
 30
0.0
 10
-36.66987916694393
 20
-1.204092243671493
 30
0.0
 10
-35.68736396555943
 20
-1.390690459281704
 30
0.0
 10
-34.94795540978972
 20
-1.457581698950662
 30
0.0
 10
-34.54191207499237
 20
-1.41432636051621
 30
0.0
 10
-34.46925620705825
 20
-1.406586412861834
 30
0.0
1001
PE_URL
1000

  0
SPLINE
  5
222
330
1F
100
AcDbEntity
  8
0
  6
Continuous
 62
     1
370
    15
100
AcDbSpline
210
0.0
220
0.0
230
1.0
 70
    24
 71
     3
 72
    10
 73
     6
 74
     0
 42
0.000000001
 43
0.00000001
 40
0.0
 40
0.0
 40
0.0
 40
0.0
 40
0.5000000000000001
 40
0.5000000000000001
 40
1.0
 40
1.0
 40
1.0
 40
1.0
 10
-39.6875
 20
1.409055153395091
 30
0.0
 10
-39.6875
 20
1.301040090048964
 30
0.0
 10
-39.68750000000001
 20
1.16455891578919
 30
0.0
 10
-39.68750000000001
 20
0.8472533204831478
 30
0.0
 10
-39.68750000000001
 20
0.6667037615744285
 30
0.0
 10
-39.68750000000001
 20
0.4772791989248546
 30
0.0
1001
PE_URL
1000

  0
SPLINE
  5
223
330
1F
100
AcDbEntity
  8
0
  6
Continuous
 62
     1
370
    15
100
AcDbSpline
210
0.0
220
0.0
230
1.0
 70
     8
 71
     3
 72
    12
 73
     8
 74
     0
 42
0.000000001
 43
0.00000001
 40
0.0
 40
0.0
 40
0.0
 40
0.0
 40
0.1094128605694732
 40
0.3426920169550667
 40
0.576452275367161
 40
0.810431630192589
 40
0.9999999999999999
 40
0.9999999999999999
 40
0.9999999999999999
 40
0.9999999999999999
 10
-31.78673937765923
 20
1.47500253791247
 30
0.0
 10
-31.66961817920272
 20
1.489089566739217
 30
0.0
 10
-31.30278287740773
 20
1.533211549259512
 30
0.0
 10
-30.6857655230096
 20
1.5129673479329
 30
0.0
 10
-29.93513760956691
 20
1.41655301757099
 30
0.0
 10
-29.23099218841
 20
1.24791956781856
 30
0.0
 10
-28.77782515968988
 20
1.091920076292478
 30
0.0
 10
-28.575
 20
1.02209897331047
 30
0.0
1001
PE_URL
1000

  0
SPLINE
  5
224
330
1F
100
AcDbEntity
  8
0
  6
Continuous
 62
     1
370
    15
100
AcDbSpline
210
0.0
220
0.0
230
1.0
 70
     8
 71
     3
 72
    15
 73
    11
 74
     0
 42
0.000000001
 43
0.00000001
 40
0.0
 40
0.0
 40
0.0
 40
0.0
 40
0.0303915135224439
 40
0.1667462470319246
 40
0.3031062351234349
 40
0.4394710500951596
 40
0.5758402622617624
 40
0.7122134401279542
 40
0.8560970355254074
 40
1.0
 40
1.0
 40
1.0
 40
1.0
 10
-35.91029961972885
 20
1.330522405806416
 30
0.0
 10
-35.83599320846946
 20
1.34589469254767
 30
0.0
 10
-35.42830323940088
 20
1.430236366433363
 30
0.0
 10
-34.6872115270034
 20
1.445169620971434
 30
0.0
 10
-33.68701188956701
 20
1.357772744331154
 30
0.0
 10
-32.6867750756279
 20
1.11840445783136
 30
0.0
 10
-31.6864892513126
 20
0.765797221909363
 30
0.0
 10
-30.66786364923518
 20
0.3263528501139881
 30
0.0
 10
-29.63062764755992
 20
-0.1627938004053426
 30
0.0
 10
-28.9268916705128
 20
-0.4693268719929513
 30
0.0
 10
-28.57500000000001
 20
-0.622603723179374
 30
0.0
1001
PE_URL
1000

  0
SPLINE
  5
225
330
1F
100
AcDbEntity
  8
외형선
  6
Continuous
370
    15
100
AcDbSpline
210
0.0
220
0.0
230
1.0
 70
    24
 71
     3
 72
    10
 73
     6
 74
     0
 42
0.000000001
 43
0.00000001
 40
0.0
 40
0.0
 40
0.0
 40
0.0
 40
0.5
 40
0.5
 40
1.0
 40
1.0
 40
1.0
 40
1.0
 10
-28.57499999999999
 20
-0.6226037231793811
 30
0.0
 10
-28.57499999999999
 20
-0.362452854269165
 30
0.0
 10
-28.57499999999999
 20
-0.0696671610851496
 30
0.0
 10
-28.57499999999999
 20
0.5052379305314325
 30
0.0
 10
-28.57499999999999
 20
0.784882712703503
 30
0.0
 10
-28.57499999999999
 20
1.022098973310463
 30
0.0
  0
SPLINE
  5
226
330
1F
100
AcDbEntity
  8
0
  6
Continuous
 62
     1
370
    15
100
AcDbSpline
210
0.0
220
0.0
230
1.0
 70
    24
 71
     3
 72
     8
 73
     4
 74
     0
 42
0.000000001
 43
0.00000001
 40
0.0
 40
0.0
 40
0.0
 40
0.0
 40
1.0
 40
1.0
 40
1.0
 40
1.0
 10
-38.60063864972745
 20
-0.87244309466967
 30
0.0
 10
-38.54168395548605
 20
-0.8229742324755414
 30
0.0
 10
-38.47930894176709
 20
-0.7706353814692797
 30
0.0
 10
-38.41409004714629
 20
-0.7159102310471646
 30
0.0
1001
PE_URL
1000

  0
LINE
  5
227
330
1F
100
AcDbEntity
  8
0
  6
Continuous
 62
     1
370
    15
100
AcDbLine
 10
-39.6875
 20
-1.250156250000021
 30
0.0
 11
-39.01978406546973
 21
-1.206900051246347
 31
0.0
1001
PE_URL
1000

  0
SPLINE
  5
228
330
1F
100
AcDbEntity
  8
0
  6
Continuous
 62
     1
370
    15
100
AcDbSpline
210
0.0
220
0.0
230
1.0
 70
     8
 71
     3
 72
     8
 73
     4
 74
     0
 42
0.000000001
 43
0.00000001
 40
0.0
 40
0.0
 40
0.0
 40
0.0
 40
1.0
 40
1.0
 40
1.0
 40
1.0
 10
-39.6875
 20
-1.250156250000021
 30
0.0
 10
-39.32017525925897
 20
-1.150382583531595
 30
0.0
 10
-38.95636444133692
 20
-1.027885928108354
 30
0.0
 10
-38.60063864973863
 20
-0.8724430946745549
 30
0.0
1001
PE_URL
1000

  0
SPLINE
  5
229
330
1F
100
AcDbEntity
  8
외형선
  6
Continuous
370
    15
100
AcDbSpline
210
0.0
220
0.0
230
1.0
 70
    24
 71
     3
 72
    12
 73
     8
 74
     0
 42
0.000000001
 43
0.00000001
 40
0.0
 40
0.0
 40
0.0
 40
0.0
 40
0.1331101386793771
 40
0.3478582086681913
 40
0.5688339872347488
 40
0.7844169936173745
 40
1.0
 40
1.0
 40
1.0
 40
1.0
 10
-28.57500000000001
 20
-1.172944766398217
 30
0.0
 10
-28.57500000000001
 20
-1.173772970464885
 30
0.0
 10
-28.57500000000001
 20
-1.175937325381057
 30
0.0
 10
-28.57500000000001
 20
-1.116805392737472
 30
0.0
 10
-28.57500000000001
 20
-1.003704513440969
 30
0.0
 10
-28.57500000000001
 20
-0.8397102007393045
 30
0.0
 10
-28.57500000000001
 20
-0.6949725490326841
 30
0.0
 10
-28.57500000000001
 20
-0.622603723179374
 30
0.0
  0
SPLINE
  5
22A
330
1F
100
AcDbEntity
  8
0
  6
Continuous
 62
     1
370
    15
100
AcDbSpline
210
0.0
220
0.0
230
1.0
 70
     8
 71
     3
 72
    12
 73
     8
 74
     0
 42
0.000000001
 43
0.00000001
 40
0.0
 40
0.0
 40
0.0
 40
0.0
 40
0.1095111020921483
 40
0.3321331958501152
 40
0.5547553813701186
 40
0.7773776517285023
 40
0.9999999999999999
 40
0.9999999999999999
 40
0.9999999999999999
 40
0.9999999999999999
 10
-32.96795256352139
 20
1.405897388626538
 30
0.0
 10
-32.80759356944088
 20
1.465287192655193
 30
0.0
 10
-32.32124520685701
 20
1.645408888411222
 30
0.0
 10
-31.50890724669296
 20
1.783419601370529
 30
0.0
 10
-30.5309385702083
 20
1.797992238129062
 30
0.0
 10
-29.55296944624309
 20
1.63608965162534
 30
0.0
 10
-28.90098985344424
 20
1.398610267166347
 30
0.0
 10
-28.57500000000005
 20
1.279870554158656
 30
0.0
1001
PE_URL
1000

  0
SPLINE
  5
22B
330
1F
100
AcDbEntity
  8
외형선
  6
Continuous
370
    15
100
AcDbSpline
210
0.0
220
0.0
230
1.0
 70
    24
 71
     3
 72
     8
 73
     4
 74
     0
 42
0.000000001
 43
0.00000001
 40
0.0
 40
0.0
 40
0.0
 40
0.0
 40
1.0
 40
1.0
 40
1.0
 40
1.0
 10
-28.57500000000001
 20
1.02209897331047
 30
0.0
 10
-28.57500000000001
 20
1.104280816796926
 30
0.0
 10
-28.57500000000001
 20
1.190740307842994
 30
0.0
 10
-28.57500000000001
 20
1.279870554158187
 30
0.0
  0
SPLINE
  5
22C
330
1F
100
AcDbEntity
  8
0
  6
Continuous
 62
     1
370
    15
100
AcDbSpline
210
0.0
220
0.0
230
1.0
 70
     8
 71
     3
 72
     9
 73
     5
 74
     0
 42
0.000000001
 43
0.00000001
 40
0.0
 40
0.0
 40
0.0
 40
0.0
 40
0.5838221745204037
 40
1.0
 40
1.0
 40
1.0
 40
1.0
 10
-28.57499999999997
 20
1.57409997716708
 30
0.0
 10
-28.8711745436383
 20
1.646241159215212
 30
0.0
 10
-29.3784772062712
 20
1.769808206163013
 30
0.0
 10
-29.88578296142191
 20
1.770568064616395
 30
0.0
 10
-30.09691236745382
 20
1.770884300855194
 30
0.0
1001
PE_URL
1000

  0
SPLINE
  5
22D
330
1F
100
AcDbEntity
  8
0
  6
Continuous
 62
     1
370
    15
100
AcDbSpline
210
0.0
220
0.0
230
1.0
 70
     8
 71
     3
 72
    10
 73
     6
 74
     0
 42
0.000000001
 43
0.00000001
 40
0.0
 40
0.0
 40
0.0
 40
0.0
 40
0.1943225162233637
 40
0.5971617394884086
 40
1.0
 40
1.0
 40
1.0
 40
1.0
 10
-37.2600743595583
 20
-1.195687258680909
 30
0.0
 10
-37.4173089451609
 20
-1.26525820333017
 30
0.0
 10
-37.90049782348039
 20
-1.47905281206635
 30
0.0
 10
-38.70963975026758
 20
-1.705709365983292
 30
0.0
 10
-39.36154684309045
 20
-1.758188511447422
 30
0.0
 10
-39.6875
 20
-1.784428052824214
 30
0.0
1001
PE_URL
1000

  0
LINE
  5
22E
330
1F
100
AcDbEntity
  8
0
  6
Continuous
 62
     1
370
    15
100
AcDbLine
 10
-39.6875
 20
-0.0000000000000213
 30
0.0
 11
-39.6875
 21
-1.250156250000021
 31
0.0
1001
PE_URL
1000

  0
SPLINE
  5
22F
330
1F
100
AcDbEntity
  8
0
  6
Continuous
 62
     1
370
    15
100
AcDbSpline
210
0.0
220
0.0
230
1.0
 70
    24
 71
     3
 72
    10
 73
     6
 74
     0
 42
0.000000001
 43
0.00000001
 40
0.0
 40
0.0
 40
0.0
 40
0.0
 40
0.5
 40
0.5
 40
1.0
 40
1.0
 40
1.0
 40
1.0
 10
-39.6875
 20
-1.250156250000021
 30
0.0
 10
-39.68750000000001
 20
-1.325937608641834
 30
0.0
 10
-39.68750000000001
 20
-1.414002565492389
 30
0.0
 10
-39.6875
 20
-1.59876260777855
 30
0.0
 10
-39.6875
 20
-1.694985839251714
 30
0.0
 10
-39.6875
 20
-1.784428052824214
 30
0.0
1001
PE_URL
1000

  0
LINE
  5
259
330
1F
100
AcDbEntity
  8
외형선
  6
Continuous
370
    15
100
AcDbLine
 10
-3.56870000000006
 20
3.492500000000014
 30
0.0
 11
3.568700000000067
 21
3.492500000000014
 31
0.0
1001
PE_URL
1000

  0
LINE
  5
25A
330
1F
100
AcDbEntity
  8
외형선
  6
Continuous
370
    15
100
AcDbLine
 10
-3.56870000000006
 20
3.492500000000014
 30
0.0
 11
-4.838700000000042
 21
4.762499999999996
 31
0.0
1001
PE_URL
1000

  0
LINE
  5
25B
330
1F
100
AcDbEntity
  8
외형선
  6
Continuous
370
    15
100
AcDbLine
 10
3.568700000000067
 20
3.492500000000014
 30
0.0
 11
4.838700000000163
 21
4.762499999999996
 31
0.0
1001
PE_URL
1000

  0
LINE
  5
25C
330
1F
100
AcDbEntity
  8
외형선
  6
Continuous
370
    15
100
AcDbLine
 10
-4.838700000000042
 20
4.762499999999996
 30
0.0
 11
-16.4663175180958
 21
4.762499999999995
 31
0.0
1001
PE_URL
1000

  0
ENDSEC
  0
SECTION
  2
OBJECTS
  0
DICTIONARY
  5
C
330
0
100
AcDbDictionary
281
     1
  3
ACAD_GROUP
350
D
  3
ACAD_IMAGE_VARS
350
280
  3
ACAD_LAYOUT
350
1A
  3
ACAD_MLINESTYLE
350
17
  3
ACAD_PLOTSETTINGS
350
19
  3
ACAD_PLOTSTYLENAME
350
E
  3
ACAD_SCALELIST
350
47
  3
APPDATA
350
15E
  3
DWGPROPS
350
281
  0
DICTIONARY
  5
197
330
2
100
AcDbDictionary
280
     1
281
     1
  3
ACAD_LAYERSTATES
360
198
  0
DICTIONARY
  5
D
102
{ACAD_REACTORS
330
C
102
}
330
C
100
AcDbDictionary
281
     1
  0
RASTERVARIABLES
  5
280
102
{ACAD_REACTORS
330
C
102
}
330
C
100
AcDbRasterVariables
 90
        0
 70
     1
 71
     1
 72
     1
  0
DICTIONARY
  5
1A
102
{ACAD_REACTORS
330
C
102
}
330
C
100
AcDbDictionary
281
     1
  3
Layout1
350
1E
  3
Layout2
350
26
  3
Model
350
22
  0
DICTIONARY
  5
17
102
{ACAD_REACTORS
330
C
102
}
330
C
100
AcDbDictionary
281
     1
  3
Standard
350
18
  0
DICTIONARY
  5
19
102
{ACAD_REACTORS
330
C
102
}
330
C
100
AcDbDictionary
281
     1
  0
ACDBDICTIONARYWDFLT
  5
E
102
{ACAD_REACTORS
330
C
102
}
330
C
100
AcDbDictionary
281
     1
  3
Normal
350
F
100
AcDbDictionaryWithDefault
340
F
  0
DICTIONARY
  5
47
102
{ACAD_REACTORS
330
C
102
}
330
C
100
AcDbDictionary
281
     1
  3
A0
350
48
  3
A1
350
49
  3
A2
350
4A
  3
A3
350
4B
  3
A4
350
4C
  3
A5
350
4D
  3
A6
350
4E
  3
A7
350
4F
  3
A8
350
50
  3
A9
350
51
  3
B0
350
52
  3
B1
350
53
  3
B2
350
54
  3
B3
350
55
  3
B4
350
56
  3
B5
350
57
  3
B6
350
58
  3
B7
350
59
  3
B8
350
5A
  3
B9
350
5B
  3
C0
350
5C
  3
C1
350
5D
  3
C2
350
5E
  3
C3
350
5F
  3
C4
350
60
  3
C5
350
61
  3
C6
350
62
  3
C7
350
63
  3
C8
350
64
  3
C9
350
65
  3
D0
350
66
  3
D1
350
67
  3
D2
350
68
  0
DICTIONARY
  5
15E
102
{ACAD_REACTORS
330
C
102
}
330
C
100
AcDbDictionary
281
     1
  0
XRECORD
  5
281
102
{ACAD_REACTORS
330
C
102
}
330
C
100
AcDbXrecord
280
     1
  1
DWGPROPS COOKIE
  2

  3

  4

  6

  7

  8
12016016
  9

300
=
301
=
302
=
303
=
304
=
305
=
306
=
307
=
308
=
309
=
 40
0.0
 41
2458313.018982095
 42
2458330.402059676
  1

 90
        0
  0
DICTIONARY
  5
198
102
{ACAD_REACTORS
330
197
102
}
330
197
100
AcDbDictionary
281
     1
  0
LAYOUT
  5
1E
102
{ACAD_REACTORS
330
1A
102
}
330
1A
100
AcDbPlotSettings
  1

  2
none_device
  4

  6

 40
0.0
 41
0.0
 42
0.0
 43
0.0
 44
0.0
 45
0.0
 46
0.0
 47
0.0
 48
0.0
 49
0.0
140
0.0
141
0.0
142
1.0
143
1.0
 70
   688
 72
     1
 73
     0
 74
     5
  7

 75
    16
147
1.0
148
0.0
149
0.0
100
AcDbLayout
  1
Layout1
 70
     1
 71
     1
 10
0.0
 20
0.0
 11
420.0
 21
297.0
 12
0.0
 22
0.0
 32
0.0
 14
1.000000000000000E+20
 24
1.000000000000000E+20
 34
1.000000000000000E+20
 15
-1.000000000000000E+20
 25
-1.000000000000000E+20
 35
-1.000000000000000E+20
146
0.0
 13
0.0
 23
0.0
 33
0.0
 16
1.0
 26
0.0
 36
0.0
 17
0.0
 27
1.0
 37
0.0
 76
     0
330
1B
  0
LAYOUT
  5
26
102
{ACAD_REACTORS
330
1A
102
}
330
1A
100
AcDbPlotSettings
  1

  2
none_device
  4

  6

 40
0.0
 41
0.0
 42
0.0
 43
0.0
 44
0.0
 45
0.0
 46
0.0
 47
0.0
 48
0.0
 49
0.0
140
0.0
141
0.0
142
1.0
143
1.0
 70
   688
 72
     1
 73
     0
 74
     5
  7

 75
    16
147
1.0
148
0.0
149
0.0
100
AcDbLayout
  1
Layout2
 70
     1
 71
     2
 10
0.0
 20
0.0
 11
0.0
 21
0.0
 12
0.0
 22
0.0
 32
0.0
 14
0.0
 24
0.0
 34
0.0
 15
0.0
 25
0.0
 35
0.0
146
0.0
 13
0.0
 23
0.0
 33
0.0
 16
1.0
 26
0.0
 36
0.0
 17
0.0
 27
1.0
 37
0.0
 76
     0
330
23
  0
LAYOUT
  5
22
102
{ACAD_REACTORS
330
1A
102
}
330
1A
100
AcDbPlotSettings
  1

  2
none_device
  4
ANSI_A_(11.00_x_8.50_Inches)
  6

 40
6.35
 41
19.05
 42
6.35000508
 43
19.05000254
 44
279.4
 45
215.9
 46
98.53254146912828
 47
87.70676047328662
 48
0.0
 49
0.0
140
0.0
141
0.0
142
0.0501323292749418
143
1.0
 70
  1696
 72
     0
 73
     0
 74
     0
  7

 75
     0
147
0.0235690232323232
148
0.0
149
0.0
100
AcDbLayout
  1
Model
 70
     1
 71
     0
 10
0.0
 20
0.0
 11
420.0
 21
297.0
 12
0.0
 22
0.0
 32
0.0
 14
-54.06250000000009
 24
-49.97180738881175
 34
0.0
 15
99.38162503295506
 25
37.61649999999996
 35
0.0
146
0.0
 13
0.0
 23
0.0
 33
0.0
 16
1.0
 26
0.0
 36
0.0
 17
0.0
 27
1.0
 37
0.0
 76
     0
330
1F
331
29
  0
MLINESTYLE
  5
18
102
{ACAD_REACTORS
330
17
102
}
330
17
100
AcDbMlineStyle
  2
Standard
 70
     0
  3

 62
   256
 51
90.0
 52
90.0
 71
     2
 49
0.5
 62
   256
  6
BYLAYER
 49
-0.5
 62
   256
  6
BYLAYER
  0
ACDBPLACEHOLDER
  5
F
102
{ACAD_REACTORS
330
E
102
}
330
E
  0
SCALE
  5
48
102
{ACAD_REACTORS
330
47
102
}
330
47
100
AcDbScale
 70
     0
300
1:1
140
1.0
141
1.0
290
     1
  0
SCALE
  5
49
102
{ACAD_REACTORS
330
47
102
}
330
47
100
AcDbScale
 70
     0
300
1:2
140
1.0
141
2.0
290
     0
  0
SCALE
  5
4A
102
{ACAD_REACTORS
330
47
102
}
330
47
100
AcDbScale
 70
     0
300
1:4
140
1.0
141
4.0
290
     0
  0
SCALE
  5
4B
102
{ACAD_REACTORS
330
47
102
}
330
47
100
AcDbScale
 70
     0
300
1:5
140
1.0
141
5.0
290
     0
  0
SCALE
  5
4C
102
{ACAD_REACTORS
330
47
102
}
330
47
100
AcDbScale
 70
     0
300
1:8
140
1.0
141
8.0
290
     0
  0
SCALE
  5
4D
102
{ACAD_REACTORS
330
47
102
}
330
47
100
AcDbScale
 70
     0
300
1:10
140
1.0
141
10.0
290
     0
  0
SCALE
  5
4E
102
{ACAD_REACTORS
330
47
102
}
330
47
100
AcDbScale
 70
     0
300
1:16
140
1.0
141
16.0
290
     0
  0
SCALE
  5
4F
102
{ACAD_REACTORS
330
47
102
}
330
47
100
AcDbScale
 70
     0
300
1:20
140
1.0
141
20.0
290
     0
  0
SCALE
  5
50
102
{ACAD_REACTORS
330
47
102
}
330
47
100
AcDbScale
 70
     0
300
1:30
140
1.0
141
30.0
290
     0
  0
SCALE
  5
51
102
{ACAD_REACTORS
330
47
102
}
330
47
100
AcDbScale
 70
     0
300
1:40
140
1.0
141
40.0
290
     0
  0
SCALE
  5
52
102
{ACAD_REACTORS
330
47
102
}
330
47
100
AcDbScale
 70
     0
300
1:50
140
1.0
141
50.0
290
     0
  0
SCALE
  5
53
102
{ACAD_REACTORS
330
47
102
}
330
47
100
AcDbScale
 70
     0
300
1:100
140
1.0
141
100.0
290
     0
  0
SCALE
  5
54
102
{ACAD_REACTORS
330
47
102
}
330
47
100
AcDbScale
 70
     0
300
2:1
140
2.0
141
1.0
290
     0
  0
SCALE
  5
55
102
{ACAD_REACTORS
330
47
102
}
330
47
100
AcDbScale
 70
     0
300
4:1
140
4.0
141
1.0
290
     0
  0
SCALE
  5
56
102
{ACAD_REACTORS
330
47
102
}
330
47
100
AcDbScale
 70
     0
300
8:1
140
8.0
141
1.0
290
     0
  0
SCALE
  5
57
102
{ACAD_REACTORS
330
47
102
}
330
47
100
AcDbScale
 70
     0
300
10:1
140
10.0
141
1.0
290
     0
  0
SCALE
  5
58
102
{ACAD_REACTORS
330
47
102
}
330
47
100
AcDbScale
 70
     0
300
100:1
140
100.0
141
1.0
290
     0
  0
SCALE
  5
59
102
{ACAD_REACTORS
330
47
102
}
330
47
100
AcDbScale
 70
     0
300
1/128" = 1'-0"
140
0.0078125
141
12.0
290
     0
  0
SCALE
  5
5A
102
{ACAD_REACTORS
330
47
102
}
330
47
100
AcDbScale
 70
     0
300
1/64" = 1'-0"
140
0.015625
141
12.0
290
     0
  0
SCALE
  5
5B
102
{ACAD_REACTORS
330
47
102
}
330
47
100
AcDbScale
 70
     0
300
1/32" = 1'-0"
140
0.03125
141
12.0
290
     0
  0
SCALE
  5
5C
102
{ACAD_REACTORS
330
47
102
}
330
47
100
AcDbScale
 70
     0
300
1/16" = 1'-0"
140
0.0625
141
12.0
290
     0
  0
SCALE
  5
5D
102
{ACAD_REACTORS
330
47
102
}
330
47
100
AcDbScale
 70
     0
300
3/32" = 1'-0"
140
0.09375
141
12.0
290
     0
  0
SCALE
  5
5E
102
{ACAD_REACTORS
330
47
102
}
330
47
100
AcDbScale
 70
     0
300
1/8" = 1'-0"
140
0.125
141
12.0
290
     0
  0
SCALE
  5
5F
102
{ACAD_REACTORS
330
47
102
}
330
47
100
AcDbScale
 70
     0
300
3/16" = 1'-0"
140
0.1875
141
12.0
290
     0
  0
SCALE
  5
60
102
{ACAD_REACTORS
330
47
102
}
330
47
100
AcDbScale
 70
     0
300
1/4" = 1'-0"
140
0.25
141
12.0
290
     0
  0
SCALE
  5
61
102
{ACAD_REACTORS
330
47
102
}
330
47
100
AcDbScale
 70
     0
300
3/8" = 1'-0"
140
0.375
141
12.0
290
     0
  0
SCALE
  5
62
102
{ACAD_REACTORS
330
47
102
}
330
47
100
AcDbScale
 70
     0
300
1/2" = 1'-0"
140
0.5
141
12.0
290
     0
  0
SCALE
  5
63
102
{ACAD_REACTORS
330
47
102
}
330
47
100
AcDbScale
 70
     0
300
3/4" = 1'-0"
140
0.75
141
12.0
290
     0
  0
SCALE
  5
64
102
{ACAD_REACTORS
330
47
102
}
330
47
100
AcDbScale
 70
     0
300
1" = 1'-0"
140
1.0
141
12.0
290
     0
  0
SCALE
  5
65
102
{ACAD_REACTORS
330
47
102
}
330
47
100
AcDbScale
 70
     0
300
1-1/2" = 1'-0"
140
1.5
141
12.0
290
     0
  0
SCALE
  5
66
102
{ACAD_REACTORS
330
47
102
}
330
47
100
AcDbScale
 70
     0
300
3" = 1'-0"
140
3.0
141
12.0
290
     0
  0
SCALE
  5
67
102
{ACAD_REACTORS
330
47
102
}
330
47
100
AcDbScale
 70
     0
300
6" = 1'-0"
140
6.0
141
12.0
290
     0
  0
SCALE
  5
68
102
{ACAD_REACTORS
330
47
102
}
330
47
100
AcDbScale
 70
     0
300
1'-0" = 1'-0"
140
12.0
141
12.0
290
     0
  0
ENDSEC
  0
EOF
