  0
SECTION
  2
HEADER
  9
$ACADVER
  1
AC1015
  9
$ACADMAINTVER
 70
     6
  9
$DWGCODEPAGE
  3
ANSI_949
  9
$INSBASE
 10
0.0
 20
0.0
 30
0.0
  9
$EXTMIN
 10
-54.06250000000009
 20
-49.97180738881175
 30
0.0
  9
$EXTMAX
 10
97.79412503295507
 20
38.93150718741285
 30
0.0
  9
$LIMMIN
 10
0.0
 20
0.0
  9
$LIMMAX
 10
420.0
 20
297.0
  9
$ORTHOMODE
 70
     1
  9
$REGENMODE
 70
     1
  9
$FILLMODE
 70
     1
  9
$QTEXTMODE
 70
     0
  9
$MIRRTEXT
 70
     1
  9
$LTSCALE
 40
1.0
  9
$ATTMODE
 70
     1
  9
$TEXTSIZE
 40
3.5
  9
$TRACEWID
 40
1.0
  9
$TEXTSTYLE
  7
Standard
  9
$CLAYER
  8
0
  9
$CELTYPE
  6
ByLayer
  9
$CECOLOR
 62
   256
  9
$CELTSCALE
 40
1.0
  9
$DISPSILH
 70
     0
  9
$DIMSCALE
 40
1.0
  9
$DIMASZ
 40
3.302
  9
$DIMEXO
 40
1.0
  9
$DIMDLI
 40
3.75
  9
$DIMRND
 40
0.0
  9
$DIMDLE
 40
0.0
  9
$DIMEXE
 40
1.0
  9
$DIMTP
 40
0.0
  9
$DIMTM
 40
0.0
  9
$DIMTXT
 40
3.5
  9
$DIMCEN
 40
2.5
  9
$DIMTSZ
 40
0.0
  9
$DIMTOL
 70
     0
  9
$DIMLIM
 70
     0
  9
$DIMTIH
 70
     1
  9
$DIMTOH
 70
     1
  9
$DIMSE1
 70
     0
  9
$DIMSE2
 70
     0
  9
$DIMTAD
 70
     1
  9
$DIMZIN
 70
     0
  9
$DIMBLK
  1

  9
$DIMASO
 70
     1
  9
$DIMSHO
 70
     1
  9
$DIMPOST
  1

  9
$DIMAPOST
  1

  9
$DIMALT
 70
     0
  9
$DIMALTD
 70
     3
  9
$DIMALTF
 40
0.0393700787401575
  9
$DIMLFAC
 40
1.0
  9
$DIMTOFL
 70
     1
  9
$DIMTVP
 40
0.0
  9
$DIMTIX
 70
     0
  9
$DIMSOXD
 70
     0
  9
$DIMSAH
 70
     0
  9
$DIMBLK1
  1

  9
$DIMBLK2
  1

  9
$DIMSTYLE
  2
ISO-25
  9
$DIMCLRD
 70
     0
  9
$DIMCLRE
 70
     0
  9
$DIMCLRT
 70
     0
  9
$DIMTFAC
 40
1.0
  9
$DIMGAP
 40
1.524
  9
$DIMJUST
 70
     0
  9
$DIMSD1
 70
     0
  9
$DIMSD2
 70
     0
  9
$DIMTOLJ
 70
     0
  9
$DIMTZIN
 70
     0
  9
$DIMALTZ
 70
     0
  9
$DIMALTTZ
 70
     0
  9
$DIMUPT
 70
     0
  9
$DIMDEC
 70
     2
  9
$DIMTDEC
 70
     2
  9
$DIMALTU
 70
     2
  9
$DIMALTTD
 70
     3
  9
$DIMTXSTY
  7
Standard
  9
$DIMAUNIT
 70
     0
  9
$DIMADEC
 70
     2
  9
$DIMALTRND
 40
0.0
  9
$DIMAZIN
 70
     0
  9
$DIMDSEP
 70
    44
  9
$DIMATFIT
 70
     3
  9
$DIMFRAC
 70
     0
  9
$DIMLDRBLK
  1

  9
$DIMLUNIT
 70
     2
  9
$DIMLWD
 70
    -2
  9
$DIMLWE
 70
    -2
  9
$DIMTMOVE
 70
     0
  9
$LUNITS
 70
     2
  9
$LUPREC
 70
     2
  9
$SKETCHINC
 40
1.0
  9
$FILLETRAD
 40
10.0
  9
$AUNITS
 70
     0
  9
$AUPREC
 70
     2
  9
$MENU
  1
.
  9
$ELEVATION
 40
0.0
  9
$PELEVATION
 40
0.0
  9
$THICKNESS
 40
0.0
  9
$LIMCHECK
 70
     0
  9
$CHAMFERA
 40
0.0
  9
$CHAMFERB
 40
0.0
  9
$CHAMFERC
 40
0.0
  9
$CHAMFERD
 40
0.0
  9
$SKPOLY
 70
     0
  9
$TDCREATE
 40
2458313.394829086
  9
$TDUCREATE
 40
2458313.019829086
  9
$TDUPDATE
 40
2458330.77687956
  9
$TDUUPDATE
 40
2458330.40187956
  9
$TDINDWG
 40
0.0018803125
  9
$TDUSRTIMER
 40
2458330.401840047
  9
$USRTIMER
 70
     1
  9
$ANGBASE
 50
0.0
  9
$ANGDIR
 70
     0
  9
$PDMODE
 70
     0
  9
$PDSIZE
 40
-1.0
  9
$PLINEWID
 40
0.0
  9
$SPLFRAME
 70
     0
  9
$SPLINETYPE
 70
     6
  9
$SPLINESEGS
 70
     8
  9
$HANDSEED
  5
277
  9
$SURFTAB1
 70
     6
  9
$SURFTAB2
 70
     6
  9
$SURFTYPE
 70
     6
  9
$SURFU
 70
     6
  9
$SURFV
 70
     6
  9
$UCSBASE
  2

  9
$UCSNAME
  2

  9
$UCSORG
 10
0.0
 20
0.0
 30
0.0
  9
$UCSXDIR
 10
1.0
 20
0.0
 30
0.0
  9
$UCSYDIR
 10
0.0
 20
1.0
 30
0.0
  9
$UCSORTHOREF
  2

  9
$UCSORTHOVIEW
 70
     0
  9
$UCSORGTOP
 10
0.0
 20
0.0
 30
0.0
  9
$UCSORGBOTTOM
 10
0.0
 20
0.0
 30
0.0
  9
$UCSORGLEFT
 10
0.0
 20
0.0
 30
0.0
  9
$UCSORGRIGHT
 10
0.0
 20
0.0
 30
0.0
  9
$UCSORGFRONT
 10
0.0
 20
0.0
 30
0.0
  9
$UCSORGBACK
 10
0.0
 20
0.0
 30
0.0
  9
$PUCSBASE
  2

  9
$PUCSNAME
  2

  9
$PUCSORG
 10
0.0
 20
0.0
 30
0.0
  9
$PUCSXDIR
 10
1.0
 20
0.0
 30
0.0
  9
$PUCSYDIR
 10
0.0
 20
1.0
 30
0.0
  9
$PUCSORTHOREF
  2

  9
$PUCSORTHOVIEW
 70
     0
  9
$PUCSORGTOP
 10
0.0
 20
0.0
 30
0.0
  9
$PUCSORGBOTTOM
 10
0.0
 20
0.0
 30
0.0
  9
$PUCSORGLEFT
 10
0.0
 20
0.0
 30
0.0
  9
$PUCSORGRIGHT
 10
0.0
 20
0.0
 30
0.0
  9
$PUCSORGFRONT
 10
0.0
 20
0.0
 30
0.0
  9
$PUCSORGBACK
 10
0.0
 20
0.0
 30
0.0
  9
$USERI1
 70
     0
  9
$USERI2
 70
     0
  9
$USERI3
 70
     0
  9
$USERI4
 70
     0
  9
$USERI5
 70
     0
  9
$USERR1
 40
0.0
  9
$USERR2
 40
0.0
  9
$USERR3
 40
0.0
  9
$USERR4
 40
0.0
  9
$USERR5
 40
0.0
  9
$WORLDVIEW
 70
     1
  9
$SHADEDGE
 70
     3
  9
$SHADEDIF
 70
    70
  9
$TILEMODE
 70
     1
  9
$MAXACTVP
 70
    64
  9
$PINSBASE
 10
0.0
 20
0.0
 30
0.0
  9
$PLIMCHECK
 70
     0
  9
$PEXTMIN
 10
1.000000000000000E+20
 20
1.000000000000000E+20
 30
1.000000000000000E+20
  9
$PEXTMAX
 10
-1.000000000000000E+20
 20
-1.000000000000000E+20
 30
-1.000000000000000E+20
  9
$PLIMMIN
 10
0.0
 20
0.0
  9
$PLIMMAX
 10
0.0
 20
0.0
  9
$UNITMODE
 70
     0
  9
$VISRETAIN
 70
     1
  9
$PLINEGEN
 70
     0
  9
$PSLTSCALE
 70
     1
  9
$TREEDEPTH
 70
  3020
  9
$CMLSTYLE
  2
Standard
  9
$CMLJUST
 70
     0
  9
$CMLSCALE
 40
20.0
  9
$PROXYGRAPHICS
 70
     1
  9
$MEASUREMENT
 70
     1
  9
$CELWEIGHT
370
    -1
  9
$ENDCAPS
280
     0
  9
$JOINSTYLE
280
     0
  9
$LWDISPLAY
290
     1
  9
$INSUNITS
 70
     4
  9
$HYPERLINKBASE
  1

  9
$STYLESHEET
  1

  9
$XEDIT
290
     1
  9
$CEPSNTYPE
380
     0
  9
$PSTYLEMODE
290
     1
  9
$FINGERPRINTGUID
  2
{C4C0D8D3-AA28-431D-9FE4-CAEC89B407B4}
  9
$VERSIONGUID
  2
{FAEB1C32-E019-11D5-929B-00C0DF256EC4}
  9
$EXTNAMES
290
     1
  9
$PSVPSCALE
 40
0.0
  9
$OLESTARTUP
290
     0
  0
ENDSEC
  0
SECTION
  2
CLASSES
  0
CLASS
  1
ACDBDICTIONARYWDFLT
  2
AcDbDictionaryWithDefault
  3
ObjectDBX Classes
 90
        0
280
     0
281
     0
  0
CLASS
  1
VISUALSTYLE
  2
AcDbVisualStyle
  3
ObjectDBX Classes
 90
     4095
280
     0
281
     0
  0
CLASS
  1
MATERIAL
  2
AcDbMaterial
  3
ObjectDBX Classes
 90
     1153
280
     0
281
     0
  0
CLASS
  1
SCALE
  2
AcDbScale
  3
ObjectDBX Classes
 90
     1153
280
     0
281
     0
  0
CLASS
  1
SUN
  2
AcDbSun
  3
SCENEOE
 90
     1153
280
     0
281
     0
  0
CLASS
  1
ACDBPLACEHOLDER
  2
AcDbPlaceHolder
  3
ObjectDBX Classes
 90
        0
280
     0
281
     0
  0
CLASS
  1
LAYOUT
  2
AcDbLayout
  3
ObjectDBX Classes
 90
        0
280
     0
281
     0
  0
CLASS
  1
TABLESTYLE
  2
AcDbTableStyle
  3
ObjectDBX Classes
 90
     4095
280
     0
281
     0
  0
CLASS
  1
MLEADERSTYLE
  2
AcDbMLeaderStyle
  3
ACDB_MLEADERSTYLE_CLASS
 90
     4095
280
     0
281
     0
  0
CLASS
  1
RASTERVARIABLES
  2
AcDbRasterVariables
  3
ISM
 90
        0
280
     0
281
     0
  0
ENDSEC
  0
SECTION
  2
TABLES
  0
TABLE
  2
VPORT
  5
8
330
0
100
AcDbSymbolTable
 70
     1
  0
VPORT
  5
29
330
8
100
AcDbSymbolTableRecord
100
AcDbViewportTableRecord
  2
*Active
 70
     0
 10
0.0
 20
0.0
 11
1.0
 21
1.0
 12
21.86581251647749
 22
-5.520150100699446
 13
0.0
 23
0.0
 14
10.0
 24
10.0
 15
10.0
 25
10.0
 16
0.0
 26
0.0
 36
1.0
 17
0.0
 27
0.0
 37
0.0
 40
90.6813808677491
 41
1.782762691853601
 42
50.0
 43
0.0
 44
0.0
 50
0.0
 51
0.0
 71
    16
 72
  2000
 73
     1
 74
     3
 75
     0
 76
     0
 77
     0
 78
     0
281
     0
 65
     1
110
0.0
120
0.0
130
0.0
111
1.0
121
0.0
131
0.0
112
0.0
122
1.0
132
0.0
 79
     0
146
0.0
  0
ENDTAB
  0
TABLE
  2
LTYPE
  5
5
330
0
100
AcDbSymbolTable
 70
     6
  0
LTYPE
  5
14
330
5
100
AcDbSymbolTableRecord
100
AcDbLinetypeTableRecord
  2
ByBlock
 70
     0
  3

 72
    65
 73
     0
 40
0.0
  0
LTYPE
  5
15
330
5
100
AcDbSymbolTableRecord
100
AcDbLinetypeTableRecord
  2
ByLayer
 70
     0
  3

 72
    65
 73
     0
 40
0.0
  0
LTYPE
  5
16
330
5
100
AcDbSymbolTableRecord
100
AcDbLinetypeTableRecord
  2
Continuous
 70
     0
  3
Solid line
 72
    65
 73
     0
 40
0.0
  0
LTYPE
  5
6A
330
5
100
AcDbSymbolTableRecord
100
AcDbLinetypeTableRecord
  2
HIDDEN
 70
     0
  3
Hidden __ __ __ __ __ __ __ __ __ __ __ __ __ __
 72
    65
 73
     2
 40
1.905
 49
1.27
 74
     0
 49
-0.635
 74
     0
  0
LTYPE
  5
6B
330
5
100
AcDbSymbolTableRecord
100
AcDbLinetypeTableRecord
  2
PHANTOM
 70
     0
  3
Phantom ______  __  __  ______  __  __  ______
 72
    65
 73
     6
 40
12.7
 49
6.35
 74
     0
 49
-1.27
 74
     0
 49
1.27
 74
     0
 49
-1.27
 74
     0
 49
1.27
 74
     0
 49
-1.27
 74
     0
  0
LTYPE
  5
6C
330
5
100
AcDbSymbolTableRecord
100
AcDbLinetypeTableRecord
  2
CENTER
 70
     0
  3
Center ____ _ ____ _ ____ _ ____ _ ____ _ ____
 72
    65
 73
     4
 40
10.16
 49
6.35
 74
     0
 49
-1.27
 74
     0
 49
1.27
 74
     0
 49
-1.27
 74
     0
  0
LTYPE
  5
6D
330
5
100
AcDbSymbolTableRecord
100
AcDbLinetypeTableRecord
  2
CENTERX2
 70
     0
  3
Center (2x) ________  __  ________  __  _____
 72
    65
 73
     4
 40
20.32
 49
12.7
 74
     0
 49
-2.54
 74
     0
 49
2.54
 74
     0
 49
-2.54
 74
     0
  0
LTYPE
  5
6E
330
5
100
AcDbSymbolTableRecord
100
AcDbLinetypeTableRecord
  2
DOT2
 70
     0
  3
Dot (.5x) ........................................
 72
    65
 73
     2
 40
0.635
 49
0.0
 74
     0
 49
-0.635
 74
     0
  0
ENDTAB
  0
TABLE
  2
LAYER
  5
2
102
{ACAD_XDICTIONARY
360
193
102
}
330
0
100
AcDbSymbolTable
 70
    18
  0
LAYER
  5
10
330
2
100
AcDbSymbolTableRecord
100
AcDbLayerTableRecord
  2
0
 70
     0
 62
     7
  6
Continuous
370
    -3
390
F
  0
LAYER
  5
6F
330
2
100
AcDbSymbolTableRecord
100
AcDbLayerTableRecord
  2
FORMAT
 70
     0
 62
     2
  6
Continuous
370
    -3
390
F
  0
LAYER
  5
70
330
2
100
AcDbSymbolTableRecord
100
AcDbLayerTableRecord
  2
외형선
 70
     0
 62
     4
  6
Continuous
370
    30
390
F
  0
LAYER
  5
71
330
2
100
AcDbSymbolTableRecord
100
AcDbLayerTableRecord
  2
숨은선
 70
     0
 62
     2
  6
HIDDEN
370
    15
390
F
  0
LAYER
  5
72
330
2
100
AcDbSymbolTableRecord
100
AcDbLayerTableRecord
  2
중심선
 70
     0
 62
     1
  6
CENTERX2
370
    -3
390
F
  0
LAYER
  5
73
330
2
100
AcDbSymbolTableRecord
100
AcDbLayerTableRecord
  2
파단선
 70
     0
 62
     4
  6
Continuous
370
    -3
390
F
  0
LAYER
  5
74
330
2
100
AcDbSymbolTableRecord
100
AcDbLayerTableRecord
  2
해칭선
 70
     0
 62
   100
  6
Continuous
370
    -3
390
F
  0
LAYER
  5
75
330
2
100
AcDbSymbolTableRecord
100
AcDbLayerTableRecord
  2
가는실선
 70
     0
 62
     4
  6
Continuous
370
    -3
390
F
  0
LAYER
  5
76
330
2
100
AcDbSymbolTableRecord
100
AcDbLayerTableRecord
  2
치수_보조선
 70
     0
 62
     4
  6
Continuous
370
    -3
390
F
  0
LAYER
  5
77
330
2
100
AcDbSymbolTableRecord
100
AcDbLayerTableRecord
  2
치수문자_일반주서
 70
     0
 62
     7
  6
Continuous
370
    15
390
F
  0
LAYER
  5
78
330
2
100
AcDbSymbolTableRecord
100
AcDbLayerTableRecord
  2
개별주서
 70
     0
 62
   100
  6
Continuous
370
    30
390
F
  0
LAYER
  5
79
330
2
100
AcDbSymbolTableRecord
100
AcDbLayerTableRecord
  2
중간선
 70
     0
 62
     2
  6
Continuous
370
    15
390
F
  0
LAYER
  5
7A
330
2
100
AcDbSymbolTableRecord
100
AcDbLayerTableRecord
  2
윤곽선
 70
     0
 62
     3
  6
Continuous
370
    40
390
F
  0
LAYER
  5
7B
330
2
100
AcDbSymbolTableRecord
100
AcDbLayerTableRecord
  2
중심마크
 70
     0
 62
   100
  6
Continuous
370
    30
390
F
  0
LAYER
  5
7C
330
2
100
AcDbSymbolTableRecord
100
AcDbLayerTableRecord
  2
가상선
 70
     0
 62
     4
  6
PHANTOM
370
    -3
390
F
  0
LAYER
  5
7D
330
2
100
AcDbSymbolTableRecord
100
AcDbLayerTableRecord
  2
특수지정선
 70
     0
 62
     5
  6
CENTERX2
370
    60
390
F
  0
LAYER
  5
7E
330
2
100
AcDbSymbolTableRecord
100
AcDbLayerTableRecord
  2
참조1
 70
     0
 62
    -4
  6
Continuous
370
    -3
390
F
  0
LAYER
  5
15C
330
2
100
AcDbSymbolTableRecord
100
AcDbLayerTableRecord
  2
Defpoints
 70
     0
 62
     7
  6
Continuous
290
     0
370
    -3
390
F
  0
ENDTAB
  0
TABLE
  2
STYLE
  5
3
330
0
100
AcDbSymbolTable
 70
     2
  0
STYLE
  5
11
330
3
100
AcDbSymbolTableRecord
100
AcDbTextStyleTableRecord
  2
Standard
 70
     0
 40
0.0
 41
1.0
 50
0.0
 71
     0
 42
3.5
  3
txt
  4

  0
STYLE
  5
94
330
3
100
AcDbSymbolTableRecord
100
AcDbTextStyleTableRecord
  2
SLDTEXTSTYLE0
 70
     0
 40
0.0
 41
0.75
 50
0.0
 71
     0
 42
3.5
  3
TXT
  4

  0
ENDTAB
  0
TABLE
  2
VIEW
  5
6
330
0
100
AcDbSymbolTable
 70
     0
  0
ENDTAB
  0
TABLE
  2
UCS
  5
7
330
0
100
AcDbSymbolTable
 70
     0
  0
ENDTAB
  0
TABLE
  2
APPID
  5
9
330
0
100
AcDbSymbolTable
 70
     2
  0
APPID
  5
12
330
9
100
AcDbSymbolTableRecord
100
AcDbRegAppTableRecord
  2
ACAD
 70
     0
  0
APPID
  5
163
330
9
100
AcDbSymbolTableRecord
100
AcDbRegAppTableRecord
  2
PE_URL
 70
     0
  0
ENDTAB
  0
TABLE
  2
DIMSTYLE
  5
A
330
0
100
AcDbSymbolTable
 70
     4
100
AcDbDimStyleTable
  0
DIMSTYLE
105
27
330
A
100
AcDbSymbolTableRecord
100
AcDbDimStyleTableRecord
  2
ISO-25
 70
     0
 41
2.5
 42
0.625
 43
3.75
 44
1.25
 73
     0
 74
     0
 77
     1
 78
     8
140
2.5
141
2.5
143
0.03937007874016
147
0.625
171
     3
172
     1
178
     0
271
     2
272
     2
274
     3
278
    44
283
     0
284
     8
340
11
  0
DIMSTYLE
105
DA
102
{ACAD_REACTORS
330
D9
330
EE
330
102
330
117
102
}
330
A
100
AcDbSymbolTableRecord
100
AcDbDimStyleTableRecord
  2
SLDDIMSTYLE0
 70
     0
 41
3.302
 44
0.0
 45
0.000000001
 73
     0
 74
     0
 77
     1
 78
    12
 79
     3
140
3.5
143
0.0393700787401575
147
0.875
148
0.000000001
170
     1
172
     1
173
     1
178
     0
271
     2
272
     2
276
     2
284
    12
289
     0
340
94
  0
DIMSTYLE
105
103
330
A
100
AcDbSymbolTableRecord
100
AcDbDimStyleTableRecord
  2
SLDDIMSTYLE1
 70
     0
 41
3.302
 44
0.0
 45
0.000000001
 73
     0
 74
     0
 77
     1
 78
     4
 79
     1
140
3.5
143
0.0393700787401575
147
0.875
148
0.000000001
170
     1
173
     1
178
     0
271
     2
272
     2
276
     2
284
    12
340
94
  0
DIMSTYLE
105
118
330
A
100
AcDbSymbolTableRecord
100
AcDbDimStyleTableRecord
  2
SLDDIMSTYLE2
 70
     0
 41
3.302
 44
0.0
 45
0.000000001
 73
     0
 74
     0
 77
     1
 78
    12
 79
     3
140
3.5
143
0.0393700787401575
147
0.875
148
0.000000001
170
     1
173
     1
178
     0
271
     2
272
     2
276
     2
284
    12
340
94
  0
ENDTAB
  0
TABLE
  2
BLOCK_RECORD
  5
1
330
0
100
AcDbSymbolTable
 70
     9
  0
BLOCK_RECORD
  5
1F
330
1
100
AcDbSymbolTableRecord
100
AcDbBlockTableRecord
  2
*Model_Space
340
22
  0
BLOCK_RECORD
  5
1B
330
1
100
AcDbSymbolTableRecord
100
AcDbBlockTableRecord
  2
*Paper_Space
340
1E
  0
BLOCK_RECORD
  5
23
330
1
100
AcDbSymbolTableRecord
100
AcDbBlockTableRecord
  2
*Paper_Space0
340
26
  0
BLOCK_RECORD
  5
7F
330
1
100
AcDbSymbolTableRecord
100
AcDbBlockTableRecord
  2
블럭10
340
0
102
{BLKREFS
331
D2
102
}
  0
BLOCK_RECORD
  5
DB
330
1
100
AcDbSymbolTableRecord
100
AcDbBlockTableRecord
  2
_D
340
0
  0
BLOCK_RECORD
  5
EF
330
1
100
AcDbSymbolTableRecord
100
AcDbBlockTableRecord
  2
_D_1
340
0
  0
BLOCK_RECORD
  5
104
330
1
100
AcDbSymbolTableRecord
100
AcDbBlockTableRecord
  2
_D_2
340
0
  0
BLOCK_RECORD
  5
119
330
1
100
AcDbSymbolTableRecord
100
AcDbBlockTableRecord
  2
_D_3
340
0
  0
BLOCK_RECORD
  5
132
330
1
100
AcDbSymbolTableRecord
100
AcDbBlockTableRecord
  2
SW_DOWELSYMBOL_0
340
0
102
{BLKREFS
331
138
102
}
  0
BLOCK_RECORD
  5
197
330
1
100
AcDbSymbolTableRecord
100
AcDbBlockTableRecord
  2
*D7
340
0
  0
BLOCK_RECORD
  5
1A9
330
1
100
AcDbSymbolTableRecord
100
AcDbBlockTableRecord
  2
*D8
340
0
  0
ENDTAB
  0
ENDSEC
  0
SECTION
  2
BLOCKS
  0
BLOCK
  5
20
330
1F
100
AcDbEntity
  8
0
100
AcDbBlockBegin
  2
*Model_Space
 70
     0
 10
0.0
 20
0.0
 30
0.0
  3
*Model_Space
  1
*Model_Space
  0
ENDBLK
  5
21
330
1F
100
AcDbEntity
  8
0
100
AcDbBlockEnd
  0
BLOCK
  5
1C
330
1B
100
AcDbEntity
 67
     1
  8
0
100
AcDbBlockBegin
  2
*Paper_Space
 70
     0
 10
0.0
 20
0.0
 30
0.0
  3
*Paper_Space
  1
*Paper_Space
  0
ENDBLK
  5
1D
330
1B
100
AcDbEntity
 67
     1
  8
0
100
AcDbBlockEnd
  0
BLOCK
  5
24
330
23
100
AcDbEntity
  8
0
100
AcDbBlockBegin
  2
*Paper_Space0
 70
     0
 10
0.0
 20
0.0
 30
0.0
  3
*Paper_Space0
  1
*Paper_Space0
  0
ENDBLK
  5
25
330
23
100
AcDbEntity
  8
0
100
AcDbBlockEnd
  0
BLOCK
  5
80
330
7F
100
AcDbEntity
  8
0
100
AcDbBlockBegin
  2
블럭10
 70
     2
 10
0.0
 20
0.0
 30
0.0
  3
블럭10
  1
블럭10
  0
ELLIPSE
  5
82
330
7F
100
AcDbEntity
  8
중심선
100
AcDbEllipse
 10
20.54032771741204
 20
12.0471743016438
 30
0.0
 11
6.600054785286829
 21
-1.261213355974178E-13
 31
0.0
210
0.0
220
0.0
230
1.0
 40
0.636358354079598
 41
0.9219305317359503
 42
6.513795318482858
  0
ELLIPSE
  5
83
330
7F
100
AcDbEntity
  8
중심선
100
AcDbEllipse
 10
20.54032771746488
 20
12.04717430159265
 30
0.0
 11
3.960054785062283
 21
1.540847449632565E-10
 31
0.0
210
0.0
220
0.0
230
1.0
 40
0.3939339440162632
 41
1.131841032648279
 42
5.62031148352944
  0
LINE
  5
84
330
7F
100
AcDbEntity
  8
중심선
100
AcDbLine
 10
2.268634060543552
 20
16.24717430164393
 30
0.0
 11
5.714909304380834
 21
16.24717430164393
 31
0.0
  0
LINE
  5
85
330
7F
100
AcDbEntity
  8
중심선
100
AcDbLine
 10
5.245725140726316
 20
7.84717430164391
 30
0.0
 11
8.692000384563599
 21
7.84717430164391
 31
0.0
  0
LINE
  5
86
330
7F
100
AcDbEntity
  8
중심선
100
AcDbLine
 10
15.74043728645272
 20
16.24717430164393
 30
0.0
 11
8.692000384563599
 21
7.84717430164391
 31
0.0
  0
LINE
  5
87
330
7F
100
AcDbEntity
  8
중심선
100
AcDbLine
 10
0.1404042013395286
 20
13.71084872107135
 30
0.0
 11
3.58671253028996
 21
13.71088815037384
 31
0.0
  0
LINE
  5
88
330
7F
100
AcDbEntity
  8
중심선
100
AcDbLine
 10
2.750260043222114
 20
10.84717430164391
 30
0.0
 11
6.196535287059397
 21
10.84717430164391
 31
0.0
  0
LINE
  5
89
330
7F
100
AcDbEntity
  8
중심선
100
AcDbLine
 10
12.29416204261559
 20
16.24717430164393
 30
0.0
 11
5.245725140726316
 21
7.84717430164391
 31
0.0
  0
LINE
  5
8A
330
7F
100
AcDbEntity
  8
중심선
100
AcDbLine
 10
10.72767329541681
 20
16.24717430164393
 30
0.0
 11
6.196535287059397
 21
10.84717430164391
 31
0.0
  0
LINE
  5
8B
330
7F
100
AcDbEntity
  8
중심선
100
AcDbLine
 10
7.28139805157953
 20
16.24717430164393
 30
0.0
 11
2.750260043222114
 21
10.84717430164391
 31
0.0
  0
LINE
  5
8C
330
7F
100
AcDbEntity
  8
중심선
100
AcDbLine
 10
5.714909304380834
 20
16.24717430164393
 30
0.0
 11
3.58671253028996
 21
13.71088815037384
 31
0.0
  0
LINE
  5
8D
330
7F
100
AcDbEntity
  8
중심선
100
AcDbLine
 10
2.268634060543552
 20
16.24717430164393
 30
0.0
 11
0.1404042013395286
 21
13.71084872107135
 31
0.0
  0
LINE
  5
8E
330
7F
100
AcDbEntity
  8
중심선
100
AcDbLine
 10
7.28139805157953
 20
16.24717430164393
 30
0.0
 11
10.72767329541681
 21
16.24717430164393
 31
0.0
  0
LINE
  5
8F
330
7F
100
AcDbEntity
  8
중심선
100
AcDbLine
 10
12.29416204261559
 20
16.24717430164393
 30
0.0
 11
15.74043728645272
 21
16.24717430164393
 31
0.0
  0
LINE
  5
90
330
7F
100
AcDbEntity
  8
중심선
100
AcDbLine
 10
19.22036997980202
 20
11.08717430171403
 30
0.0
 11
23.66174974927406
 21
11.08717430171406
 31
0.0
  0
LINE
  5
91
330
7F
100
AcDbEntity
  8
중심선
100
AcDbLine
 10
19.22039502424796
 20
13.00717430171391
 30
0.0
 11
19.22036997980202
 21
11.08717430171403
 31
0.0
  0
LINE
  5
92
330
7F
100
AcDbEntity
  8
중심선
100
AcDbLine
 10
19.22039502424796
 20
13.00717430171391
 30
0.0
 11
26.96566020931264
 21
13.00717430171391
 31
0.0
  0
LINE
  5
93
330
7F
100
AcDbEntity
  8
중심선
100
AcDbLine
 10
22.22332737316547
 20
13.45928029700563
 30
0.0
 11
24.52862924686651
 21
15.39360700705356
 31
0.0
  0
ATTDEF
  5
95
330
7F
100
AcDbEntity
  8
FORMAT
 62
     2
100
AcDbText
 10
4.408487351596664
 20
2.075366912832191
 30
0.0
 40
4.233333333333333
  1
E1050013
 41
0.75
  7
SLDTEXTSTYLE0
 11
4.408487351596664
 21
-0.0412997538344756
 31
0.0
100
AcDbAttributeDefinition
  3

  2
AUTOATTR0
 70
     0
 74
     1
  0
ENDBLK
  5
81
330
7F
100
AcDbEntity
  8
0
100
AcDbBlockEnd
  0
BLOCK
  5
DC
330
DB
100
AcDbEntity
  8
0
100
AcDbBlockBegin
  2
_D
 70
     0
 10
0.0
 20
0.0
 30
0.0
  3
_D
  1
_D
  0
LINE
  5
DE
330
DB
100
AcDbEntity
  8
치수문자_일반주서
 62
     0
370
    -2
100
AcDbLine
 10
-17.9036328466036
 20
4.762499999999994
 30
0.0
 11
-49.68749999999998
 21
4.762499999999871
 31
0.0
  0
LINE
  5
DF
330
DB
100
AcDbEntity
  8
치수문자_일반주서
 62
     0
370
    -2
100
AcDbLine
 10
-17.9036328466036
 20
-4.762500000000005
 30
0.0
 11
-49.68749999999994
 21
-4.762500000000127
 31
0.0
  0
LINE
  5
E0
330
DB
100
AcDbEntity
  8
치수문자_일반주서
 62
     0
370
    -2
100
AcDbLine
 10
-49.68749999999998
 20
4.762499999999871
 30
0.0
 11
-49.6875000000001
 21
37.61649999999996
 31
0.0
  0
LINE
  5
E1
330
DB
100
AcDbEntity
  8
치수문자_일반주서
 62
     0
370
    -2
100
AcDbLine
 10
-49.68749999999998
 20
4.762499999999871
 30
0.0
 11
-49.68749999999994
 21
-4.762500000000127
 31
0.0
  0
LINE
  5
E2
330
DB
100
AcDbEntity
  8
치수문자_일반주서
 62
     0
370
    -2
100
AcDbLine
 10
-49.68749999999999
 20
8.064499999999871
 30
0.0
 11
-49.68750000000001
 21
11.36649999999987
 31
0.0
  0
LINE
  5
E3
330
DB
100
AcDbEntity
  8
치수문자_일반주서
 62
     0
370
    -2
100
AcDbLine
 10
-49.68749999999993
 20
-8.064500000000127
 30
0.0
 11
-49.68749999999991
 21
-11.36650000000013
 31
0.0
  0
SOLID
  5
E4
330
DB
100
AcDbEntity
  8
치수문자_일반주서
 62
     0
100
AcDbTrace
 10
-50.23783333333333
 20
8.06449999999987
 30
0.0
 11
-49.13716666666666
 21
8.064499999999873
 31
0.0
 12
-49.68749999999998
 22
4.762499999999871
 32
0.0
 13
-49.68749999999998
 23
4.762499999999871
 33
0.0
  0
SOLID
  5
E5
330
DB
100
AcDbEntity
  8
치수문자_일반주서
 62
     0
100
AcDbTrace
 10
-49.13716666666659
 20
-8.064500000000125
 30
0.0
 11
-50.23783333333326
 21
-8.064500000000129
 31
0.0
 12
-49.68749999999994
 22
-4.762500000000127
 32
0.0
 13
-49.68749999999994
 23
-4.762500000000127
 33
0.0
  0
MTEXT
  5
E6
330
DB
100
AcDbEntity
  8
치수문자_일반주서
 62
     0
100
AcDbMText
 10
-54.06250000000005
 20
24.49149999999995
 30
0.0
 40
3.5
 41
0.0
 71
     2
 72
     1
  1
\A1;%%c9.53 [3/8]
  7
SLDTEXTSTYLE0
 11
-3.729883127349608E-15
 21
1.0
 31
0.0
 73
     1
 44
1.0
  0
POINT
  5
1E6
330
DB
100
AcDbEntity
  8
Defpoints
 62
     0
100
AcDbPoint
 10
-17.8411328466036
 20
4.762499999999994
 30
0.0
  0
POINT
  5
1E7
330
DB
100
AcDbEntity
  8
Defpoints
 62
     0
100
AcDbPoint
 10
-17.8411328466036
 20
-4.762500000000005
 30
0.0
  0
POINT
  5
1E8
330
DB
100
AcDbEntity
  8
Defpoints
 62
     0
100
AcDbPoint
 10
-49.68749999999994
 20
-4.762500000000124
 30
0.0
  0
ENDBLK
  5
DD
330
DB
100
AcDbEntity
  8
0
100
AcDbBlockEnd
  0
BLOCK
  5
F0
330
EF
100
AcDbEntity
  8
0
100
AcDbBlockBegin
  2
_D_1
 70
     0
 10
0.0
 20
0.0
 30
0.0
  3
_D_1
  1
_D_1
  0
LINE
  5
F2
330
EF
100
AcDbEntity
  8
치수문자_일반주서
 62
     0
370
    -2
100
AcDbLine
 10
39.75000000000002
 20
-2.577507187412722
 30
0.0
 11
74.5290736325838
 21
-2.577507187412589
 31
0.0
  0
LINE
  5
F3
330
EF
100
AcDbEntity
  8
치수문자_일반주서
 62
     0
370
    -2
100
AcDbLine
 10
39.75000000000002
 20
2.577507187412721
 30
0.0
 11
74.52907363258379
 21
2.577507187412852
 31
0.0
  0
LINE
  5
F4
330
EF
100
AcDbEntity
  8
치수문자_일반주서
 62
     0
370
    -2
100
AcDbLine
 10
74.52907363258379
 20
2.577507187412852
 30
0.0
 11
74.52907363258369
 21
38.93150718741285
 31
0.0
  0
LINE
  5
F5
330
EF
100
AcDbEntity
  8
치수문자_일반주서
 62
     0
370
    -2
100
AcDbLine
 10
74.5290736325838
 20
-2.577507187412589
 30
0.0
 11
74.52907363258379
 21
2.577507187412852
 31
0.0
  0
LINE
  5
F6
330
EF
100
AcDbEntity
  8
치수문자_일반주서
 62
     0
370
    -2
100
AcDbLine
 10
74.52907363258382
 20
-5.879507187412589
 30
0.0
 11
74.52907363258383
 21
-9.181507187412588
 31
0.0
  0
LINE
  5
F7
330
EF
100
AcDbEntity
  8
치수문자_일반주서
 62
     0
370
    -2
100
AcDbLine
 10
74.52907363258377
 20
5.879507187412852
 30
0.0
 11
74.52907363258376
 21
9.181507187412851
 31
0.0
  0
SOLID
  5
F8
330
EF
100
AcDbEntity
  8
치수문자_일반주서
 62
     0
100
AcDbTrace
 10
75.07940696591714
 20
-5.879507187412587
 30
0.0
 11
73.97874029925049
 21
-5.879507187412591
 31
0.0
 12
74.5290736325838
 22
-2.577507187412589
 32
0.0
 13
74.5290736325838
 23
-2.577507187412589
 33
0.0
  0
SOLID
  5
F9
330
EF
100
AcDbEntity
  8
치수문자_일반주서
 62
     0
100
AcDbTrace
 10
73.97874029925045
 20
5.87950718741285
 30
0.0
 11
75.0794069659171
 21
5.879507187412853
 31
0.0
 12
74.52907363258379
 22
2.577507187412852
 32
0.0
 13
74.52907363258379
 23
2.577507187412852
 33
0.0
  0
MTEXT
  5
FA
330
EF
100
AcDbEntity
  8
치수문자_일반주서
 62
     0
100
AcDbMText
 10
70.15407363258373
 20
24.05650718741284
 30
0.0
 40
3.5
 41
0.0
 71
     2
 72
     1
  1
\A1;%%c5.16 [13/64]
  7
SLDTEXTSTYLE0
 11
-2.756705157719993E-15
 21
1.0
 31
0.0
 73
     1
 44
1.0
  0
POINT
  5
1E9
330
EF
100
AcDbEntity
  8
Defpoints
 62
     0
100
AcDbPoint
 10
39.68750000000002
 20
-2.577507187412722
 30
0.0
  0
POINT
  5
1EA
330
EF
100
AcDbEntity
  8
Defpoints
 62
     0
100
AcDbPoint
 10
39.68750000000002
 20
2.577507187412721
 30
0.0
  0
POINT
  5
1EB
330
EF
100
AcDbEntity
  8
Defpoints
 62
     0
100
AcDbPoint
 10
74.52907363258382
 20
2.577507187412851
 30
0.0
  0
ENDBLK
  5
F1
330
EF
100
AcDbEntity
  8
0
100
AcDbBlockEnd
  0
BLOCK
  5
105
330
104
100
AcDbEntity
  8
0
100
AcDbBlockBegin
  2
_D_2
 70
     0
 10
0.0
 20
0.0
 30
0.0
  3
_D_2
  1
_D_2
  0
LINE
  5
107
330
104
100
AcDbEntity
  8
치수문자_일반주서
 62
     0
370
    -2
100
AcDbLine
 10
39.68750000000002
 20
2.640007187412721
 30
0.0
 11
39.68750000000002
 21
14.76249999999999
 31
0.0
  0
LINE
  5
108
330
104
100
AcDbEntity
  8
치수문자_일반주서
 62
     0
370
    -2
100
AcDbLine
 10
26.98750000000002
 20
2.556663102234987
 30
0.0
 11
26.98750000000002
 21
14.76249999999999
 31
0.0
  0
LINE
  5
109
330
104
100
AcDbEntity
  8
치수문자_일반주서
 62
     0
370
    -2
100
AcDbLine
 10
39.68750000000002
 20
14.76249999999999
 30
0.0
 11
68.16650000000001
 21
14.76249999999999
 31
0.0
  0
LINE
  5
10A
330
104
100
AcDbEntity
  8
치수문자_일반주서
 62
     0
370
    -2
100
AcDbLine
 10
39.68750000000002
 20
14.76249999999999
 30
0.0
 11
26.98750000000002
 21
14.76249999999999
 31
0.0
  0
LINE
  5
10B
330
104
100
AcDbEntity
  8
치수문자_일반주서
 62
     0
370
    -2
100
AcDbLine
 10
42.98950000000002
 20
14.76249999999999
 30
0.0
 11
46.29150000000002
 21
14.76249999999999
 31
0.0
  0
LINE
  5
10C
330
104
100
AcDbEntity
  8
치수문자_일반주서
 62
     0
370
    -2
100
AcDbLine
 10
23.68550000000002
 20
14.76249999999999
 30
0.0
 11
20.38350000000002
 21
14.76249999999999
 31
0.0
  0
SOLID
  5
10D
330
104
100
AcDbEntity
  8
치수문자_일반주서
 62
     0
100
AcDbTrace
 10
42.98950000000002
 20
15.31283333333332
 30
0.0
 11
42.98950000000002
 21
14.21216666666666
 31
0.0
 12
39.68750000000002
 22
14.76249999999999
 32
0.0
 13
39.68750000000002
 23
14.76249999999999
 33
0.0
  0
SOLID
  5
10E
330
104
100
AcDbEntity
  8
치수문자_일반주서
 62
     0
100
AcDbTrace
 10
23.68550000000002
 20
14.21216666666666
 30
0.0
 11
23.68550000000002
 21
15.31283333333332
 31
0.0
 12
26.98750000000002
 22
14.76249999999999
 32
0.0
 13
26.98750000000002
 23
14.76249999999999
 33
0.0
  0
MTEXT
  5
10F
330
104
100
AcDbEntity
  8
치수문자_일반주서
 62
     0
100
AcDbMText
 10
57.22900000000002
 20
19.13749999999999
 30
0.0
 40
3.5
 41
0.0
 71
     2
 72
     1
  1
\A1;12.7 [1/2]
  7
SLDTEXTSTYLE0
 73
     1
 44
1.0
  0
POINT
  5
110
330
104
100
AcDbEntity
  8
Defpoints
 62
     0
100
AcDbPoint
 10
39.68750000000002
 20
2.577507187412721
 30
0.0
  0
POINT
  5
111
330
104
100
AcDbEntity
  8
Defpoints
 62
     0
100
AcDbPoint
 10
26.98750000000002
 20
2.494163102234987
 30
0.0
  0
POINT
  5
112
330
104
100
AcDbEntity
  8
Defpoints
 62
     0
100
AcDbPoint
 10
26.98750000000002
 20
14.76249999999999
 30
0.0
  0
ENDBLK
  5
106
330
104
100
AcDbEntity
  8
0
100
AcDbBlockEnd
  0
BLOCK
  5
11A
330
119
100
AcDbEntity
  8
0
100
AcDbBlockBegin
  2
_D_3
 70
     0
 10
0.0
 20
0.0
 30
0.0
  3
_D_3
  1
_D_3
  0
LINE
  5
11C
330
119
100
AcDbEntity
  8
치수문자_일반주서
 62
     0
370
    -2
100
AcDbLine
 10
-39.68750000000003
 20
2.640007187413024
 30
0.0
 11
-39.68750000000004
 21
24.7625
 31
0.0
  0
LINE
  5
11D
330
119
100
AcDbEntity
  8
치수문자_일반주서
 62
     0
370
    -2
100
AcDbLine
 10
39.68750000000002
 20
2.640007187412721
 30
0.0
 11
39.68750000000001
 21
24.7625
 31
0.0
  0
LINE
  5
11E
330
119
100
AcDbEntity
  8
치수문자_일반주서
 62
     0
370
    -2
100
AcDbLine
 10
-36.38550000000004
 20
24.7625
 30
0.0
 11
36.38550000000001
 21
24.7625
 31
0.0
  0
SOLID
  5
11F
330
119
100
AcDbEntity
  8
치수문자_일반주서
 62
     0
100
AcDbTrace
 10
-36.38550000000004
 20
25.31283333333333
 30
0.0
 11
-36.38550000000004
 21
24.21216666666666
 31
0.0
 12
-39.68750000000004
 22
24.7625
 32
0.0
 13
-39.68750000000004
 23
24.7625
 33
0.0
  0
SOLID
  5
120
330
119
100
AcDbEntity
  8
치수문자_일반주서
 62
     0
100
AcDbTrace
 10
36.38550000000001
 20
24.21216666666666
 30
0.0
 11
36.38550000000001
 21
25.31283333333333
 31
0.0
 12
39.68750000000001
 22
24.7625
 32
0.0
 13
39.68750000000001
 23
24.7625
 33
0.0
  0
MTEXT
  5
121
330
119
100
AcDbEntity
  8
치수문자_일반주서
 62
     0
100
AcDbMText
 10
0.0000000000000071
 20
29.1375
 30
0.0
 40
3.5
 41
0.0
 71
     2
 72
     1
  1
\A1;79.38 [3 1/8]
  7
SLDTEXTSTYLE0
 73
     1
 44
1.0
  0
POINT
  5
122
330
119
100
AcDbEntity
  8
Defpoints
 62
     0
100
AcDbPoint
 10
-39.68750000000003
 20
2.577507187413024
 30
0.0
  0
POINT
  5
123
330
119
100
AcDbEntity
  8
Defpoints
 62
     0
100
AcDbPoint
 10
39.68750000000002
 20
2.577507187412721
 30
0.0
  0
POINT
  5
124
330
119
100
AcDbEntity
  8
Defpoints
 62
     0
100
AcDbPoint
 10
39.68750000000002
 20
24.7625
 30
0.0
  0
ENDBLK
  5
11B
330
119
100
AcDbEntity
  8
0
100
AcDbBlockEnd
  0
BLOCK
  5
133
330
132
100
AcDbEntity
  8
0
100
AcDbBlockBegin
  2
SW_DOWELSYMBOL_0
 70
     0
 10
0.0
 20
0.0
 30
0.0
  3
SW_DOWELSYMBOL_0
  1
SW_DOWELSYMBOL_0
  0
CIRCLE
  5
135
330
132
100
AcDbEntity
  8
해칭선
 62
     0
100
AcDbCircle
 10
0.0
 20
0.0
 30
0.0
 40
3.000000000000003
  0
HATCH
  5
136
330
132
100
AcDbEntity
  8
0
  6
Continuous
 62
     0
370
     0
100
AcDbHatch
 10
0.0
 20
0.0
 30
0.0
210
0.0
220
0.0
230
1.0
  2
SOLID
 70
     1
 71
     0
 91
        1
 92
        0
 93
        3
 72
     2
 10
0.0
 20
0.0
 40
3.000000000000003
 50
0.0
 51
90.0
 73
     1
 72
     1
 10
0.0
 20
3.000000000000003
 11
0.0
 21
0.0
 72
     1
 10
0.0
 20
0.0
 11
3.000000000000003
 21
0.0
 97
        0
 75
     0
 76
     1
 98
        1
 10
0.0
 20
0.0
  0
HATCH
  5
137
330
132
100
AcDbEntity
  8
0
  6
Continuous
 62
     0
370
     0
100
AcDbHatch
 10
0.0
 20
0.0
 30
0.0
210
0.0
220
0.0
230
1.0
  2
SOLID
 70
     1
 71
     0
 91
        1
 92
        0
 93
        3
 72
     2
 10
0.0
 20
0.0
 40
3.000000000000003
 50
180.0
 51
270.0000000000007
 73
     1
 72
     1
 10
0.0
 20
-3.000000000000003
 11
0.0
 21
0.0
 72
     1
 10
0.0
 20
0.0
 11
-3.000000000000003
 21
0.0
 97
        0
 75
     0
 76
     1
 98
        1
 10
0.0
 20
0.0
  0
ENDBLK
  5
134
330
132
100
AcDbEntity
  8
0
100
AcDbBlockEnd
  0
BLOCK
  5
198
330
197
100
AcDbEntity
  8
0
100
AcDbBlockBegin
  2
*D7
 70
     1
 10
0.0
 20
0.0
 30
0.0
  3
*D7
  1
*D7
  0
LINE
  5
19A
330
197
100
AcDbEntity
  8
치수문자_일반주서
 62
     0
370
    -2
100
AcDbLine
 10
16.129
 20
3.155101899082702
 30
0.0
 11
16.129
 21
16.26894362990562
 31
0.0
  0
LINE
  5
19B
330
197
100
AcDbEntity
  8
치수문자_일반주서
 62
     0
370
    -2
100
AcDbLine
 10
6.603999999999999
 20
2.633059590344415
 30
0.0
 11
6.603999999999999
 21
16.26894362990562
 31
0.0
  0
LINE
  5
19C
330
197
100
AcDbEntity
  8
치수문자_일반주서
 62
     0
370
    -2
100
AcDbLine
 10
16.129
 20
16.26894362990562
 30
0.0
 11
46.358
 21
16.26894362990562
 31
0.0
  0
LINE
  5
19D
330
197
100
AcDbEntity
  8
치수문자_일반주서
 62
     0
370
    -2
100
AcDbLine
 10
16.129
 20
16.26894362990562
 30
0.0
 11
6.603999999999999
 21
16.26894362990562
 31
0.0
  0
LINE
  5
19E
330
197
100
AcDbEntity
  8
치수문자_일반주서
 62
     0
370
    -2
100
AcDbLine
 10
19.431
 20
16.26894362990562
 30
0.0
 11
22.733
 21
16.26894362990562
 31
0.0
  0
LINE
  5
19F
330
197
100
AcDbEntity
  8
치수문자_일반주서
 62
     0
370
    -2
100
AcDbLine
 10
3.302
 20
16.26894362990562
 30
0.0
 11
0.0
 21
16.26894362990562
 31
0.0
  0
SOLID
  5
1A0
330
197
100
AcDbEntity
  8
치수문자_일반주서
 62
     0
100
AcDbTrace
 10
19.431
 20
16.81927696323896
 30
0.0
 11
19.431
 21
15.71861029657229
 31
0.0
 12
16.129
 22
16.26894362990562
 32
0.0
 13
16.129
 23
16.26894362990562
 33
0.0
  0
SOLID
  5
1A1
330
197
100
AcDbEntity
  8
치수문자_일반주서
 62
     0
100
AcDbTrace
 10
3.302
 20
15.71861029657229
 30
0.0
 11
3.302
 21
16.81927696323896
 31
0.0
 12
6.603999999999999
 22
16.26894362990562
 32
0.0
 13
6.603999999999999
 23
16.26894362990562
 33
0.0
  0
MTEXT
  5
1A2
330
197
100
AcDbEntity
  8
치수문자_일반주서
 62
     0
100
AcDbMText
 10
34.5455
 20
20.64394362990562
 30
0.0
 40
3.5
 41
0.0
 71
     2
 72
     1
  1
\A1;9.53 [3/8]
  7
SLDTEXTSTYLE0
 73
     1
 44
1.0
  0
POINT
  5
1A3
330
197
100
AcDbEntity
  8
Defpoints
 62
     0
100
AcDbPoint
 10
16.129
 20
3.092601899082702
 30
0.0
  0
POINT
  5
1A4
330
197
100
AcDbEntity
  8
Defpoints
 62
     0
100
AcDbPoint
 10
6.603999999999999
 20
2.570559590344415
 30
0.0
  0
POINT
  5
1A5
330
197
100
AcDbEntity
  8
Defpoints
 62
     0
100
AcDbPoint
 10
6.603999999999999
 20
16.26894362990562
 30
0.0
  0
ENDBLK
  5
199
330
197
100
AcDbEntity
  8
0
100
AcDbBlockEnd
  0
BLOCK
  5
1AA
330
1A9
100
AcDbEntity
  8
0
100
AcDbBlockBegin
  2
*D8
 70
     1
 10
0.0
 20
0.0
 30
0.0
  3
*D8
  1
*D8
  0
LINE
  5
1AC
330
1A9
100
AcDbEntity
  8
치수문자_일반주서
 62
     0
370
    -2
100
AcDbLine
 10
74.17603086205578
 20
-9.502260835818298
 30
0.0
 11
74.17603086205578
 21
3.611580895004622
 31
0.0
  0
LINE
  5
1AD
330
1A9
100
AcDbEntity
  8
치수문자_일반주서
 62
     0
370
    -2
100
AcDbLine
 10
64.65103086205578
 20
-10.02430314455659
 30
0.0
 11
64.65103086205578
 21
3.611580895004622
 31
0.0
  0
LINE
  5
1AE
330
1A9
100
AcDbEntity
  8
치수문자_일반주서
 62
     0
370
    -2
100
AcDbLine
 10
74.17603086205578
 20
3.611580895004622
 30
0.0
 11
104.4050308620558
 21
3.611580895004622
 31
0.0
  0
LINE
  5
1AF
330
1A9
100
AcDbEntity
  8
치수문자_일반주서
 62
     0
370
    -2
100
AcDbLine
 10
74.17603086205578
 20
3.611580895004622
 30
0.0
 11
64.65103086205578
 21
3.611580895004622
 31
0.0
  0
LINE
  5
1B0
330
1A9
100
AcDbEntity
  8
치수문자_일반주서
 62
     0
370
    -2
100
AcDbLine
 10
77.47803086205579
 20
3.611580895004622
 30
0.0
 11
80.78003086205578
 21
3.611580895004622
 31
0.0
  0
LINE
  5
1B1
330
1A9
100
AcDbEntity
  8
치수문자_일반주서
 62
     0
370
    -2
100
AcDbLine
 10
61.34903086205578
 20
3.611580895004622
 30
0.0
 11
58.04703086205578
 21
3.611580895004622
 31
0.0
  0
SOLID
  5
1B2
330
1A9
100
AcDbEntity
  8
치수문자_일반주서
 62
     0
100
AcDbTrace
 10
77.47803086205579
 20
4.161914228337955
 30
0.0
 11
77.47803086205579
 21
3.061247561671288
 31
0.0
 12
74.17603086205578
 22
3.611580895004622
 32
0.0
 13
74.17603086205578
 23
3.611580895004622
 33
0.0
  0
SOLID
  5
1B3
330
1A9
100
AcDbEntity
  8
치수문자_일반주서
 62
     0
100
AcDbTrace
 10
61.34903086205578
 20
3.061247561671288
 30
0.0
 11
61.34903086205578
 21
4.161914228337955
 31
0.0
 12
64.65103086205578
 22
3.611580895004622
 32
0.0
 13
64.65103086205578
 23
3.611580895004622
 33
0.0
  0
MTEXT
  5
1B4
330
1A9
100
AcDbEntity
  8
치수문자_일반주서
 62
     0
100
AcDbMText
 10
92.59253086205578
 20
7.986580895004622
 30
0.0
 40
3.5
 41
0.0
 71
     2
 72
     1
  1
\A1;9.53 [3/8]
  7
SLDTEXTSTYLE0
 73
     1
 44
1.0
  0
POINT
  5
1B5
330
1A9
100
AcDbEntity
  8
Defpoints
 62
     0
100
AcDbPoint
 10
74.17603086205578
 20
-9.564760835818298
 30
0.0
  0
POINT
  5
1B6
330
1A9
100
AcDbEntity
  8
Defpoints
 62
     0
100
AcDbPoint
 10
64.65103086205578
 20
-10.08680314455659
 30
0.0
  0
POINT
  5
1B7
330
1A9
100
AcDbEntity
  8
Defpoints
 62
     0
100
AcDbPoint
 10
64.65103086205578
 20
3.611580895004622
 30
0.0
  0
ENDBLK
  5
1AB
330
1A9
100
AcDbEntity
  8
0
100
AcDbBlockEnd
  0
ENDSEC
  0
SECTION
  2
ENTITIES
  0
LINE
  5
96
330
1F
100
AcDbEntity
  8
외형선
  6
Continuous
370
    15
100
AcDbLine
 10
17.8411328466036
 20
4.762499999999997
 30
0.0
 11
4.838700000000161
 21
4.762499999999996
 31
0.0
  0
LINE
  5
97
330
1F
100
AcDbEntity
  8
외형선
  6
Continuous
370
    15
100
AcDbLine
 10
-17.8411328466036
 20
-4.762500000000003
 30
0.0
 11
17.84113284660359
 21
-4.7625
 31
0.0
  0
LINE
  5
98
330
1F
100
AcDbEntity
  8
외형선
  6
Continuous
370
    15
100
AcDbLine
 10
17.8411328466036
 20
-4.7625
 30
0.0
 11
25.98750000000002
 21
-2.579687500000001
 31
0.0
  0
LINE
  5
99
330
1F
100
AcDbEntity
  8
외형선
  6
Continuous
370
    15
100
AcDbLine
 10
25.98750000000002
 20
2.579687499999999
 30
0.0
 11
17.8411328466036
 21
4.762499999999998
 31
0.0
  0
LINE
  5
9C
330
1F
100
AcDbEntity
  8
외형선
  6
Continuous
370
    15
100
AcDbLine
 10
26.98750000000002
 20
2.579687499999999
 30
0.0
 11
25.98750000000002
 21
2.579687499999999
 31
0.0
  0
LINE
  5
9D
330
1F
100
AcDbEntity
  8
외형선
  6
Continuous
370
    15
100
AcDbLine
 10
25.98750000000002
 20
-2.579687500000001
 30
0.0
 11
26.98750000000002
 21
-2.579687500000001
 31
0.0
  0
SPLINE
  5
9E
330
1F
100
AcDbEntity
  8
0
  6
Continuous
 62
     1
370
    15
100
AcDbSpline
210
0.0
220
0.0
230
1.0
 70
     8
 71
     3
 72
     9
 73
     5
 74
     0
 42
0.000000001
 43
0.00000001
 40
0.0
 40
0.0
 40
0.0
 40
0.0
 40
0.4380215397811171
 40
0.9999999999999999
 40
0.9999999999999999
 40
0.9999999999999999
 40
0.9999999999999999
 10
33.00504499873443
 20
0.6609884554589102
 30
0.0
 10
32.90021136188808
 20
0.7107384160332376
 30
0.0
 10
32.66087692893134
 20
0.8243172153753608
 30
0.0
 10
32.42184648711358
 20
0.9490117900512155
 30
0.0
 10
32.28751652747539
 20
1.019087455125201
 30
0.0
1001
PE_URL
1000

  0
LINE
  5
9F
330
1F
100
AcDbEntity
  8
0
  6
Continuous
 62
     1
370
    15
100
AcDbLine
 10
27.08371397234986
 20
2.5796875
 30
0.0
 11
26.98750000000002
 21
2.5796875
 31
0.0
1001
PE_URL
1000

  0
SPLINE
  5
A0
330
1F
100
AcDbEntity
  8
0
  6
Continuous
 62
     1
370
    15
100
AcDbSpline
210
0.0
220
0.0
230
1.0
 70
     8
 71
     3
 72
    17
 73
    13
 74
     0
 42
0.000000001
 43
0.00000001
 40
0.0
 40
0.0
 40
0.0
 40
0.0
 40
0.2027854684861009
 40
0.3449007010973151
 40
0.4371939297019477
 40
0.5284878389627653
 40
0.622658760462598
 40
0.7166390028378989
 40
0.8100354507535461
 40
0.899206490065401
 40
0.9985605874488338
 40
1.0
 40
1.0
 40
1.0
 40
1.0
 10
32.15077320073988
 20
2.049919890268896
 30
0.0
 10
32.00631576924881
 20
2.042866703008733
 30
0.0
 10
31.76062030708404
 20
2.030870531640232
 30
0.0
 10
31.45002131720683
 20
2.021893333203161
 30
0.0
 10
31.22117258926112
 20
2.017378927735697
 30
0.0
 10
31.0247866792952
 20
2.015065030129853
 30
0.0
 10
30.82656132435109
 20
2.014321754349419
 30
0.0
 10
30.62707238424658
 20
2.015257064284012
 30
0.0
 10
30.43095674056596
 20
2.017731557475813
 30
0.0
 10
30.2310487222781
 20
2.022040498197996
 30
0.0
 10
30.09633686929072
 20
2.025487121297431
 30
0.0
 10
30.02486576199559
 20
2.028180213216849
 30
0.0
 10
30.02384509698498
 20
2.028218672739816
 30
0.0
1001
PE_URL
1000

  0
SPLINE
  5
A1
330
1F
100
AcDbEntity
  8
0
  6
Continuous
 62
     1
370
    15
100
AcDbSpline
210
0.0
220
0.0
230
1.0
 70
     8
 71
     3
 72
    19
 73
    15
 74
     0
 42
0.000000001
 43
0.00000001
 40
0.0
 40
0.0
 40
0.0
 40
0.0
 40
0.0869942027742647
 40
0.146871109173202
 40
0.2045988479564187
 40
0.2801066367287205
 40
0.3597526953764887
 40
0.4349071915142754
 40
0.4978337660380297
 40
0.7164164796178352
 40
0.7570383091457007
 40
0.8110380779252311
 40
0.8921821133650547
 40
1.0
 40
1.0
 40
1.0
 40
1.0
 10
38.73939178067072
 20
1.76534884613303
 30
0.0
 10
38.60983653104235
 20
1.754819478262931
 30
0.0
 10
38.39111019520245
 20
1.737042892138143
 30
0.0
 10
38.08115949392571
 20
1.719405961434121
 30
0.0
 10
37.78691507403295
 20
1.706822183092836
 30
0.0
 10
37.46691967239327
 20
1.698629015607297
 30
0.0
 10
37.12050698705789
 20
1.696576507998448
 30
0.0
 10
36.7930324048118
 20
1.701263497066836
 30
0.0
 10
36.25623260745243
 20
1.718287969338357
 30
0.0
 10
35.77151901954757
 20
1.751365324027136
 30
0.0
 10
35.30028479634264
 20
1.797903207964176
 30
0.0
 10
35.03601431840173
 20
1.826948697216349
 30
0.0
 10
34.67068355114225
 20
1.872395123477396
 30
0.0
 10
34.38585373386135
 20
1.915596001814362
 30
0.0
 10
34.2233355470613
 20
1.940245557406954
 30
0.0
1001
PE_URL
1000

  0
SPLINE
  5
A2
330
1F
100
AcDbEntity
  8
0
  6
Continuous
 62
     1
370
    15
100
AcDbSpline
210
0.0
220
0.0
230
1.0
 70
     8
 71
     3
 72
    14
 73
    10
 74
     0
 42
0.000000001
 43
0.00000001
 40
0.0
 40
0.0
 40
0.0
 40
0.0
 40
0.2048272249086157
 40
0.3445363936399232
 40
0.4427225590032689
 40
0.5498699385363737
 40
0.6671622676164081
 40
0.9203628229048243
 40
1.0
 40
1.0
 40
1.0
 40
1.0
 10
34.2233355470613
 20
-1.940245557406955
 30
0.0
 10
34.35393721061733
 20
-1.920297415319464
 30
0.0
 10
34.5736200490928
 20
-1.8867429845659
 30
0.0
 10
34.8560442155662
 20
-1.849345689248351
 30
0.0
 10
35.07798514131537
 20
-1.822471392216646
 30
0.0
 10
35.2845987796764
 20
-1.799505215574368
 30
0.0
 10
35.59019294411375
 20
-1.769311577442416
 30
0.0
 10
35.87651172709636
 20
-1.74400504263392
 30
0.0
 10
36.09104090118175
 20
-1.732938626765443
 30
0.0
 10
36.14237071197685
 20
-1.730290795601545
 30
0.0
1001
PE_URL
1000

  0
SPLINE
  5
A3
330
1F
100
AcDbEntity
  8
0
  6
Continuous
 62
     1
370
    15
100
AcDbSpline
210
0.0
220
0.0
230
1.0
 70
     8
 71
     3
 72
    21
 73
    17
 74
     0
 42
0.000000001
 43
0.00000001
 40
0.0
 40
0.0
 40
0.0
 40
0.0
 40
0.1067869835241065
 40
0.1806820487939897
 40
0.2346587994302062
 40
0.2879507528982185
 40
0.3393561658912425
 40
0.3887683577649027
 40
0.4421582740912559
 40
0.503948430745835
 40
0.5721094844898673
 40
0.643792905679541
 40
0.7109445387836186
 40
0.7758927113684986
 40
0.8709486770709222
 40
1.0
 40
1.0
 40
1.0
 40
1.0
 10
28.27088279266892
 20
-2.146674679698579
 30
0.0
 10
28.40926523638495
 20
-2.13336750325775
 30
0.0
 10
28.64340635192724
 20
-2.110851951046751
 30
0.0
 10
28.94679975599283
 20
-2.086882175286366
 30
0.0
 10
29.18055320334618
 20
-2.070339586822237
 30
0.0
 10
29.38576518981086
 20
-2.057445161674282
 30
0.0
 10
29.58496046269206
 20
-2.046442313806121
 30
0.0
 10
29.78438136295158
 20
-2.037059020949111
 30
0.0
 10
29.99726811025512
 20
-2.028765418256505
 30
0.0
 10
30.23440057044519
 20
-2.02167251959311
 30
0.0
 10
30.4951763678192
 20
-2.016528275879519
 30
0.0
 10
30.76277677948007
 20
-2.014215150440846
 30
0.0
 10
31.02623705813939
 20
-2.014879342084928
 30
0.0
 10
31.31996614016596
 20
-2.018787131918434
 30
0.0
 10
31.69364494159974
 20
-2.027998007109129
 30
0.0
 10
31.98372925884189
 20
-2.041909189325309
 30
0.0
 10
32.15077320073988
 20
-2.049919890268897
 30
0.0
1001
PE_URL
1000

  0
LINE
  5
A4
330
1F
100
AcDbEntity
  8
외형선
  6
Continuous
370
    15
100
AcDbLine
 10
26.98750000000002
 20
-2.579687500000002
 30
0.0
 11
27.08371397234988
 21
-2.579687500000002
 31
0.0
  0
LINE
  5
A5
330
1F
100
AcDbEntity
  8
외형선
  6
Continuous
370
    15
100
AcDbLine
 10
17.8411328466036
 20
4.762499999999998
 30
0.0
 11
17.8411328466036
 21
-4.762500000000006
 31
0.0
  0
LINE
  5
A7
330
1F
100
AcDbEntity
  8
외형선
  6
Continuous
370
    15
100
AcDbLine
 10
25.98750000000002
 20
2.579687499999999
 30
0.0
 11
25.98750000000002
 21
-2.579687500000001
 31
0.0
  0
LINE
  5
A9
330
1F
100
AcDbEntity
  8
외형선
  6
Continuous
370
    15
100
AcDbLine
 10
26.98750000000002
 20
2.579687499999999
 30
0.0
 11
26.98750000000002
 21
2.494163102235085
 31
0.0
  0
SPLINE
  5
AA
330
1F
100
AcDbEntity
  8
외형선
  6
Continuous
370
    15
100
AcDbSpline
210
0.0
220
0.0
230
1.0
 70
     8
 71
     3
 72
     8
 73
     4
 74
     0
 42
0.000000001
 43
0.00000001
 40
0.0
 40
0.0
 40
0.0
 40
0.0
 40
1.0
 40
1.0
 40
1.0
 40
1.0
 10
26.09741721235977
 20
2.575189420624628
 30
0.0
 10
26.39510708584256
 20
2.565069511646112
 30
0.0
 10
26.69311295914464
 20
2.537780034724672
 30
0.0
 10
26.98749999999992
 20
2.494163102235
 30
0.0
  0
LINE
  5
AB
330
1F
100
AcDbEntity
  8
외형선
  6
Continuous
370
    15
100
AcDbLine
 10
26.09741721235977
 20
-2.517048943577429
 30
0.0
 11
26.09741721235977
 21
2.57522984685761
 31
0.0
  0
SPLINE
  5
AC
330
1F
100
AcDbEntity
  8
외형선
  6
Continuous
370
    15
100
AcDbSpline
210
0.0
220
0.0
230
1.0
 70
     8
 71
     3
 72
     8
 73
     4
 74
     0
 42
0.000000001
 43
0.00000001
 40
0.0
 40
0.0
 40
0.0
 40
0.0
 40
1.0
 40
1.0
 40
1.0
 40
1.0
 10
26.98750000000156
 20
-2.579085637142024
 30
0.0
 10
26.69308434397573
 20
-2.575395814700886
 30
0.0
 10
26.39504884435051
 20
-2.554620565044916
 30
0.0
 10
26.0973304037724
 20
-2.517073156608496
 30
0.0
  0
LINE
  5
AD
330
1F
100
AcDbEntity
  8
외형선
  6
Continuous
370
    15
100
AcDbLine
 10
26.98750000000002
 20
-2.579085637142002
 30
0.0
 11
26.98750000000002
 21
-2.579687500000001
 31
0.0
  0
SPLINE
  5
AE
330
1F
100
AcDbEntity
  8
외형선
  6
Continuous
370
    15
100
AcDbSpline
210
0.0
220
0.0
230
1.0
 70
     8
 71
     3
 72
     8
 73
     4
 74
     0
 42
0.000000001
 43
0.00000001
 40
0.0
 40
0.0
 40
0.0
 40
0.0
 40
1.0
 40
1.0
 40
1.0
 40
1.0
 10
26.98750000000165
 20
-2.185382646122478
 30
0.0
 10
26.69308434397579
 20
-2.173502496633483
 30
0.0
 10
26.39504884435054
 20
-2.147109394064338
 30
0.0
 10
26.0973304037724
 20
-2.106681229992722
 30
0.0
  0
SPLINE
  5
AF
330
1F
100
AcDbEntity
  8
외형선
  6
Continuous
370
    15
100
AcDbSpline
210
0.0
220
0.0
230
1.0
 70
     8
 71
     3
 72
     8
 73
     4
 74
     0
 42
0.000000001
 43
0.00000001
 40
0.0
 40
0.0
 40
0.0
 40
0.0
 40
1.0
 40
1.0
 40
1.0
 40
1.0
 10
26.98750000000005
 20
-0.6085652586050726
 30
0.0
 10
26.69310251357289
 20
-0.4779903921346112
 30
0.0
 10
26.39508582560688
 20
-0.3428562992940247
 30
0.0
 10
26.09738552407369
 20
-0.2063842447403879
 30
0.0
  0
SPLINE
  5
B0
330
1F
100
AcDbEntity
  8
외형선
  6
Continuous
370
    15
100
AcDbSpline
210
0.0
220
0.0
230
1.0
 70
    24
 71
     3
 72
    10
 73
     6
 74
     0
 42
0.000000001
 43
0.00000001
 40
0.0
 40
0.0
 40
0.0
 40
0.0
 40
0.4999999999999999
 40
0.4999999999999999
 40
1.0
 40
1.0
 40
1.0
 40
1.0
 10
26.98750000000002
 20
-0.6085652586050576
 30
0.0
 10
26.98750000000002
 20
-0.9726630446629061
 30
0.0
 10
26.98750000000002
 20
-1.319075193550587
 30
0.0
 10
26.98750000000002
 20
-1.870251005791908
 30
0.0
 10
26.98750000000002
 20
-2.072642192979911
 30
0.0
 10
26.98750000000002
 20
-2.185382646122411
 30
0.0
  0
SPLINE
  5
B1
330
1F
100
AcDbEntity
  8
외형선
  6
Continuous
370
    15
100
AcDbSpline
210
0.0
220
0.0
230
1.0
 70
     8
 71
     3
 72
     8
 73
     4
 74
     0
 42
0.000000001
 43
0.00000001
 40
0.0
 40
0.0
 40
0.0
 40
0.0
 40
1.0
 40
1.0
 40
1.0
 40
1.0
 10
26.98750000000005
 20
1.725484112491278
 30
0.0
 10
26.69310606791199
 20
1.760742840786045
 30
0.0
 10
26.39509305987887
 20
1.78472626111959
 30
0.0
 10
26.09739630671914
 20
1.796728410188907
 30
0.0
  0
SPLINE
  5
B2
330
1F
100
AcDbEntity
  8
외형선
  6
Continuous
370
    15
100
AcDbSpline
210
0.0
220
0.0
230
1.0
 70
    24
 71
     3
 72
    14
 73
    10
 74
     0
 42
0.000000001
 43
0.00000001
 40
0.0
 40
0.0
 40
0.0
 40
0.0
 40
0.2500000000000001
 40
0.2500000000000001
 40
0.5000000000000001
 40
0.5000000000000001
 40
0.75
 40
0.75
 40
1.0
 40
1.0
 40
1.0
 40
1.0
 10
26.98749999999977
 20
1.725484112491311
 30
0.0
 10
26.98749999999977
 20
1.613154542095502
 30
0.0
 10
26.98749999999977
 20
1.472824460433031
 30
0.0
 10
26.98749999999977
 20
1.141865941263605
 30
0.0
 10
26.98749999999977
 20
0.9513005875933287
 30
0.0
 10
26.98749999999977
 20
0.5364727211151599
 30
0.0
 10
26.98749999999977
 20
0.3124312459377422
 30
0.0
 10
26.98749999999977
 20
-0.146082112525069
 30
0.0
 10
26.98749999999977
 20
-0.3803117543194574
 30
0.0
 10
26.98749999999977
 20
-0.6085652586049464
 30
0.0
  0
SPLINE
  5
B3
330
1F
100
AcDbEntity
  8
외형선
  6
Continuous
370
    15
100
AcDbSpline
210
0.0
220
0.0
230
1.0
 70
    24
 71
     3
 72
    10
 73
     6
 74
     0
 42
0.000000001
 43
0.00000001
 40
0.0
 40
0.0
 40
0.0
 40
0.0
 40
0.5
 40
0.5
 40
1.0
 40
1.0
 40
1.0
 40
1.0
 10
26.98750000000005
 20
2.494163102234974
 30
0.0
 10
26.98750000000005
 20
2.380461696426401
 30
0.0
 10
26.98750000000005
 20
2.24996519687465
 30
0.0
 10
26.98750000000005
 20
1.983721785674546
 30
0.0
 10
26.98750000000005
 20
1.848714661202373
 30
0.0
 10
26.98750000000005
 20
1.725484112491278
 30
0.0
  0
SPLINE
  5
B4
330
1F
100
AcDbEntity
  8
외형선
  6
Continuous
370
    15
100
AcDbSpline
210
0.0
220
0.0
230
1.0
 70
    24
 71
     3
 72
     8
 73
     4
 74
     0
 42
0.000000001
 43
0.00000001
 40
0.0
 40
0.0
 40
0.0
 40
0.0
 40
1.0
 40
1.0
 40
1.0
 40
1.0
 10
26.98750000000002
 20
-2.185382646122413
 30
0.0
 10
26.98750000000002
 20
-2.319197612998443
 30
0.0
 10
26.98750000000002
 20
-2.451286841520405
 30
0.0
 10
26.98750000000002
 20
-2.579085637132027
 30
0.0
  0
SPLINE
  5
B5
330
1F
100
AcDbEntity
  8
0
  6
Continuous
 62
     1
370
    15
100
AcDbSpline
210
0.0
220
0.0
230
1.0
 70
     8
 71
     3
 72
    18
 73
    14
 74
     0
 42
0.000000001
 43
0.00000001
 40
0.0
 40
0.0
 40
0.0
 40
0.0
 40
0.0940877953370808
 40
0.1881532521357732
 40
0.2822000099079985
 40
0.3762317447582564
 40
0.4702521622891028
 40
0.5642649903835135
 40
0.652884829296266
 40
0.7415128988932598
 40
0.8301691004311232
 40
0.9188731674097806
 40
1.0
 40
1.0
 40
1.0
 40
1.0
 10
39.68750000000002
 20
-2.447970898596667
 30
0.0
 10
39.29215580143462
 20
-2.359324841638375
 30
0.0
 10
38.50156126782271
 20
-2.182053774270275
 30
0.0
 10
37.31586816250689
 20
-1.717534611585909
 30
0.0
 10
36.13045448784637
 20
-1.145178086107937
 30
0.0
 10
34.94526350451605
 20
-0.489447002833776
 30
0.0
 10
33.76026429431597
 20
0.1995944996220735
 30
0.0
 10
32.59794321318887
 20
0.8620310849667553
 30
0.0
 10
31.45855996208074
 20
1.454178555897905
 30
0.0
 10
30.34159171055072
 20
1.945137477988647
 30
0.0
 10
29.22421442756764
 20
2.311340749069221
 30
0.0
 10
28.13823182472568
 20
2.541038360245092
 30
0.0
 10
27.42460680931117
 20
2.562915294466129
 30
0.0
 10
27.08371397234987
 20
2.573365727129695
 30
0.0
1001
PE_URL
1000

  0
SPLINE
  5
B6
330
1F
100
AcDbEntity
  8
0
  6
Continuous
 62
     1
370
    15
100
AcDbSpline
210
0.0
220
0.0
230
1.0
 70
     8
 71
     3
 72
    13
 73
     9
 74
     0
 42
0.000000001
 43
0.00000001
 40
0.0
 40
0.0
 40
0.0
 40
0.0
 40
0.1689303207155611
 40
0.3377613349522226
 40
0.5065215548453036
 40
0.6752398431412455
 40
0.8439452709993837
 40
0.9999999999999999
 40
0.9999999999999999
 40
0.9999999999999999
 40
0.9999999999999999
 10
39.68750000000002
 20
-2.035301888237382
 30
0.0
 10
39.30967669543014
 20
-1.95370902448123
 30
0.0
 10
38.55425219148657
 20
-1.790571261715386
 30
0.0
 10
37.42151738459069
 20
-1.396582998155548
 30
0.0
 10
36.28931853241583
 20
-0.9225083561667278
 30
0.0
 10
35.15744385118409
 20
-0.3879964325001725
 30
0.0
 10
34.05399521184716
 20
0.1600799077218739
 30
0.0
 10
33.32779304840608
 20
0.5058441877498432
 30
0.0
 10
32.97883619695109
 20
0.6719918812962703
 30
0.0
1001
PE_URL
1000

  0
LINE
  5
B7
330
1F
100
AcDbEntity
  8
0
  6
Continuous
 62
     1
370
    15
100
AcDbLine
 10
39.68749999999994
 20
-2.447970898596668
 30
0.0
 11
39.68750000000002
 21
-2.035301888237382
 31
0.0
1001
PE_URL
1000

  0
SPLINE
  5
B8
330
1F
100
AcDbEntity
  8
0
  6
Continuous
 62
     1
370
    15
100
AcDbSpline
210
0.0
220
0.0
230
1.0
 70
     8
 71
     3
 72
    38
 73
    34
 74
     0
 42
0.000000001
 43
0.00000001
 40
0.0
 40
0.0
 40
0.0
 40
0.0
 40
0.0625
 40
0.0625
 40
0.125
 40
0.125
 40
0.1875
 40
0.1875
 40
0.25
 40
0.25
 40
0.3125
 40
0.3125
 40
0.375
 40
0.375
 40
0.4375
 40
0.4375
 40
0.5
 40
0.5
 40
0.5625
 40
0.5625
 40
0.625
 40
0.625
 40
0.6875
 40
0.6875
 40
0.75
 40
0.75
 40
0.8125
 40
0.8125
 40
0.875
 40
0.875
 40
0.9375
 40
0.9375
 40
1.0
 40
1.0
 40
1.0
 40
1.0
 10
26.9875
 20
2.494163102235274
 30
0.0
 10
27.25011694581981
 20
2.455253286221663
 30
0.0
 10
27.51728428042804
 20
2.402963897795419
 30
0.0
 10
28.04819026654539
 20
2.273811022952592
 30
0.0
 10
28.30912900886981
 20
2.19733353303204
 30
0.0
 10
28.83957230105316
 20
2.02131473498397
 30
0.0
 10
29.10689208701484
 20
1.92187928166987
 30
0.0
 10
29.63317502829943
 20
1.704991042277904
 30
0.0
 10
29.89723518009033
 20
1.586899055442557
 30
0.0
 10
30.42904340344585
 20
1.334675618755145
 30
0.0
 10
30.69140960541662
 20
1.201431953179736
 30
0.0
 10
31.2194606877363
 20
0.9232281966548133
 30
0.0
 10
31.48694180259167
 20
0.7779021353290994
 30
0.0
 10
32.01623743705088
 20
0.481615000588895
 30
0.0
 10
32.27766988160583
 20
0.3307680358408717
 30
0.0
 10
32.80920820311131
 20
0.0255367276161311
 30
0.0
 10
33.07522144497959
 20
-0.1280617485474677
 30
0.0
 10
33.59973564656752
 20
-0.4308791947409584
 30
0.0
 10
33.86678050113692
 20
-0.5817306379713694
 30
0.0
 10
34.39793508540247
 20
-0.8751700105966617
 30
0.0
 10
34.65896621431169
 20
-1.017228594474935
 30
0.0
 10
35.18906447604252
 20
-1.290626690419085
 30
0.0
 10
35.45645737371949
 20
-1.42159732795189
 30
0.0
 10
35.98336654089753
 20
-1.666009756837387
 30
0.0
 10
36.24679036987293
 20
-1.780112441623378
 30
0.0
 10
36.77863656065833
 20
-1.989080835808456
 30
0.0
 10
37.04149569526629
 20
-2.083221872540246
 30
0.0
 10
37.56899428904333
 20
-2.248965770179494
 30
0.0
 10
37.83644096737152
 20
-2.320762971285588
 30
0.0
 10
38.36615664631676
 20
-2.43873224833281
 30
0.0
 10
38.62735235561605
 20
-2.484973870907185
 30
0.0
 10
39.15871773504186
 20
-2.551381667720225
 30
0.0
 10
39.42562086294701
 20
-2.571249621207833
 30
0.0
 10
39.68750000000002
 20
-2.577507187413045
 30
0.0
1001
PE_URL
1000

  0
SPLINE
  5
B9
330
1F
100
AcDbEntity
  8
0
  6
Continuous
 62
     1
370
    15
100
AcDbSpline
210
0.0
220
0.0
230
1.0
 70
     8
 71
     3
 72
    13
 73
     9
 74
     0
 42
0.000000001
 43
0.00000001
 40
0.0
 40
0.0
 40
0.0
 40
0.0
 40
0.0601869371200123
 40
0.2403523200354856
 40
0.4206001379196694
 40
0.6009600634319779
 40
0.8004816391800503
 40
0.9999999999999999
 40
0.9999999999999999
 40
0.9999999999999999
 40
0.9999999999999999
 10
33.27210713163544
 20
-0.2407212044303874
 30
0.0
 10
33.14603675453419
 20
-0.1908258914998707
 30
0.0
 10
32.64258352906742
 20
0.0084275477943305
 30
0.0
 10
31.76154443929539
 20
0.3691682783191804
 30
0.0
 10
30.62873646124553
 20
0.8052053641606812
 30
0.0
 10
29.45527655179677
 20
1.202251097155241
 30
0.0
 10
28.24145630956814
 20
1.536606857718404
 30
0.0
 10
27.40548319147301
 20
1.662525365727755
 30
0.0
 10
26.98750000000002
 20
1.725484112491282
 30
0.0
1001
PE_URL
1000

  0
SPLINE
  5
BA
330
1F
100
AcDbEntity
  8
외형선
  6
Continuous
370
    15
100
AcDbSpline
210
0.0
220
0.0
230
1.0
 70
    24
 71
     3
 72
    10
 73
     6
 74
     0
 42
0.000000001
 43
0.00000001
 40
0.0
 40
0.0
 40
0.0
 40
0.0
 40
0.5
 40
0.5
 40
1.0
 40
1.0
 40
1.0
 40
1.0
 10
26.98750000000005
 20
2.494163102234976
 30
0.0
 10
26.98750000000005
 20
2.380461696426403
 30
0.0
 10
26.98750000000005
 20
2.249965196874653
 30
0.0
 10
26.98750000000005
 20
1.983721785674547
 30
0.0
 10
26.98750000000005
 20
1.848714661202374
 30
0.0
 10
26.98750000000005
 20
1.725484112491278
 30
0.0
  0
LINE
  5
BB
330
1F
100
AcDbEntity
  8
0
  6
Continuous
 62
     1
370
    15
100
AcDbLine
 10
39.68750000000002
 20
-2.577507187412722
 30
0.0
 11
39.68750000000001
 21
-2.447970898596664
 31
0.0
1001
PE_URL
1000

  0
SPLINE
  5
BC
330
1F
100
AcDbEntity
  8
0
  6
Continuous
 62
     1
370
    15
100
AcDbSpline
210
0.0
220
0.0
230
1.0
 70
     8
 71
     3
 72
     8
 73
     4
 74
     0
 42
0.000000001
 43
0.00000001
 40
0.0
 40
0.0
 40
0.0
 40
0.0
 40
1.0
 40
1.0
 40
1.0
 40
1.0
 10
38.09059226172506
 20
0.7223294314596178
 30
0.0
 10
37.99919291521566
 20
0.8306337022151713
 30
0.0
 10
37.91761294443727
 20
0.9348849063443978
 30
0.0
 10
37.84817027367395
 20
1.034126292439116
 30
0.0
1001
PE_URL
1000

  0
LINE
  5
BD
330
1F
100
AcDbEntity
  8
0
  6
Continuous
 62
     1
370
    15
100
AcDbLine
 10
37.88080676902482
 20
1.061511563650932
 30
0.0
 11
39.68750000000002
 21
0.0000000000000012
 31
0.0
1001
PE_URL
1000

  0
LINE
  5
BE
330
1F
100
AcDbEntity
  8
0
  6
Continuous
 62
     1
370
    15
100
AcDbLine
 10
39.68750000000002
 20
0.0000000000000012
 30
0.0
 11
39.68750000000002
 21
-0.6894032873358487
 31
0.0
1001
PE_URL
1000

  0
SPLINE
  5
BF
330
1F
100
AcDbEntity
  8
0
  6
Continuous
 62
     1
370
    15
100
AcDbSpline
210
0.0
220
0.0
230
1.0
 70
     8
 71
     3
 72
    10
 73
     6
 74
     0
 42
0.000000001
 43
0.00000001
 40
0.0
 40
0.0
 40
0.0
 40
0.0
 40
0.5
 40
0.5
 40
1.0
 40
1.0
 40
1.0
 40
1.0
 10
39.68750000000002
 20
-0.6894032873358484
 30
0.0
 10
39.41106050017582
 20
-0.4720732096825017
 30
0.0
 10
39.13924270305159
 20
-0.2458267837234275
 30
0.0
 10
38.60507676074472
 20
0.2249352474402222
 30
0.0
 10
38.34024506037672
 20
0.4719394539584311
 30
0.0
 10
38.09059226172506
 20
0.7223294314596181
 30
0.0
1001
PE_URL
1000

  0
SPLINE
  5
C0
330
1F
100
AcDbEntity
  8
0
  6
Continuous
 62
     1
370
    15
100
AcDbSpline
210
0.0
220
0.0
230
1.0
 70
     8
 71
     3
 72
    13
 73
     9
 74
     0
 42
0.000000001
 43
0.00000001
 40
0.0
 40
0.0
 40
0.0
 40
0.0
 40
0.1516875049211671
 40
0.3031902044278197
 40
0.493694761265304
 40
0.6841845968339356
 40
0.8746930726990316
 40
1.0
 40
1.0
 40
1.0
 40
1.0
 10
38.09059226172506
 20
0.722329431459616
 30
0.0
 10
37.79014675723553
 20
0.849311684535829
 30
0.0
 10
37.18962178998171
 20
1.103121484419417
 30
0.0
 10
36.21203765297081
 20
1.459693719709833
 30
0.0
 10
35.15745309238585
 20
1.771685094054336
 30
0.0
 10
34.02569256969687
 20
1.98727780605588
 30
0.0
 10
33.02302353403127
 20
2.083114728303877
 30
0.0
 10
32.39756317315205
 20
2.048617749234565
 30
0.0
 10
32.14939758279571
 20
2.034930290025781
 30
0.0
1001
PE_URL
1000

  0
SPLINE
  5
C1
330
1F
100
AcDbEntity
  8
0
  6
Continuous
 62
     1
370
    15
100
AcDbSpline
210
0.0
220
0.0
230
1.0
 70
    24
 71
     3
 72
    10
 73
     6
 74
     0
 42
0.000000001
 43
0.00000001
 40
0.0
 40
0.0
 40
0.0
 40
0.0
 40
0.5
 40
0.5
 40
1.0
 40
1.0
 40
1.0
 40
1.0
 10
39.68750000000002
 20
-2.035301888237382
 30
0.0
 10
39.68750000000001
 20
-1.879280130070753
 30
0.0
 10
39.68750000000002
 20
-1.682140656139969
 30
0.0
 10
39.68750000000001
 20
-1.22381035180902
 30
0.0
 10
39.68750000000002
 20
-0.9630165444964252
 30
0.0
 10
39.68750000000002
 20
-0.689403287335931
 30
0.0
1001
PE_URL
1000

  0
SPLINE
  5
C2
330
1F
100
AcDbEntity
  8
0
  6
Continuous
 62
     1
370
    15
100
AcDbSpline
210
0.0
220
0.0
230
1.0
 70
    24
 71
     3
 72
     8
 73
     4
 74
     0
 42
0.000000001
 43
0.00000001
 40
0.0
 40
0.0
 40
0.0
 40
0.0
 40
1.0
 40
1.0
 40
1.0
 40
1.0
 10
38.11756332788299
 20
1.260173904867635
 30
0.0
 10
38.03248148789999
 20
1.188781764318011
 30
0.0
 10
37.9421507836215
 20
1.112985303673905
 30
0.0
 10
37.84817027367399
 20
1.034126292439097
 30
0.0
1001
PE_URL
1000

  0
LINE
  5
C3
330
1F
100
AcDbEntity
  8
0
  6
Continuous
 62
     1
370
    15
100
AcDbLine
 10
39.68750000000002
 20
1.805781249999999
 30
0.0
 11
38.73748403595182
 21
1.757401040826949
 31
0.0
1001
PE_URL
1000

  0
SPLINE
  5
C4
330
1F
100
AcDbEntity
  8
0
  6
Continuous
 62
     1
370
    15
100
AcDbSpline
210
0.0
220
0.0
230
1.0
 70
     8
 71
     3
 72
     8
 73
     4
 74
     0
 42
0.000000001
 43
0.00000001
 40
0.0
 40
0.0
 40
0.0
 40
0.0
 40
1.0
 40
1.0
 40
1.0
 40
1.0
 10
39.68750000000002
 20
1.805781250000001
 30
0.0
 10
39.15696070228304
 20
1.66174274307917
 30
0.0
 10
38.63129831191029
 20
1.484871488895164
 30
0.0
 10
38.11756332789302
 20
1.260173904872031
 30
0.0
1001
PE_URL
1000

  0
SPLINE
  5
C5
330
1F
100
AcDbEntity
  8
0
  6
Continuous
 62
     1
370
    15
100
AcDbSpline
210
0.0
220
0.0
230
1.0
 70
     8
 71
     3
 72
    14
 73
    10
 74
     0
 42
0.000000001
 43
0.00000001
 40
0.0
 40
0.0
 40
0.0
 40
0.0
 40
0.0278533288177428
 40
0.1842049018583136
 40
0.3405990766964596
 40
0.4970629443636201
 40
0.653621596433052
 40
0.8268121578046589
 40
1.0
 40
1.0
 40
1.0
 40
1.0
 10
34.22735442160121
 20
-1.930610352474261
 30
0.0
 10
34.16014483280796
 20
-1.944026391424058
 30
0.0
 10
33.71566166928346
 20
-2.032751877495955
 30
0.0
 10
32.89379368959447
 20
-2.076453322913284
 30
0.0
 10
31.76154577004341
 20
-2.044831466413198
 30
0.0
 10
30.62873931934757
 20
-1.871732444589589
 30
0.0
 10
29.4552706469596
 20
-1.571028499918272
 30
0.0
 10
28.24145210781343
 20
-1.147950141616374
 30
0.0
 10
27.4054818483972
 20
-0.7883592786427934
 30
0.0
 10
26.98750000000002
 20
-0.6085652586050576
 30
0.0
1001
PE_URL
1000

  0
SPLINE
  5
C6
330
1F
100
AcDbEntity
  8
외형선
  6
Continuous
370
    15
100
AcDbSpline
210
0.0
220
0.0
230
1.0
 70
    24
 71
     3
 72
    14
 73
    10
 74
     0
 42
0.000000001
 43
0.00000001
 40
0.0
 40
0.0
 40
0.0
 40
0.0
 40
0.25
 40
0.25
 40
0.5
 40
0.5
 40
0.75
 40
0.75
 40
1.0
 40
1.0
 40
1.0
 40
1.0
 10
26.9875
 20
1.725484112491284
 30
0.0
 10
26.9875
 20
1.613154542095465
 30
0.0
 10
26.9875
 20
1.472824460432984
 30
0.0
 10
26.9875
 20
1.141865941263541
 30
0.0
 10
26.9875
 20
0.9513005875932556
 30
0.0
 10
26.9875
 20
0.5364727211150739
 30
0.0
 10
26.9875
 20
0.3124312459376511
 30
0.0
 10
26.9875
 20
-0.1460821125251671
 30
0.0
 10
26.9875
 20
-0.3803117543195574
 30
0.0
 10
26.9875
 20
-0.6085652586050473
 30
0.0
  0
SPLINE
  5
C7
330
1F
100
AcDbEntity
  8
0
  6
Continuous
 62
     1
370
    15
100
AcDbSpline
210
0.0
220
0.0
230
1.0
 70
     8
 71
     3
 72
     9
 73
     5
 74
     0
 42
0.000000001
 43
0.00000001
 40
0.0
 40
0.0
 40
0.0
 40
0.0
 40
0.0234512173182564
 40
1.0
 40
1.0
 40
1.0
 40
1.0
 10
28.27153748743676
 20
-2.144692606496098
 30
0.0
 10
28.26150005060224
 20
-2.146340937103572
 30
0.0
 10
27.8334865833989
 20
-2.216628572287091
 30
0.0
 10
27.40547459057019
 20
-2.200820246968512
 30
0.0
 10
26.98750000000013
 20
-2.185382646122417
 30
0.0
1001
PE_URL
1000

  0
SPLINE
  5
C8
330
1F
100
AcDbEntity
  8
외형선
  6
Continuous
370
    15
100
AcDbSpline
210
0.0
220
0.0
230
1.0
 70
    24
 71
     3
 72
    10
 73
     6
 74
     0
 42
0.000000001
 43
0.00000001
 40
0.0
 40
0.0
 40
0.0
 40
0.0
 40
0.4999999999999999
 40
0.4999999999999999
 40
1.0
 40
1.0
 40
1.0
 40
1.0
 10
26.98750000000002
 20
-0.6085652586050576
 30
0.0
 10
26.98750000000002
 20
-0.9726630446629061
 30
0.0
 10
26.98750000000002
 20
-1.319075193550587
 30
0.0
 10
26.98750000000002
 20
-1.870251005791908
 30
0.0
 10
26.98750000000002
 20
-2.072642192979911
 30
0.0
 10
26.98750000000002
 20
-2.185382646122411
 30
0.0
  0
LINE
  5
C9
330
1F
100
AcDbEntity
  8
0
  6
Continuous
 62
     1
370
    15
100
AcDbLine
 10
39.68750000000002
 20
0.0000000000000012
 30
0.0
 11
39.68750000000002
 21
1.80578125
 31
0.0
1001
PE_URL
1000

  0
SPLINE
  5
CA
330
1F
100
AcDbEntity
  8
0
  6
Continuous
 62
     1
370
    15
100
AcDbSpline
210
0.0
220
0.0
230
1.0
 70
     8
 71
     3
 72
    10
 73
     6
 74
     0
 42
0.000000001
 43
0.00000001
 40
0.0
 40
0.0
 40
0.0
 40
0.0
 40
0.2632124064103559
 40
0.6314911948352515
 40
1.0
 40
1.0
 40
1.0
 40
1.0
 10
30.02337543009977
 20
-2.028372255932207
 30
0.0
 10
29.75705336680266
 20
-2.121006751870284
 30
0.0
 10
29.11810157780421
 20
-2.3432526152803
 30
0.0
 10
28.10616174064397
 20
-2.543577809603859
 30
0.0
 10
27.36046484625419
 20
-2.567247231520813
 30
0.0
 10
26.98749999999799
 20
-2.579085637141977
 30
0.0
1001
PE_URL
1000

  0
SPLINE
  5
CB
330
1F
100
AcDbEntity
  8
0
  6
Continuous
 62
     1
370
    15
100
AcDbSpline
210
0.0
220
0.0
230
1.0
 70
     8
 71
     3
 72
    13
 73
     9
 74
     0
 42
0.000000001
 43
0.00000001
 40
0.0
 40
0.0
 40
0.0
 40
0.0
 40
0.0810275326894338
 40
0.3960962339973413
 40
0.5457411694243806
 40
0.6959132608415834
 40
0.8476819205984011
 40
1.0
 40
1.0
 40
1.0
 40
1.0
 10
36.14952812769473
 20
1.734600263580377
 30
0.0
 10
36.24510009703089
 20
1.774994353445458
 30
0.0
 10
36.71229557828609
 20
1.972457442104892
 30
0.0
 10
37.35577081086475
 20
2.194884551716413
 30
0.0
 10
38.0817634914186
 20
2.380888843217935
 30
0.0
 10
38.6132650618447
 20
2.483896256693659
 30
0.0
 10
39.14959954237297
 20
2.553827147338823
 30
0.0
 10
39.50798400612085
 20
2.569604338718901
 30
0.0
 10
39.68749999999986
 20
2.577507187412717
 30
0.0
1001
PE_URL
1000

  0
SPLINE
  5
CC
330
1F
100
AcDbEntity
  8
외형선
  6
Continuous
370
    15
100
AcDbSpline
210
0.0
220
0.0
230
1.0
 70
    24
 71
     3
 72
     8
 73
     4
 74
     0
 42
0.000000001
 43
0.00000001
 40
0.0
 40
0.0
 40
0.0
 40
0.0
 40
1.0
 40
1.0
 40
1.0
 40
1.0
 10
26.98750000000002
 20
-2.185382646122413
 30
0.0
 10
26.98750000000002
 20
-2.319197612998436
 30
0.0
 10
26.98750000000002
 20
-2.45128684152039
 30
0.0
 10
26.98750000000002
 20
-2.579085637132007
 30
0.0
  0
SPLINE
  5
CD
330
1F
100
AcDbEntity
  8
0
  6
Continuous
 62
     1
370
    15
100
AcDbSpline
210
0.0
220
0.0
230
1.0
 70
    24
 71
     3
 72
    10
 73
     6
 74
     0
 42
0.000000001
 43
0.00000001
 40
0.0
 40
0.0
 40
0.0
 40
0.0
 40
0.5
 40
0.5
 40
1.0
 40
1.0
 40
1.0
 40
1.0
 10
39.68750000000002
 20
1.805781249999999
 30
0.0
 10
39.68750000000001
 20
1.915243212482617
 30
0.0
 10
39.68750000000002
 20
2.042448150155639
 30
0.0
 10
39.68750000000001
 20
2.309323766791205
 30
0.0
 10
39.68750000000002
 20
2.44831287891911
 30
0.0
 10
39.68750000000002
 20
2.577507187412722
 30
0.0
1001
PE_URL
1000

  0
LINE
  5
CE
330
1F
100
AcDbEntity
  8
중심선
 62
     1
100
AcDbLine
 10
-42.68750000000001
 20
-0.0000000000000052
 30
0.0
 11
42.68750000000001
 21
0.0000000000000052
 31
0.0
  0
LINE
  5
CF
330
1F
100
AcDbEntity
  8
참조1
100
AcDbLine
 10
0.0
 20
-0.0000000000000048
 30
0.0
 11
0.0000000000000071
 21
-40.00000000000001
 31
0.0
  0
LINE
  5
D0
330
1F
100
AcDbEntity
  8
참조1
100
AcDbLine
 10
0.0000000000000071
 20
-40.00000000000001
 30
0.0
 11
-12.87821559669921
 21
-40.0
 31
0.0
  0
CIRCLE
  5
D1
330
1F
100
AcDbEntity
  8
해칭선
100
AcDbCircle
 10
0.0
 20
0.0
 30
0.0
 40
3.000000000000003
  0
INSERT
  5
D2
330
1F
100
AcDbEntity
  8
0
  6
Continuous
 62
     7
100
AcDbBlockReference
 66
     1
  2
블럭10
 10
-13.94027293212521
 20
-52.04717430164393
 30
0.0
  0
ATTRIB
  5
D3
330
D2
100
AcDbEntity
  8
FORMAT
 62
     2
100
AcDbText
 10
-23.12156822086649
 20
-49.97180738881174
 30
0.0
 40
4.233333333333333
  1
E2050013 [ 2 FLUTE ]
 41
0.75
  7
SLDTEXTSTYLE0
 11
-23.12156822086649
 21
-52.08847405547841
 31
0.0
100
AcDbAttribute
  2
AUTOATTR0
 70
     0
 74
     1
  0
SEQEND
  5
D4
330
D2
100
AcDbEntity
  8
0
  6
Continuous
 62
     7
  0
HATCH
  5
D5
330
1F
100
AcDbEntity
  8
중심선
100
AcDbHatch
 10
0.0
 20
0.0
 30
0.0
210
0.0
220
0.0
230
1.0
  2
SOLID
 70
     1
 71
     0
 91
        1
 92
        0
 93
        4
 72
     1
 10
-8.225363627744365
 20
-35.8
 11
-11.67163887158165
 21
-35.8
 72
     1
 10
-11.67163887158165
 20
-35.8
 11
-13.79986873078567
 21
-38.33632558057257
 72
     1
 10
-13.79986873078567
 20
-38.33632558057257
 11
-10.35356040183524
 21
-38.33628615127008
 72
     1
 10
-10.35356040183524
 20
-38.33628615127008
 11
-8.225363627744365
 21
-35.8
 97
        0
 75
     0
 76
     1
 98
        1
 10
16.58171167873052
 20
-0.001074928723894
  0
HATCH
  5
D6
330
1F
100
AcDbEntity
  8
중심선
100
AcDbHatch
 10
0.0
 20
0.0
 30
0.0
210
0.0
220
0.0
230
1.0
  2
SOLID
 70
     1
 71
     0
 91
        1
 92
        0
 93
        4
 72
     1
 10
-3.212599636708386
 20
-35.8
 11
-6.658874880545639
 21
-35.8
 72
     1
 10
-6.658874880545639
 20
-35.8
 11
-11.19001288890308
 21
-41.20000000000002
 72
     1
 10
-11.19001288890308
 20
-41.20000000000002
 11
-7.743737645065799
 21
-41.20000000000002
 72
     1
 10
-7.743737645065799
 20
-41.20000000000002
 11
-3.212599636708386
 21
-35.8
 97
        0
 75
     0
 76
     1
 98
        1
 10
16.58171167873052
 20
-0.001074928723894
  0
HATCH
  5
D7
330
1F
100
AcDbEntity
  8
중심선
100
AcDbHatch
 10
0.0
 20
0.0
 30
0.0
210
0.0
220
0.0
230
1.0
  2
SOLID
 70
     1
 71
     0
 91
        1
 92
        0
 93
        4
 72
     1
 10
1.80016435432751
 20
-35.80000000000003
 11
-1.646110889509604
 21
-35.8
 72
     1
 10
-1.646110889509604
 20
-35.8
 11
-8.694547791398882
 21
-44.20000000000002
 72
     1
 10
-8.694547791398882
 20
-44.20000000000002
 11
-5.248272547561598
 21
-44.20000000000002
 72
     1
 10
-5.248272547561598
 20
-44.20000000000002
 11
1.80016435432751
 21
-35.80000000000003
 97
        0
 75
     0
 76
     1
 98
        1
 10
16.58171167873052
 20
-0.001074928723894
  0
HATCH
  5
D8
330
1F
100
AcDbEntity
  8
중심선
100
AcDbHatch
 10
0.0
 20
0.0
 30
0.0
210
0.0
220
0.0
230
1.0
  2
SOLID
 70
     1
 71
     0
 91
        1
 92
        0
 93
        6
 72
     3
 10
6.600054785339681
 20
-40.00000000005127
 11
3.960054785062283
 21
1.540882976769353E-10
 40
0.3939339440162628
 50
17.09539180608436
 51
320.0019657685077
 73
     0
 72
     1
 10
8.28305444104025
 20
-38.5878940046383
 11
10.58835631474131
 21
-36.65356729459035
 72
     3
 10
6.600054785286835
 20
-40.00000000000015
 11
6.600054785286829
 21
-1.278976924368180E-13
 40
0.636358354079598
 50
39.9987384933743
 51
368.4976242363725
 73
     1
 72
     1
 10
13.02538727718744
 20
-39.03999999993002
 11
5.280122092122758
 21
-39.03999999993
 72
     1
 10
5.280122092122758
 20
-39.03999999993
 11
5.280097047676824
 21
-40.95999999992991
 72
     1
 10
5.280097047676824
 20
-40.95999999992991
 11
9.721476817148861
 21
-40.95999999992988
 97
        0
 75
     0
 76
     1
 98
        1
 10
16.58171167873052
 20
-0.001074928723894
  0
DIMENSION
  5
D9
330
1F
100
AcDbEntity
  8
치수문자_일반주서
100
AcDbDimension
  2
_D
 10
-49.68749999999994
 20
-4.762500000000127
 30
0.0
 11
-49.68750000000005
 21
24.49149999999996
 31
0.0
 70
   160
  1
%%c<>
 71
     2
 42
9.524999999999999
 52
-270.0
  3
SLDDIMSTYLE0
100
AcDbAlignedDimension
 13
-17.8411328466036
 23
4.762499999999994
 33
0.0
 14
-17.8411328466036
 24
-4.762500000000005
 34
0.0
 50
90.0000000000002
100
AcDbRotatedDimension
1001
PE_URL
1000

1001
ACAD
1000
DSTYLE
1002
{
1070
   171
1070
     8
1070
   273
1070
     7
1002
}
  0
DIMENSION
  5
EE
330
1F
100
AcDbEntity
  8
치수문자_일반주서
100
AcDbDimension
  2
_D_1
 10
74.52907363258379
 20
2.577507187412852
 30
0.0
 11
74.52907363258373
 21
24.05650718741285
 31
0.0
 70
   160
  1
%%c<>
 71
     2
 42
5.155014374825443
 52
-270.0
  3
SLDDIMSTYLE0
100
AcDbAlignedDimension
 13
39.68750000000002
 23
-2.577507187412722
 33
0.0
 14
39.68750000000002
 24
2.577507187412721
 34
0.0
 50
90.0000000000002
100
AcDbRotatedDimension
1001
PE_URL
1000

1001
ACAD
1000
DSTYLE
1002
{
1070
   171
1070
     8
1070
   273
1070
     7
1002
}
  0
DIMENSION
  5
102
330
1F
100
AcDbEntity
  8
치수문자_일반주서
100
AcDbDimension
  2
_D_2
 10
26.98750000000002
 20
14.76249999999999
 30
0.0
 11
57.22900000000002
 21
14.76249999999999
 31
0.0
 70
   160
  1
<>
 71
     2
 42
12.7
  3
SLDDIMSTYLE0
100
AcDbAlignedDimension
 13
39.68750000000002
 23
2.577507187412721
 33
0.0
 14
26.98750000000002
 24
2.494163102234987
 34
0.0
100
AcDbRotatedDimension
1001
PE_URL
1000

1001
ACAD
1000
DSTYLE
1002
{
1070
   171
1070
     8
1070
   273
1070
     7
1002
}
  0
DIMENSION
  5
117
330
1F
100
AcDbEntity
  8
치수문자_일반주서
100
AcDbDimension
  2
_D_3
 10
39.68750000000001
 20
24.7625
 30
0.0
 11
0.0000000000000071
 21
24.7625
 31
0.0
 70
   160
  1
<>
 71
     2
 42
79.37500000000006
  3
SLDDIMSTYLE0
100
AcDbAlignedDimension
 13
-39.68750000000003
 23
2.577507187413024
 33
0.0
 14
39.68750000000002
 24
2.577507187412721
 34
0.0
100
AcDbRotatedDimension
1001
PE_URL
1000

1001
ACAD
1000
DSTYLE
1002
{
1070
   171
1070
     8
1070
   273
1070
     7
1002
}
  0
LINE
  5
12B
330
1F
100
AcDbEntity
  8
참조1
100
AcDbLine
 10
85.09412503295505
 20
7.440000000000001
 30
0.0
 11
85.09412503295505
 21
-7.440000000000003
 31
0.0
  0
LINE
  5
12C
330
1F
100
AcDbEntity
  8
참조1
100
AcDbLine
 10
97.79412503295507
 20
5.440000000000001
 30
0.0
 11
85.09412503295505
 21
5.440000000000001
 31
0.0
  0
SOLID
  5
12D
330
1F
100
AcDbEntity
  8
참조1
100
AcDbTrace
 10
85.09412503295505
 20
5.440000000000001
 30
0.0
 11
91.44412503295504
 21
4.424000000000001
 31
0.0
 12
91.44412503295504
 22
6.456000000000001
 32
0.0
 13
91.44412503295504
 23
6.456000000000001
 33
0.0
  0
LINE
  5
12E
330
1F
100
AcDbEntity
  8
참조1
100
AcDbLine
 10
97.79412503295507
 20
-5.440000000000003
 30
0.0
 11
85.09412503295505
 21
-5.440000000000003
 31
0.0
  0
SOLID
  5
12F
330
1F
100
AcDbEntity
  8
참조1
100
AcDbTrace
 10
85.09412503295505
 20
-5.440000000000003
 30
0.0
 11
91.44412503295504
 21
-6.456000000000003
 31
0.0
 12
91.44412503295504
 22
-4.424000000000003
 32
0.0
 13
91.44412503295504
 23
-4.424000000000003
 33
0.0
  0
MTEXT
  5
130
330
1F
100
AcDbEntity
  8
참조1
100
AcDbMText
 10
94.47847516558105
 20
11.01029177718833
 30
0.0
 40
3.5
 41
0.0
 71
     1
 72
     1
  1
A
  7
SLDTEXTSTYLE0
 73
     1
 44
1.0
  0
MTEXT
  5
131
330
1F
100
AcDbEntity
  8
참조1
100
AcDbMText
 10
94.47847516558105
 20
0.1302917771883252
 30
0.0
 40
3.5
 41
0.0
 71
     1
 72
     1
  1
A
  7
SLDTEXTSTYLE0
 73
     1
 44
1.0
  0
INSERT
  5
138
330
1F
100
AcDbEntity
  8
해칭선
100
AcDbBlockReference
  2
SW_DOWELSYMBOL_0
 10
0.0
 20
0.0
 30
0.0
  0
LINE
  5
1E0
330
1F
100
AcDbEntity
  8
외형선
  6
Continuous
370
    15
100
AcDbLine
 10
-3.568700000000064
 20
3.492500000000014
 30
0.0
 11
3.568700000000064
 21
3.492500000000014
 31
0.0
1001
PE_URL
1000

  0
LINE
  5
1E1
330
1F
100
AcDbEntity
  8
외형선
  6
Continuous
370
    15
100
AcDbLine
 10
-3.568700000000064
 20
3.492500000000014
 30
0.0
 11
-4.838700000000046
 21
4.762499999999996
 31
0.0
1001
PE_URL
1000

  0
LINE
  5
1E2
330
1F
100
AcDbEntity
  8
외형선
  6
Continuous
370
    15
100
AcDbLine
 10
3.568700000000064
 20
3.492500000000014
 30
0.0
 11
4.838700000000159
 21
4.762499999999996
 31
0.0
1001
PE_URL
1000

  0
LINE
  5
21E
330
1F
100
AcDbEntity
  8
외형선
  6
Continuous
370
    15
100
AcDbLine
 10
-17.84113284660361
 20
4.762499999999992
 30
0.0
 11
-25.98750000000003
 21
2.57968749999999
 31
0.0
  0
LINE
  5
21F
330
1F
100
AcDbEntity
  8
외형선
  6
Continuous
370
    15
100
AcDbLine
 10
-25.98750000000003
 20
-2.579687500000011
 30
0.0
 11
-17.8411328466036
 21
-4.762500000000005
 31
0.0
  0
LINE
  5
220
330
1F
100
AcDbEntity
  8
외형선
  6
Continuous
370
    15
100
AcDbLine
 10
-26.98750000000003
 20
-2.579687500000011
 30
0.0
 11
-25.98750000000003
 21
-2.579687500000011
 31
0.0
  0
LINE
  5
221
330
1F
100
AcDbEntity
  8
외형선
  6
Continuous
370
    15
100
AcDbLine
 10
-25.98750000000003
 20
2.57968749999999
 30
0.0
 11
-26.98750000000003
 21
2.57968749999999
 31
0.0
  0
SPLINE
  5
222
330
1F
100
AcDbEntity
  8
0
  6
Continuous
 62
     1
370
    15
100
AcDbSpline
210
0.0
220
0.0
230
1.0
 70
     8
 71
     3
 72
     9
 73
     5
 74
     0
 42
0.000000001
 43
0.00000001
 40
0.0
 40
0.0
 40
0.0
 40
0.0
 40
0.4380215397811171
 40
0.9999999999999999
 40
0.9999999999999999
 40
0.9999999999999999
 40
0.9999999999999999
 10
-33.00504499873445
 20
-0.6609884554589289
 30
0.0
 10
-32.9002113618881
 20
-0.7107384160332568
 30
0.0
 10
-32.66087692893136
 20
-0.8243172153753786
 30
0.0
 10
-32.42184648711358
 20
-0.949011790051232
 30
0.0
 10
-32.2875165274754
 20
-1.019087455125218
 30
0.0
1001
PE_URL
1000

  0
LINE
  5
223
330
1F
100
AcDbEntity
  8
0
  6
Continuous
 62
     1
370
    15
100
AcDbLine
 10
-27.08371397234987
 20
-2.579687500000011
 30
0.0
 11
-26.98750000000003
 21
-2.579687500000011
 31
0.0
1001
PE_URL
1000

  0
SPLINE
  5
224
330
1F
100
AcDbEntity
  8
0
  6
Continuous
 62
     1
370
    15
100
AcDbSpline
210
0.0
220
0.0
230
1.0
 70
     8
 71
     3
 72
    17
 73
    13
 74
     0
 42
0.000000001
 43
0.00000001
 40
0.0
 40
0.0
 40
0.0
 40
0.0
 40
0.2027854684861009
 40
0.3449007010973151
 40
0.4371939297019477
 40
0.5284878389627653
 40
0.622658760462598
 40
0.7166390028378989
 40
0.8100354507535461
 40
0.899206490065401
 40
0.9985605874488338
 40
1.0
 40
1.0
 40
1.0
 40
1.0
 10
-32.15077320073989
 20
-2.049919890268912
 30
0.0
 10
-32.00631576924881
 20
-2.04286670300875
 30
0.0
 10
-31.76062030708405
 20
-2.030870531640248
 30
0.0
 10
-31.45002131720683
 20
-2.021893333203179
 30
0.0
 10
-31.22117258926112
 20
-2.017378927735715
 30
0.0
 10
-31.02478667929521
 20
-2.01506503012987
 30
0.0
 10
-30.8265613243511
 20
-2.014321754349437
 30
0.0
 10
-30.62707238424659
 20
-2.015257064284027
 30
0.0
 10
-30.43095674056596
 20
-2.017731557475825
 30
0.0
 10
-30.2310487222781
 20
-2.022040498198008
 30
0.0
 10
-30.09633686929073
 20
-2.025487121297443
 30
0.0
 10
-30.0248657619956
 20
-2.028180213216862
 30
0.0
 10
-30.02384509698499
 20
-2.028218672739831
 30
0.0
1001
PE_URL
1000

  0
SPLINE
  5
225
330
1F
100
AcDbEntity
  8
0
  6
Continuous
 62
     1
370
    15
100
AcDbSpline
210
0.0
220
0.0
230
1.0
 70
     8
 71
     3
 72
    19
 73
    15
 74
     0
 42
0.000000001
 43
0.00000001
 40
0.0
 40
0.0
 40
0.0
 40
0.0
 40
0.0869942027742647
 40
0.146871109173202
 40
0.2045988479564187
 40
0.2801066367287205
 40
0.3597526953764887
 40
0.4349071915142754
 40
0.4978337660380297
 40
0.7164164796178352
 40
0.7570383091457007
 40
0.8110380779252311
 40
0.8921821133650547
 40
1.0
 40
1.0
 40
1.0
 40
1.0
 10
-38.73939178067073
 20
-1.765348846133053
 30
0.0
 10
-38.60983653104236
 20
-1.754819478262954
 30
0.0
 10
-38.39111019520246
 20
-1.737042892138165
 30
0.0
 10
-38.08115949392572
 20
-1.719405961434143
 30
0.0
 10
-37.78691507403296
 20
-1.706822183092855
 30
0.0
 10
-37.46691967239329
 20
-1.698629015607318
 30
0.0
 10
-37.12050698705791
 20
-1.69657650799847
 30
0.0
 10
-36.79303240481181
 20
-1.701263497066856
 30
0.0
 10
-36.25623260745243
 20
-1.718287969338379
 30
0.0
 10
-35.77151901954758
 20
-1.751365324027157
 30
0.0
 10
-35.30028479634265
 20
-1.797903207964195
 30
0.0
 10
-35.03601431840174
 20
-1.826948697216368
 30
0.0
 10
-34.67068355114226
 20
-1.872395123477416
 30
0.0
 10
-34.38585373386135
 20
-1.915596001814381
 30
0.0
 10
-34.22333554706131
 20
-1.940245557406973
 30
0.0
1001
PE_URL
1000

  0
SPLINE
  5
226
330
1F
100
AcDbEntity
  8
0
  6
Continuous
 62
     1
370
    15
100
AcDbSpline
210
0.0
220
0.0
230
1.0
 70
     8
 71
     3
 72
    14
 73
    10
 74
     0
 42
0.000000001
 43
0.00000001
 40
0.0
 40
0.0
 40
0.0
 40
0.0
 40
0.2048272249086157
 40
0.3445363936399232
 40
0.4427225590032689
 40
0.5498699385363737
 40
0.6671622676164081
 40
0.9203628229048243
 40
1.0
 40
1.0
 40
1.0
 40
1.0
 10
-34.22333554706131
 20
1.940245557406937
 30
0.0
 10
-34.35393721061735
 20
1.920297415319444
 30
0.0
 10
-34.57362004909281
 20
1.886742984565879
 30
0.0
 10
-34.85604421556621
 20
1.849345689248333
 30
0.0
 10
-35.07798514131538
 20
1.822471392216626
 30
0.0
 10
-35.28459877967641
 20
1.799505215574348
 30
0.0
 10
-35.59019294411375
 20
1.769311577442396
 30
0.0
 10
-35.87651172709637
 20
1.7440050426339
 30
0.0
 10
-36.09104090118176
 20
1.732938626765423
 30
0.0
 10
-36.14237071197687
 20
1.730290795601524
 30
0.0
1001
PE_URL
1000

  0
SPLINE
  5
227
330
1F
100
AcDbEntity
  8
0
  6
Continuous
 62
     1
370
    15
100
AcDbSpline
210
0.0
220
0.0
230
1.0
 70
     8
 71
     3
 72
    21
 73
    17
 74
     0
 42
0.000000001
 43
0.00000001
 40
0.0
 40
0.0
 40
0.0
 40
0.0
 40
0.1067869835241065
 40
0.1806820487939897
 40
0.2346587994302062
 40
0.2879507528982185
 40
0.3393561658912425
 40
0.3887683577649027
 40
0.4421582740912559
 40
0.503948430745835
 40
0.5721094844898673
 40
0.643792905679541
 40
0.7109445387836186
 40
0.7758927113684986
 40
0.8709486770709222
 40
1.0
 40
1.0
 40
1.0
 40
1.0
 10
-28.27088279266893
 20
2.146674679698565
 30
0.0
 10
-28.40926523638495
 20
2.133367503257739
 30
0.0
 10
-28.64340635192725
 20
2.110851951046739
 30
0.0
 10
-28.94679975599283
 20
2.086882175286354
 30
0.0
 10
-29.18055320334619
 20
2.070339586822223
 30
0.0
 10
-29.38576518981087
 20
2.057445161674268
 30
0.0
 10
-29.58496046269207
 20
2.046442313806109
 30
0.0
 10
-29.78438136295159
 20
2.037059020949096
 30
0.0
 10
-29.99726811025513
 20
2.028765418256492
 30
0.0
 10
-30.23440057044519
 20
2.021672519593098
 30
0.0
 10
-30.49517636781921
 20
2.016528275879503
 30
0.0
 10
-30.76277677948008
 20
2.014215150440831
 30
0.0
 10
-31.02623705813939
 20
2.014879342084908
 30
0.0
 10
-31.31996614016597
 20
2.018787131918417
 30
0.0
 10
-31.69364494159975
 20
2.02799800710911
 30
0.0
 10
-31.9837292588419
 20
2.04190918932529
 30
0.0
 10
-32.15077320073989
 20
2.04991989026888
 30
0.0
1001
PE_URL
1000

  0
LINE
  5
228
330
1F
100
AcDbEntity
  8
외형선
  6
Continuous
370
    15
100
AcDbLine
 10
-26.98750000000003
 20
2.57968749999999
 30
0.0
 11
-27.08371397234989
 21
2.57968749999999
 31
0.0
  0
LINE
  5
229
330
1F
100
AcDbEntity
  8
외형선
  6
Continuous
370
    15
100
AcDbLine
 10
-17.8411328466036
 20
-4.762500000000005
 30
0.0
 11
-17.84113284660361
 21
4.762499999999996
 31
0.0
  0
LINE
  5
22A
330
1F
100
AcDbEntity
  8
외형선
  6
Continuous
370
    15
100
AcDbLine
 10
-25.98750000000003
 20
-2.579687500000011
 30
0.0
 11
-25.98750000000003
 21
2.57968749999999
 31
0.0
  0
LINE
  5
22B
330
1F
100
AcDbEntity
  8
외형선
  6
Continuous
370
    15
100
AcDbLine
 10
-26.98750000000003
 20
-2.579687500000011
 30
0.0
 11
-26.98750000000003
 21
-2.494163102235097
 31
0.0
  0
SPLINE
  5
22C
330
1F
100
AcDbEntity
  8
외형선
  6
Continuous
370
    15
100
AcDbSpline
210
0.0
220
0.0
230
1.0
 70
     8
 71
     3
 72
     8
 73
     4
 74
     0
 42
0.000000001
 43
0.00000001
 40
0.0
 40
0.0
 40
0.0
 40
0.0
 40
1.0
 40
1.0
 40
1.0
 40
1.0
 10
-26.09741721235978
 20
-2.575189420624641
 30
0.0
 10
-26.39510708584257
 20
-2.565069511646124
 30
0.0
 10
-26.69311295914465
 20
-2.537780034724681
 30
0.0
 10
-26.98749999999993
 20
-2.494163102235012
 30
0.0
  0
LINE
  5
22D
330
1F
100
AcDbEntity
  8
외형선
  6
Continuous
370
    15
100
AcDbLine
 10
-26.09741721235978
 20
2.517048943577416
 30
0.0
 11
-26.09741721235978
 21
-2.575229846857622
 31
0.0
  0
SPLINE
  5
22E
330
1F
100
AcDbEntity
  8
외형선
  6
Continuous
370
    15
100
AcDbSpline
210
0.0
220
0.0
230
1.0
 70
     8
 71
     3
 72
     8
 73
     4
 74
     0
 42
0.000000001
 43
0.00000001
 40
0.0
 40
0.0
 40
0.0
 40
0.0
 40
1.0
 40
1.0
 40
1.0
 40
1.0
 10
-26.98750000000156
 20
2.579085637142013
 30
0.0
 10
-26.69308434397573
 20
2.575395814700874
 30
0.0
 10
-26.39504884435051
 20
2.554620565044905
 30
0.0
 10
-26.0973304037724
 20
2.517073156608484
 30
0.0
  0
LINE
  5
22F
330
1F
100
AcDbEntity
  8
외형선
  6
Continuous
370
    15
100
AcDbLine
 10
-26.98750000000003
 20
2.579085637141992
 30
0.0
 11
-26.98750000000003
 21
2.57968749999999
 31
0.0
  0
SPLINE
  5
230
330
1F
100
AcDbEntity
  8
외형선
  6
Continuous
370
    15
100
AcDbSpline
210
0.0
220
0.0
230
1.0
 70
     8
 71
     3
 72
     8
 73
     4
 74
     0
 42
0.000000001
 43
0.00000001
 40
0.0
 40
0.0
 40
0.0
 40
0.0
 40
1.0
 40
1.0
 40
1.0
 40
1.0
 10
-26.98750000000166
 20
2.185382646122465
 30
0.0
 10
-26.69308434397579
 20
2.173502496633473
 30
0.0
 10
-26.39504884435054
 20
2.147109394064328
 30
0.0
 10
-26.0973304037724
 20
2.106681229992711
 30
0.0
  0
SPLINE
  5
231
330
1F
100
AcDbEntity
  8
외형선
  6
Continuous
370
    15
100
AcDbSpline
210
0.0
220
0.0
230
1.0
 70
     8
 71
     3
 72
     8
 73
     4
 74
     0
 42
0.000000001
 43
0.00000001
 40
0.0
 40
0.0
 40
0.0
 40
0.0
 40
1.0
 40
1.0
 40
1.0
 40
1.0
 10
-26.98750000000006
 20
0.6085652586050596
 30
0.0
 10
-26.6931025135729
 20
0.4779903921345987
 30
0.0
 10
-26.39508582560689
 20
0.3428562992940147
 30
0.0
 10
-26.0973855240737
 20
0.2063842447403754
 30
0.0
  0
SPLINE
  5
232
330
1F
100
AcDbEntity
  8
외형선
  6
Continuous
370
    15
100
AcDbSpline
210
0.0
220
0.0
230
1.0
 70
    24
 71
     3
 72
    10
 73
     6
 74
     0
 42
0.000000001
 43
0.00000001
 40
0.0
 40
0.0
 40
0.0
 40
0.0
 40
0.4999999999999999
 40
0.4999999999999999
 40
1.0
 40
1.0
 40
1.0
 40
1.0
 10
-26.98750000000003
 20
0.6085652586050454
 30
0.0
 10
-26.98750000000003
 20
0.9726630446628928
 30
0.0
 10
-26.98750000000003
 20
1.319075193550576
 30
0.0
 10
-26.98750000000003
 20
1.870251005791895
 30
0.0
 10
-26.98750000000003
 20
2.072642192979901
 30
0.0
 10
-26.98750000000003
 20
2.185382646122401
 30
0.0
  0
SPLINE
  5
233
330
1F
100
AcDbEntity
  8
외형선
  6
Continuous
370
    15
100
AcDbSpline
210
0.0
220
0.0
230
1.0
 70
     8
 71
     3
 72
     8
 73
     4
 74
     0
 42
0.000000001
 43
0.00000001
 40
0.0
 40
0.0
 40
0.0
 40
0.0
 40
1.0
 40
1.0
 40
1.0
 40
1.0
 10
-26.98750000000005
 20
-1.725484112491289
 30
0.0
 10
-26.693106067912
 20
-1.760742840786056
 30
0.0
 10
-26.39509305987888
 20
-1.7847262611196
 30
0.0
 10
-26.09739630671915
 20
-1.796728410188917
 30
0.0
  0
SPLINE
  5
234
330
1F
100
AcDbEntity
  8
외형선
  6
Continuous
370
    15
100
AcDbSpline
210
0.0
220
0.0
230
1.0
 70
    24
 71
     3
 72
    14
 73
    10
 74
     0
 42
0.000000001
 43
0.00000001
 40
0.0
 40
0.0
 40
0.0
 40
0.0
 40
0.2500000000000001
 40
0.2500000000000001
 40
0.5000000000000001
 40
0.5000000000000001
 40
0.75
 40
0.75
 40
1.0
 40
1.0
 40
1.0
 40
1.0
 10
-26.98749999999978
 20
-1.725484112491321
 30
0.0
 10
-26.98749999999978
 20
-1.613154542095513
 30
0.0
 10
-26.98749999999978
 20
-1.472824460433044
 30
0.0
 10
-26.98749999999978
 20
-1.141865941263616
 30
0.0
 10
-26.98749999999978
 20
-0.9513005875933391
 30
0.0
 10
-26.98749999999978
 20
-0.5364727211151727
 30
0.0
 10
-26.98749999999978
 20
-0.3124312459377538
 30
0.0
 10
-26.98749999999978
 20
0.1460821125250558
 30
0.0
 10
-26.98749999999978
 20
0.380311754319445
 30
0.0
 10
-26.98749999999978
 20
0.6085652586049353
 30
0.0
  0
SPLINE
  5
235
330
1F
100
AcDbEntity
  8
외형선
  6
Continuous
370
    15
100
AcDbSpline
210
0.0
220
0.0
230
1.0
 70
    24
 71
     3
 72
    10
 73
     6
 74
     0
 42
0.000000001
 43
0.00000001
 40
0.0
 40
0.0
 40
0.0
 40
0.0
 40
0.5
 40
0.5
 40
1.0
 40
1.0
 40
1.0
 40
1.0
 10
-26.98750000000005
 20
-2.494163102234987
 30
0.0
 10
-26.98750000000006
 20
-2.380461696426414
 30
0.0
 10
-26.98750000000006
 20
-2.249965196874664
 30
0.0
 10
-26.98750000000006
 20
-1.983721785674559
 30
0.0
 10
-26.98750000000006
 20
-1.848714661202385
 30
0.0
 10
-26.98750000000006
 20
-1.725484112491289
 30
0.0
  0
SPLINE
  5
236
330
1F
100
AcDbEntity
  8
외형선
  6
Continuous
370
    15
100
AcDbSpline
210
0.0
220
0.0
230
1.0
 70
    24
 71
     3
 72
     8
 73
     4
 74
     0
 42
0.000000001
 43
0.00000001
 40
0.0
 40
0.0
 40
0.0
 40
0.0
 40
1.0
 40
1.0
 40
1.0
 40
1.0
 10
-26.98750000000003
 20
2.185382646122401
 30
0.0
 10
-26.98750000000003
 20
2.319197612998432
 30
0.0
 10
-26.98750000000003
 20
2.451286841520394
 30
0.0
 10
-26.98750000000003
 20
2.579085637132016
 30
0.0
  0
SPLINE
  5
237
330
1F
100
AcDbEntity
  8
0
  6
Continuous
 62
     1
370
    15
100
AcDbSpline
210
0.0
220
0.0
230
1.0
 70
     8
 71
     3
 72
    18
 73
    14
 74
     0
 42
0.000000001
 43
0.00000001
 40
0.0
 40
0.0
 40
0.0
 40
0.0
 40
0.0940877953370808
 40
0.1881532521357732
 40
0.2822000099079985
 40
0.3762317447582564
 40
0.4702521622891028
 40
0.5642649903835135
 40
0.652884829296266
 40
0.7415128988932598
 40
0.8301691004311232
 40
0.9188731674097806
 40
1.0
 40
1.0
 40
1.0
 40
1.0
 10
-39.68750000000003
 20
2.447970898596646
 30
0.0
 10
-39.29215580143463
 20
2.359324841638353
 30
0.0
 10
-38.50156126782272
 20
2.182053774270253
 30
0.0
 10
-37.3158681625069
 20
1.717534611585888
 30
0.0
 10
-36.13045448784638
 20
1.145178086107917
 30
0.0
 10
-34.94526350451606
 20
0.4894470028337583
 30
0.0
 10
-33.76026429431599
 20
-0.1995944996220924
 30
0.0
 10
-32.59794321318888
 20
-0.8620310849667749
 30
0.0
 10
-31.45855996208075
 20
-1.454178555897924
 30
0.0
 10
-30.34159171055073
 20
-1.945137477988661
 30
0.0
 10
-29.22421442756765
 20
-2.311340749069233
 30
0.0
 10
-28.13823182472569
 20
-2.541038360245105
 30
0.0
 10
-27.42460680931118
 20
-2.562915294466142
 30
0.0
 10
-27.08371397234988
 20
-2.573365727129707
 30
0.0
1001
PE_URL
1000

  0
SPLINE
  5
238
330
1F
100
AcDbEntity
  8
0
  6
Continuous
 62
     1
370
    15
100
AcDbSpline
210
0.0
220
0.0
230
1.0
 70
     8
 71
     3
 72
    13
 73
     9
 74
     0
 42
0.000000001
 43
0.00000001
 40
0.0
 40
0.0
 40
0.0
 40
0.0
 40
0.1689303207155611
 40
0.3377613349522226
 40
0.5065215548453036
 40
0.6752398431412455
 40
0.8439452709993837
 40
0.9999999999999999
 40
0.9999999999999999
 40
0.9999999999999999
 40
0.9999999999999999
 10
-39.68750000000003
 20
2.035301888237361
 30
0.0
 10
-39.30967669543016
 20
1.953709024481208
 30
0.0
 10
-38.55425219148658
 20
1.790571261715366
 30
0.0
 10
-37.4215173845907
 20
1.396582998155528
 30
0.0
 10
-36.28931853241583
 20
0.9225083561667073
 30
0.0
 10
-35.1574438511841
 20
0.3879964325001541
 30
0.0
 10
-34.05399521184717
 20
-0.160079907721892
 30
0.0
 10
-33.32779304840609
 20
-0.5058441877498634
 30
0.0
 10
-32.97883619695109
 20
-0.6719918812962877
 30
0.0
1001
PE_URL
1000

  0
LINE
  5
239
330
1F
100
AcDbEntity
  8
0
  6
Continuous
 62
     1
370
    15
100
AcDbLine
 10
-39.68749999999996
 20
2.447970898596646
 30
0.0
 11
-39.68750000000003
 21
2.035301888237361
 31
0.0
1001
PE_URL
1000

  0
SPLINE
  5
23A
330
1F
100
AcDbEntity
  8
0
  6
Continuous
 62
     1
370
    15
100
AcDbSpline
210
0.0
220
0.0
230
1.0
 70
     8
 71
     3
 72
    38
 73
    34
 74
     0
 42
0.000000001
 43
0.00000001
 40
0.0
 40
0.0
 40
0.0
 40
0.0
 40
0.0625
 40
0.0625
 40
0.125
 40
0.125
 40
0.1875
 40
0.1875
 40
0.25
 40
0.25
 40
0.3125
 40
0.3125
 40
0.375
 40
0.375
 40
0.4375
 40
0.4375
 40
0.5
 40
0.5
 40
0.5625
 40
0.5625
 40
0.625
 40
0.625
 40
0.6875
 40
0.6875
 40
0.75
 40
0.75
 40
0.8125
 40
0.8125
 40
0.875
 40
0.875
 40
0.9375
 40
0.9375
 40
1.0
 40
1.0
 40
1.0
 40
1.0
 10
-26.9875
 20
-2.494163102235285
 30
0.0
 10
-27.25011694581982
 20
-2.455253286221675
 30
0.0
 10
-27.51728428042805
 20
-2.402963897795429
 30
0.0
 10
-28.0481902665454
 20
-2.273811022952605
 30
0.0
 10
-28.30912900886982
 20
-2.197333533032053
 30
0.0
 10
-28.83957230105317
 20
-2.021314734983983
 30
0.0
 10
-29.10689208701485
 20
-1.921879281669883
 30
0.0
 10
-29.63317502829943
 20
-1.704991042277916
 30
0.0
 10
-29.89723518009034
 20
-1.58689905544257
 30
0.0
 10
-30.42904340344586
 20
-1.334675618755158
 30
0.0
 10
-30.69140960541663
 20
-1.201431953179748
 30
0.0
 10
-31.21946068773631
 20
-0.923228196654831
 30
0.0
 10
-31.48694180259167
 20
-0.777902135329116
 30
0.0
 10
-32.01623743705089
 20
-0.4816150005889117
 30
0.0
 10
-32.27766988160585
 20
-0.3307680358408884
 30
0.0
 10
-32.80920820311133
 20
-0.0255367276161511
 30
0.0
 10
-33.0752214449796
 20
0.1280617485474504
 30
0.0
 10
-33.59973564656754
 20
0.4308791947409407
 30
0.0
 10
-33.86678050113693
 20
0.5817306379713489
 30
0.0
 10
-34.39793508540248
 20
0.8751700105966425
 30
0.0
 10
-34.6589662143117
 20
1.017228594474917
 30
0.0
 10
-35.18906447604253
 20
1.290626690419066
 30
0.0
 10
-35.4564573737195
 20
1.42159732795187
 30
0.0
 10
-35.98336654089755
 20
1.666009756837367
 30
0.0
 10
-36.24679036987294
 20
1.780112441623357
 30
0.0
 10
-36.77863656065834
 20
1.989080835808435
 30
0.0
 10
-37.04149569526631
 20
2.083221872540227
 30
0.0
 10
-37.56899428904335
 20
2.248965770179472
 30
0.0
 10
-37.83644096737153
 20
2.320762971285566
 30
0.0
 10
-38.36615664631677
 20
2.438732248332789
 30
0.0
 10
-38.62735235561605
 20
2.484973870907163
 30
0.0
 10
-39.15871773504188
 20
2.551381667720205
 30
0.0
 10
-39.42562086294703
 20
2.57124962120781
 30
0.0
 10
-39.68750000000003
 20
2.577507187413024
 30
0.0
1001
PE_URL
1000

  0
SPLINE
  5
23B
330
1F
100
AcDbEntity
  8
0
  6
Continuous
 62
     1
370
    15
100
AcDbSpline
210
0.0
220
0.0
230
1.0
 70
     8
 71
     3
 72
    13
 73
     9
 74
     0
 42
0.000000001
 43
0.00000001
 40
0.0
 40
0.0
 40
0.0
 40
0.0
 40
0.0601869371200123
 40
0.2403523200354856
 40
0.4206001379196694
 40
0.6009600634319779
 40
0.8004816391800503
 40
0.9999999999999999
 40
0.9999999999999999
 40
0.9999999999999999
 40
0.9999999999999999
 10
-33.27210713163545
 20
0.2407212044303702
 30
0.0
 10
-33.14603675453419
 20
0.1908258914998537
 30
0.0
 10
-32.64258352906744
 20
-0.0084275477943496
 30
0.0
 10
-31.7615444392954
 20
-0.369168278319199
 30
0.0
 10
-30.62873646124554
 20
-0.8052053641606935
 30
0.0
 10
-29.45527655179678
 20
-1.202251097155253
 30
0.0
 10
-28.24145630956815
 20
-1.536606857718416
 30
0.0
 10
-27.40548319147302
 20
-1.662525365727769
 30
0.0
 10
-26.98750000000003
 20
-1.725484112491293
 30
0.0
1001
PE_URL
1000

  0
SPLINE
  5
23C
330
1F
100
AcDbEntity
  8
외형선
  6
Continuous
370
    15
100
AcDbSpline
210
0.0
220
0.0
230
1.0
 70
    24
 71
     3
 72
    10
 73
     6
 74
     0
 42
0.000000001
 43
0.00000001
 40
0.0
 40
0.0
 40
0.0
 40
0.0
 40
0.5
 40
0.5
 40
1.0
 40
1.0
 40
1.0
 40
1.0
 10
-26.98750000000006
 20
-2.494163102234987
 30
0.0
 10
-26.98750000000006
 20
-2.380461696426414
 30
0.0
 10
-26.98750000000006
 20
-2.249965196874664
 30
0.0
 10
-26.98750000000006
 20
-1.983721785674559
 30
0.0
 10
-26.98750000000006
 20
-1.848714661202385
 30
0.0
 10
-26.98750000000006
 20
-1.725484112491289
 30
0.0
  0
LINE
  5
23D
330
1F
100
AcDbEntity
  8
0
  6
Continuous
 62
     1
370
    15
100
AcDbLine
 10
-39.68750000000003
 20
2.577507187412701
 30
0.0
 11
-39.68750000000001
 21
2.447970898596642
 31
0.0
1001
PE_URL
1000

  0
SPLINE
  5
23E
330
1F
100
AcDbEntity
  8
0
  6
Continuous
 62
     1
370
    15
100
AcDbSpline
210
0.0
220
0.0
230
1.0
 70
     8
 71
     3
 72
     8
 73
     4
 74
     0
 42
0.000000001
 43
0.00000001
 40
0.0
 40
0.0
 40
0.0
 40
0.0
 40
1.0
 40
1.0
 40
1.0
 40
1.0
 10
-38.09059226172508
 20
-0.7223294314596398
 30
0.0
 10
-37.99919291521567
 20
-0.8306337022151933
 30
0.0
 10
-37.91761294443728
 20
-0.9348849063444202
 30
0.0
 10
-37.84817027367396
 20
-1.034126292439138
 30
0.0
1001
PE_URL
1000

  0
LINE
  5
23F
330
1F
100
AcDbEntity
  8
0
  6
Continuous
 62
     1
370
    15
100
AcDbLine
 10
-37.88080676902483
 20
-1.061511563650955
 30
0.0
 11
-39.68750000000003
 21
-0.0000000000000231
 31
0.0
1001
PE_URL
1000

  0
LINE
  5
240
330
1F
100
AcDbEntity
  8
0
  6
Continuous
 62
     1
370
    15
100
AcDbLine
 10
-39.68750000000003
 20
-0.0000000000000231
 30
0.0
 11
-39.68750000000003
 21
0.6894032873358267
 31
0.0
1001
PE_URL
1000

  0
SPLINE
  5
241
330
1F
100
AcDbEntity
  8
0
  6
Continuous
 62
     1
370
    15
100
AcDbSpline
210
0.0
220
0.0
230
1.0
 70
     8
 71
     3
 72
    10
 73
     6
 74
     0
 42
0.000000001
 43
0.00000001
 40
0.0
 40
0.0
 40
0.0
 40
0.0
 40
0.5
 40
0.5
 40
1.0
 40
1.0
 40
1.0
 40
1.0
 10
-39.68750000000003
 20
0.6894032873358267
 30
0.0
 10
-39.41106050017584
 20
0.4720732096824793
 30
0.0
 10
-39.13924270305159
 20
0.2458267837234072
 30
0.0
 10
-38.60507676074474
 20
-0.2249352474402446
 30
0.0
 10
-38.34024506037673
 20
-0.4719394539584538
 30
0.0
 10
-38.09059226172506
 20
-0.7223294314596398
 30
0.0
1001
PE_URL
1000

  0
SPLINE
  5
242
330
1F
100
AcDbEntity
  8
0
  6
Continuous
 62
     1
370
    15
100
AcDbSpline
210
0.0
220
0.0
230
1.0
 70
     8
 71
     3
 72
    13
 73
     9
 74
     0
 42
0.000000001
 43
0.00000001
 40
0.0
 40
0.0
 40
0.0
 40
0.0
 40
0.1516875049211671
 40
0.3031902044278197
 40
0.493694761265304
 40
0.6841845968339356
 40
0.8746930726990316
 40
1.0
 40
1.0
 40
1.0
 40
1.0
 10
-38.09059226172508
 20
-0.7223294314596362
 30
0.0
 10
-37.79014675723555
 20
-0.8493116845358504
 30
0.0
 10
-37.18962178998173
 20
-1.103121484419438
 30
0.0
 10
-36.21203765297082
 20
-1.459693719709852
 30
0.0
 10
-35.15745309238586
 20
-1.771685094054357
 30
0.0
 10
-34.02569256969689
 20
-1.987277806055898
 30
0.0
 10
-33.02302353403128
 20
-2.083114728303896
 30
0.0
 10
-32.39756317315207
 20
-2.048617749234582
 30
0.0
 10
-32.14939758279571
 20
-2.0349302900258
 30
0.0
1001
PE_URL
1000

  0
SPLINE
  5
243
330
1F
100
AcDbEntity
  8
0
  6
Continuous
 62
     1
370
    15
100
AcDbSpline
210
0.0
220
0.0
230
1.0
 70
    24
 71
     3
 72
    10
 73
     6
 74
     0
 42
0.000000001
 43
0.00000001
 40
0.0
 40
0.0
 40
0.0
 40
0.0
 40
0.5
 40
0.5
 40
1.0
 40
1.0
 40
1.0
 40
1.0
 10
-39.68750000000003
 20
2.035301888237361
 30
0.0
 10
-39.68750000000003
 20
1.879280130070731
 30
0.0
 10
-39.68750000000003
 20
1.682140656139948
 30
0.0
 10
-39.68750000000003
 20
1.223810351808998
 30
0.0
 10
-39.68750000000003
 20
0.9630165444964032
 30
0.0
 10
-39.68750000000003
 20
0.6894032873359084
 30
0.0
1001
PE_URL
1000

  0
SPLINE
  5
244
330
1F
100
AcDbEntity
  8
0
  6
Continuous
 62
     1
370
    15
100
AcDbSpline
210
0.0
220
0.0
230
1.0
 70
    24
 71
     3
 72
     8
 73
     4
 74
     0
 42
0.000000001
 43
0.00000001
 40
0.0
 40
0.0
 40
0.0
 40
0.0
 40
1.0
 40
1.0
 40
1.0
 40
1.0
 10
-38.117563327883
 20
-1.260173904867655
 30
0.0
 10
-38.0324814879
 20
-1.188781764318032
 30
0.0
 10
-37.94215078362151
 20
-1.112985303673925
 30
0.0
 10
-37.848170273674
 20
-1.034126292439117
 30
0.0
1001
PE_URL
1000

  0
LINE
  5
245
330
1F
100
AcDbEntity
  8
0
  6
Continuous
 62
     1
370
    15
100
AcDbLine
 10
-39.68750000000003
 20
-1.805781250000022
 30
0.0
 11
-38.73748403595184
 21
-1.757401040826972
 31
0.0
1001
PE_URL
1000

  0
SPLINE
  5
246
330
1F
100
AcDbEntity
  8
0
  6
Continuous
 62
     1
370
    15
100
AcDbSpline
210
0.0
220
0.0
230
1.0
 70
     8
 71
     3
 72
     8
 73
     4
 74
     0
 42
0.000000001
 43
0.00000001
 40
0.0
 40
0.0
 40
0.0
 40
0.0
 40
1.0
 40
1.0
 40
1.0
 40
1.0
 10
-39.68750000000003
 20
-1.805781250000022
 30
0.0
 10
-39.15696070228306
 20
-1.66174274307919
 30
0.0
 10
-38.6312983119103
 20
-1.484871488895186
 30
0.0
 10
-38.11756332789302
 20
-1.260173904872053
 30
0.0
1001
PE_URL
1000

  0
SPLINE
  5
247
330
1F
100
AcDbEntity
  8
0
  6
Continuous
 62
     1
370
    15
100
AcDbSpline
210
0.0
220
0.0
230
1.0
 70
     8
 71
     3
 72
    14
 73
    10
 74
     0
 42
0.000000001
 43
0.00000001
 40
0.0
 40
0.0
 40
0.0
 40
0.0
 40
0.0278533288177428
 40
0.1842049018583136
 40
0.3405990766964596
 40
0.4970629443636201
 40
0.653621596433052
 40
0.8268121578046589
 40
1.0
 40
1.0
 40
1.0
 40
1.0
 10
-34.22735442160122
 20
1.930610352474242
 30
0.0
 10
-34.16014483280797
 20
1.944026391424041
 30
0.0
 10
-33.71566166928348
 20
2.032751877495938
 30
0.0
 10
-32.89379368959449
 20
2.076453322913265
 30
0.0
 10
-31.76154577004342
 20
2.04483146641318
 30
0.0
 10
-30.62873931934757
 20
1.871732444589574
 30
0.0
 10
-29.45527064695961
 20
1.571028499918258
 30
0.0
 10
-28.24145210781344
 20
1.147950141616361
 30
0.0
 10
-27.4054818483972
 20
0.7883592786427815
 30
0.0
 10
-26.98750000000003
 20
0.6085652586050454
 30
0.0
1001
PE_URL
1000

  0
SPLINE
  5
248
330
1F
100
AcDbEntity
  8
외형선
  6
Continuous
370
    15
100
AcDbSpline
210
0.0
220
0.0
230
1.0
 70
    24
 71
     3
 72
    14
 73
    10
 74
     0
 42
0.000000001
 43
0.00000001
 40
0.0
 40
0.0
 40
0.0
 40
0.0
 40
0.25
 40
0.25
 40
0.5
 40
0.5
 40
0.75
 40
0.75
 40
1.0
 40
1.0
 40
1.0
 40
1.0
 10
-26.9875
 20
-1.725484112491296
 30
0.0
 10
-26.9875
 20
-1.613154542095478
 30
0.0
 10
-26.9875
 20
-1.472824460432994
 30
0.0
 10
-26.9875
 20
-1.141865941263552
 30
0.0
 10
-26.9875
 20
-0.9513005875932681
 30
0.0
 10
-26.9875
 20
-0.5364727211150875
 30
0.0
 10
-26.9875
 20
-0.3124312459376615
 30
0.0
 10
-26.9875
 20
0.1460821125251552
 30
0.0
 10
-26.9875
 20
0.3803117543195444
 30
0.0
 10
-26.9875
 20
0.6085652586050347
 30
0.0
  0
SPLINE
  5
249
330
1F
100
AcDbEntity
  8
0
  6
Continuous
 62
     1
370
    15
100
AcDbSpline
210
0.0
220
0.0
230
1.0
 70
     8
 71
     3
 72
     9
 73
     5
 74
     0
 42
0.000000001
 43
0.00000001
 40
0.0
 40
0.0
 40
0.0
 40
0.0
 40
0.0234512173182564
 40
1.0
 40
1.0
 40
1.0
 40
1.0
 10
-28.27153748743677
 20
2.144692606496085
 30
0.0
 10
-28.26150005060224
 20
2.146340937103561
 30
0.0
 10
-27.83348658339891
 20
2.21662857228708
 30
0.0
 10
-27.4054745905702
 20
2.200820246968499
 30
0.0
 10
-26.98750000000013
 20
2.185382646122404
 30
0.0
1001
PE_URL
1000

  0
SPLINE
  5
24A
330
1F
100
AcDbEntity
  8
외형선
  6
Continuous
370
    15
100
AcDbSpline
210
0.0
220
0.0
230
1.0
 70
    24
 71
     3
 72
    10
 73
     6
 74
     0
 42
0.000000001
 43
0.00000001
 40
0.0
 40
0.0
 40
0.0
 40
0.0
 40
0.4999999999999999
 40
0.4999999999999999
 40
1.0
 40
1.0
 40
1.0
 40
1.0
 10
-26.98750000000003
 20
0.6085652586050454
 30
0.0
 10
-26.98750000000003
 20
0.9726630446628928
 30
0.0
 10
-26.98750000000003
 20
1.319075193550576
 30
0.0
 10
-26.98750000000003
 20
1.870251005791895
 30
0.0
 10
-26.98750000000003
 20
2.072642192979901
 30
0.0
 10
-26.98750000000003
 20
2.185382646122401
 30
0.0
  0
LINE
  5
24B
330
1F
100
AcDbEntity
  8
0
  6
Continuous
 62
     1
370
    15
100
AcDbLine
 10
-39.68750000000003
 20
-0.0000000000000231
 30
0.0
 11
-39.68750000000003
 21
-1.805781250000022
 31
0.0
1001
PE_URL
1000

  0
SPLINE
  5
24C
330
1F
100
AcDbEntity
  8
0
  6
Continuous
 62
     1
370
    15
100
AcDbSpline
210
0.0
220
0.0
230
1.0
 70
     8
 71
     3
 72
    10
 73
     6
 74
     0
 42
0.000000001
 43
0.00000001
 40
0.0
 40
0.0
 40
0.0
 40
0.0
 40
0.2632124064103559
 40
0.6314911948352515
 40
1.0
 40
1.0
 40
1.0
 40
1.0
 10
-30.02337543009978
 20
2.028372255932192
 30
0.0
 10
-29.75705336680267
 20
2.12100675187027
 30
0.0
 10
-29.11810157780422
 20
2.343252615280287
 30
0.0
 10
-28.10616174064398
 20
2.543577809603848
 30
0.0
 10
-27.3604648462542
 20
2.567247231520801
 30
0.0
 10
-26.98749999999799
 20
2.579085637141967
 30
0.0
1001
PE_URL
1000

  0
SPLINE
  5
24D
330
1F
100
AcDbEntity
  8
0
  6
Continuous
 62
     1
370
    15
100
AcDbSpline
210
0.0
220
0.0
230
1.0
 70
     8
 71
     3
 72
    13
 73
     9
 74
     0
 42
0.000000001
 43
0.00000001
 40
0.0
 40
0.0
 40
0.0
 40
0.0
 40
0.0810275326894338
 40
0.3960962339973413
 40
0.5457411694243806
 40
0.6959132608415834
 40
0.8476819205984011
 40
1.0
 40
1.0
 40
1.0
 40
1.0
 10
-36.14952812769474
 20
-1.734600263580395
 30
0.0
 10
-36.2451000970309
 20
-1.774994353445477
 30
0.0
 10
-36.7122955782861
 20
-1.972457442104913
 30
0.0
 10
-37.35577081086477
 20
-2.194884551716433
 30
0.0
 10
-38.08176349141861
 20
-2.380888843217955
 30
0.0
 10
-38.61326506184471
 20
-2.483896256693681
 30
0.0
 10
-39.14959954237298
 20
-2.553827147338845
 30
0.0
 10
-39.50798400612086
 20
-2.569604338718923
 30
0.0
 10
-39.68749999999987
 20
-2.57750718741274
 30
0.0
1001
PE_URL
1000

  0
SPLINE
  5
24E
330
1F
100
AcDbEntity
  8
외형선
  6
Continuous
370
    15
100
AcDbSpline
210
0.0
220
0.0
230
1.0
 70
    24
 71
     3
 72
     8
 73
     4
 74
     0
 42
0.000000001
 43
0.00000001
 40
0.0
 40
0.0
 40
0.0
 40
0.0
 40
1.0
 40
1.0
 40
1.0
 40
1.0
 10
-26.98750000000003
 20
2.185382646122401
 30
0.0
 10
-26.98750000000003
 20
2.319197612998424
 30
0.0
 10
-26.98750000000003
 20
2.45128684152038
 30
0.0
 10
-26.98750000000003
 20
2.579085637131994
 30
0.0
  0
SPLINE
  5
24F
330
1F
100
AcDbEntity
  8
0
  6
Continuous
 62
     1
370
    15
100
AcDbSpline
210
0.0
220
0.0
230
1.0
 70
    24
 71
     3
 72
    10
 73
     6
 74
     0
 42
0.000000001
 43
0.00000001
 40
0.0
 40
0.0
 40
0.0
 40
0.0
 40
0.5
 40
0.5
 40
1.0
 40
1.0
 40
1.0
 40
1.0
 10
-39.68750000000003
 20
-1.805781250000022
 30
0.0
 10
-39.68750000000003
 20
-1.915243212482638
 30
0.0
 10
-39.68750000000003
 20
-2.042448150155662
 30
0.0
 10
-39.68750000000003
 20
-2.309323766791225
 30
0.0
 10
-39.68750000000003
 20
-2.448312878919131
 30
0.0
 10
-39.68750000000003
 20
-2.577507187412744
 30
0.0
1001
PE_URL
1000

  0
LINE
  5
251
330
1F
100
AcDbEntity
  8
외형선
  6
Continuous
370
    15
100
AcDbLine
 10
-4.838700000000046
 20
4.762499999999995
 30
0.0
 11
-17.8411328466036
 21
4.762499999999994
 31
0.0
  0
ENDSEC
  0
SECTION
  2
OBJECTS
  0
DICTIONARY
  5
C
330
0
100
AcDbDictionary
281
     1
  3
ACAD_GROUP
350
D
  3
ACAD_IMAGE_VARS
350
275
  3
ACAD_LAYOUT
350
1A
  3
ACAD_MLINESTYLE
350
17
  3
ACAD_PLOTSETTINGS
350
19
  3
ACAD_PLOTSTYLENAME
350
E
  3
ACAD_SCALELIST
350
47
  3
APPDATA
350
15A
  3
DWGPROPS
350
276
  0
DICTIONARY
  5
193
330
2
100
AcDbDictionary
280
     1
281
     1
  3
ACAD_LAYERSTATES
360
194
  0
DICTIONARY
  5
D
102
{ACAD_REACTORS
330
C
102
}
330
C
100
AcDbDictionary
281
     1
  0
RASTERVARIABLES
  5
275
102
{ACAD_REACTORS
330
C
102
}
330
C
100
AcDbRasterVariables
 90
        0
 70
     1
 71
     1
 72
     1
  0
DICTIONARY
  5
1A
102
{ACAD_REACTORS
330
C
102
}
330
C
100
AcDbDictionary
281
     1
  3
Layout1
350
1E
  3
Layout2
350
26
  3
Model
350
22
  0
DICTIONARY
  5
17
102
{ACAD_REACTORS
330
C
102
}
330
C
100
AcDbDictionary
281
     1
  3
Standard
350
18
  0
DICTIONARY
  5
19
102
{ACAD_REACTORS
330
C
102
}
330
C
100
AcDbDictionary
281
     1
  0
ACDBDICTIONARYWDFLT
  5
E
102
{ACAD_REACTORS
330
C
102
}
330
C
100
AcDbDictionary
281
     1
  3
Normal
350
F
100
AcDbDictionaryWithDefault
340
F
  0
DICTIONARY
  5
47
102
{ACAD_REACTORS
330
C
102
}
330
C
100
AcDbDictionary
281
     1
  3
A0
350
48
  3
A1
350
49
  3
A2
350
4A
  3
A3
350
4B
  3
A4
350
4C
  3
A5
350
4D
  3
A6
350
4E
  3
A7
350
4F
  3
A8
350
50
  3
A9
350
51
  3
B0
350
52
  3
B1
350
53
  3
B2
350
54
  3
B3
350
55
  3
B4
350
56
  3
B5
350
57
  3
B6
350
58
  3
B7
350
59
  3
B8
350
5A
  3
B9
350
5B
  3
C0
350
5C
  3
C1
350
5D
  3
C2
350
5E
  3
C3
350
5F
  3
C4
350
60
  3
C5
350
61
  3
C6
350
62
  3
C7
350
63
  3
C8
350
64
  3
C9
350
65
  3
D0
350
66
  3
D1
350
67
  3
D2
350
68
  0
DICTIONARY
  5
15A
102
{ACAD_REACTORS
330
C
102
}
330
C
100
AcDbDictionary
281
     1
  0
XRECORD
  5
276
102
{ACAD_REACTORS
330
C
102
}
330
C
100
AcDbXrecord
280
     1
  1
DWGPROPS COOKIE
  2

  3

  4

  6

  7

  8
12016016
  9

300
=
301
=
302
=
303
=
304
=
305
=
306
=
307
=
308
=
309
=
 40
0.0
 41
2458313.019829086
 42
2458330.40187956
  1

 90
        0
  0
DICTIONARY
  5
194
102
{ACAD_REACTORS
330
193
102
}
330
193
100
AcDbDictionary
281
     1
  0
LAYOUT
  5
1E
102
{ACAD_REACTORS
330
1A
102
}
330
1A
100
AcDbPlotSettings
  1

  2
none_device
  4

  6

 40
0.0
 41
0.0
 42
0.0
 43
0.0
 44
0.0
 45
0.0
 46
0.0
 47
0.0
 48
0.0
 49
0.0
140
0.0
141
0.0
142
1.0
143
1.0
 70
   688
 72
     1
 73
     0
 74
     5
  7

 75
    16
147
1.0
148
0.0
149
0.0
100
AcDbLayout
  1
Layout1
 70
     1
 71
     1
 10
0.0
 20
0.0
 11
420.0
 21
297.0
 12
0.0
 22
0.0
 32
0.0
 14
1.000000000000000E+20
 24
1.000000000000000E+20
 34
1.000000000000000E+20
 15
-1.000000000000000E+20
 25
-1.000000000000000E+20
 35
-1.000000000000000E+20
146
0.0
 13
0.0
 23
0.0
 33
0.0
 16
1.0
 26
0.0
 36
0.0
 17
0.0
 27
1.0
 37
0.0
 76
     0
330
1B
  0
LAYOUT
  5
26
102
{ACAD_REACTORS
330
1A
102
}
330
1A
100
AcDbPlotSettings
  1

  2
none_device
  4

  6

 40
0.0
 41
0.0
 42
0.0
 43
0.0
 44
0.0
 45
0.0
 46
0.0
 47
0.0
 48
0.0
 49
0.0
140
0.0
141
0.0
142
1.0
143
1.0
 70
   688
 72
     1
 73
     0
 74
     5
  7

 75
    16
147
1.0
148
0.0
149
0.0
100
AcDbLayout
  1
Layout2
 70
     1
 71
     2
 10
0.0
 20
0.0
 11
0.0
 21
0.0
 12
0.0
 22
0.0
 32
0.0
 14
0.0
 24
0.0
 34
0.0
 15
0.0
 25
0.0
 35
0.0
146
0.0
 13
0.0
 23
0.0
 33
0.0
 16
1.0
 26
0.0
 36
0.0
 17
0.0
 27
1.0
 37
0.0
 76
     0
330
23
  0
LAYOUT
  5
22
102
{ACAD_REACTORS
330
1A
102
}
330
1A
100
AcDbPlotSettings
  1

  2
none_device
  4
ANSI_A_(11.00_x_8.50_Inches)
  6

 40
6.35
 41
19.05
 42
6.35000508
 43
19.05000254
 44
279.4
 45
215.9
 46
89.87060011157284
 47
75.77278747411371
 48
0.0
 49
0.0
140
0.0
141
0.0
142
0.0468513381585266
143
1.0
 70
  1696
 72
     0
 73
     0
 74
     0
  7

 75
     0
147
0.0235690232323232
148
0.0
149
0.0
100
AcDbLayout
  1
Model
 70
     1
 71
     0
 10
0.0
 20
0.0
 11
420.0
 21
297.0
 12
0.0
 22
0.0
 32
0.0
 14
-54.06250000000009
 24
-49.97180738881175
 34
0.0
 15
97.79412503295507
 25
38.93150718741285
 35
0.0
146
0.0
 13
0.0
 23
0.0
 33
0.0
 16
1.0
 26
0.0
 36
0.0
 17
0.0
 27
1.0
 37
0.0
 76
     0
330
1F
331
29
  0
MLINESTYLE
  5
18
102
{ACAD_REACTORS
330
17
102
}
330
17
100
AcDbMlineStyle
  2
Standard
 70
     0
  3

 62
   256
 51
90.0
 52
90.0
 71
     2
 49
0.5
 62
   256
  6
BYLAYER
 49
-0.5
 62
   256
  6
BYLAYER
  0
ACDBPLACEHOLDER
  5
F
102
{ACAD_REACTORS
330
E
102
}
330
E
  0
SCALE
  5
48
102
{ACAD_REACTORS
330
47
102
}
330
47
100
AcDbScale
 70
     0
300
1:1
140
1.0
141
1.0
290
     1
  0
SCALE
  5
49
102
{ACAD_REACTORS
330
47
102
}
330
47
100
AcDbScale
 70
     0
300
1:2
140
1.0
141
2.0
290
     0
  0
SCALE
  5
4A
102
{ACAD_REACTORS
330
47
102
}
330
47
100
AcDbScale
 70
     0
300
1:4
140
1.0
141
4.0
290
     0
  0
SCALE
  5
4B
102
{ACAD_REACTORS
330
47
102
}
330
47
100
AcDbScale
 70
     0
300
1:5
140
1.0
141
5.0
290
     0
  0
SCALE
  5
4C
102
{ACAD_REACTORS
330
47
102
}
330
47
100
AcDbScale
 70
     0
300
1:8
140
1.0
141
8.0
290
     0
  0
SCALE
  5
4D
102
{ACAD_REACTORS
330
47
102
}
330
47
100
AcDbScale
 70
     0
300
1:10
140
1.0
141
10.0
290
     0
  0
SCALE
  5
4E
102
{ACAD_REACTORS
330
47
102
}
330
47
100
AcDbScale
 70
     0
300
1:16
140
1.0
141
16.0
290
     0
  0
SCALE
  5
4F
102
{ACAD_REACTORS
330
47
102
}
330
47
100
AcDbScale
 70
     0
300
1:20
140
1.0
141
20.0
290
     0
  0
SCALE
  5
50
102
{ACAD_REACTORS
330
47
102
}
330
47
100
AcDbScale
 70
     0
300
1:30
140
1.0
141
30.0
290
     0
  0
SCALE
  5
51
102
{ACAD_REACTORS
330
47
102
}
330
47
100
AcDbScale
 70
     0
300
1:40
140
1.0
141
40.0
290
     0
  0
SCALE
  5
52
102
{ACAD_REACTORS
330
47
102
}
330
47
100
AcDbScale
 70
     0
300
1:50
140
1.0
141
50.0
290
     0
  0
SCALE
  5
53
102
{ACAD_REACTORS
330
47
102
}
330
47
100
AcDbScale
 70
     0
300
1:100
140
1.0
141
100.0
290
     0
  0
SCALE
  5
54
102
{ACAD_REACTORS
330
47
102
}
330
47
100
AcDbScale
 70
     0
300
2:1
140
2.0
141
1.0
290
     0
  0
SCALE
  5
55
102
{ACAD_REACTORS
330
47
102
}
330
47
100
AcDbScale
 70
     0
300
4:1
140
4.0
141
1.0
290
     0
  0
SCALE
  5
56
102
{ACAD_REACTORS
330
47
102
}
330
47
100
AcDbScale
 70
     0
300
8:1
140
8.0
141
1.0
290
     0
  0
SCALE
  5
57
102
{ACAD_REACTORS
330
47
102
}
330
47
100
AcDbScale
 70
     0
300
10:1
140
10.0
141
1.0
290
     0
  0
SCALE
  5
58
102
{ACAD_REACTORS
330
47
102
}
330
47
100
AcDbScale
 70
     0
300
100:1
140
100.0
141
1.0
290
     0
  0
SCALE
  5
59
102
{ACAD_REACTORS
330
47
102
}
330
47
100
AcDbScale
 70
     0
300
1/128" = 1'-0"
140
0.0078125
141
12.0
290
     0
  0
SCALE
  5
5A
102
{ACAD_REACTORS
330
47
102
}
330
47
100
AcDbScale
 70
     0
300
1/64" = 1'-0"
140
0.015625
141
12.0
290
     0
  0
SCALE
  5
5B
102
{ACAD_REACTORS
330
47
102
}
330
47
100
AcDbScale
 70
     0
300
1/32" = 1'-0"
140
0.03125
141
12.0
290
     0
  0
SCALE
  5
5C
102
{ACAD_REACTORS
330
47
102
}
330
47
100
AcDbScale
 70
     0
300
1/16" = 1'-0"
140
0.0625
141
12.0
290
     0
  0
SCALE
  5
5D
102
{ACAD_REACTORS
330
47
102
}
330
47
100
AcDbScale
 70
     0
300
3/32" = 1'-0"
140
0.09375
141
12.0
290
     0
  0
SCALE
  5
5E
102
{ACAD_REACTORS
330
47
102
}
330
47
100
AcDbScale
 70
     0
300
1/8" = 1'-0"
140
0.125
141
12.0
290
     0
  0
SCALE
  5
5F
102
{ACAD_REACTORS
330
47
102
}
330
47
100
AcDbScale
 70
     0
300
3/16" = 1'-0"
140
0.1875
141
12.0
290
     0
  0
SCALE
  5
60
102
{ACAD_REACTORS
330
47
102
}
330
47
100
AcDbScale
 70
     0
300
1/4" = 1'-0"
140
0.25
141
12.0
290
     0
  0
SCALE
  5
61
102
{ACAD_REACTORS
330
47
102
}
330
47
100
AcDbScale
 70
     0
300
3/8" = 1'-0"
140
0.375
141
12.0
290
     0
  0
SCALE
  5
62
102
{ACAD_REACTORS
330
47
102
}
330
47
100
AcDbScale
 70
     0
300
1/2" = 1'-0"
140
0.5
141
12.0
290
     0
  0
SCALE
  5
63
102
{ACAD_REACTORS
330
47
102
}
330
47
100
AcDbScale
 70
     0
300
3/4" = 1'-0"
140
0.75
141
12.0
290
     0
  0
SCALE
  5
64
102
{ACAD_REACTORS
330
47
102
}
330
47
100
AcDbScale
 70
     0
300
1" = 1'-0"
140
1.0
141
12.0
290
     0
  0
SCALE
  5
65
102
{ACAD_REACTORS
330
47
102
}
330
47
100
AcDbScale
 70
     0
300
1-1/2" = 1'-0"
140
1.5
141
12.0
290
     0
  0
SCALE
  5
66
102
{ACAD_REACTORS
330
47
102
}
330
47
100
AcDbScale
 70
     0
300
3" = 1'-0"
140
3.0
141
12.0
290
     0
  0
SCALE
  5
67
102
{ACAD_REACTORS
330
47
102
}
330
47
100
AcDbScale
 70
     0
300
6" = 1'-0"
140
6.0
141
12.0
290
     0
  0
SCALE
  5
68
102
{ACAD_REACTORS
330
47
102
}
330
47
100
AcDbScale
 70
     0
300
1'-0" = 1'-0"
140
12.0
141
12.0
290
     0
  0
ENDSEC
  0
EOF
