  0
SECTION
  2
HEADER
  9
$ACADVER
  1
AC1015
  9
$ACADMAINTVER
 70
     6
  9
$DWGCODEPAGE
  3
ANSI_949
  9
$INSBASE
 10
0.0
 20
0.0
 30
0.0
  9
$EXTMIN
 10
-54.06250000000009
 20
-49.97180738881175
 30
0.0
  9
$EXTMAX
 10
97.79412503295505
 20
38.25477697105998
 30
0.0
  9
$LIMMIN
 10
0.0
 20
0.0
  9
$LIMMAX
 10
420.0
 20
297.0
  9
$ORTHOMODE
 70
     1
  9
$REGENMODE
 70
     1
  9
$FILLMODE
 70
     1
  9
$QTEXTMODE
 70
     0
  9
$MIRRTEXT
 70
     1
  9
$LTSCALE
 40
1.0
  9
$ATTMODE
 70
     1
  9
$TEXTSIZE
 40
3.5
  9
$TRACEWID
 40
1.0
  9
$TEXTSTYLE
  7
Standard
  9
$CLAYER
  8
0
  9
$CELTYPE
  6
ByLayer
  9
$CECOLOR
 62
   256
  9
$CELTSCALE
 40
1.0
  9
$DISPSILH
 70
     0
  9
$DIMSCALE
 40
1.0
  9
$DIMASZ
 40
3.302
  9
$DIMEXO
 40
1.0
  9
$DIMDLI
 40
3.75
  9
$DIMRND
 40
0.0
  9
$DIMDLE
 40
0.0
  9
$DIMEXE
 40
1.0
  9
$DIMTP
 40
0.0
  9
$DIMTM
 40
0.0
  9
$DIMTXT
 40
3.5
  9
$DIMCEN
 40
2.5
  9
$DIMTSZ
 40
0.0
  9
$DIMTOL
 70
     0
  9
$DIMLIM
 70
     0
  9
$DIMTIH
 70
     1
  9
$DIMTOH
 70
     1
  9
$DIMSE1
 70
     0
  9
$DIMSE2
 70
     0
  9
$DIMTAD
 70
     1
  9
$DIMZIN
 70
     0
  9
$DIMBLK
  1

  9
$DIMASO
 70
     1
  9
$DIMSHO
 70
     1
  9
$DIMPOST
  1

  9
$DIMAPOST
  1

  9
$DIMALT
 70
     0
  9
$DIMALTD
 70
     3
  9
$DIMALTF
 40
0.0393700787401575
  9
$DIMLFAC
 40
1.0
  9
$DIMTOFL
 70
     1
  9
$DIMTVP
 40
0.0
  9
$DIMTIX
 70
     0
  9
$DIMSOXD
 70
     0
  9
$DIMSAH
 70
     0
  9
$DIMBLK1
  1

  9
$DIMBLK2
  1

  9
$DIMSTYLE
  2
ISO-25
  9
$DIMCLRD
 70
     0
  9
$DIMCLRE
 70
     0
  9
$DIMCLRT
 70
     0
  9
$DIMTFAC
 40
1.0
  9
$DIMGAP
 40
1.524
  9
$DIMJUST
 70
     0
  9
$DIMSD1
 70
     0
  9
$DIMSD2
 70
     0
  9
$DIMTOLJ
 70
     0
  9
$DIMTZIN
 70
     0
  9
$DIMALTZ
 70
     0
  9
$DIMALTTZ
 70
     0
  9
$DIMUPT
 70
     0
  9
$DIMDEC
 70
     2
  9
$DIMTDEC
 70
     2
  9
$DIMALTU
 70
     2
  9
$DIMALTTD
 70
     3
  9
$DIMTXSTY
  7
Standard
  9
$DIMAUNIT
 70
     0
  9
$DIMADEC
 70
     2
  9
$DIMALTRND
 40
0.0
  9
$DIMAZIN
 70
     0
  9
$DIMDSEP
 70
    44
  9
$DIMATFIT
 70
     3
  9
$DIMFRAC
 70
     0
  9
$DIMLDRBLK
  1

  9
$DIMLUNIT
 70
     2
  9
$DIMLWD
 70
    -2
  9
$DIMLWE
 70
    -2
  9
$DIMTMOVE
 70
     0
  9
$LUNITS
 70
     2
  9
$LUPREC
 70
     2
  9
$SKETCHINC
 40
1.0
  9
$FILLETRAD
 40
10.0
  9
$AUNITS
 70
     0
  9
$AUPREC
 70
     2
  9
$MENU
  1
.
  9
$ELEVATION
 40
0.0
  9
$PELEVATION
 40
0.0
  9
$THICKNESS
 40
0.0
  9
$LIMCHECK
 70
     0
  9
$CHAMFERA
 40
0.0
  9
$CHAMFERB
 40
0.0
  9
$CHAMFERC
 40
0.0
  9
$CHAMFERD
 40
0.0
  9
$SKPOLY
 70
     0
  9
$TDCREATE
 40
2458313.395041042
  9
$TDUCREATE
 40
2458313.020041042
  9
$TDUPDATE
 40
2458330.776833334
  9
$TDUUPDATE
 40
2458330.401833334
  9
$TDINDWG
 40
0.0021329861
  9
$TDUSRTIMER
 40
2458330.401798472
  9
$USRTIMER
 70
     1
  9
$ANGBASE
 50
0.0
  9
$ANGDIR
 70
     0
  9
$PDMODE
 70
     0
  9
$PDSIZE
 40
-1.0
  9
$PLINEWID
 40
0.0
  9
$SPLFRAME
 70
     0
  9
$SPLINETYPE
 70
     6
  9
$SPLINESEGS
 70
     8
  9
$HANDSEED
  5
26E
  9
$SURFTAB1
 70
     6
  9
$SURFTAB2
 70
     6
  9
$SURFTYPE
 70
     6
  9
$SURFU
 70
     6
  9
$SURFV
 70
     6
  9
$UCSBASE
  2

  9
$UCSNAME
  2

  9
$UCSORG
 10
0.0
 20
0.0
 30
0.0
  9
$UCSXDIR
 10
1.0
 20
0.0
 30
0.0
  9
$UCSYDIR
 10
0.0
 20
1.0
 30
0.0
  9
$UCSORTHOREF
  2

  9
$UCSORTHOVIEW
 70
     0
  9
$UCSORGTOP
 10
0.0
 20
0.0
 30
0.0
  9
$UCSORGBOTTOM
 10
0.0
 20
0.0
 30
0.0
  9
$UCSORGLEFT
 10
0.0
 20
0.0
 30
0.0
  9
$UCSORGRIGHT
 10
0.0
 20
0.0
 30
0.0
  9
$UCSORGFRONT
 10
0.0
 20
0.0
 30
0.0
  9
$UCSORGBACK
 10
0.0
 20
0.0
 30
0.0
  9
$PUCSBASE
  2

  9
$PUCSNAME
  2

  9
$PUCSORG
 10
0.0
 20
0.0
 30
0.0
  9
$PUCSXDIR
 10
1.0
 20
0.0
 30
0.0
  9
$PUCSYDIR
 10
0.0
 20
1.0
 30
0.0
  9
$PUCSORTHOREF
  2

  9
$PUCSORTHOVIEW
 70
     0
  9
$PUCSORGTOP
 10
0.0
 20
0.0
 30
0.0
  9
$PUCSORGBOTTOM
 10
0.0
 20
0.0
 30
0.0
  9
$PUCSORGLEFT
 10
0.0
 20
0.0
 30
0.0
  9
$PUCSORGRIGHT
 10
0.0
 20
0.0
 30
0.0
  9
$PUCSORGFRONT
 10
0.0
 20
0.0
 30
0.0
  9
$PUCSORGBACK
 10
0.0
 20
0.0
 30
0.0
  9
$USERI1
 70
     0
  9
$USERI2
 70
     0
  9
$USERI3
 70
     0
  9
$USERI4
 70
     0
  9
$USERI5
 70
     0
  9
$USERR1
 40
0.0
  9
$USERR2
 40
0.0
  9
$USERR3
 40
0.0
  9
$USERR4
 40
0.0
  9
$USERR5
 40
0.0
  9
$WORLDVIEW
 70
     1
  9
$SHADEDGE
 70
     3
  9
$SHADEDIF
 70
    70
  9
$TILEMODE
 70
     1
  9
$MAXACTVP
 70
    64
  9
$PINSBASE
 10
0.0
 20
0.0
 30
0.0
  9
$PLIMCHECK
 70
     0
  9
$PEXTMIN
 10
1.000000000000000E+20
 20
1.000000000000000E+20
 30
1.000000000000000E+20
  9
$PEXTMAX
 10
-1.000000000000000E+20
 20
-1.000000000000000E+20
 30
-1.000000000000000E+20
  9
$PLIMMIN
 10
0.0
 20
0.0
  9
$PLIMMAX
 10
0.0
 20
0.0
  9
$UNITMODE
 70
     0
  9
$VISRETAIN
 70
     1
  9
$PLINEGEN
 70
     0
  9
$PSLTSCALE
 70
     1
  9
$TREEDEPTH
 70
  3020
  9
$CMLSTYLE
  2
Standard
  9
$CMLJUST
 70
     0
  9
$CMLSCALE
 40
20.0
  9
$PROXYGRAPHICS
 70
     1
  9
$MEASUREMENT
 70
     1
  9
$CELWEIGHT
370
    -1
  9
$ENDCAPS
280
     0
  9
$JOINSTYLE
280
     0
  9
$LWDISPLAY
290
     1
  9
$INSUNITS
 70
     4
  9
$HYPERLINKBASE
  1

  9
$STYLESHEET
  1

  9
$XEDIT
290
     1
  9
$CEPSNTYPE
380
     0
  9
$PSTYLEMODE
290
     1
  9
$FINGERPRINTGUID
  2
{3EF5A07A-D915-4210-9494-0379E98C1AF1}
  9
$VERSIONGUID
  2
{FAEB1C32-E019-11D5-929B-00C0DF256EC4}
  9
$EXTNAMES
290
     1
  9
$PSVPSCALE
 40
0.0
  9
$OLESTARTUP
290
     0
  0
ENDSEC
  0
SECTION
  2
CLASSES
  0
CLASS
  1
ACDBDICTIONARYWDFLT
  2
AcDbDictionaryWithDefault
  3
ObjectDBX Classes
 90
        0
280
     0
281
     0
  0
CLASS
  1
VISUALSTYLE
  2
AcDbVisualStyle
  3
ObjectDBX Classes
 90
     4095
280
     0
281
     0
  0
CLASS
  1
MATERIAL
  2
AcDbMaterial
  3
ObjectDBX Classes
 90
     1153
280
     0
281
     0
  0
CLASS
  1
SCALE
  2
AcDbScale
  3
ObjectDBX Classes
 90
     1153
280
     0
281
     0
  0
CLASS
  1
SUN
  2
AcDbSun
  3
SCENEOE
 90
     1153
280
     0
281
     0
  0
CLASS
  1
ACDBPLACEHOLDER
  2
AcDbPlaceHolder
  3
ObjectDBX Classes
 90
        0
280
     0
281
     0
  0
CLASS
  1
LAYOUT
  2
AcDbLayout
  3
ObjectDBX Classes
 90
        0
280
     0
281
     0
  0
CLASS
  1
TABLESTYLE
  2
AcDbTableStyle
  3
ObjectDBX Classes
 90
     4095
280
     0
281
     0
  0
CLASS
  1
MLEADERSTYLE
  2
AcDbMLeaderStyle
  3
ACDB_MLEADERSTYLE_CLASS
 90
     4095
280
     0
281
     0
  0
CLASS
  1
RASTERVARIABLES
  2
AcDbRasterVariables
  3
ISM
 90
        0
280
     0
281
     0
  0
ENDSEC
  0
SECTION
  2
TABLES
  0
TABLE
  2
VPORT
  5
8
330
0
100
AcDbSymbolTable
 70
     1
  0
VPORT
  5
29
330
8
100
AcDbSymbolTableRecord
100
AcDbViewportTableRecord
  2
*Active
 70
     0
 10
0.0
 20
0.0
 11
1.0
 21
1.0
 12
21.86581251647749
 22
-5.858515208875879
 13
0.0
 23
0.0
 14
10.0
 24
10.0
 15
10.0
 25
10.0
 16
0.0
 26
0.0
 36
1.0
 17
0.0
 27
0.0
 37
0.0
 40
89.99111604706917
 41
1.782762691853601
 42
50.0
 43
0.0
 44
0.0
 50
0.0
 51
0.0
 71
    16
 72
  2000
 73
     1
 74
     3
 75
     0
 76
     0
 77
     0
 78
     0
281
     0
 65
     1
110
0.0
120
0.0
130
0.0
111
1.0
121
0.0
131
0.0
112
0.0
122
1.0
132
0.0
 79
     0
146
0.0
  0
ENDTAB
  0
TABLE
  2
LTYPE
  5
5
330
0
100
AcDbSymbolTable
 70
     6
  0
LTYPE
  5
14
330
5
100
AcDbSymbolTableRecord
100
AcDbLinetypeTableRecord
  2
ByBlock
 70
     0
  3

 72
    65
 73
     0
 40
0.0
  0
LTYPE
  5
15
330
5
100
AcDbSymbolTableRecord
100
AcDbLinetypeTableRecord
  2
ByLayer
 70
     0
  3

 72
    65
 73
     0
 40
0.0
  0
LTYPE
  5
16
330
5
100
AcDbSymbolTableRecord
100
AcDbLinetypeTableRecord
  2
Continuous
 70
     0
  3
Solid line
 72
    65
 73
     0
 40
0.0
  0
LTYPE
  5
6A
330
5
100
AcDbSymbolTableRecord
100
AcDbLinetypeTableRecord
  2
HIDDEN
 70
     0
  3
Hidden __ __ __ __ __ __ __ __ __ __ __ __ __ __
 72
    65
 73
     2
 40
1.905
 49
1.27
 74
     0
 49
-0.635
 74
     0
  0
LTYPE
  5
6B
330
5
100
AcDbSymbolTableRecord
100
AcDbLinetypeTableRecord
  2
PHANTOM
 70
     0
  3
Phantom ______  __  __  ______  __  __  ______
 72
    65
 73
     6
 40
12.7
 49
6.35
 74
     0
 49
-1.27
 74
     0
 49
1.27
 74
     0
 49
-1.27
 74
     0
 49
1.27
 74
     0
 49
-1.27
 74
     0
  0
LTYPE
  5
6C
330
5
100
AcDbSymbolTableRecord
100
AcDbLinetypeTableRecord
  2
CENTER
 70
     0
  3
Center ____ _ ____ _ ____ _ ____ _ ____ _ ____
 72
    65
 73
     4
 40
10.16
 49
6.35
 74
     0
 49
-1.27
 74
     0
 49
1.27
 74
     0
 49
-1.27
 74
     0
  0
LTYPE
  5
6D
330
5
100
AcDbSymbolTableRecord
100
AcDbLinetypeTableRecord
  2
CENTERX2
 70
     0
  3
Center (2x) ________  __  ________  __  _____
 72
    65
 73
     4
 40
20.32
 49
12.7
 74
     0
 49
-2.54
 74
     0
 49
2.54
 74
     0
 49
-2.54
 74
     0
  0
LTYPE
  5
6E
330
5
100
AcDbSymbolTableRecord
100
AcDbLinetypeTableRecord
  2
DOT2
 70
     0
  3
Dot (.5x) ........................................
 72
    65
 73
     2
 40
0.635
 49
0.0
 74
     0
 49
-0.635
 74
     0
  0
ENDTAB
  0
TABLE
  2
LAYER
  5
2
102
{ACAD_XDICTIONARY
360
191
102
}
330
0
100
AcDbSymbolTable
 70
    18
  0
LAYER
  5
10
330
2
100
AcDbSymbolTableRecord
100
AcDbLayerTableRecord
  2
0
 70
     0
 62
     7
  6
Continuous
370
    -3
390
F
  0
LAYER
  5
6F
330
2
100
AcDbSymbolTableRecord
100
AcDbLayerTableRecord
  2
FORMAT
 70
     0
 62
     2
  6
Continuous
370
    -3
390
F
  0
LAYER
  5
70
330
2
100
AcDbSymbolTableRecord
100
AcDbLayerTableRecord
  2
외형선
 70
     0
 62
     4
  6
Continuous
370
    30
390
F
  0
LAYER
  5
71
330
2
100
AcDbSymbolTableRecord
100
AcDbLayerTableRecord
  2
숨은선
 70
     0
 62
     2
  6
HIDDEN
370
    15
390
F
  0
LAYER
  5
72
330
2
100
AcDbSymbolTableRecord
100
AcDbLayerTableRecord
  2
중심선
 70
     0
 62
     1
  6
CENTERX2
370
    -3
390
F
  0
LAYER
  5
73
330
2
100
AcDbSymbolTableRecord
100
AcDbLayerTableRecord
  2
파단선
 70
     0
 62
     4
  6
Continuous
370
    -3
390
F
  0
LAYER
  5
74
330
2
100
AcDbSymbolTableRecord
100
AcDbLayerTableRecord
  2
해칭선
 70
     0
 62
   100
  6
Continuous
370
    -3
390
F
  0
LAYER
  5
75
330
2
100
AcDbSymbolTableRecord
100
AcDbLayerTableRecord
  2
가는실선
 70
     0
 62
     4
  6
Continuous
370
    -3
390
F
  0
LAYER
  5
76
330
2
100
AcDbSymbolTableRecord
100
AcDbLayerTableRecord
  2
치수_보조선
 70
     0
 62
     4
  6
Continuous
370
    -3
390
F
  0
LAYER
  5
77
330
2
100
AcDbSymbolTableRecord
100
AcDbLayerTableRecord
  2
치수문자_일반주서
 70
     0
 62
     7
  6
Continuous
370
    15
390
F
  0
LAYER
  5
78
330
2
100
AcDbSymbolTableRecord
100
AcDbLayerTableRecord
  2
개별주서
 70
     0
 62
   100
  6
Continuous
370
    30
390
F
  0
LAYER
  5
79
330
2
100
AcDbSymbolTableRecord
100
AcDbLayerTableRecord
  2
중간선
 70
     0
 62
     2
  6
Continuous
370
    15
390
F
  0
LAYER
  5
7A
330
2
100
AcDbSymbolTableRecord
100
AcDbLayerTableRecord
  2
윤곽선
 70
     0
 62
     3
  6
Continuous
370
    40
390
F
  0
LAYER
  5
7B
330
2
100
AcDbSymbolTableRecord
100
AcDbLayerTableRecord
  2
중심마크
 70
     0
 62
   100
  6
Continuous
370
    30
390
F
  0
LAYER
  5
7C
330
2
100
AcDbSymbolTableRecord
100
AcDbLayerTableRecord
  2
가상선
 70
     0
 62
     4
  6
PHANTOM
370
    -3
390
F
  0
LAYER
  5
7D
330
2
100
AcDbSymbolTableRecord
100
AcDbLayerTableRecord
  2
특수지정선
 70
     0
 62
     5
  6
CENTERX2
370
    60
390
F
  0
LAYER
  5
7E
330
2
100
AcDbSymbolTableRecord
100
AcDbLayerTableRecord
  2
참조1
 70
     0
 62
    -4
  6
Continuous
370
    -3
390
F
  0
LAYER
  5
15A
330
2
100
AcDbSymbolTableRecord
100
AcDbLayerTableRecord
  2
Defpoints
 70
     0
 62
     7
  6
Continuous
290
     0
370
    -3
390
F
  0
ENDTAB
  0
TABLE
  2
STYLE
  5
3
330
0
100
AcDbSymbolTable
 70
     2
  0
STYLE
  5
11
330
3
100
AcDbSymbolTableRecord
100
AcDbTextStyleTableRecord
  2
Standard
 70
     0
 40
0.0
 41
1.0
 50
0.0
 71
     0
 42
3.5
  3
txt
  4

  0
STYLE
  5
94
330
3
100
AcDbSymbolTableRecord
100
AcDbTextStyleTableRecord
  2
SLDTEXTSTYLE0
 70
     0
 40
0.0
 41
0.75
 50
0.0
 71
     0
 42
3.5
  3
TXT
  4

  0
ENDTAB
  0
TABLE
  2
VIEW
  5
6
330
0
100
AcDbSymbolTable
 70
     0
  0
ENDTAB
  0
TABLE
  2
UCS
  5
7
330
0
100
AcDbSymbolTable
 70
     0
  0
ENDTAB
  0
TABLE
  2
APPID
  5
9
330
0
100
AcDbSymbolTable
 70
     2
  0
APPID
  5
12
330
9
100
AcDbSymbolTableRecord
100
AcDbRegAppTableRecord
  2
ACAD
 70
     0
  0
APPID
  5
161
330
9
100
AcDbSymbolTableRecord
100
AcDbRegAppTableRecord
  2
PE_URL
 70
     0
  0
ENDTAB
  0
TABLE
  2
DIMSTYLE
  5
A
330
0
100
AcDbSymbolTable
 70
     4
100
AcDbDimStyleTable
  0
DIMSTYLE
105
27
330
A
100
AcDbSymbolTableRecord
100
AcDbDimStyleTableRecord
  2
ISO-25
 70
     0
 41
2.5
 42
0.625
 43
3.75
 44
1.25
 73
     0
 74
     0
 77
     1
 78
     8
140
2.5
141
2.5
143
0.03937007874016
147
0.625
171
     3
172
     1
178
     0
271
     2
272
     2
274
     3
278
    44
283
     0
284
     8
340
11
  0
DIMSTYLE
105
D8
102
{ACAD_REACTORS
330
D7
330
EC
330
100
330
115
102
}
330
A
100
AcDbSymbolTableRecord
100
AcDbDimStyleTableRecord
  2
SLDDIMSTYLE0
 70
     0
 41
3.302
 44
0.0
 45
0.000000001
 73
     0
 74
     0
 77
     1
 78
    12
 79
     3
140
3.5
143
0.0393700787401575
147
0.875
148
0.000000001
170
     1
172
     1
173
     1
178
     0
271
     2
272
     2
276
     2
284
    12
289
     0
340
94
  0
DIMSTYLE
105
101
330
A
100
AcDbSymbolTableRecord
100
AcDbDimStyleTableRecord
  2
SLDDIMSTYLE1
 70
     0
 41
3.302
 44
0.0
 45
0.000000001
 73
     0
 74
     0
 77
     1
 78
     4
 79
     1
140
3.5
143
0.0393700787401575
147
0.875
148
0.000000001
170
     1
173
     1
178
     0
271
     2
272
     2
276
     2
284
    12
340
94
  0
DIMSTYLE
105
116
330
A
100
AcDbSymbolTableRecord
100
AcDbDimStyleTableRecord
  2
SLDDIMSTYLE2
 70
     0
 41
3.302
 44
0.0
 45
0.000000001
 73
     0
 74
     0
 77
     1
 78
    12
 79
     3
140
3.5
143
0.0393700787401575
147
0.875
148
0.000000001
170
     1
173
     1
178
     0
271
     2
272
     2
276
     2
284
    12
340
94
  0
ENDTAB
  0
TABLE
  2
BLOCK_RECORD
  5
1
330
0
100
AcDbSymbolTable
 70
     9
  0
BLOCK_RECORD
  5
1F
330
1
100
AcDbSymbolTableRecord
100
AcDbBlockTableRecord
  2
*Model_Space
340
22
  0
BLOCK_RECORD
  5
1B
330
1
100
AcDbSymbolTableRecord
100
AcDbBlockTableRecord
  2
*Paper_Space
340
1E
  0
BLOCK_RECORD
  5
23
330
1
100
AcDbSymbolTableRecord
100
AcDbBlockTableRecord
  2
*Paper_Space0
340
26
  0
BLOCK_RECORD
  5
7F
330
1
100
AcDbSymbolTableRecord
100
AcDbBlockTableRecord
  2
블럭10
340
0
102
{BLKREFS
331
D0
102
}
  0
BLOCK_RECORD
  5
D9
330
1
100
AcDbSymbolTableRecord
100
AcDbBlockTableRecord
  2
_D
340
0
  0
BLOCK_RECORD
  5
ED
330
1
100
AcDbSymbolTableRecord
100
AcDbBlockTableRecord
  2
_D_1
340
0
  0
BLOCK_RECORD
  5
102
330
1
100
AcDbSymbolTableRecord
100
AcDbBlockTableRecord
  2
_D_2
340
0
  0
BLOCK_RECORD
  5
117
330
1
100
AcDbSymbolTableRecord
100
AcDbBlockTableRecord
  2
_D_3
340
0
  0
BLOCK_RECORD
  5
130
330
1
100
AcDbSymbolTableRecord
100
AcDbBlockTableRecord
  2
SW_DOWELSYMBOL_0
340
0
102
{BLKREFS
331
136
102
}
  0
BLOCK_RECORD
  5
195
330
1
100
AcDbSymbolTableRecord
100
AcDbBlockTableRecord
  2
*D7
340
0
  0
BLOCK_RECORD
  5
1A7
330
1
100
AcDbSymbolTableRecord
100
AcDbBlockTableRecord
  2
*D8
340
0
  0
ENDTAB
  0
ENDSEC
  0
SECTION
  2
BLOCKS
  0
BLOCK
  5
20
330
1F
100
AcDbEntity
  8
0
100
AcDbBlockBegin
  2
*Model_Space
 70
     0
 10
0.0
 20
0.0
 30
0.0
  3
*Model_Space
  1
*Model_Space
  0
ENDBLK
  5
21
330
1F
100
AcDbEntity
  8
0
100
AcDbBlockEnd
  0
BLOCK
  5
1C
330
1B
100
AcDbEntity
 67
     1
  8
0
100
AcDbBlockBegin
  2
*Paper_Space
 70
     0
 10
0.0
 20
0.0
 30
0.0
  3
*Paper_Space
  1
*Paper_Space
  0
ENDBLK
  5
1D
330
1B
100
AcDbEntity
 67
     1
  8
0
100
AcDbBlockEnd
  0
BLOCK
  5
24
330
23
100
AcDbEntity
  8
0
100
AcDbBlockBegin
  2
*Paper_Space0
 70
     0
 10
0.0
 20
0.0
 30
0.0
  3
*Paper_Space0
  1
*Paper_Space0
  0
ENDBLK
  5
25
330
23
100
AcDbEntity
  8
0
100
AcDbBlockEnd
  0
BLOCK
  5
80
330
7F
100
AcDbEntity
  8
0
100
AcDbBlockBegin
  2
블럭10
 70
     2
 10
0.0
 20
0.0
 30
0.0
  3
블럭10
  1
블럭10
  0
ELLIPSE
  5
82
330
7F
100
AcDbEntity
  8
중심선
100
AcDbEllipse
 10
20.54032771741204
 20
12.0471743016438
 30
0.0
 11
6.600054785286829
 21
-1.261213355974178E-13
 31
0.0
210
0.0
220
0.0
230
1.0
 40
0.636358354079598
 41
0.9219305317359503
 42
6.513795318482858
  0
ELLIPSE
  5
83
330
7F
100
AcDbEntity
  8
중심선
100
AcDbEllipse
 10
20.54032771746488
 20
12.04717430159265
 30
0.0
 11
3.960054785062283
 21
1.540847449632565E-10
 31
0.0
210
0.0
220
0.0
230
1.0
 40
0.3939339440162632
 41
1.131841032648279
 42
5.62031148352944
  0
LINE
  5
84
330
7F
100
AcDbEntity
  8
중심선
100
AcDbLine
 10
2.268634060543552
 20
16.24717430164393
 30
0.0
 11
5.714909304380834
 21
16.24717430164393
 31
0.0
  0
LINE
  5
85
330
7F
100
AcDbEntity
  8
중심선
100
AcDbLine
 10
5.245725140726316
 20
7.84717430164391
 30
0.0
 11
8.692000384563599
 21
7.84717430164391
 31
0.0
  0
LINE
  5
86
330
7F
100
AcDbEntity
  8
중심선
100
AcDbLine
 10
15.74043728645272
 20
16.24717430164393
 30
0.0
 11
8.692000384563599
 21
7.84717430164391
 31
0.0
  0
LINE
  5
87
330
7F
100
AcDbEntity
  8
중심선
100
AcDbLine
 10
0.1404042013395286
 20
13.71084872107135
 30
0.0
 11
3.58671253028996
 21
13.71088815037384
 31
0.0
  0
LINE
  5
88
330
7F
100
AcDbEntity
  8
중심선
100
AcDbLine
 10
2.750260043222114
 20
10.84717430164391
 30
0.0
 11
6.196535287059397
 21
10.84717430164391
 31
0.0
  0
LINE
  5
89
330
7F
100
AcDbEntity
  8
중심선
100
AcDbLine
 10
12.29416204261559
 20
16.24717430164393
 30
0.0
 11
5.245725140726316
 21
7.84717430164391
 31
0.0
  0
LINE
  5
8A
330
7F
100
AcDbEntity
  8
중심선
100
AcDbLine
 10
10.72767329541681
 20
16.24717430164393
 30
0.0
 11
6.196535287059397
 21
10.84717430164391
 31
0.0
  0
LINE
  5
8B
330
7F
100
AcDbEntity
  8
중심선
100
AcDbLine
 10
7.28139805157953
 20
16.24717430164393
 30
0.0
 11
2.750260043222114
 21
10.84717430164391
 31
0.0
  0
LINE
  5
8C
330
7F
100
AcDbEntity
  8
중심선
100
AcDbLine
 10
5.714909304380834
 20
16.24717430164393
 30
0.0
 11
3.58671253028996
 21
13.71088815037384
 31
0.0
  0
LINE
  5
8D
330
7F
100
AcDbEntity
  8
중심선
100
AcDbLine
 10
2.268634060543552
 20
16.24717430164393
 30
0.0
 11
0.1404042013395286
 21
13.71084872107135
 31
0.0
  0
LINE
  5
8E
330
7F
100
AcDbEntity
  8
중심선
100
AcDbLine
 10
7.28139805157953
 20
16.24717430164393
 30
0.0
 11
10.72767329541681
 21
16.24717430164393
 31
0.0
  0
LINE
  5
8F
330
7F
100
AcDbEntity
  8
중심선
100
AcDbLine
 10
12.29416204261559
 20
16.24717430164393
 30
0.0
 11
15.74043728645272
 21
16.24717430164393
 31
0.0
  0
LINE
  5
90
330
7F
100
AcDbEntity
  8
중심선
100
AcDbLine
 10
19.22036997980202
 20
11.08717430171403
 30
0.0
 11
23.66174974927406
 21
11.08717430171406
 31
0.0
  0
LINE
  5
91
330
7F
100
AcDbEntity
  8
중심선
100
AcDbLine
 10
19.22039502424796
 20
13.00717430171391
 30
0.0
 11
19.22036997980202
 21
11.08717430171403
 31
0.0
  0
LINE
  5
92
330
7F
100
AcDbEntity
  8
중심선
100
AcDbLine
 10
19.22039502424796
 20
13.00717430171391
 30
0.0
 11
26.96566020931264
 21
13.00717430171391
 31
0.0
  0
LINE
  5
93
330
7F
100
AcDbEntity
  8
중심선
100
AcDbLine
 10
22.22332737316547
 20
13.45928029700563
 30
0.0
 11
24.52862924686651
 21
15.39360700705356
 31
0.0
  0
ATTDEF
  5
95
330
7F
100
AcDbEntity
  8
FORMAT
 62
     2
100
AcDbText
 10
4.408487351596664
 20
2.075366912832191
 30
0.0
 40
4.233333333333333
  1
E1050014
 41
0.75
  7
SLDTEXTSTYLE0
 11
4.408487351596664
 21
-0.0412997538344756
 31
0.0
100
AcDbAttributeDefinition
  3

  2
AUTOATTR0
 70
     0
 74
     1
  0
ENDBLK
  5
81
330
7F
100
AcDbEntity
  8
0
100
AcDbBlockEnd
  0
BLOCK
  5
DA
330
D9
100
AcDbEntity
  8
0
100
AcDbBlockBegin
  2
_D
 70
     0
 10
0.0
 20
0.0
 30
0.0
  3
_D
  1
_D
  0
LINE
  5
DC
330
D9
100
AcDbEntity
  8
치수문자_일반주서
 62
     0
370
    -2
100
AcDbLine
 10
-18.64421167873052
 20
4.762499999999996
 30
0.0
 11
-49.68749999999998
 21
4.762499999999882
 31
0.0
  0
LINE
  5
DD
330
D9
100
AcDbEntity
  8
치수문자_일반주서
 62
     0
370
    -2
100
AcDbLine
 10
-18.64421167873051
 20
-4.76250000000001
 30
0.0
 11
-49.68749999999994
 21
-4.762500000000124
 31
0.0
  0
LINE
  5
DE
330
D9
100
AcDbEntity
  8
치수문자_일반주서
 62
     0
370
    -2
100
AcDbLine
 10
-49.68749999999998
 20
4.762499999999882
 30
0.0
 11
-49.6875000000001
 21
37.61649999999996
 31
0.0
  0
LINE
  5
DF
330
D9
100
AcDbEntity
  8
치수문자_일반주서
 62
     0
370
    -2
100
AcDbLine
 10
-49.68749999999998
 20
4.762499999999882
 30
0.0
 11
-49.68749999999994
 21
-4.762500000000124
 31
0.0
  0
LINE
  5
E0
330
D9
100
AcDbEntity
  8
치수문자_일반주서
 62
     0
370
    -2
100
AcDbLine
 10
-49.68749999999999
 20
8.064499999999882
 30
0.0
 11
-49.68750000000001
 21
11.36649999999988
 31
0.0
  0
LINE
  5
E1
330
D9
100
AcDbEntity
  8
치수문자_일반주서
 62
     0
370
    -2
100
AcDbLine
 10
-49.68749999999993
 20
-8.064500000000123
 30
0.0
 11
-49.68749999999991
 21
-11.36650000000012
 31
0.0
  0
SOLID
  5
E2
330
D9
100
AcDbEntity
  8
치수문자_일반주서
 62
     0
100
AcDbTrace
 10
-50.23783333333333
 20
8.06449999999988
 30
0.0
 11
-49.13716666666666
 21
8.064499999999883
 31
0.0
 12
-49.68749999999998
 22
4.762499999999882
 32
0.0
 13
-49.68749999999998
 23
4.762499999999882
 33
0.0
  0
SOLID
  5
E3
330
D9
100
AcDbEntity
  8
치수문자_일반주서
 62
     0
100
AcDbTrace
 10
-49.13716666666659
 20
-8.064500000000121
 30
0.0
 11
-50.23783333333326
 21
-8.064500000000125
 31
0.0
 12
-49.68749999999994
 22
-4.762500000000124
 32
0.0
 13
-49.68749999999994
 23
-4.762500000000124
 33
0.0
  0
MTEXT
  5
E4
330
D9
100
AcDbEntity
  8
치수문자_일반주서
 62
     0
100
AcDbMText
 10
-54.06250000000005
 20
24.49149999999995
 30
0.0
 40
3.5
 41
0.0
 71
     2
 72
     1
  1
\A1;%%c9.53 [3/8]
  7
SLDTEXTSTYLE0
 11
-3.729883127349604E-15
 21
1.0
 31
0.0
 73
     1
 44
1.0
  0
POINT
  5
1E4
330
D9
100
AcDbEntity
  8
Defpoints
 62
     0
100
AcDbPoint
 10
-18.58171167873052
 20
4.762499999999996
 30
0.0
  0
POINT
  5
1E5
330
D9
100
AcDbEntity
  8
Defpoints
 62
     0
100
AcDbPoint
 10
-18.58171167873051
 20
-4.76250000000001
 30
0.0
  0
POINT
  5
1E6
330
D9
100
AcDbEntity
  8
Defpoints
 62
     0
100
AcDbPoint
 10
-49.68749999999994
 20
-4.762500000000126
 30
0.0
  0
ENDBLK
  5
DB
330
D9
100
AcDbEntity
  8
0
100
AcDbBlockEnd
  0
BLOCK
  5
EE
330
ED
100
AcDbEntity
  8
0
100
AcDbBlockBegin
  2
_D_1
 70
     0
 10
0.0
 20
0.0
 30
0.0
  3
_D_1
  1
_D_1
  0
LINE
  5
F0
330
ED
100
AcDbEntity
  8
치수문자_일반주서
 62
     0
370
    -2
100
AcDbLine
 10
39.75000000000002
 20
-2.775776971059855
 30
0.0
 11
74.73013871853418
 21
-2.775776971059724
 31
0.0
  0
LINE
  5
F1
330
ED
100
AcDbEntity
  8
치수문자_일반주서
 62
     0
370
    -2
100
AcDbLine
 10
39.75000000000002
 20
2.775776971059855
 30
0.0
 11
74.73013871853416
 21
2.775776971059987
 31
0.0
  0
LINE
  5
F2
330
ED
100
AcDbEntity
  8
치수문자_일반주서
 62
     0
370
    -2
100
AcDbLine
 10
74.73013871853416
 20
2.775776971059987
 30
0.0
 11
74.73013871853406
 21
38.25477697105998
 31
0.0
  0
LINE
  5
F3
330
ED
100
AcDbEntity
  8
치수문자_일반주서
 62
     0
370
    -2
100
AcDbLine
 10
74.73013871853418
 20
-2.775776971059724
 30
0.0
 11
74.73013871853416
 21
2.775776971059987
 31
0.0
  0
LINE
  5
F4
330
ED
100
AcDbEntity
  8
치수문자_일반주서
 62
     0
370
    -2
100
AcDbLine
 10
74.73013871853419
 20
-6.077776971059723
 30
0.0
 11
74.7301387185342
 21
-9.379776971059723
 31
0.0
  0
LINE
  5
F5
330
ED
100
AcDbEntity
  8
치수문자_일반주서
 62
     0
370
    -2
100
AcDbLine
 10
74.73013871853415
 20
6.077776971059986
 30
0.0
 11
74.73013871853414
 21
9.379776971059986
 31
0.0
  0
SOLID
  5
F6
330
ED
100
AcDbEntity
  8
치수문자_일반주서
 62
     0
100
AcDbTrace
 10
75.28047205186752
 20
-6.077776971059722
 30
0.0
 11
74.17980538520086
 21
-6.077776971059725
 31
0.0
 12
74.73013871853418
 22
-2.775776971059724
 32
0.0
 13
74.73013871853418
 23
-2.775776971059724
 33
0.0
  0
SOLID
  5
F7
330
ED
100
AcDbEntity
  8
치수문자_일반주서
 62
     0
100
AcDbTrace
 10
74.17980538520082
 20
6.077776971059984
 30
0.0
 11
75.28047205186748
 21
6.077776971059988
 31
0.0
 12
74.73013871853416
 22
2.775776971059987
 32
0.0
 13
74.73013871853416
 23
2.775776971059987
 33
0.0
  0
MTEXT
  5
F8
330
ED
100
AcDbEntity
  8
치수문자_일반주서
 62
     0
100
AcDbMText
 10
70.3551387185341
 20
23.81727697105998
 30
0.0
 40
3.5
 41
0.0
 71
     2
 72
     1
  1
\A1;%%c5.55 [7/32]
  7
SLDTEXTSTYLE0
 11
-2.559797646454278E-15
 21
1.0
 31
0.0
 73
     1
 44
1.0
  0
POINT
  5
F9
330
ED
100
AcDbEntity
  8
Defpoints
 62
     0
100
AcDbPoint
 10
39.68750000000002
 20
-2.775776971059856
 30
0.0
  0
POINT
  5
FA
330
ED
100
AcDbEntity
  8
Defpoints
 62
     0
100
AcDbPoint
 10
39.68750000000002
 20
2.775776971059854
 30
0.0
  0
POINT
  5
FB
330
ED
100
AcDbEntity
  8
Defpoints
 62
     0
100
AcDbPoint
 10
74.73013871853419
 20
2.775776971059985
 30
0.0
  0
ENDBLK
  5
EF
330
ED
100
AcDbEntity
  8
0
100
AcDbBlockEnd
  0
BLOCK
  5
103
330
102
100
AcDbEntity
  8
0
100
AcDbBlockBegin
  2
_D_2
 70
     0
 10
0.0
 20
0.0
 30
0.0
  3
_D_2
  1
_D_2
  0
LINE
  5
105
330
102
100
AcDbEntity
  8
치수문자_일반주서
 62
     0
370
    -2
100
AcDbLine
 10
39.68750000000002
 20
2.838276971059854
 30
0.0
 11
39.68750000000002
 21
14.7625
 31
0.0
  0
LINE
  5
106
330
102
100
AcDbEntity
  8
치수문자_일반주서
 62
     0
370
    -2
100
AcDbLine
 10
26.98750000000002
 20
2.795163001707841
 30
0.0
 11
26.98750000000002
 21
14.7625
 31
0.0
  0
LINE
  5
107
330
102
100
AcDbEntity
  8
치수문자_일반주서
 62
     0
370
    -2
100
AcDbLine
 10
39.68750000000002
 20
14.7625
 30
0.0
 11
68.16650000000001
 21
14.7625
 31
0.0
  0
LINE
  5
108
330
102
100
AcDbEntity
  8
치수문자_일반주서
 62
     0
370
    -2
100
AcDbLine
 10
39.68750000000002
 20
14.7625
 30
0.0
 11
26.98750000000002
 21
14.7625
 31
0.0
  0
LINE
  5
109
330
102
100
AcDbEntity
  8
치수문자_일반주서
 62
     0
370
    -2
100
AcDbLine
 10
42.98950000000002
 20
14.7625
 30
0.0
 11
46.29150000000002
 21
14.7625
 31
0.0
  0
LINE
  5
10A
330
102
100
AcDbEntity
  8
치수문자_일반주서
 62
     0
370
    -2
100
AcDbLine
 10
23.68550000000002
 20
14.7625
 30
0.0
 11
20.38350000000002
 21
14.7625
 31
0.0
  0
SOLID
  5
10B
330
102
100
AcDbEntity
  8
치수문자_일반주서
 62
     0
100
AcDbTrace
 10
42.98950000000002
 20
15.31283333333333
 30
0.0
 11
42.98950000000002
 21
14.21216666666666
 31
0.0
 12
39.68750000000002
 22
14.7625
 32
0.0
 13
39.68750000000002
 23
14.7625
 33
0.0
  0
SOLID
  5
10C
330
102
100
AcDbEntity
  8
치수문자_일반주서
 62
     0
100
AcDbTrace
 10
23.68550000000002
 20
14.21216666666666
 30
0.0
 11
23.68550000000002
 21
15.31283333333333
 31
0.0
 12
26.98750000000002
 22
14.7625
 32
0.0
 13
26.98750000000002
 23
14.7625
 33
0.0
  0
MTEXT
  5
10D
330
102
100
AcDbEntity
  8
치수문자_일반주서
 62
     0
100
AcDbMText
 10
57.22900000000002
 20
19.1375
 30
0.0
 40
3.5
 41
0.0
 71
     2
 72
     1
  1
\A1;12.7 [1/2]
  7
SLDTEXTSTYLE0
 73
     1
 44
1.0
  0
POINT
  5
10E
330
102
100
AcDbEntity
  8
Defpoints
 62
     0
100
AcDbPoint
 10
39.68750000000002
 20
2.775776971059854
 30
0.0
  0
POINT
  5
10F
330
102
100
AcDbEntity
  8
Defpoints
 62
     0
100
AcDbPoint
 10
26.98750000000002
 20
2.732663001707841
 30
0.0
  0
POINT
  5
110
330
102
100
AcDbEntity
  8
Defpoints
 62
     0
100
AcDbPoint
 10
26.98750000000002
 20
14.7625
 30
0.0
  0
ENDBLK
  5
104
330
102
100
AcDbEntity
  8
0
100
AcDbBlockEnd
  0
BLOCK
  5
118
330
117
100
AcDbEntity
  8
0
100
AcDbBlockBegin
  2
_D_3
 70
     0
 10
0.0
 20
0.0
 30
0.0
  3
_D_3
  1
_D_3
  0
LINE
  5
11A
330
117
100
AcDbEntity
  8
치수문자_일반주서
 62
     0
370
    -2
100
AcDbLine
 10
-39.6875
 20
2.838276971058782
 30
0.0
 11
-39.68750000000001
 21
24.7625
 31
0.0
  0
LINE
  5
11B
330
117
100
AcDbEntity
  8
치수문자_일반주서
 62
     0
370
    -2
100
AcDbLine
 10
39.68750000000002
 20
2.838276971059854
 30
0.0
 11
39.68750000000001
 21
24.7625
 31
0.0
  0
LINE
  5
11C
330
117
100
AcDbEntity
  8
치수문자_일반주서
 62
     0
370
    -2
100
AcDbLine
 10
-36.38550000000001
 20
24.7625
 30
0.0
 11
36.38550000000001
 21
24.7625
 31
0.0
  0
SOLID
  5
11D
330
117
100
AcDbEntity
  8
치수문자_일반주서
 62
     0
100
AcDbTrace
 10
-36.38550000000001
 20
25.31283333333333
 30
0.0
 11
-36.38550000000001
 21
24.21216666666666
 31
0.0
 12
-39.68750000000001
 22
24.7625
 32
0.0
 13
-39.68750000000001
 23
24.7625
 33
0.0
  0
SOLID
  5
11E
330
117
100
AcDbEntity
  8
치수문자_일반주서
 62
     0
100
AcDbTrace
 10
36.38550000000001
 20
24.21216666666666
 30
0.0
 11
36.38550000000001
 21
25.31283333333333
 31
0.0
 12
39.68750000000001
 22
24.7625
 32
0.0
 13
39.68750000000001
 23
24.7625
 33
0.0
  0
MTEXT
  5
11F
330
117
100
AcDbEntity
  8
치수문자_일반주서
 62
     0
100
AcDbMText
 10
0.0000000000000142
 20
29.1375
 30
0.0
 40
3.5
 41
0.0
 71
     2
 72
     1
  1
\A1;79.38 [3 1/8]
  7
SLDTEXTSTYLE0
 73
     1
 44
1.0
  0
POINT
  5
120
330
117
100
AcDbEntity
  8
Defpoints
 62
     0
100
AcDbPoint
 10
-39.6875
 20
2.775776971058782
 30
0.0
  0
POINT
  5
121
330
117
100
AcDbEntity
  8
Defpoints
 62
     0
100
AcDbPoint
 10
39.68750000000002
 20
2.775776971059854
 30
0.0
  0
POINT
  5
122
330
117
100
AcDbEntity
  8
Defpoints
 62
     0
100
AcDbPoint
 10
39.68750000000002
 20
24.7625
 30
0.0
  0
ENDBLK
  5
119
330
117
100
AcDbEntity
  8
0
100
AcDbBlockEnd
  0
BLOCK
  5
131
330
130
100
AcDbEntity
  8
0
100
AcDbBlockBegin
  2
SW_DOWELSYMBOL_0
 70
     0
 10
0.0
 20
0.0
 30
0.0
  3
SW_DOWELSYMBOL_0
  1
SW_DOWELSYMBOL_0
  0
CIRCLE
  5
133
330
130
100
AcDbEntity
  8
해칭선
 62
     0
100
AcDbCircle
 10
0.0
 20
0.0
 30
0.0
 40
3.0
  0
HATCH
  5
134
330
130
100
AcDbEntity
  8
0
  6
Continuous
 62
     0
370
     0
100
AcDbHatch
 10
0.0
 20
0.0
 30
0.0
210
0.0
220
0.0
230
1.0
  2
SOLID
 70
     1
 71
     0
 91
        1
 92
        0
 93
        3
 72
     2
 10
0.0000000000000087
 20
0.0
 40
3.0
 50
0.0
 51
90.0
 73
     1
 72
     1
 10
0.0000000000000087
 20
3.0
 11
0.0000000000000087
 21
0.0
 72
     1
 10
0.0000000000000087
 20
0.0
 11
3.000000000000008
 21
0.0
 97
        0
 75
     0
 76
     1
 98
        1
 10
0.0
 20
0.0
  0
HATCH
  5
135
330
130
100
AcDbEntity
  8
0
  6
Continuous
 62
     0
370
     0
100
AcDbHatch
 10
0.0
 20
0.0
 30
0.0
210
0.0
220
0.0
230
1.0
  2
SOLID
 70
     1
 71
     0
 91
        1
 92
        0
 93
        3
 72
     2
 10
0.0000000000000087
 20
0.0
 40
3.0
 50
180.0
 51
270.0000000000007
 73
     1
 72
     1
 10
0.0000000000000087
 20
-3.0
 11
0.0000000000000087
 21
0.0
 72
     1
 10
0.0000000000000087
 20
0.0
 11
-2.999999999999991
 21
0.0
 97
        0
 75
     0
 76
     1
 98
        1
 10
0.0
 20
0.0
  0
ENDBLK
  5
132
330
130
100
AcDbEntity
  8
0
100
AcDbBlockEnd
  0
BLOCK
  5
196
330
195
100
AcDbEntity
  8
0
100
AcDbBlockBegin
  2
*D7
 70
     1
 10
0.0
 20
0.0
 30
0.0
  3
*D7
  1
*D7
  0
LINE
  5
198
330
195
100
AcDbEntity
  8
치수문자_일반주서
 62
     0
370
    -2
100
AcDbLine
 10
16.129
 20
3.155101899082702
 30
0.0
 11
16.129
 21
16.26894362990562
 31
0.0
  0
LINE
  5
199
330
195
100
AcDbEntity
  8
치수문자_일반주서
 62
     0
370
    -2
100
AcDbLine
 10
6.603999999999999
 20
2.633059590344415
 30
0.0
 11
6.603999999999999
 21
16.26894362990562
 31
0.0
  0
LINE
  5
19A
330
195
100
AcDbEntity
  8
치수문자_일반주서
 62
     0
370
    -2
100
AcDbLine
 10
16.129
 20
16.26894362990562
 30
0.0
 11
46.358
 21
16.26894362990562
 31
0.0
  0
LINE
  5
19B
330
195
100
AcDbEntity
  8
치수문자_일반주서
 62
     0
370
    -2
100
AcDbLine
 10
16.129
 20
16.26894362990562
 30
0.0
 11
6.603999999999999
 21
16.26894362990562
 31
0.0
  0
LINE
  5
19C
330
195
100
AcDbEntity
  8
치수문자_일반주서
 62
     0
370
    -2
100
AcDbLine
 10
19.431
 20
16.26894362990562
 30
0.0
 11
22.733
 21
16.26894362990562
 31
0.0
  0
LINE
  5
19D
330
195
100
AcDbEntity
  8
치수문자_일반주서
 62
     0
370
    -2
100
AcDbLine
 10
3.302
 20
16.26894362990562
 30
0.0
 11
0.0
 21
16.26894362990562
 31
0.0
  0
SOLID
  5
19E
330
195
100
AcDbEntity
  8
치수문자_일반주서
 62
     0
100
AcDbTrace
 10
19.431
 20
16.81927696323896
 30
0.0
 11
19.431
 21
15.71861029657229
 31
0.0
 12
16.129
 22
16.26894362990562
 32
0.0
 13
16.129
 23
16.26894362990562
 33
0.0
  0
SOLID
  5
19F
330
195
100
AcDbEntity
  8
치수문자_일반주서
 62
     0
100
AcDbTrace
 10
3.302
 20
15.71861029657229
 30
0.0
 11
3.302
 21
16.81927696323896
 31
0.0
 12
6.603999999999999
 22
16.26894362990562
 32
0.0
 13
6.603999999999999
 23
16.26894362990562
 33
0.0
  0
MTEXT
  5
1A0
330
195
100
AcDbEntity
  8
치수문자_일반주서
 62
     0
100
AcDbMText
 10
34.5455
 20
20.64394362990562
 30
0.0
 40
3.5
 41
0.0
 71
     2
 72
     1
  1
\A1;9.53 [3/8]
  7
SLDTEXTSTYLE0
 73
     1
 44
1.0
  0
POINT
  5
1A1
330
195
100
AcDbEntity
  8
Defpoints
 62
     0
100
AcDbPoint
 10
16.129
 20
3.092601899082702
 30
0.0
  0
POINT
  5
1A2
330
195
100
AcDbEntity
  8
Defpoints
 62
     0
100
AcDbPoint
 10
6.603999999999999
 20
2.570559590344415
 30
0.0
  0
POINT
  5
1A3
330
195
100
AcDbEntity
  8
Defpoints
 62
     0
100
AcDbPoint
 10
6.603999999999999
 20
16.26894362990562
 30
0.0
  0
ENDBLK
  5
197
330
195
100
AcDbEntity
  8
0
100
AcDbBlockEnd
  0
BLOCK
  5
1A8
330
1A7
100
AcDbEntity
  8
0
100
AcDbBlockBegin
  2
*D8
 70
     1
 10
0.0
 20
0.0
 30
0.0
  3
*D8
  1
*D8
  0
LINE
  5
1AA
330
1A7
100
AcDbEntity
  8
치수문자_일반주서
 62
     0
370
    -2
100
AcDbLine
 10
85.32378683438246
 20
-11.53207712287411
 30
0.0
 11
85.32378683438246
 21
1.581764607948813
 31
0.0
  0
LINE
  5
1AB
330
1A7
100
AcDbEntity
  8
치수문자_일반주서
 62
     0
370
    -2
100
AcDbLine
 10
75.79878683438245
 20
-12.05411943161239
 30
0.0
 11
75.79878683438245
 21
1.581764607948813
 31
0.0
  0
LINE
  5
1AC
330
1A7
100
AcDbEntity
  8
치수문자_일반주서
 62
     0
370
    -2
100
AcDbLine
 10
85.32378683438246
 20
1.581764607948813
 30
0.0
 11
115.5527868343825
 21
1.581764607948813
 31
0.0
  0
LINE
  5
1AD
330
1A7
100
AcDbEntity
  8
치수문자_일반주서
 62
     0
370
    -2
100
AcDbLine
 10
85.32378683438246
 20
1.581764607948813
 30
0.0
 11
75.79878683438245
 21
1.581764607948813
 31
0.0
  0
LINE
  5
1AE
330
1A7
100
AcDbEntity
  8
치수문자_일반주서
 62
     0
370
    -2
100
AcDbLine
 10
88.62578683438247
 20
1.581764607948813
 30
0.0
 11
91.92778683438246
 21
1.581764607948813
 31
0.0
  0
LINE
  5
1AF
330
1A7
100
AcDbEntity
  8
치수문자_일반주서
 62
     0
370
    -2
100
AcDbLine
 10
72.49678683438245
 20
1.581764607948813
 30
0.0
 11
69.19478683438246
 21
1.581764607948813
 31
0.0
  0
SOLID
  5
1B0
330
1A7
100
AcDbEntity
  8
치수문자_일반주서
 62
     0
100
AcDbTrace
 10
88.62578683438247
 20
2.132097941282146
 30
0.0
 11
88.62578683438247
 21
1.03143127461548
 31
0.0
 12
85.32378683438246
 22
1.581764607948813
 32
0.0
 13
85.32378683438246
 23
1.581764607948813
 33
0.0
  0
SOLID
  5
1B1
330
1A7
100
AcDbEntity
  8
치수문자_일반주서
 62
     0
100
AcDbTrace
 10
72.49678683438245
 20
1.03143127461548
 30
0.0
 11
72.49678683438245
 21
2.132097941282146
 31
0.0
 12
75.79878683438245
 22
1.581764607948813
 32
0.0
 13
75.79878683438245
 23
1.581764607948813
 33
0.0
  0
MTEXT
  5
1B2
330
1A7
100
AcDbEntity
  8
치수문자_일반주서
 62
     0
100
AcDbMText
 10
103.7402868343825
 20
5.956764607948813
 30
0.0
 40
3.5
 41
0.0
 71
     2
 72
     1
  1
\A1;9.53 [3/8]
  7
SLDTEXTSTYLE0
 73
     1
 44
1.0
  0
POINT
  5
1B3
330
1A7
100
AcDbEntity
  8
Defpoints
 62
     0
100
AcDbPoint
 10
85.32378683438246
 20
-11.59457712287411
 30
0.0
  0
POINT
  5
1B4
330
1A7
100
AcDbEntity
  8
Defpoints
 62
     0
100
AcDbPoint
 10
75.79878683438245
 20
-12.11661943161239
 30
0.0
  0
POINT
  5
1B5
330
1A7
100
AcDbEntity
  8
Defpoints
 62
     0
100
AcDbPoint
 10
75.79878683438245
 20
1.581764607948813
 30
0.0
  0
ENDBLK
  5
1A9
330
1A7
100
AcDbEntity
  8
0
100
AcDbBlockEnd
  0
ENDSEC
  0
SECTION
  2
ENTITIES
  0
LINE
  5
96
330
1F
100
AcDbEntity
  8
외형선
  6
Continuous
370
    15
100
AcDbLine
 10
18.58171167873054
 20
4.762499999999997
 30
0.0
 11
4.838700000000175
 21
4.762499999999996
 31
0.0
  0
LINE
  5
97
330
1F
100
AcDbEntity
  8
외형선
  6
Continuous
370
    15
100
AcDbLine
 10
-18.58171167873052
 20
-4.762500000000003
 30
0.0
 11
18.58171167873054
 21
-4.7625
 31
0.0
  0
LINE
  5
98
330
1F
100
AcDbEntity
  8
외형선
  6
Continuous
370
    15
100
AcDbLine
 10
18.58171167873054
 20
-4.7625
 30
0.0
 11
25.98750000000002
 21
-2.778125000000001
 31
0.0
  0
LINE
  5
99
330
1F
100
AcDbEntity
  8
외형선
  6
Continuous
370
    15
100
AcDbLine
 10
25.98750000000002
 20
2.778125
 30
0.0
 11
18.58171167873054
 21
4.762499999999998
 31
0.0
  0
LINE
  5
9C
330
1F
100
AcDbEntity
  8
외형선
  6
Continuous
370
    15
100
AcDbLine
 10
26.1451333263539
 20
2.778125
 30
0.0
 11
25.98750000000002
 21
2.778125
 31
0.0
  0
LINE
  5
9D
330
1F
100
AcDbEntity
  8
외형선
  6
Continuous
370
    15
100
AcDbLine
 10
25.98750000000002
 20
-2.778125000000001
 30
0.0
 11
26.11419117162433
 21
-2.778125000000001
 31
0.0
  0
LINE
  5
9E
330
1F
100
AcDbEntity
  8
0
  6
Continuous
 62
     1
370
    15
100
AcDbLine
 10
32.49089933086612
 20
0.7118854744991622
 30
0.0
 11
31.71847710377846
 21
1.097377960353549
 31
0.0
1001
PE_URL
1000

  0
SPLINE
  5
9F
330
1F
100
AcDbEntity
  8
0
  6
Continuous
 62
     1
370
    15
100
AcDbSpline
210
0.0
220
0.0
230
1.0
 70
     8
 71
     3
 72
    15
 73
    11
 74
     0
 42
0.000000001
 43
0.00000001
 40
0.0
 40
0.0
 40
0.0
 40
0.0
 40
0.1738973898376725
 40
0.2896902659550395
 40
0.3930588643731301
 40
0.5077220144365877
 40
0.6343363149265344
 40
0.7716618708907401
 40
0.9114758471606288
 40
1.0
 40
1.0
 40
1.0
 40
1.0
 10
31.5708214925365
 20
2.207595134520742
 30
0.0
 10
31.44088763984667
 20
2.201128716464941
 30
0.0
 10
31.22443486630352
 20
2.19035651126905
 30
0.0
 10
30.92631914777856
 20
2.180488902221079
 30
0.0
 10
30.67260592413457
 20
2.174265896314601
 30
0.0
 10
30.41257594684472
 20
2.170372364438764
 30
0.0
 10
30.12690278347511
 20
2.168957112423659
 30
0.0
 10
29.82238752562241
 20
2.171314906710304
 30
0.0
 10
29.54643739184384
 20
2.175591847774176
 30
0.0
 10
29.37411318209599
 20
2.182111776900431
 30
0.0
 10
29.30730500274744
 20
2.184639480901186
 30
0.0
1001
PE_URL
1000

  0
SPLINE
  5
A0
330
1F
100
AcDbEntity
  8
0
  6
Continuous
 62
     1
370
    15
100
AcDbSpline
210
0.0
220
0.0
230
1.0
 70
     8
 71
     3
 72
    25
 73
    21
 74
     0
 42
0.000000001
 43
0.00000001
 40
0.0
 40
0.0
 40
0.0
 40
0.0
 40
0.0711245598324977
 40
0.1281202543220583
 40
0.1942741441611316
 40
0.2343513461031504
 40
0.2739881902174965
 40
0.3162395385841605
 40
0.3642999331898937
 40
0.4174641426295715
 40
0.4730505838572417
 40
0.5291522624055527
 40
0.5987198668161631
 40
0.6549245187798255
 40
0.7106958585918143
 40
0.7377460835831265
 40
0.7640407701066897
 40
0.7976036749314792
 40
0.8799502582760014
 40
1.0
 40
1.0
 40
1.0
 40
1.0
 10
38.65422387411522
 20
1.900099095568601
 30
0.0
 10
38.53831170859974
 20
1.890673681130249
 30
0.0
 10
38.32951328285426
 20
1.873695207059179
 30
0.0
 10
38.01429535906197
 20
1.854524954125103
 30
0.0
 10
37.75030443270722
 20
1.842452269812008
 30
0.0
 10
37.51797186052934
 20
1.834993225650468
 30
0.0
 10
37.32102820430004
 20
1.830588839900188
 30
0.0
 10
37.11065725926819
 20
1.828096448504646
 30
0.0
 10
36.87885091187536
 20
1.828047498626853
 30
0.0
 10
36.62534202385289
 20
1.831325132403086
 30
0.0
 10
36.35873975220038
 20
1.838457686377473
 30
0.0
 10
36.06557634189321
 20
1.850439738045172
 30
0.0
 10
35.77137598621852
 20
1.867114159223823
 30
0.0
 10
35.47798031805296
 20
1.888543004832188
 30
0.0
 10
35.25311748585497
 20
1.90796991918087
 30
0.0
 10
35.07666293893427
 20
1.924910273697328
 30
0.0
 10
34.93614268377713
 20
1.939263206984412
 30
0.0
 10
34.7063921172916
 20
1.964363773543077
 30
0.0
 10
34.32519044750507
 20
2.010609015529129
 30
0.0
 10
33.99736037470791
 20
2.060135448166347
 30
0.0
 10
33.80291062096196
 20
2.089511650746092
 30
0.0
1001
PE_URL
1000

  0
SPLINE
  5
A1
330
1F
100
AcDbEntity
  8
0
  6
Continuous
 62
     1
370
    15
100
AcDbSpline
210
0.0
220
0.0
230
1.0
 70
     8
 71
     3
 72
    14
 73
    10
 74
     0
 42
0.000000001
 43
0.00000001
 40
0.0
 40
0.0
 40
0.0
 40
0.0
 40
0.2005543010023998
 40
0.3347408712051596
 40
0.4295656943635457
 40
0.5376698041603001
 40
0.6579301404246571
 40
0.9037423844300345
 40
0.9999999999999999
 40
0.9999999999999999
 40
0.9999999999999999
 40
0.9999999999999999
 10
33.80291062096196
 20
-2.089511650746094
 30
0.0
 10
33.94043999356118
 20
-2.068494008077016
 30
0.0
 10
34.16998731201842
 20
-2.033413912648689
 30
0.0
 10
34.46354290237677
 20
-1.994269725941652
 30
0.0
 10
34.69517607888109
 20
-1.965890334335861
 30
0.0
 10
34.91897147086998
 20
-1.94074316726094
 30
0.0
 10
35.24848151633056
 20
-1.907758221850602
 30
0.0
 10
35.5672986231198
 20
-1.879790954733026
 30
0.0
 10
35.80275628634213
 20
-1.866850545003224
 30
0.0
 10
35.86901349256776
 20
-1.863209145592485
 30
0.0
1001
PE_URL
1000

  0
SPLINE
  5
A2
330
1F
100
AcDbEntity
  8
0
  6
Continuous
 62
     1
370
    15
100
AcDbSpline
210
0.0
220
0.0
230
1.0
 70
     8
 71
     3
 72
    21
 73
    17
 74
     0
 42
0.000000001
 43
0.00000001
 40
0.0
 40
0.0
 40
0.0
 40
0.0
 40
0.1042255443974463
 40
0.176311181954064
 40
0.2230515565439443
 40
0.2677135266611926
 40
0.3120925439301669
 40
0.4011061469904469
 40
0.5065282074101639
 40
0.5822233053262972
 40
0.6565711758498599
 40
0.725119987126557
 40
0.7871984617038881
 40
0.8431620812751314
 40
0.9058521880122109
 40
1.0
 40
1.0
 40
1.0
 40
1.0
 10
27.38949132893707
 20
-2.312123714866867
 30
0.0
 10
27.53531204931471
 20
-2.298068732754113
 30
0.0
 10
27.78198692841283
 20
-2.27429288660268
 30
0.0
 10
28.0933595117893
 20
-2.249514489435153
 30
0.0
 10
28.31981712894834
 20
-2.233232115276032
 30
0.0
 10
28.5087394521375
 20
-2.220911825375478
 30
0.0
 10
28.75694009744859
 20
-2.206299985877326
 30
0.0
 10
29.08969685712443
 20
-2.19020026207486
 30
0.0
 10
29.46630248643313
 20
-2.177787790386527
 30
0.0
 10
29.82238579618586
 20
-2.171099483258259
 30
0.0
 10
30.12690320513549
 20
-2.169009635619622
 30
0.0
 10
30.41257584887391
 20
-2.1703601609208
 30
0.0
 10
30.67260594640614
 20
-2.174268670523758
 30
0.0
 10
30.92631914140885
 20
-2.180488108792015
 30
0.0
 10
31.22443486896931
 20
-2.190356843327855
 30
0.0
 10
31.44088764084664
 20
-2.201128841024254
 30
0.0
 10
31.5708214925365
 20
-2.207595134520743
 30
0.0
1001
PE_URL
1000

  0
LINE
  5
A3
330
1F
100
AcDbEntity
  8
외형선
  6
Continuous
370
    15
100
AcDbLine
 10
18.58171167873054
 20
4.762499999999998
 30
0.0
 11
18.58171167873054
 21
-4.762500000000006
 31
0.0
  0
LINE
  5
A5
330
1F
100
AcDbEntity
  8
외형선
  6
Continuous
370
    15
100
AcDbLine
 10
25.98750000000002
 20
2.778125
 30
0.0
 11
25.98750000000002
 21
-2.778125000000002
 31
0.0
  0
LINE
  5
A7
330
1F
100
AcDbEntity
  8
외형선
  6
Continuous
370
    15
100
AcDbLine
 10
26.98750000000001
 20
2.732663001717955
 30
0.0
 11
26.98750000000002
 21
2.48814092383256
 31
0.0
  0
SPLINE
  5
A8
330
1F
100
AcDbEntity
  8
외형선
  6
Continuous
370
    15
100
AcDbSpline
210
0.0
220
0.0
230
1.0
 70
     8
 71
     3
 72
     8
 73
     4
 74
     0
 42
0.000000001
 43
0.00000001
 40
0.0
 40
0.0
 40
0.0
 40
0.0
 40
1.0
 40
1.0
 40
1.0
 40
1.0
 10
26.09739862195867
 20
2.67273265778622
 30
0.0
 10
26.39207214318287
 20
2.626188266124951
 30
0.0
 10
26.69129867875625
 20
2.564158915934508
 30
0.0
 10
26.98749999999983
 20
2.488140923832465
 30
0.0
  0
LINE
  5
A9
330
1F
100
AcDbEntity
  8
외형선
  6
Continuous
370
    15
100
AcDbLine
 10
26.09739862195867
 20
-2.778107453666343
 30
0.0
 11
26.09739862195867
 21
2.672933371535357
 31
0.0
  0
SPLINE
  5
AA
330
1F
100
AcDbEntity
  8
외형선
  6
Continuous
370
    15
100
AcDbSpline
210
0.0
220
0.0
230
1.0
 70
     8
 71
     3
 72
     8
 73
     4
 74
     0
 42
0.000000001
 43
0.00000001
 40
0.0
 40
0.0
 40
0.0
 40
0.0
 40
1.0
 40
1.0
 40
1.0
 40
1.0
 10
26.98750000000001
 20
-2.732663001717959
 30
0.0
 10
26.69126316847714
 20
-2.76345664692294
 30
0.0
 10
26.39200040240202
 20
-2.778706970542305
 30
0.0
 10
26.09729264080011
 20
-2.7781078742774
 30
0.0
  0
SPLINE
  5
AB
330
1F
100
AcDbEntity
  8
외형선
  6
Continuous
370
    15
100
AcDbSpline
210
0.0
220
0.0
230
1.0
 70
     8
 71
     3
 72
     8
 73
     4
 74
     0
 42
0.000000001
 43
0.00000001
 40
0.0
 40
0.0
 40
0.0
 40
0.0
 40
1.0
 40
1.0
 40
1.0
 40
1.0
 10
26.98750000000001
 20
2.732663001717957
 30
0.0
 10
26.70791480680506
 20
2.761725718867451
 30
0.0
 10
26.42563236695367
 20
2.77695646845371
 30
0.0
 10
26.14703136371887
 20
2.77805985405322
 30
0.0
  0
SPLINE
  5
AC
330
1F
100
AcDbEntity
  8
외형선
  6
Continuous
370
    15
100
AcDbSpline
210
0.0
220
0.0
230
1.0
 70
     8
 71
     3
 72
     8
 73
     4
 74
     0
 42
0.000000001
 43
0.00000001
 40
0.0
 40
0.0
 40
0.0
 40
0.0
 40
1.0
 40
1.0
 40
1.0
 40
1.0
 10
26.9875
 20
-1.069603155241646
 30
0.0
 10
26.69128570350475
 20
-0.9497556789328212
 30
0.0
 10
26.39204592952408
 20
-0.8233842617692045
 30
0.0
 10
26.09735989700812
 20
-0.6937164696670879
 30
0.0
  0
SPLINE
  5
AD
330
1F
100
AcDbEntity
  8
외형선
  6
Continuous
370
    15
100
AcDbSpline
210
0.0
220
0.0
230
1.0
 70
     8
 71
     3
 72
     8
 73
     4
 74
     0
 42
0.000000001
 43
0.00000001
 40
0.0
 40
0.0
 40
0.0
 40
0.0
 40
1.0
 40
1.0
 40
1.0
 40
1.0
 10
26.9875
 20
1.704668734656378
 30
0.0
 10
26.69129011703213
 20
1.762242045898489
 30
0.0
 10
26.39205484609235
 20
1.810249292533801
 30
0.0
 10
26.09737306928088
 20
1.847525912088065
 30
0.0
  0
SPLINE
  5
AE
330
1F
100
AcDbEntity
  8
외형선
  6
Continuous
370
    15
100
AcDbSpline
210
0.0
220
0.0
230
1.0
 70
    24
 71
     3
 72
    14
 73
    10
 74
     0
 42
0.000000001
 43
0.00000001
 40
0.0
 40
0.0
 40
0.0
 40
0.0
 40
0.25
 40
0.25
 40
0.5
 40
0.5
 40
0.75
 40
0.75
 40
1.0
 40
1.0
 40
1.0
 40
1.0
 10
26.98750000000002
 20
1.704668734656375
 30
0.0
 10
26.98750000000002
 20
1.543019267778735
 30
0.0
 10
26.98750000000001
 20
1.353433230994703
 30
0.0
 10
26.98750000000001
 20
0.9290967463084664
 30
0.0
 10
26.98750000000001
 20
0.6944647601240618
 30
0.0
 10
26.98750000000002
 20
0.2013966599509167
 30
0.0
 10
26.98750000000001
 20
-0.0567767267397513
 30
0.0
 10
26.98750000000001
 20
-0.5708135537334773
 30
0.0
 10
26.98750000000001
 20
-0.8264325433479588
 30
0.0
 10
26.98750000000002
 20
-1.069603155241651
 30
0.0
  0
SPLINE
  5
AF
330
1F
100
AcDbEntity
  8
외형선
  6
Continuous
370
    15
100
AcDbSpline
210
0.0
220
0.0
230
1.0
 70
     8
 71
     3
 72
     8
 73
     4
 74
     0
 42
0.000000001
 43
0.00000001
 40
0.0
 40
0.0
 40
0.0
 40
0.0
 40
1.0
 40
1.0
 40
1.0
 40
1.0
 10
26.98750000000001
 20
-2.344183539950224
 30
0.0
 10
26.69126316847714
 20
-2.361697637586795
 30
0.0
 10
26.39200040240202
 20
-2.365848310593839
 30
0.0
 10
26.09729264080011
 20
-2.356598923427597
 30
0.0
  0
SPLINE
  5
B0
330
1F
100
AcDbEntity
  8
외형선
  6
Continuous
370
    15
100
AcDbSpline
210
0.0
220
0.0
230
1.0
 70
    24
 71
     3
 72
    10
 73
     6
 74
     0
 42
0.000000001
 43
0.00000001
 40
0.0
 40
0.0
 40
0.0
 40
0.0
 40
0.4999999999999999
 40
0.4999999999999999
 40
1.0
 40
1.0
 40
1.0
 40
1.0
 10
26.98750000000001
 20
-1.069603155241651
 30
0.0
 10
26.98750000000001
 20
-1.418871477630656
 30
0.0
 10
26.98750000000001
 20
-1.730375042159875
 30
0.0
 10
26.98750000000002
 20
-2.175904045308866
 30
0.0
 10
26.98750000000001
 20
-2.308011752929571
 30
0.0
 10
26.98750000000001
 20
-2.344183539950222
 30
0.0
  0
SPLINE
  5
B1
330
1F
100
AcDbEntity
  8
외형선
  6
Continuous
370
    15
100
AcDbSpline
210
0.0
220
0.0
230
1.0
 70
    24
 71
     3
 72
    10
 73
     6
 74
     0
 42
0.000000001
 43
0.00000001
 40
0.0
 40
0.0
 40
0.0
 40
0.0
 40
0.4999999999999999
 40
0.4999999999999999
 40
1.0
 40
1.0
 40
1.0
 40
1.0
 10
26.98750000000002
 20
2.488140923832419
 30
0.0
 10
26.98750000000002
 20
2.383313700750472
 30
0.0
 10
26.98750000000001
 20
2.256171038653196
 30
0.0
 10
26.98750000000002
 20
1.984492588772192
 30
0.0
 10
26.98750000000002
 20
1.840755798407294
 30
0.0
 10
26.98750000000002
 20
1.704668734656376
 30
0.0
  0
SPLINE
  5
B2
330
1F
100
AcDbEntity
  8
외형선
  6
Continuous
370
    15
100
AcDbSpline
210
0.0
220
0.0
230
1.0
 70
    24
 71
     3
 72
     8
 73
     4
 74
     0
 42
0.000000001
 43
0.00000001
 40
0.0
 40
0.0
 40
0.0
 40
0.0
 40
1.0
 40
1.0
 40
1.0
 40
1.0
 10
26.98750000000058
 20
-2.344183539950191
 30
0.0
 10
26.98750000000058
 20
-2.478718606596307
 30
0.0
 10
26.98750000000058
 20
-2.609066389579547
 30
0.0
 10
26.98750000000058
 20
-2.732663001713789
 30
0.0
  0
SPLINE
  5
B3
330
1F
100
AcDbEntity
  8
0
  6
Continuous
 62
     1
370
    15
100
AcDbSpline
210
0.0
220
0.0
230
1.0
 70
     8
 71
     3
 72
    38
 73
    34
 74
     0
 42
0.000000001
 43
0.00000001
 40
0.0
 40
0.0
 40
0.0
 40
0.0
 40
0.0625
 40
0.0625
 40
0.125
 40
0.125
 40
0.1875
 40
0.1875
 40
0.25
 40
0.25
 40
0.3125
 40
0.3125
 40
0.375
 40
0.375
 40
0.4375
 40
0.4375
 40
0.5
 40
0.5
 40
0.5625
 40
0.5625
 40
0.625
 40
0.625
 40
0.6875
 40
0.6875
 40
0.75
 40
0.75
 40
0.8125
 40
0.8125
 40
0.875
 40
0.875
 40
0.9375
 40
0.9375
 40
1.0
 40
1.0
 40
1.0
 40
1.0
 10
39.68750000000002
 20
-2.636276352334872
 30
0.0
 10
39.42558234683425
 20
-2.588247045639345
 30
0.0
 10
39.15900055848264
 20
-2.527975489229696
 30
0.0
 10
38.62726819831155
 20
-2.385046055162134
 30
0.0
 10
38.36513475188688
 20
-2.302766839238318
 30
0.0
 10
37.8370698602612
 20
-2.117795200211488
 30
0.0
 10
37.56980067662398
 20
-2.014854557268706
 30
0.0
 10
37.03963980159547
 20
-1.792170436526604
 30
0.0
 10
36.77868700198898
 20
-1.672802748910464
 30
0.0
 10
36.24792805035966
 20
-1.418673206796304
 30
0.0
 10
35.98077096727093
 20
-1.28425728132593
 30
0.0
 10
35.45373761678396
 20
-1.006265021341033
 30
0.0
 10
35.19068622201777
 20
-0.8621701813219205
 30
0.0
 10
34.65879512155908
 20
-0.5663998239981669
 30
0.0
 10
34.39378703975117
 20
-0.4154328785432641
 30
0.0
 10
33.86861414992491
 20
-0.1120420789843908
 30
0.0
 10
33.6017594332673
 20
0.0416693064253889
 30
0.0
 10
33.0703092324425
 20
0.3468950650190987
 30
0.0
 10
32.80883710255389
 20
0.497811271626304
 30
0.0
 10
32.27986126235603
 20
0.7949271321983814
 30
0.0
 10
32.01254276872379
 20
0.9410588793294349
 30
0.0
 10
31.48310217529246
 20
1.222527720528185
 30
0.0
 10
31.22189183628629
 20
1.357755551787065
 30
0.0
 10
30.69065747458314
 20
1.616177356578113
 30
0.0
 10
30.42367519426988
 20
1.738795711042723
 30
0.0
 10
29.89779318679842
 20
1.966025590050446
 30
0.0
 10
29.63356791672864
 20
2.071443077482527
 30
0.0
 10
29.10164161792123
 20
2.262938269636333
 30
0.0
 10
28.83795281577202
 20
2.348537968492357
 30
0.0
 10
28.31156072304697
 20
2.497720182293116
 30
0.0
 10
28.04449554229878
 20
2.561647338002977
 30
0.0
 10
27.51345070157108
 20
2.665379644927103
 30
0.0
 10
27.25238274818566
 20
2.705128595119702
 30
0.0
 10
26.98749999999794
 20
2.732663001718173
 30
0.0
1001
PE_URL
1000

  0
SPLINE
  5
B4
330
1F
100
AcDbEntity
  8
0
  6
Continuous
 62
     1
370
    15
100
AcDbSpline
210
0.0
220
0.0
230
1.0
 70
     8
 71
     3
 72
    14
 73
    10
 74
     0
 42
0.000000001
 43
0.00000001
 40
0.0
 40
0.0
 40
0.0
 40
0.0
 40
0.1567601850151522
 40
0.3133171369343816
 40
0.4697807263754304
 40
0.6262619485974059
 40
0.7828715861380647
 40
0.9396875613382147
 40
1.0
 40
1.0
 40
1.0
 40
1.0
 10
39.68750000000002
 20
-2.191863571947951
 30
0.0
 10
39.30956771242731
 20
-2.111195302841576
 30
0.0
 10
38.55419311086062
 20
-1.949963347703101
 30
0.0
 10
37.42190800179644
 20
-1.56799012641409
 30
0.0
 10
36.29037545463513
 20
-1.108522031430532
 30
0.0
 10
35.15869125481814
 20
-0.5849125871542912
 30
0.0
 10
34.02606227403444
 20
-0.0321181689223154
 30
0.0
 10
33.12489566900641
 20
0.4163359110216673
 30
0.0
 10
32.6014968999904
 20
0.6558748562212434
 30
0.0
 10
32.4561107868122
 20
0.7224123382692845
 30
0.0
1001
PE_URL
1000

  0
LINE
  5
B5
330
1F
100
AcDbEntity
  8
0
  6
Continuous
 62
     1
370
    15
100
AcDbLine
 10
39.68749999999994
 20
-2.636276352334874
 30
0.0
 11
39.68750000000002
 21
-2.191863571947951
 31
0.0
1001
PE_URL
1000

  0
SPLINE
  5
B6
330
1F
100
AcDbEntity
  8
0
  6
Continuous
 62
     1
370
    15
100
AcDbSpline
210
0.0
220
0.0
230
1.0
 70
     8
 71
     3
 72
    38
 73
    34
 74
     0
 42
0.000000001
 43
0.00000001
 40
0.0
 40
0.0
 40
0.0
 40
0.0
 40
0.0625
 40
0.0625
 40
0.125
 40
0.125
 40
0.1875
 40
0.1875
 40
0.25
 40
0.25
 40
0.3125
 40
0.3125
 40
0.375
 40
0.375
 40
0.4375
 40
0.4375
 40
0.5
 40
0.5
 40
0.5625
 40
0.5625
 40
0.625
 40
0.625
 40
0.6875
 40
0.6875
 40
0.75
 40
0.75
 40
0.8125
 40
0.8125
 40
0.875
 40
0.875
 40
0.9375
 40
0.9375
 40
1.0
 40
1.0
 40
1.0
 40
1.0
 10
26.98749999999975
 20
2.488140923831709
 30
0.0
 10
27.25238274818743
 20
2.420160623895347
 30
0.0
 10
27.51345070157281
 20
2.341264113280638
 30
0.0
 10
28.04449554230046
 20
2.162089349656791
 30
0.0
 10
28.3115607230486
 20
2.062025841498474
 30
0.0
 10
28.83795281577354
 20
1.845174055794552
 30
0.0
 10
29.10164161792274
 20
1.727841907332844
 30
0.0
 10
29.63356791673008
 20
1.477853991904591
 30
0.0
 10
29.89779318679978
 20
1.345828429073877
 30
0.0
 10
30.4236751942712
 20
1.071287494243784
 30
0.0
 10
30.69065747458443
 20
0.9278212899796899
 30
0.0
 10
31.2218918362875
 20
0.6342265315146353
 30
0.0
 10
31.48310217529362
 20
0.4847059365594782
 30
0.0
 10
32.01254276872488
 20
0.1813203856692913
 30
0.0
 10
32.27986126235709
 20
0.0276154525845428
 30
0.0
 10
32.80883710255487
 20
-0.2775748702200462
 30
0.0
 10
33.07030923244344
 20
-0.4290285802358357
 30
0.0
 10
33.60175943326818
 20
-0.7282924302836778
 30
0.0
 10
33.86861414992573
 20
-0.875479048502827
 30
0.0
 10
34.39378703975191
 20
-1.159079032880553
 30
0.0
 10
34.65879512155979
 20
-1.296707412577365
 30
0.0
 10
35.19068622201842
 20
-1.559241025028238
 30
0.0
 10
35.45373761678456
 20
-1.683531928723646
 30
0.0
 10
35.98077096727145
 20
-1.915972248259669
 30
0.0
 10
36.24792805036016
 20
-2.024527107325556
 30
0.0
 10
36.7786870019894
 20
-2.221774938923953
 30
0.0
 10
37.03963980159584
 20
-2.310248453271517
 30
0.0
 10
37.56980067662428
 20
-2.466417658674305
 30
0.0
 10
37.83706986026147
 20
-2.533793835387648
 30
0.0
 10
38.36513475188708
 20
-2.644482232985289
 30
0.0
 10
38.6272681983117
 20
-2.687996217960341
 30
0.0
 10
39.15900055848271
 20
-2.750631703483534
 30
0.0
 10
39.42558234683429
 20
-2.769518484516337
 30
0.0
 10
39.68750000000002
 20
-2.775776971058821
 30
0.0
1001
PE_URL
1000

  0
SPLINE
  5
B7
330
1F
100
AcDbEntity
  8
0
  6
Continuous
 62
     1
370
    15
100
AcDbSpline
210
0.0
220
0.0
230
1.0
 70
     8
 71
     3
 72
    12
 73
     8
 74
     0
 42
0.000000001
 43
0.00000001
 40
0.0
 40
0.0
 40
0.0
 40
0.0
 40
0.177357212815674
 40
0.3724718756651873
 40
0.567511030212011
 40
0.783738449231998
 40
1.0
 40
1.0
 40
1.0
 40
1.0
 10
32.78804272307725
 20
-0.2653576753823445
 30
0.0
 10
32.44509181686358
 20
-0.1271173927910698
 30
0.0
 10
31.72485289750687
 20
0.1632041370289292
 30
0.0
 10
30.62764174200526
 20
0.602856679881103
 30
0.0
 10
29.45536735992284
 20
1.035129437532768
 30
0.0
 10
28.24192936597455
 20
1.427041168574257
 30
0.0
 10
27.40566512113484
 20
1.612121343826677
 30
0.0
 10
26.98750000000002
 20
1.704668734656375
 30
0.0
1001
PE_URL
1000

  0
SPLINE
  5
B8
330
1F
100
AcDbEntity
  8
외형선
  6
Continuous
370
    15
100
AcDbSpline
210
0.0
220
0.0
230
1.0
 70
    24
 71
     3
 72
    10
 73
     6
 74
     0
 42
0.000000001
 43
0.00000001
 40
0.0
 40
0.0
 40
0.0
 40
0.0
 40
0.4999999999999999
 40
0.4999999999999999
 40
1.0
 40
1.0
 40
1.0
 40
1.0
 10
26.98750000000002
 20
2.488140923832419
 30
0.0
 10
26.98750000000002
 20
2.383313700750473
 30
0.0
 10
26.98750000000002
 20
2.256171038653197
 30
0.0
 10
26.98750000000002
 20
1.984492588772192
 30
0.0
 10
26.98750000000002
 20
1.840755798407294
 30
0.0
 10
26.98750000000002
 20
1.704668734656375
 30
0.0
  0
LINE
  5
B9
330
1F
100
AcDbEntity
  8
0
  6
Continuous
 62
     1
370
    15
100
AcDbLine
 10
39.68750000000002
 20
-2.775776971059856
 30
0.0
 11
39.68750000000001
 21
-2.636276352334868
 31
0.0
1001
PE_URL
1000

  0
SPLINE
  5
BA
330
1F
100
AcDbEntity
  8
0
  6
Continuous
 62
     1
370
    15
100
AcDbSpline
210
0.0
220
0.0
230
1.0
 70
     8
 71
     3
 72
     8
 73
     4
 74
     0
 42
0.000000001
 43
0.00000001
 40
0.0
 40
0.0
 40
0.0
 40
0.0
 40
1.0
 40
1.0
 40
1.0
 40
1.0
 10
37.96775320493468
 20
0.7778932338795872
 30
0.0
 10
37.8693072507204
 20
0.8945474298580653
 30
0.0
 10
37.78145483824005
 20
1.006817634167559
 30
0.0
 10
37.70668337164888
 20
1.113674468780589
 30
0.0
1001
PE_URL
1000

  0
LINE
  5
BB
330
1F
100
AcDbEntity
  8
0
  6
Continuous
 62
     1
370
    15
100
AcDbLine
 10
37.74183036664211
 20
1.143166299316389
 30
0.0
 11
39.68750000000002
 21
0.0000000000000012
 31
0.0
1001
PE_URL
1000

  0
LINE
  5
BC
330
1F
100
AcDbEntity
  8
0
  6
Continuous
 62
     1
370
    15
100
AcDbLine
 10
39.68750000000002
 20
0.0000000000000012
 30
0.0
 11
39.68750000000002
 21
-0.7424343094386061
 31
0.0
1001
PE_URL
1000

  0
SPLINE
  5
BD
330
1F
100
AcDbEntity
  8
0
  6
Continuous
 62
     1
370
    15
100
AcDbSpline
210
0.0
220
0.0
230
1.0
 70
     8
 71
     3
 72
    10
 73
     6
 74
     0
 42
0.000000001
 43
0.00000001
 40
0.0
 40
0.0
 40
0.0
 40
0.0
 40
0.5
 40
0.5
 40
1.0
 40
1.0
 40
1.0
 40
1.0
 10
39.68750000000002
 20
-0.7424343094386059
 30
0.0
 10
39.38979592326626
 20
-0.508386533504233
 30
0.0
 10
39.09706906482478
 20
-0.2647365363175401
 30
0.0
 10
38.52181343464815
 20
0.242237958781774
 30
0.0
 10
38.23661006502109
 20
0.5082424888783094
 30
0.0
 10
37.96775320493468
 20
0.777893233879587
 30
0.0
1001
PE_URL
1000

  0
SPLINE
  5
BE
330
1F
100
AcDbEntity
  8
0
  6
Continuous
 62
     1
370
    15
100
AcDbSpline
210
0.0
220
0.0
230
1.0
 70
     8
 71
     3
 72
    14
 73
    10
 74
     0
 42
0.000000001
 43
0.00000001
 40
0.0
 40
0.0
 40
0.0
 40
0.0
 40
0.1313615791626874
 40
0.2621819267339903
 40
0.4390341413734665
 40
0.6160335404403118
 40
0.7932693944725939
 40
0.9703538497152283
 40
1.0
 40
1.0
 40
1.0
 40
1.0
 10
37.96775320493468
 20
0.7778932338795878
 30
0.0
 10
37.6875006717725
 20
0.8965218778145962
 30
0.0
 10
37.1281502925757
 20
1.133290395907713
 30
0.0
 10
36.19240044140044
 20
1.486179576762704
 30
0.0
 10
35.15867169858974
 20
1.812825934372958
 30
0.0
 10
34.02607704998117
 20
2.073080393500495
 30
0.0
 10
32.89260278906241
 20
2.20789394252352
 30
0.0
 10
32.07362796990716
 20
2.247435183995453
 30
0.0
 10
31.63276121621278
 20
2.205149257246248
 30
0.0
 10
31.5695388307211
 20
2.199085254598262
 30
0.0
1001
PE_URL
1000

  0
SPLINE
  5
BF
330
1F
100
AcDbEntity
  8
0
  6
Continuous
 62
     1
370
    15
100
AcDbSpline
210
0.0
220
0.0
230
1.0
 70
    24
 71
     3
 72
    10
 73
     6
 74
     0
 42
0.000000001
 43
0.00000001
 40
0.0
 40
0.0
 40
0.0
 40
0.0
 40
0.5
 40
0.5
 40
1.0
 40
1.0
 40
1.0
 40
1.0
 10
39.68750000000002
 20
-2.19186357194795
 30
0.0
 10
39.68750000000001
 20
-2.023840140076196
 30
0.0
 10
39.68750000000002
 20
-1.811536091227657
 30
0.0
 10
39.68750000000001
 20
-1.317949609640482
 30
0.0
 10
39.68750000000002
 20
-1.03709474022692
 30
0.0
 10
39.68750000000002
 20
-0.7424343094386948
 30
0.0
1001
PE_URL
1000

  0
SPLINE
  5
C0
330
1F
100
AcDbEntity
  8
0
  6
Continuous
 62
     1
370
    15
100
AcDbSpline
210
0.0
220
0.0
230
1.0
 70
    24
 71
     3
 72
     8
 73
     4
 74
     0
 42
0.000000001
 43
0.00000001
 40
0.0
 40
0.0
 40
0.0
 40
0.0
 40
1.0
 40
1.0
 40
1.0
 40
1.0
 10
37.99679896848937
 20
1.357110359088221
 30
0.0
 10
37.90517263541136
 20
1.280226736796338
 30
0.0
 10
37.80789445057297
 20
1.198600647776799
 30
0.0
 10
37.70668337164892
 20
1.113674468780565
 30
0.0
1001
PE_URL
1000

  0
LINE
  5
C1
330
1F
100
AcDbEntity
  8
0
  6
Continuous
 62
     1
370
    15
100
AcDbLine
 10
39.68750000000002
 20
1.944687499999999
 30
0.0
 11
38.65296717898697
 21
1.895735367267772
 31
0.0
1001
PE_URL
1000

  0
SPLINE
  5
C2
330
1F
100
AcDbEntity
  8
0
  6
Continuous
 62
     1
370
    15
100
AcDbSpline
210
0.0
220
0.0
230
1.0
 70
     8
 71
     3
 72
     8
 73
     4
 74
     0
 42
0.000000001
 43
0.00000001
 40
0.0
 40
0.0
 40
0.0
 40
0.0
 40
1.0
 40
1.0
 40
1.0
 40
1.0
 10
39.68750000000002
 20
1.9446875
 30
0.0
 10
39.11614998707405
 20
1.789569107931414
 30
0.0
 10
38.5500520282111
 20
1.599092372656333
 30
0.0
 10
37.9967989685002
 20
1.35711035909296
 30
0.0
1001
PE_URL
1000

  0
SPLINE
  5
C3
330
1F
100
AcDbEntity
  8
0
  6
Continuous
 62
     1
370
    15
100
AcDbSpline
210
0.0
220
0.0
230
1.0
 70
     8
 71
     3
 72
    13
 73
     9
 74
     0
 42
0.000000001
 43
0.00000001
 40
0.0
 40
0.0
 40
0.0
 40
0.0
 40
0.1341078547617089
 40
0.3002567462585954
 40
0.4662243989534992
 40
0.6321294952342474
 40
0.816050609036022
 40
1.0
 40
1.0
 40
1.0
 40
1.0
 10
33.80700950338755
 20
-2.079644440582581
 30
0.0
 10
33.50210505272375
 20
-2.124117149095924
 30
0.0
 10
32.81944840715477
 20
-2.22368798168623
 30
0.0
 10
31.75959039958234
 20
-2.234337338639647
 30
0.0
 10
30.62762307424747
 20
-2.1356372475241
 30
0.0
 10
29.45538553932285
 20
-1.906633334342184
 30
0.0
 10
28.24192398334457
 20
-1.556493962526572
 30
0.0
 10
27.40566275479104
 20
-1.231908407660254
 30
0.0
 10
26.98750000000002
 20
-1.069603155241651
 30
0.0
1001
PE_URL
1000

  0
SPLINE
  5
C4
330
1F
100
AcDbEntity
  8
외형선
  6
Continuous
370
    15
100
AcDbSpline
210
0.0
220
0.0
230
1.0
 70
    24
 71
     3
 72
    14
 73
    10
 74
     0
 42
0.000000001
 43
0.00000001
 40
0.0
 40
0.0
 40
0.0
 40
0.0
 40
0.25
 40
0.25
 40
0.5
 40
0.5
 40
0.75
 40
0.75
 40
1.0
 40
1.0
 40
1.0
 40
1.0
 10
26.98750000000002
 20
1.704668734656375
 30
0.0
 10
26.98750000000002
 20
1.543019267778734
 30
0.0
 10
26.98750000000002
 20
1.353433230994702
 30
0.0
 10
26.98750000000002
 20
0.929096746308466
 30
0.0
 10
26.98750000000002
 20
0.6944647601240607
 30
0.0
 10
26.98750000000002
 20
0.201396659950916
 30
0.0
 10
26.98750000000002
 20
-0.056776726739752
 30
0.0
 10
26.98750000000002
 20
-0.5708135537334781
 30
0.0
 10
26.98750000000002
 20
-0.8264325433479595
 30
0.0
 10
26.98750000000002
 20
-1.069603155241651
 30
0.0
  0
LINE
  5
C5
330
1F
100
AcDbEntity
  8
0
  6
Continuous
 62
     1
370
    15
100
AcDbLine
 10
27.39547611385464
 20
-2.294547032725378
 30
0.0
 11
26.98750000000001
 21
-2.344183539950224
 31
0.0
1001
PE_URL
1000

  0
SPLINE
  5
C6
330
1F
100
AcDbEntity
  8
외형선
  6
Continuous
370
    15
100
AcDbSpline
210
0.0
220
0.0
230
1.0
 70
    24
 71
     3
 72
    10
 73
     6
 74
     0
 42
0.000000001
 43
0.00000001
 40
0.0
 40
0.0
 40
0.0
 40
0.0
 40
0.5
 40
0.5
 40
1.0
 40
1.0
 40
1.0
 40
1.0
 10
26.98750000000002
 20
-1.069603155241651
 30
0.0
 10
26.98750000000002
 20
-1.418871477630657
 30
0.0
 10
26.98750000000002
 20
-1.730375042159875
 30
0.0
 10
26.98750000000002
 20
-2.175904045308866
 30
0.0
 10
26.98750000000002
 20
-2.308011752929571
 30
0.0
 10
26.98750000000002
 20
-2.344183539950223
 30
0.0
  0
LINE
  5
C7
330
1F
100
AcDbEntity
  8
0
  6
Continuous
 62
     1
370
    15
100
AcDbLine
 10
39.68750000000002
 20
0.0000000000000012
 30
0.0
 11
39.68750000000002
 21
1.944687500000001
 31
0.0
1001
PE_URL
1000

  0
SPLINE
  5
C8
330
1F
100
AcDbEntity
  8
0
  6
Continuous
 62
     1
370
    15
100
AcDbSpline
210
0.0
220
0.0
230
1.0
 70
    24
 71
     3
 72
    10
 73
     6
 74
     0
 42
0.000000001
 43
0.00000001
 40
0.0
 40
0.0
 40
0.0
 40
0.0
 40
0.5
 40
0.5
 40
1.0
 40
1.0
 40
1.0
 40
1.0
 10
39.68750000000002
 20
1.944687499999999
 30
0.0
 10
39.68750000000002
 20
2.062569613442818
 30
0.0
 10
39.68750000000001
 20
2.199559546321459
 30
0.0
 10
39.68750000000001
 20
2.486964056544375
 30
0.0
 10
39.68750000000002
 20
2.636644638835966
 30
0.0
 10
39.68750000000002
 20
2.775776971059855
 30
0.0
1001
PE_URL
1000

  0
SPLINE
  5
C9
330
1F
100
AcDbEntity
  8
0
  6
Continuous
 62
     1
370
    15
100
AcDbSpline
210
0.0
220
0.0
230
1.0
 70
     8
 71
     3
 72
    14
 73
    10
 74
     0
 42
0.000000001
 43
0.00000001
 40
0.0
 40
0.0
 40
0.0
 40
0.0
 40
0.0236683453983007
 40
0.1285944838588779
 40
0.2338820557691721
 40
0.4229161758316773
 40
0.6125516144398059
 40
0.8059536933888546
 40
1.0
 40
1.0
 40
1.0
 40
1.0
 10
35.8651918704672
 20
1.862803099675549
 30
0.0
 10
35.89532185068487
 20
1.876076512445028
 30
0.0
 10
36.05902358773349
 20
1.948193411003532
 30
0.0
 10
36.35743554646879
 20
2.065752191702421
 30
0.0
 10
36.86610382334148
 20
2.254090000110672
 30
0.0
 10
37.48212854731372
 20
2.448479037383024
 30
0.0
 10
38.21168164564723
 20
2.620825928427498
 30
0.0
 10
38.94645780308823
 20
2.739217184329456
 30
0.0
 10
39.44021227185792
 20
2.763576874169596
 30
0.0
 10
39.68750000000002
 20
2.775776971059503
 30
0.0
1001
PE_URL
1000

  0
SPLINE
  5
CA
330
1F
100
AcDbEntity
  8
0
  6
Continuous
 62
     1
370
    15
100
AcDbSpline
210
0.0
220
0.0
230
1.0
 70
     8
 71
     3
 72
    10
 73
     6
 74
     0
 42
0.000000001
 43
0.00000001
 40
0.0
 40
0.0
 40
0.0
 40
0.0
 40
0.0377170861889686
 40
0.5187833193623603
 40
0.9999999999999999
 40
0.9999999999999999
 40
0.9999999999999999
 40
0.9999999999999999
 10
29.30837872520436
 20
-2.184212458337667
 30
0.0
 10
29.27919767489229
 20
-2.195908950745334
 30
0.0
 10
28.8778240887268
 20
-2.356789489760063
 30
0.0
 10
28.10429587916092
 20
-2.567169218301927
 30
0.0
 10
27.35980409207208
 20
-2.677492657765186
 30
0.0
 10
26.98749999999794
 20
-2.732663001718174
 30
0.0
1001
PE_URL
1000

  0
SPLINE
  5
CB
330
1F
100
AcDbEntity
  8
외형선
  6
Continuous
370
    15
100
AcDbSpline
210
0.0
220
0.0
230
1.0
 70
    24
 71
     3
 72
     8
 73
     4
 74
     0
 42
0.000000001
 43
0.00000001
 40
0.0
 40
0.0
 40
0.0
 40
0.0
 40
1.0
 40
1.0
 40
1.0
 40
1.0
 10
26.98750000000058
 20
-2.344183539950191
 30
0.0
 10
26.98750000000058
 20
-2.478718606596308
 30
0.0
 10
26.98750000000058
 20
-2.609066389579548
 30
0.0
 10
26.98750000000058
 20
-2.732663001713791
 30
0.0
  0
LINE
  5
CC
330
1F
100
AcDbEntity
  8
중심선
 62
     1
100
AcDbLine
 10
-42.68750000000001
 20
-0.0000000000000052
 30
0.0
 11
42.68750000000001
 21
0.0000000000000052
 31
0.0
  0
LINE
  5
CD
330
1F
100
AcDbEntity
  8
참조1
100
AcDbLine
 10
0.0
 20
-0.0000000000000048
 30
0.0
 11
0.0000000000000071
 21
-40.00000000000001
 31
0.0
  0
LINE
  5
CE
330
1F
100
AcDbEntity
  8
참조1
100
AcDbLine
 10
0.0000000000000071
 20
-40.00000000000001
 30
0.0
 11
-12.87821559669921
 21
-40.0
 31
0.0
  0
CIRCLE
  5
CF
330
1F
100
AcDbEntity
  8
해칭선
100
AcDbCircle
 10
0.0
 20
0.0
 30
0.0
 40
2.999999999999999
  0
INSERT
  5
D0
330
1F
100
AcDbEntity
  8
0
  6
Continuous
 62
     7
100
AcDbBlockReference
 66
     1
  2
블럭10
 10
-13.94027293212521
 20
-52.04717430164393
 30
0.0
  0
ATTRIB
  5
D1
330
D0
100
AcDbEntity
  8
FORMAT
 62
     2
100
AcDbText
 10
-23.12156822086649
 20
-49.97180738881174
 30
0.0
 40
4.233333333333333
  1
E2050014 [ 2 FLUTE ]
 41
0.75
  7
SLDTEXTSTYLE0
 11
-23.12156822086649
 21
-52.08847405547841
 31
0.0
100
AcDbAttribute
  2
AUTOATTR0
 70
     0
 74
     1
  0
SEQEND
  5
D2
330
D0
100
AcDbEntity
  8
0
  6
Continuous
 62
     7
  0
HATCH
  5
D3
330
1F
100
AcDbEntity
  8
중심선
100
AcDbHatch
 10
0.0
 20
0.0
 30
0.0
210
0.0
220
0.0
230
1.0
  2
SOLID
 70
     1
 71
     0
 91
        1
 92
        0
 93
        4
 72
     1
 10
-8.225363627744365
 20
-35.8
 11
-11.67163887158165
 21
-35.8
 72
     1
 10
-11.67163887158165
 20
-35.8
 11
-13.79986873078567
 21
-38.33632558057257
 72
     1
 10
-13.79986873078567
 20
-38.33632558057257
 11
-10.35356040183524
 21
-38.33628615127008
 72
     1
 10
-10.35356040183524
 20
-38.33628615127008
 11
-8.225363627744365
 21
-35.8
 97
        0
 75
     0
 76
     1
 98
        1
 10
16.58171167873052
 20
-0.001074928723894
  0
HATCH
  5
D4
330
1F
100
AcDbEntity
  8
중심선
100
AcDbHatch
 10
0.0
 20
0.0
 30
0.0
210
0.0
220
0.0
230
1.0
  2
SOLID
 70
     1
 71
     0
 91
        1
 92
        0
 93
        4
 72
     1
 10
-3.212599636708386
 20
-35.8
 11
-6.658874880545639
 21
-35.8
 72
     1
 10
-6.658874880545639
 20
-35.8
 11
-11.19001288890308
 21
-41.20000000000002
 72
     1
 10
-11.19001288890308
 20
-41.20000000000002
 11
-7.743737645065799
 21
-41.20000000000002
 72
     1
 10
-7.743737645065799
 20
-41.20000000000002
 11
-3.212599636708386
 21
-35.8
 97
        0
 75
     0
 76
     1
 98
        1
 10
16.58171167873052
 20
-0.001074928723894
  0
HATCH
  5
D5
330
1F
100
AcDbEntity
  8
중심선
100
AcDbHatch
 10
0.0
 20
0.0
 30
0.0
210
0.0
220
0.0
230
1.0
  2
SOLID
 70
     1
 71
     0
 91
        1
 92
        0
 93
        4
 72
     1
 10
1.80016435432751
 20
-35.80000000000003
 11
-1.646110889509604
 21
-35.8
 72
     1
 10
-1.646110889509604
 20
-35.8
 11
-8.694547791398882
 21
-44.20000000000002
 72
     1
 10
-8.694547791398882
 20
-44.20000000000002
 11
-5.248272547561598
 21
-44.20000000000002
 72
     1
 10
-5.248272547561598
 20
-44.20000000000002
 11
1.80016435432751
 21
-35.80000000000003
 97
        0
 75
     0
 76
     1
 98
        1
 10
16.58171167873052
 20
-0.001074928723894
  0
HATCH
  5
D6
330
1F
100
AcDbEntity
  8
중심선
100
AcDbHatch
 10
0.0
 20
0.0
 30
0.0
210
0.0
220
0.0
230
1.0
  2
SOLID
 70
     1
 71
     0
 91
        1
 92
        0
 93
        6
 72
     3
 10
6.600054785339681
 20
-40.00000000005127
 11
3.960054785062283
 21
1.540882976769353E-10
 40
0.3939339440162628
 50
17.09539180608436
 51
320.0019657685077
 73
     0
 72
     1
 10
8.28305444104025
 20
-38.5878940046383
 11
10.58835631474131
 21
-36.65356729459035
 72
     3
 10
6.600054785286835
 20
-40.00000000000015
 11
6.600054785286829
 21
-1.278976924368180E-13
 40
0.636358354079598
 50
39.9987384933743
 51
368.4976242363725
 73
     1
 72
     1
 10
13.02538727718744
 20
-39.03999999993002
 11
5.280122092122758
 21
-39.03999999993
 72
     1
 10
5.280122092122758
 20
-39.03999999993
 11
5.280097047676824
 21
-40.95999999992991
 72
     1
 10
5.280097047676824
 20
-40.95999999992991
 11
9.721476817148861
 21
-40.95999999992988
 97
        0
 75
     0
 76
     1
 98
        1
 10
16.58171167873052
 20
-0.001074928723894
  0
DIMENSION
  5
D7
330
1F
100
AcDbEntity
  8
치수문자_일반주서
100
AcDbDimension
  2
_D
 10
-49.68749999999994
 20
-4.762500000000124
 30
0.0
 11
-49.68750000000005
 21
24.49149999999996
 31
0.0
 70
   160
  1
%%c<>
 71
     2
 42
9.525000000000006
 52
-270.0
  3
SLDDIMSTYLE0
100
AcDbAlignedDimension
 13
-18.58171167873052
 23
4.762499999999996
 33
0.0
 14
-18.58171167873051
 24
-4.76250000000001
 34
0.0
 50
90.0000000000002
100
AcDbRotatedDimension
1001
PE_URL
1000

1001
ACAD
1000
DSTYLE
1002
{
1070
   171
1070
     8
1070
   273
1070
     7
1002
}
  0
DIMENSION
  5
EC
330
1F
100
AcDbEntity
  8
치수문자_일반주서
100
AcDbDimension
  2
_D_1
 10
74.73013871853416
 20
2.775776971059987
 30
0.0
 11
74.7301387185341
 21
23.81727697105999
 31
0.0
 70
   160
  1
%%c<>
 71
     2
 42
5.55155394211971
 52
-270.0
  3
SLDDIMSTYLE0
100
AcDbAlignedDimension
 13
39.68750000000002
 23
-2.775776971059856
 33
0.0
 14
39.68750000000002
 24
2.775776971059854
 34
0.0
 50
90.0000000000002
100
AcDbRotatedDimension
1001
PE_URL
1000

1001
ACAD
1000
DSTYLE
1002
{
1070
   171
1070
     8
1070
   273
1070
     7
1002
}
  0
DIMENSION
  5
100
330
1F
100
AcDbEntity
  8
치수문자_일반주서
100
AcDbDimension
  2
_D_2
 10
26.98750000000002
 20
14.7625
 30
0.0
 11
57.22900000000002
 21
14.7625
 31
0.0
 70
   160
  1
<>
 71
     2
 42
12.7
  3
SLDDIMSTYLE0
100
AcDbAlignedDimension
 13
39.68750000000002
 23
2.775776971059854
 33
0.0
 14
26.98750000000002
 24
2.732663001707841
 34
0.0
100
AcDbRotatedDimension
1001
PE_URL
1000

1001
ACAD
1000
DSTYLE
1002
{
1070
   171
1070
     8
1070
   273
1070
     7
1002
}
  0
DIMENSION
  5
115
330
1F
100
AcDbEntity
  8
치수문자_일반주서
100
AcDbDimension
  2
_D_3
 10
39.68750000000001
 20
24.7625
 30
0.0
 11
0.0000000000000142
 21
24.7625
 31
0.0
 70
   160
  1
<>
 71
     2
 42
79.37500000000003
  3
SLDDIMSTYLE0
100
AcDbAlignedDimension
 13
-39.6875
 23
2.775776971058782
 33
0.0
 14
39.68750000000002
 24
2.775776971059854
 34
0.0
100
AcDbRotatedDimension
1001
PE_URL
1000

1001
ACAD
1000
DSTYLE
1002
{
1070
   171
1070
     8
1070
   273
1070
     7
1002
}
  0
LINE
  5
129
330
1F
100
AcDbEntity
  8
참조1
100
AcDbLine
 10
85.09412503295505
 20
7.440000000000001
 30
0.0
 11
85.09412503295505
 21
-7.440000000000003
 31
0.0
  0
LINE
  5
12A
330
1F
100
AcDbEntity
  8
참조1
100
AcDbLine
 10
97.79412503295507
 20
5.440000000000001
 30
0.0
 11
85.09412503295505
 21
5.440000000000001
 31
0.0
  0
SOLID
  5
12B
330
1F
100
AcDbEntity
  8
참조1
100
AcDbTrace
 10
85.09412503295505
 20
5.440000000000001
 30
0.0
 11
91.44412503295504
 21
4.424000000000001
 31
0.0
 12
91.44412503295504
 22
6.456000000000001
 32
0.0
 13
91.44412503295504
 23
6.456000000000001
 33
0.0
  0
LINE
  5
12C
330
1F
100
AcDbEntity
  8
참조1
100
AcDbLine
 10
97.79412503295507
 20
-5.440000000000003
 30
0.0
 11
85.09412503295505
 21
-5.440000000000003
 31
0.0
  0
SOLID
  5
12D
330
1F
100
AcDbEntity
  8
참조1
100
AcDbTrace
 10
85.09412503295505
 20
-5.440000000000003
 30
0.0
 11
91.44412503295504
 21
-6.456000000000003
 31
0.0
 12
91.44412503295504
 22
-4.424000000000003
 32
0.0
 13
91.44412503295504
 23
-4.424000000000003
 33
0.0
  0
MTEXT
  5
12E
330
1F
100
AcDbEntity
  8
참조1
100
AcDbMText
 10
94.47847516558105
 20
11.01029177718833
 30
0.0
 40
3.5
 41
0.0
 71
     1
 72
     1
  1
A
  7
SLDTEXTSTYLE0
 73
     1
 44
1.0
  0
MTEXT
  5
12F
330
1F
100
AcDbEntity
  8
참조1
100
AcDbMText
 10
94.47847516558105
 20
0.1302917771883252
 30
0.0
 40
3.5
 41
0.0
 71
     1
 72
     1
  1
A
  7
SLDTEXTSTYLE0
 73
     1
 44
1.0
  0
INSERT
  5
136
330
1F
100
AcDbEntity
  8
해칭선
100
AcDbBlockReference
  2
SW_DOWELSYMBOL_0
 10
0.0
 20
0.0
 30
0.0
  0
LINE
  5
1DE
330
1F
100
AcDbEntity
  8
외형선
  6
Continuous
370
    15
100
AcDbLine
 10
-3.568700000000049
 20
3.492500000000014
 30
0.0
 11
3.568700000000078
 21
3.492500000000014
 31
0.0
1001
PE_URL
1000

  0
LINE
  5
1DF
330
1F
100
AcDbEntity
  8
외형선
  6
Continuous
370
    15
100
AcDbLine
 10
-3.568700000000049
 20
3.492500000000014
 30
0.0
 11
-4.838700000000031
 21
4.762499999999996
 31
0.0
1001
PE_URL
1000

  0
LINE
  5
1E0
330
1F
100
AcDbEntity
  8
외형선
  6
Continuous
370
    15
100
AcDbLine
 10
3.568700000000078
 20
3.492500000000014
 30
0.0
 11
4.838700000000173
 21
4.762499999999996
 31
0.0
1001
PE_URL
1000

  0
LINE
  5
217
330
1F
100
AcDbEntity
  8
외형선
  6
Continuous
370
    15
100
AcDbLine
 10
-18.58171167873052
 20
4.762499999999989
 30
0.0
 11
-25.98749999999999
 21
2.778124999999982
 31
0.0
  0
LINE
  5
218
330
1F
100
AcDbEntity
  8
외형선
  6
Continuous
370
    15
100
AcDbLine
 10
-25.98749999999999
 20
-2.778125000000021
 30
0.0
 11
-18.58171167873051
 21
-4.76250000000001
 31
0.0
  0
LINE
  5
219
330
1F
100
AcDbEntity
  8
외형선
  6
Continuous
370
    15
100
AcDbLine
 10
-26.14513332635387
 20
-2.778125000000021
 30
0.0
 11
-25.98749999999999
 21
-2.778125000000021
 31
0.0
  0
LINE
  5
21A
330
1F
100
AcDbEntity
  8
외형선
  6
Continuous
370
    15
100
AcDbLine
 10
-25.98749999999999
 20
2.778124999999982
 30
0.0
 11
-26.11419117162431
 21
2.778124999999982
 31
0.0
  0
LINE
  5
21B
330
1F
100
AcDbEntity
  8
0
  6
Continuous
 62
     1
370
    15
100
AcDbLine
 10
-32.4908993308661
 20
-0.7118854744991907
 30
0.0
 11
-31.71847710377843
 21
-1.097377960353576
 31
0.0
1001
PE_URL
1000

  0
SPLINE
  5
21C
330
1F
100
AcDbEntity
  8
0
  6
Continuous
 62
     1
370
    15
100
AcDbSpline
210
0.0
220
0.0
230
1.0
 70
     8
 71
     3
 72
    15
 73
    11
 74
     0
 42
0.000000001
 43
0.00000001
 40
0.0
 40
0.0
 40
0.0
 40
0.0
 40
0.1738973898376725
 40
0.2896902659550395
 40
0.3930588643731301
 40
0.5077220144365877
 40
0.6343363149265344
 40
0.7716618708907401
 40
0.9114758471606288
 40
1.0
 40
1.0
 40
1.0
 40
1.0
 10
-31.57082149253647
 20
-2.207595134520769
 30
0.0
 10
-31.44088763984664
 20
-2.201128716464968
 30
0.0
 10
-31.22443486630349
 20
-2.19035651126908
 30
0.0
 10
-30.92631914777853
 20
-2.180488902221107
 30
0.0
 10
-30.67260592413454
 20
-2.17426589631463
 30
0.0
 10
-30.41257594684469
 20
-2.170372364438787
 30
0.0
 10
-30.12690278347508
 20
-2.168957112423683
 30
0.0
 10
-29.82238752562239
 20
-2.171314906710329
 30
0.0
 10
-29.54643739184381
 20
-2.1755918477742
 30
0.0
 10
-29.37411318209596
 20
-2.182111776900456
 30
0.0
 10
-29.30730500274741
 20
-2.184639480901211
 30
0.0
1001
PE_URL
1000

  0
SPLINE
  5
21D
330
1F
100
AcDbEntity
  8
0
  6
Continuous
 62
     1
370
    15
100
AcDbSpline
210
0.0
220
0.0
230
1.0
 70
     8
 71
     3
 72
    25
 73
    21
 74
     0
 42
0.000000001
 43
0.00000001
 40
0.0
 40
0.0
 40
0.0
 40
0.0
 40
0.0711245598324977
 40
0.1281202543220583
 40
0.1942741441611316
 40
0.2343513461031504
 40
0.2739881902174965
 40
0.3162395385841605
 40
0.3642999331898937
 40
0.4174641426295715
 40
0.4730505838572417
 40
0.5291522624055527
 40
0.5987198668161631
 40
0.6549245187798255
 40
0.7106958585918143
 40
0.7377460835831265
 40
0.7640407701066897
 40
0.7976036749314792
 40
0.8799502582760014
 40
1.0
 40
1.0
 40
1.0
 40
1.0
 10
-38.65422387411519
 20
-1.900099095568638
 30
0.0
 10
-38.53831170859971
 20
-1.890673681130284
 30
0.0
 10
-38.32951328285424
 20
-1.873695207059214
 30
0.0
 10
-38.01429535906195
 20
-1.854524954125139
 30
0.0
 10
-37.7503044327072
 20
-1.842452269812043
 30
0.0
 10
-37.51797186052931
 20
-1.834993225650503
 30
0.0
 10
-37.32102820430002
 20
-1.830588839900223
 30
0.0
 10
-37.11065725926817
 20
-1.828096448504681
 30
0.0
 10
-36.87885091187533
 20
-1.828047498626887
 30
0.0
 10
-36.62534202385287
 20
-1.831325132403123
 30
0.0
 10
-36.35873975220035
 20
-1.83845768637751
 30
0.0
 10
-36.06557634189318
 20
-1.850439738045207
 30
0.0
 10
-35.7713759862185
 20
-1.867114159223856
 30
0.0
 10
-35.47798031805294
 20
-1.888543004832218
 30
0.0
 10
-35.25311748585494
 20
-1.907969919180903
 30
0.0
 10
-35.07666293893425
 20
-1.92491027369736
 30
0.0
 10
-34.93614268377711
 20
-1.939263206984442
 30
0.0
 10
-34.70639211729157
 20
-1.964363773543109
 30
0.0
 10
-34.32519044750505
 20
-2.010609015529159
 30
0.0
 10
-33.99736037470788
 20
-2.060135448166378
 30
0.0
 10
-33.80291062096194
 20
-2.089511650746125
 30
0.0
1001
PE_URL
1000

  0
SPLINE
  5
21E
330
1F
100
AcDbEntity
  8
0
  6
Continuous
 62
     1
370
    15
100
AcDbSpline
210
0.0
220
0.0
230
1.0
 70
     8
 71
     3
 72
    14
 73
    10
 74
     0
 42
0.000000001
 43
0.00000001
 40
0.0
 40
0.0
 40
0.0
 40
0.0
 40
0.2005543010023998
 40
0.3347408712051596
 40
0.4295656943635457
 40
0.5376698041603001
 40
0.6579301404246571
 40
0.9037423844300345
 40
0.9999999999999999
 40
0.9999999999999999
 40
0.9999999999999999
 40
0.9999999999999999
 10
-33.80291062096194
 20
2.089511650746061
 30
0.0
 10
-33.94043999356117
 20
2.068494008076986
 30
0.0
 10
-34.16998731201841
 20
2.033413912648658
 30
0.0
 10
-34.46354290237676
 20
1.994269725941621
 30
0.0
 10
-34.69517607888108
 20
1.965890334335828
 30
0.0
 10
-34.91897147086996
 20
1.940743167260909
 30
0.0
 10
-35.24848151633054
 20
1.907758221850571
 30
0.0
 10
-35.56729862311978
 20
1.879790954732993
 30
0.0
 10
-35.80275628634212
 20
1.866850545003192
 30
0.0
 10
-35.86901349256775
 20
1.863209145592453
 30
0.0
1001
PE_URL
1000

  0
SPLINE
  5
21F
330
1F
100
AcDbEntity
  8
0
  6
Continuous
 62
     1
370
    15
100
AcDbSpline
210
0.0
220
0.0
230
1.0
 70
     8
 71
     3
 72
    21
 73
    17
 74
     0
 42
0.000000001
 43
0.00000001
 40
0.0
 40
0.0
 40
0.0
 40
0.0
 40
0.1042255443974463
 40
0.176311181954064
 40
0.2230515565439443
 40
0.2677135266611926
 40
0.3120925439301669
 40
0.4011061469904469
 40
0.5065282074101639
 40
0.5822233053262972
 40
0.6565711758498599
 40
0.725119987126557
 40
0.7871984617038881
 40
0.8431620812751314
 40
0.9058521880122109
 40
1.0
 40
1.0
 40
1.0
 40
1.0
 10
-27.38949132893704
 20
2.312123714866846
 30
0.0
 10
-27.53531204931469
 20
2.298068732754093
 30
0.0
 10
-27.7819869284128
 20
2.274292886602659
 30
0.0
 10
-28.09335951178928
 20
2.249514489435128
 30
0.0
 10
-28.31981712894832
 20
2.233232115276007
 30
0.0
 10
-28.50873945213748
 20
2.220911825375453
 30
0.0
 10
-28.75694009744856
 20
2.206299985877301
 30
0.0
 10
-29.08969685712441
 20
2.190200262074836
 30
0.0
 10
-29.4663024864331
 20
2.177787790386503
 30
0.0
 10
-29.82238579618583
 20
2.171099483258235
 30
0.0
 10
-30.12690320513546
 20
2.169009635619599
 30
0.0
 10
-30.41257584887389
 20
2.170360160920776
 30
0.0
 10
-30.67260594640611
 20
2.17426867052373
 30
0.0
 10
-30.92631914140883
 20
2.180488108791987
 30
0.0
 10
-31.22443486896928
 20
2.190356843327827
 30
0.0
 10
-31.44088764084662
 20
2.201128841024225
 30
0.0
 10
-31.57082149253648
 20
2.207595134520716
 30
0.0
1001
PE_URL
1000

  0
LINE
  5
220
330
1F
100
AcDbEntity
  8
외형선
  6
Continuous
370
    15
100
AcDbLine
 10
-18.58171167873051
 20
-4.76250000000001
 30
0.0
 11
-18.58171167873052
 21
4.762499999999996
 31
0.0
  0
LINE
  5
221
330
1F
100
AcDbEntity
  8
외형선
  6
Continuous
370
    15
100
AcDbLine
 10
-25.98749999999999
 20
-2.778125000000021
 30
0.0
 11
-25.98749999999999
 21
2.778124999999982
 31
0.0
  0
LINE
  5
222
330
1F
100
AcDbEntity
  8
외형선
  6
Continuous
370
    15
100
AcDbLine
 10
-26.98749999999998
 20
-2.732663001717977
 30
0.0
 11
-26.98749999999999
 21
-2.488140923832582
 31
0.0
  0
SPLINE
  5
223
330
1F
100
AcDbEntity
  8
외형선
  6
Continuous
370
    15
100
AcDbSpline
210
0.0
220
0.0
230
1.0
 70
     8
 71
     3
 72
     8
 73
     4
 74
     0
 42
0.000000001
 43
0.00000001
 40
0.0
 40
0.0
 40
0.0
 40
0.0
 40
1.0
 40
1.0
 40
1.0
 40
1.0
 10
-26.09739862195864
 20
-2.672732657786241
 30
0.0
 10
-26.39207214318284
 20
-2.626188266124974
 30
0.0
 10
-26.69129867875622
 20
-2.564158915934531
 30
0.0
 10
-26.9874999999998
 20
-2.488140923832486
 30
0.0
  0
LINE
  5
224
330
1F
100
AcDbEntity
  8
외형선
  6
Continuous
370
    15
100
AcDbLine
 10
-26.09739862195865
 20
2.778107453666323
 30
0.0
 11
-26.09739862195864
 21
-2.672933371535379
 31
0.0
  0
SPLINE
  5
225
330
1F
100
AcDbEntity
  8
외형선
  6
Continuous
370
    15
100
AcDbSpline
210
0.0
220
0.0
230
1.0
 70
     8
 71
     3
 72
     8
 73
     4
 74
     0
 42
0.000000001
 43
0.00000001
 40
0.0
 40
0.0
 40
0.0
 40
0.0
 40
1.0
 40
1.0
 40
1.0
 40
1.0
 10
-26.98749999999999
 20
2.732663001717938
 30
0.0
 10
-26.69126316847711
 20
2.763456646922918
 30
0.0
 10
-26.392000402402
 20
2.778706970542284
 30
0.0
 10
-26.09729264080009
 20
2.778107874277378
 30
0.0
  0
SPLINE
  5
226
330
1F
100
AcDbEntity
  8
외형선
  6
Continuous
370
    15
100
AcDbSpline
210
0.0
220
0.0
230
1.0
 70
     8
 71
     3
 72
     8
 73
     4
 74
     0
 42
0.000000001
 43
0.00000001
 40
0.0
 40
0.0
 40
0.0
 40
0.0
 40
1.0
 40
1.0
 40
1.0
 40
1.0
 10
-26.98749999999998
 20
-2.732663001717977
 30
0.0
 10
-26.70791480680503
 20
-2.761725718867474
 30
0.0
 10
-26.42563236695364
 20
-2.776956468453733
 30
0.0
 10
-26.14703136371883
 20
-2.778059854053243
 30
0.0
  0
SPLINE
  5
227
330
1F
100
AcDbEntity
  8
외형선
  6
Continuous
370
    15
100
AcDbSpline
210
0.0
220
0.0
230
1.0
 70
     8
 71
     3
 72
     8
 73
     4
 74
     0
 42
0.000000001
 43
0.00000001
 40
0.0
 40
0.0
 40
0.0
 40
0.0
 40
1.0
 40
1.0
 40
1.0
 40
1.0
 10
-26.98749999999998
 20
1.069603155241623
 30
0.0
 10
-26.69128570350473
 20
0.9497556789327994
 30
0.0
 10
-26.39204592952406
 20
0.8233842617691849
 30
0.0
 10
-26.09735989700809
 20
0.6937164696670663
 30
0.0
  0
SPLINE
  5
228
330
1F
100
AcDbEntity
  8
외형선
  6
Continuous
370
    15
100
AcDbSpline
210
0.0
220
0.0
230
1.0
 70
     8
 71
     3
 72
     8
 73
     4
 74
     0
 42
0.000000001
 43
0.00000001
 40
0.0
 40
0.0
 40
0.0
 40
0.0
 40
1.0
 40
1.0
 40
1.0
 40
1.0
 10
-26.98749999999997
 20
-1.704668734656398
 30
0.0
 10
-26.6912901170321
 20
-1.76224204589851
 30
0.0
 10
-26.39205484609232
 20
-1.810249292533822
 30
0.0
 10
-26.09737306928086
 20
-1.847525912088088
 30
0.0
  0
SPLINE
  5
229
330
1F
100
AcDbEntity
  8
외형선
  6
Continuous
370
    15
100
AcDbSpline
210
0.0
220
0.0
230
1.0
 70
    24
 71
     3
 72
    14
 73
    10
 74
     0
 42
0.000000001
 43
0.00000001
 40
0.0
 40
0.0
 40
0.0
 40
0.0
 40
0.25
 40
0.25
 40
0.5
 40
0.5
 40
0.75
 40
0.75
 40
1.0
 40
1.0
 40
1.0
 40
1.0
 10
-26.98749999999999
 20
-1.704668734656398
 30
0.0
 10
-26.98749999999999
 20
-1.543019267778757
 30
0.0
 10
-26.98749999999998
 20
-1.353433230994725
 30
0.0
 10
-26.98749999999998
 20
-0.9290967463084883
 30
0.0
 10
-26.98749999999998
 20
-0.6944647601240845
 30
0.0
 10
-26.98749999999999
 20
-0.2013966599509374
 30
0.0
 10
-26.98749999999998
 20
0.0567767267397308
 30
0.0
 10
-26.98749999999999
 20
0.5708135537334549
 30
0.0
 10
-26.98749999999999
 20
0.8264325433479378
 30
0.0
 10
-26.98749999999999
 20
1.06960315524163
 30
0.0
  0
SPLINE
  5
22A
330
1F
100
AcDbEntity
  8
외형선
  6
Continuous
370
    15
100
AcDbSpline
210
0.0
220
0.0
230
1.0
 70
     8
 71
     3
 72
     8
 73
     4
 74
     0
 42
0.000000001
 43
0.00000001
 40
0.0
 40
0.0
 40
0.0
 40
0.0
 40
1.0
 40
1.0
 40
1.0
 40
1.0
 10
-26.98749999999999
 20
2.344183539950201
 30
0.0
 10
-26.69126316847711
 20
2.361697637586772
 30
0.0
 10
-26.39200040240199
 20
2.365848310593819
 30
0.0
 10
-26.09729264080009
 20
2.356598923427576
 30
0.0
  0
SPLINE
  5
22B
330
1F
100
AcDbEntity
  8
외형선
  6
Continuous
370
    15
100
AcDbSpline
210
0.0
220
0.0
230
1.0
 70
    24
 71
     3
 72
    10
 73
     6
 74
     0
 42
0.000000001
 43
0.00000001
 40
0.0
 40
0.0
 40
0.0
 40
0.0
 40
0.4999999999999999
 40
0.4999999999999999
 40
1.0
 40
1.0
 40
1.0
 40
1.0
 10
-26.98749999999999
 20
1.06960315524163
 30
0.0
 10
-26.98749999999999
 20
1.418871477630635
 30
0.0
 10
-26.98749999999999
 20
1.730375042159853
 30
0.0
 10
-26.98749999999999
 20
2.175904045308844
 30
0.0
 10
-26.98749999999999
 20
2.308011752929549
 30
0.0
 10
-26.98749999999999
 20
2.344183539950201
 30
0.0
  0
SPLINE
  5
22C
330
1F
100
AcDbEntity
  8
외형선
  6
Continuous
370
    15
100
AcDbSpline
210
0.0
220
0.0
230
1.0
 70
    24
 71
     3
 72
    10
 73
     6
 74
     0
 42
0.000000001
 43
0.00000001
 40
0.0
 40
0.0
 40
0.0
 40
0.0
 40
0.4999999999999999
 40
0.4999999999999999
 40
1.0
 40
1.0
 40
1.0
 40
1.0
 10
-26.98749999999999
 20
-2.488140923832439
 30
0.0
 10
-26.98749999999999
 20
-2.383313700750492
 30
0.0
 10
-26.98749999999998
 20
-2.256171038653218
 30
0.0
 10
-26.98749999999999
 20
-1.984492588772213
 30
0.0
 10
-26.98749999999999
 20
-1.840755798407315
 30
0.0
 10
-26.98749999999999
 20
-1.704668734656398
 30
0.0
  0
SPLINE
  5
22D
330
1F
100
AcDbEntity
  8
외형선
  6
Continuous
370
    15
100
AcDbSpline
210
0.0
220
0.0
230
1.0
 70
    24
 71
     3
 72
     8
 73
     4
 74
     0
 42
0.000000001
 43
0.00000001
 40
0.0
 40
0.0
 40
0.0
 40
0.0
 40
1.0
 40
1.0
 40
1.0
 40
1.0
 10
-26.98750000000056
 20
2.344183539950169
 30
0.0
 10
-26.98750000000056
 20
2.478718606596285
 30
0.0
 10
-26.98750000000056
 20
2.609066389579525
 30
0.0
 10
-26.98750000000056
 20
2.732663001713767
 30
0.0
  0
SPLINE
  5
22E
330
1F
100
AcDbEntity
  8
0
  6
Continuous
 62
     1
370
    15
100
AcDbSpline
210
0.0
220
0.0
230
1.0
 70
     8
 71
     3
 72
    38
 73
    34
 74
     0
 42
0.000000001
 43
0.00000001
 40
0.0
 40
0.0
 40
0.0
 40
0.0
 40
0.0625
 40
0.0625
 40
0.125
 40
0.125
 40
0.1875
 40
0.1875
 40
0.25
 40
0.25
 40
0.3125
 40
0.3125
 40
0.375
 40
0.375
 40
0.4375
 40
0.4375
 40
0.5
 40
0.5
 40
0.5625
 40
0.5625
 40
0.625
 40
0.625
 40
0.6875
 40
0.6875
 40
0.75
 40
0.75
 40
0.8125
 40
0.8125
 40
0.875
 40
0.875
 40
0.9375
 40
0.9375
 40
1.0
 40
1.0
 40
1.0
 40
1.0
 10
-39.6875
 20
2.636276352334832
 30
0.0
 10
-39.42558234683423
 20
2.588247045639307
 30
0.0
 10
-39.15900055848262
 20
2.527975489229657
 30
0.0
 10
-38.62726819831154
 20
2.385046055162096
 30
0.0
 10
-38.36513475188687
 20
2.302766839238281
 30
0.0
 10
-37.83706986026118
 20
2.117795200211454
 30
0.0
 10
-37.56980067662396
 20
2.01485455726867
 30
0.0
 10
-37.03963980159546
 20
1.792170436526568
 30
0.0
 10
-36.77868700198896
 20
1.672802748910428
 30
0.0
 10
-36.24792805035963
 20
1.418673206796267
 30
0.0
 10
-35.9807709672709
 20
1.284257281325896
 30
0.0
 10
-35.45373761678394
 20
1.006265021341001
 30
0.0
 10
-35.19068622201775
 20
0.8621701813218898
 30
0.0
 10
-34.65879512155905
 20
0.566399823998136
 30
0.0
 10
-34.39378703975115
 20
0.415432878543232
 30
0.0
 10
-33.86861414992488
 20
0.1120420789843593
 30
0.0
 10
-33.60175943326728
 20
-0.0416693064254225
 30
0.0
 10
-33.07030923244247
 20
-0.346895065019126
 30
0.0
 10
-32.80883710255387
 20
-0.4978112716263325
 30
0.0
 10
-32.27986126235601
 20
-0.7949271321984099
 30
0.0
 10
-32.01254276872376
 20
-0.9410588793294643
 30
0.0
 10
-31.48310217529243
 20
-1.222527720528213
 30
0.0
 10
-31.22189183628626
 20
-1.357755551787093
 30
0.0
 10
-30.69065747458311
 20
-1.616177356578142
 30
0.0
 10
-30.42367519426985
 20
-1.738795711042748
 30
0.0
 10
-29.89779318679839
 20
-1.966025590050471
 30
0.0
 10
-29.63356791672861
 20
-2.071443077482552
 30
0.0
 10
-29.1016416179212
 20
-2.262938269636358
 30
0.0
 10
-28.83795281577199
 20
-2.348537968492383
 30
0.0
 10
-28.31156072304694
 20
-2.49772018229314
 30
0.0
 10
-28.04449554229875
 20
-2.561647338003002
 30
0.0
 10
-27.51345070157105
 20
-2.665379644927125
 30
0.0
 10
-27.25238274818563
 20
-2.705128595119724
 30
0.0
 10
-26.9874999999979
 20
-2.732663001718194
 30
0.0
1001
PE_URL
1000

  0
SPLINE
  5
22F
330
1F
100
AcDbEntity
  8
0
  6
Continuous
 62
     1
370
    15
100
AcDbSpline
210
0.0
220
0.0
230
1.0
 70
     8
 71
     3
 72
    14
 73
    10
 74
     0
 42
0.000000001
 43
0.00000001
 40
0.0
 40
0.0
 40
0.0
 40
0.0
 40
0.1567601850151522
 40
0.3133171369343816
 40
0.4697807263754304
 40
0.6262619485974059
 40
0.7828715861380647
 40
0.9396875613382147
 40
1.0
 40
1.0
 40
1.0
 40
1.0
 10
-39.6875
 20
2.191863571947913
 30
0.0
 10
-39.3095677124273
 20
2.111195302841537
 30
0.0
 10
-38.55419311086061
 20
1.949963347703065
 30
0.0
 10
-37.42190800179641
 20
1.567990126414056
 30
0.0
 10
-36.29037545463511
 20
1.108522031430496
 30
0.0
 10
-35.15869125481811
 20
0.5849125871542604
 30
0.0
 10
-34.02606227403442
 20
0.0321181689222847
 30
0.0
 10
-33.12489566900639
 20
-0.4163359110216973
 30
0.0
 10
-32.60149689999038
 20
-0.6558748562212706
 30
0.0
 10
-32.45611078681218
 20
-0.7224123382693115
 30
0.0
1001
PE_URL
1000

  0
LINE
  5
230
330
1F
100
AcDbEntity
  8
0
  6
Continuous
 62
     1
370
    15
100
AcDbLine
 10
-39.68749999999993
 20
2.636276352334836
 30
0.0
 11
-39.6875
 21
2.191863571947913
 31
0.0
1001
PE_URL
1000

  0
SPLINE
  5
231
330
1F
100
AcDbEntity
  8
0
  6
Continuous
 62
     1
370
    15
100
AcDbSpline
210
0.0
220
0.0
230
1.0
 70
     8
 71
     3
 72
    38
 73
    34
 74
     0
 42
0.000000001
 43
0.00000001
 40
0.0
 40
0.0
 40
0.0
 40
0.0
 40
0.0625
 40
0.0625
 40
0.125
 40
0.125
 40
0.1875
 40
0.1875
 40
0.25
 40
0.25
 40
0.3125
 40
0.3125
 40
0.375
 40
0.375
 40
0.4375
 40
0.4375
 40
0.5
 40
0.5
 40
0.5625
 40
0.5625
 40
0.625
 40
0.625
 40
0.6875
 40
0.6875
 40
0.75
 40
0.75
 40
0.8125
 40
0.8125
 40
0.875
 40
0.875
 40
0.9375
 40
0.9375
 40
1.0
 40
1.0
 40
1.0
 40
1.0
 10
-26.98749999999972
 20
-2.488140923831729
 30
0.0
 10
-27.25238274818739
 20
-2.420160623895367
 30
0.0
 10
-27.51345070157278
 20
-2.341264113280658
 30
0.0
 10
-28.04449554230043
 20
-2.162089349656817
 30
0.0
 10
-28.31156072304857
 20
-2.0620258414985
 30
0.0
 10
-28.83795281577352
 20
-1.845174055794576
 30
0.0
 10
-29.10164161792272
 20
-1.72784190733287
 30
0.0
 10
-29.63356791673005
 20
-1.477853991904617
 30
0.0
 10
-29.89779318679976
 20
-1.345828429073901
 30
0.0
 10
-30.42367519427118
 20
-1.071287494243808
 30
0.0
 10
-30.69065747458441
 20
-0.9278212899797182
 30
0.0
 10
-31.22189183628747
 20
-0.6342265315146633
 30
0.0
 10
-31.4831021752936
 20
-0.4847059365595072
 30
0.0
 10
-32.01254276872486
 20
-0.18132038566932
 30
0.0
 10
-32.27986126235706
 20
-0.0276154525845698
 30
0.0
 10
-32.80883710255485
 20
0.2775748702200183
 30
0.0
 10
-33.07030923244341
 20
0.4290285802358085
 30
0.0
 10
-33.60175943326816
 20
0.7282924302836449
 30
0.0
 10
-33.8686141499257
 20
0.8754790485027932
 30
0.0
 10
-34.39378703975189
 20
1.15907903288052
 30
0.0
 10
-34.65879512155976
 20
1.296707412577334
 30
0.0
 10
-35.1906862220184
 20
1.559241025028207
 30
0.0
 10
-35.45373761678454
 20
1.683531928723614
 30
0.0
 10
-35.98077096727144
 20
1.915972248259635
 30
0.0
 10
-36.24792805036014
 20
2.024527107325522
 30
0.0
 10
-36.77868700198938
 20
2.221774938923918
 30
0.0
 10
-37.03963980159583
 20
2.31024845327148
 30
0.0
 10
-37.56980067662425
 20
2.466417658674271
 30
0.0
 10
-37.83706986026145
 20
2.533793835387613
 30
0.0
 10
-38.36513475188707
 20
2.644482232985254
 30
0.0
 10
-38.62726819831168
 20
2.687996217960301
 30
0.0
 10
-39.15900055848269
 20
2.750631703483496
 30
0.0
 10
-39.42558234683428
 20
2.769518484516297
 30
0.0
 10
-39.6875
 20
2.775776971058782
 30
0.0
1001
PE_URL
1000

  0
SPLINE
  5
232
330
1F
100
AcDbEntity
  8
0
  6
Continuous
 62
     1
370
    15
100
AcDbSpline
210
0.0
220
0.0
230
1.0
 70
     8
 71
     3
 72
    12
 73
     8
 74
     0
 42
0.000000001
 43
0.00000001
 40
0.0
 40
0.0
 40
0.0
 40
0.0
 40
0.177357212815674
 40
0.3724718756651873
 40
0.567511030212011
 40
0.783738449231998
 40
1.0
 40
1.0
 40
1.0
 40
1.0
 10
-32.78804272307723
 20
0.2653576753823153
 30
0.0
 10
-32.44509181686355
 20
0.1271173927910425
 30
0.0
 10
-31.72485289750684
 20
-0.1632041370289592
 30
0.0
 10
-30.62764174200523
 20
-0.6028566798811319
 30
0.0
 10
-29.45536735992281
 20
-1.035129437532792
 30
0.0
 10
-28.24192936597452
 20
-1.427041168574281
 30
0.0
 10
-27.40566512113481
 20
-1.612121343826701
 30
0.0
 10
-26.98749999999999
 20
-1.704668734656394
 30
0.0
1001
PE_URL
1000

  0
SPLINE
  5
233
330
1F
100
AcDbEntity
  8
외형선
  6
Continuous
370
    15
100
AcDbSpline
210
0.0
220
0.0
230
1.0
 70
    24
 71
     3
 72
    10
 73
     6
 74
     0
 42
0.000000001
 43
0.00000001
 40
0.0
 40
0.0
 40
0.0
 40
0.0
 40
0.4999999999999999
 40
0.4999999999999999
 40
1.0
 40
1.0
 40
1.0
 40
1.0
 10
-26.98749999999999
 20
-2.488140923832439
 30
0.0
 10
-26.98749999999999
 20
-2.383313700750495
 30
0.0
 10
-26.98749999999999
 20
-2.256171038653218
 30
0.0
 10
-26.98749999999999
 20
-1.984492588772213
 30
0.0
 10
-26.98749999999999
 20
-1.840755798407315
 30
0.0
 10
-26.98749999999999
 20
-1.704668734656398
 30
0.0
  0
LINE
  5
234
330
1F
100
AcDbEntity
  8
0
  6
Continuous
 62
     1
370
    15
100
AcDbLine
 10
-39.6875
 20
2.775776971059816
 30
0.0
 11
-39.68749999999999
 21
2.636276352334828
 31
0.0
1001
PE_URL
1000

  0
SPLINE
  5
235
330
1F
100
AcDbEntity
  8
0
  6
Continuous
 62
     1
370
    15
100
AcDbSpline
210
0.0
220
0.0
230
1.0
 70
     8
 71
     3
 72
     8
 73
     4
 74
     0
 42
0.000000001
 43
0.00000001
 40
0.0
 40
0.0
 40
0.0
 40
0.0
 40
1.0
 40
1.0
 40
1.0
 40
1.0
 10
-37.96775320493465
 20
-0.7778932338796238
 30
0.0
 10
-37.86930725072037
 20
-0.8945474298581004
 30
0.0
 10
-37.78145483824002
 20
-1.006817634167597
 30
0.0
 10
-37.70668337164885
 20
-1.113674468780626
 30
0.0
1001
PE_URL
1000

  0
LINE
  5
236
330
1F
100
AcDbEntity
  8
0
  6
Continuous
 62
     1
370
    15
100
AcDbLine
 10
-37.74183036664208
 20
-1.143166299316427
 30
0.0
 11
-39.6875
 21
-0.0000000000000391
 31
0.0
1001
PE_URL
1000

  0
LINE
  5
237
330
1F
100
AcDbEntity
  8
0
  6
Continuous
 62
     1
370
    15
100
AcDbLine
 10
-39.6875
 20
-0.0000000000000391
 30
0.0
 11
-39.6875
 21
0.7424343094385684
 31
0.0
1001
PE_URL
1000

  0
SPLINE
  5
238
330
1F
100
AcDbEntity
  8
0
  6
Continuous
 62
     1
370
    15
100
AcDbSpline
210
0.0
220
0.0
230
1.0
 70
     8
 71
     3
 72
    10
 73
     6
 74
     0
 42
0.000000001
 43
0.00000001
 40
0.0
 40
0.0
 40
0.0
 40
0.0
 40
0.5
 40
0.5
 40
1.0
 40
1.0
 40
1.0
 40
1.0
 10
-39.6875
 20
0.7424343094385684
 30
0.0
 10
-39.38979592326623
 20
0.5083865335041935
 30
0.0
 10
-39.09706906482475
 20
0.2647365363174998
 30
0.0
 10
-38.52181343464812
 20
-0.2422379587818106
 30
0.0
 10
-38.23661006502107
 20
-0.508242488878345
 30
0.0
 10
-37.96775320493465
 20
-0.7778932338796238
 30
0.0
1001
PE_URL
1000

  0
SPLINE
  5
239
330
1F
100
AcDbEntity
  8
0
  6
Continuous
 62
     1
370
    15
100
AcDbSpline
210
0.0
220
0.0
230
1.0
 70
     8
 71
     3
 72
    14
 73
    10
 74
     0
 42
0.000000001
 43
0.00000001
 40
0.0
 40
0.0
 40
0.0
 40
0.0
 40
0.1313615791626874
 40
0.2621819267339903
 40
0.4390341413734665
 40
0.6160335404403118
 40
0.7932693944725939
 40
0.9703538497152283
 40
1.0
 40
1.0
 40
1.0
 40
1.0
 10
-37.96775320493465
 20
-0.7778932338796238
 30
0.0
 10
-37.68750067177248
 20
-0.8965218778146316
 30
0.0
 10
-37.12815029257568
 20
-1.13329039590775
 30
0.0
 10
-36.19240044140041
 20
-1.486179576762741
 30
0.0
 10
-35.15867169858971
 20
-1.812825934372992
 30
0.0
 10
-34.02607704998114
 20
-2.073080393500529
 30
0.0
 10
-32.89260278906238
 20
-2.207893942523548
 30
0.0
 10
-32.07362796990714
 20
-2.247435183995481
 30
0.0
 10
-31.63276121621275
 20
-2.205149257246276
 30
0.0
 10
-31.56953883072107
 20
-2.199085254598291
 30
0.0
1001
PE_URL
1000

  0
SPLINE
  5
23A
330
1F
100
AcDbEntity
  8
0
  6
Continuous
 62
     1
370
    15
100
AcDbSpline
210
0.0
220
0.0
230
1.0
 70
    24
 71
     3
 72
    10
 73
     6
 74
     0
 42
0.000000001
 43
0.00000001
 40
0.0
 40
0.0
 40
0.0
 40
0.0
 40
0.5
 40
0.5
 40
1.0
 40
1.0
 40
1.0
 40
1.0
 10
-39.6875
 20
2.191863571947913
 30
0.0
 10
-39.6875
 20
2.023840140076157
 30
0.0
 10
-39.6875
 20
1.811536091227619
 30
0.0
 10
-39.68749999999999
 20
1.317949609640443
 30
0.0
 10
-39.6875
 20
1.03709474022688
 30
0.0
 10
-39.6875
 20
0.7424343094386572
 30
0.0
1001
PE_URL
1000

  0
SPLINE
  5
23B
330
1F
100
AcDbEntity
  8
0
  6
Continuous
 62
     1
370
    15
100
AcDbSpline
210
0.0
220
0.0
230
1.0
 70
    24
 71
     3
 72
     8
 73
     4
 74
     0
 42
0.000000001
 43
0.00000001
 40
0.0
 40
0.0
 40
0.0
 40
0.0
 40
1.0
 40
1.0
 40
1.0
 40
1.0
 10
-37.99679896848934
 20
-1.357110359088257
 30
0.0
 10
-37.90517263541133
 20
-1.280226736796372
 30
0.0
 10
-37.80789445057295
 20
-1.198600647776836
 30
0.0
 10
-37.70668337164889
 20
-1.113674468780602
 30
0.0
1001
PE_URL
1000

  0
LINE
  5
23C
330
1F
100
AcDbEntity
  8
0
  6
Continuous
 62
     1
370
    15
100
AcDbLine
 10
-39.6875
 20
-1.94468750000004
 30
0.0
 11
-38.65296717898694
 21
-1.895735367267811
 31
0.0
1001
PE_URL
1000

  0
SPLINE
  5
23D
330
1F
100
AcDbEntity
  8
0
  6
Continuous
 62
     1
370
    15
100
AcDbSpline
210
0.0
220
0.0
230
1.0
 70
     8
 71
     3
 72
     8
 73
     4
 74
     0
 42
0.000000001
 43
0.00000001
 40
0.0
 40
0.0
 40
0.0
 40
0.0
 40
1.0
 40
1.0
 40
1.0
 40
1.0
 10
-39.6875
 20
-1.94468750000004
 30
0.0
 10
-39.11614998707402
 20
-1.789569107931452
 30
0.0
 10
-38.55005202821107
 20
-1.599092372656369
 30
0.0
 10
-37.99679896850017
 20
-1.357110359092996
 30
0.0
1001
PE_URL
1000

  0
SPLINE
  5
23E
330
1F
100
AcDbEntity
  8
0
  6
Continuous
 62
     1
370
    15
100
AcDbSpline
210
0.0
220
0.0
230
1.0
 70
     8
 71
     3
 72
    13
 73
     9
 74
     0
 42
0.000000001
 43
0.00000001
 40
0.0
 40
0.0
 40
0.0
 40
0.0
 40
0.1341078547617089
 40
0.3002567462585954
 40
0.4662243989534992
 40
0.6321294952342474
 40
0.816050609036022
 40
1.0
 40
1.0
 40
1.0
 40
1.0
 10
-33.80700950338753
 20
2.079644440582548
 30
0.0
 10
-33.50210505272373
 20
2.124117149095891
 30
0.0
 10
-32.81944840715475
 20
2.223687981686201
 30
0.0
 10
-31.75959039958232
 20
2.234337338639619
 30
0.0
 10
-30.62762307424745
 20
2.135637247524073
 30
0.0
 10
-29.45538553932283
 20
1.90663333434216
 30
0.0
 10
-28.24192398334455
 20
1.556493962526549
 30
0.0
 10
-27.40566275479101
 20
1.231908407660232
 30
0.0
 10
-26.98749999999999
 20
1.06960315524163
 30
0.0
1001
PE_URL
1000

  0
SPLINE
  5
23F
330
1F
100
AcDbEntity
  8
외형선
  6
Continuous
370
    15
100
AcDbSpline
210
0.0
220
0.0
230
1.0
 70
    24
 71
     3
 72
    14
 73
    10
 74
     0
 42
0.000000001
 43
0.00000001
 40
0.0
 40
0.0
 40
0.0
 40
0.0
 40
0.25
 40
0.25
 40
0.5
 40
0.5
 40
0.75
 40
0.75
 40
1.0
 40
1.0
 40
1.0
 40
1.0
 10
-26.98749999999999
 20
-1.704668734656398
 30
0.0
 10
-26.98749999999999
 20
-1.543019267778757
 30
0.0
 10
-26.98749999999999
 20
-1.353433230994725
 30
0.0
 10
-26.98749999999999
 20
-0.9290967463084883
 30
0.0
 10
-26.98749999999999
 20
-0.694464760124081
 30
0.0
 10
-26.98749999999999
 20
-0.2013966599509374
 30
0.0
 10
-26.98749999999999
 20
0.0567767267397308
 30
0.0
 10
-26.98749999999999
 20
0.5708135537334584
 30
0.0
 10
-26.98749999999999
 20
0.8264325433479378
 30
0.0
 10
-26.98749999999999
 20
1.06960315524163
 30
0.0
  0
LINE
  5
240
330
1F
100
AcDbEntity
  8
0
  6
Continuous
 62
     1
370
    15
100
AcDbLine
 10
-27.39547611385461
 20
2.294547032725355
 30
0.0
 11
-26.98749999999999
 21
2.344183539950201
 31
0.0
1001
PE_URL
1000

  0
SPLINE
  5
241
330
1F
100
AcDbEntity
  8
외형선
  6
Continuous
370
    15
100
AcDbSpline
210
0.0
220
0.0
230
1.0
 70
    24
 71
     3
 72
    10
 73
     6
 74
     0
 42
0.000000001
 43
0.00000001
 40
0.0
 40
0.0
 40
0.0
 40
0.0
 40
0.5
 40
0.5
 40
1.0
 40
1.0
 40
1.0
 40
1.0
 10
-26.98749999999999
 20
1.06960315524163
 30
0.0
 10
-26.98749999999999
 20
1.418871477630635
 30
0.0
 10
-26.98749999999999
 20
1.730375042159853
 30
0.0
 10
-26.98749999999999
 20
2.175904045308844
 30
0.0
 10
-26.98749999999999
 20
2.308011752929549
 30
0.0
 10
-26.98749999999999
 20
2.344183539950201
 30
0.0
  0
LINE
  5
242
330
1F
100
AcDbEntity
  8
0
  6
Continuous
 62
     1
370
    15
100
AcDbLine
 10
-39.6875
 20
-0.0000000000000391
 30
0.0
 11
-39.6875
 21
-1.94468750000004
 31
0.0
1001
PE_URL
1000

  0
SPLINE
  5
243
330
1F
100
AcDbEntity
  8
0
  6
Continuous
 62
     1
370
    15
100
AcDbSpline
210
0.0
220
0.0
230
1.0
 70
    24
 71
     3
 72
    10
 73
     6
 74
     0
 42
0.000000001
 43
0.00000001
 40
0.0
 40
0.0
 40
0.0
 40
0.0
 40
0.5
 40
0.5
 40
1.0
 40
1.0
 40
1.0
 40
1.0
 10
-39.6875
 20
-1.94468750000004
 30
0.0
 10
-39.6875
 20
-2.062569613442857
 30
0.0
 10
-39.68749999999999
 20
-2.199559546321499
 30
0.0
 10
-39.68749999999999
 20
-2.486964056544412
 30
0.0
 10
-39.6875
 20
-2.636644638836007
 30
0.0
 10
-39.6875
 20
-2.775776971059894
 30
0.0
1001
PE_URL
1000

  0
SPLINE
  5
244
330
1F
100
AcDbEntity
  8
0
  6
Continuous
 62
     1
370
    15
100
AcDbSpline
210
0.0
220
0.0
230
1.0
 70
     8
 71
     3
 72
    14
 73
    10
 74
     0
 42
0.000000001
 43
0.00000001
 40
0.0
 40
0.0
 40
0.0
 40
0.0
 40
0.0236683453983007
 40
0.1285944838588779
 40
0.2338820557691721
 40
0.4229161758316773
 40
0.6125516144398059
 40
0.8059536933888546
 40
1.0
 40
1.0
 40
1.0
 40
1.0
 10
-35.86519187046717
 20
-1.862803099675581
 30
0.0
 10
-35.89532185068484
 20
-1.87607651244506
 30
0.0
 10
-36.05902358773346
 20
-1.948193411003569
 30
0.0
 10
-36.35743554646876
 20
-2.065752191702458
 30
0.0
 10
-36.86610382334146
 20
-2.254090000110708
 30
0.0
 10
-37.48212854731369
 20
-2.448479037383059
 30
0.0
 10
-38.2116816456472
 20
-2.620825928427532
 30
0.0
 10
-38.94645780308821
 20
-2.739217184329494
 30
0.0
 10
-39.44021227185789
 20
-2.763576874169633
 30
0.0
 10
-39.6875
 20
-2.775776971059543
 30
0.0
1001
PE_URL
1000

  0
SPLINE
  5
245
330
1F
100
AcDbEntity
  8
0
  6
Continuous
 62
     1
370
    15
100
AcDbSpline
210
0.0
220
0.0
230
1.0
 70
     8
 71
     3
 72
    10
 73
     6
 74
     0
 42
0.000000001
 43
0.00000001
 40
0.0
 40
0.0
 40
0.0
 40
0.0
 40
0.0377170861889686
 40
0.5187833193623603
 40
0.9999999999999999
 40
0.9999999999999999
 40
0.9999999999999999
 40
0.9999999999999999
 10
-29.30837872520434
 20
2.184212458337644
 30
0.0
 10
-29.27919767489226
 20
2.195908950745309
 30
0.0
 10
-28.87782408872677
 20
2.356789489760036
 30
0.0
 10
-28.10429587916089
 20
2.567169218301903
 30
0.0
 10
-27.35980409207206
 20
2.677492657765164
 30
0.0
 10
-26.98749999999791
 20
2.732663001718151
 30
0.0
1001
PE_URL
1000

  0
SPLINE
  5
246
330
1F
100
AcDbEntity
  8
외형선
  6
Continuous
370
    15
100
AcDbSpline
210
0.0
220
0.0
230
1.0
 70
    24
 71
     3
 72
     8
 73
     4
 74
     0
 42
0.000000001
 43
0.00000001
 40
0.0
 40
0.0
 40
0.0
 40
0.0
 40
1.0
 40
1.0
 40
1.0
 40
1.0
 10
-26.98750000000056
 20
2.344183539950169
 30
0.0
 10
-26.98750000000056
 20
2.478718606596285
 30
0.0
 10
-26.98750000000056
 20
2.609066389579528
 30
0.0
 10
-26.98750000000056
 20
2.732663001713771
 30
0.0
  0
LINE
  5
248
330
1F
100
AcDbEntity
  8
외형선
  6
Continuous
370
    15
100
AcDbLine
 10
-4.838700000000028
 20
4.762499999999995
 30
0.0
 11
-18.58171167873052
 21
4.762499999999994
 31
0.0
  0
ENDSEC
  0
SECTION
  2
OBJECTS
  0
DICTIONARY
  5
C
330
0
100
AcDbDictionary
281
     1
  3
ACAD_GROUP
350
D
  3
ACAD_IMAGE_VARS
350
26C
  3
ACAD_LAYOUT
350
1A
  3
ACAD_MLINESTYLE
350
17
  3
ACAD_PLOTSETTINGS
350
19
  3
ACAD_PLOTSTYLENAME
350
E
  3
ACAD_SCALELIST
350
47
  3
APPDATA
350
158
  3
DWGPROPS
350
26D
  0
DICTIONARY
  5
191
330
2
100
AcDbDictionary
280
     1
281
     1
  3
ACAD_LAYERSTATES
360
192
  0
DICTIONARY
  5
D
102
{ACAD_REACTORS
330
C
102
}
330
C
100
AcDbDictionary
281
     1
  0
RASTERVARIABLES
  5
26C
102
{ACAD_REACTORS
330
C
102
}
330
C
100
AcDbRasterVariables
 90
        0
 70
     1
 71
     1
 72
     1
  0
DICTIONARY
  5
1A
102
{ACAD_REACTORS
330
C
102
}
330
C
100
AcDbDictionary
281
     1
  3
Layout1
350
1E
  3
Layout2
350
26
  3
Model
350
22
  0
DICTIONARY
  5
17
102
{ACAD_REACTORS
330
C
102
}
330
C
100
AcDbDictionary
281
     1
  3
Standard
350
18
  0
DICTIONARY
  5
19
102
{ACAD_REACTORS
330
C
102
}
330
C
100
AcDbDictionary
281
     1
  0
ACDBDICTIONARYWDFLT
  5
E
102
{ACAD_REACTORS
330
C
102
}
330
C
100
AcDbDictionary
281
     1
  3
Normal
350
F
100
AcDbDictionaryWithDefault
340
F
  0
DICTIONARY
  5
47
102
{ACAD_REACTORS
330
C
102
}
330
C
100
AcDbDictionary
281
     1
  3
A0
350
48
  3
A1
350
49
  3
A2
350
4A
  3
A3
350
4B
  3
A4
350
4C
  3
A5
350
4D
  3
A6
350
4E
  3
A7
350
4F
  3
A8
350
50
  3
A9
350
51
  3
B0
350
52
  3
B1
350
53
  3
B2
350
54
  3
B3
350
55
  3
B4
350
56
  3
B5
350
57
  3
B6
350
58
  3
B7
350
59
  3
B8
350
5A
  3
B9
350
5B
  3
C0
350
5C
  3
C1
350
5D
  3
C2
350
5E
  3
C3
350
5F
  3
C4
350
60
  3
C5
350
61
  3
C6
350
62
  3
C7
350
63
  3
C8
350
64
  3
C9
350
65
  3
D0
350
66
  3
D1
350
67
  3
D2
350
68
  0
DICTIONARY
  5
158
102
{ACAD_REACTORS
330
C
102
}
330
C
100
AcDbDictionary
281
     1
  0
XRECORD
  5
26D
102
{ACAD_REACTORS
330
C
102
}
330
C
100
AcDbXrecord
280
     1
  1
DWGPROPS COOKIE
  2

  3

  4

  6

  7

  8
12016016
  9

300
=
301
=
302
=
303
=
304
=
305
=
306
=
307
=
308
=
309
=
 40
0.0
 41
2458313.020041042
 42
2458330.401833334
  1

 90
        0
  0
DICTIONARY
  5
192
102
{ACAD_REACTORS
330
191
102
}
330
191
100
AcDbDictionary
281
     1
  0
LAYOUT
  5
1E
102
{ACAD_REACTORS
330
1A
102
}
330
1A
100
AcDbPlotSettings
  1

  2
none_device
  4

  6

 40
0.0
 41
0.0
 42
0.0
 43
0.0
 44
0.0
 45
0.0
 46
0.0
 47
0.0
 48
0.0
 49
0.0
140
0.0
141
0.0
142
1.0
143
1.0
 70
   688
 72
     1
 73
     0
 74
     5
  7

 75
    16
147
1.0
148
0.0
149
0.0
100
AcDbLayout
  1
Layout1
 70
     1
 71
     1
 10
0.0
 20
0.0
 11
420.0
 21
297.0
 12
0.0
 22
0.0
 32
0.0
 14
1.000000000000000E+20
 24
1.000000000000000E+20
 34
1.000000000000000E+20
 15
-1.000000000000000E+20
 25
-1.000000000000000E+20
 35
-1.000000000000000E+20
146
0.0
 13
0.0
 23
0.0
 33
0.0
 16
1.0
 26
0.0
 36
0.0
 17
0.0
 27
1.0
 37
0.0
 76
     0
330
1B
  0
LAYOUT
  5
26
102
{ACAD_REACTORS
330
1A
102
}
330
1A
100
AcDbPlotSettings
  1

  2
none_device
  4

  6

 40
0.0
 41
0.0
 42
0.0
 43
0.0
 44
0.0
 45
0.0
 46
0.0
 47
0.0
 48
0.0
 49
0.0
140
0.0
141
0.0
142
1.0
143
1.0
 70
   688
 72
     1
 73
     0
 74
     5
  7

 75
    16
147
1.0
148
0.0
149
0.0
100
AcDbLayout
  1
Layout2
 70
     1
 71
     2
 10
0.0
 20
0.0
 11
0.0
 21
0.0
 12
0.0
 22
0.0
 32
0.0
 14
0.0
 24
0.0
 34
0.0
 15
0.0
 25
0.0
 35
0.0
146
0.0
 13
0.0
 23
0.0
 33
0.0
 16
1.0
 26
0.0
 36
0.0
 17
0.0
 27
1.0
 37
0.0
 76
     0
330
23
  0
LAYOUT
  5
22
102
{ACAD_REACTORS
330
1A
102
}
330
1A
100
AcDbPlotSettings
  1

  2
none_device
  4
ANSI_A_(11.00_x_8.50_Inches)
  6

 40
6.35
 41
19.05
 42
6.35000508
 43
19.05000254
 44
279.4
 45
215.9
 46
89.87060011157284
 47
72.76977087393627
 48
0.0
 49
0.0
140
0.0
141
0.0
142
0.0468513381585266
143
1.0
 70
  1696
 72
     0
 73
     0
 74
     0
  7

 75
     0
147
0.0235690232323232
148
0.0
149
0.0
100
AcDbLayout
  1
Model
 70
     1
 71
     0
 10
0.0
 20
0.0
 11
420.0
 21
297.0
 12
0.0
 22
0.0
 32
0.0
 14
-54.06250000000009
 24
-49.97180738881175
 34
0.0
 15
97.79412503295505
 25
38.25477697105998
 35
0.0
146
0.0
 13
0.0
 23
0.0
 33
0.0
 16
1.0
 26
0.0
 36
0.0
 17
0.0
 27
1.0
 37
0.0
 76
     0
330
1F
331
29
  0
MLINESTYLE
  5
18
102
{ACAD_REACTORS
330
17
102
}
330
17
100
AcDbMlineStyle
  2
Standard
 70
     0
  3

 62
   256
 51
90.0
 52
90.0
 71
     2
 49
0.5
 62
   256
  6
BYLAYER
 49
-0.5
 62
   256
  6
BYLAYER
  0
ACDBPLACEHOLDER
  5
F
102
{ACAD_REACTORS
330
E
102
}
330
E
  0
SCALE
  5
48
102
{ACAD_REACTORS
330
47
102
}
330
47
100
AcDbScale
 70
     0
300
1:1
140
1.0
141
1.0
290
     1
  0
SCALE
  5
49
102
{ACAD_REACTORS
330
47
102
}
330
47
100
AcDbScale
 70
     0
300
1:2
140
1.0
141
2.0
290
     0
  0
SCALE
  5
4A
102
{ACAD_REACTORS
330
47
102
}
330
47
100
AcDbScale
 70
     0
300
1:4
140
1.0
141
4.0
290
     0
  0
SCALE
  5
4B
102
{ACAD_REACTORS
330
47
102
}
330
47
100
AcDbScale
 70
     0
300
1:5
140
1.0
141
5.0
290
     0
  0
SCALE
  5
4C
102
{ACAD_REACTORS
330
47
102
}
330
47
100
AcDbScale
 70
     0
300
1:8
140
1.0
141
8.0
290
     0
  0
SCALE
  5
4D
102
{ACAD_REACTORS
330
47
102
}
330
47
100
AcDbScale
 70
     0
300
1:10
140
1.0
141
10.0
290
     0
  0
SCALE
  5
4E
102
{ACAD_REACTORS
330
47
102
}
330
47
100
AcDbScale
 70
     0
300
1:16
140
1.0
141
16.0
290
     0
  0
SCALE
  5
4F
102
{ACAD_REACTORS
330
47
102
}
330
47
100
AcDbScale
 70
     0
300
1:20
140
1.0
141
20.0
290
     0
  0
SCALE
  5
50
102
{ACAD_REACTORS
330
47
102
}
330
47
100
AcDbScale
 70
     0
300
1:30
140
1.0
141
30.0
290
     0
  0
SCALE
  5
51
102
{ACAD_REACTORS
330
47
102
}
330
47
100
AcDbScale
 70
     0
300
1:40
140
1.0
141
40.0
290
     0
  0
SCALE
  5
52
102
{ACAD_REACTORS
330
47
102
}
330
47
100
AcDbScale
 70
     0
300
1:50
140
1.0
141
50.0
290
     0
  0
SCALE
  5
53
102
{ACAD_REACTORS
330
47
102
}
330
47
100
AcDbScale
 70
     0
300
1:100
140
1.0
141
100.0
290
     0
  0
SCALE
  5
54
102
{ACAD_REACTORS
330
47
102
}
330
47
100
AcDbScale
 70
     0
300
2:1
140
2.0
141
1.0
290
     0
  0
SCALE
  5
55
102
{ACAD_REACTORS
330
47
102
}
330
47
100
AcDbScale
 70
     0
300
4:1
140
4.0
141
1.0
290
     0
  0
SCALE
  5
56
102
{ACAD_REACTORS
330
47
102
}
330
47
100
AcDbScale
 70
     0
300
8:1
140
8.0
141
1.0
290
     0
  0
SCALE
  5
57
102
{ACAD_REACTORS
330
47
102
}
330
47
100
AcDbScale
 70
     0
300
10:1
140
10.0
141
1.0
290
     0
  0
SCALE
  5
58
102
{ACAD_REACTORS
330
47
102
}
330
47
100
AcDbScale
 70
     0
300
100:1
140
100.0
141
1.0
290
     0
  0
SCALE
  5
59
102
{ACAD_REACTORS
330
47
102
}
330
47
100
AcDbScale
 70
     0
300
1/128" = 1'-0"
140
0.0078125
141
12.0
290
     0
  0
SCALE
  5
5A
102
{ACAD_REACTORS
330
47
102
}
330
47
100
AcDbScale
 70
     0
300
1/64" = 1'-0"
140
0.015625
141
12.0
290
     0
  0
SCALE
  5
5B
102
{ACAD_REACTORS
330
47
102
}
330
47
100
AcDbScale
 70
     0
300
1/32" = 1'-0"
140
0.03125
141
12.0
290
     0
  0
SCALE
  5
5C
102
{ACAD_REACTORS
330
47
102
}
330
47
100
AcDbScale
 70
     0
300
1/16" = 1'-0"
140
0.0625
141
12.0
290
     0
  0
SCALE
  5
5D
102
{ACAD_REACTORS
330
47
102
}
330
47
100
AcDbScale
 70
     0
300
3/32" = 1'-0"
140
0.09375
141
12.0
290
     0
  0
SCALE
  5
5E
102
{ACAD_REACTORS
330
47
102
}
330
47
100
AcDbScale
 70
     0
300
1/8" = 1'-0"
140
0.125
141
12.0
290
     0
  0
SCALE
  5
5F
102
{ACAD_REACTORS
330
47
102
}
330
47
100
AcDbScale
 70
     0
300
3/16" = 1'-0"
140
0.1875
141
12.0
290
     0
  0
SCALE
  5
60
102
{ACAD_REACTORS
330
47
102
}
330
47
100
AcDbScale
 70
     0
300
1/4" = 1'-0"
140
0.25
141
12.0
290
     0
  0
SCALE
  5
61
102
{ACAD_REACTORS
330
47
102
}
330
47
100
AcDbScale
 70
     0
300
3/8" = 1'-0"
140
0.375
141
12.0
290
     0
  0
SCALE
  5
62
102
{ACAD_REACTORS
330
47
102
}
330
47
100
AcDbScale
 70
     0
300
1/2" = 1'-0"
140
0.5
141
12.0
290
     0
  0
SCALE
  5
63
102
{ACAD_REACTORS
330
47
102
}
330
47
100
AcDbScale
 70
     0
300
3/4" = 1'-0"
140
0.75
141
12.0
290
     0
  0
SCALE
  5
64
102
{ACAD_REACTORS
330
47
102
}
330
47
100
AcDbScale
 70
     0
300
1" = 1'-0"
140
1.0
141
12.0
290
     0
  0
SCALE
  5
65
102
{ACAD_REACTORS
330
47
102
}
330
47
100
AcDbScale
 70
     0
300
1-1/2" = 1'-0"
140
1.5
141
12.0
290
     0
  0
SCALE
  5
66
102
{ACAD_REACTORS
330
47
102
}
330
47
100
AcDbScale
 70
     0
300
3" = 1'-0"
140
3.0
141
12.0
290
     0
  0
SCALE
  5
67
102
{ACAD_REACTORS
330
47
102
}
330
47
100
AcDbScale
 70
     0
300
6" = 1'-0"
140
6.0
141
12.0
290
     0
  0
SCALE
  5
68
102
{ACAD_REACTORS
330
47
102
}
330
47
100
AcDbScale
 70
     0
300
1'-0" = 1'-0"
140
12.0
141
12.0
290
     0
  0
ENDSEC
  0
EOF
