  0
SECTION
  2
HEADER
  9
$ACADVER
  1
AC1015
  9
$ACADMAINTVER
 70
     6
  9
$DWGCODEPAGE
  3
ANSI_949
  9
$INSBASE
 10
0.0
 20
0.0
 30
0.0
  9
$EXTMIN
 10
-54.06250000000009
 20
-49.97180738881175
 30
0.0
  9
$EXTMAX
 10
96.20662503295505
 20
40.59958632200133
 30
0.0
  9
$LIMMIN
 10
0.0
 20
0.0
  9
$LIMMAX
 10
420.0
 20
297.0
  9
$ORTHOMODE
 70
     1
  9
$REGENMODE
 70
     1
  9
$FILLMODE
 70
     1
  9
$QTEXTMODE
 70
     0
  9
$MIRRTEXT
 70
     1
  9
$LTSCALE
 40
1.0
  9
$ATTMODE
 70
     1
  9
$TEXTSIZE
 40
3.5
  9
$TRACEWID
 40
1.0
  9
$TEXTSTYLE
  7
Standard
  9
$CLAYER
  8
0
  9
$CELTYPE
  6
ByLayer
  9
$CECOLOR
 62
   256
  9
$CELTSCALE
 40
1.0
  9
$DISPSILH
 70
     0
  9
$DIMSCALE
 40
1.0
  9
$DIMASZ
 40
3.302
  9
$DIMEXO
 40
1.0
  9
$DIMDLI
 40
3.75
  9
$DIMRND
 40
0.0
  9
$DIMDLE
 40
0.0
  9
$DIMEXE
 40
1.0
  9
$DIMTP
 40
0.0
  9
$DIMTM
 40
0.0
  9
$DIMTXT
 40
3.5
  9
$DIMCEN
 40
2.5
  9
$DIMTSZ
 40
0.0
  9
$DIMTOL
 70
     0
  9
$DIMLIM
 70
     0
  9
$DIMTIH
 70
     1
  9
$DIMTOH
 70
     1
  9
$DIMSE1
 70
     0
  9
$DIMSE2
 70
     0
  9
$DIMTAD
 70
     1
  9
$DIMZIN
 70
     0
  9
$DIMBLK
  1

  9
$DIMASO
 70
     1
  9
$DIMSHO
 70
     1
  9
$DIMPOST
  1

  9
$DIMAPOST
  1

  9
$DIMALT
 70
     0
  9
$DIMALTD
 70
     3
  9
$DIMALTF
 40
0.0393700787401575
  9
$DIMLFAC
 40
1.0
  9
$DIMTOFL
 70
     1
  9
$DIMTVP
 40
0.0
  9
$DIMTIX
 70
     0
  9
$DIMSOXD
 70
     0
  9
$DIMSAH
 70
     0
  9
$DIMBLK1
  1

  9
$DIMBLK2
  1

  9
$DIMSTYLE
  2
ISO-25
  9
$DIMCLRD
 70
     0
  9
$DIMCLRE
 70
     0
  9
$DIMCLRT
 70
     0
  9
$DIMTFAC
 40
1.0
  9
$DIMGAP
 40
1.524
  9
$DIMJUST
 70
     0
  9
$DIMSD1
 70
     0
  9
$DIMSD2
 70
     0
  9
$DIMTOLJ
 70
     0
  9
$DIMTZIN
 70
     0
  9
$DIMALTZ
 70
     0
  9
$DIMALTTZ
 70
     0
  9
$DIMUPT
 70
     0
  9
$DIMDEC
 70
     2
  9
$DIMTDEC
 70
     2
  9
$DIMALTU
 70
     2
  9
$DIMALTTD
 70
     3
  9
$DIMTXSTY
  7
Standard
  9
$DIMAUNIT
 70
     0
  9
$DIMADEC
 70
     2
  9
$DIMALTRND
 40
0.0
  9
$DIMAZIN
 70
     0
  9
$DIMDSEP
 70
    44
  9
$DIMATFIT
 70
     3
  9
$DIMFRAC
 70
     0
  9
$DIMLDRBLK
  1

  9
$DIMLUNIT
 70
     2
  9
$DIMLWD
 70
    -2
  9
$DIMLWE
 70
    -2
  9
$DIMTMOVE
 70
     0
  9
$LUNITS
 70
     2
  9
$LUPREC
 70
     2
  9
$SKETCHINC
 40
1.0
  9
$FILLETRAD
 40
10.0
  9
$AUNITS
 70
     0
  9
$AUPREC
 70
     2
  9
$MENU
  1
.
  9
$ELEVATION
 40
0.0
  9
$PELEVATION
 40
0.0
  9
$THICKNESS
 40
0.0
  9
$LIMCHECK
 70
     0
  9
$CHAMFERA
 40
0.0
  9
$CHAMFERB
 40
0.0
  9
$CHAMFERC
 40
0.0
  9
$CHAMFERD
 40
0.0
  9
$SKPOLY
 70
     0
  9
$TDCREATE
 40
2458313.39567625
  9
$TDUCREATE
 40
2458313.02067625
  9
$TDUPDATE
 40
2458330.776701516
  9
$TDUUPDATE
 40
2458330.401701516
  9
$TDINDWG
 40
0.0023679977
  9
$TDUSRTIMER
 40
2458330.401664259
  9
$USRTIMER
 70
     1
  9
$ANGBASE
 50
0.0
  9
$ANGDIR
 70
     0
  9
$PDMODE
 70
     0
  9
$PDSIZE
 40
-1.0
  9
$PLINEWID
 40
0.0
  9
$SPLFRAME
 70
     0
  9
$SPLINETYPE
 70
     6
  9
$SPLINESEGS
 70
     8
  9
$HANDSEED
  5
27D
  9
$SURFTAB1
 70
     6
  9
$SURFTAB2
 70
     6
  9
$SURFTYPE
 70
     6
  9
$SURFU
 70
     6
  9
$SURFV
 70
     6
  9
$UCSBASE
  2

  9
$UCSNAME
  2

  9
$UCSORG
 10
0.0
 20
0.0
 30
0.0
  9
$UCSXDIR
 10
1.0
 20
0.0
 30
0.0
  9
$UCSYDIR
 10
0.0
 20
1.0
 30
0.0
  9
$UCSORTHOREF
  2

  9
$UCSORTHOVIEW
 70
     0
  9
$UCSORGTOP
 10
0.0
 20
0.0
 30
0.0
  9
$UCSORGBOTTOM
 10
0.0
 20
0.0
 30
0.0
  9
$UCSORGLEFT
 10
0.0
 20
0.0
 30
0.0
  9
$UCSORGRIGHT
 10
0.0
 20
0.0
 30
0.0
  9
$UCSORGFRONT
 10
0.0
 20
0.0
 30
0.0
  9
$UCSORGBACK
 10
0.0
 20
0.0
 30
0.0
  9
$PUCSBASE
  2

  9
$PUCSNAME
  2

  9
$PUCSORG
 10
0.0
 20
0.0
 30
0.0
  9
$PUCSXDIR
 10
1.0
 20
0.0
 30
0.0
  9
$PUCSYDIR
 10
0.0
 20
1.0
 30
0.0
  9
$PUCSORTHOREF
  2

  9
$PUCSORTHOVIEW
 70
     0
  9
$PUCSORGTOP
 10
0.0
 20
0.0
 30
0.0
  9
$PUCSORGBOTTOM
 10
0.0
 20
0.0
 30
0.0
  9
$PUCSORGLEFT
 10
0.0
 20
0.0
 30
0.0
  9
$PUCSORGRIGHT
 10
0.0
 20
0.0
 30
0.0
  9
$PUCSORGFRONT
 10
0.0
 20
0.0
 30
0.0
  9
$PUCSORGBACK
 10
0.0
 20
0.0
 30
0.0
  9
$USERI1
 70
     0
  9
$USERI2
 70
     0
  9
$USERI3
 70
     0
  9
$USERI4
 70
     0
  9
$USERI5
 70
     0
  9
$USERR1
 40
0.0
  9
$USERR2
 40
0.0
  9
$USERR3
 40
0.0
  9
$USERR4
 40
0.0
  9
$USERR5
 40
0.0
  9
$WORLDVIEW
 70
     1
  9
$SHADEDGE
 70
     3
  9
$SHADEDIF
 70
    70
  9
$TILEMODE
 70
     1
  9
$MAXACTVP
 70
    64
  9
$PINSBASE
 10
0.0
 20
0.0
 30
0.0
  9
$PLIMCHECK
 70
     0
  9
$PEXTMIN
 10
1.000000000000000E+20
 20
1.000000000000000E+20
 30
1.000000000000000E+20
  9
$PEXTMAX
 10
-1.000000000000000E+20
 20
-1.000000000000000E+20
 30
-1.000000000000000E+20
  9
$PLIMMIN
 10
0.0
 20
0.0
  9
$PLIMMAX
 10
0.0
 20
0.0
  9
$UNITMODE
 70
     0
  9
$VISRETAIN
 70
     1
  9
$PLINEGEN
 70
     0
  9
$PSLTSCALE
 70
     1
  9
$TREEDEPTH
 70
  3020
  9
$CMLSTYLE
  2
Standard
  9
$CMLJUST
 70
     0
  9
$CMLSCALE
 40
20.0
  9
$PROXYGRAPHICS
 70
     1
  9
$MEASUREMENT
 70
     1
  9
$CELWEIGHT
370
    -1
  9
$ENDCAPS
280
     0
  9
$JOINSTYLE
280
     0
  9
$LWDISPLAY
290
     1
  9
$INSUNITS
 70
     4
  9
$HYPERLINKBASE
  1

  9
$STYLESHEET
  1

  9
$XEDIT
290
     1
  9
$CEPSNTYPE
380
     0
  9
$PSTYLEMODE
290
     1
  9
$FINGERPRINTGUID
  2
{7329565D-464D-40AE-8DFA-F0DF112D28E6}
  9
$VERSIONGUID
  2
{FAEB1C32-E019-11D5-929B-00C0DF256EC4}
  9
$EXTNAMES
290
     1
  9
$PSVPSCALE
 40
0.0
  9
$OLESTARTUP
290
     0
  0
ENDSEC
  0
SECTION
  2
CLASSES
  0
CLASS
  1
ACDBDICTIONARYWDFLT
  2
AcDbDictionaryWithDefault
  3
ObjectDBX Classes
 90
        0
280
     0
281
     0
  0
CLASS
  1
VISUALSTYLE
  2
AcDbVisualStyle
  3
ObjectDBX Classes
 90
     4095
280
     0
281
     0
  0
CLASS
  1
MATERIAL
  2
AcDbMaterial
  3
ObjectDBX Classes
 90
     1153
280
     0
281
     0
  0
CLASS
  1
SCALE
  2
AcDbScale
  3
ObjectDBX Classes
 90
     1153
280
     0
281
     0
  0
CLASS
  1
SUN
  2
AcDbSun
  3
SCENEOE
 90
     1153
280
     0
281
     0
  0
CLASS
  1
ACDBPLACEHOLDER
  2
AcDbPlaceHolder
  3
ObjectDBX Classes
 90
        0
280
     0
281
     0
  0
CLASS
  1
LAYOUT
  2
AcDbLayout
  3
ObjectDBX Classes
 90
        0
280
     0
281
     0
  0
CLASS
  1
TABLESTYLE
  2
AcDbTableStyle
  3
ObjectDBX Classes
 90
     4095
280
     0
281
     0
  0
CLASS
  1
MLEADERSTYLE
  2
AcDbMLeaderStyle
  3
ACDB_MLEADERSTYLE_CLASS
 90
     4095
280
     0
281
     0
  0
CLASS
  1
DICTIONARYVAR
  2
AcDbDictionaryVar
  3
ObjectDBX Classes
 90
        0
280
     0
281
     0
  0
CLASS
  1
RASTERVARIABLES
  2
AcDbRasterVariables
  3
ISM
 90
        0
280
     0
281
     0
  0
ENDSEC
  0
SECTION
  2
TABLES
  0
TABLE
  2
VPORT
  5
8
330
0
100
AcDbSymbolTable
 70
     1
  0
VPORT
  5
29
330
8
100
AcDbSymbolTableRecord
100
AcDbViewportTableRecord
  2
*Active
 70
     0
 10
0.0
 20
0.0
 11
1.0
 21
1.0
 12
21.07206251647749
 22
-4.686110533405177
 13
0.0
 23
0.0
 14
10.0
 24
10.0
 15
10.0
 25
10.0
 16
0.0
 26
0.0
 36
1.0
 17
0.0
 27
0.0
 37
0.0
 40
92.38282158502942
 41
1.782762691853601
 42
50.0
 43
0.0
 44
0.0
 50
0.0
 51
0.0
 71
    16
 72
  2000
 73
     1
 74
     3
 75
     0
 76
     0
 77
     0
 78
     0
281
     0
 65
     1
110
0.0
120
0.0
130
0.0
111
1.0
121
0.0
131
0.0
112
0.0
122
1.0
132
0.0
 79
     0
146
0.0
  0
ENDTAB
  0
TABLE
  2
LTYPE
  5
5
330
0
100
AcDbSymbolTable
 70
     6
  0
LTYPE
  5
14
330
5
100
AcDbSymbolTableRecord
100
AcDbLinetypeTableRecord
  2
ByBlock
 70
     0
  3

 72
    65
 73
     0
 40
0.0
  0
LTYPE
  5
15
330
5
100
AcDbSymbolTableRecord
100
AcDbLinetypeTableRecord
  2
ByLayer
 70
     0
  3

 72
    65
 73
     0
 40
0.0
  0
LTYPE
  5
16
330
5
100
AcDbSymbolTableRecord
100
AcDbLinetypeTableRecord
  2
Continuous
 70
     0
  3
Solid line
 72
    65
 73
     0
 40
0.0
  0
LTYPE
  5
6A
330
5
100
AcDbSymbolTableRecord
100
AcDbLinetypeTableRecord
  2
HIDDEN
 70
     0
  3
Hidden __ __ __ __ __ __ __ __ __ __ __ __ __ __
 72
    65
 73
     2
 40
1.905
 49
1.27
 74
     0
 49
-0.635
 74
     0
  0
LTYPE
  5
6B
330
5
100
AcDbSymbolTableRecord
100
AcDbLinetypeTableRecord
  2
PHANTOM
 70
     0
  3
Phantom ______  __  __  ______  __  __  ______
 72
    65
 73
     6
 40
12.7
 49
6.35
 74
     0
 49
-1.27
 74
     0
 49
1.27
 74
     0
 49
-1.27
 74
     0
 49
1.27
 74
     0
 49
-1.27
 74
     0
  0
LTYPE
  5
6C
330
5
100
AcDbSymbolTableRecord
100
AcDbLinetypeTableRecord
  2
CENTER
 70
     0
  3
Center ____ _ ____ _ ____ _ ____ _ ____ _ ____
 72
    65
 73
     4
 40
10.16
 49
6.35
 74
     0
 49
-1.27
 74
     0
 49
1.27
 74
     0
 49
-1.27
 74
     0
  0
LTYPE
  5
6D
330
5
100
AcDbSymbolTableRecord
100
AcDbLinetypeTableRecord
  2
CENTERX2
 70
     0
  3
Center (2x) ________  __  ________  __  _____
 72
    65
 73
     4
 40
20.32
 49
12.7
 74
     0
 49
-2.54
 74
     0
 49
2.54
 74
     0
 49
-2.54
 74
     0
  0
LTYPE
  5
6E
330
5
100
AcDbSymbolTableRecord
100
AcDbLinetypeTableRecord
  2
DOT2
 70
     0
  3
Dot (.5x) ........................................
 72
    65
 73
     2
 40
0.635
 49
0.0
 74
     0
 49
-0.635
 74
     0
  0
ENDTAB
  0
TABLE
  2
LAYER
  5
2
102
{ACAD_XDICTIONARY
360
193
102
}
330
0
100
AcDbSymbolTable
 70
    18
  0
LAYER
  5
10
330
2
100
AcDbSymbolTableRecord
100
AcDbLayerTableRecord
  2
0
 70
     0
 62
     7
  6
Continuous
370
    -3
390
F
  0
LAYER
  5
6F
330
2
100
AcDbSymbolTableRecord
100
AcDbLayerTableRecord
  2
FORMAT
 70
     0
 62
     2
  6
Continuous
370
    -3
390
F
  0
LAYER
  5
70
330
2
100
AcDbSymbolTableRecord
100
AcDbLayerTableRecord
  2
외형선
 70
     0
 62
     4
  6
Continuous
370
    30
390
F
  0
LAYER
  5
71
330
2
100
AcDbSymbolTableRecord
100
AcDbLayerTableRecord
  2
숨은선
 70
     0
 62
     2
  6
HIDDEN
370
    15
390
F
  0
LAYER
  5
72
330
2
100
AcDbSymbolTableRecord
100
AcDbLayerTableRecord
  2
중심선
 70
     0
 62
     1
  6
CENTERX2
370
    -3
390
F
  0
LAYER
  5
73
330
2
100
AcDbSymbolTableRecord
100
AcDbLayerTableRecord
  2
파단선
 70
     0
 62
     4
  6
Continuous
370
    -3
390
F
  0
LAYER
  5
74
330
2
100
AcDbSymbolTableRecord
100
AcDbLayerTableRecord
  2
해칭선
 70
     0
 62
   100
  6
Continuous
370
    -3
390
F
  0
LAYER
  5
75
330
2
100
AcDbSymbolTableRecord
100
AcDbLayerTableRecord
  2
가는실선
 70
     0
 62
     4
  6
Continuous
370
    -3
390
F
  0
LAYER
  5
76
330
2
100
AcDbSymbolTableRecord
100
AcDbLayerTableRecord
  2
치수_보조선
 70
     0
 62
     4
  6
Continuous
370
    -3
390
F
  0
LAYER
  5
77
330
2
100
AcDbSymbolTableRecord
100
AcDbLayerTableRecord
  2
치수문자_일반주서
 70
     0
 62
     7
  6
Continuous
370
    15
390
F
  0
LAYER
  5
78
330
2
100
AcDbSymbolTableRecord
100
AcDbLayerTableRecord
  2
개별주서
 70
     0
 62
   100
  6
Continuous
370
    30
390
F
  0
LAYER
  5
79
330
2
100
AcDbSymbolTableRecord
100
AcDbLayerTableRecord
  2
중간선
 70
     0
 62
     2
  6
Continuous
370
    15
390
F
  0
LAYER
  5
7A
330
2
100
AcDbSymbolTableRecord
100
AcDbLayerTableRecord
  2
윤곽선
 70
     0
 62
     3
  6
Continuous
370
    40
390
F
  0
LAYER
  5
7B
330
2
100
AcDbSymbolTableRecord
100
AcDbLayerTableRecord
  2
중심마크
 70
     0
 62
   100
  6
Continuous
370
    30
390
F
  0
LAYER
  5
7C
330
2
100
AcDbSymbolTableRecord
100
AcDbLayerTableRecord
  2
가상선
 70
     0
 62
     4
  6
PHANTOM
370
    -3
390
F
  0
LAYER
  5
7D
330
2
100
AcDbSymbolTableRecord
100
AcDbLayerTableRecord
  2
특수지정선
 70
     0
 62
     5
  6
CENTERX2
370
    60
390
F
  0
LAYER
  5
7E
330
2
100
AcDbSymbolTableRecord
100
AcDbLayerTableRecord
  2
참조1
 70
     0
 62
    -4
  6
Continuous
370
    -3
390
F
  0
LAYER
  5
15C
330
2
100
AcDbSymbolTableRecord
100
AcDbLayerTableRecord
  2
Defpoints
 70
     0
 62
     7
  6
Continuous
290
     0
370
    -3
390
F
  0
ENDTAB
  0
TABLE
  2
STYLE
  5
3
330
0
100
AcDbSymbolTable
 70
     2
  0
STYLE
  5
11
330
3
100
AcDbSymbolTableRecord
100
AcDbTextStyleTableRecord
  2
Standard
 70
     0
 40
0.0
 41
1.0
 50
0.0
 71
     0
 42
3.5
  3
txt
  4

  0
STYLE
  5
94
330
3
100
AcDbSymbolTableRecord
100
AcDbTextStyleTableRecord
  2
SLDTEXTSTYLE0
 70
     0
 40
0.0
 41
0.75
 50
0.0
 71
     0
 42
3.5
  3
TXT
  4

  0
ENDTAB
  0
TABLE
  2
VIEW
  5
6
330
0
100
AcDbSymbolTable
 70
     0
  0
ENDTAB
  0
TABLE
  2
UCS
  5
7
330
0
100
AcDbSymbolTable
 70
     0
  0
ENDTAB
  0
TABLE
  2
APPID
  5
9
330
0
100
AcDbSymbolTable
 70
     2
  0
APPID
  5
12
330
9
100
AcDbSymbolTableRecord
100
AcDbRegAppTableRecord
  2
ACAD
 70
     0
  0
APPID
  5
163
330
9
100
AcDbSymbolTableRecord
100
AcDbRegAppTableRecord
  2
PE_URL
 70
     0
  0
ENDTAB
  0
TABLE
  2
DIMSTYLE
  5
A
330
0
100
AcDbSymbolTable
 70
     3
100
AcDbDimStyleTable
  0
DIMSTYLE
105
27
330
A
100
AcDbSymbolTableRecord
100
AcDbDimStyleTableRecord
  2
ISO-25
 70
     0
 41
2.5
 42
0.625
 43
3.75
 44
1.25
 73
     0
 74
     0
 77
     1
 78
     8
140
2.5
141
2.5
143
0.03937007874016
147
0.625
171
     3
172
     1
178
     0
271
     2
272
     2
274
     3
278
    44
283
     0
284
     8
340
11
  0
DIMSTYLE
105
DB
102
{ACAD_REACTORS
330
DA
330
EF
330
103
330
118
102
}
330
A
100
AcDbSymbolTableRecord
100
AcDbDimStyleTableRecord
  2
SLDDIMSTYLE0
 70
     0
 41
3.302
 44
0.0
 45
0.000000001
 73
     0
 74
     0
 77
     1
 78
    12
 79
     3
140
3.5
143
0.0393700787401575
147
0.875
148
0.000000001
170
     1
172
     1
173
     1
178
     0
271
     2
272
     2
276
     2
284
    12
289
     0
340
94
  0
DIMSTYLE
105
104
330
A
100
AcDbSymbolTableRecord
100
AcDbDimStyleTableRecord
  2
SLDDIMSTYLE1
 70
     0
 41
3.302
 44
0.0
 45
0.000000001
 73
     0
 74
     0
 77
     1
 78
    12
 79
     3
140
3.5
143
0.0393700787401575
147
0.875
148
0.000000001
170
     1
173
     1
178
     0
271
     2
272
     2
276
     2
284
    12
340
94
  0
ENDTAB
  0
TABLE
  2
BLOCK_RECORD
  5
1
330
0
100
AcDbSymbolTable
 70
     9
  0
BLOCK_RECORD
  5
1F
330
1
100
AcDbSymbolTableRecord
100
AcDbBlockTableRecord
  2
*Model_Space
340
22
  0
BLOCK_RECORD
  5
1B
330
1
100
AcDbSymbolTableRecord
100
AcDbBlockTableRecord
  2
*Paper_Space
340
1E
  0
BLOCK_RECORD
  5
23
330
1
100
AcDbSymbolTableRecord
100
AcDbBlockTableRecord
  2
*Paper_Space0
340
26
  0
BLOCK_RECORD
  5
7F
330
1
100
AcDbSymbolTableRecord
100
AcDbBlockTableRecord
  2
블럭10
340
0
102
{BLKREFS
331
D3
102
}
  0
BLOCK_RECORD
  5
DC
330
1
100
AcDbSymbolTableRecord
100
AcDbBlockTableRecord
  2
_D
340
0
  0
BLOCK_RECORD
  5
F0
330
1
100
AcDbSymbolTableRecord
100
AcDbBlockTableRecord
  2
_D_1
340
0
  0
BLOCK_RECORD
  5
105
330
1
100
AcDbSymbolTableRecord
100
AcDbBlockTableRecord
  2
_D_2
340
0
  0
BLOCK_RECORD
  5
119
330
1
100
AcDbSymbolTableRecord
100
AcDbBlockTableRecord
  2
_D_3
340
0
  0
BLOCK_RECORD
  5
132
330
1
100
AcDbSymbolTableRecord
100
AcDbBlockTableRecord
  2
SW_DOWELSYMBOL_0
340
0
102
{BLKREFS
331
138
102
}
  0
BLOCK_RECORD
  5
197
330
1
100
AcDbSymbolTableRecord
100
AcDbBlockTableRecord
  2
*D7
340
0
  0
BLOCK_RECORD
  5
1A9
330
1
100
AcDbSymbolTableRecord
100
AcDbBlockTableRecord
  2
*D8
340
0
  0
ENDTAB
  0
ENDSEC
  0
SECTION
  2
BLOCKS
  0
BLOCK
  5
20
330
1F
100
AcDbEntity
  8
0
100
AcDbBlockBegin
  2
*Model_Space
 70
     0
 10
0.0
 20
0.0
 30
0.0
  3
*Model_Space
  1
*Model_Space
  0
ENDBLK
  5
21
330
1F
100
AcDbEntity
  8
0
100
AcDbBlockEnd
  0
BLOCK
  5
1C
330
1B
100
AcDbEntity
 67
     1
  8
0
100
AcDbBlockBegin
  2
*Paper_Space
 70
     0
 10
0.0
 20
0.0
 30
0.0
  3
*Paper_Space
  1
*Paper_Space
  0
ENDBLK
  5
1D
330
1B
100
AcDbEntity
 67
     1
  8
0
100
AcDbBlockEnd
  0
BLOCK
  5
24
330
23
100
AcDbEntity
  8
0
100
AcDbBlockBegin
  2
*Paper_Space0
 70
     0
 10
0.0
 20
0.0
 30
0.0
  3
*Paper_Space0
  1
*Paper_Space0
  0
ENDBLK
  5
25
330
23
100
AcDbEntity
  8
0
100
AcDbBlockEnd
  0
BLOCK
  5
80
330
7F
100
AcDbEntity
  8
0
100
AcDbBlockBegin
  2
블럭10
 70
     2
 10
0.0
 20
0.0
 30
0.0
  3
블럭10
  1
블럭10
  0
ELLIPSE
  5
82
330
7F
100
AcDbEntity
  8
중심선
100
AcDbEllipse
 10
20.54032771741204
 20
12.0471743016438
 30
0.0
 11
6.600054785286829
 21
-1.261213355974178E-13
 31
0.0
210
0.0
220
0.0
230
1.0
 40
0.636358354079598
 41
0.9219305317359503
 42
6.513795318482858
  0
ELLIPSE
  5
83
330
7F
100
AcDbEntity
  8
중심선
100
AcDbEllipse
 10
20.54032771746488
 20
12.04717430159265
 30
0.0
 11
3.960054785062283
 21
1.540847449632565E-10
 31
0.0
210
0.0
220
0.0
230
1.0
 40
0.3939339440162632
 41
1.131841032648279
 42
5.62031148352944
  0
LINE
  5
84
330
7F
100
AcDbEntity
  8
중심선
100
AcDbLine
 10
2.268634060543552
 20
16.24717430164393
 30
0.0
 11
5.714909304380834
 21
16.24717430164393
 31
0.0
  0
LINE
  5
85
330
7F
100
AcDbEntity
  8
중심선
100
AcDbLine
 10
5.245725140726316
 20
7.84717430164391
 30
0.0
 11
8.692000384563599
 21
7.84717430164391
 31
0.0
  0
LINE
  5
86
330
7F
100
AcDbEntity
  8
중심선
100
AcDbLine
 10
15.74043728645272
 20
16.24717430164393
 30
0.0
 11
8.692000384563599
 21
7.84717430164391
 31
0.0
  0
LINE
  5
87
330
7F
100
AcDbEntity
  8
중심선
100
AcDbLine
 10
0.1404042013395286
 20
13.71084872107135
 30
0.0
 11
3.58671253028996
 21
13.71088815037384
 31
0.0
  0
LINE
  5
88
330
7F
100
AcDbEntity
  8
중심선
100
AcDbLine
 10
2.750260043222114
 20
10.84717430164391
 30
0.0
 11
6.196535287059397
 21
10.84717430164391
 31
0.0
  0
LINE
  5
89
330
7F
100
AcDbEntity
  8
중심선
100
AcDbLine
 10
12.29416204261559
 20
16.24717430164393
 30
0.0
 11
5.245725140726316
 21
7.84717430164391
 31
0.0
  0
LINE
  5
8A
330
7F
100
AcDbEntity
  8
중심선
100
AcDbLine
 10
10.72767329541681
 20
16.24717430164393
 30
0.0
 11
6.196535287059397
 21
10.84717430164391
 31
0.0
  0
LINE
  5
8B
330
7F
100
AcDbEntity
  8
중심선
100
AcDbLine
 10
7.28139805157953
 20
16.24717430164393
 30
0.0
 11
2.750260043222114
 21
10.84717430164391
 31
0.0
  0
LINE
  5
8C
330
7F
100
AcDbEntity
  8
중심선
100
AcDbLine
 10
5.714909304380834
 20
16.24717430164393
 30
0.0
 11
3.58671253028996
 21
13.71088815037384
 31
0.0
  0
LINE
  5
8D
330
7F
100
AcDbEntity
  8
중심선
100
AcDbLine
 10
2.268634060543552
 20
16.24717430164393
 30
0.0
 11
0.1404042013395286
 21
13.71084872107135
 31
0.0
  0
LINE
  5
8E
330
7F
100
AcDbEntity
  8
중심선
100
AcDbLine
 10
7.28139805157953
 20
16.24717430164393
 30
0.0
 11
10.72767329541681
 21
16.24717430164393
 31
0.0
  0
LINE
  5
8F
330
7F
100
AcDbEntity
  8
중심선
100
AcDbLine
 10
12.29416204261559
 20
16.24717430164393
 30
0.0
 11
15.74043728645272
 21
16.24717430164393
 31
0.0
  0
LINE
  5
90
330
7F
100
AcDbEntity
  8
중심선
100
AcDbLine
 10
19.22036997980202
 20
11.08717430171403
 30
0.0
 11
23.66174974927406
 21
11.08717430171406
 31
0.0
  0
LINE
  5
91
330
7F
100
AcDbEntity
  8
중심선
100
AcDbLine
 10
19.22039502424796
 20
13.00717430171391
 30
0.0
 11
19.22036997980202
 21
11.08717430171403
 31
0.0
  0
LINE
  5
92
330
7F
100
AcDbEntity
  8
중심선
100
AcDbLine
 10
19.22039502424796
 20
13.00717430171391
 30
0.0
 11
26.96566020931264
 21
13.00717430171391
 31
0.0
  0
LINE
  5
93
330
7F
100
AcDbEntity
  8
중심선
100
AcDbLine
 10
22.22332737316547
 20
13.45928029700563
 30
0.0
 11
24.52862924686651
 21
15.39360700705356
 31
0.0
  0
ATTDEF
  5
95
330
7F
100
AcDbEntity
  8
FORMAT
 62
     2
100
AcDbText
 10
4.408487351596664
 20
2.075366912832191
 30
0.0
 40
4.233333333333333
  1
E1050017
 41
0.75
  7
SLDTEXTSTYLE0
 11
4.408487351596664
 21
-0.0412997538344756
 31
0.0
100
AcDbAttributeDefinition
  3

  2
AUTOATTR0
 70
     0
 74
     1
  0
ENDBLK
  5
81
330
7F
100
AcDbEntity
  8
0
100
AcDbBlockEnd
  0
BLOCK
  5
DD
330
DC
100
AcDbEntity
  8
0
100
AcDbBlockBegin
  2
_D
 70
     0
 10
0.0
 20
0.0
 30
0.0
  3
_D
  1
_D
  0
LINE
  5
DF
330
DC
100
AcDbEntity
  8
치수문자_일반주서
 62
     0
370
    -2
100
AcDbLine
 10
-19.27844817511139
 20
4.762499999999996
 30
0.0
 11
-49.68749999999997
 21
4.762499999999882
 31
0.0
  0
LINE
  5
E0
330
DC
100
AcDbEntity
  8
치수문자_일반주서
 62
     0
370
    -2
100
AcDbLine
 10
-19.27844817511139
 20
-4.762500000000006
 30
0.0
 11
-49.68749999999994
 21
-4.76250000000012
 31
0.0
  0
LINE
  5
E1
330
DC
100
AcDbEntity
  8
치수문자_일반주서
 62
     0
370
    -2
100
AcDbLine
 10
-49.68749999999997
 20
4.762499999999882
 30
0.0
 11
-49.68750000000009
 21
37.61649999999996
 31
0.0
  0
LINE
  5
E2
330
DC
100
AcDbEntity
  8
치수문자_일반주서
 62
     0
370
    -2
100
AcDbLine
 10
-49.68749999999997
 20
4.762499999999882
 30
0.0
 11
-49.68749999999994
 21
-4.76250000000012
 31
0.0
  0
LINE
  5
E3
330
DC
100
AcDbEntity
  8
치수문자_일반주서
 62
     0
370
    -2
100
AcDbLine
 10
-49.68749999999999
 20
8.064499999999882
 30
0.0
 11
-49.6875
 21
11.36649999999988
 31
0.0
  0
LINE
  5
E4
330
DC
100
AcDbEntity
  8
치수문자_일반주서
 62
     0
370
    -2
100
AcDbLine
 10
-49.68749999999992
 20
-8.06450000000012
 30
0.0
 11
-49.68749999999991
 21
-11.36650000000012
 31
0.0
  0
SOLID
  5
E5
330
DC
100
AcDbEntity
  8
치수문자_일반주서
 62
     0
100
AcDbTrace
 10
-50.23783333333332
 20
8.06449999999988
 30
0.0
 11
-49.13716666666665
 21
8.064499999999883
 31
0.0
 12
-49.68749999999997
 22
4.762499999999882
 32
0.0
 13
-49.68749999999997
 23
4.762499999999882
 33
0.0
  0
SOLID
  5
E6
330
DC
100
AcDbEntity
  8
치수문자_일반주서
 62
     0
100
AcDbTrace
 10
-49.13716666666659
 20
-8.064500000000118
 30
0.0
 11
-50.23783333333326
 21
-8.064500000000121
 31
0.0
 12
-49.68749999999994
 22
-4.76250000000012
 32
0.0
 13
-49.68749999999994
 23
-4.76250000000012
 33
0.0
  0
MTEXT
  5
E7
330
DC
100
AcDbEntity
  8
치수문자_일반주서
 62
     0
100
AcDbMText
 10
-54.06250000000004
 20
24.49149999999995
 30
0.0
 40
3.5
 41
0.0
 71
     2
 72
     1
  1
\A1;%%c9.53 [3/8]
  7
SLDTEXTSTYLE0
 11
-3.729883127349606E-15
 21
1.0
 31
0.0
 73
     1
 44
1.0
  0
POINT
  5
1ED
330
DC
100
AcDbEntity
  8
Defpoints
 62
     0
100
AcDbPoint
 10
-19.21594817511139
 20
4.762499999999996
 30
0.0
  0
POINT
  5
1EE
330
DC
100
AcDbEntity
  8
Defpoints
 62
     0
100
AcDbPoint
 10
-19.21594817511139
 20
-4.762500000000006
 30
0.0
  0
POINT
  5
1EF
330
DC
100
AcDbEntity
  8
Defpoints
 62
     0
100
AcDbPoint
 10
-49.68749999999994
 20
-4.76250000000012
 30
0.0
  0
ENDBLK
  5
DE
330
DC
100
AcDbEntity
  8
0
100
AcDbBlockEnd
  0
BLOCK
  5
F1
330
F0
100
AcDbEntity
  8
0
100
AcDbBlockBegin
  2
_D_1
 70
     0
 10
0.0
 20
0.0
 30
0.0
  3
_D_1
  1
_D_1
  0
LINE
  5
F3
330
F0
100
AcDbEntity
  8
치수문자_일반주서
 62
     0
370
    -2
100
AcDbLine
 10
39.75000000000001
 20
-3.370586322001252
 30
0.0
 11
80.36669387331996
 21
-3.370586322001099
 31
0.0
  0
LINE
  5
F4
330
F0
100
AcDbEntity
  8
치수문자_일반주서
 62
     0
370
    -2
100
AcDbLine
 10
39.75000000000001
 20
3.370586322001252
 30
0.0
 11
80.36669387331993
 21
3.370586322001405
 31
0.0
  0
LINE
  5
F5
330
F0
100
AcDbEntity
  8
치수문자_일반주서
 62
     0
370
    -2
100
AcDbLine
 10
80.36669387331993
 20
3.370586322001405
 30
0.0
 11
80.36669387331976
 21
40.5995863220014
 31
0.0
  0
LINE
  5
F6
330
F0
100
AcDbEntity
  8
치수문자_일반주서
 62
     0
370
    -2
100
AcDbLine
 10
80.36669387331996
 20
-3.370586322001099
 30
0.0
 11
80.36669387331993
 21
3.370586322001405
 31
0.0
  0
LINE
  5
F7
330
F0
100
AcDbEntity
  8
치수문자_일반주서
 62
     0
370
    -2
100
AcDbLine
 10
80.36669387331997
 20
-6.672586322001099
 30
0.0
 11
80.36669387331999
 21
-9.974586322001098
 31
0.0
  0
LINE
  5
F8
330
F0
100
AcDbEntity
  8
치수문자_일반주서
 62
     0
370
    -2
100
AcDbLine
 10
80.36669387331992
 20
6.672586322001404
 30
0.0
 11
80.3666938733199
 21
9.974586322001404
 31
0.0
  0
SOLID
  5
F9
330
F0
100
AcDbEntity
  8
치수문자_일반주서
 62
     0
100
AcDbTrace
 10
80.9170272066533
 20
-6.672586322001096
 30
0.0
 11
79.81636053998665
 21
-6.672586322001101
 31
0.0
 12
80.36669387331996
 22
-3.370586322001099
 32
0.0
 13
80.36669387331996
 23
-3.370586322001099
 33
0.0
  0
SOLID
  5
FA
330
F0
100
AcDbEntity
  8
치수문자_일반주서
 62
     0
100
AcDbTrace
 10
79.81636053998659
 20
6.672586322001401
 30
0.0
 11
80.91702720665324
 21
6.672586322001407
 31
0.0
 12
80.36669387331993
 22
3.370586322001405
 32
0.0
 13
80.36669387331993
 23
3.370586322001405
 33
0.0
  0
MTEXT
  5
FB
330
F0
100
AcDbEntity
  8
치수문자_일반주서
 62
     0
100
AcDbMText
 10
75.99169387331983
 20
25.28708632200139
 30
0.0
 40
3.5
 41
0.0
 71
     2
 72
     1
  1
\A1;%%c6.74 [17/64]
  7
SLDTEXTSTYLE0
 11
-4.216137300042341E-15
 21
1.0
 31
0.0
 73
     1
 44
1.0
  0
POINT
  5
FC
330
F0
100
AcDbEntity
  8
Defpoints
 62
     0
100
AcDbPoint
 10
39.68750000000001
 20
-3.370586322001253
 30
0.0
  0
POINT
  5
FD
330
F0
100
AcDbEntity
  8
Defpoints
 62
     0
100
AcDbPoint
 10
39.68750000000001
 20
3.370586322001251
 30
0.0
  0
POINT
  5
FE
330
F0
100
AcDbEntity
  8
Defpoints
 62
     0
100
AcDbPoint
 10
80.3666938733199
 20
3.370586322001403
 30
0.0
  0
ENDBLK
  5
F2
330
F0
100
AcDbEntity
  8
0
100
AcDbBlockEnd
  0
BLOCK
  5
106
330
105
100
AcDbEntity
  8
0
100
AcDbBlockBegin
  2
_D_2
 70
     0
 10
0.0
 20
0.0
 30
0.0
  3
_D_2
  1
_D_2
  0
LINE
  5
108
330
105
100
AcDbEntity
  8
치수문자_일반주서
 62
     0
370
    -2
100
AcDbLine
 10
39.68750000000001
 20
3.433086322001251
 30
0.0
 11
39.68750000000001
 21
14.76250000000002
 31
0.0
  0
LINE
  5
109
330
105
100
AcDbEntity
  8
치수문자_일반주서
 62
     0
370
    -2
100
AcDbLine
 10
25.40000000000002
 20
3.201135855773569
 30
0.0
 11
25.40000000000002
 21
14.76250000000002
 31
0.0
  0
LINE
  5
10A
330
105
100
AcDbEntity
  8
치수문자_일반주서
 62
     0
370
    -2
100
AcDbLine
 10
39.68750000000001
 20
14.76250000000002
 30
0.0
 11
73.41650000000001
 21
14.76250000000002
 31
0.0
  0
LINE
  5
10B
330
105
100
AcDbEntity
  8
치수문자_일반주서
 62
     0
370
    -2
100
AcDbLine
 10
39.68750000000001
 20
14.76250000000002
 30
0.0
 11
25.40000000000002
 21
14.76250000000002
 31
0.0
  0
LINE
  5
10C
330
105
100
AcDbEntity
  8
치수문자_일반주서
 62
     0
370
    -2
100
AcDbLine
 10
42.98950000000001
 20
14.76250000000002
 30
0.0
 11
46.29150000000001
 21
14.76250000000002
 31
0.0
  0
LINE
  5
10D
330
105
100
AcDbEntity
  8
치수문자_일반주서
 62
     0
370
    -2
100
AcDbLine
 10
22.09800000000002
 20
14.76250000000002
 30
0.0
 11
18.79600000000002
 21
14.76250000000002
 31
0.0
  0
SOLID
  5
10E
330
105
100
AcDbEntity
  8
치수문자_일반주서
 62
     0
100
AcDbTrace
 10
42.98950000000001
 20
15.31283333333335
 30
0.0
 11
42.98950000000001
 21
14.21216666666668
 31
0.0
 12
39.68750000000001
 22
14.76250000000002
 32
0.0
 13
39.68750000000001
 23
14.76250000000002
 33
0.0
  0
SOLID
  5
10F
330
105
100
AcDbEntity
  8
치수문자_일반주서
 62
     0
100
AcDbTrace
 10
22.09800000000002
 20
14.21216666666668
 30
0.0
 11
22.09800000000002
 21
15.31283333333335
 31
0.0
 12
25.40000000000002
 22
14.76250000000002
 32
0.0
 13
25.40000000000002
 23
14.76250000000002
 33
0.0
  0
MTEXT
  5
110
330
105
100
AcDbEntity
  8
치수문자_일반주서
 62
     0
100
AcDbMText
 10
59.85400000000001
 20
19.13750000000002
 30
0.0
 40
3.5
 41
0.0
 71
     2
 72
     1
  1
\A1;14.29 [9/16]
  7
SLDTEXTSTYLE0
 73
     1
 44
1.0
  0
POINT
  5
111
330
105
100
AcDbEntity
  8
Defpoints
 62
     0
100
AcDbPoint
 10
39.68750000000001
 20
3.370586322001251
 30
0.0
  0
POINT
  5
112
330
105
100
AcDbEntity
  8
Defpoints
 62
     0
100
AcDbPoint
 10
25.40000000000002
 20
3.138635855773569
 30
0.0
  0
POINT
  5
113
330
105
100
AcDbEntity
  8
Defpoints
 62
     0
100
AcDbPoint
 10
25.40000000000002
 20
14.76250000000002
 30
0.0
  0
ENDBLK
  5
107
330
105
100
AcDbEntity
  8
0
100
AcDbBlockEnd
  0
BLOCK
  5
11A
330
119
100
AcDbEntity
  8
0
100
AcDbBlockBegin
  2
_D_3
 70
     0
 10
0.0
 20
0.0
 30
0.0
  3
_D_3
  1
_D_3
  0
LINE
  5
11C
330
119
100
AcDbEntity
  8
치수문자_일반주서
 62
     0
370
    -2
100
AcDbLine
 10
-39.68750000000001
 20
3.433086322001241
 30
0.0
 11
-39.68750000000001
 21
24.7625
 31
0.0
  0
LINE
  5
11D
330
119
100
AcDbEntity
  8
치수문자_일반주서
 62
     0
370
    -2
100
AcDbLine
 10
39.68750000000001
 20
3.433086322001251
 30
0.0
 11
39.68750000000001
 21
24.7625
 31
0.0
  0
LINE
  5
11E
330
119
100
AcDbEntity
  8
치수문자_일반주서
 62
     0
370
    -2
100
AcDbLine
 10
-36.38550000000001
 20
24.7625
 30
0.0
 11
36.38550000000001
 21
24.7625
 31
0.0
  0
SOLID
  5
11F
330
119
100
AcDbEntity
  8
치수문자_일반주서
 62
     0
100
AcDbTrace
 10
-36.38550000000001
 20
25.31283333333333
 30
0.0
 11
-36.38550000000001
 21
24.21216666666666
 31
0.0
 12
-39.68750000000001
 22
24.7625
 32
0.0
 13
-39.68750000000001
 23
24.7625
 33
0.0
  0
SOLID
  5
120
330
119
100
AcDbEntity
  8
치수문자_일반주서
 62
     0
100
AcDbTrace
 10
36.38550000000001
 20
24.21216666666666
 30
0.0
 11
36.38550000000001
 21
25.31283333333333
 31
0.0
 12
39.68750000000001
 22
24.7625
 32
0.0
 13
39.68750000000001
 23
24.7625
 33
0.0
  0
MTEXT
  5
121
330
119
100
AcDbEntity
  8
치수문자_일반주서
 62
     0
100
AcDbMText
 10
0.0000000000000142
 20
29.1375
 30
0.0
 40
3.5
 41
0.0
 71
     2
 72
     1
  1
\A1;79.38 [3 1/8]
  7
SLDTEXTSTYLE0
 73
     1
 44
1.0
  0
POINT
  5
122
330
119
100
AcDbEntity
  8
Defpoints
 62
     0
100
AcDbPoint
 10
-39.68750000000001
 20
3.370586322001241
 30
0.0
  0
POINT
  5
123
330
119
100
AcDbEntity
  8
Defpoints
 62
     0
100
AcDbPoint
 10
39.68750000000001
 20
3.370586322001251
 30
0.0
  0
POINT
  5
124
330
119
100
AcDbEntity
  8
Defpoints
 62
     0
100
AcDbPoint
 10
39.68750000000001
 20
24.7625
 30
0.0
  0
ENDBLK
  5
11B
330
119
100
AcDbEntity
  8
0
100
AcDbBlockEnd
  0
BLOCK
  5
133
330
132
100
AcDbEntity
  8
0
100
AcDbBlockBegin
  2
SW_DOWELSYMBOL_0
 70
     0
 10
0.0
 20
0.0
 30
0.0
  3
SW_DOWELSYMBOL_0
  1
SW_DOWELSYMBOL_0
  0
CIRCLE
  5
135
330
132
100
AcDbEntity
  8
해칭선
 62
     0
100
AcDbCircle
 10
0.0
 20
0.0
 30
0.0
 40
3.000000000000001
  0
HATCH
  5
136
330
132
100
AcDbEntity
  8
0
  6
Continuous
 62
     0
370
     0
100
AcDbHatch
 10
0.0
 20
0.0
 30
0.0
210
0.0
220
0.0
230
1.0
  2
SOLID
 70
     1
 71
     0
 91
        1
 92
        0
 93
        3
 72
     2
 10
0.0
 20
0.0
 40
3.000000000000001
 50
0.0
 51
90.0
 73
     1
 72
     1
 10
0.0
 20
3.000000000000001
 11
0.0
 21
0.0
 72
     1
 10
0.0
 20
0.0
 11
3.000000000000001
 21
0.0
 97
        0
 75
     0
 76
     1
 98
        1
 10
0.0
 20
0.0
  0
HATCH
  5
137
330
132
100
AcDbEntity
  8
0
  6
Continuous
 62
     0
370
     0
100
AcDbHatch
 10
0.0
 20
0.0
 30
0.0
210
0.0
220
0.0
230
1.0
  2
SOLID
 70
     1
 71
     0
 91
        1
 92
        0
 93
        3
 72
     2
 10
0.0
 20
0.0
 40
3.000000000000001
 50
180.0
 51
270.0000000000007
 73
     1
 72
     1
 10
0.0
 20
-3.000000000000001
 11
0.0
 21
0.0
 72
     1
 10
0.0
 20
0.0
 11
-3.000000000000001
 21
0.0
 97
        0
 75
     0
 76
     1
 98
        1
 10
0.0
 20
0.0
  0
ENDBLK
  5
134
330
132
100
AcDbEntity
  8
0
100
AcDbBlockEnd
  0
BLOCK
  5
198
330
197
100
AcDbEntity
  8
0
100
AcDbBlockBegin
  2
*D7
 70
     1
 10
0.0
 20
0.0
 30
0.0
  3
*D7
  1
*D7
  0
LINE
  5
19A
330
197
100
AcDbEntity
  8
치수문자_일반주서
 62
     0
370
    -2
100
AcDbLine
 10
16.129
 20
3.155101899082702
 30
0.0
 11
16.129
 21
16.26894362990562
 31
0.0
  0
LINE
  5
19B
330
197
100
AcDbEntity
  8
치수문자_일반주서
 62
     0
370
    -2
100
AcDbLine
 10
6.603999999999999
 20
2.633059590344415
 30
0.0
 11
6.603999999999999
 21
16.26894362990562
 31
0.0
  0
LINE
  5
19C
330
197
100
AcDbEntity
  8
치수문자_일반주서
 62
     0
370
    -2
100
AcDbLine
 10
16.129
 20
16.26894362990562
 30
0.0
 11
46.358
 21
16.26894362990562
 31
0.0
  0
LINE
  5
19D
330
197
100
AcDbEntity
  8
치수문자_일반주서
 62
     0
370
    -2
100
AcDbLine
 10
16.129
 20
16.26894362990562
 30
0.0
 11
6.603999999999999
 21
16.26894362990562
 31
0.0
  0
LINE
  5
19E
330
197
100
AcDbEntity
  8
치수문자_일반주서
 62
     0
370
    -2
100
AcDbLine
 10
19.431
 20
16.26894362990562
 30
0.0
 11
22.733
 21
16.26894362990562
 31
0.0
  0
LINE
  5
19F
330
197
100
AcDbEntity
  8
치수문자_일반주서
 62
     0
370
    -2
100
AcDbLine
 10
3.302
 20
16.26894362990562
 30
0.0
 11
0.0
 21
16.26894362990562
 31
0.0
  0
SOLID
  5
1A0
330
197
100
AcDbEntity
  8
치수문자_일반주서
 62
     0
100
AcDbTrace
 10
19.431
 20
16.81927696323896
 30
0.0
 11
19.431
 21
15.71861029657229
 31
0.0
 12
16.129
 22
16.26894362990562
 32
0.0
 13
16.129
 23
16.26894362990562
 33
0.0
  0
SOLID
  5
1A1
330
197
100
AcDbEntity
  8
치수문자_일반주서
 62
     0
100
AcDbTrace
 10
3.302
 20
15.71861029657229
 30
0.0
 11
3.302
 21
16.81927696323896
 31
0.0
 12
6.603999999999999
 22
16.26894362990562
 32
0.0
 13
6.603999999999999
 23
16.26894362990562
 33
0.0
  0
MTEXT
  5
1A2
330
197
100
AcDbEntity
  8
치수문자_일반주서
 62
     0
100
AcDbMText
 10
34.5455
 20
20.64394362990562
 30
0.0
 40
3.5
 41
0.0
 71
     2
 72
     1
  1
\A1;9.53 [3/8]
  7
SLDTEXTSTYLE0
 73
     1
 44
1.0
  0
POINT
  5
1A3
330
197
100
AcDbEntity
  8
Defpoints
 62
     0
100
AcDbPoint
 10
16.129
 20
3.092601899082702
 30
0.0
  0
POINT
  5
1A4
330
197
100
AcDbEntity
  8
Defpoints
 62
     0
100
AcDbPoint
 10
6.603999999999999
 20
2.570559590344415
 30
0.0
  0
POINT
  5
1A5
330
197
100
AcDbEntity
  8
Defpoints
 62
     0
100
AcDbPoint
 10
6.603999999999999
 20
16.26894362990562
 30
0.0
  0
ENDBLK
  5
199
330
197
100
AcDbEntity
  8
0
100
AcDbBlockEnd
  0
BLOCK
  5
1AA
330
1A9
100
AcDbEntity
  8
0
100
AcDbBlockBegin
  2
*D8
 70
     1
 10
0.0
 20
0.0
 30
0.0
  3
*D8
  1
*D8
  0
LINE
  5
1AC
330
1A9
100
AcDbEntity
  8
치수문자_일반주서
 62
     0
370
    -2
100
AcDbLine
 10
89.28380460370308
 20
-15.09764574844314
 30
0.0
 11
89.28380460370308
 21
-1.983804017620216
 31
0.0
  0
LINE
  5
1AD
330
1A9
100
AcDbEntity
  8
치수문자_일반주서
 62
     0
370
    -2
100
AcDbLine
 10
79.75880460370307
 20
-15.61968805718142
 30
0.0
 11
79.75880460370307
 21
-1.983804017620216
 31
0.0
  0
LINE
  5
1AE
330
1A9
100
AcDbEntity
  8
치수문자_일반주서
 62
     0
370
    -2
100
AcDbLine
 10
89.28380460370308
 20
-1.983804017620216
 30
0.0
 11
119.5128046037031
 21
-1.983804017620216
 31
0.0
  0
LINE
  5
1AF
330
1A9
100
AcDbEntity
  8
치수문자_일반주서
 62
     0
370
    -2
100
AcDbLine
 10
89.28380460370308
 20
-1.983804017620216
 30
0.0
 11
79.75880460370307
 21
-1.983804017620216
 31
0.0
  0
LINE
  5
1B0
330
1A9
100
AcDbEntity
  8
치수문자_일반주서
 62
     0
370
    -2
100
AcDbLine
 10
92.58580460370308
 20
-1.983804017620216
 30
0.0
 11
95.88780460370307
 21
-1.983804017620216
 31
0.0
  0
LINE
  5
1B1
330
1A9
100
AcDbEntity
  8
치수문자_일반주서
 62
     0
370
    -2
100
AcDbLine
 10
76.45680460370306
 20
-1.983804017620216
 30
0.0
 11
73.15480460370307
 21
-1.983804017620216
 31
0.0
  0
SOLID
  5
1B2
330
1A9
100
AcDbEntity
  8
치수문자_일반주서
 62
     0
100
AcDbTrace
 10
92.58580460370308
 20
-1.433470684286883
 30
0.0
 11
92.58580460370308
 21
-2.534137350953549
 31
0.0
 12
89.28380460370308
 22
-1.983804017620216
 32
0.0
 13
89.28380460370308
 23
-1.983804017620216
 33
0.0
  0
SOLID
  5
1B3
330
1A9
100
AcDbEntity
  8
치수문자_일반주서
 62
     0
100
AcDbTrace
 10
76.45680460370306
 20
-2.534137350953549
 30
0.0
 11
76.45680460370306
 21
-1.433470684286883
 31
0.0
 12
79.75880460370307
 22
-1.983804017620216
 32
0.0
 13
79.75880460370307
 23
-1.983804017620216
 33
0.0
  0
MTEXT
  5
1B4
330
1A9
100
AcDbEntity
  8
치수문자_일반주서
 62
     0
100
AcDbMText
 10
107.7003046037031
 20
2.391195982379784
 30
0.0
 40
3.5
 41
0.0
 71
     2
 72
     1
  1
\A1;9.53 [3/8]
  7
SLDTEXTSTYLE0
 73
     1
 44
1.0
  0
POINT
  5
1B5
330
1A9
100
AcDbEntity
  8
Defpoints
 62
     0
100
AcDbPoint
 10
89.28380460370308
 20
-15.16014574844314
 30
0.0
  0
POINT
  5
1B6
330
1A9
100
AcDbEntity
  8
Defpoints
 62
     0
100
AcDbPoint
 10
79.75880460370307
 20
-15.68218805718142
 30
0.0
  0
POINT
  5
1B7
330
1A9
100
AcDbEntity
  8
Defpoints
 62
     0
100
AcDbPoint
 10
79.75880460370307
 20
-1.983804017620216
 30
0.0
  0
ENDBLK
  5
1AB
330
1A9
100
AcDbEntity
  8
0
100
AcDbBlockEnd
  0
ENDSEC
  0
SECTION
  2
ENTITIES
  0
LINE
  5
96
330
1F
100
AcDbEntity
  8
외형선
  6
Continuous
370
    15
100
AcDbLine
 10
19.21594817511139
 20
4.762499999999997
 30
0.0
 11
4.838700000000157
 21
4.762499999999996
 31
0.0
  0
LINE
  5
97
330
1F
100
AcDbEntity
  8
외형선
  6
Continuous
370
    15
100
AcDbLine
 10
-19.21594817511138
 20
-4.762500000000001
 30
0.0
 11
19.21594817511139
 21
-4.762499999999998
 31
0.0
  0
LINE
  5
98
330
1F
100
AcDbEntity
  8
외형선
  6
Continuous
370
    15
100
AcDbLine
 10
19.21594817511139
 20
-4.7625
 30
0.0
 11
23.88009053635284
 21
-3.512746820921561
 31
0.0
  0
LINE
  5
99
330
1F
100
AcDbEntity
  8
외형선
  6
Continuous
370
    15
100
AcDbLine
 10
23.88009053635284
 20
3.51274682092156
 30
0.0
 11
19.21594817511139
 21
4.762499999999998
 31
0.0
  0
SPLINE
  5
9C
330
1F
100
AcDbEntity
  8
외형선
  6
Continuous
370
    15
100
AcDbSpline
210
0.0
220
0.0
230
1.0
 70
     8
 71
     3
 72
     9
 73
     5
 74
     0
 42
0.000000001
 43
0.00000001
 40
0.0
 40
0.0
 40
0.0
 40
0.0
 40
0.499520282366379
 40
0.9999999999999999
 40
0.9999999999999999
 40
0.9999999999999999
 40
0.9999999999999999
 10
24.74239158763669
 20
-2.808717679900452
 30
0.0
 10
24.85194571285847
 20
-2.797967247935963
 30
0.0
 10
25.0712643853712
 20
-2.776445735508957
 30
0.0
 10
25.29035139518914
 20
-2.757897909752535
 30
0.0
 10
25.40000000000001
 20
-2.748615099155242
 30
0.0
  0
SPLINE
  5
9D
330
1F
100
AcDbEntity
  8
0
  6
Continuous
 62
     1
370
    15
100
AcDbSpline
210
0.0
220
0.0
230
1.0
 70
     8
 71
     3
 72
     9
 73
     5
 74
     0
 42
0.000000001
 43
0.00000001
 40
0.0
 40
0.0
 40
0.0
 40
0.0
 40
0.4709606947822358
 40
1.0
 40
1.0
 40
1.0
 40
1.0
 10
30.94677822326829
 20
0.8645013351593162
 30
0.0
 10
30.80017289104385
 20
0.9344594513404549
 30
0.0
 10
30.48888293872157
 20
1.083002879605707
 30
0.0
 10
30.17759979154402
 20
1.246082334631647
 30
0.0
 10
30.01291877163521
 20
1.332357776213861
 30
0.0
1001
PE_URL
1000

  0
LINE
  5
9E
330
1F
100
AcDbEntity
  8
0
  6
Continuous
 62
     1
370
    15
100
AcDbLine
 10
29.09363815841522
 20
0.9433303253107106
 30
0.0
 11
29.04527124804858
 21
0.9699386925293679
 31
0.0
1001
PE_URL
1000

  0
SPLINE
  5
9F
330
1F
100
AcDbEntity
  8
0
  6
Continuous
 62
     1
370
    15
100
AcDbSpline
210
0.0
220
0.0
230
1.0
 70
     8
 71
     3
 72
    16
 73
    12
 74
     0
 42
0.000000001
 43
0.00000001
 40
0.0
 40
0.0
 40
0.0
 40
0.0
 40
0.1550125100873295
 40
0.2654474897949412
 40
0.3351150912366942
 40
0.3987201982741935
 40
0.4647201560036114
 40
0.6146559842149207
 40
0.7999073257039194
 40
0.9418906884721147
 40
1.0
 40
1.0
 40
1.0
 40
1.0
 10
29.83278504892503
 20
2.680662776626558
 30
0.0
 10
29.68929806216489
 20
2.673546536666751
 30
0.0
 10
29.44358718094464
 20
2.661360500629753
 30
0.0
 10
29.13397296089169
 20
2.650535107530065
 30
0.0
 10
28.90918289228217
 20
2.644218320273886
 30
0.0
 10
28.7252402835965
 20
2.640164108312049
 30
0.0
 10
28.46700322276808
 20
2.635937445014023
 30
0.0
 10
28.09616598701821
 20
2.633306591500194
 30
0.0
 10
27.65529750870376
 20
2.636886611977832
 30
0.0
 10
27.29948058950664
 20
2.644124918768265
 30
0.0
 10
27.11458243020248
 20
2.650537208815581
 30
0.0
 10
27.06088578799538
 20
2.652399414722306
 30
0.0
1001
PE_URL
1000

  0
SPLINE
  5
A0
330
1F
100
AcDbEntity
  8
0
  6
Continuous
 62
     1
370
    15
100
AcDbSpline
210
0.0
220
0.0
230
1.0
 70
     8
 71
     3
 72
    24
 73
    20
 74
     0
 42
0.000000001
 43
0.00000001
 40
0.0
 40
0.0
 40
0.0
 40
0.0
 40
0.0643896021576654
 40
0.1150469341983208
 40
0.1760826172071805
 40
0.2252277762887622
 40
0.2816040667853681
 40
0.3426835672646586
 40
0.4064220851232668
 40
0.4607774084988669
 40
0.5072065159124857
 40
0.5770583608334129
 40
0.6605538225961298
 40
0.7539226837644424
 40
0.7963747430023339
 40
0.832392538792188
 40
0.8664291339318658
 40
0.9212040722480719
 40
1.0
 40
1.0
 40
1.0
 40
1.0
 10
38.43312133848683
 20
2.307269519326687
 30
0.0
 10
38.30625326271625
 20
2.296878781981711
 30
0.0
 10
38.07957406800237
 20
2.278313323653947
 30
0.0
 10
37.73339124026234
 20
2.256448284192158
 30
0.0
 10
37.41968453388583
 20
2.240774281284699
 30
0.0
 10
37.0936115099496
 20
2.229043239166366
 30
0.0
 10
36.76461023455363
 20
2.221606394388328
 30
0.0
 10
36.40727377717427
 20
2.218954471996707
 30
0.0
 10
36.05281871112705
 20
2.222049102182607
 30
0.0
 10
35.7301092561042
 20
2.229803034986891
 30
0.0
 10
35.39879806872625
 20
2.241958695210745
 30
0.0
 10
35.00591946640809
 20
2.262232123968841
 30
0.0
 10
34.52175444684855
 20
2.296491717279024
 30
0.0
 10
34.09088371961658
 20
2.336051900587507
 30
0.0
 10
33.75314486711114
 20
2.372578152279119
 30
0.0
 10
33.53164661052953
 20
2.398684240603837
 30
0.0
 10
33.28541118466069
 20
2.429658856092141
 30
0.0
 10
32.95693905537797
 20
2.473735100889365
 30
0.0
 10
32.69480694410195
 20
2.513701538420995
 30
0.0
 10
32.54017035672646
 20
2.537278480136997
 30
0.0
1001
PE_URL
1000

  0
SPLINE
  5
A1
330
1F
100
AcDbEntity
  8
0
  6
Continuous
 62
     1
370
    15
100
AcDbSpline
210
0.0
220
0.0
230
1.0
 70
     8
 71
     3
 72
    16
 73
    12
 74
     0
 42
0.000000001
 43
0.00000001
 40
0.0
 40
0.0
 40
0.0
 40
0.0
 40
0.1692177464275877
 40
0.29223044753462
 40
0.3701810870979584
 40
0.4422445621891845
 40
0.5265820793532877
 40
0.6214361213176092
 40
0.7152399295955171
 40
0.9535184065655956
 40
1.0
 40
1.0
 40
1.0
 40
1.0
 10
32.54017035672646
 20
-2.537278480136998
 30
0.0
 10
32.68268406238091
 20
-2.515501071181424
 30
0.0
 10
32.92879798874171
 20
-2.477892592758889
 30
0.0
 10
33.24015646345255
 20
-2.435628064925579
 30
0.0
 10
33.47094807585689
 20
-2.406198205547188
 30
0.0
 10
33.66917083011965
 20
-2.382298827968305
 30
0.0
 10
33.88122885438055
 20
-2.358499350049152
 30
0.0
 10
34.11138386118218
 20
-2.334741871845822
 30
0.0
 10
34.47127940528225
 20
-2.301466887065661
 30
0.0
 10
34.79055504396556
 20
-2.275202273144673
 30
0.0
 10
35.0302041283928
 20
-2.262829829636738
 30
0.0
 10
35.06932222277117
 20
-2.260810266682883
 30
0.0
1001
PE_URL
1000

  0
SPLINE
  5
A2
330
1F
100
AcDbEntity
  8
0
  6
Continuous
 62
     1
370
    15
100
AcDbSpline
210
0.0
220
0.0
230
1.0
 70
     8
 71
     3
 72
    21
 73
    17
 74
     0
 42
0.000000001
 43
0.00000001
 40
0.0
 40
0.0
 40
0.0
 40
0.0
 40
0.1107880219801612
 40
0.184468958437371
 40
0.229766156696504
 40
0.2735068034748276
 40
0.3346198665616974
 40
0.4110889707351985
 40
0.4998630775566588
 40
0.5991827818897768
 40
0.683772508515825
 40
0.7535936378143004
 40
0.7925590862841662
 40
0.8360167104284415
 40
0.9045663181052384
 40
1.0
 40
1.0
 40
1.0
 40
1.0
 10
25.4
 20
-2.748615099155244
 30
0.0
 10
25.56367541689464
 20
-2.73573712958451
 30
0.0
 10
25.83620518262838
 20
-2.714294507981186
 30
0.0
 10
26.17516856742228
 20
-2.692836307101828
 30
0.0
 10
26.41570772808128
 20
-2.679418849434975
 30
0.0
 10
26.63763605357992
 20
-2.668401874358594
 30
0.0
 10
26.9056411360128
 20
-2.656983539126077
 30
0.0
 10
27.24018776800268
 20
-2.64584116335236
 30
0.0
 10
27.63092361380642
 20
-2.637227042776146
 30
0.0
 10
28.03384799204552
 20
-2.633710903375414
 30
0.0
 10
28.40891458568773
 20
-2.635221697953658
 30
0.0
 10
28.69470972159143
 20
-2.639449312686575
 30
0.0
 10
28.9194564062052
 20
-2.644481557609349
 30
0.0
 10
29.14218440136388
 20
-2.650803194687245
 30
0.0
 10
29.44872667298649
 20
-2.6615946523365
 30
0.0
 10
29.69149859156194
 20
-2.673648041632386
 30
0.0
 10
29.83278504892503
 20
-2.68066277662656
 30
0.0
1001
PE_URL
1000

  0
LINE
  5
A3
330
1F
100
AcDbEntity
  8
외형선
  6
Continuous
370
    15
100
AcDbLine
 10
19.21594817511139
 20
4.762499999999998
 30
0.0
 11
19.21594817511139
 21
-4.762500000000004
 31
0.0
  0
SPLINE
  5
A5
330
1F
100
AcDbEntity
  8
외형선
  6
Continuous
370
    15
100
AcDbSpline
210
0.0
220
0.0
230
1.0
 70
     8
 71
     3
 72
     8
 73
     4
 74
     0
 42
0.000000001
 43
0.00000001
 40
0.0
 40
0.0
 40
0.0
 40
0.0
 40
1.0
 40
1.0
 40
1.0
 40
1.0
 10
24.40000000000002
 20
3.303299783518872
 30
0.0
 10
24.22638223070124
 20
3.365242199785385
 30
0.0
 10
24.05312520497239
 20
3.424722382665146
 30
0.0
 10
23.88018543817642
 20
3.481588602924035
 30
0.0
  0
LINE
  5
A6
330
1F
100
AcDbEntity
  8
외형선
  6
Continuous
370
    15
100
AcDbLine
 10
24.40000000000002
 20
3.30329978351885
 30
0.0
 11
24.40000000000002
 21
2.985824801042666
 31
0.0
  0
SPLINE
  5
A7
330
1F
100
AcDbEntity
  8
외형선
  6
Continuous
370
    15
100
AcDbSpline
210
0.0
220
0.0
230
1.0
 70
     8
 71
     3
 72
     8
 73
     4
 74
     0
 42
0.000000001
 43
0.00000001
 40
0.0
 40
0.0
 40
0.0
 40
0.0
 40
1.0
 40
1.0
 40
1.0
 40
1.0
 10
23.88009053635284
 20
3.222637100015478
 30
0.0
 10
24.05370448344168
 20
3.14604563248405
 30
0.0
 10
24.22698718540733
 20
3.067126603382765
 30
0.0
 10
24.40000000000086
 20
2.985824801039479
 30
0.0
  0
LINE
  5
A8
330
1F
100
AcDbEntity
  8
외형선
  6
Continuous
370
    15
100
AcDbLine
 10
23.88009053635284
 20
-3.512746820921561
 30
0.0
 11
23.88009053635284
 21
3.222663089055581
 31
0.0
  0
SPLINE
  5
A9
330
1F
100
AcDbEntity
  8
외형선
  6
Continuous
370
    15
100
AcDbSpline
210
0.0
220
0.0
230
1.0
 70
     8
 71
     3
 72
     8
 73
     4
 74
     0
 42
0.000000001
 43
0.00000001
 40
0.0
 40
0.0
 40
0.0
 40
0.0
 40
1.0
 40
1.0
 40
1.0
 40
1.0
 10
24.40000000000002
 20
-3.303299783518873
 30
0.0
 10
24.22638223070124
 20
-3.365242199785387
 30
0.0
 10
24.05312520497239
 20
-3.424722382665148
 30
0.0
 10
23.88018543817642
 20
-3.481588602924036
 30
0.0
  0
LINE
  5
AA
330
1F
100
AcDbEntity
  8
외형선
  6
Continuous
370
    15
100
AcDbLine
 10
23.88009053635284
 20
3.481623369732443
 30
0.0
 11
23.88009053635284
 21
3.51274682092156
 31
0.0
  0
SPLINE
  5
AC
330
1F
100
AcDbEntity
  8
외형선
  6
Continuous
370
    15
100
AcDbSpline
210
0.0
220
0.0
230
1.0
 70
    24
 71
     3
 72
    14
 73
    10
 74
     0
 42
0.000000001
 43
0.00000001
 40
0.0
 40
0.0
 40
0.0
 40
0.0
 40
0.2500000000000001
 40
0.2500000000000001
 40
0.5000000000000001
 40
0.5000000000000001
 40
0.7500000000000001
 40
0.7500000000000001
 40
1.0
 40
1.0
 40
1.0
 40
1.0
 10
25.40000000000002
 20
1.811814560660443
 30
0.0
 10
25.40000000000002
 20
1.575741709660123
 30
0.0
 10
25.40000000000002
 20
1.309629082891867
 30
0.0
 10
25.40000000000002
 20
0.735141728550952
 30
0.0
 10
25.40000000000001
 20
0.4269641005482485
 30
0.0
 10
25.40000000000002
 20
-0.2026612259919224
 30
0.0
 10
25.40000000000002
 20
-0.5237734338318948
 30
0.0
 10
25.40000000000002
 20
-1.147545716599131
 30
0.0
 10
25.40000000000002
 20
-1.449939468615177
 30
0.0
 10
25.40000000000002
 20
-1.730803272403338
 30
0.0
  0
SPLINE
  5
AD
330
1F
100
AcDbEntity
  8
외형선
  6
Continuous
370
    15
100
AcDbSpline
210
0.0
220
0.0
230
1.0
 70
     8
 71
     3
 72
    10
 73
     6
 74
     0
 42
0.000000001
 43
0.00000001
 40
0.0
 40
0.0
 40
0.0
 40
0.0
 40
0.5000000000000001
 40
0.5000000000000001
 40
1.0
 40
1.0
 40
1.0
 40
1.0
 10
25.39999999999959
 20
-1.730803272403188
 30
0.0
 10
25.14592677402143
 20
-1.640942790620083
 30
0.0
 10
24.89081942338991
 20
-1.546051726002583
 30
0.0
 10
24.38498784327405
 20
-1.348650234155598
 30
0.0
 10
24.13417120797389
 20
-1.246158152451059
 30
0.0
 10
23.88012518252793
 20
-1.14000565010351
 30
0.0
  0
SPLINE
  5
AE
330
1F
100
AcDbEntity
  8
외형선
  6
Continuous
370
    15
100
AcDbSpline
210
0.0
220
0.0
230
1.0
 70
     8
 71
     3
 72
    10
 73
     6
 74
     0
 42
0.000000001
 43
0.00000001
 40
0.0
 40
0.0
 40
0.0
 40
0.0
 40
0.5
 40
0.5
 40
1.0
 40
1.0
 40
1.0
 40
1.0
 10
25.39999999999937
 20
1.811814560660611
 30
0.0
 10
25.1459248090056
 20
1.877538285643027
 30
0.0
 10
24.89081547746083
 20
1.938210023680259
 30
0.0
 10
24.38498005281984
 20
2.047963213817971
 30
0.0
 10
24.13416141727713
 20
2.097093605490824
 30
0.0
 10
23.8801133936955
 20
2.140381265899759
 30
0.0
  0
LINE
  5
AF
330
1F
100
AcDbEntity
  8
외형선
  6
Continuous
370
    15
100
AcDbLine
 10
24.750781188594
 20
-2.784761805515504
 30
0.0
 11
23.88018543817642
 21
-2.863104857764548
 31
0.0
  0
SPLINE
  5
B0
330
1F
100
AcDbEntity
  8
외형선
  6
Continuous
370
    15
100
AcDbSpline
210
0.0
220
0.0
230
1.0
 70
    24
 71
     3
 72
    12
 73
     8
 74
     0
 42
0.000000001
 43
0.00000001
 40
0.0
 40
0.0
 40
0.0
 40
0.0
 40
0.2998127599198966
 40
0.5185687082422165
 40
0.7436685938854638
 40
0.9406595770112206
 40
1.0
 40
1.0
 40
1.0
 40
1.0
 10
25.40000000000002
 20
-1.730803272403339
 30
0.0
 10
25.40000000000001
 20
-1.911548607294431
 30
0.0
 10
25.40000000000001
 20
-2.224173309659745
 30
0.0
 10
25.40000000000002
 20
-2.523749572783217
 30
0.0
 10
25.40000000000001
 20
-2.685809384986682
 30
0.0
 10
25.40000000000001
 20
-2.753920976150013
 30
0.0
 10
25.40000000000001
 20
-2.74227263555235
 30
0.0
 10
25.40000000000001
 20
-2.73957605822435
 30
0.0
  0
SPLINE
  5
B1
330
1F
100
AcDbEntity
  8
외형선
  6
Continuous
370
    15
100
AcDbSpline
210
0.0
220
0.0
230
1.0
 70
     8
 71
     3
 72
     8
 73
     4
 74
     0
 42
0.000000001
 43
0.00000001
 40
0.0
 40
0.0
 40
0.0
 40
0.0
 40
1.0
 40
1.0
 40
1.0
 40
1.0
 10
25.39999999999239
 20
2.675050653086394
 30
0.0
 10
25.06601257111782
 20
2.792298725546708
 30
0.0
 10
24.73024896481826
 20
2.896595066756443
 30
0.0
 10
24.40000000000004
 20
2.985824801042661
 30
0.0
  0
SPLINE
  5
B2
330
1F
100
AcDbEntity
  8
외형선
  6
Continuous
370
    15
100
AcDbSpline
210
0.0
220
0.0
230
1.0
 70
    24
 71
     3
 72
    10
 73
     6
 74
     0
 42
0.000000001
 43
0.00000001
 40
0.0
 40
0.0
 40
0.0
 40
0.0
 40
0.5
 40
0.5
 40
1.0
 40
1.0
 40
1.0
 40
1.0
 10
25.40000000000002
 20
2.675050653083718
 30
0.0
 10
25.40000000000002
 20
2.573148868459047
 30
0.0
 10
25.40000000000002
 20
2.44027151275147
 30
0.0
 10
25.40000000000002
 20
2.14055145008449
 30
0.0
 10
25.40000000000001
 20
1.974644365345559
 30
0.0
 10
25.40000000000002
 20
1.811814560660443
 30
0.0
  0
SPLINE
  5
B3
330
1F
100
AcDbEntity
  8
외형선
  6
Continuous
370
    15
100
AcDbSpline
210
0.0
220
0.0
230
1.0
 70
     8
 71
     3
 72
     8
 73
     4
 74
     0
 42
0.000000001
 43
0.00000001
 40
0.0
 40
0.0
 40
0.0
 40
0.0
 40
1.0
 40
1.0
 40
1.0
 40
1.0
 10
25.39999999999986
 20
3.138635855773602
 30
0.0
 10
25.06601257112283
 20
3.209177321244661
 30
0.0
 10
24.73024896482072
 20
3.26440734382881
 30
0.0
 10
24.40000000000004
 20
3.303299783518849
 30
0.0
  0
LINE
  5
B4
330
1F
100
AcDbEntity
  8
외형선
  6
Continuous
370
    15
100
AcDbLine
 10
25.40000000000002
 20
3.138635855773567
 30
0.0
 11
25.40000000000002
 21
2.675050653083718
 31
0.0
  0
SPLINE
  5
B5
330
1F
100
AcDbEntity
  8
외형선
  6
Continuous
370
    15
100
AcDbSpline
210
0.0
220
0.0
230
1.0
 70
     8
 71
     3
 72
     8
 73
     4
 74
     0
 42
0.000000001
 43
0.00000001
 40
0.0
 40
0.0
 40
0.0
 40
0.0
 40
1.0
 40
1.0
 40
1.0
 40
1.0
 10
25.39999999999986
 20
-3.138635855773603
 30
0.0
 10
25.06601257112283
 20
-3.209177321244663
 30
0.0
 10
24.73024896482072
 20
-3.264407343828811
 30
0.0
 10
24.40000000000004
 20
-3.303299783518851
 30
0.0
  0
SPLINE
  5
B6
330
1F
100
AcDbEntity
  8
외형선
  6
Continuous
370
    15
100
AcDbSpline
210
0.0
220
0.0
230
1.0
 70
    24
 71
     3
 72
    10
 73
     6
 74
     0
 42
0.000000001
 43
0.00000001
 40
0.0
 40
0.0
 40
0.0
 40
0.0
 40
0.3963818666158292
 40
0.8476393516036209
 40
1.0
 40
1.0
 40
1.0
 40
1.0
 10
25.40000000000001
 20
-2.748615099155242
 30
0.0
 10
25.40000000000001
 20
-2.802809468548079
 30
0.0
 10
25.40000000000001
 20
-2.918700945938073
 30
0.0
 10
25.40000000000001
 20
-3.046339618895894
 30
0.0
 10
25.40000000000001
 20
-3.120034388582625
 30
0.0
 10
25.40000000000001
 20
-3.138635855755159
 30
0.0
  0
SPLINE
  5
B7
330
1F
100
AcDbEntity
  8
0
  6
Continuous
 62
     1
370
    15
100
AcDbSpline
210
0.0
220
0.0
230
1.0
 70
     8
 71
     3
 72
    38
 73
    34
 74
     0
 42
0.000000001
 43
0.00000001
 40
0.0
 40
0.0
 40
0.0
 40
0.0
 40
0.0625
 40
0.0625
 40
0.125
 40
0.125
 40
0.1875
 40
0.1875
 40
0.25
 40
0.25
 40
0.3125
 40
0.3125
 40
0.375
 40
0.375
 40
0.4375
 40
0.4375
 40
0.5
 40
0.5
 40
0.5625
 40
0.5625
 40
0.625
 40
0.625
 40
0.6875
 40
0.6875
 40
0.75
 40
0.75
 40
0.8125
 40
0.8125
 40
0.875
 40
0.875
 40
0.9375
 40
0.9375
 40
1.0
 40
1.0
 40
1.0
 40
1.0
 10
39.68750000000002
 20
-3.201192713549487
 30
0.0
 10
39.39237082838004
 20
-3.14713246687797
 30
0.0
 10
39.09278379535549
 20
-3.08033650503461
 30
0.0
 10
38.4950909389507
 20
-2.923297630024147
 30
0.0
 10
38.19991881677271
 20
-2.833411335105154
 30
0.0
 10
37.6054045048906
 20
-2.631962605090027
 30
0.0
 10
37.30516686175752
 20
-2.520212701018191
 30
0.0
 10
36.70920208532466
 20
-2.278511295450734
 30
0.0
 10
36.41489130601888
 20
-2.148844817679591
 30
0.0
 10
35.81781858629455
 20
-1.872582985018631
 30
0.0
 10
35.51780772907366
 20
-1.726340313293723
 30
0.0
 10
34.92528249558561
 20
-1.422835022465565
 30
0.0
 10
34.62827123918491
 20
-1.264835934169793
 30
0.0
 10
34.03036222168179
 20
-0.9395082643537144
 30
0.0
 10
33.7334980377987
 20
-0.7729213760661682
 30
0.0
 10
33.14083102674425
 20
-0.4352589423719734
 30
0.0
 10
32.84079849575909
 20
-0.2633703126154476
 30
0.0
 10
32.24378334315719
 20
0.0805498074640561
 30
0.0
 10
31.9495012575217
 20
0.2520533449245682
 30
0.0
 10
31.35345125352154
 20
0.5932051938919614
 30
0.0
 10
31.05322116530668
 20
0.7625407205056345
 30
0.0
 10
30.45882143386783
 20
1.092839010884069
 30
0.0
 10
30.16355935149642
 20
1.254031798091431
 30
0.0
 10
29.5658386356849
 20
1.566690419654588
 30
0.0
 10
29.26645545860767
 20
1.71756968298008
 30
0.0
 10
28.67602845683297
 20
2.003500987754392
 30
0.0
 10
28.37640568077233
 20
2.139929567926528
 30
0.0
 10
27.77874260149466
 20
2.394768720814339
 30
0.0
 10
27.48365649599358
 20
2.512826177124695
 30
0.0
 10
26.88902948749055
 20
2.729137213876337
 30
0.0
 10
26.58878526313416
 20
2.827389941532596
 30
0.0
 10
25.9929076135322
 20
3.000617472519163
 30
0.0
 10
25.69856418787407
 20
3.075576130979181
 30
0.0
 10
25.39999999999542
 20
3.138635855774539
 30
0.0
1001
PE_URL
1000

  0
SPLINE
  5
B8
330
1F
100
AcDbEntity
  8
0
  6
Continuous
 62
     1
370
    15
100
AcDbSpline
210
0.0
220
0.0
230
1.0
 70
     8
 71
     3
 72
    14
 73
    10
 74
     0
 42
0.000000001
 43
0.00000001
 40
0.0
 40
0.0
 40
0.0
 40
0.0
 40
0.1505575559404219
 40
0.3010063662668522
 40
0.4513879232118944
 40
0.6017441440296497
 40
0.752117106502938
 40
0.902548782314839
 40
1.0
 40
1.0
 40
1.0
 40
1.0
 10
39.68750000000001
 20
-2.661548623079656
 30
0.0
 10
39.24799280308219
 20
-2.568281343689654
 30
0.0
 10
38.36929585913927
 20
-2.381814150559279
 30
0.0
 10
37.05179888892843
 20
-1.945299640371427
 30
0.0
 10
35.73496285695762
 20
-1.4201915655351
 30
0.0
 10
34.41838671912716
 20
-0.8201980400962945
 30
0.0
 10
33.10163494154484
 20
-0.1810739517306392
 30
0.0
 10
31.9392451262011
 20
0.3968560372358394
 30
0.0
 10
31.21564885443636
 20
0.7347955011892586
 30
0.0
 10
30.93117848699347
 20
0.8676510274481594
 30
0.0
1001
PE_URL
1000

  0
LINE
  5
B9
330
1F
100
AcDbEntity
  8
0
  6
Continuous
 62
     1
370
    15
100
AcDbLine
 10
39.68749999999994
 20
-3.201192713549489
 30
0.0
 11
39.68750000000001
 21
-2.661548623079656
 31
0.0
1001
PE_URL
1000

  0
SPLINE
  5
BA
330
1F
100
AcDbEntity
  8
0
  6
Continuous
 62
     1
370
    15
100
AcDbSpline
210
0.0
220
0.0
230
1.0
 70
     8
 71
     3
 72
    38
 73
    34
 74
     0
 42
0.000000001
 43
0.00000001
 40
0.0
 40
0.0
 40
0.0
 40
0.0
 40
0.0625
 40
0.0625
 40
0.125
 40
0.125
 40
0.1875
 40
0.1875
 40
0.25
 40
0.25
 40
0.3125
 40
0.3125
 40
0.375
 40
0.375
 40
0.4375
 40
0.4375
 40
0.5
 40
0.5
 40
0.5625
 40
0.5625
 40
0.625
 40
0.625
 40
0.6875
 40
0.6875
 40
0.75
 40
0.75
 40
0.8125
 40
0.8125
 40
0.875
 40
0.875
 40
0.9375
 40
0.9375
 40
1.0
 40
1.0
 40
1.0
 40
1.0
 10
39.68750000000001
 20
-3.37058632200125
 30
0.0
 10
39.39237082838013
 20
-3.363541970342772
 30
0.0
 10
39.09278379535567
 20
-3.343338059874017
 30
0.0
 10
38.49509093895107
 20
-3.276990724082875
 30
0.0
 10
38.19991881677316
 20
-3.231062882680468
 30
0.0
 10
37.60540450489124
 20
-3.114312928410508
 30
0.0
 10
37.30516686175827
 20
-3.043331490817389
 30
0.0
 10
36.70920208532559
 20
-2.878573657692331
 30
0.0
 10
36.4148913060199
 20
-2.785042039374495
 30
0.0
 10
35.81781858629576
 20
-2.576162456932998
 30
0.0
 10
35.51780772907496
 20
-2.461036993280133
 30
0.0
 10
34.92528249558706
 20
-2.213576125856186
 30
0.0
 10
34.62827123918649
 20
-2.080659862069603
 30
0.0
 10
34.03036222168355
 20
-1.79904575136011
 30
0.0
 10
33.73349803780052
 20
-1.650990981696058
 30
0.0
 10
33.14083102674628
 20
-1.343435628541551
 30
0.0
 10
32.84079849576123
 20
-1.1831758199116
 30
0.0
 10
32.24378334315949
 20
-0.8552069662169344
 30
0.0
 10
31.94950125752409
 20
-0.6880370547026629
 30
0.0
 10
31.35345125352413
 20
-0.3482563571434877
 30
0.0
 10
31.05322116530936
 20
-0.1759211339344661
 30
0.0
 10
30.45882143387065
 20
0.1676223321081724
 30
0.0
 10
30.16355935149937
 20
0.3390395452813844
 30
0.0
 10
29.56583863568805
 20
0.6792785619629814
 30
0.0
 10
29.26645545861084
 20
0.847492486460374
 30
0.0
 10
28.67602845683638
 20
1.174514886252847
 30
0.0
 10
28.37640568077585
 20
1.33489936911218
 30
0.0
 10
27.77874260149836
 20
1.643713844506388
 30
0.0
 10
27.48365649599732
 20
1.791675140873431
 30
0.0
 10
26.88902948749453
 20
2.073299147906545
 30
0.0
 10
26.58878526313823
 20
2.207008863799791
 30
0.0
 10
25.99290761353641
 20
2.455524924795066
 30
0.0
 10
25.6985641878784
 20
2.570238098753642
 30
0.0
 10
25.39999999999986
 20
2.675050653083775
 30
0.0
1001
PE_URL
1000

  0
SPLINE
  5
BB
330
1F
100
AcDbEntity
  8
0
  6
Continuous
 62
     1
370
    15
100
AcDbSpline
210
0.0
220
0.0
230
1.0
 70
     8
 71
     3
 72
    12
 73
     8
 74
     0
 42
0.000000001
 43
0.00000001
 40
0.0
 40
0.0
 40
0.0
 40
0.0
 40
0.1424738848985959
 40
0.3656508550693595
 40
0.5886567313931366
 40
0.7943517130538604
 40
1.0
 40
1.0
 40
1.0
 40
1.0
 10
31.30812118404392
 20
-0.3199591607096126
 30
0.0
 10
31.02751687828484
 20
-0.2076466743907919
 30
0.0
 10
30.30736241341588
 20
0.0805967232443016
 30
0.0
 10
29.14790950098341
 20
0.5502409618768643
 30
0.0
 10
27.86405471986583
 20
1.039694184049986
 30
0.0
 10
26.6149419815719
 20
1.473982894739615
 30
0.0
 10
25.80495001106664
 20
1.699212527865182
 30
0.0
 10
25.40000000000001
 20
1.811814560660445
 30
0.0
1001
PE_URL
1000

  0
SPLINE
  5
BC
330
1F
100
AcDbEntity
  8
외형선
  6
Continuous
370
    15
100
AcDbSpline
210
0.0
220
0.0
230
1.0
 70
    24
 71
     3
 72
    10
 73
     6
 74
     0
 42
0.000000001
 43
0.00000001
 40
0.0
 40
0.0
 40
0.0
 40
0.0
 40
0.5
 40
0.5
 40
1.0
 40
1.0
 40
1.0
 40
1.0
 10
25.40000000000002
 20
2.675050653083719
 30
0.0
 10
25.40000000000002
 20
2.573148868459048
 30
0.0
 10
25.40000000000002
 20
2.440271512751471
 30
0.0
 10
25.40000000000002
 20
2.140551450084489
 30
0.0
 10
25.40000000000001
 20
1.97464436534556
 30
0.0
 10
25.40000000000002
 20
1.811814560660443
 30
0.0
  0
LINE
  5
BD
330
1F
100
AcDbEntity
  8
0
  6
Continuous
 62
     1
370
    15
100
AcDbLine
 10
39.68750000000001
 20
-3.370586322001253
 30
0.0
 11
39.68749999999993
 21
-3.201192713549484
 31
0.0
1001
PE_URL
1000

  0
SPLINE
  5
BE
330
1F
100
AcDbEntity
  8
0
  6
Continuous
 62
     1
370
    15
100
AcDbSpline
210
0.0
220
0.0
230
1.0
 70
     8
 71
     3
 72
     8
 73
     4
 74
     0
 42
0.000000001
 43
0.00000001
 40
0.0
 40
0.0
 40
0.0
 40
0.0
 40
1.0
 40
1.0
 40
1.0
 40
1.0
 10
37.59960752883502
 20
0.9442007150785648
 30
0.0
 10
37.47989420105901
 20
1.086055429484678
 30
0.0
 10
37.3731069501563
 20
1.222523941505303
 30
0.0
 10
37.28225993695483
 20
1.352350272207212
 30
0.0
1001
PE_URL
1000

  0
LINE
  5
BF
330
1F
100
AcDbEntity
  8
0
  6
Continuous
 62
     1
370
    15
100
AcDbLine
 10
37.32490115949398
 20
1.388130506312758
 30
0.0
 11
39.68750000000001
 21
0.0000000000000014
 31
0.0
1001
PE_URL
1000

  0
LINE
  5
C0
330
1F
100
AcDbEntity
  8
0
  6
Continuous
 62
     1
370
    15
100
AcDbLine
 10
39.68750000000001
 20
0.0000000000000014
 30
0.0
 11
39.68750000000001
 21
-0.9015273757468788
 31
0.0
1001
PE_URL
1000

  0
SPLINE
  5
C1
330
1F
100
AcDbEntity
  8
0
  6
Continuous
 62
     1
370
    15
100
AcDbSpline
210
0.0
220
0.0
230
1.0
 70
     8
 71
     3
 72
    10
 73
     6
 74
     0
 42
0.000000001
 43
0.00000001
 40
0.0
 40
0.0
 40
0.0
 40
0.0
 40
0.5
 40
0.5
 40
1.0
 40
1.0
 40
1.0
 40
1.0
 10
39.68750000000002
 20
-0.9015273757468798
 30
0.0
 10
39.3260710598385
 20
-0.6173817299134641
 30
0.0
 10
38.9706829027049
 20
-0.3215816480120652
 30
0.0
 10
38.27228947992164
 20
0.2939087327493055
 30
0.0
 10
37.92603287596797
 20
0.6168424783162667
 30
0.0
 10
37.59960752883502
 20
0.9442007150785662
 30
0.0
1001
PE_URL
1000

  0
SPLINE
  5
C2
330
1F
100
AcDbEntity
  8
0
  6
Continuous
 62
     1
370
    15
100
AcDbSpline
210
0.0
220
0.0
230
1.0
 70
     8
 71
     3
 72
    14
 73
    10
 74
     0
 42
0.000000001
 43
0.00000001
 40
0.0
 40
0.0
 40
0.0
 40
0.0
 40
0.1200585673958954
 40
0.2400145155297529
 40
0.4094575785889686
 40
0.5789197673694191
 40
0.7484490401727855
 40
0.9180929292372703
 40
1.0
 40
1.0
 40
1.0
 40
1.0
 10
37.59960751710398
 20
0.9442007201431223
 30
0.0
 10
37.28865840176933
 20
1.076293037150204
 30
0.0
 10
36.66702595278838
 20
1.340364766134878
 30
0.0
 10
35.60675948628666
 20
1.745322875249401
 30
0.0
 10
34.41835089505332
 20
2.134907555248733
 30
0.0
 10
33.10161282187975
 20
2.459568196279555
 30
0.0
 10
31.7842705959234
 20
2.6527151512957
 30
0.0
 10
30.6935761193962
 20
2.723895878427451
 30
0.0
 10
30.04197811243782
 20
2.678356049315246
 30
0.0
 10
29.82981241805346
 20
2.663527904719103
 30
0.0
1001
PE_URL
1000

  0
SPLINE
  5
C3
330
1F
100
AcDbEntity
  8
0
  6
Continuous
 62
     1
370
    15
100
AcDbSpline
210
0.0
220
0.0
230
1.0
 70
    24
 71
     3
 72
    10
 73
     6
 74
     0
 42
0.000000001
 43
0.00000001
 40
0.0
 40
0.0
 40
0.0
 40
0.0
 40
0.5000000000000001
 40
0.5000000000000001
 40
1.0
 40
1.0
 40
1.0
 40
1.0
 10
39.68750000000001
 20
-2.661548623079654
 30
0.0
 10
39.68750000000002
 20
-2.457520170092525
 30
0.0
 10
39.68750000000001
 20
-2.199722396490729
 30
0.0
 10
39.68750000000002
 20
-1.600367383134873
 30
0.0
 10
39.68750000000001
 20
-1.259329327418404
 30
0.0
 10
39.68750000000001
 20
-0.9015273757469884
 30
0.0
1001
PE_URL
1000

  0
SPLINE
  5
C4
330
1F
100
AcDbEntity
  8
0
  6
Continuous
 62
     1
370
    15
100
AcDbSpline
210
0.0
220
0.0
230
1.0
 70
    24
 71
     3
 72
     8
 73
     4
 74
     0
 42
0.000000001
 43
0.00000001
 40
0.0
 40
0.0
 40
0.0
 40
0.0
 40
1.0
 40
1.0
 40
1.0
 40
1.0
 10
37.63437762559194
 20
1.647812094873604
 30
0.0
 10
37.52315860707984
 20
1.554488257460203
 30
0.0
 10
37.40509195927869
 20
1.455418576835778
 30
0.0
 10
37.28225993695493
 20
1.352350272207159
 30
0.0
1001
PE_URL
1000

  0
LINE
  5
C5
330
1F
100
AcDbEntity
  8
0
  6
Continuous
 62
     1
370
    15
100
AcDbLine
 10
39.68750000000001
 20
2.361406249999999
 30
0.0
 11
38.43238834573295
 21
2.304482171447889
 31
0.0
1001
PE_URL
1000

  0
SPLINE
  5
C6
330
1F
100
AcDbEntity
  8
0
  6
Continuous
 62
     1
370
    15
100
AcDbSpline
210
0.0
220
0.0
230
1.0
 70
     8
 71
     3
 72
     8
 73
     4
 74
     0
 42
0.000000001
 43
0.00000001
 40
0.0
 40
0.0
 40
0.0
 40
0.0
 40
1.0
 40
1.0
 40
1.0
 40
1.0
 10
39.68750000000001
 20
2.361406250000001
 30
0.0
 10
38.99365870433165
 20
2.1730994879465
 30
0.0
 10
38.30619582712229
 20
1.941814130637664
 30
0.0
 10
37.63437762560509
 20
1.647812094879369
 30
0.0
1001
PE_URL
1000

  0
SPLINE
  5
C7
330
1F
100
AcDbEntity
  8
0
  6
Continuous
 62
     1
370
    15
100
AcDbSpline
210
0.0
220
0.0
230
1.0
 70
     8
 71
     3
 72
    13
 73
     9
 74
     0
 42
0.000000001
 43
0.00000001
 40
0.0
 40
0.0
 40
0.0
 40
0.0
 40
0.1069174399535651
 40
0.2912977694549466
 40
0.4757359994383355
 40
0.6600365063520828
 40
0.8300370437199458
 40
1.0
 40
1.0
 40
1.0
 40
1.0
 10
32.54888762515763
 20
-2.520379233636208
 30
0.0
 10
32.29411025626421
 20
-2.562579525763016
 30
0.0
 10
31.59996644494132
 20
-2.677554697000048
 30
0.0
 10
30.46617986081049
 20
-2.717892467871952
 30
0.0
 10
29.14790700344111
 20
-2.649507822070788
 30
0.0
 10
27.86403731904858
 20
-2.44487601190981
 30
0.0
 10
26.61494457808164
 20
-2.139990250896306
 30
0.0
 10
25.80495167927915
 20
-1.86718887967237
 30
0.0
 10
25.40000000000001
 20
-1.730803272403338
 30
0.0
1001
PE_URL
1000

  0
SPLINE
  5
C8
330
1F
100
AcDbEntity
  8
외형선
  6
Continuous
370
    15
100
AcDbSpline
210
0.0
220
0.0
230
1.0
 70
    24
 71
     3
 72
    14
 73
    10
 74
     0
 42
0.000000001
 43
0.00000001
 40
0.0
 40
0.0
 40
0.0
 40
0.0
 40
0.2500000000000001
 40
0.2500000000000001
 40
0.5000000000000001
 40
0.5000000000000001
 40
0.7500000000000001
 40
0.7500000000000001
 40
1.0
 40
1.0
 40
1.0
 40
1.0
 10
25.40000000000002
 20
1.811814560660443
 30
0.0
 10
25.40000000000002
 20
1.575741709660123
 30
0.0
 10
25.40000000000002
 20
1.309629082891867
 30
0.0
 10
25.40000000000002
 20
0.735141728550952
 30
0.0
 10
25.40000000000001
 20
0.4269641005482485
 30
0.0
 10
25.40000000000002
 20
-0.2026612259919224
 30
0.0
 10
25.40000000000002
 20
-0.5237734338318948
 30
0.0
 10
25.40000000000002
 20
-1.147545716599131
 30
0.0
 10
25.40000000000002
 20
-1.449939468615177
 30
0.0
 10
25.40000000000002
 20
-1.730803272403338
 30
0.0
  0
SPLINE
  5
C9
330
1F
100
AcDbEntity
  8
외형선
  6
Continuous
370
    15
100
AcDbSpline
210
0.0
220
0.0
230
1.0
 70
    24
 71
     3
 72
    12
 73
     8
 74
     0
 42
0.000000001
 43
0.00000001
 40
0.0
 40
0.0
 40
0.0
 40
0.0
 40
0.3000231305892145
 40
0.5189325741639648
 40
0.744190406432362
 40
0.9413196129111906
 40
1.0
 40
1.0
 40
1.0
 40
1.0
 10
25.40000000000002
 20
-1.730803272403339
 30
0.0
 10
25.40000000000001
 20
-1.911547666644562
 30
0.0
 10
25.40000000000001
 20
-2.224170742022458
 30
0.0
 10
25.40000000000002
 20
-2.52375677886793
 30
0.0
 10
25.40000000000001
 20
-2.68578267629967
 30
0.0
 10
25.40000000000001
 20
-2.753882539222868
 30
0.0
 10
25.40000000000001
 20
-2.74229856519165
 30
0.0
 10
25.40000000000001
 20
-2.739641307226074
 30
0.0
  0
LINE
  5
CA
330
1F
100
AcDbEntity
  8
0
  6
Continuous
 62
     1
370
    15
100
AcDbLine
 10
39.68750000000001
 20
0.0000000000000014
 30
0.0
 11
39.68750000000001
 21
2.36140625
 31
0.0
1001
PE_URL
1000

  0
SPLINE
  5
CB
330
1F
100
AcDbEntity
  8
0
  6
Continuous
 62
     1
370
    15
100
AcDbSpline
210
0.0
220
0.0
230
1.0
 70
     8
 71
     3
 72
    11
 73
     7
 74
     0
 42
0.000000001
 43
0.00000001
 40
0.0
 40
0.0
 40
0.0
 40
0.0
 40
0.1835096088594672
 40
0.4554898237497663
 40
0.7276001117709193
 40
1.0
 40
1.0
 40
1.0
 40
1.0
 10
35.0679135487251
 20
2.260230937590056
 30
0.0
 10
35.35046930701817
 20
2.381026618814492
 30
0.0
 10
36.05180191485429
 20
2.680853989667789
 30
0.0
 10
37.17204950528917
 20
3.024191846456687
 30
0.0
 10
38.42926475841547
 20
3.296180694847371
 30
0.0
 10
39.26793956847077
 20
3.34577565384863
 30
0.0
 10
39.68750000000001
 20
3.370586322001249
 30
0.0
1001
PE_URL
1000

  0
SPLINE
  5
CC
330
1F
100
AcDbEntity
  8
0
  6
Continuous
 62
     1
370
    15
100
AcDbSpline
210
0.0
220
0.0
230
1.0
 70
    24
 71
     3
 72
    10
 73
     6
 74
     0
 42
0.000000001
 43
0.00000001
 40
0.0
 40
0.0
 40
0.0
 40
0.0
 40
0.5
 40
0.5
 40
1.0
 40
1.0
 40
1.0
 40
1.0
 10
39.68750000000001
 20
2.361406249999999
 30
0.0
 10
39.68750000000001
 20
2.504548816323422
 30
0.0
 10
39.68750000000002
 20
2.670893734818915
 30
0.0
 10
39.68750000000001
 20
3.019884925803885
 30
0.0
 10
39.68750000000001
 20
3.20163991858653
 30
0.0
 10
39.68750000000001
 20
3.370586322001251
 30
0.0
1001
PE_URL
1000

  0
SPLINE
  5
CD
330
1F
100
AcDbEntity
  8
0
  6
Continuous
 62
     1
370
    15
100
AcDbSpline
210
0.0
220
0.0
230
1.0
 70
     8
 71
     3
 72
     9
 73
     5
 74
     0
 42
0.000000001
 43
0.00000001
 40
0.0
 40
0.0
 40
0.0
 40
0.0
 40
0.2435822840673549
 40
1.0
 40
1.0
 40
1.0
 40
1.0
 10
27.06088578799538
 20
-2.652399414722308
 30
0.0
 10
26.92603018805077
 20
-2.704056779124806
 30
0.0
 10
26.37239550784009
 20
-2.916130348433378
 30
0.0
 10
25.81877121959478
 20
-3.042811778097172
 30
0.0
 10
25.39999999999542
 20
-3.13863585577454
 30
0.0
1001
PE_URL
1000

  0
SPLINE
  5
CE
330
1F
100
AcDbEntity
  8
외형선
  6
Continuous
370
    15
100
AcDbSpline
210
0.0
220
0.0
230
1.0
 70
    24
 71
     3
 72
     8
 73
     4
 74
     0
 42
0.000000001
 43
0.00000001
 40
0.0
 40
0.0
 40
0.0
 40
0.0
 40
1.0
 40
1.0
 40
1.0
 40
1.0
 10
25.40000000000003
 20
-2.726339991213458
 30
0.0
 10
25.40000000000003
 20
-2.872291488701682
 30
0.0
 10
25.40000000000003
 20
-3.010644526889454
 30
0.0
 10
25.40000000000003
 20
-3.138635855764
 30
0.0
  0
LINE
  5
CF
330
1F
100
AcDbEntity
  8
중심선
 62
     1
100
AcDbLine
 10
-42.68750000000001
 20
-0.0000000000000052
 30
0.0
 11
42.6875
 21
0.0000000000000052
 31
0.0
  0
LINE
  5
D0
330
1F
100
AcDbEntity
  8
참조1
100
AcDbLine
 10
-0.0000000000000018
 20
-0.0000000000000048
 30
0.0
 11
0.0000000000000036
 21
-40.00000000000001
 31
0.0
  0
LINE
  5
D1
330
1F
100
AcDbEntity
  8
참조1
100
AcDbLine
 10
0.0000000000000036
 20
-40.00000000000001
 30
0.0
 11
-14.46571559669921
 21
-40.0
 31
0.0
  0
CIRCLE
  5
D2
330
1F
100
AcDbEntity
  8
해칭선
100
AcDbCircle
 10
-0.0000000000000018
 20
0.0
 30
0.0
 40
3.000000000000001
  0
INSERT
  5
D3
330
1F
100
AcDbEntity
  8
0
  6
Continuous
 62
     7
100
AcDbBlockReference
 66
     1
  2
블럭10
 10
-13.94027293212521
 20
-52.04717430164393
 30
0.0
  0
ATTRIB
  5
D4
330
D3
100
AcDbEntity
  8
FORMAT
 62
     2
100
AcDbText
 10
-23.12156822086649
 20
-49.97180738881174
 30
0.0
 40
4.233333333333333
  1
E2050017 [ 2 FLUTE ]
 41
0.75
  7
SLDTEXTSTYLE0
 11
-23.12156822086649
 21
-52.08847405547841
 31
0.0
100
AcDbAttribute
  2
AUTOATTR0
 70
     0
 74
     1
  0
SEQEND
  5
D5
330
D3
100
AcDbEntity
  8
0
  6
Continuous
 62
     7
  0
HATCH
  5
D6
330
1F
100
AcDbEntity
  8
중심선
100
AcDbHatch
 10
0.0
 20
0.0
 30
0.0
210
0.0
220
0.0
230
1.0
  2
SOLID
 70
     1
 71
     0
 91
        1
 92
        0
 93
        4
 72
     1
 10
-8.225363627744372
 20
-35.8
 11
-11.67163887158165
 21
-35.8
 72
     1
 10
-11.67163887158165
 20
-35.8
 11
-13.79986873078568
 21
-38.3363255805726
 72
     1
 10
-13.79986873078568
 20
-38.3363255805726
 11
-10.35356040183525
 21
-38.33628615127011
 72
     1
 10
-10.35356040183525
 20
-38.33628615127011
 11
-8.225363627744372
 21
-35.8
 97
        0
 75
     0
 76
     1
 98
        1
 10
14.99421167873052
 20
-0.001074928723894
  0
HATCH
  5
D7
330
1F
100
AcDbEntity
  8
중심선
100
AcDbHatch
 10
0.0
 20
0.0
 30
0.0
210
0.0
220
0.0
230
1.0
  2
SOLID
 70
     1
 71
     0
 91
        1
 92
        0
 93
        4
 72
     1
 10
-3.212599636708418
 20
-35.80000000000003
 11
-6.658874880545675
 21
-35.8
 72
     1
 10
-6.658874880545675
 20
-35.8
 11
-11.19001288890309
 21
-41.20000000000002
 72
     1
 10
-11.19001288890309
 20
-41.20000000000002
 11
-7.743737645065806
 21
-41.20000000000002
 72
     1
 10
-7.743737645065806
 20
-41.20000000000002
 11
-3.212599636708418
 21
-35.80000000000003
 97
        0
 75
     0
 76
     1
 98
        1
 10
14.99421167873052
 20
-0.001074928723894
  0
HATCH
  5
D8
330
1F
100
AcDbEntity
  8
중심선
100
AcDbHatch
 10
0.0
 20
0.0
 30
0.0
210
0.0
220
0.0
230
1.0
  2
SOLID
 70
     1
 71
     0
 91
        1
 92
        0
 93
        4
 72
     1
 10
1.800164354327476
 20
-35.8
 11
-1.646110889509639
 21
-35.8
 72
     1
 10
-1.646110889509639
 20
-35.8
 11
-8.69454779139889
 21
-44.20000000000002
 72
     1
 10
-8.69454779139889
 20
-44.20000000000002
 11
-5.248272547561605
 21
-44.20000000000002
 72
     1
 10
-5.248272547561605
 20
-44.20000000000002
 11
1.800164354327476
 21
-35.8
 97
        0
 75
     0
 76
     1
 98
        1
 10
14.99421167873052
 20
-0.001074928723894
  0
HATCH
  5
D9
330
1F
100
AcDbEntity
  8
중심선
100
AcDbHatch
 10
0.0
 20
0.0
 30
0.0
210
0.0
220
0.0
230
1.0
  2
SOLID
 70
     1
 71
     0
 91
        1
 92
        0
 93
        6
 72
     3
 10
6.600054785339676
 20
-40.00000000005127
 11
3.960054785062283
 21
1.540882976769353E-10
 40
0.3939339440162628
 50
17.09539180608436
 51
320.0019657685077
 73
     0
 72
     1
 10
8.283054441040242
 20
-38.5878940046383
 11
10.58835631474131
 21
-36.65356729459035
 72
     3
 10
6.600054785286829
 20
-40.00000000000015
 11
6.600054785286829
 21
-1.278976924368180E-13
 40
0.636358354079598
 50
39.99873849337431
 51
368.4976242363724
 73
     1
 72
     1
 10
13.02538727718744
 20
-39.03999999993002
 11
5.280122092122751
 21
-39.03999999993
 72
     1
 10
5.280122092122751
 20
-39.03999999993
 11
5.280097047676817
 21
-40.95999999992991
 72
     1
 10
5.280097047676817
 20
-40.95999999992991
 11
9.721476817148854
 21
-40.95999999992988
 97
        0
 75
     0
 76
     1
 98
        1
 10
14.99421167873052
 20
-0.001074928723894
  0
DIMENSION
  5
DA
330
1F
100
AcDbEntity
  8
치수문자_일반주서
100
AcDbDimension
  2
_D
 10
-49.68749999999994
 20
-4.76250000000012
 30
0.0
 11
-49.68750000000004
 21
24.49149999999996
 31
0.0
 70
   160
  1
%%c<>
 71
     2
 42
9.525000000000002
 52
-270.0
  3
SLDDIMSTYLE0
100
AcDbAlignedDimension
 13
-19.21594817511139
 23
4.762499999999996
 33
0.0
 14
-19.21594817511139
 24
-4.762500000000006
 34
0.0
 50
90.0000000000002
100
AcDbRotatedDimension
1001
PE_URL
1000

1001
ACAD
1000
DSTYLE
1002
{
1070
   171
1070
     8
1070
   273
1070
     7
1002
}
  0
DIMENSION
  5
EF
330
1F
100
AcDbEntity
  8
치수문자_일반주서
100
AcDbDimension
  2
_D_1
 10
80.36669387331993
 20
3.370586322001405
 30
0.0
 11
80.36669387331983
 21
25.2870863220014
 31
0.0
 70
   160
  1
%%c<>
 71
     2
 42
6.741172644002503
 52
-270.0
  3
SLDDIMSTYLE0
100
AcDbAlignedDimension
 13
39.68750000000001
 23
-3.370586322001253
 33
0.0
 14
39.68750000000001
 24
3.370586322001251
 34
0.0
 50
90.0000000000002
100
AcDbRotatedDimension
1001
PE_URL
1000

1001
ACAD
1000
DSTYLE
1002
{
1070
   171
1070
     8
1070
   273
1070
     7
1002
}
  0
DIMENSION
  5
103
330
1F
100
AcDbEntity
  8
치수문자_일반주서
100
AcDbDimension
  2
_D_2
 10
25.40000000000002
 20
14.76250000000002
 30
0.0
 11
59.85400000000001
 21
14.76250000000002
 31
0.0
 70
   160
  1
<>
 71
     2
 42
14.28749999999999
  3
SLDDIMSTYLE0
100
AcDbAlignedDimension
 13
39.68750000000001
 23
3.370586322001251
 33
0.0
 14
25.40000000000002
 24
3.138635855773569
 34
0.0
 50
0.0000000000000142
100
AcDbRotatedDimension
1001
PE_URL
1000

1001
ACAD
1000
DSTYLE
1002
{
1070
   171
1070
     8
1070
   273
1070
     7
1002
}
  0
DIMENSION
  5
118
330
1F
100
AcDbEntity
  8
치수문자_일반주서
100
AcDbDimension
  2
_D_3
 10
39.68750000000001
 20
24.7625
 30
0.0
 11
0.0000000000000142
 21
24.7625
 31
0.0
 70
   160
  1
<>
 71
     2
 42
79.37500000000003
  3
SLDDIMSTYLE0
100
AcDbAlignedDimension
 13
-39.68750000000001
 23
3.370586322001241
 33
0.0
 14
39.68750000000001
 24
3.370586322001251
 34
0.0
100
AcDbRotatedDimension
1001
PE_URL
1000

1001
ACAD
1000
DSTYLE
1002
{
1070
   171
1070
     8
1070
   273
1070
     7
1002
}
  0
LINE
  5
12B
330
1F
100
AcDbEntity
  8
참조1
100
AcDbLine
 10
83.50662503295506
 20
7.440000000000001
 30
0.0
 11
83.50662503295506
 21
-7.440000000000003
 31
0.0
  0
LINE
  5
12C
330
1F
100
AcDbEntity
  8
참조1
100
AcDbLine
 10
96.20662503295506
 20
5.440000000000001
 30
0.0
 11
83.50662503295506
 21
5.440000000000001
 31
0.0
  0
SOLID
  5
12D
330
1F
100
AcDbEntity
  8
참조1
100
AcDbTrace
 10
83.50662503295506
 20
5.440000000000001
 30
0.0
 11
89.85662503295505
 21
4.424000000000001
 31
0.0
 12
89.85662503295505
 22
6.456000000000001
 32
0.0
 13
89.85662503295505
 23
6.456000000000001
 33
0.0
  0
LINE
  5
12E
330
1F
100
AcDbEntity
  8
참조1
100
AcDbLine
 10
96.20662503295506
 20
-5.440000000000003
 30
0.0
 11
83.50662503295506
 21
-5.440000000000003
 31
0.0
  0
SOLID
  5
12F
330
1F
100
AcDbEntity
  8
참조1
100
AcDbTrace
 10
83.50662503295506
 20
-5.440000000000003
 30
0.0
 11
89.85662503295505
 21
-6.456000000000003
 31
0.0
 12
89.85662503295505
 22
-4.424000000000003
 32
0.0
 13
89.85662503295505
 23
-4.424000000000003
 33
0.0
  0
MTEXT
  5
130
330
1F
100
AcDbEntity
  8
참조1
100
AcDbMText
 10
92.89097516558105
 20
11.01029177718833
 30
0.0
 40
3.5
 41
0.0
 71
     1
 72
     1
  1
A
  7
SLDTEXTSTYLE0
 73
     1
 44
1.0
  0
MTEXT
  5
131
330
1F
100
AcDbEntity
  8
참조1
100
AcDbMText
 10
92.89097516558105
 20
0.1302917771883252
 30
0.0
 40
3.5
 41
0.0
 71
     1
 72
     1
  1
A
  7
SLDTEXTSTYLE0
 73
     1
 44
1.0
  0
INSERT
  5
138
330
1F
100
AcDbEntity
  8
해칭선
100
AcDbBlockReference
  2
SW_DOWELSYMBOL_0
 10
-0.0000000000000018
 20
0.0
 30
0.0
  0
LINE
  5
1E0
330
1F
100
AcDbEntity
  8
외형선
  6
Continuous
370
    15
100
AcDbLine
 10
-3.568700000000065
 20
3.492500000000014
 30
0.0
 11
3.568700000000062
 21
3.492500000000014
 31
0.0
1001
PE_URL
1000

  0
LINE
  5
1E1
330
1F
100
AcDbEntity
  8
외형선
  6
Continuous
370
    15
100
AcDbLine
 10
-3.568700000000065
 20
3.492500000000014
 30
0.0
 11
-4.838700000000047
 21
4.762499999999996
 31
0.0
1001
PE_URL
1000

  0
LINE
  5
1E2
330
1F
100
AcDbEntity
  8
외형선
  6
Continuous
370
    15
100
AcDbLine
 10
3.568700000000062
 20
3.492500000000014
 30
0.0
 11
4.838700000000157
 21
4.762499999999996
 31
0.0
1001
PE_URL
1000

  0
LINE
  5
223
330
1F
100
AcDbEntity
  8
외형선
  6
Continuous
370
    15
100
AcDbLine
 10
-19.21594817511139
 20
4.762499999999992
 30
0.0
 11
-23.88009053635284
 21
3.512746820921553
 31
0.0
  0
LINE
  5
224
330
1F
100
AcDbEntity
  8
외형선
  6
Continuous
370
    15
100
AcDbLine
 10
-23.88009053635284
 20
-3.512746820921567
 30
0.0
 11
-19.21594817511139
 21
-4.762500000000006
 31
0.0
  0
SPLINE
  5
225
330
1F
100
AcDbEntity
  8
외형선
  6
Continuous
370
    15
100
AcDbSpline
210
0.0
220
0.0
230
1.0
 70
     8
 71
     3
 72
     9
 73
     5
 74
     0
 42
0.000000001
 43
0.00000001
 40
0.0
 40
0.0
 40
0.0
 40
0.0
 40
0.499520282366379
 40
0.9999999999999999
 40
0.9999999999999999
 40
0.9999999999999999
 40
0.9999999999999999
 10
-24.74239158763669
 20
2.808717679900443
 30
0.0
 10
-24.85194571285847
 20
2.797967247935954
 30
0.0
 10
-25.0712643853712
 20
2.77644573550895
 30
0.0
 10
-25.29035139518914
 20
2.757897909752529
 30
0.0
 10
-25.40000000000001
 20
2.748615099155234
 30
0.0
  0
SPLINE
  5
226
330
1F
100
AcDbEntity
  8
0
  6
Continuous
 62
     1
370
    15
100
AcDbSpline
210
0.0
220
0.0
230
1.0
 70
     8
 71
     3
 72
     9
 73
     5
 74
     0
 42
0.000000001
 43
0.00000001
 40
0.0
 40
0.0
 40
0.0
 40
0.0
 40
0.4709606947822358
 40
1.0
 40
1.0
 40
1.0
 40
1.0
 10
-30.94677822326829
 20
-0.8645013351593285
 30
0.0
 10
-30.80017289104385
 20
-0.9344594513404658
 30
0.0
 10
-30.48888293872157
 20
-1.083002879605715
 30
0.0
 10
-30.17759979154402
 20
-1.246082334631655
 30
0.0
 10
-30.01291877163521
 20
-1.332357776213868
 30
0.0
1001
PE_URL
1000

  0
LINE
  5
227
330
1F
100
AcDbEntity
  8
0
  6
Continuous
 62
     1
370
    15
100
AcDbLine
 10
-29.09363815841522
 20
-0.9433303253107184
 30
0.0
 11
-29.04527124804858
 21
-0.9699386925293751
 31
0.0
1001
PE_URL
1000

  0
SPLINE
  5
228
330
1F
100
AcDbEntity
  8
0
  6
Continuous
 62
     1
370
    15
100
AcDbSpline
210
0.0
220
0.0
230
1.0
 70
     8
 71
     3
 72
    16
 73
    12
 74
     0
 42
0.000000001
 43
0.00000001
 40
0.0
 40
0.0
 40
0.0
 40
0.0
 40
0.1550125100873295
 40
0.2654474897949412
 40
0.3351150912366942
 40
0.3987201982741935
 40
0.4647201560036114
 40
0.6146559842149207
 40
0.7999073257039194
 40
0.9418906884721147
 40
1.0
 40
1.0
 40
1.0
 40
1.0
 10
-29.83278504892503
 20
-2.680662776626566
 30
0.0
 10
-29.68929806216489
 20
-2.673546536666759
 30
0.0
 10
-29.44358718094464
 20
-2.661360500629762
 30
0.0
 10
-29.13397296089169
 20
-2.650535107530072
 30
0.0
 10
-28.90918289228217
 20
-2.644218320273893
 30
0.0
 10
-28.7252402835965
 20
-2.640164108312057
 30
0.0
 10
-28.46700322276808
 20
-2.635937445014029
 30
0.0
 10
-28.09616598701821
 20
-2.633306591500201
 30
0.0
 10
-27.65529750870376
 20
-2.63688661197784
 30
0.0
 10
-27.29948058950664
 20
-2.644124918768274
 30
0.0
 10
-27.11458243020248
 20
-2.650537208815589
 30
0.0
 10
-27.06088578799538
 20
-2.652399414722314
 30
0.0
1001
PE_URL
1000

  0
SPLINE
  5
229
330
1F
100
AcDbEntity
  8
0
  6
Continuous
 62
     1
370
    15
100
AcDbSpline
210
0.0
220
0.0
230
1.0
 70
     8
 71
     3
 72
    24
 73
    20
 74
     0
 42
0.000000001
 43
0.00000001
 40
0.0
 40
0.0
 40
0.0
 40
0.0
 40
0.0643896021576654
 40
0.1150469341983208
 40
0.1760826172071805
 40
0.2252277762887622
 40
0.2816040667853681
 40
0.3426835672646586
 40
0.4064220851232668
 40
0.4607774084988669
 40
0.5072065159124857
 40
0.5770583608334129
 40
0.6605538225961298
 40
0.7539226837644424
 40
0.7963747430023339
 40
0.832392538792188
 40
0.8664291339318658
 40
0.9212040722480719
 40
1.0
 40
1.0
 40
1.0
 40
1.0
 10
-38.43312133848683
 20
-2.307269519326699
 30
0.0
 10
-38.30625326271625
 20
-2.296878781981722
 30
0.0
 10
-38.07957406800237
 20
-2.278313323653958
 30
0.0
 10
-37.73339124026234
 20
-2.256448284192171
 30
0.0
 10
-37.41968453388583
 20
-2.240774281284711
 30
0.0
 10
-37.0936115099496
 20
-2.229043239166376
 30
0.0
 10
-36.76461023455363
 20
-2.221606394388338
 30
0.0
 10
-36.40727377717427
 20
-2.218954471996717
 30
0.0
 10
-36.05281871112705
 20
-2.222049102182616
 30
0.0
 10
-35.7301092561042
 20
-2.229803034986901
 30
0.0
 10
-35.39879806872625
 20
-2.241958695210755
 30
0.0
 10
-35.00591946640809
 20
-2.26223212396885
 30
0.0
 10
-34.52175444684855
 20
-2.296491717279036
 30
0.0
 10
-34.09088371961658
 20
-2.336051900587517
 30
0.0
 10
-33.75314486711114
 20
-2.372578152279129
 30
0.0
 10
-33.53164661052953
 20
-2.398684240603849
 30
0.0
 10
-33.28541118466069
 20
-2.429658856092153
 30
0.0
 10
-32.95693905537797
 20
-2.473735100889375
 30
0.0
 10
-32.69480694410195
 20
-2.513701538421007
 30
0.0
 10
-32.54017035672646
 20
-2.537278480137008
 30
0.0
1001
PE_URL
1000

  0
SPLINE
  5
22A
330
1F
100
AcDbEntity
  8
0
  6
Continuous
 62
     1
370
    15
100
AcDbSpline
210
0.0
220
0.0
230
1.0
 70
     8
 71
     3
 72
    16
 73
    12
 74
     0
 42
0.000000001
 43
0.00000001
 40
0.0
 40
0.0
 40
0.0
 40
0.0
 40
0.1692177464275877
 40
0.29223044753462
 40
0.3701810870979584
 40
0.4422445621891845
 40
0.5265820793532877
 40
0.6214361213176092
 40
0.7152399295955171
 40
0.9535184065655956
 40
1.0
 40
1.0
 40
1.0
 40
1.0
 10
-32.54017035672646
 20
2.537278480136987
 30
0.0
 10
-32.68268406238091
 20
2.515501071181415
 30
0.0
 10
-32.92879798874171
 20
2.477892592758877
 30
0.0
 10
-33.24015646345255
 20
2.43562806492557
 30
0.0
 10
-33.47094807585689
 20
2.406198205547177
 30
0.0
 10
-33.66917083011965
 20
2.382298827968295
 30
0.0
 10
-33.88122885438055
 20
2.35849935004914
 30
0.0
 10
-34.11138386118218
 20
2.334741871845811
 30
0.0
 10
-34.47127940528225
 20
2.301466887065651
 30
0.0
 10
-34.79055504396556
 20
2.275202273144661
 30
0.0
 10
-35.0302041283928
 20
2.262829829636726
 30
0.0
 10
-35.06932222277117
 20
2.260810266682871
 30
0.0
1001
PE_URL
1000

  0
SPLINE
  5
22B
330
1F
100
AcDbEntity
  8
0
  6
Continuous
 62
     1
370
    15
100
AcDbSpline
210
0.0
220
0.0
230
1.0
 70
     8
 71
     3
 72
    21
 73
    17
 74
     0
 42
0.000000001
 43
0.00000001
 40
0.0
 40
0.0
 40
0.0
 40
0.0
 40
0.1107880219801612
 40
0.184468958437371
 40
0.229766156696504
 40
0.2735068034748276
 40
0.3346198665616974
 40
0.4110889707351985
 40
0.4998630775566588
 40
0.5991827818897768
 40
0.683772508515825
 40
0.7535936378143004
 40
0.7925590862841662
 40
0.8360167104284415
 40
0.9045663181052384
 40
1.0
 40
1.0
 40
1.0
 40
1.0
 10
-25.4
 20
2.748615099155238
 30
0.0
 10
-25.56367541689464
 20
2.735737129584503
 30
0.0
 10
-25.83620518262838
 20
2.71429450798118
 30
0.0
 10
-26.17516856742228
 20
2.692836307101821
 30
0.0
 10
-26.41570772808128
 20
2.679418849434967
 30
0.0
 10
-26.63763605357992
 20
2.668401874358587
 30
0.0
 10
-26.9056411360128
 20
2.65698353912607
 30
0.0
 10
-27.24018776800268
 20
2.645841163352355
 30
0.0
 10
-27.63092361380642
 20
2.637227042776139
 30
0.0
 10
-28.03384799204552
 20
2.633710903375405
 30
0.0
 10
-28.40891458568773
 20
2.63522169795365
 30
0.0
 10
-28.69470972159143
 20
2.639449312686569
 30
0.0
 10
-28.9194564062052
 20
2.644481557609343
 30
0.0
 10
-29.14218440136388
 20
2.650803194687239
 30
0.0
 10
-29.44872667298649
 20
2.661594652336493
 30
0.0
 10
-29.69149859156194
 20
2.673648041632379
 30
0.0
 10
-29.83278504892503
 20
2.680662776626551
 30
0.0
1001
PE_URL
1000

  0
LINE
  5
22C
330
1F
100
AcDbEntity
  8
외형선
  6
Continuous
370
    15
100
AcDbLine
 10
-19.21594817511139
 20
-4.762500000000006
 30
0.0
 11
-19.21594817511139
 21
4.762499999999996
 31
0.0
  0
SPLINE
  5
22D
330
1F
100
AcDbEntity
  8
외형선
  6
Continuous
370
    15
100
AcDbSpline
210
0.0
220
0.0
230
1.0
 70
     8
 71
     3
 72
     8
 73
     4
 74
     0
 42
0.000000001
 43
0.00000001
 40
0.0
 40
0.0
 40
0.0
 40
0.0
 40
1.0
 40
1.0
 40
1.0
 40
1.0
 10
-24.40000000000002
 20
-3.303299783518877
 30
0.0
 10
-24.22638223070124
 20
-3.365242199785392
 30
0.0
 10
-24.05312520497239
 20
-3.424722382665152
 30
0.0
 10
-23.88018543817642
 20
-3.481588602924042
 30
0.0
  0
LINE
  5
22E
330
1F
100
AcDbEntity
  8
외형선
  6
Continuous
370
    15
100
AcDbLine
 10
-24.40000000000002
 20
-3.303299783518856
 30
0.0
 11
-24.40000000000002
 21
-2.985824801042675
 31
0.0
  0
SPLINE
  5
22F
330
1F
100
AcDbEntity
  8
외형선
  6
Continuous
370
    15
100
AcDbSpline
210
0.0
220
0.0
230
1.0
 70
     8
 71
     3
 72
     8
 73
     4
 74
     0
 42
0.000000001
 43
0.00000001
 40
0.0
 40
0.0
 40
0.0
 40
0.0
 40
1.0
 40
1.0
 40
1.0
 40
1.0
 10
-23.88009053635284
 20
-3.222637100015486
 30
0.0
 10
-24.05370448344168
 20
-3.146045632484057
 30
0.0
 10
-24.22698718540733
 20
-3.067126603382771
 30
0.0
 10
-24.40000000000086
 20
-2.985824801039485
 30
0.0
  0
LINE
  5
230
330
1F
100
AcDbEntity
  8
외형선
  6
Continuous
370
    15
100
AcDbLine
 10
-23.88009053635284
 20
3.512746820921553
 30
0.0
 11
-23.88009053635284
 21
-3.222663089055587
 31
0.0
  0
SPLINE
  5
231
330
1F
100
AcDbEntity
  8
외형선
  6
Continuous
370
    15
100
AcDbSpline
210
0.0
220
0.0
230
1.0
 70
     8
 71
     3
 72
     8
 73
     4
 74
     0
 42
0.000000001
 43
0.00000001
 40
0.0
 40
0.0
 40
0.0
 40
0.0
 40
1.0
 40
1.0
 40
1.0
 40
1.0
 10
-24.40000000000002
 20
3.303299783518867
 30
0.0
 10
-24.22638223070124
 20
3.365242199785378
 30
0.0
 10
-24.05312520497239
 20
3.424722382665141
 30
0.0
 10
-23.88018543817642
 20
3.481588602924027
 30
0.0
  0
LINE
  5
232
330
1F
100
AcDbEntity
  8
외형선
  6
Continuous
370
    15
100
AcDbLine
 10
-23.88009053635284
 20
-3.48162336973245
 30
0.0
 11
-23.88009053635284
 21
-3.512746820921567
 31
0.0
  0
SPLINE
  5
233
330
1F
100
AcDbEntity
  8
외형선
  6
Continuous
370
    15
100
AcDbSpline
210
0.0
220
0.0
230
1.0
 70
    24
 71
     3
 72
    14
 73
    10
 74
     0
 42
0.000000001
 43
0.00000001
 40
0.0
 40
0.0
 40
0.0
 40
0.0
 40
0.2500000000000001
 40
0.2500000000000001
 40
0.5000000000000001
 40
0.5000000000000001
 40
0.7500000000000001
 40
0.7500000000000001
 40
1.0
 40
1.0
 40
1.0
 40
1.0
 10
-25.40000000000002
 20
-1.811814560660451
 30
0.0
 10
-25.40000000000002
 20
-1.575741709660129
 30
0.0
 10
-25.40000000000002
 20
-1.309629082891874
 30
0.0
 10
-25.40000000000002
 20
-0.7351417285509605
 30
0.0
 10
-25.40000000000001
 20
-0.4269641005482541
 30
0.0
 10
-25.40000000000002
 20
0.2026612259919141
 30
0.0
 10
-25.40000000000002
 20
0.523773433831888
 30
0.0
 10
-25.40000000000002
 20
1.147545716599126
 30
0.0
 10
-25.40000000000002
 20
1.44993946861517
 30
0.0
 10
-25.40000000000002
 20
1.730803272403332
 30
0.0
  0
SPLINE
  5
234
330
1F
100
AcDbEntity
  8
외형선
  6
Continuous
370
    15
100
AcDbSpline
210
0.0
220
0.0
230
1.0
 70
     8
 71
     3
 72
    10
 73
     6
 74
     0
 42
0.000000001
 43
0.00000001
 40
0.0
 40
0.0
 40
0.0
 40
0.0
 40
0.5000000000000001
 40
0.5000000000000001
 40
1.0
 40
1.0
 40
1.0
 40
1.0
 10
-25.39999999999959
 20
1.730803272403179
 30
0.0
 10
-25.14592677402143
 20
1.640942790620077
 30
0.0
 10
-24.89081942338991
 20
1.546051726002574
 30
0.0
 10
-24.38498784327405
 20
1.348650234155592
 30
0.0
 10
-24.13417120797389
 20
1.246158152451052
 30
0.0
 10
-23.88012518252793
 20
1.140005650103504
 30
0.0
  0
SPLINE
  5
235
330
1F
100
AcDbEntity
  8
외형선
  6
Continuous
370
    15
100
AcDbSpline
210
0.0
220
0.0
230
1.0
 70
     8
 71
     3
 72
    10
 73
     6
 74
     0
 42
0.000000001
 43
0.00000001
 40
0.0
 40
0.0
 40
0.0
 40
0.0
 40
0.5
 40
0.5
 40
1.0
 40
1.0
 40
1.0
 40
1.0
 10
-25.39999999999937
 20
-1.811814560660618
 30
0.0
 10
-25.1459248090056
 20
-1.877538285643034
 30
0.0
 10
-24.89081547746083
 20
-1.938210023680266
 30
0.0
 10
-24.38498005281984
 20
-2.04796321381798
 30
0.0
 10
-24.13416141727713
 20
-2.09709360549083
 30
0.0
 10
-23.8801133936955
 20
-2.140381265899766
 30
0.0
  0
LINE
  5
236
330
1F
100
AcDbEntity
  8
외형선
  6
Continuous
370
    15
100
AcDbLine
 10
-24.750781188594
 20
2.784761805515497
 30
0.0
 11
-23.88018543817642
 21
2.86310485776454
 31
0.0
  0
SPLINE
  5
237
330
1F
100
AcDbEntity
  8
외형선
  6
Continuous
370
    15
100
AcDbSpline
210
0.0
220
0.0
230
1.0
 70
    24
 71
     3
 72
    12
 73
     8
 74
     0
 42
0.000000001
 43
0.00000001
 40
0.0
 40
0.0
 40
0.0
 40
0.0
 40
0.2998127599198966
 40
0.5185687082422165
 40
0.7436685938854638
 40
0.9406595770112206
 40
1.0
 40
1.0
 40
1.0
 40
1.0
 10
-25.40000000000002
 20
1.730803272403332
 30
0.0
 10
-25.40000000000001
 20
1.911548607294424
 30
0.0
 10
-25.40000000000001
 20
2.224173309659736
 30
0.0
 10
-25.40000000000002
 20
2.52374957278321
 30
0.0
 10
-25.40000000000001
 20
2.685809384986676
 30
0.0
 10
-25.40000000000001
 20
2.753920976150006
 30
0.0
 10
-25.40000000000001
 20
2.742272635552343
 30
0.0
 10
-25.40000000000001
 20
2.739576058224344
 30
0.0
  0
SPLINE
  5
238
330
1F
100
AcDbEntity
  8
외형선
  6
Continuous
370
    15
100
AcDbSpline
210
0.0
220
0.0
230
1.0
 70
     8
 71
     3
 72
     8
 73
     4
 74
     0
 42
0.000000001
 43
0.00000001
 40
0.0
 40
0.0
 40
0.0
 40
0.0
 40
1.0
 40
1.0
 40
1.0
 40
1.0
 10
-25.39999999999239
 20
-2.675050653086402
 30
0.0
 10
-25.06601257111782
 20
-2.792298725546715
 30
0.0
 10
-24.73024896481826
 20
-2.896595066756451
 30
0.0
 10
-24.40000000000004
 20
-2.985824801042668
 30
0.0
  0
SPLINE
  5
239
330
1F
100
AcDbEntity
  8
외형선
  6
Continuous
370
    15
100
AcDbSpline
210
0.0
220
0.0
230
1.0
 70
    24
 71
     3
 72
    10
 73
     6
 74
     0
 42
0.000000001
 43
0.00000001
 40
0.0
 40
0.0
 40
0.0
 40
0.0
 40
0.5
 40
0.5
 40
1.0
 40
1.0
 40
1.0
 40
1.0
 10
-25.40000000000002
 20
-2.675050653083726
 30
0.0
 10
-25.40000000000002
 20
-2.573148868459054
 30
0.0
 10
-25.40000000000002
 20
-2.440271512751476
 30
0.0
 10
-25.40000000000002
 20
-2.140551450084498
 30
0.0
 10
-25.40000000000001
 20
-1.974644365345565
 30
0.0
 10
-25.40000000000002
 20
-1.811814560660451
 30
0.0
  0
SPLINE
  5
23A
330
1F
100
AcDbEntity
  8
외형선
  6
Continuous
370
    15
100
AcDbSpline
210
0.0
220
0.0
230
1.0
 70
     8
 71
     3
 72
     8
 73
     4
 74
     0
 42
0.000000001
 43
0.00000001
 40
0.0
 40
0.0
 40
0.0
 40
0.0
 40
1.0
 40
1.0
 40
1.0
 40
1.0
 10
-25.39999999999986
 20
-3.138635855773607
 30
0.0
 10
-25.06601257112283
 20
-3.209177321244667
 30
0.0
 10
-24.73024896482072
 20
-3.264407343828818
 30
0.0
 10
-24.40000000000004
 20
-3.303299783518856
 30
0.0
  0
LINE
  5
23B
330
1F
100
AcDbEntity
  8
외형선
  6
Continuous
370
    15
100
AcDbLine
 10
-25.40000000000002
 20
-3.138635855773575
 30
0.0
 11
-25.40000000000002
 21
-2.675050653083726
 31
0.0
  0
SPLINE
  5
23C
330
1F
100
AcDbEntity
  8
외형선
  6
Continuous
370
    15
100
AcDbSpline
210
0.0
220
0.0
230
1.0
 70
     8
 71
     3
 72
     8
 73
     4
 74
     0
 42
0.000000001
 43
0.00000001
 40
0.0
 40
0.0
 40
0.0
 40
0.0
 40
1.0
 40
1.0
 40
1.0
 40
1.0
 10
-25.39999999999986
 20
3.138635855773597
 30
0.0
 10
-25.06601257112283
 20
3.209177321244656
 30
0.0
 10
-24.73024896482072
 20
3.264407343828804
 30
0.0
 10
-24.40000000000004
 20
3.303299783518845
 30
0.0
  0
SPLINE
  5
23D
330
1F
100
AcDbEntity
  8
외형선
  6
Continuous
370
    15
100
AcDbSpline
210
0.0
220
0.0
230
1.0
 70
    24
 71
     3
 72
    10
 73
     6
 74
     0
 42
0.000000001
 43
0.00000001
 40
0.0
 40
0.0
 40
0.0
 40
0.0
 40
0.3963818666158292
 40
0.8476393516036209
 40
1.0
 40
1.0
 40
1.0
 40
1.0
 10
-25.40000000000001
 20
2.748615099155234
 30
0.0
 10
-25.40000000000001
 20
2.802809468548073
 30
0.0
 10
-25.40000000000001
 20
2.918700945938067
 30
0.0
 10
-25.40000000000001
 20
3.046339618895885
 30
0.0
 10
-25.40000000000001
 20
3.120034388582617
 30
0.0
 10
-25.40000000000001
 20
3.138635855755151
 30
0.0
  0
SPLINE
  5
23E
330
1F
100
AcDbEntity
  8
0
  6
Continuous
 62
     1
370
    15
100
AcDbSpline
210
0.0
220
0.0
230
1.0
 70
     8
 71
     3
 72
    38
 73
    34
 74
     0
 42
0.000000001
 43
0.00000001
 40
0.0
 40
0.0
 40
0.0
 40
0.0
 40
0.0625
 40
0.0625
 40
0.125
 40
0.125
 40
0.1875
 40
0.1875
 40
0.25
 40
0.25
 40
0.3125
 40
0.3125
 40
0.375
 40
0.375
 40
0.4375
 40
0.4375
 40
0.5
 40
0.5
 40
0.5625
 40
0.5625
 40
0.625
 40
0.625
 40
0.6875
 40
0.6875
 40
0.75
 40
0.75
 40
0.8125
 40
0.8125
 40
0.875
 40
0.875
 40
0.9375
 40
0.9375
 40
1.0
 40
1.0
 40
1.0
 40
1.0
 10
-39.68750000000002
 20
3.201192713549478
 30
0.0
 10
-39.39237082838004
 20
3.147132466877959
 30
0.0
 10
-39.09278379535549
 20
3.080336505034598
 30
0.0
 10
-38.4950909389507
 20
2.923297630024138
 30
0.0
 10
-38.19991881677271
 20
2.833411335105144
 30
0.0
 10
-37.6054045048906
 20
2.631962605090017
 30
0.0
 10
-37.30516686175752
 20
2.520212701018181
 30
0.0
 10
-36.70920208532466
 20
2.278511295450723
 30
0.0
 10
-36.41489130601888
 20
2.148844817679581
 30
0.0
 10
-35.81781858629455
 20
1.872582985018621
 30
0.0
 10
-35.51780772907366
 20
1.726340313293711
 30
0.0
 10
-34.92528249558561
 20
1.422835022465556
 30
0.0
 10
-34.62827123918491
 20
1.264835934169781
 30
0.0
 10
-34.03036222168179
 20
0.9395082643537052
 30
0.0
 10
-33.7334980377987
 20
0.772921376066158
 30
0.0
 10
-33.14083102674425
 20
0.4352589423719628
 30
0.0
 10
-32.84079849575909
 20
0.2633703126154359
 30
0.0
 10
-32.24378334315719
 20
-0.0805498074640667
 30
0.0
 10
-31.9495012575217
 20
-0.2520533449245796
 30
0.0
 10
-31.35345125352154
 20
-0.593205193891972
 30
0.0
 10
-31.05322116530668
 20
-0.762540720505644
 30
0.0
 10
-30.45882143386783
 20
-1.092839010884077
 30
0.0
 10
-30.16355935149642
 20
-1.254031798091439
 30
0.0
 10
-29.5658386356849
 20
-1.566690419654595
 30
0.0
 10
-29.26645545860767
 20
-1.717569682980088
 30
0.0
 10
-28.67602845683297
 20
-2.0035009877544
 30
0.0
 10
-28.37640568077233
 20
-2.139929567926536
 30
0.0
 10
-27.77874260149466
 20
-2.394768720814348
 30
0.0
 10
-27.48365649599358
 20
-2.512826177124701
 30
0.0
 10
-26.88902948749055
 20
-2.729137213876346
 30
0.0
 10
-26.58878526313416
 20
-2.827389941532601
 30
0.0
 10
-25.9929076135322
 20
-3.000617472519171
 30
0.0
 10
-25.69856418787407
 20
-3.075576130979186
 30
0.0
 10
-25.39999999999542
 20
-3.138635855774545
 30
0.0
1001
PE_URL
1000

  0
SPLINE
  5
23F
330
1F
100
AcDbEntity
  8
0
  6
Continuous
 62
     1
370
    15
100
AcDbSpline
210
0.0
220
0.0
230
1.0
 70
     8
 71
     3
 72
    14
 73
    10
 74
     0
 42
0.000000001
 43
0.00000001
 40
0.0
 40
0.0
 40
0.0
 40
0.0
 40
0.1505575559404219
 40
0.3010063662668522
 40
0.4513879232118944
 40
0.6017441440296497
 40
0.752117106502938
 40
0.902548782314839
 40
1.0
 40
1.0
 40
1.0
 40
1.0
 10
-39.68750000000001
 20
2.661548623079646
 30
0.0
 10
-39.24799280308219
 20
2.568281343689645
 30
0.0
 10
-38.36929585913927
 20
2.381814150559268
 30
0.0
 10
-37.05179888892843
 20
1.945299640371417
 30
0.0
 10
-35.73496285695762
 20
1.420191565535088
 30
0.0
 10
-34.41838671912716
 20
0.8201980400962832
 30
0.0
 10
-33.10163494154484
 20
0.1810739517306281
 30
0.0
 10
-31.9392451262011
 20
-0.3968560372358496
 30
0.0
 10
-31.21564885443636
 20
-0.734795501189268
 30
0.0
 10
-30.93117848699347
 20
-0.8676510274481686
 30
0.0
1001
PE_URL
1000

  0
LINE
  5
240
330
1F
100
AcDbEntity
  8
0
  6
Continuous
 62
     1
370
    15
100
AcDbLine
 10
-39.68749999999994
 20
3.201192713549478
 30
0.0
 11
-39.68750000000001
 21
2.661548623079646
 31
0.0
1001
PE_URL
1000

  0
SPLINE
  5
241
330
1F
100
AcDbEntity
  8
0
  6
Continuous
 62
     1
370
    15
100
AcDbSpline
210
0.0
220
0.0
230
1.0
 70
     8
 71
     3
 72
    38
 73
    34
 74
     0
 42
0.000000001
 43
0.00000001
 40
0.0
 40
0.0
 40
0.0
 40
0.0
 40
0.0625
 40
0.0625
 40
0.125
 40
0.125
 40
0.1875
 40
0.1875
 40
0.25
 40
0.25
 40
0.3125
 40
0.3125
 40
0.375
 40
0.375
 40
0.4375
 40
0.4375
 40
0.5
 40
0.5
 40
0.5625
 40
0.5625
 40
0.625
 40
0.625
 40
0.6875
 40
0.6875
 40
0.75
 40
0.75
 40
0.8125
 40
0.8125
 40
0.875
 40
0.875
 40
0.9375
 40
0.9375
 40
1.0
 40
1.0
 40
1.0
 40
1.0
 10
-39.68750000000001
 20
3.370586322001241
 30
0.0
 10
-39.39237082838013
 20
3.363541970342762
 30
0.0
 10
-39.09278379535567
 20
3.343338059874007
 30
0.0
 10
-38.49509093895107
 20
3.276990724082864
 30
0.0
 10
-38.19991881677316
 20
3.231062882680458
 30
0.0
 10
-37.60540450489124
 20
3.114312928410495
 30
0.0
 10
-37.30516686175827
 20
3.043331490817376
 30
0.0
 10
-36.70920208532559
 20
2.878573657692321
 30
0.0
 10
-36.4148913060199
 20
2.785042039374485
 30
0.0
 10
-35.81781858629576
 20
2.576162456932988
 30
0.0
 10
-35.51780772907496
 20
2.461036993280121
 30
0.0
 10
-34.92528249558706
 20
2.213576125856175
 30
0.0
 10
-34.62827123918649
 20
2.080659862069592
 30
0.0
 10
-34.03036222168355
 20
1.799045751360101
 30
0.0
 10
-33.73349803780052
 20
1.650990981696047
 30
0.0
 10
-33.14083102674628
 20
1.343435628541542
 30
0.0
 10
-32.84079849576123
 20
1.18317581991159
 30
0.0
 10
-32.24378334315949
 20
0.8552069662169224
 30
0.0
 10
-31.94950125752409
 20
0.6880370547026509
 30
0.0
 10
-31.35345125352413
 20
0.3482563571434767
 30
0.0
 10
-31.05322116530936
 20
0.1759211339344553
 30
0.0
 10
-30.45882143387065
 20
-0.1676223321081807
 30
0.0
 10
-30.16355935149937
 20
-0.3390395452813912
 30
0.0
 10
-29.56583863568805
 20
-0.6792785619629882
 30
0.0
 10
-29.26645545861084
 20
-0.8474924864603821
 30
0.0
 10
-28.67602845683638
 20
-1.174514886252854
 30
0.0
 10
-28.37640568077585
 20
-1.334899369112186
 30
0.0
 10
-27.77874260149836
 20
-1.643713844506394
 30
0.0
 10
-27.48365649599732
 20
-1.791675140873437
 30
0.0
 10
-26.88902948749453
 20
-2.073299147906553
 30
0.0
 10
-26.58878526313823
 20
-2.2070088637998
 30
0.0
 10
-25.99290761353641
 20
-2.455524924795075
 30
0.0
 10
-25.6985641878784
 20
-2.570238098753649
 30
0.0
 10
-25.39999999999986
 20
-2.675050653083783
 30
0.0
1001
PE_URL
1000

  0
SPLINE
  5
242
330
1F
100
AcDbEntity
  8
0
  6
Continuous
 62
     1
370
    15
100
AcDbSpline
210
0.0
220
0.0
230
1.0
 70
     8
 71
     3
 72
    12
 73
     8
 74
     0
 42
0.000000001
 43
0.00000001
 40
0.0
 40
0.0
 40
0.0
 40
0.0
 40
0.1424738848985959
 40
0.3656508550693595
 40
0.5886567313931366
 40
0.7943517130538604
 40
1.0
 40
1.0
 40
1.0
 40
1.0
 10
-31.30812118404392
 20
0.3199591607096011
 30
0.0
 10
-31.02751687828484
 20
0.2076466743907801
 30
0.0
 10
-30.30736241341588
 20
-0.0805967232443088
 30
0.0
 10
-29.14790950098341
 20
-0.5502409618768702
 30
0.0
 10
-27.86405471986583
 20
-1.039694184049992
 30
0.0
 10
-26.6149419815719
 20
-1.473982894739621
 30
0.0
 10
-25.80495001106664
 20
-1.699212527865189
 30
0.0
 10
-25.40000000000001
 20
-1.811814560660451
 30
0.0
1001
PE_URL
1000

  0
SPLINE
  5
243
330
1F
100
AcDbEntity
  8
외형선
  6
Continuous
370
    15
100
AcDbSpline
210
0.0
220
0.0
230
1.0
 70
    24
 71
     3
 72
    10
 73
     6
 74
     0
 42
0.000000001
 43
0.00000001
 40
0.0
 40
0.0
 40
0.0
 40
0.0
 40
0.5
 40
0.5
 40
1.0
 40
1.0
 40
1.0
 40
1.0
 10
-25.40000000000002
 20
-2.675050653083726
 30
0.0
 10
-25.40000000000002
 20
-2.573148868459054
 30
0.0
 10
-25.40000000000002
 20
-2.44027151275148
 30
0.0
 10
-25.40000000000002
 20
-2.140551450084494
 30
0.0
 10
-25.40000000000001
 20
-1.974644365345569
 30
0.0
 10
-25.40000000000002
 20
-1.811814560660451
 30
0.0
  0
LINE
  5
244
330
1F
100
AcDbEntity
  8
0
  6
Continuous
 62
     1
370
    15
100
AcDbLine
 10
-39.68750000000001
 20
3.370586322001241
 30
0.0
 11
-39.68749999999993
 21
3.201192713549474
 31
0.0
1001
PE_URL
1000

  0
SPLINE
  5
245
330
1F
100
AcDbEntity
  8
0
  6
Continuous
 62
     1
370
    15
100
AcDbSpline
210
0.0
220
0.0
230
1.0
 70
     8
 71
     3
 72
     8
 73
     4
 74
     0
 42
0.000000001
 43
0.00000001
 40
0.0
 40
0.0
 40
0.0
 40
0.0
 40
1.0
 40
1.0
 40
1.0
 40
1.0
 10
-37.59960752883502
 20
-0.9442007150785763
 30
0.0
 10
-37.47989420105901
 20
-1.086055429484688
 30
0.0
 10
-37.3731069501563
 20
-1.222523941505315
 30
0.0
 10
-37.28225993695483
 20
-1.352350272207222
 30
0.0
1001
PE_URL
1000

  0
LINE
  5
246
330
1F
100
AcDbEntity
  8
0
  6
Continuous
 62
     1
370
    15
100
AcDbLine
 10
-37.32490115949398
 20
-1.38813050631277
 30
0.0
 11
-39.68750000000001
 21
-0.0000000000000107
 31
0.0
1001
PE_URL
1000

  0
LINE
  5
247
330
1F
100
AcDbEntity
  8
0
  6
Continuous
 62
     1
370
    15
100
AcDbLine
 10
-39.68750000000001
 20
-0.0000000000000107
 30
0.0
 11
-39.68750000000001
 21
0.9015273757468698
 31
0.0
1001
PE_URL
1000

  0
SPLINE
  5
248
330
1F
100
AcDbEntity
  8
0
  6
Continuous
 62
     1
370
    15
100
AcDbSpline
210
0.0
220
0.0
230
1.0
 70
     8
 71
     3
 72
    10
 73
     6
 74
     0
 42
0.000000001
 43
0.00000001
 40
0.0
 40
0.0
 40
0.0
 40
0.0
 40
0.5
 40
0.5
 40
1.0
 40
1.0
 40
1.0
 40
1.0
 10
-39.68750000000002
 20
0.9015273757468698
 30
0.0
 10
-39.3260710598385
 20
0.6173817299134541
 30
0.0
 10
-38.9706829027049
 20
0.321581648012053
 30
0.0
 10
-38.27228947992164
 20
-0.2939087327493155
 30
0.0
 10
-37.92603287596797
 20
-0.6168424783162756
 30
0.0
 10
-37.59960752883502
 20
-0.9442007150785763
 30
0.0
1001
PE_URL
1000

  0
SPLINE
  5
249
330
1F
100
AcDbEntity
  8
0
  6
Continuous
 62
     1
370
    15
100
AcDbSpline
210
0.0
220
0.0
230
1.0
 70
     8
 71
     3
 72
    14
 73
    10
 74
     0
 42
0.000000001
 43
0.00000001
 40
0.0
 40
0.0
 40
0.0
 40
0.0
 40
0.1200585673958954
 40
0.2400145155297529
 40
0.4094575785889686
 40
0.5789197673694191
 40
0.7484490401727855
 40
0.9180929292372703
 40
1.0
 40
1.0
 40
1.0
 40
1.0
 10
-37.59960751710398
 20
-0.944200720143133
 30
0.0
 10
-37.28865840176933
 20
-1.076293037150215
 30
0.0
 10
-36.66702595278838
 20
-1.34036476613489
 30
0.0
 10
-35.60675948628666
 20
-1.745322875249411
 30
0.0
 10
-34.41835089505332
 20
-2.134907555248745
 30
0.0
 10
-33.10161282187975
 20
-2.459568196279566
 30
0.0
 10
-31.7842705959234
 20
-2.652715151295709
 30
0.0
 10
-30.6935761193962
 20
-2.723895878427463
 30
0.0
 10
-30.04197811243782
 20
-2.678356049315251
 30
0.0
 10
-29.82981241805346
 20
-2.66352790471911
 30
0.0
1001
PE_URL
1000

  0
SPLINE
  5
24A
330
1F
100
AcDbEntity
  8
0
  6
Continuous
 62
     1
370
    15
100
AcDbSpline
210
0.0
220
0.0
230
1.0
 70
    24
 71
     3
 72
    10
 73
     6
 74
     0
 42
0.000000001
 43
0.00000001
 40
0.0
 40
0.0
 40
0.0
 40
0.0
 40
0.5000000000000001
 40
0.5000000000000001
 40
1.0
 40
1.0
 40
1.0
 40
1.0
 10
-39.68750000000001
 20
2.661548623079643
 30
0.0
 10
-39.68750000000002
 20
2.457520170092515
 30
0.0
 10
-39.68750000000001
 20
2.199722396490717
 30
0.0
 10
-39.68750000000002
 20
1.600367383134863
 30
0.0
 10
-39.68750000000001
 20
1.259329327418392
 30
0.0
 10
-39.68750000000001
 20
0.9015273757469764
 30
0.0
1001
PE_URL
1000

  0
SPLINE
  5
24B
330
1F
100
AcDbEntity
  8
0
  6
Continuous
 62
     1
370
    15
100
AcDbSpline
210
0.0
220
0.0
230
1.0
 70
    24
 71
     3
 72
     8
 73
     4
 74
     0
 42
0.000000001
 43
0.00000001
 40
0.0
 40
0.0
 40
0.0
 40
0.0
 40
1.0
 40
1.0
 40
1.0
 40
1.0
 10
-37.63437762559194
 20
-1.647812094873615
 30
0.0
 10
-37.52315860707984
 20
-1.554488257460214
 30
0.0
 10
-37.40509195927869
 20
-1.45541857683579
 30
0.0
 10
-37.28225993695493
 20
-1.352350272207168
 30
0.0
1001
PE_URL
1000

  0
LINE
  5
24C
330
1F
100
AcDbEntity
  8
0
  6
Continuous
 62
     1
370
    15
100
AcDbLine
 10
-39.68750000000001
 20
-2.361406250000009
 30
0.0
 11
-38.43238834573295
 21
-2.304482171447901
 31
0.0
1001
PE_URL
1000

  0
SPLINE
  5
24D
330
1F
100
AcDbEntity
  8
0
  6
Continuous
 62
     1
370
    15
100
AcDbSpline
210
0.0
220
0.0
230
1.0
 70
     8
 71
     3
 72
     8
 73
     4
 74
     0
 42
0.000000001
 43
0.00000001
 40
0.0
 40
0.0
 40
0.0
 40
0.0
 40
1.0
 40
1.0
 40
1.0
 40
1.0
 10
-39.68750000000001
 20
-2.361406250000012
 30
0.0
 10
-38.99365870433165
 20
-2.173099487946512
 30
0.0
 10
-38.30619582712229
 20
-1.941814130637674
 30
0.0
 10
-37.63437762560509
 20
-1.647812094879381
 30
0.0
1001
PE_URL
1000

  0
SPLINE
  5
24E
330
1F
100
AcDbEntity
  8
0
  6
Continuous
 62
     1
370
    15
100
AcDbSpline
210
0.0
220
0.0
230
1.0
 70
     8
 71
     3
 72
    13
 73
     9
 74
     0
 42
0.000000001
 43
0.00000001
 40
0.0
 40
0.0
 40
0.0
 40
0.0
 40
0.1069174399535651
 40
0.2912977694549466
 40
0.4757359994383355
 40
0.6600365063520828
 40
0.8300370437199458
 40
1.0
 40
1.0
 40
1.0
 40
1.0
 10
-32.54888762515763
 20
2.520379233636199
 30
0.0
 10
-32.29411025626421
 20
2.562579525763006
 30
0.0
 10
-31.59996644494132
 20
2.677554697000037
 30
0.0
 10
-30.46617986081049
 20
2.717892467871945
 30
0.0
 10
-29.14790700344111
 20
2.649507822070781
 30
0.0
 10
-27.86403731904858
 20
2.444876011909802
 30
0.0
 10
-26.61494457808164
 20
2.1399902508963
 30
0.0
 10
-25.80495167927915
 20
1.867188879672362
 30
0.0
 10
-25.40000000000001
 20
1.730803272403332
 30
0.0
1001
PE_URL
1000

  0
SPLINE
  5
24F
330
1F
100
AcDbEntity
  8
외형선
  6
Continuous
370
    15
100
AcDbSpline
210
0.0
220
0.0
230
1.0
 70
    24
 71
     3
 72
    14
 73
    10
 74
     0
 42
0.000000001
 43
0.00000001
 40
0.0
 40
0.0
 40
0.0
 40
0.0
 40
0.2500000000000001
 40
0.2500000000000001
 40
0.5000000000000001
 40
0.5000000000000001
 40
0.7500000000000001
 40
0.7500000000000001
 40
1.0
 40
1.0
 40
1.0
 40
1.0
 10
-25.40000000000002
 20
-1.811814560660451
 30
0.0
 10
-25.40000000000002
 20
-1.575741709660129
 30
0.0
 10
-25.40000000000002
 20
-1.309629082891874
 30
0.0
 10
-25.40000000000002
 20
-0.7351417285509605
 30
0.0
 10
-25.40000000000001
 20
-0.4269641005482541
 30
0.0
 10
-25.40000000000002
 20
0.2026612259919141
 30
0.0
 10
-25.40000000000002
 20
0.523773433831888
 30
0.0
 10
-25.40000000000002
 20
1.147545716599126
 30
0.0
 10
-25.40000000000002
 20
1.44993946861517
 30
0.0
 10
-25.40000000000002
 20
1.730803272403332
 30
0.0
  0
SPLINE
  5
250
330
1F
100
AcDbEntity
  8
외형선
  6
Continuous
370
    15
100
AcDbSpline
210
0.0
220
0.0
230
1.0
 70
    24
 71
     3
 72
    12
 73
     8
 74
     0
 42
0.000000001
 43
0.00000001
 40
0.0
 40
0.0
 40
0.0
 40
0.0
 40
0.3000231305892145
 40
0.5189325741639648
 40
0.744190406432362
 40
0.9413196129111906
 40
1.0
 40
1.0
 40
1.0
 40
1.0
 10
-25.40000000000002
 20
1.730803272403332
 30
0.0
 10
-25.40000000000001
 20
1.911547666644555
 30
0.0
 10
-25.40000000000001
 20
2.224170742022451
 30
0.0
 10
-25.40000000000002
 20
2.523756778867924
 30
0.0
 10
-25.40000000000001
 20
2.685782676299663
 30
0.0
 10
-25.40000000000001
 20
2.753882539222861
 30
0.0
 10
-25.40000000000001
 20
2.742298565191643
 30
0.0
 10
-25.40000000000001
 20
2.739641307226066
 30
0.0
  0
LINE
  5
251
330
1F
100
AcDbEntity
  8
0
  6
Continuous
 62
     1
370
    15
100
AcDbLine
 10
-39.68750000000001
 20
-0.0000000000000107
 30
0.0
 11
-39.68750000000001
 21
-2.361406250000012
 31
0.0
1001
PE_URL
1000

  0
SPLINE
  5
252
330
1F
100
AcDbEntity
  8
0
  6
Continuous
 62
     1
370
    15
100
AcDbSpline
210
0.0
220
0.0
230
1.0
 70
     8
 71
     3
 72
    11
 73
     7
 74
     0
 42
0.000000001
 43
0.00000001
 40
0.0
 40
0.0
 40
0.0
 40
0.0
 40
0.1835096088594672
 40
0.4554898237497663
 40
0.7276001117709193
 40
1.0
 40
1.0
 40
1.0
 40
1.0
 10
-35.0679135487251
 20
-2.260230937590066
 30
0.0
 10
-35.35046930701817
 20
-2.381026618814502
 30
0.0
 10
-36.05180191485429
 20
-2.680853989667799
 30
0.0
 10
-37.17204950528917
 20
-3.024191846456699
 30
0.0
 10
-38.42926475841547
 20
-3.296180694847383
 30
0.0
 10
-39.26793956847077
 20
-3.345775653848641
 30
0.0
 10
-39.68750000000001
 20
-3.370586322001259
 30
0.0
1001
PE_URL
1000

  0
SPLINE
  5
253
330
1F
100
AcDbEntity
  8
0
  6
Continuous
 62
     1
370
    15
100
AcDbSpline
210
0.0
220
0.0
230
1.0
 70
    24
 71
     3
 72
    10
 73
     6
 74
     0
 42
0.000000001
 43
0.00000001
 40
0.0
 40
0.0
 40
0.0
 40
0.0
 40
0.5
 40
0.5
 40
1.0
 40
1.0
 40
1.0
 40
1.0
 10
-39.68750000000001
 20
-2.361406250000009
 30
0.0
 10
-39.68750000000001
 20
-2.504548816323432
 30
0.0
 10
-39.68750000000002
 20
-2.670893734818925
 30
0.0
 10
-39.68750000000001
 20
-3.019884925803897
 30
0.0
 10
-39.68750000000001
 20
-3.20163991858654
 30
0.0
 10
-39.68750000000001
 20
-3.370586322001262
 30
0.0
1001
PE_URL
1000

  0
SPLINE
  5
254
330
1F
100
AcDbEntity
  8
0
  6
Continuous
 62
     1
370
    15
100
AcDbSpline
210
0.0
220
0.0
230
1.0
 70
     8
 71
     3
 72
     9
 73
     5
 74
     0
 42
0.000000001
 43
0.00000001
 40
0.0
 40
0.0
 40
0.0
 40
0.0
 40
0.2435822840673549
 40
1.0
 40
1.0
 40
1.0
 40
1.0
 10
-27.06088578799538
 20
2.6523994147223
 30
0.0
 10
-26.92603018805077
 20
2.704056779124798
 30
0.0
 10
-26.37239550784009
 20
2.91613034843337
 30
0.0
 10
-25.81877121959478
 20
3.042811778097164
 30
0.0
 10
-25.39999999999542
 20
3.138635855774535
 30
0.0
1001
PE_URL
1000

  0
SPLINE
  5
255
330
1F
100
AcDbEntity
  8
외형선
  6
Continuous
370
    15
100
AcDbSpline
210
0.0
220
0.0
230
1.0
 70
    24
 71
     3
 72
     8
 73
     4
 74
     0
 42
0.000000001
 43
0.00000001
 40
0.0
 40
0.0
 40
0.0
 40
0.0
 40
1.0
 40
1.0
 40
1.0
 40
1.0
 10
-25.40000000000003
 20
2.72633999121345
 30
0.0
 10
-25.40000000000003
 20
2.872291488701677
 30
0.0
 10
-25.40000000000003
 20
3.010644526889447
 30
0.0
 10
-25.40000000000003
 20
3.138635855763994
 30
0.0
  0
LINE
  5
257
330
1F
100
AcDbEntity
  8
외형선
  6
Continuous
370
    15
100
AcDbLine
 10
-4.838700000000046
 20
4.762499999999995
 30
0.0
 11
-19.21594817511139
 21
4.762499999999994
 31
0.0
  0
ENDSEC
  0
SECTION
  2
OBJECTS
  0
DICTIONARY
  5
C
330
0
100
AcDbDictionary
281
     1
  3
ACAD_DETAILVIEWSTYLE
350
1E8
  3
ACAD_GROUP
350
D
  3
ACAD_IMAGE_VARS
350
27B
  3
ACAD_LAYOUT
350
1A
  3
ACAD_MLINESTYLE
350
17
  3
ACAD_PLOTSETTINGS
350
19
  3
ACAD_PLOTSTYLENAME
350
E
  3
ACAD_SCALELIST
350
47
  3
ACAD_SECTIONVIEWSTYLE
350
1E9
  3
AcDbVariableDictionary
350
1E3
  3
APPDATA
350
15A
  3
DWGPROPS
350
27C
  0
DICTIONARY
  5
193
330
2
100
AcDbDictionary
280
     1
281
     1
  3
ACAD_LAYERSTATES
360
194
  0
DICTIONARY
  5
1E8
102
{ACAD_REACTORS
330
C
102
}
330
C
100
AcDbDictionary
281
     1
  0
DICTIONARY
  5
D
102
{ACAD_REACTORS
330
C
102
}
330
C
100
AcDbDictionary
281
     1
  0
RASTERVARIABLES
  5
27B
102
{ACAD_REACTORS
330
C
102
}
330
C
100
AcDbRasterVariables
 90
        0
 70
     1
 71
     1
 72
     1
  0
DICTIONARY
  5
1A
102
{ACAD_REACTORS
330
C
102
}
330
C
100
AcDbDictionary
281
     1
  3
Layout1
350
1E
  3
Layout2
350
26
  3
Model
350
22
  0
DICTIONARY
  5
17
102
{ACAD_REACTORS
330
C
102
}
330
C
100
AcDbDictionary
281
     1
  3
Standard
350
18
  0
DICTIONARY
  5
19
102
{ACAD_REACTORS
330
C
102
}
330
C
100
AcDbDictionary
281
     1
  0
ACDBDICTIONARYWDFLT
  5
E
102
{ACAD_REACTORS
330
C
102
}
330
C
100
AcDbDictionary
281
     1
  3
Normal
350
F
100
AcDbDictionaryWithDefault
340
F
  0
DICTIONARY
  5
47
102
{ACAD_REACTORS
330
C
102
}
330
C
100
AcDbDictionary
281
     1
  3
A0
350
48
  3
A1
350
49
  3
A2
350
4A
  3
A3
350
4B
  3
A4
350
4C
  3
A5
350
4D
  3
A6
350
4E
  3
A7
350
4F
  3
A8
350
50
  3
A9
350
51
  3
B0
350
52
  3
B1
350
53
  3
B2
350
54
  3
B3
350
55
  3
B4
350
56
  3
B5
350
57
  3
B6
350
58
  3
B7
350
59
  3
B8
350
5A
  3
B9
350
5B
  3
C0
350
5C
  3
C1
350
5D
  3
C2
350
5E
  3
C3
350
5F
  3
C4
350
60
  3
C5
350
61
  3
C6
350
62
  3
C7
350
63
  3
C8
350
64
  3
C9
350
65
  3
D0
350
66
  3
D1
350
67
  3
D2
350
68
  0
DICTIONARY
  5
1E9
102
{ACAD_REACTORS
330
C
102
}
330
C
100
AcDbDictionary
281
     1
  0
DICTIONARY
  5
1E3
102
{ACAD_REACTORS
330
C
102
}
330
C
100
AcDbDictionary
281
     1
  0
DICTIONARY
  5
15A
102
{ACAD_REACTORS
330
C
102
}
330
C
100
AcDbDictionary
281
     1
  0
XRECORD
  5
27C
102
{ACAD_REACTORS
330
C
102
}
330
C
100
AcDbXrecord
280
     1
  1
DWGPROPS COOKIE
  2

  3

  4

  6

  7

  8
12016016
  9

300
=
301
=
302
=
303
=
304
=
305
=
306
=
307
=
308
=
309
=
 40
0.0
 41
2458313.02067625
 42
2458330.401701516
  1

 90
        0
  0
DICTIONARY
  5
194
102
{ACAD_REACTORS
330
193
102
}
330
193
100
AcDbDictionary
281
     1
  0
LAYOUT
  5
1E
102
{ACAD_REACTORS
330
1A
102
}
330
1A
100
AcDbPlotSettings
  1

  2
none_device
  4

  6

 40
0.0
 41
0.0
 42
0.0
 43
0.0
 44
0.0
 45
0.0
 46
0.0
 47
0.0
 48
0.0
 49
0.0
140
0.0
141
0.0
142
1.0
143
1.0
 70
   688
 72
     1
 73
     0
 74
     5
  7

 75
    16
147
1.0
148
0.0
149
0.0
100
AcDbLayout
  1
Layout1
 70
     1
 71
     1
 10
0.0
 20
0.0
 11
420.0
 21
297.0
 12
0.0
 22
0.0
 32
0.0
 14
1.000000000000000E+20
 24
1.000000000000000E+20
 34
1.000000000000000E+20
 15
-1.000000000000000E+20
 25
-1.000000000000000E+20
 35
-1.000000000000000E+20
146
0.0
 13
0.0
 23
0.0
 33
0.0
 16
1.0
 26
0.0
 36
0.0
 17
0.0
 27
1.0
 37
0.0
 76
     0
330
1B
  0
LAYOUT
  5
26
102
{ACAD_REACTORS
330
1A
102
}
330
1A
100
AcDbPlotSettings
  1

  2
none_device
  4

  6

 40
0.0
 41
0.0
 42
0.0
 43
0.0
 44
0.0
 45
0.0
 46
0.0
 47
0.0
 48
0.0
 49
0.0
140
0.0
141
0.0
142
1.0
143
1.0
 70
   688
 72
     1
 73
     0
 74
     5
  7

 75
    16
147
1.0
148
0.0
149
0.0
100
AcDbLayout
  1
Layout2
 70
     1
 71
     2
 10
0.0
 20
0.0
 11
0.0
 21
0.0
 12
0.0
 22
0.0
 32
0.0
 14
0.0
 24
0.0
 34
0.0
 15
0.0
 25
0.0
 35
0.0
146
0.0
 13
0.0
 23
0.0
 33
0.0
 16
1.0
 26
0.0
 36
0.0
 17
0.0
 27
1.0
 37
0.0
 76
     0
330
23
  0
LAYOUT
  5
22
102
{ACAD_REACTORS
330
1A
102
}
330
1A
100
AcDbPlotSettings
  1

  2
none_device
  4
ANSI_A_(11.00_x_8.50_Inches)
  6

 40
6.35
 41
19.05
 42
6.35000508
 43
19.05000254
 44
279.4
 45
215.9
 46
82.27280351928636
 47
65.3049378728848
 48
0.0
 49
0.0
140
0.0
141
0.0
142
0.0439734263724029
143
1.0
 70
  1696
 72
     0
 73
     0
 74
     0
  7

 75
     0
147
0.0235690232323232
148
0.0
149
0.0
100
AcDbLayout
  1
Model
 70
     1
 71
     0
 10
0.0
 20
0.0
 11
420.0
 21
297.0
 12
0.0
 22
0.0
 32
0.0
 14
-54.06250000000009
 24
-49.97180738881175
 34
0.0
 15
96.20662503295505
 25
40.59958632200133
 35
0.0
146
0.0
 13
0.0
 23
0.0
 33
0.0
 16
1.0
 26
0.0
 36
0.0
 17
0.0
 27
1.0
 37
0.0
 76
     0
330
1F
331
29
  0
MLINESTYLE
  5
18
102
{ACAD_REACTORS
330
17
102
}
330
17
100
AcDbMlineStyle
  2
Standard
 70
     0
  3

 62
   256
 51
90.0
 52
90.0
 71
     2
 49
0.5
 62
   256
  6
BYLAYER
 49
-0.5
 62
   256
  6
BYLAYER
  0
ACDBPLACEHOLDER
  5
F
102
{ACAD_REACTORS
330
E
102
}
330
E
  0
SCALE
  5
48
102
{ACAD_REACTORS
330
47
102
}
330
47
100
AcDbScale
 70
     0
300
1:1
140
1.0
141
1.0
290
     1
  0
SCALE
  5
49
102
{ACAD_REACTORS
330
47
102
}
330
47
100
AcDbScale
 70
     0
300
1:2
140
1.0
141
2.0
290
     0
  0
SCALE
  5
4A
102
{ACAD_REACTORS
330
47
102
}
330
47
100
AcDbScale
 70
     0
300
1:4
140
1.0
141
4.0
290
     0
  0
SCALE
  5
4B
102
{ACAD_REACTORS
330
47
102
}
330
47
100
AcDbScale
 70
     0
300
1:5
140
1.0
141
5.0
290
     0
  0
SCALE
  5
4C
102
{ACAD_REACTORS
330
47
102
}
330
47
100
AcDbScale
 70
     0
300
1:8
140
1.0
141
8.0
290
     0
  0
SCALE
  5
4D
102
{ACAD_REACTORS
330
47
102
}
330
47
100
AcDbScale
 70
     0
300
1:10
140
1.0
141
10.0
290
     0
  0
SCALE
  5
4E
102
{ACAD_REACTORS
330
47
102
}
330
47
100
AcDbScale
 70
     0
300
1:16
140
1.0
141
16.0
290
     0
  0
SCALE
  5
4F
102
{ACAD_REACTORS
330
47
102
}
330
47
100
AcDbScale
 70
     0
300
1:20
140
1.0
141
20.0
290
     0
  0
SCALE
  5
50
102
{ACAD_REACTORS
330
47
102
}
330
47
100
AcDbScale
 70
     0
300
1:30
140
1.0
141
30.0
290
     0
  0
SCALE
  5
51
102
{ACAD_REACTORS
330
47
102
}
330
47
100
AcDbScale
 70
     0
300
1:40
140
1.0
141
40.0
290
     0
  0
SCALE
  5
52
102
{ACAD_REACTORS
330
47
102
}
330
47
100
AcDbScale
 70
     0
300
1:50
140
1.0
141
50.0
290
     0
  0
SCALE
  5
53
102
{ACAD_REACTORS
330
47
102
}
330
47
100
AcDbScale
 70
     0
300
1:100
140
1.0
141
100.0
290
     0
  0
SCALE
  5
54
102
{ACAD_REACTORS
330
47
102
}
330
47
100
AcDbScale
 70
     0
300
2:1
140
2.0
141
1.0
290
     0
  0
SCALE
  5
55
102
{ACAD_REACTORS
330
47
102
}
330
47
100
AcDbScale
 70
     0
300
4:1
140
4.0
141
1.0
290
     0
  0
SCALE
  5
56
102
{ACAD_REACTORS
330
47
102
}
330
47
100
AcDbScale
 70
     0
300
8:1
140
8.0
141
1.0
290
     0
  0
SCALE
  5
57
102
{ACAD_REACTORS
330
47
102
}
330
47
100
AcDbScale
 70
     0
300
10:1
140
10.0
141
1.0
290
     0
  0
SCALE
  5
58
102
{ACAD_REACTORS
330
47
102
}
330
47
100
AcDbScale
 70
     0
300
100:1
140
100.0
141
1.0
290
     0
  0
SCALE
  5
59
102
{ACAD_REACTORS
330
47
102
}
330
47
100
AcDbScale
 70
     0
300
1/128" = 1'-0"
140
0.0078125
141
12.0
290
     0
  0
SCALE
  5
5A
102
{ACAD_REACTORS
330
47
102
}
330
47
100
AcDbScale
 70
     0
300
1/64" = 1'-0"
140
0.015625
141
12.0
290
     0
  0
SCALE
  5
5B
102
{ACAD_REACTORS
330
47
102
}
330
47
100
AcDbScale
 70
     0
300
1/32" = 1'-0"
140
0.03125
141
12.0
290
     0
  0
SCALE
  5
5C
102
{ACAD_REACTORS
330
47
102
}
330
47
100
AcDbScale
 70
     0
300
1/16" = 1'-0"
140
0.0625
141
12.0
290
     0
  0
SCALE
  5
5D
102
{ACAD_REACTORS
330
47
102
}
330
47
100
AcDbScale
 70
     0
300
3/32" = 1'-0"
140
0.09375
141
12.0
290
     0
  0
SCALE
  5
5E
102
{ACAD_REACTORS
330
47
102
}
330
47
100
AcDbScale
 70
     0
300
1/8" = 1'-0"
140
0.125
141
12.0
290
     0
  0
SCALE
  5
5F
102
{ACAD_REACTORS
330
47
102
}
330
47
100
AcDbScale
 70
     0
300
3/16" = 1'-0"
140
0.1875
141
12.0
290
     0
  0
SCALE
  5
60
102
{ACAD_REACTORS
330
47
102
}
330
47
100
AcDbScale
 70
     0
300
1/4" = 1'-0"
140
0.25
141
12.0
290
     0
  0
SCALE
  5
61
102
{ACAD_REACTORS
330
47
102
}
330
47
100
AcDbScale
 70
     0
300
3/8" = 1'-0"
140
0.375
141
12.0
290
     0
  0
SCALE
  5
62
102
{ACAD_REACTORS
330
47
102
}
330
47
100
AcDbScale
 70
     0
300
1/2" = 1'-0"
140
0.5
141
12.0
290
     0
  0
SCALE
  5
63
102
{ACAD_REACTORS
330
47
102
}
330
47
100
AcDbScale
 70
     0
300
3/4" = 1'-0"
140
0.75
141
12.0
290
     0
  0
SCALE
  5
64
102
{ACAD_REACTORS
330
47
102
}
330
47
100
AcDbScale
 70
     0
300
1" = 1'-0"
140
1.0
141
12.0
290
     0
  0
SCALE
  5
65
102
{ACAD_REACTORS
330
47
102
}
330
47
100
AcDbScale
 70
     0
300
1-1/2" = 1'-0"
140
1.5
141
12.0
290
     0
  0
SCALE
  5
66
102
{ACAD_REACTORS
330
47
102
}
330
47
100
AcDbScale
 70
     0
300
3" = 1'-0"
140
3.0
141
12.0
290
     0
  0
SCALE
  5
67
102
{ACAD_REACTORS
330
47
102
}
330
47
100
AcDbScale
 70
     0
300
6" = 1'-0"
140
6.0
141
12.0
290
     0
  0
SCALE
  5
68
102
{ACAD_REACTORS
330
47
102
}
330
47
100
AcDbScale
 70
     0
300
1'-0" = 1'-0"
140
12.0
141
12.0
290
     0
  0
ENDSEC
  0
EOF
