  0
SECTION
  2
HEADER
  9
$ACADVER
  1
AC1015
  9
$ACADMAINTVER
 70
     6
  9
$DWGCODEPAGE
  3
ANSI_949
  9
$INSBASE
 10
0.0
 20
0.0
 30
0.0
  9
$EXTMIN
 10
-54.0625000000001
 20
-49.97180738881175
 30
0.0
  9
$EXTMAX
 10
96.20662503295507
 20
38.17285610564845
 30
0.0
  9
$LIMMIN
 10
0.0
 20
0.0
  9
$LIMMAX
 10
420.0
 20
297.0
  9
$ORTHOMODE
 70
     1
  9
$REGENMODE
 70
     1
  9
$FILLMODE
 70
     1
  9
$QTEXTMODE
 70
     0
  9
$MIRRTEXT
 70
     1
  9
$LTSCALE
 40
1.0
  9
$ATTMODE
 70
     1
  9
$TEXTSIZE
 40
3.5
  9
$TRACEWID
 40
1.0
  9
$TEXTSTYLE
  7
Standard
  9
$CLAYER
  8
0
  9
$CELTYPE
  6
ByLayer
  9
$CECOLOR
 62
   256
  9
$CELTSCALE
 40
1.0
  9
$DISPSILH
 70
     0
  9
$DIMSCALE
 40
1.0
  9
$DIMASZ
 40
3.302
  9
$DIMEXO
 40
1.0
  9
$DIMDLI
 40
3.75
  9
$DIMRND
 40
0.0
  9
$DIMDLE
 40
0.0
  9
$DIMEXE
 40
1.0
  9
$DIMTP
 40
0.0
  9
$DIMTM
 40
0.0
  9
$DIMTXT
 40
3.5
  9
$DIMCEN
 40
2.5
  9
$DIMTSZ
 40
0.0
  9
$DIMTOL
 70
     0
  9
$DIMLIM
 70
     0
  9
$DIMTIH
 70
     1
  9
$DIMTOH
 70
     1
  9
$DIMSE1
 70
     0
  9
$DIMSE2
 70
     0
  9
$DIMTAD
 70
     1
  9
$DIMZIN
 70
     0
  9
$DIMBLK
  1

  9
$DIMASO
 70
     1
  9
$DIMSHO
 70
     1
  9
$DIMPOST
  1

  9
$DIMAPOST
  1

  9
$DIMALT
 70
     0
  9
$DIMALTD
 70
     3
  9
$DIMALTF
 40
0.0393700787401575
  9
$DIMLFAC
 40
1.0
  9
$DIMTOFL
 70
     1
  9
$DIMTVP
 40
0.0
  9
$DIMTIX
 70
     0
  9
$DIMSOXD
 70
     0
  9
$DIMSAH
 70
     0
  9
$DIMBLK1
  1

  9
$DIMBLK2
  1

  9
$DIMSTYLE
  2
ISO-25
  9
$DIMCLRD
 70
     0
  9
$DIMCLRE
 70
     0
  9
$DIMCLRT
 70
     0
  9
$DIMTFAC
 40
1.0
  9
$DIMGAP
 40
1.524
  9
$DIMJUST
 70
     0
  9
$DIMSD1
 70
     0
  9
$DIMSD2
 70
     0
  9
$DIMTOLJ
 70
     0
  9
$DIMTZIN
 70
     0
  9
$DIMALTZ
 70
     0
  9
$DIMALTTZ
 70
     0
  9
$DIMUPT
 70
     0
  9
$DIMDEC
 70
     2
  9
$DIMTDEC
 70
     2
  9
$DIMALTU
 70
     2
  9
$DIMALTTD
 70
     3
  9
$DIMTXSTY
  7
Standard
  9
$DIMAUNIT
 70
     0
  9
$DIMADEC
 70
     2
  9
$DIMALTRND
 40
0.0
  9
$DIMAZIN
 70
     0
  9
$DIMDSEP
 70
    44
  9
$DIMATFIT
 70
     3
  9
$DIMFRAC
 70
     0
  9
$DIMLDRBLK
  1

  9
$DIMLUNIT
 70
     2
  9
$DIMLWD
 70
    -2
  9
$DIMLWE
 70
    -2
  9
$DIMTMOVE
 70
     0
  9
$LUNITS
 70
     2
  9
$LUPREC
 70
     2
  9
$SKETCHINC
 40
1.0
  9
$FILLETRAD
 40
10.0
  9
$AUNITS
 70
     0
  9
$AUPREC
 70
     2
  9
$MENU
  1
.
  9
$ELEVATION
 40
0.0
  9
$PELEVATION
 40
0.0
  9
$THICKNESS
 40
0.0
  9
$LIMCHECK
 70
     0
  9
$CHAMFERA
 40
0.0
  9
$CHAMFERB
 40
0.0
  9
$CHAMFERC
 40
0.0
  9
$CHAMFERD
 40
0.0
  9
$SKPOLY
 70
     0
  9
$TDCREATE
 40
2458313.395887859
  9
$TDUCREATE
 40
2458313.020887859
  9
$TDUPDATE
 40
2458330.776657292
  9
$TDUUPDATE
 40
2458330.401657292
  9
$TDINDWG
 40
0.0017785417
  9
$TDUSRTIMER
 40
2458330.401618403
  9
$USRTIMER
 70
     1
  9
$ANGBASE
 50
0.0
  9
$ANGDIR
 70
     0
  9
$PDMODE
 70
     0
  9
$PDSIZE
 40
-1.0
  9
$PLINEWID
 40
0.0
  9
$SPLFRAME
 70
     0
  9
$SPLINETYPE
 70
     6
  9
$SPLINESEGS
 70
     8
  9
$HANDSEED
  5
27A
  9
$SURFTAB1
 70
     6
  9
$SURFTAB2
 70
     6
  9
$SURFTYPE
 70
     6
  9
$SURFU
 70
     6
  9
$SURFV
 70
     6
  9
$UCSBASE
  2

  9
$UCSNAME
  2

  9
$UCSORG
 10
0.0
 20
0.0
 30
0.0
  9
$UCSXDIR
 10
1.0
 20
0.0
 30
0.0
  9
$UCSYDIR
 10
0.0
 20
1.0
 30
0.0
  9
$UCSORTHOREF
  2

  9
$UCSORTHOVIEW
 70
     0
  9
$UCSORGTOP
 10
0.0
 20
0.0
 30
0.0
  9
$UCSORGBOTTOM
 10
0.0
 20
0.0
 30
0.0
  9
$UCSORGLEFT
 10
0.0
 20
0.0
 30
0.0
  9
$UCSORGRIGHT
 10
0.0
 20
0.0
 30
0.0
  9
$UCSORGFRONT
 10
0.0
 20
0.0
 30
0.0
  9
$UCSORGBACK
 10
0.0
 20
0.0
 30
0.0
  9
$PUCSBASE
  2

  9
$PUCSNAME
  2

  9
$PUCSORG
 10
0.0
 20
0.0
 30
0.0
  9
$PUCSXDIR
 10
1.0
 20
0.0
 30
0.0
  9
$PUCSYDIR
 10
0.0
 20
1.0
 30
0.0
  9
$PUCSORTHOREF
  2

  9
$PUCSORTHOVIEW
 70
     0
  9
$PUCSORGTOP
 10
0.0
 20
0.0
 30
0.0
  9
$PUCSORGBOTTOM
 10
0.0
 20
0.0
 30
0.0
  9
$PUCSORGLEFT
 10
0.0
 20
0.0
 30
0.0
  9
$PUCSORGRIGHT
 10
0.0
 20
0.0
 30
0.0
  9
$PUCSORGFRONT
 10
0.0
 20
0.0
 30
0.0
  9
$PUCSORGBACK
 10
0.0
 20
0.0
 30
0.0
  9
$USERI1
 70
     0
  9
$USERI2
 70
     0
  9
$USERI3
 70
     0
  9
$USERI4
 70
     0
  9
$USERI5
 70
     0
  9
$USERR1
 40
0.0
  9
$USERR2
 40
0.0
  9
$USERR3
 40
0.0
  9
$USERR4
 40
0.0
  9
$USERR5
 40
0.0
  9
$WORLDVIEW
 70
     1
  9
$SHADEDGE
 70
     3
  9
$SHADEDIF
 70
    70
  9
$TILEMODE
 70
     1
  9
$MAXACTVP
 70
    64
  9
$PINSBASE
 10
0.0
 20
0.0
 30
0.0
  9
$PLIMCHECK
 70
     0
  9
$PEXTMIN
 10
1.000000000000000E+20
 20
1.000000000000000E+20
 30
1.000000000000000E+20
  9
$PEXTMAX
 10
-1.000000000000000E+20
 20
-1.000000000000000E+20
 30
-1.000000000000000E+20
  9
$PLIMMIN
 10
0.0
 20
0.0
  9
$PLIMMAX
 10
0.0
 20
0.0
  9
$UNITMODE
 70
     0
  9
$VISRETAIN
 70
     1
  9
$PLINEGEN
 70
     0
  9
$PSLTSCALE
 70
     1
  9
$TREEDEPTH
 70
  3020
  9
$CMLSTYLE
  2
Standard
  9
$CMLJUST
 70
     0
  9
$CMLSCALE
 40
20.0
  9
$PROXYGRAPHICS
 70
     1
  9
$MEASUREMENT
 70
     1
  9
$CELWEIGHT
370
    -1
  9
$ENDCAPS
280
     0
  9
$JOINSTYLE
280
     0
  9
$LWDISPLAY
290
     1
  9
$INSUNITS
 70
     4
  9
$HYPERLINKBASE
  1

  9
$STYLESHEET
  1

  9
$XEDIT
290
     1
  9
$CEPSNTYPE
380
     0
  9
$PSTYLEMODE
290
     1
  9
$FINGERPRINTGUID
  2
{46503DC7-B5D5-4054-B95D-A6D5D71386C3}
  9
$VERSIONGUID
  2
{FAEB1C32-E019-11D5-929B-00C0DF256EC4}
  9
$EXTNAMES
290
     1
  9
$PSVPSCALE
 40
0.0
  9
$OLESTARTUP
290
     0
  0
ENDSEC
  0
SECTION
  2
CLASSES
  0
CLASS
  1
ACDBDICTIONARYWDFLT
  2
AcDbDictionaryWithDefault
  3
ObjectDBX Classes
 90
        0
280
     0
281
     0
  0
CLASS
  1
VISUALSTYLE
  2
AcDbVisualStyle
  3
ObjectDBX Classes
 90
     4095
280
     0
281
     0
  0
CLASS
  1
MATERIAL
  2
AcDbMaterial
  3
ObjectDBX Classes
 90
     1153
280
     0
281
     0
  0
CLASS
  1
SCALE
  2
AcDbScale
  3
ObjectDBX Classes
 90
     1153
280
     0
281
     0
  0
CLASS
  1
SUN
  2
AcDbSun
  3
SCENEOE
 90
     1153
280
     0
281
     0
  0
CLASS
  1
ACDBPLACEHOLDER
  2
AcDbPlaceHolder
  3
ObjectDBX Classes
 90
        0
280
     0
281
     0
  0
CLASS
  1
LAYOUT
  2
AcDbLayout
  3
ObjectDBX Classes
 90
        0
280
     0
281
     0
  0
CLASS
  1
TABLESTYLE
  2
AcDbTableStyle
  3
ObjectDBX Classes
 90
     4095
280
     0
281
     0
  0
CLASS
  1
MLEADERSTYLE
  2
AcDbMLeaderStyle
  3
ACDB_MLEADERSTYLE_CLASS
 90
     4095
280
     0
281
     0
  0
CLASS
  1
DICTIONARYVAR
  2
AcDbDictionaryVar
  3
ObjectDBX Classes
 90
        0
280
     0
281
     0
  0
CLASS
  1
RASTERVARIABLES
  2
AcDbRasterVariables
  3
ISM
 90
        0
280
     0
281
     0
  0
ENDSEC
  0
SECTION
  2
TABLES
  0
TABLE
  2
VPORT
  5
8
330
0
100
AcDbSymbolTable
 70
     1
  0
VPORT
  5
29
330
8
100
AcDbSymbolTableRecord
100
AcDbViewportTableRecord
  2
*Active
 70
     0
 10
0.0
 20
0.0
 11
1.0
 21
1.0
 12
21.07206251647749
 22
-5.89947564158161
 13
0.0
 23
0.0
 14
10.0
 24
10.0
 15
10.0
 25
10.0
 16
0.0
 26
0.0
 36
1.0
 17
0.0
 27
0.0
 37
0.0
 40
89.9075567643495
 41
1.782762691853601
 42
50.0
 43
0.0
 44
0.0
 50
0.0
 51
0.0
 71
    16
 72
  2000
 73
     1
 74
     3
 75
     0
 76
     0
 77
     0
 78
     0
281
     0
 65
     1
110
0.0
120
0.0
130
0.0
111
1.0
121
0.0
131
0.0
112
0.0
122
1.0
132
0.0
 79
     0
146
0.0
  0
ENDTAB
  0
TABLE
  2
LTYPE
  5
5
330
0
100
AcDbSymbolTable
 70
     6
  0
LTYPE
  5
14
330
5
100
AcDbSymbolTableRecord
100
AcDbLinetypeTableRecord
  2
ByBlock
 70
     0
  3

 72
    65
 73
     0
 40
0.0
  0
LTYPE
  5
15
330
5
100
AcDbSymbolTableRecord
100
AcDbLinetypeTableRecord
  2
ByLayer
 70
     0
  3

 72
    65
 73
     0
 40
0.0
  0
LTYPE
  5
16
330
5
100
AcDbSymbolTableRecord
100
AcDbLinetypeTableRecord
  2
Continuous
 70
     0
  3
Solid line
 72
    65
 73
     0
 40
0.0
  0
LTYPE
  5
6A
330
5
100
AcDbSymbolTableRecord
100
AcDbLinetypeTableRecord
  2
HIDDEN
 70
     0
  3
Hidden __ __ __ __ __ __ __ __ __ __ __ __ __ __
 72
    65
 73
     2
 40
1.905
 49
1.27
 74
     0
 49
-0.635
 74
     0
  0
LTYPE
  5
6B
330
5
100
AcDbSymbolTableRecord
100
AcDbLinetypeTableRecord
  2
PHANTOM
 70
     0
  3
Phantom ______  __  __  ______  __  __  ______
 72
    65
 73
     6
 40
12.7
 49
6.35
 74
     0
 49
-1.27
 74
     0
 49
1.27
 74
     0
 49
-1.27
 74
     0
 49
1.27
 74
     0
 49
-1.27
 74
     0
  0
LTYPE
  5
6C
330
5
100
AcDbSymbolTableRecord
100
AcDbLinetypeTableRecord
  2
CENTER
 70
     0
  3
Center ____ _ ____ _ ____ _ ____ _ ____ _ ____
 72
    65
 73
     4
 40
10.16
 49
6.35
 74
     0
 49
-1.27
 74
     0
 49
1.27
 74
     0
 49
-1.27
 74
     0
  0
LTYPE
  5
6D
330
5
100
AcDbSymbolTableRecord
100
AcDbLinetypeTableRecord
  2
CENTERX2
 70
     0
  3
Center (2x) ________  __  ________  __  _____
 72
    65
 73
     4
 40
20.32
 49
12.7
 74
     0
 49
-2.54
 74
     0
 49
2.54
 74
     0
 49
-2.54
 74
     0
  0
LTYPE
  5
6E
330
5
100
AcDbSymbolTableRecord
100
AcDbLinetypeTableRecord
  2
DOT2
 70
     0
  3
Dot (.5x) ........................................
 72
    65
 73
     2
 40
0.635
 49
0.0
 74
     0
 49
-0.635
 74
     0
  0
ENDTAB
  0
TABLE
  2
LAYER
  5
2
102
{ACAD_XDICTIONARY
360
191
102
}
330
0
100
AcDbSymbolTable
 70
    18
  0
LAYER
  5
10
330
2
100
AcDbSymbolTableRecord
100
AcDbLayerTableRecord
  2
0
 70
     0
 62
     7
  6
Continuous
370
    -3
390
F
  0
LAYER
  5
6F
330
2
100
AcDbSymbolTableRecord
100
AcDbLayerTableRecord
  2
FORMAT
 70
     0
 62
     2
  6
Continuous
370
    -3
390
F
  0
LAYER
  5
70
330
2
100
AcDbSymbolTableRecord
100
AcDbLayerTableRecord
  2
외형선
 70
     0
 62
     4
  6
Continuous
370
    30
390
F
  0
LAYER
  5
71
330
2
100
AcDbSymbolTableRecord
100
AcDbLayerTableRecord
  2
숨은선
 70
     0
 62
     2
  6
HIDDEN
370
    15
390
F
  0
LAYER
  5
72
330
2
100
AcDbSymbolTableRecord
100
AcDbLayerTableRecord
  2
중심선
 70
     0
 62
     1
  6
CENTERX2
370
    -3
390
F
  0
LAYER
  5
73
330
2
100
AcDbSymbolTableRecord
100
AcDbLayerTableRecord
  2
파단선
 70
     0
 62
     4
  6
Continuous
370
    -3
390
F
  0
LAYER
  5
74
330
2
100
AcDbSymbolTableRecord
100
AcDbLayerTableRecord
  2
해칭선
 70
     0
 62
   100
  6
Continuous
370
    -3
390
F
  0
LAYER
  5
75
330
2
100
AcDbSymbolTableRecord
100
AcDbLayerTableRecord
  2
가는실선
 70
     0
 62
     4
  6
Continuous
370
    -3
390
F
  0
LAYER
  5
76
330
2
100
AcDbSymbolTableRecord
100
AcDbLayerTableRecord
  2
치수_보조선
 70
     0
 62
     4
  6
Continuous
370
    -3
390
F
  0
LAYER
  5
77
330
2
100
AcDbSymbolTableRecord
100
AcDbLayerTableRecord
  2
치수문자_일반주서
 70
     0
 62
     7
  6
Continuous
370
    15
390
F
  0
LAYER
  5
78
330
2
100
AcDbSymbolTableRecord
100
AcDbLayerTableRecord
  2
개별주서
 70
     0
 62
   100
  6
Continuous
370
    30
390
F
  0
LAYER
  5
79
330
2
100
AcDbSymbolTableRecord
100
AcDbLayerTableRecord
  2
중간선
 70
     0
 62
     2
  6
Continuous
370
    15
390
F
  0
LAYER
  5
7A
330
2
100
AcDbSymbolTableRecord
100
AcDbLayerTableRecord
  2
윤곽선
 70
     0
 62
     3
  6
Continuous
370
    40
390
F
  0
LAYER
  5
7B
330
2
100
AcDbSymbolTableRecord
100
AcDbLayerTableRecord
  2
중심마크
 70
     0
 62
   100
  6
Continuous
370
    30
390
F
  0
LAYER
  5
7C
330
2
100
AcDbSymbolTableRecord
100
AcDbLayerTableRecord
  2
가상선
 70
     0
 62
     4
  6
PHANTOM
370
    -3
390
F
  0
LAYER
  5
7D
330
2
100
AcDbSymbolTableRecord
100
AcDbLayerTableRecord
  2
특수지정선
 70
     0
 62
     5
  6
CENTERX2
370
    60
390
F
  0
LAYER
  5
7E
330
2
100
AcDbSymbolTableRecord
100
AcDbLayerTableRecord
  2
참조1
 70
     0
 62
    -4
  6
Continuous
370
    -3
390
F
  0
LAYER
  5
15A
330
2
100
AcDbSymbolTableRecord
100
AcDbLayerTableRecord
  2
Defpoints
 70
     0
 62
     7
  6
Continuous
290
     0
370
    -3
390
F
  0
ENDTAB
  0
TABLE
  2
STYLE
  5
3
330
0
100
AcDbSymbolTable
 70
     2
  0
STYLE
  5
11
330
3
100
AcDbSymbolTableRecord
100
AcDbTextStyleTableRecord
  2
Standard
 70
     0
 40
0.0
 41
1.0
 50
0.0
 71
     0
 42
3.5
  3
txt
  4

  0
STYLE
  5
94
330
3
100
AcDbSymbolTableRecord
100
AcDbTextStyleTableRecord
  2
SLDTEXTSTYLE0
 70
     0
 40
0.0
 41
0.75
 50
0.0
 71
     0
 42
3.5
  3
TXT
  4

  0
ENDTAB
  0
TABLE
  2
VIEW
  5
6
330
0
100
AcDbSymbolTable
 70
     0
  0
ENDTAB
  0
TABLE
  2
UCS
  5
7
330
0
100
AcDbSymbolTable
 70
     0
  0
ENDTAB
  0
TABLE
  2
APPID
  5
9
330
0
100
AcDbSymbolTable
 70
     2
  0
APPID
  5
12
330
9
100
AcDbSymbolTableRecord
100
AcDbRegAppTableRecord
  2
ACAD
 70
     0
  0
APPID
  5
161
330
9
100
AcDbSymbolTableRecord
100
AcDbRegAppTableRecord
  2
PE_URL
 70
     0
  0
ENDTAB
  0
TABLE
  2
DIMSTYLE
  5
A
330
0
100
AcDbSymbolTable
 70
     3
100
AcDbDimStyleTable
  0
DIMSTYLE
105
27
330
A
100
AcDbSymbolTableRecord
100
AcDbDimStyleTableRecord
  2
ISO-25
 70
     0
 41
2.5
 42
0.625
 43
3.75
 44
1.25
 73
     0
 74
     0
 77
     1
 78
     8
140
2.5
141
2.5
143
0.03937007874016
147
0.625
171
     3
172
     1
178
     0
271
     2
272
     2
274
     3
278
    44
283
     0
284
     8
340
11
  0
DIMSTYLE
105
D9
102
{ACAD_REACTORS
330
D8
330
ED
330
101
330
116
102
}
330
A
100
AcDbSymbolTableRecord
100
AcDbDimStyleTableRecord
  2
SLDDIMSTYLE0
 70
     0
 41
3.302
 44
0.0
 45
0.000000001
 73
     0
 74
     0
 77
     1
 78
    12
 79
     3
140
3.5
143
0.0393700787401575
147
0.875
148
0.000000001
170
     1
172
     1
173
     1
178
     0
271
     2
272
     2
276
     2
284
    12
289
     0
340
94
  0
DIMSTYLE
105
102
330
A
100
AcDbSymbolTableRecord
100
AcDbDimStyleTableRecord
  2
SLDDIMSTYLE1
 70
     0
 41
3.302
 44
0.0
 45
0.000000001
 73
     0
 74
     0
 77
     1
 78
    12
 79
     3
140
3.5
143
0.0393700787401575
147
0.875
148
0.000000001
170
     1
173
     1
178
     0
271
     2
272
     2
276
     2
284
    12
340
94
  0
ENDTAB
  0
TABLE
  2
BLOCK_RECORD
  5
1
330
0
100
AcDbSymbolTable
 70
     9
  0
BLOCK_RECORD
  5
1F
330
1
100
AcDbSymbolTableRecord
100
AcDbBlockTableRecord
  2
*Model_Space
340
22
  0
BLOCK_RECORD
  5
1B
330
1
100
AcDbSymbolTableRecord
100
AcDbBlockTableRecord
  2
*Paper_Space
340
1E
  0
BLOCK_RECORD
  5
23
330
1
100
AcDbSymbolTableRecord
100
AcDbBlockTableRecord
  2
*Paper_Space0
340
26
  0
BLOCK_RECORD
  5
7F
330
1
100
AcDbSymbolTableRecord
100
AcDbBlockTableRecord
  2
블럭10
340
0
102
{BLKREFS
331
D1
102
}
  0
BLOCK_RECORD
  5
DA
330
1
100
AcDbSymbolTableRecord
100
AcDbBlockTableRecord
  2
_D
340
0
  0
BLOCK_RECORD
  5
EE
330
1
100
AcDbSymbolTableRecord
100
AcDbBlockTableRecord
  2
_D_1
340
0
  0
BLOCK_RECORD
  5
103
330
1
100
AcDbSymbolTableRecord
100
AcDbBlockTableRecord
  2
_D_2
340
0
  0
BLOCK_RECORD
  5
117
330
1
100
AcDbSymbolTableRecord
100
AcDbBlockTableRecord
  2
_D_3
340
0
  0
BLOCK_RECORD
  5
130
330
1
100
AcDbSymbolTableRecord
100
AcDbBlockTableRecord
  2
SW_DOWELSYMBOL_0
340
0
102
{BLKREFS
331
136
102
}
  0
BLOCK_RECORD
  5
195
330
1
100
AcDbSymbolTableRecord
100
AcDbBlockTableRecord
  2
*D7
340
0
  0
BLOCK_RECORD
  5
1A7
330
1
100
AcDbSymbolTableRecord
100
AcDbBlockTableRecord
  2
*D8
340
0
  0
ENDTAB
  0
ENDSEC
  0
SECTION
  2
BLOCKS
  0
BLOCK
  5
20
330
1F
100
AcDbEntity
  8
0
100
AcDbBlockBegin
  2
*Model_Space
 70
     0
 10
0.0
 20
0.0
 30
0.0
  3
*Model_Space
  1
*Model_Space
  0
ENDBLK
  5
21
330
1F
100
AcDbEntity
  8
0
100
AcDbBlockEnd
  0
BLOCK
  5
1C
330
1B
100
AcDbEntity
 67
     1
  8
0
100
AcDbBlockBegin
  2
*Paper_Space
 70
     0
 10
0.0
 20
0.0
 30
0.0
  3
*Paper_Space
  1
*Paper_Space
  0
ENDBLK
  5
1D
330
1B
100
AcDbEntity
 67
     1
  8
0
100
AcDbBlockEnd
  0
BLOCK
  5
24
330
23
100
AcDbEntity
  8
0
100
AcDbBlockBegin
  2
*Paper_Space0
 70
     0
 10
0.0
 20
0.0
 30
0.0
  3
*Paper_Space0
  1
*Paper_Space0
  0
ENDBLK
  5
25
330
23
100
AcDbEntity
  8
0
100
AcDbBlockEnd
  0
BLOCK
  5
80
330
7F
100
AcDbEntity
  8
0
100
AcDbBlockBegin
  2
블럭10
 70
     2
 10
0.0
 20
0.0
 30
0.0
  3
블럭10
  1
블럭10
  0
ELLIPSE
  5
82
330
7F
100
AcDbEntity
  8
중심선
100
AcDbEllipse
 10
20.54032771741204
 20
12.0471743016438
 30
0.0
 11
6.600054785286829
 21
-1.261213355974178E-13
 31
0.0
210
0.0
220
0.0
230
1.0
 40
0.636358354079598
 41
0.9219305317359503
 42
6.513795318482858
  0
ELLIPSE
  5
83
330
7F
100
AcDbEntity
  8
중심선
100
AcDbEllipse
 10
20.54032771746488
 20
12.04717430159265
 30
0.0
 11
3.960054785062283
 21
1.540847449632565E-10
 31
0.0
210
0.0
220
0.0
230
1.0
 40
0.3939339440162632
 41
1.131841032648279
 42
5.62031148352944
  0
LINE
  5
84
330
7F
100
AcDbEntity
  8
중심선
100
AcDbLine
 10
2.268634060543552
 20
16.24717430164393
 30
0.0
 11
5.714909304380834
 21
16.24717430164393
 31
0.0
  0
LINE
  5
85
330
7F
100
AcDbEntity
  8
중심선
100
AcDbLine
 10
5.245725140726316
 20
7.84717430164391
 30
0.0
 11
8.692000384563599
 21
7.84717430164391
 31
0.0
  0
LINE
  5
86
330
7F
100
AcDbEntity
  8
중심선
100
AcDbLine
 10
15.74043728645272
 20
16.24717430164393
 30
0.0
 11
8.692000384563599
 21
7.84717430164391
 31
0.0
  0
LINE
  5
87
330
7F
100
AcDbEntity
  8
중심선
100
AcDbLine
 10
0.1404042013395286
 20
13.71084872107135
 30
0.0
 11
3.58671253028996
 21
13.71088815037384
 31
0.0
  0
LINE
  5
88
330
7F
100
AcDbEntity
  8
중심선
100
AcDbLine
 10
2.750260043222114
 20
10.84717430164391
 30
0.0
 11
6.196535287059397
 21
10.84717430164391
 31
0.0
  0
LINE
  5
89
330
7F
100
AcDbEntity
  8
중심선
100
AcDbLine
 10
12.29416204261559
 20
16.24717430164393
 30
0.0
 11
5.245725140726316
 21
7.84717430164391
 31
0.0
  0
LINE
  5
8A
330
7F
100
AcDbEntity
  8
중심선
100
AcDbLine
 10
10.72767329541681
 20
16.24717430164393
 30
0.0
 11
6.196535287059397
 21
10.84717430164391
 31
0.0
  0
LINE
  5
8B
330
7F
100
AcDbEntity
  8
중심선
100
AcDbLine
 10
7.28139805157953
 20
16.24717430164393
 30
0.0
 11
2.750260043222114
 21
10.84717430164391
 31
0.0
  0
LINE
  5
8C
330
7F
100
AcDbEntity
  8
중심선
100
AcDbLine
 10
5.714909304380834
 20
16.24717430164393
 30
0.0
 11
3.58671253028996
 21
13.71088815037384
 31
0.0
  0
LINE
  5
8D
330
7F
100
AcDbEntity
  8
중심선
100
AcDbLine
 10
2.268634060543552
 20
16.24717430164393
 30
0.0
 11
0.1404042013395286
 21
13.71084872107135
 31
0.0
  0
LINE
  5
8E
330
7F
100
AcDbEntity
  8
중심선
100
AcDbLine
 10
7.28139805157953
 20
16.24717430164393
 30
0.0
 11
10.72767329541681
 21
16.24717430164393
 31
0.0
  0
LINE
  5
8F
330
7F
100
AcDbEntity
  8
중심선
100
AcDbLine
 10
12.29416204261559
 20
16.24717430164393
 30
0.0
 11
15.74043728645272
 21
16.24717430164393
 31
0.0
  0
LINE
  5
90
330
7F
100
AcDbEntity
  8
중심선
100
AcDbLine
 10
19.22036997980202
 20
11.08717430171403
 30
0.0
 11
23.66174974927406
 21
11.08717430171406
 31
0.0
  0
LINE
  5
91
330
7F
100
AcDbEntity
  8
중심선
100
AcDbLine
 10
19.22039502424796
 20
13.00717430171391
 30
0.0
 11
19.22036997980202
 21
11.08717430171403
 31
0.0
  0
LINE
  5
92
330
7F
100
AcDbEntity
  8
중심선
100
AcDbLine
 10
19.22039502424796
 20
13.00717430171391
 30
0.0
 11
26.96566020931264
 21
13.00717430171391
 31
0.0
  0
LINE
  5
93
330
7F
100
AcDbEntity
  8
중심선
100
AcDbLine
 10
22.22332737316547
 20
13.45928029700563
 30
0.0
 11
24.52862924686651
 21
15.39360700705356
 31
0.0
  0
ATTDEF
  5
95
330
7F
100
AcDbEntity
  8
FORMAT
 62
     2
100
AcDbText
 10
4.408487351596664
 20
2.075366912832191
 30
0.0
 40
4.233333333333333
  1
E1050018
 41
0.75
  7
SLDTEXTSTYLE0
 11
4.408487351596664
 21
-0.0412997538344756
 31
0.0
100
AcDbAttributeDefinition
  3

  2
AUTOATTR0
 70
     0
 74
     1
  0
ENDBLK
  5
81
330
7F
100
AcDbEntity
  8
0
100
AcDbBlockEnd
  0
BLOCK
  5
DB
330
DA
100
AcDbEntity
  8
0
100
AcDbBlockBegin
  2
_D
 70
     0
 10
0.0
 20
0.0
 30
0.0
  3
_D
  1
_D
  0
LINE
  5
DD
330
DA
100
AcDbEntity
  8
치수문자_일반주서
 62
     0
370
    -2
100
AcDbLine
 10
-20.01902700723832
 20
4.762499999999989
 30
0.0
 11
-49.68749999999999
 21
4.762499999999875
 31
0.0
  0
LINE
  5
DE
330
DA
100
AcDbEntity
  8
치수문자_일반주서
 62
     0
370
    -2
100
AcDbLine
 10
-20.01902700723831
 20
-4.76250000000001
 30
0.0
 11
-49.68749999999995
 21
-4.762500000000124
 31
0.0
  0
LINE
  5
DF
330
DA
100
AcDbEntity
  8
치수문자_일반주서
 62
     0
370
    -2
100
AcDbLine
 10
-49.68749999999999
 20
4.762499999999875
 30
0.0
 11
-49.68750000000011
 21
37.61649999999996
 31
0.0
  0
LINE
  5
E0
330
DA
100
AcDbEntity
  8
치수문자_일반주서
 62
     0
370
    -2
100
AcDbLine
 10
-49.68749999999999
 20
4.762499999999875
 30
0.0
 11
-49.68749999999995
 21
-4.762500000000124
 31
0.0
  0
LINE
  5
E1
330
DA
100
AcDbEntity
  8
치수문자_일반주서
 62
     0
370
    -2
100
AcDbLine
 10
-49.6875
 20
8.064499999999875
 30
0.0
 11
-49.68750000000001
 21
11.36649999999987
 31
0.0
  0
LINE
  5
E2
330
DA
100
AcDbEntity
  8
치수문자_일반주서
 62
     0
370
    -2
100
AcDbLine
 10
-49.68749999999994
 20
-8.064500000000123
 30
0.0
 11
-49.68749999999992
 21
-11.36650000000012
 31
0.0
  0
SOLID
  5
E3
330
DA
100
AcDbEntity
  8
치수문자_일반주서
 62
     0
100
AcDbTrace
 10
-50.23783333333333
 20
8.064499999999873
 30
0.0
 11
-49.13716666666667
 21
8.064499999999876
 31
0.0
 12
-49.68749999999999
 22
4.762499999999875
 32
0.0
 13
-49.68749999999999
 23
4.762499999999875
 33
0.0
  0
SOLID
  5
E4
330
DA
100
AcDbEntity
  8
치수문자_일반주서
 62
     0
100
AcDbTrace
 10
-49.1371666666666
 20
-8.064500000000121
 30
0.0
 11
-50.23783333333327
 21
-8.064500000000125
 31
0.0
 12
-49.68749999999995
 22
-4.762500000000124
 32
0.0
 13
-49.68749999999995
 23
-4.762500000000124
 33
0.0
  0
MTEXT
  5
E5
330
DA
100
AcDbEntity
  8
치수문자_일반주서
 62
     0
100
AcDbMText
 10
-54.06250000000006
 20
24.49149999999995
 30
0.0
 40
3.5
 41
0.0
 71
     2
 72
     1
  1
\A1;%%c9.53 [3/8]
  7
SLDTEXTSTYLE0
 11
-3.729883127349609E-15
 21
1.0
 31
0.0
 73
     1
 44
1.0
  0
POINT
  5
1EB
330
DA
100
AcDbEntity
  8
Defpoints
 62
     0
100
AcDbPoint
 10
-19.95652700723832
 20
4.762499999999989
 30
0.0
  0
POINT
  5
1EC
330
DA
100
AcDbEntity
  8
Defpoints
 62
     0
100
AcDbPoint
 10
-19.95652700723831
 20
-4.76250000000001
 30
0.0
  0
POINT
  5
1ED
330
DA
100
AcDbEntity
  8
Defpoints
 62
     0
100
AcDbPoint
 10
-49.68749999999995
 20
-4.762500000000121
 30
0.0
  0
ENDBLK
  5
DC
330
DA
100
AcDbEntity
  8
0
100
AcDbBlockEnd
  0
BLOCK
  5
EF
330
EE
100
AcDbEntity
  8
0
100
AcDbBlockBegin
  2
_D_1
 70
     0
 10
0.0
 20
0.0
 30
0.0
  3
_D_1
  1
_D_1
  0
LINE
  5
F1
330
EE
100
AcDbEntity
  8
치수문자_일반주서
 62
     0
370
    -2
100
AcDbLine
 10
39.75000000000001
 20
-3.568856105648384
 30
0.0
 11
80.7953534717401
 21
-3.56885610564823
 31
0.0
  0
LINE
  5
F2
330
EE
100
AcDbEntity
  8
치수문자_일반주서
 62
     0
370
    -2
100
AcDbLine
 10
39.75000000000001
 20
3.568856105648384
 30
0.0
 11
80.79535347174007
 21
3.568856105648536
 31
0.0
  0
LINE
  5
F3
330
EE
100
AcDbEntity
  8
치수문자_일반주서
 62
     0
370
    -2
100
AcDbLine
 10
80.79535347174007
 20
3.568856105648536
 30
0.0
 11
80.79535347173993
 21
38.17285610564853
 31
0.0
  0
LINE
  5
F4
330
EE
100
AcDbEntity
  8
치수문자_일반주서
 62
     0
370
    -2
100
AcDbLine
 10
80.7953534717401
 20
-3.56885610564823
 30
0.0
 11
80.79535347174007
 21
3.568856105648536
 31
0.0
  0
LINE
  5
F5
330
EE
100
AcDbEntity
  8
치수문자_일반주서
 62
     0
370
    -2
100
AcDbLine
 10
80.79535347174011
 20
-6.87085610564823
 30
0.0
 11
80.79535347174013
 21
-10.17285610564823
 31
0.0
  0
LINE
  5
F6
330
EE
100
AcDbEntity
  8
치수문자_일반주서
 62
     0
370
    -2
100
AcDbLine
 10
80.79535347174006
 20
6.870856105648535
 30
0.0
 11
80.79535347174004
 21
10.17285610564853
 31
0.0
  0
SOLID
  5
F7
330
EE
100
AcDbEntity
  8
치수문자_일반주서
 62
     0
100
AcDbTrace
 10
81.34568680507344
 20
-6.870856105648228
 30
0.0
 11
80.24502013840679
 21
-6.870856105648231
 31
0.0
 12
80.7953534717401
 22
-3.56885610564823
 32
0.0
 13
80.7953534717401
 23
-3.56885610564823
 33
0.0
  0
SOLID
  5
F8
330
EE
100
AcDbEntity
  8
치수문자_일반주서
 62
     0
100
AcDbTrace
 10
80.24502013840673
 20
6.870856105648533
 30
0.0
 11
81.34568680507338
 21
6.870856105648537
 31
0.0
 12
80.79535347174007
 22
3.568856105648536
 32
0.0
 13
80.79535347174007
 23
3.568856105648536
 33
0.0
  0
MTEXT
  5
F9
330
EE
100
AcDbEntity
  8
치수문자_일반주서
 62
     0
100
AcDbMText
 10
76.42035347173999
 20
24.17285610564852
 30
0.0
 40
3.5
 41
0.0
 71
     2
 72
     1
  1
\A1;%%c7.14 [9/32]
  7
SLDTEXTSTYLE0
 11
-3.981907450039989E-15
 21
1.0
 31
0.0
 73
     1
 44
1.0
  0
POINT
  5
FA
330
EE
100
AcDbEntity
  8
Defpoints
 62
     0
100
AcDbPoint
 10
39.68750000000001
 20
-3.568856105648385
 30
0.0
  0
POINT
  5
FB
330
EE
100
AcDbEntity
  8
Defpoints
 62
     0
100
AcDbPoint
 10
39.68750000000001
 20
3.568856105648383
 30
0.0
  0
POINT
  5
FC
330
EE
100
AcDbEntity
  8
Defpoints
 62
     0
100
AcDbPoint
 10
80.79535347174007
 20
3.568856105648537
 30
0.0
  0
ENDBLK
  5
F0
330
EE
100
AcDbEntity
  8
0
100
AcDbBlockEnd
  0
BLOCK
  5
104
330
103
100
AcDbEntity
  8
0
100
AcDbBlockBegin
  2
_D_2
 70
     0
 10
0.0
 20
0.0
 30
0.0
  3
_D_2
  1
_D_2
  0
LINE
  5
106
330
103
100
AcDbEntity
  8
치수문자_일반주서
 62
     0
370
    -2
100
AcDbLine
 10
39.68750000000001
 20
3.631356105648383
 30
0.0
 11
39.68750000000001
 21
14.7625
 31
0.0
  0
LINE
  5
107
330
103
100
AcDbEntity
  8
치수문자_일반주서
 62
     0
370
    -2
100
AcDbLine
 10
25.40000000000002
 20
3.177393730743412
 30
0.0
 11
25.40000000000002
 21
14.7625
 31
0.0
  0
LINE
  5
108
330
103
100
AcDbEntity
  8
치수문자_일반주서
 62
     0
370
    -2
100
AcDbLine
 10
39.68750000000001
 20
14.7625
 30
0.0
 11
73.41650000000001
 21
14.7625
 31
0.0
  0
LINE
  5
109
330
103
100
AcDbEntity
  8
치수문자_일반주서
 62
     0
370
    -2
100
AcDbLine
 10
39.68750000000001
 20
14.7625
 30
0.0
 11
25.40000000000002
 21
14.7625
 31
0.0
  0
LINE
  5
10A
330
103
100
AcDbEntity
  8
치수문자_일반주서
 62
     0
370
    -2
100
AcDbLine
 10
42.98950000000001
 20
14.7625
 30
0.0
 11
46.29150000000001
 21
14.7625
 31
0.0
  0
LINE
  5
10B
330
103
100
AcDbEntity
  8
치수문자_일반주서
 62
     0
370
    -2
100
AcDbLine
 10
22.09800000000002
 20
14.7625
 30
0.0
 11
18.79600000000002
 21
14.7625
 31
0.0
  0
SOLID
  5
10C
330
103
100
AcDbEntity
  8
치수문자_일반주서
 62
     0
100
AcDbTrace
 10
42.98950000000001
 20
15.31283333333334
 30
0.0
 11
42.98950000000001
 21
14.21216666666667
 31
0.0
 12
39.68750000000001
 22
14.7625
 32
0.0
 13
39.68750000000001
 23
14.7625
 33
0.0
  0
SOLID
  5
10D
330
103
100
AcDbEntity
  8
치수문자_일반주서
 62
     0
100
AcDbTrace
 10
22.09800000000002
 20
14.21216666666667
 30
0.0
 11
22.09800000000002
 21
15.31283333333334
 31
0.0
 12
25.40000000000002
 22
14.7625
 32
0.0
 13
25.40000000000002
 23
14.7625
 33
0.0
  0
MTEXT
  5
10E
330
103
100
AcDbEntity
  8
치수문자_일반주서
 62
     0
100
AcDbMText
 10
59.85400000000001
 20
19.1375
 30
0.0
 40
3.5
 41
0.0
 71
     2
 72
     1
  1
\A1;14.29 [9/16]
  7
SLDTEXTSTYLE0
 73
     1
 44
1.0
  0
POINT
  5
1EE
330
103
100
AcDbEntity
  8
Defpoints
 62
     0
100
AcDbPoint
 10
39.68750000000001
 20
3.568856105648383
 30
0.0
  0
POINT
  5
1EF
330
103
100
AcDbEntity
  8
Defpoints
 62
     0
100
AcDbPoint
 10
25.40000000000002
 20
3.114893730743412
 30
0.0
  0
POINT
  5
1F0
330
103
100
AcDbEntity
  8
Defpoints
 62
     0
100
AcDbPoint
 10
25.40000000000002
 20
14.7625
 30
0.0
  0
ENDBLK
  5
105
330
103
100
AcDbEntity
  8
0
100
AcDbBlockEnd
  0
BLOCK
  5
118
330
117
100
AcDbEntity
  8
0
100
AcDbBlockBegin
  2
_D_3
 70
     0
 10
0.0
 20
0.0
 30
0.0
  3
_D_3
  1
_D_3
  0
LINE
  5
11A
330
117
100
AcDbEntity
  8
치수문자_일반주서
 62
     0
370
    -2
100
AcDbLine
 10
-39.68749999999999
 20
3.631356105648699
 30
0.0
 11
-39.68749999999999
 21
24.7625
 31
0.0
  0
LINE
  5
11B
330
117
100
AcDbEntity
  8
치수문자_일반주서
 62
     0
370
    -2
100
AcDbLine
 10
39.68750000000001
 20
3.631356105648383
 30
0.0
 11
39.68750000000002
 21
24.7625
 31
0.0
  0
LINE
  5
11C
330
117
100
AcDbEntity
  8
치수문자_일반주서
 62
     0
370
    -2
100
AcDbLine
 10
-36.38549999999999
 20
24.7625
 30
0.0
 11
36.38550000000002
 21
24.7625
 31
0.0
  0
SOLID
  5
11D
330
117
100
AcDbEntity
  8
치수문자_일반주서
 62
     0
100
AcDbTrace
 10
-36.38549999999999
 20
25.31283333333334
 30
0.0
 11
-36.38549999999999
 21
24.21216666666667
 31
0.0
 12
-39.68749999999999
 22
24.7625
 32
0.0
 13
-39.68749999999999
 23
24.7625
 33
0.0
  0
SOLID
  5
11E
330
117
100
AcDbEntity
  8
치수문자_일반주서
 62
     0
100
AcDbTrace
 10
36.38550000000002
 20
24.21216666666667
 30
0.0
 11
36.38550000000002
 21
25.31283333333334
 31
0.0
 12
39.68750000000002
 22
24.7625
 32
0.0
 13
39.68750000000002
 23
24.7625
 33
0.0
  0
MTEXT
  5
11F
330
117
100
AcDbEntity
  8
치수문자_일반주서
 62
     0
100
AcDbMText
 10
0.0000000000000071
 20
29.1375
 30
0.0
 40
3.5
 41
0.0
 71
     2
 72
     1
  1
\A1;79.38 [3 1/8]
  7
SLDTEXTSTYLE0
 73
     1
 44
1.0
  0
POINT
  5
120
330
117
100
AcDbEntity
  8
Defpoints
 62
     0
100
AcDbPoint
 10
-39.68749999999999
 20
3.568856105648699
 30
0.0
  0
POINT
  5
121
330
117
100
AcDbEntity
  8
Defpoints
 62
     0
100
AcDbPoint
 10
39.68750000000001
 20
3.568856105648383
 30
0.0
  0
POINT
  5
122
330
117
100
AcDbEntity
  8
Defpoints
 62
     0
100
AcDbPoint
 10
39.68750000000001
 20
24.7625
 30
0.0
  0
ENDBLK
  5
119
330
117
100
AcDbEntity
  8
0
100
AcDbBlockEnd
  0
BLOCK
  5
131
330
130
100
AcDbEntity
  8
0
100
AcDbBlockBegin
  2
SW_DOWELSYMBOL_0
 70
     0
 10
0.0
 20
0.0
 30
0.0
  3
SW_DOWELSYMBOL_0
  1
SW_DOWELSYMBOL_0
  0
CIRCLE
  5
133
330
130
100
AcDbEntity
  8
해칭선
 62
     0
100
AcDbCircle
 10
0.0
 20
0.0
 30
0.0
 40
3.000000000000001
  0
HATCH
  5
134
330
130
100
AcDbEntity
  8
0
  6
Continuous
 62
     0
370
     0
100
AcDbHatch
 10
0.0
 20
0.0
 30
0.0
210
0.0
220
0.0
230
1.0
  2
SOLID
 70
     1
 71
     0
 91
        1
 92
        0
 93
        3
 72
     2
 10
0.0
 20
0.0
 40
3.000000000000001
 50
0.0
 51
90.0
 73
     1
 72
     1
 10
0.0
 20
3.000000000000001
 11
0.0
 21
0.0
 72
     1
 10
0.0
 20
0.0
 11
3.000000000000001
 21
0.0
 97
        0
 75
     0
 76
     1
 98
        1
 10
0.0
 20
0.0
  0
HATCH
  5
135
330
130
100
AcDbEntity
  8
0
  6
Continuous
 62
     0
370
     0
100
AcDbHatch
 10
0.0
 20
0.0
 30
0.0
210
0.0
220
0.0
230
1.0
  2
SOLID
 70
     1
 71
     0
 91
        1
 92
        0
 93
        3
 72
     2
 10
0.0
 20
0.0
 40
3.000000000000001
 50
180.0
 51
270.0000000000007
 73
     1
 72
     1
 10
0.0
 20
-3.000000000000001
 11
0.0
 21
0.0
 72
     1
 10
0.0
 20
0.0
 11
-3.000000000000001
 21
0.0
 97
        0
 75
     0
 76
     1
 98
        1
 10
0.0
 20
0.0
  0
ENDBLK
  5
132
330
130
100
AcDbEntity
  8
0
100
AcDbBlockEnd
  0
BLOCK
  5
196
330
195
100
AcDbEntity
  8
0
100
AcDbBlockBegin
  2
*D7
 70
     1
 10
0.0
 20
0.0
 30
0.0
  3
*D7
  1
*D7
  0
LINE
  5
198
330
195
100
AcDbEntity
  8
치수문자_일반주서
 62
     0
370
    -2
100
AcDbLine
 10
16.129
 20
3.155101899082702
 30
0.0
 11
16.129
 21
16.26894362990562
 31
0.0
  0
LINE
  5
199
330
195
100
AcDbEntity
  8
치수문자_일반주서
 62
     0
370
    -2
100
AcDbLine
 10
6.603999999999999
 20
2.633059590344415
 30
0.0
 11
6.603999999999999
 21
16.26894362990562
 31
0.0
  0
LINE
  5
19A
330
195
100
AcDbEntity
  8
치수문자_일반주서
 62
     0
370
    -2
100
AcDbLine
 10
16.129
 20
16.26894362990562
 30
0.0
 11
46.358
 21
16.26894362990562
 31
0.0
  0
LINE
  5
19B
330
195
100
AcDbEntity
  8
치수문자_일반주서
 62
     0
370
    -2
100
AcDbLine
 10
16.129
 20
16.26894362990562
 30
0.0
 11
6.603999999999999
 21
16.26894362990562
 31
0.0
  0
LINE
  5
19C
330
195
100
AcDbEntity
  8
치수문자_일반주서
 62
     0
370
    -2
100
AcDbLine
 10
19.431
 20
16.26894362990562
 30
0.0
 11
22.733
 21
16.26894362990562
 31
0.0
  0
LINE
  5
19D
330
195
100
AcDbEntity
  8
치수문자_일반주서
 62
     0
370
    -2
100
AcDbLine
 10
3.302
 20
16.26894362990562
 30
0.0
 11
0.0
 21
16.26894362990562
 31
0.0
  0
SOLID
  5
19E
330
195
100
AcDbEntity
  8
치수문자_일반주서
 62
     0
100
AcDbTrace
 10
19.431
 20
16.81927696323896
 30
0.0
 11
19.431
 21
15.71861029657229
 31
0.0
 12
16.129
 22
16.26894362990562
 32
0.0
 13
16.129
 23
16.26894362990562
 33
0.0
  0
SOLID
  5
19F
330
195
100
AcDbEntity
  8
치수문자_일반주서
 62
     0
100
AcDbTrace
 10
3.302
 20
15.71861029657229
 30
0.0
 11
3.302
 21
16.81927696323896
 31
0.0
 12
6.603999999999999
 22
16.26894362990562
 32
0.0
 13
6.603999999999999
 23
16.26894362990562
 33
0.0
  0
MTEXT
  5
1A0
330
195
100
AcDbEntity
  8
치수문자_일반주서
 62
     0
100
AcDbMText
 10
34.5455
 20
20.64394362990562
 30
0.0
 40
3.5
 41
0.0
 71
     2
 72
     1
  1
\A1;9.53 [3/8]
  7
SLDTEXTSTYLE0
 73
     1
 44
1.0
  0
POINT
  5
1A1
330
195
100
AcDbEntity
  8
Defpoints
 62
     0
100
AcDbPoint
 10
16.129
 20
3.092601899082702
 30
0.0
  0
POINT
  5
1A2
330
195
100
AcDbEntity
  8
Defpoints
 62
     0
100
AcDbPoint
 10
6.603999999999999
 20
2.570559590344415
 30
0.0
  0
POINT
  5
1A3
330
195
100
AcDbEntity
  8
Defpoints
 62
     0
100
AcDbPoint
 10
6.603999999999999
 20
16.26894362990562
 30
0.0
  0
ENDBLK
  5
197
330
195
100
AcDbEntity
  8
0
100
AcDbBlockEnd
  0
BLOCK
  5
1A8
330
1A7
100
AcDbEntity
  8
0
100
AcDbBlockBegin
  2
*D8
 70
     1
 10
0.0
 20
0.0
 30
0.0
  3
*D8
  1
*D8
  0
LINE
  5
1AA
330
1A7
100
AcDbEntity
  8
치수문자_일반주서
 62
     0
370
    -2
100
AcDbLine
 10
95.84148850823483
 20
-15.0049347400225
 30
0.0
 11
95.84148850823483
 21
-1.891093009199579
 31
0.0
  0
LINE
  5
1AB
330
1A7
100
AcDbEntity
  8
치수문자_일반주서
 62
     0
370
    -2
100
AcDbLine
 10
86.31648850823483
 20
-15.52697704876079
 30
0.0
 11
86.31648850823483
 21
-1.891093009199579
 31
0.0
  0
LINE
  5
1AC
330
1A7
100
AcDbEntity
  8
치수문자_일반주서
 62
     0
370
    -2
100
AcDbLine
 10
95.84148850823483
 20
-1.891093009199579
 30
0.0
 11
126.0704885082348
 21
-1.891093009199579
 31
0.0
  0
LINE
  5
1AD
330
1A7
100
AcDbEntity
  8
치수문자_일반주서
 62
     0
370
    -2
100
AcDbLine
 10
95.84148850823483
 20
-1.891093009199579
 30
0.0
 11
86.31648850823483
 21
-1.891093009199579
 31
0.0
  0
LINE
  5
1AE
330
1A7
100
AcDbEntity
  8
치수문자_일반주서
 62
     0
370
    -2
100
AcDbLine
 10
99.14348850823484
 20
-1.891093009199579
 30
0.0
 11
102.4454885082348
 21
-1.891093009199579
 31
0.0
  0
LINE
  5
1AF
330
1A7
100
AcDbEntity
  8
치수문자_일반주서
 62
     0
370
    -2
100
AcDbLine
 10
83.01448850823482
 20
-1.891093009199579
 30
0.0
 11
79.71248850823483
 21
-1.891093009199579
 31
0.0
  0
SOLID
  5
1B0
330
1A7
100
AcDbEntity
  8
치수문자_일반주서
 62
     0
100
AcDbTrace
 10
99.14348850823484
 20
-1.340759675866246
 30
0.0
 11
99.14348850823484
 21
-2.441426342532913
 31
0.0
 12
95.84148850823483
 22
-1.891093009199579
 32
0.0
 13
95.84148850823483
 23
-1.891093009199579
 33
0.0
  0
SOLID
  5
1B1
330
1A7
100
AcDbEntity
  8
치수문자_일반주서
 62
     0
100
AcDbTrace
 10
83.01448850823482
 20
-2.441426342532913
 30
0.0
 11
83.01448850823482
 21
-1.340759675866246
 31
0.0
 12
86.31648850823483
 22
-1.891093009199579
 32
0.0
 13
86.31648850823483
 23
-1.891093009199579
 33
0.0
  0
MTEXT
  5
1B2
330
1A7
100
AcDbEntity
  8
치수문자_일반주서
 62
     0
100
AcDbMText
 10
114.2579885082348
 20
2.483906990800421
 30
0.0
 40
3.5
 41
0.0
 71
     2
 72
     1
  1
\A1;9.53 [3/8]
  7
SLDTEXTSTYLE0
 73
     1
 44
1.0
  0
POINT
  5
1B3
330
1A7
100
AcDbEntity
  8
Defpoints
 62
     0
100
AcDbPoint
 10
95.84148850823483
 20
-15.0674347400225
 30
0.0
  0
POINT
  5
1B4
330
1A7
100
AcDbEntity
  8
Defpoints
 62
     0
100
AcDbPoint
 10
86.31648850823483
 20
-15.58947704876079
 30
0.0
  0
POINT
  5
1B5
330
1A7
100
AcDbEntity
  8
Defpoints
 62
     0
100
AcDbPoint
 10
86.31648850823483
 20
-1.891093009199579
 30
0.0
  0
ENDBLK
  5
1A9
330
1A7
100
AcDbEntity
  8
0
100
AcDbBlockEnd
  0
ENDSEC
  0
SECTION
  2
ENTITIES
  0
LINE
  5
96
330
1F
100
AcDbEntity
  8
외형선
  6
Continuous
370
    15
100
AcDbLine
 10
19.95652700723834
 20
4.762499999999997
 30
0.0
 11
4.838700000000168
 21
4.762499999999996
 31
0.0
  0
LINE
  5
97
330
1F
100
AcDbEntity
  8
외형선
  6
Continuous
370
    15
100
AcDbLine
 10
-19.95652700723831
 20
-4.762500000000001
 30
0.0
 11
19.95652700723834
 21
-4.762499999999998
 31
0.0
  0
LINE
  5
98
330
1F
100
AcDbEntity
  8
외형선
  6
Continuous
370
    15
100
AcDbLine
 10
19.95652700723834
 20
-4.7625
 30
0.0
 11
23.87987674068673
 21
-3.711241607297642
 31
0.0
  0
LINE
  5
99
330
1F
100
AcDbEntity
  8
외형선
  6
Continuous
370
    15
100
AcDbLine
 10
23.87987674068673
 20
3.71124160729764
 30
0.0
 11
19.95652700723834
 21
4.762499999999998
 31
0.0
  0
SPLINE
  5
9C
330
1F
100
AcDbEntity
  8
외형선
  6
Continuous
370
    15
100
AcDbSpline
210
0.0
220
0.0
230
1.0
 70
     8
 71
     3
 72
     9
 73
     5
 74
     0
 42
0.000000001
 43
0.00000001
 40
0.0
 40
0.0
 40
0.0
 40
0.0
 40
0.5632083014837294
 40
1.0
 40
1.0
 40
1.0
 40
1.0
 10
23.87982959671665
 20
-2.966799848835553
 30
0.0
 10
24.16607869264445
 20
-2.941973910584186
 30
0.0
 10
24.67432598795899
 20
-2.897894414266454
 30
0.0
 10
25.17939155368463
 20
-2.864857143100197
 30
0.0
 10
25.40000000000002
 20
-2.850426737313144
 30
0.0
  0
LINE
  5
9D
330
1F
100
AcDbEntity
  8
0
  6
Continuous
 62
     1
370
    15
100
AcDbLine
 10
30.43276261506481
 20
0.9152868303996545
 30
0.0
 11
29.44355901771759
 21
1.410872988410128
 31
0.0
1001
PE_URL
1000

  0
SPLINE
  5
9E
330
1F
100
AcDbEntity
  8
0
  6
Continuous
 62
     1
370
    15
100
AcDbSpline
210
0.0
220
0.0
230
1.0
 70
     8
 71
     3
 72
    17
 73
    13
 74
     0
 42
0.000000001
 43
0.00000001
 40
0.0
 40
0.0
 40
0.0
 40
0.0
 40
0.1585824071202219
 40
0.270057612850823
 40
0.3776415844903491
 40
0.5103552745029568
 40
0.6414220121619552
 40
0.7295677400446376
 40
0.8103248053281351
 40
0.8857946477202293
 40
0.9582819548725922
 40
1.0
 40
1.0
 40
1.0
 40
1.0
 10
29.25310167317541
 20
2.83834912784785
 30
0.0
 10
29.09993714493111
 20
2.830719815715457
 30
0.0
 10
28.83910589875308
 20
2.817727492925162
 30
0.0
 10
28.46736137138173
 20
2.804827623808013
 30
0.0
 10
28.1200126598468
 20
2.795797598533448
 30
0.0
 10
27.75756368143647
 20
2.790244225122514
 30
0.0
 10
27.40799976624555
 20
2.788947587705258
 30
0.0
 10
27.10937828546039
 20
2.789841760617537
 30
0.0
 10
26.86785509965028
 20
2.793096866504116
 30
0.0
 10
26.65827874321
 20
2.798208778545018
 30
0.0
 10
26.47940477116992
 20
2.802751116353148
 30
0.0
 10
26.36766703638253
 20
2.806475318821456
 30
0.0
 10
26.32685038664378
 20
2.807835731827807
 30
0.0
1001
PE_URL
1000

  0
SPLINE
  5
9F
330
1F
100
AcDbEntity
  8
0
  6
Continuous
 62
     1
370
    15
100
AcDbSpline
210
0.0
220
0.0
230
1.0
 70
     8
 71
     3
 72
    25
 73
    21
 74
     0
 42
0.000000001
 43
0.00000001
 40
0.0
 40
0.0
 40
0.0
 40
0.0
 40
0.0751780827641075
 40
0.1288112256399854
 40
0.1640618511671259
 40
0.2055163247459013
 40
0.2575251638600922
 40
0.3075343152208529
 40
0.3712883137922401
 40
0.4254900990986311
 40
0.4793694326301025
 40
0.5521738861851202
 40
0.6357831514798573
 40
0.7103855945691466
 40
0.7403293915641417
 40
0.7679041459134541
 40
0.7957450773634195
 40
0.8417333618929078
 40
0.9097915821276363
 40
1.0
 40
1.0
 40
1.0
 40
1.0
 10
38.35935751069046
 20
2.442993249089936
 30
0.0
 10
38.20364788003475
 20
2.430342087478571
 30
0.0
 10
37.93685272337126
 20
2.408665402293038
 30
0.0
 10
37.59681035236056
 20
2.388215401731147
 30
0.0
 10
37.32336422674284
 20
2.374610104768307
 30
0.0
 10
37.05445196112597
 20
2.363895613792021
 30
0.0
 10
36.7558516496815
 20
2.355513599947628
 30
0.0
 10
36.41144786519286
 20
2.350318176322232
 30
0.0
 10
36.06234301932612
 20
2.350207008959476
 30
0.0
 10
35.7048380955537
 20
2.355497853270029
 30
0.0
 10
35.32833691172556
 20
2.366250822862102
 30
0.0
 10
34.89132632304003
 20
2.385813221633864
 30
0.0
 10
34.40687593539755
 20
2.417195111584797
 30
0.0
 10
34.01388398164788
 20
2.45017420566552
 30
0.0
 10
33.74341516712539
 20
2.476288702065533
 30
0.0
 10
33.56803520373526
 20
2.494377484897855
 30
0.0
 10
33.35937791046747
 20
2.517237638372321
 30
0.0
 10
33.0647367631557
 20
2.55231424659127
 30
0.0
 10
32.63933904671095
 20
2.607673993205193
 30
0.0
 10
32.30839002624
 20
2.657899834059121
 30
0.0
 10
32.11975654106487
 20
2.686527431725511
 30
0.0
1001
PE_URL
1000

  0
SPLINE
  5
A0
330
1F
100
AcDbEntity
  8
0
  6
Continuous
 62
     1
370
    15
100
AcDbSpline
210
0.0
220
0.0
230
1.0
 70
     8
 71
     3
 72
    16
 73
    12
 74
     0
 42
0.000000001
 43
0.00000001
 40
0.0
 40
0.0
 40
0.0
 40
0.0
 40
0.1707326740109911
 40
0.2959285622564645
 40
0.3824217064002107
 40
0.4818358902711065
 40
0.6045206921223524
 40
0.7211290092700694
 40
0.8643852480956573
 40
0.9876405916269506
 40
1.0
 40
1.0
 40
1.0
 40
1.0
 10
32.11975654106487
 20
-2.686527431725513
 30
0.0
 10
32.27005633212801
 20
-2.663552552545043
 30
0.0
 10
32.53056886339603
 20
-2.623730514945758
 30
0.0
 10
32.86788285199714
 20
-2.577909066115331
 30
0.0
 10
33.14605455448101
 20
-2.542579510094751
 30
0.0
 10
33.42047770241957
 20
-2.510107545344763
 30
0.0
 10
33.72052570773593
 20
-2.478153847809491
 30
0.0
 10
34.05903057776868
 20
-2.446094497479044
 30
0.0
 10
34.39851213627193
 20
-2.418975122886679
 30
0.0
 10
34.64414067576267
 20
-2.40137163742984
 30
0.0
 10
34.76387715291618
 20
-2.394940784502032
 30
0.0
 10
34.77478947622548
 20
-2.394354701230074
 30
0.0
1001
PE_URL
1000

  0
SPLINE
  5
A1
330
1F
100
AcDbEntity
  8
0
  6
Continuous
 62
     1
370
    15
100
AcDbSpline
210
0.0
220
0.0
230
1.0
 70
     8
 71
     3
 72
    19
 73
    15
 74
     0
 42
0.000000001
 43
0.00000001
 40
0.0
 40
0.0
 40
0.0
 40
0.0
 40
0.1279210845279269
 40
0.2156449677958897
 40
0.2717233517495745
 40
0.3268123710358033
 40
0.3841680622098169
 40
0.4455419454684517
 40
0.5125310763120238
 40
0.612139384612167
 40
0.7129993463884261
 40
0.7947611847207776
 40
0.8794802893430727
 40
1.0
 40
1.0
 40
1.0
 40
1.0
 10
25.40000000000002
 20
-2.850426737313144
 30
0.0
 10
25.56478172954908
 20
-2.841287178611394
 30
0.0
 10
25.8425651058634
 20
-2.825880024668156
 30
0.0
 10
26.19224543127109
 20
-2.811995345608587
 30
0.0
 10
26.44879301910535
 20
-2.80366619472627
 30
0.0
 10
26.65838056671591
 20
-2.798167980129518
 30
0.0
 10
26.86782529414879
 20
-2.793108808906053
 30
0.0
 10
27.10938722587263
 20
-2.789838178393076
 30
0.0
 10
27.40799591255428
 20
-2.788949131793691
 30
0.0
 10
27.75756490491492
 20
-2.7902437349019
 30
0.0
 10
28.12001239965092
 20
-2.795797702788156
 30
0.0
 10
28.46736143639288
 20
-2.804827597759492
 30
0.0
 10
28.83910587393953
 20
-2.817727502867404
 30
0.0
 10
29.09993713575092
 20
-2.830719819393753
 30
0.0
 10
29.25310167317541
 20
-2.838349127847851
 30
0.0
1001
PE_URL
1000

  0
LINE
  5
A2
330
1F
100
AcDbEntity
  8
외형선
  6
Continuous
370
    15
100
AcDbLine
 10
19.95652700723834
 20
4.762499999999998
 30
0.0
 11
19.95652700723834
 21
-4.762500000000004
 31
0.0
  0
SPLINE
  5
A4
330
1F
100
AcDbEntity
  8
외형선
  6
Continuous
370
    15
100
AcDbSpline
210
0.0
220
0.0
230
1.0
 70
     8
 71
     3
 72
     8
 73
     4
 74
     0
 42
0.000000001
 43
0.00000001
 40
0.0
 40
0.0
 40
0.0
 40
0.0
 40
1.0
 40
1.0
 40
1.0
 40
1.0
 10
24.40000000000002
 20
3.355843934143236
 30
0.0
 10
24.22609395119696
 20
3.427056130073065
 30
0.0
 10
24.05267820531956
 20
3.496482320786738
 30
0.0
 10
23.87974763849377
 20
3.563946927933086
 30
0.0
  0
LINE
  5
A5
330
1F
100
AcDbEntity
  8
외형선
  6
Continuous
370
    15
100
AcDbLine
 10
24.40000000000002
 20
3.355843934143251
 30
0.0
 11
24.40000000000002
 21
2.887453053924133
 31
0.0
  0
SPLINE
  5
A6
330
1F
100
AcDbEntity
  8
외형선
  6
Continuous
370
    15
100
AcDbSpline
210
0.0
220
0.0
230
1.0
 70
     8
 71
     3
 72
     8
 73
     4
 74
     0
 42
0.000000001
 43
0.00000001
 40
0.0
 40
0.0
 40
0.0
 40
0.0
 40
0.0005964863428173
 40
0.0005964863428173
 40
0.0005964863428173
 40
0.0005964863428173
 10
23.87987674068673
 20
3.146536726017747
 30
0.0
 10
24.05333735650626
 20
3.061875028149207
 30
0.0
 10
24.22675555089906
 20
2.975494665858779
 30
0.0
 10
24.4000000000004
 20
2.887453053922767
 30
0.0
  0
LINE
  5
A7
330
1F
100
AcDbEntity
  8
외형선
  6
Continuous
370
    15
100
AcDbLine
 10
23.87987674068673
 20
-3.711241607297642
 30
0.0
 11
23.87987674068673
 21
3.146571234967781
 31
0.0
  0
SPLINE
  5
A8
330
1F
100
AcDbEntity
  8
외형선
  6
Continuous
370
    15
100
AcDbSpline
210
0.0
220
0.0
230
1.0
 70
     8
 71
     3
 72
     8
 73
     4
 74
     0
 42
0.000000001
 43
0.00000001
 40
0.0
 40
0.0
 40
0.0
 40
0.0
 40
1.0
 40
1.0
 40
1.0
 40
1.0
 10
24.40000000000002
 20
-3.355843934143237
 30
0.0
 10
24.22609395119696
 20
-3.427056130073066
 30
0.0
 10
24.05267820531956
 20
-3.49648232078674
 30
0.0
 10
23.87974763849377
 20
-3.563946927933087
 30
0.0
  0
LINE
  5
A9
330
1F
100
AcDbEntity
  8
외형선
  6
Continuous
370
    15
100
AcDbLine
 10
23.87987674068673
 20
3.563944170781488
 30
0.0
 11
23.87987674068673
 21
3.71124160729764
 31
0.0
  0
SPLINE
  5
AB
330
1F
100
AcDbEntity
  8
외형선
  6
Continuous
370
    15
100
AcDbSpline
210
0.0
220
0.0
230
1.0
 70
    24
 71
     3
 72
    14
 73
    10
 74
     0
 42
0.000000001
 43
0.00000001
 40
0.0
 40
0.0
 40
0.0
 40
0.0
 40
0.25
 40
0.25
 40
0.5
 40
0.5
 40
0.75
 40
0.75
 40
1.0
 40
1.0
 40
1.0
 40
1.0
 10
25.40000000000002
 20
1.683091307420922
 30
0.0
 10
25.40000000000002
 20
1.409121491625462
 30
0.0
 10
25.40000000000002
 20
1.106950696977877
 30
0.0
 10
25.40000000000002
 20
0.4682335828261186
 30
0.0
 10
25.40000000000002
 20
0.1319309233442079
 30
0.0
 10
25.40000000000002
 20
-0.542767428558598
 30
0.0
 10
25.40000000000002
 20
-0.8808036134896622
 30
0.0
 10
25.40000000000002
 20
-1.526126019715969
 30
0.0
 10
25.40000000000002
 20
-1.833159303499826
 30
0.0
 10
25.40000000000002
 20
-2.113132117268659
 30
0.0
  0
SPLINE
  5
AC
330
1F
100
AcDbEntity
  8
외형선
  6
Continuous
370
    15
100
AcDbSpline
210
0.0
220
0.0
230
1.0
 70
     8
 71
     3
 72
    10
 73
     6
 74
     0
 42
0.000000001
 43
0.00000001
 40
0.0
 40
0.0
 40
0.0
 40
0.0
 40
0.5
 40
0.5
 40
1.0
 40
1.0
 40
1.0
 40
1.0
 10
25.40000000000002
 20
-2.11313211726866
 30
0.0
 10
25.14689381962731
 20
-2.034384531886159
 30
0.0
 10
24.89630251526438
 20
-1.950604754108334
 30
0.0
 10
24.38856243230486
 20
-1.772935757507982
 30
0.0
 10
24.13340047050759
 20
-1.679243951739096
 30
0.0
 10
23.87982959671665
 20
-1.581758579981658
 30
0.0
  0
SPLINE
  5
AD
330
1F
100
AcDbEntity
  8
외형선
  6
Continuous
370
    15
100
AcDbSpline
210
0.0
220
0.0
230
1.0
 70
     8
 71
     3
 72
    10
 73
     6
 74
     0
 42
0.000000001
 43
0.00000001
 40
0.0
 40
0.0
 40
0.0
 40
0.0
 40
0.5
 40
0.5
 40
1.0
 40
1.0
 40
1.0
 40
1.0
 10
25.40000000000002
 20
1.683091307420921
 30
0.0
 10
25.14689648802282
 20
1.758786403973825
 30
0.0
 10
24.89630784093915
 20
1.830016580834837
 30
0.0
 10
24.38857316532079
 20
1.963532695869004
 30
0.0
 10
24.13341390396111
 20
2.025607199723713
 30
0.0
 10
23.87984563648631
 20
2.08230266286156
 30
0.0
  0
SPLINE
  5
AE
330
1F
100
AcDbEntity
  8
외형선
  6
Continuous
370
    15
100
AcDbSpline
210
0.0
220
0.0
230
1.0
 70
    24
 71
     3
 72
    10
 73
     6
 74
     0
 42
0.000000001
 43
0.00000001
 40
0.0
 40
0.0
 40
0.0
 40
0.0
 40
0.5
 40
0.5
 40
1.0
 40
1.0
 40
1.0
 40
1.0
 10
25.40000000000002
 20
2.510960445294644
 30
0.0
 10
25.40000000000002
 20
2.424392324468992
 30
0.0
 10
25.40000000000002
 20
2.302875310964835
 30
0.0
 10
25.40000000000002
 20
2.015120934257606
 30
0.0
 10
25.40000000000002
 20
1.849826225475863
 30
0.0
 10
25.40000000000002
 20
1.683091307420922
 30
0.0
  0
SPLINE
  5
AF
330
1F
100
AcDbEntity
  8
외형선
  6
Continuous
370
    15
100
AcDbSpline
210
0.0
220
0.0
230
1.0
 70
     8
 71
     3
 72
     8
 73
     4
 74
     0
 42
0.000000001
 43
0.00000001
 40
0.0
 40
0.0
 40
0.0
 40
0.0
 40
1.0
 40
1.0
 40
1.0
 40
1.0
 10
24.40000000000002
 20
2.887453053924133
 30
0.0
 10
24.73528001800921
 20
2.773815696430647
 30
0.0
 10
25.0664255571752
 20
2.648023649108245
 30
0.0
 10
25.39999999999857
 20
2.510960445295239
 30
0.0
  0
SPLINE
  5
B0
330
1F
100
AcDbEntity
  8
외형선
  6
Continuous
370
    15
100
AcDbSpline
210
0.0
220
0.0
230
1.0
 70
     8
 71
     3
 72
     8
 73
     4
 74
     0
 42
0.000000001
 43
0.00000001
 40
0.0
 40
0.0
 40
0.0
 40
0.0
 40
1.0
 40
1.0
 40
1.0
 40
1.0
 10
25.40000000000002
 20
3.114893730760094
 30
0.0
 10
25.06642555717616
 20
3.20920964797776
 30
0.0
 10
24.7352800180097
 20
3.289726083705264
 30
0.0
 10
24.40000000000002
 20
3.355843934143253
 30
0.0
  0
LINE
  5
B1
330
1F
100
AcDbEntity
  8
외형선
  6
Continuous
370
    15
100
AcDbLine
 10
25.40000000000002
 20
3.114893730760093
 30
0.0
 11
25.40000000000002
 21
2.510960445297044
 31
0.0
  0
SPLINE
  5
B2
330
1F
100
AcDbEntity
  8
외형선
  6
Continuous
370
    15
100
AcDbSpline
210
0.0
220
0.0
230
1.0
 70
    24
 71
     3
 72
    12
 73
     8
 74
     0
 42
0.000000001
 43
0.00000001
 40
0.0
 40
0.0
 40
0.0
 40
0.0
 40
0.1818438080354373
 40
0.3660737075424719
 40
0.6327422363901662
 40
0.9071441706398538
 40
1.0
 40
1.0
 40
1.0
 40
1.0
 10
25.40000000000002
 20
-2.113132117268659
 30
0.0
 10
25.40000000000002
 20
-2.195668287227332
 30
0.0
 10
25.40000000000001
 20
-2.36182363818236
 30
0.0
 10
25.40000000000002
 20
-2.585953097553555
 30
0.0
 10
25.40000000000002
 20
-2.764319722392892
 30
0.0
 10
25.40000000000002
 20
-2.853178744846036
 30
0.0
 10
25.40000000000002
 20
-2.842652809899614
 30
0.0
 10
25.40000000000002
 20
-2.839991479041325
 30
0.0
  0
SPLINE
  5
B3
330
1F
100
AcDbEntity
  8
외형선
  6
Continuous
370
    15
100
AcDbSpline
210
0.0
220
0.0
230
1.0
 70
     8
 71
     3
 72
     8
 73
     4
 74
     0
 42
0.000000001
 43
0.00000001
 40
0.0
 40
0.0
 40
0.0
 40
0.0
 40
1.0
 40
1.0
 40
1.0
 40
1.0
 10
25.40000000000002
 20
-3.114893730760095
 30
0.0
 10
25.06642555717616
 20
-3.209209647977761
 30
0.0
 10
24.7352800180097
 20
-3.289726083705265
 30
0.0
 10
24.40000000000002
 20
-3.355843934143254
 30
0.0
  0
SPLINE
  5
B4
330
1F
100
AcDbEntity
  8
외형선
  6
Continuous
370
    15
100
AcDbSpline
210
0.0
220
0.0
230
1.0
 70
    24
 71
     3
 72
    10
 73
     6
 74
     0
 42
0.000000001
 43
0.00000001
 40
0.0
 40
0.0
 40
0.0
 40
0.0
 40
0.0389874783892502
 40
0.7574286079035084
 40
1.0
 40
1.0
 40
1.0
 40
1.0
 10
25.40000000000002
 20
-2.89499499787684
 30
0.0
 10
25.40000000000002
 20
-2.898110041656485
 30
0.0
 10
25.40000000000002
 20
-2.958627504468986
 30
0.0
 10
25.40000000000002
 20
-3.030843999510213
 30
0.0
 10
25.40000000000002
 20
-3.097954271783906
 30
0.0
 10
25.40000000000002
 20
-3.11489373074342
 30
0.0
  0
SPLINE
  5
B5
330
1F
100
AcDbEntity
  8
0
  6
Continuous
 62
     1
370
    15
100
AcDbSpline
210
0.0
220
0.0
230
1.0
 70
     8
 71
     3
 72
    38
 73
    34
 74
     0
 42
0.000000001
 43
0.00000001
 40
0.0
 40
0.0
 40
0.0
 40
0.0
 40
0.0625
 40
0.0625
 40
0.1250000000000001
 40
0.1250000000000001
 40
0.1875000000000001
 40
0.1875000000000001
 40
0.2500000000000001
 40
0.2500000000000001
 40
0.3125000000000001
 40
0.3125000000000001
 40
0.3750000000000002
 40
0.3750000000000002
 40
0.4375000000000002
 40
0.4375000000000002
 40
0.5000000000000002
 40
0.5000000000000002
 40
0.5625000000000002
 40
0.5625000000000002
 40
0.6250000000000002
 40
0.6250000000000002
 40
0.6875000000000003
 40
0.6875000000000003
 40
0.7500000000000003
 40
0.7500000000000003
 40
0.8125000000000003
 40
0.8125000000000003
 40
0.8750000000000002
 40
0.8750000000000002
 40
0.9375000000000002
 40
0.9375000000000002
 40
1.0
 40
1.0
 40
1.0
 40
1.0
 10
39.68750000000001
 20
-3.389498167287693
 30
0.0
 10
39.3924173300657
 20
-3.335446438556249
 30
0.0
 10
39.09312720423807
 20
-3.269377708106025
 30
0.0
 10
38.49539318473489
 20
-3.114968142242571
 30
0.0
 10
38.19922623865548
 20
-3.026890759090492
 30
0.0
 10
37.60625732807613
 20
-2.830396739312341
 30
0.0
 10
37.30641410731118
 20
-2.721586377939505
 30
0.0
 10
36.7093278817122
 20
-2.486091319140045
 30
0.0
 10
36.41485992128655
 20
-2.359855107725402
 30
0.0
 10
35.81971810684672
 20
-2.091057976594869
 30
0.0
 10
35.51964918923791
 20
-1.948520793038855
 30
0.0
 10
34.92385621326411
 20
-1.651591125811657
 30
0.0
 10
34.62965695047478
 20
-1.497512054396416
 30
0.0
 10
34.03298068822787
 20
-1.178612146368574
 30
0.0
 10
33.73301429815681
 20
-1.014199223599108
 30
0.0
 10
33.13915536886464
 20
-0.6805996619036547
 30
0.0
 10
32.84379355106035
 20
-0.5111594444861061
 30
0.0
 10
32.24622681858297
 20
-0.1686046900812229
 30
0.0
 10
31.94669080497707
 20
0.0040004145693462
 30
0.0
 10
31.35539977545119
 20
0.3464962730557375
 30
0.0
 10
31.05744832188555
 20
0.5175819091932322
 30
0.0
 10
30.45963830897023
 20
0.855329254306089
 30
0.0
 10
30.1624655234772
 20
1.021479324934666
 30
0.0
 10
29.57047551082972
 20
1.345151270918531
 30
0.0
 10
29.27080159973156
 20
1.503540673608514
 30
0.0
 10
28.67339637478027
 20
1.808412708776262
 30
0.0
 10
28.37845814652304
 20
1.95445974151936
 30
0.0
 10
27.7840574708752
 20
2.232773280668674
 30
0.0
 10
27.48403481011017
 20
2.365068851868629
 30
0.0
 10
26.88768097987085
 20
2.611767865391696
 30
0.0
 10
26.59354870853858
 20
2.725947277593097
 30
0.0
 10
25.99737316526957
 20
2.93564075465338
 30
0.0
 10
25.69732980980781
 20
3.030825738348136
 30
0.0
 10
25.39999999999532
 20
3.114893730761422
 30
0.0
1001
PE_URL
1000

  0
SPLINE
  5
B6
330
1F
100
AcDbEntity
  8
0
  6
Continuous
 62
     1
370
    15
100
AcDbSpline
210
0.0
220
0.0
230
1.0
 70
     8
 71
     3
 72
    15
 73
    11
 74
     0
 42
0.000000001
 43
0.00000001
 40
0.0
 40
0.0
 40
0.0
 40
0.0
 40
0.1420566044269564
 40
0.2839424393458888
 40
0.4257589976139556
 40
0.567608560958139
 40
0.7095930349940751
 40
0.8517002415499362
 40
0.993635143424512
 40
1.0
 40
1.0
 40
1.0
 40
1.0
 10
39.68750000000002
 20
-2.818110306790224
 30
0.0
 10
39.24797307397637
 20
-2.725589741651523
 30
0.0
 10
38.36944758734526
 20
-2.54065983247119
 30
0.0
 10
37.05247324930671
 20
-2.114239273058122
 30
0.0
 10
35.73620821286381
 20
-1.601450104894065
 30
0.0
 10
34.41960137106992
 20
-1.014249133537848
 30
0.0
 10
33.10189965893713
 20
-0.3803103097876126
 30
0.0
 10
31.7836374829912
 20
0.2647882319746181
 30
0.0
 10
30.88527741880408
 20
0.7113968623651407
 30
0.0
 10
30.42656311262591
 20
0.9175050326490377
 30
0.0
 10
30.40687561752502
 20
0.9263509603606124
 30
0.0
1001
PE_URL
1000

  0
LINE
  5
B7
330
1F
100
AcDbEntity
  8
0
  6
Continuous
 62
     1
370
    15
100
AcDbLine
 10
39.68749999999994
 20
-3.389498167287694
 30
0.0
 11
39.68750000000001
 21
-2.818110306790224
 31
0.0
1001
PE_URL
1000

  0
SPLINE
  5
B8
330
1F
100
AcDbEntity
  8
0
  6
Continuous
 62
     1
370
    15
100
AcDbSpline
210
0.0
220
0.0
230
1.0
 70
     8
 71
     3
 72
    38
 73
    34
 74
     0
 42
0.000000001
 43
0.00000001
 40
0.0
 40
0.0
 40
0.0
 40
0.0
 40
0.0625
 40
0.0625
 40
0.125
 40
0.125
 40
0.1875
 40
0.1875
 40
0.25
 40
0.25
 40
0.3125
 40
0.3125
 40
0.375
 40
0.375
 40
0.4375
 40
0.4375
 40
0.5
 40
0.5
 40
0.5625
 40
0.5625
 40
0.625
 40
0.625
 40
0.6875
 40
0.6875
 40
0.75
 40
0.75
 40
0.8125
 40
0.8125
 40
0.875
 40
0.875
 40
0.9375
 40
0.9375
 40
1.0
 40
1.0
 40
1.0
 40
1.0
 10
25.39999999999916
 20
2.510960445295168
 30
0.0
 10
25.69732980981159
 20
2.388789885773043
 30
0.0
 10
25.99737316527328
 20
2.25749328418035
 30
0.0
 10
26.59354870854209
 20
1.980694116756723
 30
0.0
 10
26.88768097987429
 20
1.83557290385026
 30
0.0
 10
27.48403481011348
 20
1.532303564479504
 30
0.0
 10
27.78405747087842
 20
1.37447592645024
 30
0.0
 10
28.37845814652606
 20
1.051380008796116
 30
0.0
 10
28.67339637478324
 20
0.8860442903643467
 30
0.0
 10
29.27080159973438
 20
0.5489727863630697
 30
0.0
 10
29.57047551083245
 20
0.3777493845042957
 30
0.0
 10
30.16246552347972
 20
0.0352796343968339
 30
0.0
 10
30.45963830897272
 20
-0.1368987097070913
 30
0.0
 10
31.05744832188789
 20
-0.4797768813212971
 30
0.0
 10
31.3553997754534
 20
-0.6499523347127162
 30
0.0
 10
31.94669080497916
 20
-0.983773600000434
 30
0.0
 10
32.24622681858498
 20
-1.148575616723178
 30
0.0
 10
32.8437935510622
 20
-1.468763570720078
 30
0.0
 10
33.13915536886637
 20
-1.623698055785953
 30
0.0
 10
33.73301429815842
 20
-1.921822103141118
 30
0.0
 10
34.0329806882294
 20
-2.065212906518453
 30
0.0
 10
34.62965695047615
 20
-2.336124774084694
 30
0.0
 10
34.9238562132654
 20
-2.463333734913246
 30
0.0
 10
35.51964918923904
 20
-2.700867154036706
 30
0.0
 10
35.81971810684777
 20
-2.810903927124816
 30
0.0
 10
36.41485992128743
 20
-3.010112950639774
 30
0.0
 10
36.70932788171299
 20
-3.099306280939258
 30
0.0
 10
37.30641410731182
 20
-3.256379136921345
 30
0.0
 10
37.60625732807669
 20
-3.323915367132433
 30
0.0
 10
38.19922623865587
 20
-3.435043497858247
 30
0.0
 10
38.49539318473521
 20
-3.478892306712865
 30
0.0
 10
39.09312720423824
 20
-3.542352901393852
 30
0.0
 10
39.39241733006578
 20
-3.561812863925363
 30
0.0
 10
39.68750000000001
 20
-3.568856105648738
 30
0.0
1001
PE_URL
1000

  0
SPLINE
  5
B9
330
1F
100
AcDbEntity
  8
0
  6
Continuous
 62
     1
370
    15
100
AcDbSpline
210
0.0
220
0.0
230
1.0
 70
     8
 71
     3
 72
    12
 73
     8
 74
     0
 42
0.000000001
 43
0.00000001
 40
0.0
 40
0.0
 40
0.0
 40
0.0
 40
0.0631059732861872
 40
0.3065169523494744
 40
0.5499220487904452
 40
0.7748126694413948
 40
1.0
 40
1.0
 40
1.0
 40
1.0
 10
30.80722950681219
 20
-0.3359970027691182
 30
0.0
 10
30.69348380974061
 20
-0.2910290675330287
 30
0.0
 10
30.14100069928865
 20
-0.0726117966432116
 30
0.0
 10
29.14991868486223
 20
0.3339344561079868
 30
0.0
 10
27.86721751740587
 20
0.838568834525098
 30
0.0
 10
26.617309134166
 20
1.301001041924096
 30
0.0
 10
25.80594800560407
 20
1.555671922413653
 30
0.0
 10
25.40000000000002
 20
1.683091307420921
 30
0.0
1001
PE_URL
1000

  0
SPLINE
  5
BA
330
1F
100
AcDbEntity
  8
외형선
  6
Continuous
370
    15
100
AcDbSpline
210
0.0
220
0.0
230
1.0
 70
    24
 71
     3
 72
    10
 73
     6
 74
     0
 42
0.000000001
 43
0.00000001
 40
0.0
 40
0.0
 40
0.0
 40
0.0
 40
0.5
 40
0.5
 40
1.0
 40
1.0
 40
1.0
 40
1.0
 10
25.40000000000002
 20
2.510960445294644
 30
0.0
 10
25.40000000000002
 20
2.424392324468992
 30
0.0
 10
25.40000000000002
 20
2.302875310964835
 30
0.0
 10
25.40000000000002
 20
2.015120934257606
 30
0.0
 10
25.40000000000002
 20
1.849826225475863
 30
0.0
 10
25.40000000000002
 20
1.683091307420922
 30
0.0
  0
LINE
  5
BB
330
1F
100
AcDbEntity
  8
0
  6
Continuous
 62
     1
370
    15
100
AcDbLine
 10
39.68750000000001
 20
-3.568856105648385
 30
0.0
 11
39.6875
 21
-3.389498167287689
 31
0.0
1001
PE_URL
1000

  0
SPLINE
  5
BC
330
1F
100
AcDbEntity
  8
0
  6
Continuous
 62
     1
370
    15
100
AcDbSpline
210
0.0
220
0.0
230
1.0
 70
     8
 71
     3
 72
     8
 73
     4
 74
     0
 42
0.000000001
 43
0.00000001
 40
0.0
 40
0.0
 40
0.0
 40
0.0
 40
1.0
 40
1.0
 40
1.0
 40
1.0
 10
37.47679032464885
 20
0.9997419336125972
 30
0.0
 10
37.35001879666186
 20
1.149960286334947
 30
0.0
 10
37.23695297331558
 20
1.294455991350845
 30
0.0
 10
37.14077522736393
 20
1.431900288219398
 30
0.0
1001
PE_URL
1000

  0
LINE
  5
BD
330
1F
100
AcDbEntity
  8
0
  6
Continuous
 62
     1
370
    15
100
AcDbLine
 10
37.18592475711127
 20
1.469785241978214
 30
0.0
 11
39.68750000000001
 21
0.0000000000000014
 31
0.0
1001
PE_URL
1000

  0
LINE
  5
BE
330
1F
100
AcDbEntity
  8
0
  6
Continuous
 62
     1
370
    15
100
AcDbLine
 10
39.68750000000001
 20
0.0000000000000014
 30
0.0
 11
39.68750000000001
 21
-0.9545583978496368
 31
0.0
1001
PE_URL
1000

  0
SPLINE
  5
BF
330
1F
100
AcDbEntity
  8
0
  6
Continuous
 62
     1
370
    15
100
AcDbSpline
210
0.0
220
0.0
230
1.0
 70
     8
 71
     3
 72
    10
 73
     6
 74
     0
 42
0.000000001
 43
0.00000001
 40
0.0
 40
0.0
 40
0.0
 40
0.0
 40
0.5
 40
0.5
 40
1.0
 40
1.0
 40
1.0
 40
1.0
 10
39.68750000000002
 20
-0.9545583978496374
 30
0.0
 10
39.30481053394665
 20
-0.6536983022613152
 30
0.0
 10
38.92851719109931
 20
-0.3404982155421866
 30
0.0
 10
38.18904180226997
 20
0.3111974817345579
 30
0.0
 10
37.82241716278961
 20
0.6531273299819282
 30
0.0
 10
37.47679032464885
 20
0.9997419336125972
 30
0.0
1001
PE_URL
1000

  0
SPLINE
  5
C0
330
1F
100
AcDbEntity
  8
0
  6
Continuous
 62
     1
370
    15
100
AcDbSpline
210
0.0
220
0.0
230
1.0
 70
     8
 71
     3
 72
    14
 73
    10
 74
     0
 42
0.000000001
 43
0.00000001
 40
0.0
 40
0.0
 40
0.0
 40
0.0
 40
0.1059967883694333
 40
0.211645108446368
 40
0.3716995383888097
 40
0.5319083420224999
 40
0.6922575363298594
 40
0.8524095740368308
 40
1.0
 40
1.0
 40
1.0
 40
1.0
 10
37.47679032464403
 20
0.9997419336146725
 30
0.0
 10
37.18613361120734
 20
1.12333484583533
 30
0.0
 10
36.60577572883859
 20
1.370114354087739
 30
0.0
 10
35.58732942868512
 20
1.767142790079497
 30
0.0
 10
34.419574189718
 20
2.166162255648012
 30
0.0
 10
33.10193712877692
 20
2.518582331885158
 30
0.0
 10
31.78368355455561
 20
2.754258298864655
 30
0.0
 10
30.50040611834884
 20
2.873640056296359
 30
0.0
 10
29.65679284508913
 20
2.846640341364731
 30
0.0
 10
29.25220375828035
 20
2.83369152897102
 30
0.0
1001
PE_URL
1000

  0
SPLINE
  5
C1
330
1F
100
AcDbEntity
  8
0
  6
Continuous
 62
     1
370
    15
100
AcDbSpline
210
0.0
220
0.0
230
1.0
 70
    24
 71
     3
 72
    10
 73
     6
 74
     0
 42
0.000000001
 43
0.00000001
 40
0.0
 40
0.0
 40
0.0
 40
0.0
 40
0.5000000000000001
 40
0.5000000000000001
 40
1.0
 40
1.0
 40
1.0
 40
1.0
 10
39.68750000000001
 20
-2.818110306790222
 30
0.0
 10
39.68750000000002
 20
-2.602080180097967
 30
0.0
 10
39.68750000000002
 20
-2.329117831578418
 30
0.0
 10
39.68750000000002
 20
-1.694506640966335
 30
0.0
 10
39.68750000000001
 20
-1.333407523148898
 30
0.0
 10
39.68750000000001
 20
-0.954558397849752
 30
0.0
1001
PE_URL
1000

  0
SPLINE
  5
C2
330
1F
100
AcDbEntity
  8
0
  6
Continuous
 62
     1
370
    15
100
AcDbSpline
210
0.0
220
0.0
230
1.0
 70
    24
 71
     3
 72
     8
 73
     4
 74
     0
 42
0.000000001
 43
0.00000001
 40
0.0
 40
0.0
 40
0.0
 40
0.0
 40
1.0
 40
1.0
 40
1.0
 40
1.0
 10
37.51360572121656
 20
1.744742218100706
 30
0.0
 10
37.39570647324777
 20
1.645813002614026
 30
0.0
 10
37.27103532682656
 20
1.541201489635595
 30
0.0
 10
37.140775227364
 20
1.431900288219439
 30
0.0
1001
PE_URL
1000

  0
SPLINE
  5
C3
330
1F
100
AcDbEntity
  8
0
  6
Continuous
 62
     1
370
    15
100
AcDbSpline
210
0.0
220
0.0
230
1.0
 70
     8
 71
     3
 72
     9
 73
     5
 74
     0
 42
0.000000001
 43
0.00000001
 40
0.0
 40
0.0
 40
0.0
 40
0.0
 40
0.9926634123726832
 40
1.0
 40
1.0
 40
1.0
 40
1.0
 10
39.68750000000001
 20
2.500312499999999
 30
0.0
 10
39.24796629753617
 20
2.499769811763184
 30
0.0
 10
38.80518408456705
 20
2.499223112620202
 30
0.0
 10
38.36248758932325
 20
2.442996960155773
 30
0.0
 10
38.35923970769359
 20
2.442584452061271
 30
0.0
1001
PE_URL
1000

  0
SPLINE
  5
C4
330
1F
100
AcDbEntity
  8
0
  6
Continuous
 62
     1
370
    15
100
AcDbSpline
210
0.0
220
0.0
230
1.0
 70
     8
 71
     3
 72
    10
 73
     6
 74
     0
 42
0.000000001
 43
0.00000001
 40
0.0
 40
0.0
 40
0.0
 40
0.0
 40
0.5
 40
0.5
 40
1.0
 40
1.0
 40
1.0
 40
1.0
 10
39.68750000000001
 20
2.500312500000001
 30
0.0
 10
39.32012833713402
 20
2.400608765534517
 30
0.0
 10
38.95497903794975
 20
2.288820943853014
 30
0.0
 10
38.22960432108748
 20
2.038471728705462
 30
0.0
 10
37.86931107134411
 20
1.900406498753709
 30
0.0
 10
37.51360572122252
 20
1.744742218104793
 30
0.0
1001
PE_URL
1000

  0
SPLINE
  5
C5
330
1F
100
AcDbEntity
  8
0
  6
Continuous
 62
     1
370
    15
100
AcDbSpline
210
0.0
220
0.0
230
1.0
 70
     8
 71
     3
 72
    13
 73
     9
 74
     0
 42
0.000000001
 43
0.00000001
 40
0.0
 40
0.0
 40
0.0
 40
0.0
 40
0.0508875965793606
 40
0.2467403742246118
 40
0.4424456245562775
 40
0.6381462636127805
 40
0.818956951083742
 40
0.9999999999999999
 40
0.9999999999999999
 40
0.9999999999999999
 40
0.9999999999999999
 10
32.12551039174386
 20
-2.674120716263372
 30
0.0
 10
32.01140737797729
 20
-2.695537558969456
 30
0.0
 10
31.45815231762063
 20
-2.799382113226748
 30
0.0
 10
30.46630429776236
 20
-2.863877904305041
 30
0.0
 10
29.14989795258416
 20
-2.855822247322132
 30
0.0
 10
27.86721989841811
 20
-2.711371444485086
 30
0.0
 10
26.61732625896633
 20
-2.467559977363813
 30
0.0
 10
25.80594909274678
 20
-2.231325302694545
 30
0.0
 10
25.40000000000001
 20
-2.113132117268659
 30
0.0
1001
PE_URL
1000

  0
SPLINE
  5
C6
330
1F
100
AcDbEntity
  8
외형선
  6
Continuous
370
    15
100
AcDbSpline
210
0.0
220
0.0
230
1.0
 70
    24
 71
     3
 72
    14
 73
    10
 74
     0
 42
0.000000001
 43
0.00000001
 40
0.0
 40
0.0
 40
0.0
 40
0.0
 40
0.25
 40
0.25
 40
0.5
 40
0.5
 40
0.75
 40
0.75
 40
1.0
 40
1.0
 40
1.0
 40
1.0
 10
25.40000000000002
 20
1.683091307420922
 30
0.0
 10
25.40000000000002
 20
1.409121491625462
 30
0.0
 10
25.40000000000002
 20
1.106950696977877
 30
0.0
 10
25.40000000000002
 20
0.4682335828261186
 30
0.0
 10
25.40000000000002
 20
0.1319309233442079
 30
0.0
 10
25.40000000000002
 20
-0.542767428558598
 30
0.0
 10
25.40000000000002
 20
-0.8808036134896622
 30
0.0
 10
25.40000000000002
 20
-1.526126019715969
 30
0.0
 10
25.40000000000002
 20
-1.833159303499826
 30
0.0
 10
25.40000000000002
 20
-2.113132117268659
 30
0.0
  0
LINE
  5
C7
330
1F
100
AcDbEntity
  8
0
  6
Continuous
 62
     1
370
    15
100
AcDbLine
 10
39.68750000000001
 20
0.0000000000000014
 30
0.0
 11
39.68750000000001
 21
2.500312500000001
 31
0.0
1001
PE_URL
1000

  0
SPLINE
  5
C8
330
1F
100
AcDbEntity
  8
외형선
  6
Continuous
370
    15
100
AcDbSpline
210
0.0
220
0.0
230
1.0
 70
    24
 71
     3
 72
    12
 73
     8
 74
     0
 42
0.000000001
 43
0.00000001
 40
0.0
 40
0.0
 40
0.0
 40
0.0
 40
0.1820624866085963
 40
0.3665139341132929
 40
0.6335031485758836
 40
0.9082350683450242
 40
1.0
 40
1.0
 40
1.0
 40
1.0
 10
25.40000000000002
 20
-2.113132117268659
 30
0.0
 10
25.40000000000002
 20
-2.195667887885619
 30
0.0
 10
25.40000000000001
 20
-2.361822434917197
 30
0.0
 10
25.40000000000002
 20
-2.585958896718717
 30
0.0
 10
25.40000000000002
 20
-2.764286460995035
 30
0.0
 10
25.40000000000001
 20
-2.85310116721692
 30
0.0
 10
25.40000000000001
 20
-2.842658226882083
 30
0.0
 10
25.40000000000001
 20
-2.84004348216496
 30
0.0
  0
SPLINE
  5
C9
330
1F
100
AcDbEntity
  8
0
  6
Continuous
 62
     1
370
    15
100
AcDbSpline
210
0.0
220
0.0
230
1.0
 70
    24
 71
     3
 72
    10
 73
     6
 74
     0
 42
0.000000001
 43
0.00000001
 40
0.0
 40
0.0
 40
0.0
 40
0.0
 40
0.5
 40
0.5
 40
1.0
 40
1.0
 40
1.0
 40
1.0
 10
39.68750000000001
 20
2.5003125
 30
0.0
 10
39.68750000000001
 20
2.651875217283623
 30
0.0
 10
39.68750000000002
 20
2.828005130984732
 30
0.0
 10
39.68750000000002
 20
3.197525215557054
 30
0.0
 10
39.68750000000001
 20
3.389971678503384
 30
0.0
 10
39.68750000000002
 20
3.568856105648384
 30
0.0
1001
PE_URL
1000

  0
SPLINE
  5
CA
330
1F
100
AcDbEntity
  8
0
  6
Continuous
 62
     1
370
    15
100
AcDbSpline
210
0.0
220
0.0
230
1.0
 70
     8
 71
     3
 72
    16
 73
    12
 74
     0
 42
0.000000001
 43
0.00000001
 40
0.0
 40
0.0
 40
0.0
 40
0.0
 40
0.0188723502385397
 40
0.1237684483981132
 40
0.2290268417805584
 40
0.3240725153255642
 40
0.5145718856135768
 40
0.6100599086414034
 40
0.7073173407550524
 40
0.902268706885218
 40
1.0
 40
1.0
 40
1.0
 40
1.0
 10
34.7764612065159
 20
2.395088729565498
 30
0.0
 10
34.80736375373847
 20
2.409180871661563
 30
0.0
 10
35.01002851318512
 20
2.501599809408595
 30
0.0
 10
35.38455467396876
 20
2.647501856861973
 30
0.0
 10
35.88481110659285
 20
2.833974355332939
 30
0.0
 10
36.52418097984852
 20
3.046983228986619
 30
0.0
 10
37.1478958490094
 20
3.221165648022235
 30
0.0
 10
37.77580004098326
 20
3.358174414961584
 30
0.0
 10
38.40934015579346
 20
3.470910797375146
 30
0.0
 10
39.04889764364048
 20
3.544949995157318
 30
0.0
 10
39.52764035949278
 20
3.562871752175569
 30
0.0
 10
39.68749999999977
 20
3.568856105648375
 30
0.0
1001
PE_URL
1000

  0
LINE
  5
CB
330
1F
100
AcDbEntity
  8
0
  6
Continuous
 62
     1
370
    15
100
AcDbLine
 10
26.32685038664378
 20
-2.807835731827809
 30
0.0
 11
25.39999999999532
 21
-3.114893730761424
 31
0.0
1001
PE_URL
1000

  0
SPLINE
  5
CC
330
1F
100
AcDbEntity
  8
외형선
  6
Continuous
370
    15
100
AcDbSpline
210
0.0
220
0.0
230
1.0
 70
    24
 71
     3
 72
    11
 73
     7
 74
     0
 42
0.000000001
 43
0.00000001
 40
0.0
 40
0.0
 40
0.0
 40
0.0
 40
0.0396492437757217
 40
0.3984250896605045
 40
0.7576222244078572
 40
1.0
 40
1.0
 40
1.0
 40
1.0
 10
25.40000000000001
 20
-2.89499499787684
 30
0.0
 10
25.40000000000001
 20
-2.898109997730337
 30
0.0
 10
25.40000000000002
 20
-2.929411832966898
 30
0.0
 10
25.40000000000002
 20
-2.985998734408707
 30
0.0
 10
25.40000000000002
 20
-3.056125594725416
 30
0.0
 10
25.40000000000002
 20
-3.098015900598214
 30
0.0
 10
25.40000000000002
 20
-3.114893730743413
 30
0.0
  0
LINE
  5
CD
330
1F
100
AcDbEntity
  8
중심선
 62
     1
100
AcDbLine
 10
-42.68750000000001
 20
-0.0000000000000052
 30
0.0
 11
42.6875
 21
0.0000000000000052
 31
0.0
  0
LINE
  5
CE
330
1F
100
AcDbEntity
  8
참조1
100
AcDbLine
 10
-0.0000000000000018
 20
-0.0000000000000048
 30
0.0
 11
0.0000000000000036
 21
-40.00000000000001
 31
0.0
  0
LINE
  5
CF
330
1F
100
AcDbEntity
  8
참조1
100
AcDbLine
 10
0.0000000000000036
 20
-40.00000000000001
 30
0.0
 11
-14.46571559669921
 21
-40.0
 31
0.0
  0
CIRCLE
  5
D0
330
1F
100
AcDbEntity
  8
해칭선
100
AcDbCircle
 10
-0.0000000000000018
 20
0.0
 30
0.0
 40
3.000000000000002
  0
INSERT
  5
D1
330
1F
100
AcDbEntity
  8
0
  6
Continuous
 62
     7
100
AcDbBlockReference
 66
     1
  2
블럭10
 10
-13.94027293212521
 20
-52.04717430164393
 30
0.0
  0
ATTRIB
  5
D2
330
D1
100
AcDbEntity
  8
FORMAT
 62
     2
100
AcDbText
 10
-23.12156822086649
 20
-49.97180738881174
 30
0.0
 40
4.233333333333333
  1
E2050018 [ 2 FLUTE ]
 41
0.75
  7
SLDTEXTSTYLE0
 11
-23.12156822086649
 21
-52.08847405547841
 31
0.0
100
AcDbAttribute
  2
AUTOATTR0
 70
     0
 74
     1
  0
SEQEND
  5
D3
330
D1
100
AcDbEntity
  8
0
  6
Continuous
 62
     7
  0
HATCH
  5
D4
330
1F
100
AcDbEntity
  8
중심선
100
AcDbHatch
 10
0.0
 20
0.0
 30
0.0
210
0.0
220
0.0
230
1.0
  2
SOLID
 70
     1
 71
     0
 91
        1
 92
        0
 93
        4
 72
     1
 10
-8.225363627744372
 20
-35.8
 11
-11.67163887158165
 21
-35.8
 72
     1
 10
-11.67163887158165
 20
-35.8
 11
-13.79986873078568
 21
-38.3363255805726
 72
     1
 10
-13.79986873078568
 20
-38.3363255805726
 11
-10.35356040183525
 21
-38.33628615127011
 72
     1
 10
-10.35356040183525
 20
-38.33628615127011
 11
-8.225363627744372
 21
-35.8
 97
        0
 75
     0
 76
     1
 98
        1
 10
14.99421167873052
 20
-0.001074928723894
  0
HATCH
  5
D5
330
1F
100
AcDbEntity
  8
중심선
100
AcDbHatch
 10
0.0
 20
0.0
 30
0.0
210
0.0
220
0.0
230
1.0
  2
SOLID
 70
     1
 71
     0
 91
        1
 92
        0
 93
        4
 72
     1
 10
-3.212599636708418
 20
-35.80000000000003
 11
-6.658874880545675
 21
-35.8
 72
     1
 10
-6.658874880545675
 20
-35.8
 11
-11.19001288890309
 21
-41.20000000000002
 72
     1
 10
-11.19001288890309
 20
-41.20000000000002
 11
-7.743737645065806
 21
-41.20000000000002
 72
     1
 10
-7.743737645065806
 20
-41.20000000000002
 11
-3.212599636708418
 21
-35.80000000000003
 97
        0
 75
     0
 76
     1
 98
        1
 10
14.99421167873052
 20
-0.001074928723894
  0
HATCH
  5
D6
330
1F
100
AcDbEntity
  8
중심선
100
AcDbHatch
 10
0.0
 20
0.0
 30
0.0
210
0.0
220
0.0
230
1.0
  2
SOLID
 70
     1
 71
     0
 91
        1
 92
        0
 93
        4
 72
     1
 10
1.800164354327476
 20
-35.8
 11
-1.646110889509639
 21
-35.8
 72
     1
 10
-1.646110889509639
 20
-35.8
 11
-8.69454779139889
 21
-44.20000000000002
 72
     1
 10
-8.69454779139889
 20
-44.20000000000002
 11
-5.248272547561605
 21
-44.20000000000002
 72
     1
 10
-5.248272547561605
 20
-44.20000000000002
 11
1.800164354327476
 21
-35.8
 97
        0
 75
     0
 76
     1
 98
        1
 10
14.99421167873052
 20
-0.001074928723894
  0
HATCH
  5
D7
330
1F
100
AcDbEntity
  8
중심선
100
AcDbHatch
 10
0.0
 20
0.0
 30
0.0
210
0.0
220
0.0
230
1.0
  2
SOLID
 70
     1
 71
     0
 91
        1
 92
        0
 93
        6
 72
     3
 10
6.600054785339676
 20
-40.00000000005127
 11
3.960054785062283
 21
1.540882976769353E-10
 40
0.3939339440162628
 50
17.09539180608436
 51
320.0019657685077
 73
     0
 72
     1
 10
8.283054441040242
 20
-38.5878940046383
 11
10.58835631474131
 21
-36.65356729459035
 72
     3
 10
6.600054785286829
 20
-40.00000000000015
 11
6.600054785286829
 21
-1.278976924368180E-13
 40
0.636358354079598
 50
39.99873849337431
 51
368.4976242363724
 73
     1
 72
     1
 10
13.02538727718744
 20
-39.03999999993002
 11
5.280122092122751
 21
-39.03999999993
 72
     1
 10
5.280122092122751
 20
-39.03999999993
 11
5.280097047676817
 21
-40.95999999992991
 72
     1
 10
5.280097047676817
 20
-40.95999999992991
 11
9.721476817148854
 21
-40.95999999992988
 97
        0
 75
     0
 76
     1
 98
        1
 10
14.99421167873052
 20
-0.001074928723894
  0
DIMENSION
  5
D8
330
1F
100
AcDbEntity
  8
치수문자_일반주서
100
AcDbDimension
  2
_D
 10
-49.68749999999995
 20
-4.762500000000124
 30
0.0
 11
-49.68750000000006
 21
24.49149999999996
 31
0.0
 70
   160
  1
%%c<>
 71
     2
 42
9.524999999999999
 52
-270.0
  3
SLDDIMSTYLE0
100
AcDbAlignedDimension
 13
-19.95652700723832
 23
4.762499999999989
 33
0.0
 14
-19.95652700723831
 24
-4.76250000000001
 34
0.0
 50
90.0000000000002
100
AcDbRotatedDimension
1001
PE_URL
1000

1001
ACAD
1000
DSTYLE
1002
{
1070
   171
1070
     8
1070
   273
1070
     7
1002
}
  0
DIMENSION
  5
ED
330
1F
100
AcDbEntity
  8
치수문자_일반주서
100
AcDbDimension
  2
_D_1
 10
80.79535347174007
 20
3.568856105648536
 30
0.0
 11
80.79535347173999
 21
24.17285610564854
 31
0.0
 70
   160
  1
%%c<>
 71
     2
 42
7.137712211296767
 52
-270.0
  3
SLDDIMSTYLE0
100
AcDbAlignedDimension
 13
39.68750000000001
 23
-3.568856105648385
 33
0.0
 14
39.68750000000001
 24
3.568856105648383
 34
0.0
 50
90.0000000000002
100
AcDbRotatedDimension
1001
PE_URL
1000

1001
ACAD
1000
DSTYLE
1002
{
1070
   171
1070
     8
1070
   273
1070
     7
1002
}
  0
DIMENSION
  5
101
330
1F
100
AcDbEntity
  8
치수문자_일반주서
100
AcDbDimension
  2
_D_2
 10
25.40000000000002
 20
14.7625
 30
0.0
 11
59.85400000000001
 21
14.7625
 31
0.0
 70
   160
  1
<>
 71
     2
 42
14.28749999999999
  3
SLDDIMSTYLE0
100
AcDbAlignedDimension
 13
39.68750000000001
 23
3.568856105648383
 33
0.0
 14
25.40000000000002
 24
3.114893730743412
 34
0.0
 50
0.0000000000000142
100
AcDbRotatedDimension
1001
PE_URL
1000

1001
ACAD
1000
DSTYLE
1002
{
1070
   171
1070
     8
1070
   273
1070
     7
1002
}
  0
DIMENSION
  5
116
330
1F
100
AcDbEntity
  8
치수문자_일반주서
100
AcDbDimension
  2
_D_3
 10
39.68750000000002
 20
24.7625
 30
0.0
 11
0.0000000000000071
 21
24.7625
 31
0.0
 70
   160
  1
<>
 71
     2
 42
79.375
  3
SLDDIMSTYLE0
100
AcDbAlignedDimension
 13
-39.68749999999999
 23
3.568856105648699
 33
0.0
 14
39.68750000000001
 24
3.568856105648383
 34
0.0
100
AcDbRotatedDimension
1001
PE_URL
1000

1001
ACAD
1000
DSTYLE
1002
{
1070
   171
1070
     8
1070
   273
1070
     7
1002
}
  0
LINE
  5
129
330
1F
100
AcDbEntity
  8
참조1
100
AcDbLine
 10
83.50662503295506
 20
7.440000000000001
 30
0.0
 11
83.50662503295506
 21
-7.440000000000003
 31
0.0
  0
LINE
  5
12A
330
1F
100
AcDbEntity
  8
참조1
100
AcDbLine
 10
96.20662503295506
 20
5.440000000000001
 30
0.0
 11
83.50662503295506
 21
5.440000000000001
 31
0.0
  0
SOLID
  5
12B
330
1F
100
AcDbEntity
  8
참조1
100
AcDbTrace
 10
83.50662503295506
 20
5.440000000000001
 30
0.0
 11
89.85662503295505
 21
4.424000000000001
 31
0.0
 12
89.85662503295505
 22
6.456000000000001
 32
0.0
 13
89.85662503295505
 23
6.456000000000001
 33
0.0
  0
LINE
  5
12C
330
1F
100
AcDbEntity
  8
참조1
100
AcDbLine
 10
96.20662503295506
 20
-5.440000000000003
 30
0.0
 11
83.50662503295506
 21
-5.440000000000003
 31
0.0
  0
SOLID
  5
12D
330
1F
100
AcDbEntity
  8
참조1
100
AcDbTrace
 10
83.50662503295506
 20
-5.440000000000003
 30
0.0
 11
89.85662503295505
 21
-6.456000000000003
 31
0.0
 12
89.85662503295505
 22
-4.424000000000003
 32
0.0
 13
89.85662503295505
 23
-4.424000000000003
 33
0.0
  0
MTEXT
  5
12E
330
1F
100
AcDbEntity
  8
참조1
100
AcDbMText
 10
92.89097516558105
 20
11.01029177718833
 30
0.0
 40
3.5
 41
0.0
 71
     1
 72
     1
  1
A
  7
SLDTEXTSTYLE0
 73
     1
 44
1.0
  0
MTEXT
  5
12F
330
1F
100
AcDbEntity
  8
참조1
100
AcDbMText
 10
92.89097516558105
 20
0.1302917771883252
 30
0.0
 40
3.5
 41
0.0
 71
     1
 72
     1
  1
A
  7
SLDTEXTSTYLE0
 73
     1
 44
1.0
  0
INSERT
  5
136
330
1F
100
AcDbEntity
  8
해칭선
100
AcDbBlockReference
  2
SW_DOWELSYMBOL_0
 10
-0.0000000000000018
 20
0.0
 30
0.0
  0
LINE
  5
1DE
330
1F
100
AcDbEntity
  8
외형선
  6
Continuous
370
    15
100
AcDbLine
 10
-3.568700000000055
 20
3.492500000000014
 30
0.0
 11
3.568700000000073
 21
3.492500000000014
 31
0.0
1001
PE_URL
1000

  0
LINE
  5
1DF
330
1F
100
AcDbEntity
  8
외형선
  6
Continuous
370
    15
100
AcDbLine
 10
-3.568700000000055
 20
3.492500000000014
 30
0.0
 11
-4.838700000000037
 21
4.762499999999996
 31
0.0
1001
PE_URL
1000

  0
LINE
  5
1E0
330
1F
100
AcDbEntity
  8
외형선
  6
Continuous
370
    15
100
AcDbLine
 10
3.568700000000073
 20
3.492500000000014
 30
0.0
 11
4.838700000000168
 21
4.762499999999996
 31
0.0
1001
PE_URL
1000

  0
LINE
  5
222
330
1F
100
AcDbEntity
  8
외형선
  6
Continuous
370
    15
100
AcDbLine
 10
-19.95652700723832
 20
4.762499999999989
 30
0.0
 11
-23.87987674068671
 21
3.711241607297623
 31
0.0
  0
SPLINE
  5
223
330
1F
100
AcDbEntity
  8
외형선
  6
Continuous
370
    15
100
AcDbSpline
210
0.0
220
0.0
230
1.0
 70
     8
 71
     3
 72
     9
 73
     5
 74
     0
 42
0.000000001
 43
0.00000001
 40
0.0
 40
0.0
 40
0.0
 40
0.0
 40
0.5632083014837294
 40
1.0
 40
1.0
 40
1.0
 40
1.0
 10
-23.87982959671663
 20
2.966799848835535
 30
0.0
 10
-24.16607869264443
 20
2.941973910584167
 30
0.0
 10
-24.67432598795897
 20
2.897894414266435
 30
0.0
 10
-25.17939155368461
 20
2.864857143100178
 30
0.0
 10
-25.4
 20
2.850426737313125
 30
0.0
  0
LINE
  5
224
330
1F
100
AcDbEntity
  8
0
  6
Continuous
 62
     1
370
    15
100
AcDbLine
 10
-30.43276261506478
 20
-0.9152868303996797
 30
0.0
 11
-29.44355901771756
 21
-1.410872988410151
 31
0.0
1001
PE_URL
1000

  0
SPLINE
  5
225
330
1F
100
AcDbEntity
  8
0
  6
Continuous
 62
     1
370
    15
100
AcDbSpline
210
0.0
220
0.0
230
1.0
 70
     8
 71
     3
 72
    17
 73
    13
 74
     0
 42
0.000000001
 43
0.00000001
 40
0.0
 40
0.0
 40
0.0
 40
0.0
 40
0.1585824071202219
 40
0.270057612850823
 40
0.3776415844903491
 40
0.5103552745029568
 40
0.6414220121619552
 40
0.7295677400446376
 40
0.8103248053281351
 40
0.8857946477202293
 40
0.9582819548725922
 40
1.0
 40
1.0
 40
1.0
 40
1.0
 10
-29.25310167317538
 20
-2.838349127847874
 30
0.0
 10
-29.09993714493108
 20
-2.830719815715483
 30
0.0
 10
-28.83910589875305
 20
-2.817727492925187
 30
0.0
 10
-28.4673613713817
 20
-2.804827623808038
 30
0.0
 10
-28.12001265984678
 20
-2.795797598533468
 30
0.0
 10
-27.75756368143644
 20
-2.790244225122535
 30
0.0
 10
-27.40799976624552
 20
-2.78894758770528
 30
0.0
 10
-27.10937828546036
 20
-2.789841760617559
 30
0.0
 10
-26.86785509965026
 20
-2.793096866504136
 30
0.0
 10
-26.65827874320997
 20
-2.798208778545039
 30
0.0
 10
-26.47940477116989
 20
-2.802751116353171
 30
0.0
 10
-26.3676670363825
 20
-2.806475318821477
 30
0.0
 10
-26.32685038664375
 20
-2.807835731827829
 30
0.0
1001
PE_URL
1000

  0
SPLINE
  5
226
330
1F
100
AcDbEntity
  8
0
  6
Continuous
 62
     1
370
    15
100
AcDbSpline
210
0.0
220
0.0
230
1.0
 70
     8
 71
     3
 72
    25
 73
    21
 74
     0
 42
0.000000001
 43
0.00000001
 40
0.0
 40
0.0
 40
0.0
 40
0.0
 40
0.0751780827641075
 40
0.1288112256399854
 40
0.1640618511671259
 40
0.2055163247459013
 40
0.2575251638600922
 40
0.3075343152208529
 40
0.3712883137922401
 40
0.4254900990986311
 40
0.4793694326301025
 40
0.5521738861851202
 40
0.6357831514798573
 40
0.7103855945691466
 40
0.7403293915641417
 40
0.7679041459134541
 40
0.7957450773634195
 40
0.8417333618929078
 40
0.9097915821276363
 40
1.0
 40
1.0
 40
1.0
 40
1.0
 10
-38.35935751069043
 20
-2.442993249089977
 30
0.0
 10
-38.20364788003472
 20
-2.430342087478611
 30
0.0
 10
-37.93685272337123
 20
-2.408665402293078
 30
0.0
 10
-37.59681035236054
 20
-2.388215401731188
 30
0.0
 10
-37.32336422674281
 20
-2.374610104768344
 30
0.0
 10
-37.05445196112594
 20
-2.363895613792057
 30
0.0
 10
-36.75585164968147
 20
-2.355513599947663
 30
0.0
 10
-36.41144786519283
 20
-2.350318176322268
 30
0.0
 10
-36.06234301932609
 20
-2.350207008959512
 30
0.0
 10
-35.70483809555368
 20
-2.355497853270066
 30
0.0
 10
-35.32833691172553
 20
-2.366250822862138
 30
0.0
 10
-34.89132632304
 20
-2.385813221633896
 30
0.0
 10
-34.40687593539752
 20
-2.417195111584828
 30
0.0
 10
-34.01388398164785
 20
-2.450174205665551
 30
0.0
 10
-33.74341516712536
 20
-2.476288702065563
 30
0.0
 10
-33.56803520373523
 20
-2.494377484897885
 30
0.0
 10
-33.35937791046744
 20
-2.517237638372354
 30
0.0
 10
-33.06473676315567
 20
-2.552314246591301
 30
0.0
 10
-32.63933904671092
 20
-2.607673993205221
 30
0.0
 10
-32.30839002623998
 20
-2.657899834059151
 30
0.0
 10
-32.11975654106485
 20
-2.686527431725541
 30
0.0
1001
PE_URL
1000

  0
SPLINE
  5
227
330
1F
100
AcDbEntity
  8
0
  6
Continuous
 62
     1
370
    15
100
AcDbSpline
210
0.0
220
0.0
230
1.0
 70
     8
 71
     3
 72
    16
 73
    12
 74
     0
 42
0.000000001
 43
0.00000001
 40
0.0
 40
0.0
 40
0.0
 40
0.0
 40
0.1707326740109911
 40
0.2959285622564645
 40
0.3824217064002107
 40
0.4818358902711065
 40
0.6045206921223524
 40
0.7211290092700694
 40
0.8643852480956573
 40
0.9876405916269506
 40
1.0
 40
1.0
 40
1.0
 40
1.0
 10
-32.11975654106485
 20
2.686527431725484
 30
0.0
 10
-32.27005633212799
 20
2.663552552545013
 30
0.0
 10
-32.53056886339601
 20
2.623730514945731
 30
0.0
 10
-32.86788285199712
 20
2.577909066115303
 30
0.0
 10
-33.14605455448099
 20
2.542579510094718
 30
0.0
 10
-33.42047770241955
 20
2.510107545344731
 30
0.0
 10
-33.72052570773591
 20
2.478153847809459
 30
0.0
 10
-34.05903057776866
 20
2.446094497479013
 30
0.0
 10
-34.39851213627191
 20
2.418975122886646
 30
0.0
 10
-34.64414067576265
 20
2.401371637429808
 30
0.0
 10
-34.76387715291616
 20
2.394940784502001
 30
0.0
 10
-34.77478947622546
 20
2.394354701230043
 30
0.0
1001
PE_URL
1000

  0
SPLINE
  5
228
330
1F
100
AcDbEntity
  8
0
  6
Continuous
 62
     1
370
    15
100
AcDbSpline
210
0.0
220
0.0
230
1.0
 70
     8
 71
     3
 72
    19
 73
    15
 74
     0
 42
0.000000001
 43
0.00000001
 40
0.0
 40
0.0
 40
0.0
 40
0.0
 40
0.1279210845279269
 40
0.2156449677958897
 40
0.2717233517495745
 40
0.3268123710358033
 40
0.3841680622098169
 40
0.4455419454684517
 40
0.5125310763120238
 40
0.612139384612167
 40
0.7129993463884261
 40
0.7947611847207776
 40
0.8794802893430727
 40
1.0
 40
1.0
 40
1.0
 40
1.0
 10
-25.4
 20
2.850426737313125
 30
0.0
 10
-25.56478172954906
 20
2.841287178611378
 30
0.0
 10
-25.84256510586338
 20
2.825880024668137
 30
0.0
 10
-26.19224543127107
 20
2.811995345608565
 30
0.0
 10
-26.44879301910533
 20
2.803666194726247
 30
0.0
 10
-26.65838056671589
 20
2.798167980129495
 30
0.0
 10
-26.86782529414877
 20
2.79310880890603
 30
0.0
 10
-27.10938722587262
 20
2.789838178393055
 30
0.0
 10
-27.40799591255427
 20
2.788949131793672
 30
0.0
 10
-27.7575649049149
 20
2.790243734901878
 30
0.0
 10
-28.1200123996509
 20
2.795797702788136
 30
0.0
 10
-28.46736143639287
 20
2.804827597759466
 30
0.0
 10
-28.83910587393951
 20
2.817727502867378
 30
0.0
 10
-29.0999371357509
 20
2.830719819393728
 30
0.0
 10
-29.25310167317539
 20
2.838349127847827
 30
0.0
1001
PE_URL
1000

  0
SPLINE
  5
229
330
1F
100
AcDbEntity
  8
외형선
  6
Continuous
370
    15
100
AcDbSpline
210
0.0
220
0.0
230
1.0
 70
     8
 71
     3
 72
     8
 73
     4
 74
     0
 42
0.000000001
 43
0.00000001
 40
0.0
 40
0.0
 40
0.0
 40
0.0
 40
1.0
 40
1.0
 40
1.0
 40
1.0
 10
-24.39999999999999
 20
-3.355843934143255
 30
0.0
 10
-24.22609395119693
 20
-3.427056130073083
 30
0.0
 10
-24.05267820531953
 20
-3.496482320786757
 30
0.0
 10
-23.87974763849374
 20
-3.563946927933102
 30
0.0
  0
LINE
  5
22A
330
1F
100
AcDbEntity
  8
외형선
  6
Continuous
370
    15
100
AcDbLine
 10
-24.39999999999999
 20
-3.35584393414327
 30
0.0
 11
-24.39999999999999
 21
-2.887453053924151
 31
0.0
  0
SPLINE
  5
22B
330
1F
100
AcDbEntity
  8
외형선
  6
Continuous
370
    15
100
AcDbSpline
210
0.0
220
0.0
230
1.0
 70
     8
 71
     3
 72
     8
 73
     4
 74
     0
 42
0.000000001
 43
0.00000001
 40
0.0
 40
0.0
 40
0.0
 40
0.0
 40
0.0005964863428173
 40
0.0005964863428173
 40
0.0005964863428173
 40
0.0005964863428173
 10
-23.8798767406867
 20
-3.146536726017764
 30
0.0
 10
-24.05333735650623
 20
-3.061875028149224
 30
0.0
 10
-24.22675555089903
 20
-2.975494665858797
 30
0.0
 10
-24.40000000000038
 20
-2.887453053922783
 30
0.0
  0
LINE
  5
22C
330
1F
100
AcDbEntity
  8
외형선
  6
Continuous
370
    15
100
AcDbLine
 10
-23.87987674068671
 20
3.711241607297623
 30
0.0
 11
-23.8798767406867
 21
-3.146571234967798
 31
0.0
  0
SPLINE
  5
22D
330
1F
100
AcDbEntity
  8
외형선
  6
Continuous
370
    15
100
AcDbSpline
210
0.0
220
0.0
230
1.0
 70
     8
 71
     3
 72
     8
 73
     4
 74
     0
 42
0.000000001
 43
0.00000001
 40
0.0
 40
0.0
 40
0.0
 40
0.0
 40
1.0
 40
1.0
 40
1.0
 40
1.0
 10
-24.4
 20
3.35584393414322
 30
0.0
 10
-24.22609395119694
 20
3.427056130073048
 30
0.0
 10
-24.05267820531954
 20
3.496482320786722
 30
0.0
 10
-23.87974763849375
 20
3.56394692793307
 30
0.0
  0
LINE
  5
22E
330
1F
100
AcDbEntity
  8
외형선
  6
Continuous
370
    15
100
AcDbLine
 10
-23.8798767406867
 20
-3.563944170781507
 30
0.0
 11
-23.8798767406867
 21
-3.711241607297659
 31
0.0
  0
SPLINE
  5
22F
330
1F
100
AcDbEntity
  8
외형선
  6
Continuous
370
    15
100
AcDbSpline
210
0.0
220
0.0
230
1.0
 70
    24
 71
     3
 72
    14
 73
    10
 74
     0
 42
0.000000001
 43
0.00000001
 40
0.0
 40
0.0
 40
0.0
 40
0.0
 40
0.25
 40
0.25
 40
0.5
 40
0.5
 40
0.75
 40
0.75
 40
1.0
 40
1.0
 40
1.0
 40
1.0
 10
-25.4
 20
-1.683091307420941
 30
0.0
 10
-25.4
 20
-1.409121491625481
 30
0.0
 10
-25.4
 20
-1.106950696977894
 30
0.0
 10
-25.4
 20
-0.4682335828261373
 30
0.0
 10
-25.4
 20
-0.1319309233442247
 30
0.0
 10
-25.4
 20
0.5427674285585802
 30
0.0
 10
-25.4
 20
0.8808036134896433
 30
0.0
 10
-25.4
 20
1.526126019715949
 30
0.0
 10
-25.4
 20
1.833159303499809
 30
0.0
 10
-25.4
 20
2.113132117268641
 30
0.0
  0
SPLINE
  5
230
330
1F
100
AcDbEntity
  8
외형선
  6
Continuous
370
    15
100
AcDbSpline
210
0.0
220
0.0
230
1.0
 70
     8
 71
     3
 72
    10
 73
     6
 74
     0
 42
0.000000001
 43
0.00000001
 40
0.0
 40
0.0
 40
0.0
 40
0.0
 40
0.5
 40
0.5
 40
1.0
 40
1.0
 40
1.0
 40
1.0
 10
-25.4
 20
2.113132117268641
 30
0.0
 10
-25.14689381962729
 20
2.03438453188614
 30
0.0
 10
-24.89630251526436
 20
1.950604754108316
 30
0.0
 10
-24.38856243230484
 20
1.772935757507963
 30
0.0
 10
-24.13340047050757
 20
1.679243951739078
 30
0.0
 10
-23.87982959671663
 20
1.581758579981642
 30
0.0
  0
SPLINE
  5
231
330
1F
100
AcDbEntity
  8
외형선
  6
Continuous
370
    15
100
AcDbSpline
210
0.0
220
0.0
230
1.0
 70
     8
 71
     3
 72
    10
 73
     6
 74
     0
 42
0.000000001
 43
0.00000001
 40
0.0
 40
0.0
 40
0.0
 40
0.0
 40
0.5
 40
0.5
 40
1.0
 40
1.0
 40
1.0
 40
1.0
 10
-25.4
 20
-1.683091307420938
 30
0.0
 10
-25.14689648802279
 20
-1.758786403973843
 30
0.0
 10
-24.89630784093913
 20
-1.830016580834855
 30
0.0
 10
-24.38857316532077
 20
-1.96353269586902
 30
0.0
 10
-24.13341390396108
 20
-2.02560719972373
 30
0.0
 10
-23.87984563648628
 20
-2.082302662861576
 30
0.0
  0
SPLINE
  5
232
330
1F
100
AcDbEntity
  8
외형선
  6
Continuous
370
    15
100
AcDbSpline
210
0.0
220
0.0
230
1.0
 70
    24
 71
     3
 72
    10
 73
     6
 74
     0
 42
0.000000001
 43
0.00000001
 40
0.0
 40
0.0
 40
0.0
 40
0.0
 40
0.5
 40
0.5
 40
1.0
 40
1.0
 40
1.0
 40
1.0
 10
-25.4
 20
-2.510960445294661
 30
0.0
 10
-25.4
 20
-2.424392324469011
 30
0.0
 10
-25.4
 20
-2.302875310964854
 30
0.0
 10
-25.4
 20
-2.015120934257624
 30
0.0
 10
-25.4
 20
-1.84982622547588
 30
0.0
 10
-25.4
 20
-1.683091307420941
 30
0.0
  0
SPLINE
  5
233
330
1F
100
AcDbEntity
  8
외형선
  6
Continuous
370
    15
100
AcDbSpline
210
0.0
220
0.0
230
1.0
 70
     8
 71
     3
 72
     8
 73
     4
 74
     0
 42
0.000000001
 43
0.00000001
 40
0.0
 40
0.0
 40
0.0
 40
0.0
 40
1.0
 40
1.0
 40
1.0
 40
1.0
 10
-24.39999999999999
 20
-2.887453053924151
 30
0.0
 10
-24.73528001800918
 20
-2.773815696430663
 30
0.0
 10
-25.06642555717518
 20
-2.648023649108264
 30
0.0
 10
-25.39999999999855
 20
-2.510960445295257
 30
0.0
  0
SPLINE
  5
234
330
1F
100
AcDbEntity
  8
외형선
  6
Continuous
370
    15
100
AcDbSpline
210
0.0
220
0.0
230
1.0
 70
     8
 71
     3
 72
     8
 73
     4
 74
     0
 42
0.000000001
 43
0.00000001
 40
0.0
 40
0.0
 40
0.0
 40
0.0
 40
1.0
 40
1.0
 40
1.0
 40
1.0
 10
-25.39999999999999
 20
-3.114893730760112
 30
0.0
 10
-25.06642555717613
 20
-3.209209647977776
 30
0.0
 10
-24.73528001800967
 20
-3.289726083705283
 30
0.0
 10
-24.39999999999999
 20
-3.35584393414327
 30
0.0
  0
LINE
  5
235
330
1F
100
AcDbEntity
  8
외형선
  6
Continuous
370
    15
100
AcDbLine
 10
-25.39999999999999
 20
-3.114893730760112
 30
0.0
 11
-25.4
 21
-2.510960445297062
 31
0.0
  0
SPLINE
  5
236
330
1F
100
AcDbEntity
  8
외형선
  6
Continuous
370
    15
100
AcDbSpline
210
0.0
220
0.0
230
1.0
 70
    24
 71
     3
 72
    12
 73
     8
 74
     0
 42
0.000000001
 43
0.00000001
 40
0.0
 40
0.0
 40
0.0
 40
0.0
 40
0.1818438080354373
 40
0.3660737075424719
 40
0.6327422363901662
 40
0.9071441706398538
 40
1.0
 40
1.0
 40
1.0
 40
1.0
 10
-25.4
 20
2.113132117268641
 30
0.0
 10
-25.4
 20
2.195668287227313
 30
0.0
 10
-25.4
 20
2.36182363818234
 30
0.0
 10
-25.4
 20
2.585953097553539
 30
0.0
 10
-25.4
 20
2.764319722392873
 30
0.0
 10
-25.4
 20
2.853178744846019
 30
0.0
 10
-25.4
 20
2.842652809899597
 30
0.0
 10
-25.4
 20
2.839991479041306
 30
0.0
  0
SPLINE
  5
237
330
1F
100
AcDbEntity
  8
외형선
  6
Continuous
370
    15
100
AcDbSpline
210
0.0
220
0.0
230
1.0
 70
     8
 71
     3
 72
     8
 73
     4
 74
     0
 42
0.000000001
 43
0.00000001
 40
0.0
 40
0.0
 40
0.0
 40
0.0
 40
1.0
 40
1.0
 40
1.0
 40
1.0
 10
-25.4
 20
3.114893730760077
 30
0.0
 10
-25.06642555717614
 20
3.209209647977744
 30
0.0
 10
-24.73528001800968
 20
3.289726083705247
 30
0.0
 10
-24.4
 20
3.355843934143238
 30
0.0
  0
SPLINE
  5
238
330
1F
100
AcDbEntity
  8
외형선
  6
Continuous
370
    15
100
AcDbSpline
210
0.0
220
0.0
230
1.0
 70
    24
 71
     3
 72
    10
 73
     6
 74
     0
 42
0.000000001
 43
0.00000001
 40
0.0
 40
0.0
 40
0.0
 40
0.0
 40
0.0389874783892502
 40
0.7574286079035084
 40
1.0
 40
1.0
 40
1.0
 40
1.0
 10
-25.4
 20
2.894994997876822
 30
0.0
 10
-25.4
 20
2.898110041656466
 30
0.0
 10
-25.4
 20
2.958627504468968
 30
0.0
 10
-25.4
 20
3.030843999510196
 30
0.0
 10
-25.4
 20
3.097954271783887
 30
0.0
 10
-25.4
 20
3.114893730743404
 30
0.0
  0
SPLINE
  5
239
330
1F
100
AcDbEntity
  8
0
  6
Continuous
 62
     1
370
    15
100
AcDbSpline
210
0.0
220
0.0
230
1.0
 70
     8
 71
     3
 72
    38
 73
    34
 74
     0
 42
0.000000001
 43
0.00000001
 40
0.0
 40
0.0
 40
0.0
 40
0.0
 40
0.0625
 40
0.0625
 40
0.1250000000000001
 40
0.1250000000000001
 40
0.1875000000000001
 40
0.1875000000000001
 40
0.2500000000000001
 40
0.2500000000000001
 40
0.3125000000000001
 40
0.3125000000000001
 40
0.3750000000000002
 40
0.3750000000000002
 40
0.4375000000000002
 40
0.4375000000000002
 40
0.5000000000000002
 40
0.5000000000000002
 40
0.5625000000000002
 40
0.5625000000000002
 40
0.6250000000000002
 40
0.6250000000000002
 40
0.6875000000000003
 40
0.6875000000000003
 40
0.7500000000000003
 40
0.7500000000000003
 40
0.8125000000000003
 40
0.8125000000000003
 40
0.8750000000000002
 40
0.8750000000000002
 40
0.9375000000000002
 40
0.9375000000000002
 40
1.0
 40
1.0
 40
1.0
 40
1.0
 10
-39.68749999999999
 20
3.389498167287655
 30
0.0
 10
-39.39241733006568
 20
3.335446438556211
 30
0.0
 10
-39.09312720423805
 20
3.269377708105985
 30
0.0
 10
-38.49539318473487
 20
3.114968142242532
 30
0.0
 10
-38.19922623865546
 20
3.026890759090453
 30
0.0
 10
-37.60625732807611
 20
2.830396739312302
 30
0.0
 10
-37.30641410731116
 20
2.72158637793947
 30
0.0
 10
-36.70932788171218
 20
2.486091319140009
 30
0.0
 10
-36.41485992128653
 20
2.359855107725366
 30
0.0
 10
-35.8197181068467
 20
2.091057976594833
 30
0.0
 10
-35.51964918923789
 20
1.948520793038821
 30
0.0
 10
-34.92385621326409
 20
1.651591125811624
 30
0.0
 10
-34.62965695047476
 20
1.497512054396385
 30
0.0
 10
-34.03298068822784
 20
1.178612146368543
 30
0.0
 10
-33.73301429815679
 20
1.014199223599075
 30
0.0
 10
-33.13915536886461
 20
0.6805996619036243
 30
0.0
 10
-32.84379355106032
 20
0.5111594444860792
 30
0.0
 10
-32.24622681858294
 20
0.1686046900811959
 30
0.0
 10
-31.94669080497705
 20
-0.0040004145693757
 30
0.0
 10
-31.35539977545117
 20
-0.3464962730557666
 30
0.0
 10
-31.05744832188552
 20
-0.517581909193261
 30
0.0
 10
-30.45963830897021
 20
-0.8553292543061133
 30
0.0
 10
-30.16246552347717
 20
-1.021479324934692
 30
0.0
 10
-29.5704755108297
 20
-1.345151270918556
 30
0.0
 10
-29.27080159973154
 20
-1.503540673608541
 30
0.0
 10
-28.67339637478025
 20
-1.808412708776288
 30
0.0
 10
-28.37845814652301
 20
-1.954459741519386
 30
0.0
 10
-27.78405747087517
 20
-2.232773280668695
 30
0.0
 10
-27.48403481011015
 20
-2.365068851868649
 30
0.0
 10
-26.88768097987083
 20
-2.611767865391716
 30
0.0
 10
-26.59354870853855
 20
-2.725947277593118
 30
0.0
 10
-25.99737316526954
 20
-2.935640754653399
 30
0.0
 10
-25.69732980980778
 20
-3.030825738348152
 30
0.0
 10
-25.39999999999529
 20
-3.114893730761441
 30
0.0
1001
PE_URL
1000

  0
SPLINE
  5
23A
330
1F
100
AcDbEntity
  8
0
  6
Continuous
 62
     1
370
    15
100
AcDbSpline
210
0.0
220
0.0
230
1.0
 70
     8
 71
     3
 72
    15
 73
    11
 74
     0
 42
0.000000001
 43
0.00000001
 40
0.0
 40
0.0
 40
0.0
 40
0.0
 40
0.1420566044269564
 40
0.2839424393458888
 40
0.4257589976139556
 40
0.567608560958139
 40
0.7095930349940751
 40
0.8517002415499362
 40
0.993635143424512
 40
1.0
 40
1.0
 40
1.0
 40
1.0
 10
-39.6875
 20
2.818110306790185
 30
0.0
 10
-39.24797307397635
 20
2.725589741651483
 30
0.0
 10
-38.36944758734523
 20
2.540659832471153
 30
0.0
 10
-37.05247324930669
 20
2.114239273058086
 30
0.0
 10
-35.73620821286379
 20
1.601450104894028
 30
0.0
 10
-34.4196013710699
 20
1.014249133537817
 30
0.0
 10
-33.1018996589371
 20
0.380310309787582
 30
0.0
 10
-31.78363748299118
 20
-0.2647882319746451
 30
0.0
 10
-30.88527741880406
 20
-0.7113968623651701
 30
0.0
 10
-30.42656311262588
 20
-0.9175050326490641
 30
0.0
 10
-30.40687561752499
 20
-0.9263509603606366
 30
0.0
1001
PE_URL
1000

  0
LINE
  5
23B
330
1F
100
AcDbEntity
  8
0
  6
Continuous
 62
     1
370
    15
100
AcDbLine
 10
-39.68749999999992
 20
3.389498167287655
 30
0.0
 11
-39.68749999999999
 21
2.818110306790185
 31
0.0
1001
PE_URL
1000

  0
SPLINE
  5
23C
330
1F
100
AcDbEntity
  8
0
  6
Continuous
 62
     1
370
    15
100
AcDbSpline
210
0.0
220
0.0
230
1.0
 70
     8
 71
     3
 72
    38
 73
    34
 74
     0
 42
0.000000001
 43
0.00000001
 40
0.0
 40
0.0
 40
0.0
 40
0.0
 40
0.0625
 40
0.0625
 40
0.125
 40
0.125
 40
0.1875
 40
0.1875
 40
0.25
 40
0.25
 40
0.3125
 40
0.3125
 40
0.375
 40
0.375
 40
0.4375
 40
0.4375
 40
0.5
 40
0.5
 40
0.5625
 40
0.5625
 40
0.625
 40
0.625
 40
0.6875
 40
0.6875
 40
0.75
 40
0.75
 40
0.8125
 40
0.8125
 40
0.875
 40
0.875
 40
0.9375
 40
0.9375
 40
1.0
 40
1.0
 40
1.0
 40
1.0
 10
-25.39999999999914
 20
-2.510960445295186
 30
0.0
 10
-25.69732980981157
 20
-2.388789885773061
 30
0.0
 10
-25.99737316527325
 20
-2.257493284180367
 30
0.0
 10
-26.59354870854206
 20
-1.980694116756744
 30
0.0
 10
-26.88768097987426
 20
-1.835572903850281
 30
0.0
 10
-27.48403481011345
 20
-1.532303564479527
 30
0.0
 10
-27.78405747087839
 20
-1.374475926450263
 30
0.0
 10
-28.37845814652603
 20
-1.051380008796141
 30
0.0
 10
-28.67339637478321
 20
-0.8860442903643708
 30
0.0
 10
-29.27080159973435
 20
-0.5489727863630947
 30
0.0
 10
-29.57047551083243
 20
-0.3777493845043196
 30
0.0
 10
-30.1624655234797
 20
-0.0352796343968578
 30
0.0
 10
-30.4596383089727
 20
0.1368987097070651
 30
0.0
 10
-31.05744832188786
 20
0.4797768813212677
 30
0.0
 10
-31.35539977545338
 20
0.6499523347126868
 30
0.0
 10
-31.94669080497914
 20
0.9837736000004043
 30
0.0
 10
-32.24622681858496
 20
1.14857561672315
 30
0.0
 10
-32.84379355106218
 20
1.46876357072005
 30
0.0
 10
-33.13915536886635
 20
1.623698055785923
 30
0.0
 10
-33.7330142981584
 20
1.921822103141086
 30
0.0
 10
-34.03298068822938
 20
2.065212906518422
 30
0.0
 10
-34.62965695047613
 20
2.336124774084663
 30
0.0
 10
-34.92385621326537
 20
2.463333734913213
 30
0.0
 10
-35.51964918923902
 20
2.700867154036672
 30
0.0
 10
-35.81971810684774
 20
2.81090392712478
 30
0.0
 10
-36.41485992128741
 20
3.010112950639737
 30
0.0
 10
-36.70932788171297
 20
3.099306280939224
 30
0.0
 10
-37.3064141073118
 20
3.256379136921311
 30
0.0
 10
-37.60625732807667
 20
3.323915367132393
 30
0.0
 10
-38.19922623865585
 20
3.435043497858207
 30
0.0
 10
-38.49539318473519
 20
3.478892306712826
 30
0.0
 10
-39.09312720423821
 20
3.542352901393812
 30
0.0
 10
-39.39241733006576
 20
3.561812863925326
 30
0.0
 10
-39.68749999999999
 20
3.568856105648699
 30
0.0
1001
PE_URL
1000

  0
SPLINE
  5
23D
330
1F
100
AcDbEntity
  8
0
  6
Continuous
 62
     1
370
    15
100
AcDbSpline
210
0.0
220
0.0
230
1.0
 70
     8
 71
     3
 72
    12
 73
     8
 74
     0
 42
0.000000001
 43
0.00000001
 40
0.0
 40
0.0
 40
0.0
 40
0.0
 40
0.0631059732861872
 40
0.3065169523494744
 40
0.5499220487904452
 40
0.7748126694413948
 40
1.0
 40
1.0
 40
1.0
 40
1.0
 10
-30.80722950681217
 20
0.3359970027690906
 30
0.0
 10
-30.69348380974058
 20
0.2910290675329996
 30
0.0
 10
-30.14100069928863
 20
0.0726117966431872
 30
0.0
 10
-29.1499186848622
 20
-0.3339344561080111
 30
0.0
 10
-27.86721751740584
 20
-0.8385688345251197
 30
0.0
 10
-26.61730913416597
 20
-1.301001041924117
 30
0.0
 10
-25.80594800560405
 20
-1.555671922413669
 30
0.0
 10
-25.4
 20
-1.683091307420938
 30
0.0
1001
PE_URL
1000

  0
SPLINE
  5
23E
330
1F
100
AcDbEntity
  8
외형선
  6
Continuous
370
    15
100
AcDbSpline
210
0.0
220
0.0
230
1.0
 70
    24
 71
     3
 72
    10
 73
     6
 74
     0
 42
0.000000001
 43
0.00000001
 40
0.0
 40
0.0
 40
0.0
 40
0.0
 40
0.5
 40
0.5
 40
1.0
 40
1.0
 40
1.0
 40
1.0
 10
-25.4
 20
-2.510960445294661
 30
0.0
 10
-25.4
 20
-2.424392324469011
 30
0.0
 10
-25.4
 20
-2.302875310964854
 30
0.0
 10
-25.4
 20
-2.015120934257624
 30
0.0
 10
-25.4
 20
-1.84982622547588
 30
0.0
 10
-25.4
 20
-1.683091307420941
 30
0.0
  0
LINE
  5
23F
330
1F
100
AcDbEntity
  8
0
  6
Continuous
 62
     1
370
    15
100
AcDbLine
 10
-39.68749999999999
 20
3.568856105648347
 30
0.0
 11
-39.68749999999998
 21
3.389498167287652
 31
0.0
1001
PE_URL
1000

  0
SPLINE
  5
240
330
1F
100
AcDbEntity
  8
0
  6
Continuous
 62
     1
370
    15
100
AcDbSpline
210
0.0
220
0.0
230
1.0
 70
     8
 71
     3
 72
     8
 73
     4
 74
     0
 42
0.000000001
 43
0.00000001
 40
0.0
 40
0.0
 40
0.0
 40
0.0
 40
1.0
 40
1.0
 40
1.0
 40
1.0
 10
-37.47679032464882
 20
-0.9997419336126363
 30
0.0
 10
-37.35001879666183
 20
-1.149960286334981
 30
0.0
 10
-37.23695297331555
 20
-1.29445599135088
 30
0.0
 10
-37.1407752273639
 20
-1.431900288219435
 30
0.0
1001
PE_URL
1000

  0
LINE
  5
241
330
1F
100
AcDbEntity
  8
0
  6
Continuous
 62
     1
370
    15
100
AcDbLine
 10
-37.18592475711124
 20
-1.469785241978251
 30
0.0
 11
-39.68749999999999
 21
-0.0000000000000391
 31
0.0
1001
PE_URL
1000

  0
LINE
  5
242
330
1F
100
AcDbEntity
  8
0
  6
Continuous
 62
     1
370
    15
100
AcDbLine
 10
-39.68749999999999
 20
-0.0000000000000391
 30
0.0
 11
-39.68749999999999
 21
0.9545583978495991
 31
0.0
1001
PE_URL
1000

  0
SPLINE
  5
243
330
1F
100
AcDbEntity
  8
0
  6
Continuous
 62
     1
370
    15
100
AcDbSpline
210
0.0
220
0.0
230
1.0
 70
     8
 71
     3
 72
    10
 73
     6
 74
     0
 42
0.000000001
 43
0.00000001
 40
0.0
 40
0.0
 40
0.0
 40
0.0
 40
0.5
 40
0.5
 40
1.0
 40
1.0
 40
1.0
 40
1.0
 10
-39.6875
 20
0.9545583978495991
 30
0.0
 10
-39.30481053394663
 20
0.6536983022612759
 30
0.0
 10
-38.92851719109928
 20
0.3404982155421479
 30
0.0
 10
-38.18904180226994
 20
-0.3111974817345953
 30
0.0
 10
-37.82241716278958
 20
-0.6531273299819667
 30
0.0
 10
-37.47679032464882
 20
-0.9997419336126363
 30
0.0
1001
PE_URL
1000

  0
SPLINE
  5
244
330
1F
100
AcDbEntity
  8
0
  6
Continuous
 62
     1
370
    15
100
AcDbSpline
210
0.0
220
0.0
230
1.0
 70
     8
 71
     3
 72
    14
 73
    10
 74
     0
 42
0.000000001
 43
0.00000001
 40
0.0
 40
0.0
 40
0.0
 40
0.0
 40
0.1059967883694333
 40
0.211645108446368
 40
0.3716995383888097
 40
0.5319083420224999
 40
0.6922575363298594
 40
0.8524095740368308
 40
1.0
 40
1.0
 40
1.0
 40
1.0
 10
-37.476790324644
 20
-0.9997419336147111
 30
0.0
 10
-37.18613361120731
 20
-1.123334845835366
 30
0.0
 10
-36.60577572883857
 20
-1.370114354087775
 30
0.0
 10
-35.58732942868509
 20
-1.767142790079532
 30
0.0
 10
-34.41957418971797
 20
-2.166162255648043
 30
0.0
 10
-33.10193712877689
 20
-2.518582331885188
 30
0.0
 10
-31.78368355455558
 20
-2.754258298864684
 30
0.0
 10
-30.50040611834881
 20
-2.873640056296384
 30
0.0
 10
-29.6567928450891
 20
-2.846640341364754
 30
0.0
 10
-29.25220375828032
 20
-2.833691528971045
 30
0.0
1001
PE_URL
1000

  0
SPLINE
  5
245
330
1F
100
AcDbEntity
  8
0
  6
Continuous
 62
     1
370
    15
100
AcDbSpline
210
0.0
220
0.0
230
1.0
 70
    24
 71
     3
 72
    10
 73
     6
 74
     0
 42
0.000000001
 43
0.00000001
 40
0.0
 40
0.0
 40
0.0
 40
0.0
 40
0.5000000000000001
 40
0.5000000000000001
 40
1.0
 40
1.0
 40
1.0
 40
1.0
 10
-39.68749999999999
 20
2.818110306790185
 30
0.0
 10
-39.6875
 20
2.602080180097929
 30
0.0
 10
-39.6875
 20
2.32911783157838
 30
0.0
 10
-39.6875
 20
1.694506640966296
 30
0.0
 10
-39.68749999999999
 20
1.33340752314886
 30
0.0
 10
-39.68749999999999
 20
0.9545583978497127
 30
0.0
1001
PE_URL
1000

  0
SPLINE
  5
246
330
1F
100
AcDbEntity
  8
0
  6
Continuous
 62
     1
370
    15
100
AcDbSpline
210
0.0
220
0.0
230
1.0
 70
    24
 71
     3
 72
     8
 73
     4
 74
     0
 42
0.000000001
 43
0.00000001
 40
0.0
 40
0.0
 40
0.0
 40
0.0
 40
1.0
 40
1.0
 40
1.0
 40
1.0
 10
-37.51360572121653
 20
-1.744742218100747
 30
0.0
 10
-37.39570647324774
 20
-1.645813002614062
 30
0.0
 10
-37.27103532682654
 20
-1.541201489635629
 30
0.0
 10
-37.14077522736397
 20
-1.431900288219474
 30
0.0
1001
PE_URL
1000

  0
SPLINE
  5
247
330
1F
100
AcDbEntity
  8
0
  6
Continuous
 62
     1
370
    15
100
AcDbSpline
210
0.0
220
0.0
230
1.0
 70
     8
 71
     3
 72
     9
 73
     5
 74
     0
 42
0.000000001
 43
0.00000001
 40
0.0
 40
0.0
 40
0.0
 40
0.0
 40
0.9926634123726832
 40
1.0
 40
1.0
 40
1.0
 40
1.0
 10
-39.68749999999999
 20
-2.500312500000039
 30
0.0
 10
-39.24796629753614
 20
-2.499769811763223
 30
0.0
 10
-38.80518408456702
 20
-2.499223112620243
 30
0.0
 10
-38.36248758932322
 20
-2.442996960155813
 30
0.0
 10
-38.35923970769356
 20
-2.442584452061311
 30
0.0
1001
PE_URL
1000

  0
SPLINE
  5
248
330
1F
100
AcDbEntity
  8
0
  6
Continuous
 62
     1
370
    15
100
AcDbSpline
210
0.0
220
0.0
230
1.0
 70
     8
 71
     3
 72
    10
 73
     6
 74
     0
 42
0.000000001
 43
0.00000001
 40
0.0
 40
0.0
 40
0.0
 40
0.0
 40
0.5
 40
0.5
 40
1.0
 40
1.0
 40
1.0
 40
1.0
 10
-39.68749999999999
 20
-2.500312500000039
 30
0.0
 10
-39.32012833713399
 20
-2.400608765534557
 30
0.0
 10
-38.95497903794972
 20
-2.288820943853054
 30
0.0
 10
-38.22960432108745
 20
-2.038471728705499
 30
0.0
 10
-37.86931107134408
 20
-1.90040649875375
 30
0.0
 10
-37.51360572122249
 20
-1.744742218104832
 30
0.0
1001
PE_URL
1000

  0
SPLINE
  5
249
330
1F
100
AcDbEntity
  8
0
  6
Continuous
 62
     1
370
    15
100
AcDbSpline
210
0.0
220
0.0
230
1.0
 70
     8
 71
     3
 72
    13
 73
     9
 74
     0
 42
0.000000001
 43
0.00000001
 40
0.0
 40
0.0
 40
0.0
 40
0.0
 40
0.0508875965793606
 40
0.2467403742246118
 40
0.4424456245562775
 40
0.6381462636127805
 40
0.818956951083742
 40
0.9999999999999999
 40
0.9999999999999999
 40
0.9999999999999999
 40
0.9999999999999999
 10
-32.12551039174384
 20
2.674120716263346
 30
0.0
 10
-32.01140737797727
 20
2.695537558969427
 30
0.0
 10
-31.45815231762061
 20
2.79938211322672
 30
0.0
 10
-30.46630429776235
 20
2.863877904305017
 30
0.0
 10
-29.14989795258414
 20
2.855822247322106
 30
0.0
 10
-27.86721989841809
 20
2.711371444485064
 30
0.0
 10
-26.61732625896631
 20
2.467559977363791
 30
0.0
 10
-25.80594909274676
 20
2.231325302694529
 30
0.0
 10
-25.4
 20
2.113132117268641
 30
0.0
1001
PE_URL
1000

  0
SPLINE
  5
24A
330
1F
100
AcDbEntity
  8
외형선
  6
Continuous
370
    15
100
AcDbSpline
210
0.0
220
0.0
230
1.0
 70
    24
 71
     3
 72
    14
 73
    10
 74
     0
 42
0.000000001
 43
0.00000001
 40
0.0
 40
0.0
 40
0.0
 40
0.0
 40
0.25
 40
0.25
 40
0.5
 40
0.5
 40
0.75
 40
0.75
 40
1.0
 40
1.0
 40
1.0
 40
1.0
 10
-25.4
 20
-1.683091307420941
 30
0.0
 10
-25.4
 20
-1.409121491625481
 30
0.0
 10
-25.4
 20
-1.106950696977894
 30
0.0
 10
-25.4
 20
-0.4682335828261373
 30
0.0
 10
-25.4
 20
-0.1319309233442247
 30
0.0
 10
-25.4
 20
0.5427674285585802
 30
0.0
 10
-25.4
 20
0.8808036134896433
 30
0.0
 10
-25.4
 20
1.526126019715949
 30
0.0
 10
-25.4
 20
1.833159303499809
 30
0.0
 10
-25.4
 20
2.113132117268641
 30
0.0
  0
LINE
  5
24B
330
1F
100
AcDbEntity
  8
0
  6
Continuous
 62
     1
370
    15
100
AcDbLine
 10
-39.68749999999999
 20
-0.0000000000000391
 30
0.0
 11
-39.68749999999999
 21
-2.500312500000039
 31
0.0
1001
PE_URL
1000

  0
SPLINE
  5
24C
330
1F
100
AcDbEntity
  8
외형선
  6
Continuous
370
    15
100
AcDbSpline
210
0.0
220
0.0
230
1.0
 70
    24
 71
     3
 72
    12
 73
     8
 74
     0
 42
0.000000001
 43
0.00000001
 40
0.0
 40
0.0
 40
0.0
 40
0.0
 40
0.1820624866085963
 40
0.3665139341132929
 40
0.6335031485758836
 40
0.9082350683450242
 40
1.0
 40
1.0
 40
1.0
 40
1.0
 10
-25.4
 20
2.113132117268641
 30
0.0
 10
-25.4
 20
2.195667887885602
 30
0.0
 10
-25.4
 20
2.36182243491718
 30
0.0
 10
-25.4
 20
2.585958896718697
 30
0.0
 10
-25.4
 20
2.764286460995017
 30
0.0
 10
-25.4
 20
2.853101167216902
 30
0.0
 10
-25.4
 20
2.842658226882065
 30
0.0
 10
-25.4
 20
2.840043482164941
 30
0.0
  0
SPLINE
  5
24D
330
1F
100
AcDbEntity
  8
0
  6
Continuous
 62
     1
370
    15
100
AcDbSpline
210
0.0
220
0.0
230
1.0
 70
    24
 71
     3
 72
    10
 73
     6
 74
     0
 42
0.000000001
 43
0.00000001
 40
0.0
 40
0.0
 40
0.0
 40
0.0
 40
0.5
 40
0.5
 40
1.0
 40
1.0
 40
1.0
 40
1.0
 10
-39.68749999999999
 20
-2.500312500000039
 30
0.0
 10
-39.68749999999999
 20
-2.651875217283663
 30
0.0
 10
-39.68749999999999
 20
-2.828005130984771
 30
0.0
 10
-39.68749999999999
 20
-3.197525215557093
 30
0.0
 10
-39.68749999999999
 20
-3.389971678503422
 30
0.0
 10
-39.68749999999999
 20
-3.568856105648422
 30
0.0
1001
PE_URL
1000

  0
SPLINE
  5
24E
330
1F
100
AcDbEntity
  8
0
  6
Continuous
 62
     1
370
    15
100
AcDbSpline
210
0.0
220
0.0
230
1.0
 70
     8
 71
     3
 72
    16
 73
    12
 74
     0
 42
0.000000001
 43
0.00000001
 40
0.0
 40
0.0
 40
0.0
 40
0.0
 40
0.0188723502385397
 40
0.1237684483981132
 40
0.2290268417805584
 40
0.3240725153255642
 40
0.5145718856135768
 40
0.6100599086414034
 40
0.7073173407550524
 40
0.902268706885218
 40
1.0
 40
1.0
 40
1.0
 40
1.0
 10
-34.77646120651588
 20
-2.395088729565529
 30
0.0
 10
-34.80736375373844
 20
-2.409180871661594
 30
0.0
 10
-35.01002851318509
 20
-2.501599809408628
 30
0.0
 10
-35.38455467396874
 20
-2.647501856862007
 30
0.0
 10
-35.88481110659282
 20
-2.833974355332973
 30
0.0
 10
-36.52418097984849
 20
-3.046983228986655
 30
0.0
 10
-37.14789584900937
 20
-3.221165648022271
 30
0.0
 10
-37.77580004098323
 20
-3.358174414961624
 30
0.0
 10
-38.40934015579343
 20
-3.470910797375186
 30
0.0
 10
-39.04889764364045
 20
-3.544949995157356
 30
0.0
 10
-39.52764035949275
 20
-3.562871752175607
 30
0.0
 10
-39.68749999999974
 20
-3.568856105648415
 30
0.0
1001
PE_URL
1000

  0
LINE
  5
24F
330
1F
100
AcDbEntity
  8
0
  6
Continuous
 62
     1
370
    15
100
AcDbLine
 10
-26.32685038664376
 20
2.807835731827787
 30
0.0
 11
-25.39999999999531
 21
3.114893730761406
 31
0.0
1001
PE_URL
1000

  0
SPLINE
  5
250
330
1F
100
AcDbEntity
  8
외형선
  6
Continuous
370
    15
100
AcDbSpline
210
0.0
220
0.0
230
1.0
 70
    24
 71
     3
 72
    11
 73
     7
 74
     0
 42
0.000000001
 43
0.00000001
 40
0.0
 40
0.0
 40
0.0
 40
0.0
 40
0.0396492437757217
 40
0.3984250896605045
 40
0.7576222244078572
 40
1.0
 40
1.0
 40
1.0
 40
1.0
 10
-25.4
 20
2.894994997876822
 30
0.0
 10
-25.4
 20
2.89810999773032
 30
0.0
 10
-25.4
 20
2.929411832966881
 30
0.0
 10
-25.4
 20
2.985998734408689
 30
0.0
 10
-25.4
 20
3.056125594725398
 30
0.0
 10
-25.4
 20
3.098015900598195
 30
0.0
 10
-25.4
 20
3.114893730743397
 30
0.0
  0
LINE
  5
251
330
1F
100
AcDbEntity
  8
외형선
  6
Continuous
370
    15
100
AcDbLine
 10
-23.8798767406867
 20
-3.711241607297659
 30
0.0
 11
-19.95652700723831
 21
-4.76250000000001
 31
0.0
  0
LINE
  5
252
330
1F
100
AcDbEntity
  8
외형선
  6
Continuous
370
    15
100
AcDbLine
 10
-19.95652700723831
 20
-4.76250000000001
 30
0.0
 11
-19.95652700723832
 21
4.762499999999992
 31
0.0
  0
LINE
  5
254
330
1F
100
AcDbEntity
  8
외형선
  6
Continuous
370
    15
100
AcDbLine
 10
-4.838700000000031
 20
4.762499999999995
 30
0.0
 11
-19.95652700723832
 21
4.762499999999994
 31
0.0
  0
ENDSEC
  0
SECTION
  2
OBJECTS
  0
DICTIONARY
  5
C
330
0
100
AcDbDictionary
281
     1
  3
ACAD_DETAILVIEWSTYLE
350
1E6
  3
ACAD_GROUP
350
D
  3
ACAD_IMAGE_VARS
350
278
  3
ACAD_LAYOUT
350
1A
  3
ACAD_MLINESTYLE
350
17
  3
ACAD_PLOTSETTINGS
350
19
  3
ACAD_PLOTSTYLENAME
350
E
  3
ACAD_SCALELIST
350
47
  3
ACAD_SECTIONVIEWSTYLE
350
1E7
  3
AcDbVariableDictionary
350
1E1
  3
APPDATA
350
158
  3
DWGPROPS
350
279
  0
DICTIONARY
  5
191
330
2
100
AcDbDictionary
280
     1
281
     1
  3
ACAD_LAYERSTATES
360
192
  0
DICTIONARY
  5
1E6
102
{ACAD_REACTORS
330
C
102
}
330
C
100
AcDbDictionary
281
     1
  0
DICTIONARY
  5
D
102
{ACAD_REACTORS
330
C
102
}
330
C
100
AcDbDictionary
281
     1
  0
RASTERVARIABLES
  5
278
102
{ACAD_REACTORS
330
C
102
}
330
C
100
AcDbRasterVariables
 90
        0
 70
     1
 71
     1
 72
     1
  0
DICTIONARY
  5
1A
102
{ACAD_REACTORS
330
C
102
}
330
C
100
AcDbDictionary
281
     1
  3
Layout1
350
1E
  3
Layout2
350
26
  3
Model
350
22
  0
DICTIONARY
  5
17
102
{ACAD_REACTORS
330
C
102
}
330
C
100
AcDbDictionary
281
     1
  3
Standard
350
18
  0
DICTIONARY
  5
19
102
{ACAD_REACTORS
330
C
102
}
330
C
100
AcDbDictionary
281
     1
  0
ACDBDICTIONARYWDFLT
  5
E
102
{ACAD_REACTORS
330
C
102
}
330
C
100
AcDbDictionary
281
     1
  3
Normal
350
F
100
AcDbDictionaryWithDefault
340
F
  0
DICTIONARY
  5
47
102
{ACAD_REACTORS
330
C
102
}
330
C
100
AcDbDictionary
281
     1
  3
A0
350
48
  3
A1
350
49
  3
A2
350
4A
  3
A3
350
4B
  3
A4
350
4C
  3
A5
350
4D
  3
A6
350
4E
  3
A7
350
4F
  3
A8
350
50
  3
A9
350
51
  3
B0
350
52
  3
B1
350
53
  3
B2
350
54
  3
B3
350
55
  3
B4
350
56
  3
B5
350
57
  3
B6
350
58
  3
B7
350
59
  3
B8
350
5A
  3
B9
350
5B
  3
C0
350
5C
  3
C1
350
5D
  3
C2
350
5E
  3
C3
350
5F
  3
C4
350
60
  3
C5
350
61
  3
C6
350
62
  3
C7
350
63
  3
C8
350
64
  3
C9
350
65
  3
D0
350
66
  3
D1
350
67
  3
D2
350
68
  0
DICTIONARY
  5
1E7
102
{ACAD_REACTORS
330
C
102
}
330
C
100
AcDbDictionary
281
     1
  0
DICTIONARY
  5
1E1
102
{ACAD_REACTORS
330
C
102
}
330
C
100
AcDbDictionary
281
     1
  0
DICTIONARY
  5
158
102
{ACAD_REACTORS
330
C
102
}
330
C
100
AcDbDictionary
281
     1
  0
XRECORD
  5
279
102
{ACAD_REACTORS
330
C
102
}
330
C
100
AcDbXrecord
280
     1
  1
DWGPROPS COOKIE
  2

  3

  4

  6

  7

  8
12016016
  9

300
=
301
=
302
=
303
=
304
=
305
=
306
=
307
=
308
=
309
=
 40
0.0
 41
2458313.020887859
 42
2458330.401657292
  1

 90
        0
  0
DICTIONARY
  5
192
102
{ACAD_REACTORS
330
191
102
}
330
191
100
AcDbDictionary
281
     1
  0
LAYOUT
  5
1E
102
{ACAD_REACTORS
330
1A
102
}
330
1A
100
AcDbPlotSettings
  1

  2
none_device
  4

  6

 40
0.0
 41
0.0
 42
0.0
 43
0.0
 44
0.0
 45
0.0
 46
0.0
 47
0.0
 48
0.0
 49
0.0
140
0.0
141
0.0
142
1.0
143
1.0
 70
   688
 72
     1
 73
     0
 74
     5
  7

 75
    16
147
1.0
148
0.0
149
0.0
100
AcDbLayout
  1
Layout1
 70
     1
 71
     1
 10
0.0
 20
0.0
 11
420.0
 21
297.0
 12
0.0
 22
0.0
 32
0.0
 14
1.000000000000000E+20
 24
1.000000000000000E+20
 34
1.000000000000000E+20
 15
-1.000000000000000E+20
 25
-1.000000000000000E+20
 35
-1.000000000000000E+20
146
0.0
 13
0.0
 23
0.0
 33
0.0
 16
1.0
 26
0.0
 36
0.0
 17
0.0
 27
1.0
 37
0.0
 76
     0
330
1B
  0
LAYOUT
  5
26
102
{ACAD_REACTORS
330
1A
102
}
330
1A
100
AcDbPlotSettings
  1

  2
none_device
  4

  6

 40
0.0
 41
0.0
 42
0.0
 43
0.0
 44
0.0
 45
0.0
 46
0.0
 47
0.0
 48
0.0
 49
0.0
140
0.0
141
0.0
142
1.0
143
1.0
 70
   688
 72
     1
 73
     0
 74
     5
  7

 75
    16
147
1.0
148
0.0
149
0.0
100
AcDbLayout
  1
Layout2
 70
     1
 71
     2
 10
0.0
 20
0.0
 11
0.0
 21
0.0
 12
0.0
 22
0.0
 32
0.0
 14
0.0
 24
0.0
 34
0.0
 15
0.0
 25
0.0
 35
0.0
146
0.0
 13
0.0
 23
0.0
 33
0.0
 16
1.0
 26
0.0
 36
0.0
 17
0.0
 27
1.0
 37
0.0
 76
     0
330
23
  0
LAYOUT
  5
22
102
{ACAD_REACTORS
330
1A
102
}
330
1A
100
AcDbPlotSettings
  1

  2
none_device
  4
ANSI_A_(11.00_x_8.50_Inches)
  6

 40
6.35
 41
19.05
 42
6.35000508
 43
19.05000254
 44
279.4
 45
215.9
 46
82.27280351928638
 47
62.48638594772547
 48
0.0
 49
0.0
140
0.0
141
0.0
142
0.043973426372403
143
1.0
 70
  1696
 72
     0
 73
     0
 74
     0
  7

 75
     0
147
0.0235690232323232
148
0.0
149
0.0
100
AcDbLayout
  1
Model
 70
     1
 71
     0
 10
0.0
 20
0.0
 11
420.0
 21
297.0
 12
0.0
 22
0.0
 32
0.0
 14
-54.0625000000001
 24
-49.97180738881175
 34
0.0
 15
96.20662503295507
 25
38.17285610564845
 35
0.0
146
0.0
 13
0.0
 23
0.0
 33
0.0
 16
1.0
 26
0.0
 36
0.0
 17
0.0
 27
1.0
 37
0.0
 76
     0
330
1F
331
29
  0
MLINESTYLE
  5
18
102
{ACAD_REACTORS
330
17
102
}
330
17
100
AcDbMlineStyle
  2
Standard
 70
     0
  3

 62
   256
 51
90.0
 52
90.0
 71
     2
 49
0.5
 62
   256
  6
BYLAYER
 49
-0.5
 62
   256
  6
BYLAYER
  0
ACDBPLACEHOLDER
  5
F
102
{ACAD_REACTORS
330
E
102
}
330
E
  0
SCALE
  5
48
102
{ACAD_REACTORS
330
47
102
}
330
47
100
AcDbScale
 70
     0
300
1:1
140
1.0
141
1.0
290
     1
  0
SCALE
  5
49
102
{ACAD_REACTORS
330
47
102
}
330
47
100
AcDbScale
 70
     0
300
1:2
140
1.0
141
2.0
290
     0
  0
SCALE
  5
4A
102
{ACAD_REACTORS
330
47
102
}
330
47
100
AcDbScale
 70
     0
300
1:4
140
1.0
141
4.0
290
     0
  0
SCALE
  5
4B
102
{ACAD_REACTORS
330
47
102
}
330
47
100
AcDbScale
 70
     0
300
1:5
140
1.0
141
5.0
290
     0
  0
SCALE
  5
4C
102
{ACAD_REACTORS
330
47
102
}
330
47
100
AcDbScale
 70
     0
300
1:8
140
1.0
141
8.0
290
     0
  0
SCALE
  5
4D
102
{ACAD_REACTORS
330
47
102
}
330
47
100
AcDbScale
 70
     0
300
1:10
140
1.0
141
10.0
290
     0
  0
SCALE
  5
4E
102
{ACAD_REACTORS
330
47
102
}
330
47
100
AcDbScale
 70
     0
300
1:16
140
1.0
141
16.0
290
     0
  0
SCALE
  5
4F
102
{ACAD_REACTORS
330
47
102
}
330
47
100
AcDbScale
 70
     0
300
1:20
140
1.0
141
20.0
290
     0
  0
SCALE
  5
50
102
{ACAD_REACTORS
330
47
102
}
330
47
100
AcDbScale
 70
     0
300
1:30
140
1.0
141
30.0
290
     0
  0
SCALE
  5
51
102
{ACAD_REACTORS
330
47
102
}
330
47
100
AcDbScale
 70
     0
300
1:40
140
1.0
141
40.0
290
     0
  0
SCALE
  5
52
102
{ACAD_REACTORS
330
47
102
}
330
47
100
AcDbScale
 70
     0
300
1:50
140
1.0
141
50.0
290
     0
  0
SCALE
  5
53
102
{ACAD_REACTORS
330
47
102
}
330
47
100
AcDbScale
 70
     0
300
1:100
140
1.0
141
100.0
290
     0
  0
SCALE
  5
54
102
{ACAD_REACTORS
330
47
102
}
330
47
100
AcDbScale
 70
     0
300
2:1
140
2.0
141
1.0
290
     0
  0
SCALE
  5
55
102
{ACAD_REACTORS
330
47
102
}
330
47
100
AcDbScale
 70
     0
300
4:1
140
4.0
141
1.0
290
     0
  0
SCALE
  5
56
102
{ACAD_REACTORS
330
47
102
}
330
47
100
AcDbScale
 70
     0
300
8:1
140
8.0
141
1.0
290
     0
  0
SCALE
  5
57
102
{ACAD_REACTORS
330
47
102
}
330
47
100
AcDbScale
 70
     0
300
10:1
140
10.0
141
1.0
290
     0
  0
SCALE
  5
58
102
{ACAD_REACTORS
330
47
102
}
330
47
100
AcDbScale
 70
     0
300
100:1
140
100.0
141
1.0
290
     0
  0
SCALE
  5
59
102
{ACAD_REACTORS
330
47
102
}
330
47
100
AcDbScale
 70
     0
300
1/128" = 1'-0"
140
0.0078125
141
12.0
290
     0
  0
SCALE
  5
5A
102
{ACAD_REACTORS
330
47
102
}
330
47
100
AcDbScale
 70
     0
300
1/64" = 1'-0"
140
0.015625
141
12.0
290
     0
  0
SCALE
  5
5B
102
{ACAD_REACTORS
330
47
102
}
330
47
100
AcDbScale
 70
     0
300
1/32" = 1'-0"
140
0.03125
141
12.0
290
     0
  0
SCALE
  5
5C
102
{ACAD_REACTORS
330
47
102
}
330
47
100
AcDbScale
 70
     0
300
1/16" = 1'-0"
140
0.0625
141
12.0
290
     0
  0
SCALE
  5
5D
102
{ACAD_REACTORS
330
47
102
}
330
47
100
AcDbScale
 70
     0
300
3/32" = 1'-0"
140
0.09375
141
12.0
290
     0
  0
SCALE
  5
5E
102
{ACAD_REACTORS
330
47
102
}
330
47
100
AcDbScale
 70
     0
300
1/8" = 1'-0"
140
0.125
141
12.0
290
     0
  0
SCALE
  5
5F
102
{ACAD_REACTORS
330
47
102
}
330
47
100
AcDbScale
 70
     0
300
3/16" = 1'-0"
140
0.1875
141
12.0
290
     0
  0
SCALE
  5
60
102
{ACAD_REACTORS
330
47
102
}
330
47
100
AcDbScale
 70
     0
300
1/4" = 1'-0"
140
0.25
141
12.0
290
     0
  0
SCALE
  5
61
102
{ACAD_REACTORS
330
47
102
}
330
47
100
AcDbScale
 70
     0
300
3/8" = 1'-0"
140
0.375
141
12.0
290
     0
  0
SCALE
  5
62
102
{ACAD_REACTORS
330
47
102
}
330
47
100
AcDbScale
 70
     0
300
1/2" = 1'-0"
140
0.5
141
12.0
290
     0
  0
SCALE
  5
63
102
{ACAD_REACTORS
330
47
102
}
330
47
100
AcDbScale
 70
     0
300
3/4" = 1'-0"
140
0.75
141
12.0
290
     0
  0
SCALE
  5
64
102
{ACAD_REACTORS
330
47
102
}
330
47
100
AcDbScale
 70
     0
300
1" = 1'-0"
140
1.0
141
12.0
290
     0
  0
SCALE
  5
65
102
{ACAD_REACTORS
330
47
102
}
330
47
100
AcDbScale
 70
     0
300
1-1/2" = 1'-0"
140
1.5
141
12.0
290
     0
  0
SCALE
  5
66
102
{ACAD_REACTORS
330
47
102
}
330
47
100
AcDbScale
 70
     0
300
3" = 1'-0"
140
3.0
141
12.0
290
     0
  0
SCALE
  5
67
102
{ACAD_REACTORS
330
47
102
}
330
47
100
AcDbScale
 70
     0
300
6" = 1'-0"
140
6.0
141
12.0
290
     0
  0
SCALE
  5
68
102
{ACAD_REACTORS
330
47
102
}
330
47
100
AcDbScale
 70
     0
300
1'-0" = 1'-0"
140
12.0
141
12.0
290
     0
  0
ENDSEC
  0
EOF
