  0
SECTION
  2
HEADER
  9
$ACADVER
  1
AC1015
  9
$ACADMAINTVER
 70
     6
  9
$DWGCODEPAGE
  3
ANSI_949
  9
$INSBASE
 10
0.0
 20
0.0
 30
0.0
  9
$EXTMIN
 10
-54.0625000000001
 20
-49.97180738881174
 30
0.0
  9
$EXTMAX
 10
96.20662503295506
 20
41.39266545658985
 30
0.0
  9
$LIMMIN
 10
0.0
 20
0.0
  9
$LIMMAX
 10
420.0
 20
297.0
  9
$ORTHOMODE
 70
     1
  9
$REGENMODE
 70
     1
  9
$FILLMODE
 70
     1
  9
$QTEXTMODE
 70
     0
  9
$MIRRTEXT
 70
     1
  9
$LTSCALE
 40
1.0
  9
$ATTMODE
 70
     1
  9
$TEXTSIZE
 40
3.5
  9
$TRACEWID
 40
1.0
  9
$TEXTSTYLE
  7
Standard
  9
$CLAYER
  8
0
  9
$CELTYPE
  6
ByLayer
  9
$CECOLOR
 62
   256
  9
$CELTSCALE
 40
1.0
  9
$DISPSILH
 70
     0
  9
$DIMSCALE
 40
1.0
  9
$DIMASZ
 40
3.302
  9
$DIMEXO
 40
1.0
  9
$DIMDLI
 40
3.75
  9
$DIMRND
 40
0.0
  9
$DIMDLE
 40
0.0
  9
$DIMEXE
 40
1.0
  9
$DIMTP
 40
0.0
  9
$DIMTM
 40
0.0
  9
$DIMTXT
 40
3.5
  9
$DIMCEN
 40
2.5
  9
$DIMTSZ
 40
0.0
  9
$DIMTOL
 70
     0
  9
$DIMLIM
 70
     0
  9
$DIMTIH
 70
     1
  9
$DIMTOH
 70
     1
  9
$DIMSE1
 70
     0
  9
$DIMSE2
 70
     0
  9
$DIMTAD
 70
     1
  9
$DIMZIN
 70
     0
  9
$DIMBLK
  1

  9
$DIMASO
 70
     1
  9
$DIMSHO
 70
     1
  9
$DIMPOST
  1

  9
$DIMAPOST
  1

  9
$DIMALT
 70
     0
  9
$DIMALTD
 70
     3
  9
$DIMALTF
 40
0.0393700787401575
  9
$DIMLFAC
 40
1.0
  9
$DIMTOFL
 70
     1
  9
$DIMTVP
 40
0.0
  9
$DIMTIX
 70
     0
  9
$DIMSOXD
 70
     0
  9
$DIMSAH
 70
     0
  9
$DIMBLK1
  1

  9
$DIMBLK2
  1

  9
$DIMSTYLE
  2
ISO-25
  9
$DIMCLRD
 70
     0
  9
$DIMCLRE
 70
     0
  9
$DIMCLRT
 70
     0
  9
$DIMTFAC
 40
1.0
  9
$DIMGAP
 40
1.524
  9
$DIMJUST
 70
     0
  9
$DIMSD1
 70
     0
  9
$DIMSD2
 70
     0
  9
$DIMTOLJ
 70
     0
  9
$DIMTZIN
 70
     0
  9
$DIMALTZ
 70
     0
  9
$DIMALTTZ
 70
     0
  9
$DIMUPT
 70
     0
  9
$DIMDEC
 70
     2
  9
$DIMTDEC
 70
     2
  9
$DIMALTU
 70
     2
  9
$DIMALTTD
 70
     3
  9
$DIMTXSTY
  7
Standard
  9
$DIMAUNIT
 70
     0
  9
$DIMADEC
 70
     2
  9
$DIMALTRND
 40
0.0
  9
$DIMAZIN
 70
     0
  9
$DIMDSEP
 70
    44
  9
$DIMATFIT
 70
     3
  9
$DIMFRAC
 70
     0
  9
$DIMLDRBLK
  1

  9
$DIMLUNIT
 70
     2
  9
$DIMLWD
 70
    -2
  9
$DIMLWE
 70
    -2
  9
$DIMTMOVE
 70
     0
  9
$LUNITS
 70
     2
  9
$LUPREC
 70
     2
  9
$SKETCHINC
 40
1.0
  9
$FILLETRAD
 40
10.0
  9
$AUNITS
 70
     0
  9
$AUPREC
 70
     2
  9
$MENU
  1
.
  9
$ELEVATION
 40
0.0
  9
$PELEVATION
 40
0.0
  9
$THICKNESS
 40
0.0
  9
$LIMCHECK
 70
     0
  9
$CHAMFERA
 40
0.0
  9
$CHAMFERB
 40
0.0
  9
$CHAMFERC
 40
0.0
  9
$CHAMFERD
 40
0.0
  9
$SKPOLY
 70
     0
  9
$TDCREATE
 40
2458313.3965236
  9
$TDUCREATE
 40
2458313.0215236
  9
$TDUPDATE
 40
2458330.77651419
  9
$TDUUPDATE
 40
2458330.40151419
  9
$TDINDWG
 40
0.0025640509
  9
$TDUSRTIMER
 40
2458330.401476586
  9
$USRTIMER
 70
     1
  9
$ANGBASE
 50
0.0
  9
$ANGDIR
 70
     0
  9
$PDMODE
 70
     0
  9
$PDSIZE
 40
-1.0
  9
$PLINEWID
 40
0.0
  9
$SPLFRAME
 70
     0
  9
$SPLINETYPE
 70
     6
  9
$SPLINESEGS
 70
     8
  9
$HANDSEED
  5
275
  9
$SURFTAB1
 70
     6
  9
$SURFTAB2
 70
     6
  9
$SURFTYPE
 70
     6
  9
$SURFU
 70
     6
  9
$SURFV
 70
     6
  9
$UCSBASE
  2

  9
$UCSNAME
  2

  9
$UCSORG
 10
0.0
 20
0.0
 30
0.0
  9
$UCSXDIR
 10
1.0
 20
0.0
 30
0.0
  9
$UCSYDIR
 10
0.0
 20
1.0
 30
0.0
  9
$UCSORTHOREF
  2

  9
$UCSORTHOVIEW
 70
     0
  9
$UCSORGTOP
 10
0.0
 20
0.0
 30
0.0
  9
$UCSORGBOTTOM
 10
0.0
 20
0.0
 30
0.0
  9
$UCSORGLEFT
 10
0.0
 20
0.0
 30
0.0
  9
$UCSORGRIGHT
 10
0.0
 20
0.0
 30
0.0
  9
$UCSORGFRONT
 10
0.0
 20
0.0
 30
0.0
  9
$UCSORGBACK
 10
0.0
 20
0.0
 30
0.0
  9
$PUCSBASE
  2

  9
$PUCSNAME
  2

  9
$PUCSORG
 10
0.0
 20
0.0
 30
0.0
  9
$PUCSXDIR
 10
1.0
 20
0.0
 30
0.0
  9
$PUCSYDIR
 10
0.0
 20
1.0
 30
0.0
  9
$PUCSORTHOREF
  2

  9
$PUCSORTHOVIEW
 70
     0
  9
$PUCSORGTOP
 10
0.0
 20
0.0
 30
0.0
  9
$PUCSORGBOTTOM
 10
0.0
 20
0.0
 30
0.0
  9
$PUCSORGLEFT
 10
0.0
 20
0.0
 30
0.0
  9
$PUCSORGRIGHT
 10
0.0
 20
0.0
 30
0.0
  9
$PUCSORGFRONT
 10
0.0
 20
0.0
 30
0.0
  9
$PUCSORGBACK
 10
0.0
 20
0.0
 30
0.0
  9
$USERI1
 70
     0
  9
$USERI2
 70
     0
  9
$USERI3
 70
     0
  9
$USERI4
 70
     0
  9
$USERI5
 70
     0
  9
$USERR1
 40
0.0
  9
$USERR2
 40
0.0
  9
$USERR3
 40
0.0
  9
$USERR4
 40
0.0
  9
$USERR5
 40
0.0
  9
$WORLDVIEW
 70
     1
  9
$SHADEDGE
 70
     3
  9
$SHADEDIF
 70
    70
  9
$TILEMODE
 70
     1
  9
$MAXACTVP
 70
    64
  9
$PINSBASE
 10
0.0
 20
0.0
 30
0.0
  9
$PLIMCHECK
 70
     0
  9
$PEXTMIN
 10
1.000000000000000E+20
 20
1.000000000000000E+20
 30
1.000000000000000E+20
  9
$PEXTMAX
 10
-1.000000000000000E+20
 20
-1.000000000000000E+20
 30
-1.000000000000000E+20
  9
$PLIMMIN
 10
0.0
 20
0.0
  9
$PLIMMAX
 10
0.0
 20
0.0
  9
$UNITMODE
 70
     0
  9
$VISRETAIN
 70
     1
  9
$PLINEGEN
 70
     0
  9
$PSLTSCALE
 70
     1
  9
$TREEDEPTH
 70
  3020
  9
$CMLSTYLE
  2
Standard
  9
$CMLJUST
 70
     0
  9
$CMLSCALE
 40
20.0
  9
$PROXYGRAPHICS
 70
     1
  9
$MEASUREMENT
 70
     1
  9
$CELWEIGHT
370
    -1
  9
$ENDCAPS
280
     0
  9
$JOINSTYLE
280
     0
  9
$LWDISPLAY
290
     1
  9
$INSUNITS
 70
     4
  9
$HYPERLINKBASE
  1

  9
$STYLESHEET
  1

  9
$XEDIT
290
     1
  9
$CEPSNTYPE
380
     0
  9
$PSTYLEMODE
290
     1
  9
$FINGERPRINTGUID
  2
{918CFDCB-1427-45BF-B264-1FB494098993}
  9
$VERSIONGUID
  2
{FAEB1C32-E019-11D5-929B-00C0DF256EC4}
  9
$EXTNAMES
290
     1
  9
$PSVPSCALE
 40
0.0
  9
$OLESTARTUP
290
     0
  0
ENDSEC
  0
SECTION
  2
CLASSES
  0
CLASS
  1
ACDBDICTIONARYWDFLT
  2
AcDbDictionaryWithDefault
  3
ObjectDBX Classes
 90
        0
280
     0
281
     0
  0
CLASS
  1
VISUALSTYLE
  2
AcDbVisualStyle
  3
ObjectDBX Classes
 90
     4095
280
     0
281
     0
  0
CLASS
  1
MATERIAL
  2
AcDbMaterial
  3
ObjectDBX Classes
 90
     1153
280
     0
281
     0
  0
CLASS
  1
SCALE
  2
AcDbScale
  3
ObjectDBX Classes
 90
     1153
280
     0
281
     0
  0
CLASS
  1
SUN
  2
AcDbSun
  3
SCENEOE
 90
     1153
280
     0
281
     0
  0
CLASS
  1
ACDBPLACEHOLDER
  2
AcDbPlaceHolder
  3
ObjectDBX Classes
 90
        0
280
     0
281
     0
  0
CLASS
  1
LAYOUT
  2
AcDbLayout
  3
ObjectDBX Classes
 90
        0
280
     0
281
     0
  0
CLASS
  1
TABLESTYLE
  2
AcDbTableStyle
  3
ObjectDBX Classes
 90
     4095
280
     0
281
     0
  0
CLASS
  1
MLEADERSTYLE
  2
AcDbMLeaderStyle
  3
ACDB_MLEADERSTYLE_CLASS
 90
     4095
280
     0
281
     0
  0
CLASS
  1
RASTERVARIABLES
  2
AcDbRasterVariables
  3
ISM
 90
        0
280
     0
281
     0
  0
ENDSEC
  0
SECTION
  2
TABLES
  0
TABLE
  2
VPORT
  5
8
330
0
100
AcDbSymbolTable
 70
     1
  0
VPORT
  5
29
330
8
100
AcDbSymbolTableRecord
100
AcDbViewportTableRecord
  2
*Active
 70
     0
 10
0.0
 20
0.0
 11
1.0
 21
1.0
 12
21.07206251647749
 22
-4.289570966110901
 13
0.0
 23
0.0
 14
10.0
 24
10.0
 15
10.0
 25
10.0
 16
0.0
 26
0.0
 36
1.0
 17
0.0
 27
0.0
 37
0.0
 40
93.19176230230971
 41
1.782762691853601
 42
50.0
 43
0.0
 44
0.0
 50
0.0
 51
0.0
 71
    16
 72
  2000
 73
     1
 74
     3
 75
     0
 76
     0
 77
     0
 78
     0
281
     0
 65
     1
110
0.0
120
0.0
130
0.0
111
1.0
121
0.0
131
0.0
112
0.0
122
1.0
132
0.0
 79
     0
146
0.0
  0
ENDTAB
  0
TABLE
  2
LTYPE
  5
5
330
0
100
AcDbSymbolTable
 70
     6
  0
LTYPE
  5
14
330
5
100
AcDbSymbolTableRecord
100
AcDbLinetypeTableRecord
  2
ByBlock
 70
     0
  3

 72
    65
 73
     0
 40
0.0
  0
LTYPE
  5
15
330
5
100
AcDbSymbolTableRecord
100
AcDbLinetypeTableRecord
  2
ByLayer
 70
     0
  3

 72
    65
 73
     0
 40
0.0
  0
LTYPE
  5
16
330
5
100
AcDbSymbolTableRecord
100
AcDbLinetypeTableRecord
  2
Continuous
 70
     0
  3
Solid line
 72
    65
 73
     0
 40
0.0
  0
LTYPE
  5
6A
330
5
100
AcDbSymbolTableRecord
100
AcDbLinetypeTableRecord
  2
HIDDEN
 70
     0
  3
Hidden __ __ __ __ __ __ __ __ __ __ __ __ __ __
 72
    65
 73
     2
 40
1.905
 49
1.27
 74
     0
 49
-0.635
 74
     0
  0
LTYPE
  5
6B
330
5
100
AcDbSymbolTableRecord
100
AcDbLinetypeTableRecord
  2
PHANTOM
 70
     0
  3
Phantom ______  __  __  ______  __  __  ______
 72
    65
 73
     6
 40
12.7
 49
6.35
 74
     0
 49
-1.27
 74
     0
 49
1.27
 74
     0
 49
-1.27
 74
     0
 49
1.27
 74
     0
 49
-1.27
 74
     0
  0
LTYPE
  5
6C
330
5
100
AcDbSymbolTableRecord
100
AcDbLinetypeTableRecord
  2
CENTER
 70
     0
  3
Center ____ _ ____ _ ____ _ ____ _ ____ _ ____
 72
    65
 73
     4
 40
10.16
 49
6.35
 74
     0
 49
-1.27
 74
     0
 49
1.27
 74
     0
 49
-1.27
 74
     0
  0
LTYPE
  5
6D
330
5
100
AcDbSymbolTableRecord
100
AcDbLinetypeTableRecord
  2
CENTERX2
 70
     0
  3
Center (2x) ________  __  ________  __  _____
 72
    65
 73
     4
 40
20.32
 49
12.7
 74
     0
 49
-2.54
 74
     0
 49
2.54
 74
     0
 49
-2.54
 74
     0
  0
LTYPE
  5
6E
330
5
100
AcDbSymbolTableRecord
100
AcDbLinetypeTableRecord
  2
DOT2
 70
     0
  3
Dot (.5x) ........................................
 72
    65
 73
     2
 40
0.635
 49
0.0
 74
     0
 49
-0.635
 74
     0
  0
ENDTAB
  0
TABLE
  2
LAYER
  5
2
102
{ACAD_XDICTIONARY
360
192
102
}
330
0
100
AcDbSymbolTable
 70
    18
  0
LAYER
  5
10
330
2
100
AcDbSymbolTableRecord
100
AcDbLayerTableRecord
  2
0
 70
     0
 62
     7
  6
Continuous
370
    -3
390
F
  0
LAYER
  5
6F
330
2
100
AcDbSymbolTableRecord
100
AcDbLayerTableRecord
  2
FORMAT
 70
     0
 62
     2
  6
Continuous
370
    -3
390
F
  0
LAYER
  5
70
330
2
100
AcDbSymbolTableRecord
100
AcDbLayerTableRecord
  2
외형선
 70
     0
 62
     4
  6
Continuous
370
    30
390
F
  0
LAYER
  5
71
330
2
100
AcDbSymbolTableRecord
100
AcDbLayerTableRecord
  2
숨은선
 70
     0
 62
     2
  6
HIDDEN
370
    15
390
F
  0
LAYER
  5
72
330
2
100
AcDbSymbolTableRecord
100
AcDbLayerTableRecord
  2
중심선
 70
     0
 62
     1
  6
CENTERX2
370
    -3
390
F
  0
LAYER
  5
73
330
2
100
AcDbSymbolTableRecord
100
AcDbLayerTableRecord
  2
파단선
 70
     0
 62
     4
  6
Continuous
370
    -3
390
F
  0
LAYER
  5
74
330
2
100
AcDbSymbolTableRecord
100
AcDbLayerTableRecord
  2
해칭선
 70
     0
 62
   100
  6
Continuous
370
    -3
390
F
  0
LAYER
  5
75
330
2
100
AcDbSymbolTableRecord
100
AcDbLayerTableRecord
  2
가는실선
 70
     0
 62
     4
  6
Continuous
370
    -3
390
F
  0
LAYER
  5
76
330
2
100
AcDbSymbolTableRecord
100
AcDbLayerTableRecord
  2
치수_보조선
 70
     0
 62
     4
  6
Continuous
370
    -3
390
F
  0
LAYER
  5
77
330
2
100
AcDbSymbolTableRecord
100
AcDbLayerTableRecord
  2
치수문자_일반주서
 70
     0
 62
     7
  6
Continuous
370
    15
390
F
  0
LAYER
  5
78
330
2
100
AcDbSymbolTableRecord
100
AcDbLayerTableRecord
  2
개별주서
 70
     0
 62
   100
  6
Continuous
370
    30
390
F
  0
LAYER
  5
79
330
2
100
AcDbSymbolTableRecord
100
AcDbLayerTableRecord
  2
중간선
 70
     0
 62
     2
  6
Continuous
370
    15
390
F
  0
LAYER
  5
7A
330
2
100
AcDbSymbolTableRecord
100
AcDbLayerTableRecord
  2
윤곽선
 70
     0
 62
     3
  6
Continuous
370
    40
390
F
  0
LAYER
  5
7B
330
2
100
AcDbSymbolTableRecord
100
AcDbLayerTableRecord
  2
중심마크
 70
     0
 62
   100
  6
Continuous
370
    30
390
F
  0
LAYER
  5
7C
330
2
100
AcDbSymbolTableRecord
100
AcDbLayerTableRecord
  2
가상선
 70
     0
 62
     4
  6
PHANTOM
370
    -3
390
F
  0
LAYER
  5
7D
330
2
100
AcDbSymbolTableRecord
100
AcDbLayerTableRecord
  2
특수지정선
 70
     0
 62
     5
  6
CENTERX2
370
    60
390
F
  0
LAYER
  5
7E
330
2
100
AcDbSymbolTableRecord
100
AcDbLayerTableRecord
  2
참조1
 70
     0
 62
    -4
  6
Continuous
370
    -3
390
F
  0
LAYER
  5
15B
330
2
100
AcDbSymbolTableRecord
100
AcDbLayerTableRecord
  2
Defpoints
 70
     0
 62
     7
  6
Continuous
290
     0
370
    -3
390
F
  0
ENDTAB
  0
TABLE
  2
STYLE
  5
3
330
0
100
AcDbSymbolTable
 70
     2
  0
STYLE
  5
11
330
3
100
AcDbSymbolTableRecord
100
AcDbTextStyleTableRecord
  2
Standard
 70
     0
 40
0.0
 41
1.0
 50
0.0
 71
     0
 42
3.5
  3
txt
  4

  0
STYLE
  5
94
330
3
100
AcDbSymbolTableRecord
100
AcDbTextStyleTableRecord
  2
SLDTEXTSTYLE0
 70
     0
 40
0.0
 41
0.75
 50
0.0
 71
     0
 42
3.5
  3
TXT
  4

  0
ENDTAB
  0
TABLE
  2
VIEW
  5
6
330
0
100
AcDbSymbolTable
 70
     0
  0
ENDTAB
  0
TABLE
  2
UCS
  5
7
330
0
100
AcDbSymbolTable
 70
     0
  0
ENDTAB
  0
TABLE
  2
APPID
  5
9
330
0
100
AcDbSymbolTable
 70
     2
  0
APPID
  5
12
330
9
100
AcDbSymbolTableRecord
100
AcDbRegAppTableRecord
  2
ACAD
 70
     0
  0
APPID
  5
162
330
9
100
AcDbSymbolTableRecord
100
AcDbRegAppTableRecord
  2
PE_URL
 70
     0
  0
ENDTAB
  0
TABLE
  2
DIMSTYLE
  5
A
330
0
100
AcDbSymbolTable
 70
     3
100
AcDbDimStyleTable
  0
DIMSTYLE
105
27
330
A
100
AcDbSymbolTableRecord
100
AcDbDimStyleTableRecord
  2
ISO-25
 70
     0
 41
2.5
 42
0.625
 43
3.75
 44
1.25
 73
     0
 74
     0
 77
     1
 78
     8
140
2.5
141
2.5
143
0.03937007874016
147
0.625
171
     3
172
     1
178
     0
271
     2
272
     2
274
     3
278
    44
283
     0
284
     8
340
11
  0
DIMSTYLE
105
DB
102
{ACAD_REACTORS
330
DA
330
EF
330
103
330
117
102
}
330
A
100
AcDbSymbolTableRecord
100
AcDbDimStyleTableRecord
  2
SLDDIMSTYLE0
 70
     0
 41
3.302
 44
0.0
 45
0.000000001
 73
     0
 74
     0
 77
     1
 78
    12
 79
     3
140
3.5
143
0.0393700787401575
147
0.875
148
0.000000001
170
     1
172
     1
173
     1
178
     0
271
     2
272
     2
276
     2
284
    12
289
     0
340
94
  0
DIMSTYLE
105
F0
330
A
100
AcDbSymbolTableRecord
100
AcDbDimStyleTableRecord
  2
SLDDIMSTYLE1
 70
     0
 41
3.302
 44
0.0
 45
0.000000001
 73
     0
 74
     0
 77
     1
 78
    12
 79
     3
140
3.5
143
0.0393700787401575
147
0.875
148
0.000000001
170
     1
173
     1
178
     0
271
     2
272
     2
276
     2
284
    12
340
94
  0
ENDTAB
  0
TABLE
  2
BLOCK_RECORD
  5
1
330
0
100
AcDbSymbolTable
 70
     9
  0
BLOCK_RECORD
  5
1F
330
1
100
AcDbSymbolTableRecord
100
AcDbBlockTableRecord
  2
*Model_Space
340
22
  0
BLOCK_RECORD
  5
1B
330
1
100
AcDbSymbolTableRecord
100
AcDbBlockTableRecord
  2
*Paper_Space
340
1E
  0
BLOCK_RECORD
  5
23
330
1
100
AcDbSymbolTableRecord
100
AcDbBlockTableRecord
  2
*Paper_Space0
340
26
  0
BLOCK_RECORD
  5
7F
330
1
100
AcDbSymbolTableRecord
100
AcDbBlockTableRecord
  2
블럭10
340
0
102
{BLKREFS
331
D3
102
}
  0
BLOCK_RECORD
  5
DC
330
1
100
AcDbSymbolTableRecord
100
AcDbBlockTableRecord
  2
_D
340
0
  0
BLOCK_RECORD
  5
F1
330
1
100
AcDbSymbolTableRecord
100
AcDbBlockTableRecord
  2
_D_1
340
0
  0
BLOCK_RECORD
  5
104
330
1
100
AcDbSymbolTableRecord
100
AcDbBlockTableRecord
  2
_D_2
340
0
  0
BLOCK_RECORD
  5
118
330
1
100
AcDbSymbolTableRecord
100
AcDbBlockTableRecord
  2
_D_3
340
0
  0
BLOCK_RECORD
  5
131
330
1
100
AcDbSymbolTableRecord
100
AcDbBlockTableRecord
  2
SW_DOWELSYMBOL_0
340
0
102
{BLKREFS
331
137
102
}
  0
BLOCK_RECORD
  5
196
330
1
100
AcDbSymbolTableRecord
100
AcDbBlockTableRecord
  2
*D7
340
0
  0
BLOCK_RECORD
  5
1A8
330
1
100
AcDbSymbolTableRecord
100
AcDbBlockTableRecord
  2
*D8
340
0
  0
ENDTAB
  0
ENDSEC
  0
SECTION
  2
BLOCKS
  0
BLOCK
  5
20
330
1F
100
AcDbEntity
  8
0
100
AcDbBlockBegin
  2
*Model_Space
 70
     0
 10
0.0
 20
0.0
 30
0.0
  3
*Model_Space
  1
*Model_Space
  0
ENDBLK
  5
21
330
1F
100
AcDbEntity
  8
0
100
AcDbBlockEnd
  0
BLOCK
  5
1C
330
1B
100
AcDbEntity
 67
     1
  8
0
100
AcDbBlockBegin
  2
*Paper_Space
 70
     0
 10
0.0
 20
0.0
 30
0.0
  3
*Paper_Space
  1
*Paper_Space
  0
ENDBLK
  5
1D
330
1B
100
AcDbEntity
 67
     1
  8
0
100
AcDbBlockEnd
  0
BLOCK
  5
24
330
23
100
AcDbEntity
  8
0
100
AcDbBlockBegin
  2
*Paper_Space0
 70
     0
 10
0.0
 20
0.0
 30
0.0
  3
*Paper_Space0
  1
*Paper_Space0
  0
ENDBLK
  5
25
330
23
100
AcDbEntity
  8
0
100
AcDbBlockEnd
  0
BLOCK
  5
80
330
7F
100
AcDbEntity
  8
0
100
AcDbBlockBegin
  2
블럭10
 70
     2
 10
0.0
 20
0.0
 30
0.0
  3
블럭10
  1
블럭10
  0
ELLIPSE
  5
82
330
7F
100
AcDbEntity
  8
중심선
100
AcDbEllipse
 10
20.54032771741204
 20
12.0471743016438
 30
0.0
 11
6.600054785286829
 21
-1.261213355974178E-13
 31
0.0
210
0.0
220
0.0
230
1.0
 40
0.636358354079598
 41
0.9219305317359503
 42
6.513795318482858
  0
ELLIPSE
  5
83
330
7F
100
AcDbEntity
  8
중심선
100
AcDbEllipse
 10
20.54032771746488
 20
12.04717430159265
 30
0.0
 11
3.960054785062283
 21
1.540847449632565E-10
 31
0.0
210
0.0
220
0.0
230
1.0
 40
0.3939339440162632
 41
1.131841032648279
 42
5.62031148352944
  0
LINE
  5
84
330
7F
100
AcDbEntity
  8
중심선
100
AcDbLine
 10
2.268634060543552
 20
16.24717430164393
 30
0.0
 11
5.714909304380834
 21
16.24717430164393
 31
0.0
  0
LINE
  5
85
330
7F
100
AcDbEntity
  8
중심선
100
AcDbLine
 10
5.245725140726316
 20
7.84717430164391
 30
0.0
 11
8.692000384563599
 21
7.84717430164391
 31
0.0
  0
LINE
  5
86
330
7F
100
AcDbEntity
  8
중심선
100
AcDbLine
 10
15.74043728645272
 20
16.24717430164393
 30
0.0
 11
8.692000384563599
 21
7.84717430164391
 31
0.0
  0
LINE
  5
87
330
7F
100
AcDbEntity
  8
중심선
100
AcDbLine
 10
0.1404042013395286
 20
13.71084872107135
 30
0.0
 11
3.58671253028996
 21
13.71088815037384
 31
0.0
  0
LINE
  5
88
330
7F
100
AcDbEntity
  8
중심선
100
AcDbLine
 10
2.750260043222114
 20
10.84717430164391
 30
0.0
 11
6.196535287059397
 21
10.84717430164391
 31
0.0
  0
LINE
  5
89
330
7F
100
AcDbEntity
  8
중심선
100
AcDbLine
 10
12.29416204261559
 20
16.24717430164393
 30
0.0
 11
5.245725140726316
 21
7.84717430164391
 31
0.0
  0
LINE
  5
8A
330
7F
100
AcDbEntity
  8
중심선
100
AcDbLine
 10
10.72767329541681
 20
16.24717430164393
 30
0.0
 11
6.196535287059397
 21
10.84717430164391
 31
0.0
  0
LINE
  5
8B
330
7F
100
AcDbEntity
  8
중심선
100
AcDbLine
 10
7.28139805157953
 20
16.24717430164393
 30
0.0
 11
2.750260043222114
 21
10.84717430164391
 31
0.0
  0
LINE
  5
8C
330
7F
100
AcDbEntity
  8
중심선
100
AcDbLine
 10
5.714909304380834
 20
16.24717430164393
 30
0.0
 11
3.58671253028996
 21
13.71088815037384
 31
0.0
  0
LINE
  5
8D
330
7F
100
AcDbEntity
  8
중심선
100
AcDbLine
 10
2.268634060543552
 20
16.24717430164393
 30
0.0
 11
0.1404042013395286
 21
13.71084872107135
 31
0.0
  0
LINE
  5
8E
330
7F
100
AcDbEntity
  8
중심선
100
AcDbLine
 10
7.28139805157953
 20
16.24717430164393
 30
0.0
 11
10.72767329541681
 21
16.24717430164393
 31
0.0
  0
LINE
  5
8F
330
7F
100
AcDbEntity
  8
중심선
100
AcDbLine
 10
12.29416204261559
 20
16.24717430164393
 30
0.0
 11
15.74043728645272
 21
16.24717430164393
 31
0.0
  0
LINE
  5
90
330
7F
100
AcDbEntity
  8
중심선
100
AcDbLine
 10
19.22036997980202
 20
11.08717430171403
 30
0.0
 11
23.66174974927406
 21
11.08717430171406
 31
0.0
  0
LINE
  5
91
330
7F
100
AcDbEntity
  8
중심선
100
AcDbLine
 10
19.22039502424796
 20
13.00717430171391
 30
0.0
 11
19.22036997980202
 21
11.08717430171403
 31
0.0
  0
LINE
  5
92
330
7F
100
AcDbEntity
  8
중심선
100
AcDbLine
 10
19.22039502424796
 20
13.00717430171391
 30
0.0
 11
26.96566020931264
 21
13.00717430171391
 31
0.0
  0
LINE
  5
93
330
7F
100
AcDbEntity
  8
중심선
100
AcDbLine
 10
22.22332737316547
 20
13.45928029700563
 30
0.0
 11
24.52862924686651
 21
15.39360700705356
 31
0.0
  0
ATTDEF
  5
95
330
7F
100
AcDbEntity
  8
FORMAT
 62
     2
100
AcDbText
 10
4.408487351596664
 20
2.075366912832191
 30
0.0
 40
4.233333333333333
  1
E1050021
 41
0.75
  7
SLDTEXTSTYLE0
 11
4.408487351596664
 21
-0.0412997538344756
 31
0.0
100
AcDbAttributeDefinition
  3

  2
AUTOATTR0
 70
     0
 74
     1
  0
ENDBLK
  5
81
330
7F
100
AcDbEntity
  8
0
100
AcDbBlockEnd
  0
BLOCK
  5
DD
330
DC
100
AcDbEntity
  8
0
100
AcDbBlockBegin
  2
_D
 70
     0
 10
0.0
 20
0.0
 30
0.0
  3
_D
  1
_D
  0
LINE
  5
DF
330
DC
100
AcDbEntity
  8
치수문자_일반주서
 62
     0
370
    -2
100
AcDbLine
 10
-22.24076350361915
 20
4.762499999999994
 30
0.0
 11
-49.68749999999999
 21
4.762499999999889
 31
0.0
  0
LINE
  5
E0
330
DC
100
AcDbEntity
  8
치수문자_일반주서
 62
     0
370
    -2
100
AcDbLine
 10
-22.24076350361911
 20
-4.762500000000001
 30
0.0
 11
-49.68749999999996
 21
-4.762500000000102
 31
0.0
  0
LINE
  5
E1
330
DC
100
AcDbEntity
  8
치수문자_일반주서
 62
     0
370
    -2
100
AcDbLine
 10
-49.68749999999999
 20
4.762499999999889
 30
0.0
 11
-49.68750000000011
 21
37.61649999999996
 31
0.0
  0
LINE
  5
E2
330
DC
100
AcDbEntity
  8
치수문자_일반주서
 62
     0
370
    -2
100
AcDbLine
 10
-49.68749999999999
 20
4.762499999999889
 30
0.0
 11
-49.68749999999996
 21
-4.762500000000102
 31
0.0
  0
LINE
  5
E3
330
DC
100
AcDbEntity
  8
치수문자_일반주서
 62
     0
370
    -2
100
AcDbLine
 10
-49.68750000000001
 20
8.064499999999889
 30
0.0
 11
-49.68750000000002
 21
11.36649999999989
 31
0.0
  0
LINE
  5
E4
330
DC
100
AcDbEntity
  8
치수문자_일반주서
 62
     0
370
    -2
100
AcDbLine
 10
-49.68749999999994
 20
-8.064500000000102
 30
0.0
 11
-49.68749999999993
 21
-11.3665000000001
 31
0.0
  0
SOLID
  5
E5
330
DC
100
AcDbEntity
  8
치수문자_일반주서
 62
     0
100
AcDbTrace
 10
-50.23783333333334
 20
8.064499999999887
 30
0.0
 11
-49.13716666666667
 21
8.06449999999989
 31
0.0
 12
-49.68749999999999
 22
4.762499999999889
 32
0.0
 13
-49.68749999999999
 23
4.762499999999889
 33
0.0
  0
SOLID
  5
E6
330
DC
100
AcDbEntity
  8
치수문자_일반주서
 62
     0
100
AcDbTrace
 10
-49.13716666666661
 20
-8.0645000000001
 30
0.0
 11
-50.23783333333328
 21
-8.064500000000104
 31
0.0
 12
-49.68749999999996
 22
-4.762500000000102
 32
0.0
 13
-49.68749999999996
 23
-4.762500000000102
 33
0.0
  0
MTEXT
  5
E7
330
DC
100
AcDbEntity
  8
치수문자_일반주서
 62
     0
100
AcDbMText
 10
-54.06250000000006
 20
24.49149999999995
 30
0.0
 40
3.5
 41
0.0
 71
     2
 72
     1
  1
\A1;%%c9.53 [3/8]
  7
SLDTEXTSTYLE0
 11
-3.729883127349610E-15
 21
1.0
 31
0.0
 73
     1
 44
1.0
  0
POINT
  5
1E5
330
DC
100
AcDbEntity
  8
Defpoints
 62
     0
100
AcDbPoint
 10
-22.17826350361915
 20
4.762499999999994
 30
0.0
  0
POINT
  5
1E6
330
DC
100
AcDbEntity
  8
Defpoints
 62
     0
100
AcDbPoint
 10
-22.17826350361911
 20
-4.762500000000001
 30
0.0
  0
POINT
  5
1E7
330
DC
100
AcDbEntity
  8
Defpoints
 62
     0
100
AcDbPoint
 10
-49.68749999999996
 20
-4.762500000000104
 30
0.0
  0
ENDBLK
  5
DE
330
DC
100
AcDbEntity
  8
0
100
AcDbBlockEnd
  0
BLOCK
  5
F2
330
F1
100
AcDbEntity
  8
0
100
AcDbBlockBegin
  2
_D_1
 70
     0
 10
0.0
 20
0.0
 30
0.0
  3
_D_1
  1
_D_1
  0
LINE
  5
F4
330
F1
100
AcDbEntity
  8
치수문자_일반주서
 62
     0
370
    -2
100
AcDbLine
 10
39.75000000000001
 20
-4.163665456589779
 30
0.0
 11
80.45050165898392
 21
-4.163665456589627
 31
0.0
  0
LINE
  5
F5
330
F1
100
AcDbEntity
  8
치수문자_일반주서
 62
     0
370
    -2
100
AcDbLine
 10
39.75000000000001
 20
4.163665456589777
 30
0.0
 11
80.4505016589839
 21
4.163665456589932
 31
0.0
  0
LINE
  5
F6
330
F1
100
AcDbEntity
  8
치수문자_일반주서
 62
     0
370
    -2
100
AcDbLine
 10
80.4505016589839
 20
4.163665456589932
 30
0.0
 11
80.45050165898377
 21
41.39266545658993
 31
0.0
  0
LINE
  5
F7
330
F1
100
AcDbEntity
  8
치수문자_일반주서
 62
     0
370
    -2
100
AcDbLine
 10
80.45050165898392
 20
-4.163665456589627
 30
0.0
 11
80.4505016589839
 21
4.163665456589932
 31
0.0
  0
LINE
  5
F8
330
F1
100
AcDbEntity
  8
치수문자_일반주서
 62
     0
370
    -2
100
AcDbLine
 10
80.45050165898394
 20
-7.465665456589626
 30
0.0
 11
80.45050165898395
 21
-10.76766545658963
 31
0.0
  0
LINE
  5
F9
330
F1
100
AcDbEntity
  8
치수문자_일반주서
 62
     0
370
    -2
100
AcDbLine
 10
80.45050165898388
 20
7.465665456589932
 30
0.0
 11
80.45050165898387
 21
10.76766545658993
 31
0.0
  0
SOLID
  5
FA
330
F1
100
AcDbEntity
  8
치수문자_일반주서
 62
     0
100
AcDbTrace
 10
81.00083499231727
 20
-7.465665456589624
 30
0.0
 11
79.90016832565061
 21
-7.465665456589628
 31
0.0
 12
80.45050165898392
 22
-4.163665456589627
 32
0.0
 13
80.45050165898392
 23
-4.163665456589627
 33
0.0
  0
SOLID
  5
FB
330
F1
100
AcDbEntity
  8
치수문자_일반주서
 62
     0
100
AcDbTrace
 10
79.90016832565055
 20
7.46566545658993
 30
0.0
 11
81.00083499231721
 21
7.465665456589933
 31
0.0
 12
80.4505016589839
 22
4.163665456589932
 32
0.0
 13
80.4505016589839
 23
4.163665456589932
 33
0.0
  0
MTEXT
  5
FC
330
F1
100
AcDbEntity
  8
치수문자_일반주서
 62
     0
100
AcDbMText
 10
76.07550165898382
 20
26.08016545658991
 30
0.0
 40
3.5
 41
0.0
 71
     2
 72
     1
  1
\A1;%%c8.33 [21/64]
  7
SLDTEXTSTYLE0
 11
-3.413063528605709E-15
 21
1.0
 31
0.0
 73
     1
 44
1.0
  0
POINT
  5
FD
330
F1
100
AcDbEntity
  8
Defpoints
 62
     0
100
AcDbPoint
 10
39.68750000000001
 20
-4.163665456589779
 30
0.0
  0
POINT
  5
FE
330
F1
100
AcDbEntity
  8
Defpoints
 62
     0
100
AcDbPoint
 10
39.68750000000001
 20
4.163665456589777
 30
0.0
  0
POINT
  5
FF
330
F1
100
AcDbEntity
  8
Defpoints
 62
     0
100
AcDbPoint
 10
80.4505016589839
 20
4.163665456589929
 30
0.0
  0
ENDBLK
  5
F3
330
F1
100
AcDbEntity
  8
0
100
AcDbBlockEnd
  0
BLOCK
  5
105
330
104
100
AcDbEntity
  8
0
100
AcDbBlockBegin
  2
_D_2
 70
     0
 10
0.0
 20
0.0
 30
0.0
  3
_D_2
  1
_D_2
  0
LINE
  5
107
330
104
100
AcDbEntity
  8
치수문자_일반주서
 62
     0
370
    -2
100
AcDbLine
 10
39.68750000000001
 20
4.226165456589777
 30
0.0
 11
39.68750000000001
 21
14.76250000000001
 31
0.0
  0
LINE
  5
108
330
104
100
AcDbEntity
  8
치수문자_일반주서
 62
     0
370
    -2
100
AcDbLine
 10
25.40000000000002
 20
3.316855887204972
 30
0.0
 11
25.40000000000002
 21
14.76250000000001
 31
0.0
  0
LINE
  5
109
330
104
100
AcDbEntity
  8
치수문자_일반주서
 62
     0
370
    -2
100
AcDbLine
 10
39.68750000000001
 20
14.76250000000001
 30
0.0
 11
73.41650000000001
 21
14.76250000000001
 31
0.0
  0
LINE
  5
10A
330
104
100
AcDbEntity
  8
치수문자_일반주서
 62
     0
370
    -2
100
AcDbLine
 10
39.68750000000001
 20
14.76250000000001
 30
0.0
 11
25.40000000000002
 21
14.76250000000001
 31
0.0
  0
LINE
  5
10B
330
104
100
AcDbEntity
  8
치수문자_일반주서
 62
     0
370
    -2
100
AcDbLine
 10
42.98950000000001
 20
14.76250000000001
 30
0.0
 11
46.29150000000001
 21
14.76250000000001
 31
0.0
  0
LINE
  5
10C
330
104
100
AcDbEntity
  8
치수문자_일반주서
 62
     0
370
    -2
100
AcDbLine
 10
22.09800000000002
 20
14.76250000000001
 30
0.0
 11
18.79600000000002
 21
14.76250000000001
 31
0.0
  0
SOLID
  5
10D
330
104
100
AcDbEntity
  8
치수문자_일반주서
 62
     0
100
AcDbTrace
 10
42.98950000000001
 20
15.31283333333334
 30
0.0
 11
42.98950000000001
 21
14.21216666666668
 31
0.0
 12
39.68750000000001
 22
14.76250000000001
 32
0.0
 13
39.68750000000001
 23
14.76250000000001
 33
0.0
  0
SOLID
  5
10E
330
104
100
AcDbEntity
  8
치수문자_일반주서
 62
     0
100
AcDbTrace
 10
22.09800000000002
 20
14.21216666666668
 30
0.0
 11
22.09800000000002
 21
15.31283333333334
 31
0.0
 12
25.40000000000002
 22
14.76250000000001
 32
0.0
 13
25.40000000000002
 23
14.76250000000001
 33
0.0
  0
MTEXT
  5
10F
330
104
100
AcDbEntity
  8
치수문자_일반주서
 62
     0
100
AcDbMText
 10
59.85400000000001
 20
19.13750000000001
 30
0.0
 40
3.5
 41
0.0
 71
     2
 72
     1
  1
\A1;14.29 [9/16]
  7
SLDTEXTSTYLE0
 73
     1
 44
1.0
  0
POINT
  5
110
330
104
100
AcDbEntity
  8
Defpoints
 62
     0
100
AcDbPoint
 10
39.68750000000001
 20
4.163665456589777
 30
0.0
  0
POINT
  5
111
330
104
100
AcDbEntity
  8
Defpoints
 62
     0
100
AcDbPoint
 10
25.40000000000002
 20
3.254355887204972
 30
0.0
  0
POINT
  5
112
330
104
100
AcDbEntity
  8
Defpoints
 62
     0
100
AcDbPoint
 10
25.40000000000002
 20
14.76250000000001
 30
0.0
  0
ENDBLK
  5
106
330
104
100
AcDbEntity
  8
0
100
AcDbBlockEnd
  0
BLOCK
  5
119
330
118
100
AcDbEntity
  8
0
100
AcDbBlockBegin
  2
_D_3
 70
     0
 10
0.0
 20
0.0
 30
0.0
  3
_D_3
  1
_D_3
  0
LINE
  5
11B
330
118
100
AcDbEntity
  8
치수문자_일반주서
 62
     0
370
    -2
100
AcDbLine
 10
-39.68749999999999
 20
4.226165456589708
 30
0.0
 11
-39.68749999999999
 21
24.76249999999999
 31
0.0
  0
LINE
  5
11C
330
118
100
AcDbEntity
  8
치수문자_일반주서
 62
     0
370
    -2
100
AcDbLine
 10
39.68750000000001
 20
4.226165456589777
 30
0.0
 11
39.68750000000001
 21
24.76249999999999
 31
0.0
  0
LINE
  5
11D
330
118
100
AcDbEntity
  8
치수문자_일반주서
 62
     0
370
    -2
100
AcDbLine
 10
-36.38549999999999
 20
24.76249999999999
 30
0.0
 11
36.38550000000001
 21
24.76249999999999
 31
0.0
  0
SOLID
  5
11E
330
118
100
AcDbEntity
  8
치수문자_일반주서
 62
     0
100
AcDbTrace
 10
-36.38549999999999
 20
25.31283333333333
 30
0.0
 11
-36.38549999999999
 21
24.21216666666666
 31
0.0
 12
-39.68749999999999
 22
24.76249999999999
 32
0.0
 13
-39.68749999999999
 23
24.76249999999999
 33
0.0
  0
SOLID
  5
11F
330
118
100
AcDbEntity
  8
치수문자_일반주서
 62
     0
100
AcDbTrace
 10
36.38550000000001
 20
24.21216666666666
 30
0.0
 11
36.38550000000001
 21
25.31283333333333
 31
0.0
 12
39.68750000000001
 22
24.76249999999999
 32
0.0
 13
39.68750000000001
 23
24.76249999999999
 33
0.0
  0
MTEXT
  5
120
330
118
100
AcDbEntity
  8
치수문자_일반주서
 62
     0
100
AcDbMText
 10
0.0000000000000071
 20
29.13749999999999
 30
0.0
 40
3.5
 41
0.0
 71
     2
 72
     1
  1
\A1;79.38 [3 1/8]
  7
SLDTEXTSTYLE0
 73
     1
 44
1.0
  0
POINT
  5
121
330
118
100
AcDbEntity
  8
Defpoints
 62
     0
100
AcDbPoint
 10
-39.68749999999999
 20
4.163665456589708
 30
0.0
  0
POINT
  5
122
330
118
100
AcDbEntity
  8
Defpoints
 62
     0
100
AcDbPoint
 10
39.68750000000001
 20
4.163665456589777
 30
0.0
  0
POINT
  5
123
330
118
100
AcDbEntity
  8
Defpoints
 62
     0
100
AcDbPoint
 10
39.68750000000001
 20
24.76249999999999
 30
0.0
  0
ENDBLK
  5
11A
330
118
100
AcDbEntity
  8
0
100
AcDbBlockEnd
  0
BLOCK
  5
132
330
131
100
AcDbEntity
  8
0
100
AcDbBlockBegin
  2
SW_DOWELSYMBOL_0
 70
     0
 10
0.0
 20
0.0
 30
0.0
  3
SW_DOWELSYMBOL_0
  1
SW_DOWELSYMBOL_0
  0
CIRCLE
  5
134
330
131
100
AcDbEntity
  8
해칭선
 62
     0
100
AcDbCircle
 10
0.0
 20
0.0
 30
0.0
 40
3.000000000000001
  0
HATCH
  5
135
330
131
100
AcDbEntity
  8
0
  6
Continuous
 62
     0
370
     0
100
AcDbHatch
 10
0.0
 20
0.0
 30
0.0
210
0.0
220
0.0
230
1.0
  2
SOLID
 70
     1
 71
     0
 91
        1
 92
        0
 93
        3
 72
     2
 10
0.0
 20
0.0
 40
3.000000000000001
 50
0.0
 51
90.0
 73
     1
 72
     1
 10
0.0
 20
3.000000000000001
 11
0.0
 21
0.0
 72
     1
 10
0.0
 20
0.0
 11
3.000000000000001
 21
0.0
 97
        0
 75
     0
 76
     1
 98
        1
 10
0.0
 20
0.0
  0
HATCH
  5
136
330
131
100
AcDbEntity
  8
0
  6
Continuous
 62
     0
370
     0
100
AcDbHatch
 10
0.0
 20
0.0
 30
0.0
210
0.0
220
0.0
230
1.0
  2
SOLID
 70
     1
 71
     0
 91
        1
 92
        0
 93
        3
 72
     2
 10
0.0
 20
0.0
 40
3.000000000000001
 50
180.0
 51
270.0000000000007
 73
     1
 72
     1
 10
0.0
 20
-3.000000000000001
 11
0.0
 21
0.0
 72
     1
 10
0.0
 20
0.0
 11
-3.000000000000001
 21
0.0
 97
        0
 75
     0
 76
     1
 98
        1
 10
0.0
 20
0.0
  0
ENDBLK
  5
133
330
131
100
AcDbEntity
  8
0
100
AcDbBlockEnd
  0
BLOCK
  5
197
330
196
100
AcDbEntity
  8
0
100
AcDbBlockBegin
  2
*D7
 70
     1
 10
0.0
 20
0.0
 30
0.0
  3
*D7
  1
*D7
  0
LINE
  5
199
330
196
100
AcDbEntity
  8
치수문자_일반주서
 62
     0
370
    -2
100
AcDbLine
 10
16.129
 20
1.204062975115863
 30
0.0
 11
16.129
 21
14.31790470593878
 31
0.0
  0
LINE
  5
19A
330
196
100
AcDbEntity
  8
치수문자_일반주서
 62
     0
370
    -2
100
AcDbLine
 10
6.603999999999999
 20
0.6820206663775747
 30
0.0
 11
6.603999999999999
 21
14.31790470593878
 31
0.0
  0
LINE
  5
19B
330
196
100
AcDbEntity
  8
치수문자_일반주서
 62
     0
370
    -2
100
AcDbLine
 10
16.129
 20
14.31790470593878
 30
0.0
 11
46.358
 21
14.31790470593878
 31
0.0
  0
LINE
  5
19C
330
196
100
AcDbEntity
  8
치수문자_일반주서
 62
     0
370
    -2
100
AcDbLine
 10
16.129
 20
14.31790470593878
 30
0.0
 11
6.603999999999999
 21
14.31790470593878
 31
0.0
  0
LINE
  5
19D
330
196
100
AcDbEntity
  8
치수문자_일반주서
 62
     0
370
    -2
100
AcDbLine
 10
19.431
 20
14.31790470593878
 30
0.0
 11
22.733
 21
14.31790470593878
 31
0.0
  0
LINE
  5
19E
330
196
100
AcDbEntity
  8
치수문자_일반주서
 62
     0
370
    -2
100
AcDbLine
 10
3.302
 20
14.31790470593878
 30
0.0
 11
0.0
 21
14.31790470593878
 31
0.0
  0
SOLID
  5
19F
330
196
100
AcDbEntity
  8
치수문자_일반주서
 62
     0
100
AcDbTrace
 10
19.431
 20
14.86823803927212
 30
0.0
 11
19.431
 21
13.76757137260545
 31
0.0
 12
16.129
 22
14.31790470593878
 32
0.0
 13
16.129
 23
14.31790470593878
 33
0.0
  0
SOLID
  5
1A0
330
196
100
AcDbEntity
  8
치수문자_일반주서
 62
     0
100
AcDbTrace
 10
3.302
 20
13.76757137260545
 30
0.0
 11
3.302
 21
14.86823803927212
 31
0.0
 12
6.603999999999999
 22
14.31790470593878
 32
0.0
 13
6.603999999999999
 23
14.31790470593878
 33
0.0
  0
MTEXT
  5
1A1
330
196
100
AcDbEntity
  8
치수문자_일반주서
 62
     0
100
AcDbMText
 10
34.5455
 20
18.69290470593878
 30
0.0
 40
3.5
 41
0.0
 71
     2
 72
     1
  1
\A1;9.53 [3/8]
  7
SLDTEXTSTYLE0
 73
     1
 44
1.0
  0
POINT
  5
1A2
330
196
100
AcDbEntity
  8
Defpoints
 62
     0
100
AcDbPoint
 10
16.129
 20
1.141562975115863
 30
0.0
  0
POINT
  5
1A3
330
196
100
AcDbEntity
  8
Defpoints
 62
     0
100
AcDbPoint
 10
6.603999999999999
 20
0.6195206663775747
 30
0.0
  0
POINT
  5
1A4
330
196
100
AcDbEntity
  8
Defpoints
 62
     0
100
AcDbPoint
 10
6.603999999999999
 20
14.31790470593878
 30
0.0
  0
ENDBLK
  5
198
330
196
100
AcDbEntity
  8
0
100
AcDbBlockEnd
  0
BLOCK
  5
1A9
330
1A8
100
AcDbEntity
  8
0
100
AcDbBlockBegin
  2
*D8
 70
     1
 10
0.0
 20
0.0
 30
0.0
  3
*D8
  1
*D8
  0
LINE
  5
1AB
330
1A8
100
AcDbEntity
  8
치수문자_일반주서
 62
     0
370
    -2
100
AcDbLine
 10
91.0067893587677
 20
-11.74270366654842
 30
0.0
 11
91.0067893587677
 21
1.371138064274501
 31
0.0
  0
LINE
  5
1AC
330
1A8
100
AcDbEntity
  8
치수문자_일반주서
 62
     0
370
    -2
100
AcDbLine
 10
81.4817893587677
 20
-12.26474597528671
 30
0.0
 11
81.4817893587677
 21
1.371138064274501
 31
0.0
  0
LINE
  5
1AD
330
1A8
100
AcDbEntity
  8
치수문자_일반주서
 62
     0
370
    -2
100
AcDbLine
 10
91.0067893587677
 20
1.371138064274501
 30
0.0
 11
121.2357893587677
 21
1.371138064274501
 31
0.0
  0
LINE
  5
1AE
330
1A8
100
AcDbEntity
  8
치수문자_일반주서
 62
     0
370
    -2
100
AcDbLine
 10
91.0067893587677
 20
1.371138064274501
 30
0.0
 11
81.4817893587677
 21
1.371138064274501
 31
0.0
  0
LINE
  5
1AF
330
1A8
100
AcDbEntity
  8
치수문자_일반주서
 62
     0
370
    -2
100
AcDbLine
 10
94.30878935876771
 20
1.371138064274501
 30
0.0
 11
97.6107893587677
 21
1.371138064274501
 31
0.0
  0
LINE
  5
1B0
330
1A8
100
AcDbEntity
  8
치수문자_일반주서
 62
     0
370
    -2
100
AcDbLine
 10
78.17978935876769
 20
1.371138064274501
 30
0.0
 11
74.8777893587677
 21
1.371138064274501
 31
0.0
  0
SOLID
  5
1B1
330
1A8
100
AcDbEntity
  8
치수문자_일반주서
 62
     0
100
AcDbTrace
 10
94.30878935876771
 20
1.921471397607834
 30
0.0
 11
94.30878935876771
 21
0.8208047309411673
 31
0.0
 12
91.0067893587677
 22
1.371138064274501
 32
0.0
 13
91.0067893587677
 23
1.371138064274501
 33
0.0
  0
SOLID
  5
1B2
330
1A8
100
AcDbEntity
  8
치수문자_일반주서
 62
     0
100
AcDbTrace
 10
78.17978935876769
 20
0.8208047309411673
 30
0.0
 11
78.17978935876769
 21
1.921471397607834
 31
0.0
 12
81.4817893587677
 22
1.371138064274501
 32
0.0
 13
81.4817893587677
 23
1.371138064274501
 33
0.0
  0
MTEXT
  5
1B3
330
1A8
100
AcDbEntity
  8
치수문자_일반주서
 62
     0
100
AcDbMText
 10
109.4232893587677
 20
5.746138064274501
 30
0.0
 40
3.5
 41
0.0
 71
     2
 72
     1
  1
\A1;9.53 [3/8]
  7
SLDTEXTSTYLE0
 73
     1
 44
1.0
  0
POINT
  5
1B4
330
1A8
100
AcDbEntity
  8
Defpoints
 62
     0
100
AcDbPoint
 10
91.0067893587677
 20
-11.80520366654842
 30
0.0
  0
POINT
  5
1B5
330
1A8
100
AcDbEntity
  8
Defpoints
 62
     0
100
AcDbPoint
 10
81.4817893587677
 20
-12.32724597528671
 30
0.0
  0
POINT
  5
1B6
330
1A8
100
AcDbEntity
  8
Defpoints
 62
     0
100
AcDbPoint
 10
81.4817893587677
 20
1.371138064274501
 30
0.0
  0
ENDBLK
  5
1AA
330
1A8
100
AcDbEntity
  8
0
100
AcDbBlockEnd
  0
ENDSEC
  0
SECTION
  2
ENTITIES
  0
LINE
  5
96
330
1F
100
AcDbEntity
  8
외형선
  6
Continuous
370
    15
100
AcDbLine
 10
22.17826350361918
 20
4.762499999999997
 30
0.0
 11
4.838700000000173
 21
4.762499999999996
 31
0.0
  0
LINE
  5
97
330
1F
100
AcDbEntity
  8
외형선
  6
Continuous
370
    15
100
AcDbLine
 10
-22.17826350361911
 20
-4.762500000000001
 30
0.0
 11
22.17826350361918
 21
-4.762499999999998
 31
0.0
  0
LINE
  5
98
330
1F
100
AcDbEntity
  8
외형선
  6
Continuous
370
    15
100
AcDbLine
 10
22.17826350361918
 20
-4.7625
 30
0.0
 11
23.88006158810887
 21
-4.306504577580154
 31
0.0
  0
LINE
  5
99
330
1F
100
AcDbEntity
  8
외형선
  6
Continuous
370
    15
100
AcDbLine
 10
23.88006158810887
 20
4.306504577580152
 30
0.0
 11
22.17826350361918
 21
4.7625
 31
0.0
  0
SPLINE
  5
9C
330
1F
100
AcDbEntity
  8
외형선
  6
Continuous
370
    15
100
AcDbSpline
210
0.0
220
0.0
230
1.0
 70
     8
 71
     3
 72
     9
 73
     5
 74
     0
 42
0.000000001
 43
0.00000001
 40
0.0
 40
0.0
 40
0.0
 40
0.0
 40
0.461328405220277
 40
1.0
 40
1.0
 40
1.0
 40
1.0
 10
25.40000000000001
 20
3.254007925415143
 30
0.0
 10
25.24393931160547
 20
3.254548195450847
 30
0.0
 10
24.90565385892448
 20
3.255719313529836
 30
0.0
 10
24.55447602337756
 20
3.263734707496508
 30
0.0
 10
24.36530649865221
 20
3.268052372547324
 30
0.0
  0
SPLINE
  5
9D
330
1F
100
AcDbEntity
  8
외형선
  6
Continuous
370
    15
100
AcDbSpline
210
0.0
220
0.0
230
1.0
 70
     8
 71
     3
 72
    16
 73
    12
 74
     0
 42
0.000000001
 43
0.00000001
 40
0.0
 40
0.0
 40
0.0
 40
0.0
 40
0.0044680360691017
 40
0.0326563556735389
 40
0.120833356305319
 40
0.5000382679166963
 40
0.8791833508217236
 40
0.9673123559779397
 40
0.9889124384594936
 40
0.9955351188379036
 40
0.9999999999999999
 40
0.9999999999999999
 40
0.9999999999999999
 40
0.9999999999999999
 10
24.36702051735243
 20
3.26772407163684
 30
0.0
 10
24.36599918053362
 20
3.267897569555028
 30
0.0
 10
24.35853434858028
 20
3.269165645648718
 30
0.0
 10
24.3347142274661
 20
3.286251004033447
 30
0.0
 10
24.24500300485821
 20
3.357293701191143
 30
0.0
 10
24.10389462435286
 20
3.499418152974349
 30
0.0
 10
23.96869819863178
 20
3.643441573763374
 30
0.0
 10
23.8973829763542
 20
3.73350334195574
 30
0.0
 10
23.88353524696403
 20
3.756896193147758
 30
0.0
 10
23.88051359977445
 20
3.763962417525934
 30
0.0
 10
23.88019135411472
 20
3.766502864982792
 30
0.0
 10
23.88006158810887
 20
3.767525884873322
 30
0.0
  0
SPLINE
  5
9E
330
1F
100
AcDbEntity
  8
외형선
  6
Continuous
370
    15
100
AcDbSpline
210
0.0
220
0.0
230
1.0
 70
     8
 71
     3
 72
     9
 73
     5
 74
     0
 42
0.000000001
 43
0.00000001
 40
0.0
 40
0.0
 40
0.0
 40
0.0
 40
0.5561398370411058
 40
0.9999999999999999
 40
0.9999999999999999
 40
0.9999999999999999
 40
0.9999999999999999
 10
23.88008511026546
 20
-3.283419556670757
 30
0.0
 10
24.16631373511531
 20
-3.274065288234402
 30
0.0
 10
24.68098397771598
 20
-3.257245294748368
 30
0.0
 10
25.1789657357351
 20
-3.255003132095589
 30
0.0
 10
25.40000000000001
 20
-3.254007925415144
 30
0.0
  0
LINE
  5
9F
330
1F
100
AcDbEntity
  8
0
  6
Continuous
 62
     1
370
    15
100
AcDbLine
 10
26.61322438586853
 20
1.158812402039863
 30
0.0
 11
26.54156920688571
 21
1.198104529851039
 31
0.0
1001
PE_URL
1000

  0
LINE
  5
A0
330
1F
100
AcDbEntity
  8
0
  6
Continuous
 62
     1
370
    15
100
AcDbLine
 10
27.77426492766046
 20
1.625610325009878
 30
0.0
 11
27.73451600018355
 21
1.646090601612747
 31
0.0
1001
PE_URL
1000

  0
SPLINE
  5
A1
330
1F
100
AcDbEntity
  8
0
  6
Continuous
 62
     1
370
    15
100
AcDbSpline
210
0.0
220
0.0
230
1.0
 70
     8
 71
     3
 72
     9
 73
     5
 74
     0
 42
0.000000001
 43
0.00000001
 40
0.0
 40
0.0
 40
0.0
 40
0.0
 40
0.5170068808580057
 40
1.0
 40
1.0
 40
1.0
 40
1.0
 10
28.89203673188921
 20
1.06784599140898
 30
0.0
 10
28.69942183641927
 20
1.159471982450907
 30
0.0
 10
28.32686413438197
 20
1.336695912023893
 30
0.0
 10
27.95423987902385
 20
1.531514356733292
 30
0.0
 10
27.77426492766046
 20
1.625610325009878
 30
0.0
1001
PE_URL
1000

  0
SPLINE
  5
A2
330
1F
100
AcDbEntity
  8
0
  6
Continuous
 62
     1
370
    15
100
AcDbSpline
210
0.0
220
0.0
230
1.0
 70
     8
 71
     3
 72
    11
 73
     7
 74
     0
 42
0.000000001
 43
0.00000001
 40
0.0
 40
0.0
 40
0.0
 40
0.0
 40
0.207649787638536
 40
0.4425588231653185
 40
0.7064698319655958
 40
1.0
 40
1.0
 40
1.0
 40
1.0
 10
27.51364893449429
 20
3.311411889922938
 30
0.0
 10
27.37431431104769
 20
3.304145413459216
 30
0.0
 10
27.07735389668864
 20
3.288658553063573
 30
0.0
 10
26.57757411916032
 20
3.270124889646778
 30
0.0
 10
26.01147554607208
 20
3.257385594714505
 30
0.0
 10
25.61091958133453
 20
3.255173003232374
 30
0.0
 10
25.40000000000001
 20
3.254007925415143
 30
0.0
1001
PE_URL
1000

  0
SPLINE
  5
A3
330
1F
100
AcDbEntity
  8
0
  6
Continuous
 62
     1
370
    15
100
AcDbSpline
210
0.0
220
0.0
230
1.0
 70
     8
 71
     3
 72
    20
 73
    16
 74
     0
 42
0.000000001
 43
0.00000001
 40
0.0
 40
0.0
 40
0.0
 40
0.0
 40
0.0790508052491742
 40
0.1460654117328921
 40
0.2343614187311952
 40
0.3183993751129019
 40
0.4043928963686432
 40
0.4953032866101229
 40
0.581840772310724
 40
0.6604584089807541
 40
0.7329649896158597
 40
0.7961544901875008
 40
0.8652596833982239
 40
0.9320846526006291
 40
1.0
 40
1.0
 40
1.0
 40
1.0
 10
38.1382108082781
 20
2.850145455441333
 30
0.0
 10
37.96953752008399
 20
2.835224180602584
 30
0.0
 10
37.65787297459636
 20
2.807653529727724
 30
0.0
 10
37.08414253827053
 20
2.770589872421402
 30
0.0
 10
36.4713109834977
 20
2.752562218393101
 30
0.0
 10
35.82649455471284
 20
2.740187343160193
 30
0.0
 10
35.18948735124663
 20
2.743760818296835
 30
0.0
 10
34.5431661831867
 20
2.761587347051171
 30
0.0
 10
33.91550267774505
 20
2.793614429911342
 30
0.0
 10
33.33592408364954
 20
2.834813493867482
 30
0.0
 10
32.80701508680205
 20
2.882535357809885
 30
0.0
 10
32.29022893014029
 20
2.937466076923073
 30
0.0
 10
31.78796587251302
 20
2.993507457910023
 30
0.0
 10
31.28480682168059
 20
3.065216641370685
 30
0.0
 10
31.0022017434152
 20
3.111132060815772
 30
0.0
 10
30.85975572168032
 20
3.134275554472664
 30
0.0
1001
PE_URL
1000

  0
SPLINE
  5
A4
330
1F
100
AcDbEntity
  8
0
  6
Continuous
 62
     1
370
    15
100
AcDbSpline
210
0.0
220
0.0
230
1.0
 70
     8
 71
     3
 72
    14
 73
    10
 74
     0
 42
0.000000001
 43
0.00000001
 40
0.0
 40
0.0
 40
0.0
 40
0.0
 40
0.1579780639772993
 40
0.3134197964307857
 40
0.4741655638051339
 40
0.6211508233415182
 40
0.7492518926265489
 40
0.8773252734003368
 40
0.9999999999999999
 40
0.9999999999999999
 40
0.9999999999999999
 40
0.9999999999999999
 10
30.85975572168032
 20
-3.134275554472666
 30
0.0
 10
31.00220476103702
 20
-3.11113192344746
 30
0.0
 10
31.28481582609827
 20
-3.065216231471192
 30
0.0
 10
31.78793002674859
 20
-2.99350908968248
 30
0.0
 10
32.29036349840383
 20
-2.937459951100712
 30
0.0
 10
32.76258940301625
 20
-2.887231372750575
 30
0.0
 10
33.19337323960251
 20
-2.847541143144345
 30
0.0
 10
33.58908268214
 20
-2.816076027846138
 30
0.0
 10
33.85338050127909
 20
-2.79998432252061
 30
0.0
 10
33.98268421983312
 20
-2.792111698587334
 30
0.0
1001
PE_URL
1000

  0
SPLINE
  5
A5
330
1F
100
AcDbEntity
  8
0
  6
Continuous
 62
     1
370
    15
100
AcDbSpline
210
0.0
220
0.0
230
1.0
 70
     8
 71
     3
 72
    11
 73
     7
 74
     0
 42
0.000000001
 43
0.00000001
 40
0.0
 40
0.0
 40
0.0
 40
0.0
 40
0.2935301680344042
 40
0.5574411768346814
 40
0.792350212361464
 40
1.0
 40
1.0
 40
1.0
 40
1.0
 10
25.40000000000001
 20
-3.254007925415145
 30
0.0
 10
25.61091958133453
 20
-3.255173003232376
 30
0.0
 10
26.01147554607208
 20
-3.257385594714506
 30
0.0
 10
26.57757411916032
 20
-3.270124889646781
 30
0.0
 10
27.07735389668864
 20
-3.288658553063574
 30
0.0
 10
27.37431431104769
 20
-3.304145413459218
 30
0.0
 10
27.51364893449429
 20
-3.311411889922939
 30
0.0
1001
PE_URL
1000

  0
LINE
  5
A6
330
1F
100
AcDbEntity
  8
외형선
  6
Continuous
370
    15
100
AcDbLine
 10
22.17826350361918
 20
4.7625
 30
0.0
 11
22.17826350361918
 21
-4.762500000000004
 31
0.0
  0
SPLINE
  5
A8
330
1F
100
AcDbEntity
  8
외형선
  6
Continuous
370
    15
100
AcDbSpline
210
0.0
220
0.0
230
1.0
 70
     8
 71
     3
 72
     8
 73
     4
 74
     0
 42
0.000000001
 43
0.00000001
 40
0.0
 40
0.0
 40
0.0
 40
0.0
 40
1.0
 40
1.0
 40
1.0
 40
1.0
 10
24.40000000000002
 20
3.17988291634484
 30
0.0
 10
24.22620101458521
 20
3.267304381148146
 30
0.0
 10
24.05301861222866
 20
3.354516087500904
 30
0.0
 10
23.88012595805118
 20
3.44104503233035
 30
0.0
  0
LINE
  5
A9
330
1F
100
AcDbEntity
  8
외형선
  6
Continuous
370
    15
100
AcDbLine
 10
24.40000000000002
 20
3.179882916345176
 30
0.0
 11
24.40000000000002
 21
2.312369452928794
 31
0.0
  0
SPLINE
  5
AA
330
1F
100
AcDbEntity
  8
외형선
  6
Continuous
370
    15
100
AcDbSpline
210
0.0
220
0.0
230
1.0
 70
     8
 71
     3
 72
     8
 73
     4
 74
     0
 42
0.000000001
 43
0.00000001
 40
0.0
 40
0.0
 40
0.0
 40
0.0
 40
0.0005969665157926
 40
0.0005969665157926
 40
0.0005969665157926
 40
0.0005969665157926
 10
23.88006158810887
 20
2.60343036458758
 30
0.0
 10
24.05346778791422
 20
2.506965529547029
 30
0.0
 10
24.22670377610122
 20
2.409742790755074
 30
0.0
 10
24.40000000000014
 20
2.312369452928495
 30
0.0
  0
LINE
  5
AB
330
1F
100
AcDbEntity
  8
외형선
  6
Continuous
370
    15
100
AcDbLine
 10
23.88006158810887
 20
-4.306504577580154
 30
0.0
 11
23.88006158810887
 21
2.603479836804126
 31
0.0
  0
SPLINE
  5
AC
330
1F
100
AcDbEntity
  8
외형선
  6
Continuous
370
    15
100
AcDbSpline
210
0.0
220
0.0
230
1.0
 70
     8
 71
     3
 72
     9
 73
     5
 74
     0
 42
0.000000001
 43
0.00000001
 40
0.0
 40
0.0
 40
0.0
 40
0.0
 40
0.2179979265126283
 40
1.0
 40
1.0
 40
1.0
 40
1.0
 10
24.21231211544012
 20
-3.274251361778949
 30
0.0
 10
24.18811230012424
 20
-3.286421203481218
 30
0.0
 10
24.0771029171314
 20
-3.342246696397379
 30
0.0
 10
23.96656603167495
 20
-3.397689020176288
 30
0.0
 10
23.88012595805118
 20
-3.441045032330352
 30
0.0
  0
LINE
  5
AD
330
1F
100
AcDbEntity
  8
외형선
  6
Continuous
370
    15
100
AcDbLine
 10
23.88006158810887
 20
3.441127177535059
 30
0.0
 11
23.88006158810887
 21
4.306504577580152
 31
0.0
  0
SPLINE
  5
AF
330
1F
100
AcDbEntity
  8
외형선
  6
Continuous
370
    15
100
AcDbSpline
210
0.0
220
0.0
230
1.0
 70
    24
 71
     3
 72
    10
 73
     6
 74
     0
 42
0.000000001
 43
0.00000001
 40
0.0
 40
0.0
 40
0.0
 40
0.0
 40
0.5
 40
0.5
 40
1.0
 40
1.0
 40
1.0
 40
1.0
 10
25.40000000000001
 20
1.812282115155436
 30
0.0
 10
25.40000000000001
 20
1.778322151964701
 30
0.0
 10
25.40000000000001
 20
1.700695343477351
 30
0.0
 10
25.40000000000001
 20
1.472851925750039
 30
0.0
 10
25.40000000000001
 20
1.323517968755837
 30
0.0
 10
25.40000000000001
 20
1.159552286352426
 30
0.0
  0
SPLINE
  5
B0
330
1F
100
AcDbEntity
  8
외형선
  6
Continuous
370
    15
100
AcDbSpline
210
0.0
220
0.0
230
1.0
 70
     8
 71
     3
 72
    10
 73
     6
 74
     0
 42
0.000000001
 43
0.00000001
 40
0.0
 40
0.0
 40
0.0
 40
0.0
 40
0.5000000000000001
 40
0.5000000000000001
 40
1.0
 40
1.0
 40
1.0
 40
1.0
 10
25.39999999998755
 20
1.15955228635705
 30
0.0
 10
25.14690365541141
 20
1.253443532619845
 30
0.0
 10
24.89231367519425
 20
1.345372924080276
 30
0.0
 10
24.38436902994964
 20
1.523766015901427
 30
0.0
 10
24.13210872284941
 20
1.610108412096632
 30
0.0
 10
23.88007710944966
 20
1.693309738817713
 30
0.0
  0
SPLINE
  5
B1
330
1F
100
AcDbEntity
  8
외형선
  6
Continuous
370
    15
100
AcDbSpline
210
0.0
220
0.0
230
1.0
 70
     8
 71
     3
 72
     8
 73
     4
 74
     0
 42
0.000000001
 43
0.00000001
 40
0.0
 40
0.0
 40
0.0
 40
0.0
 40
1.0
 40
1.0
 40
1.0
 40
1.0
 10
25.39999999999969
 20
1.812282115155603
 30
0.0
 10
25.06764859335639
 20
1.985129007001715
 30
0.0
 10
24.7327215359104
 20
2.152624250335745
 30
0.0
 10
24.40000000000002
 20
2.312369452928793
 30
0.0
  0
SPLINE
  5
B2
330
1F
100
AcDbEntity
  8
외형선
  6
Continuous
370
    15
100
AcDbSpline
210
0.0
220
0.0
230
1.0
 70
     8
 71
     3
 72
     8
 73
     4
 74
     0
 42
0.000000001
 43
0.00000001
 40
0.0
 40
0.0
 40
0.0
 40
0.0
 40
1.0
 40
1.0
 40
1.0
 40
1.0
 10
25.39999999999495
 20
2.778156746730797
 30
0.0
 10
25.0676485933532
 20
2.921226006503873
 30
0.0
 10
24.73272153590882
 20
3.055778513263079
 30
0.0
 10
24.40000000000002
 20
3.179882916345176
 30
0.0
  0
LINE
  5
B3
330
1F
100
AcDbEntity
  8
외형선
  6
Continuous
370
    15
100
AcDbLine
 10
25.40000000000001
 20
2.778156746728615
 30
0.0
 11
25.40000000000001
 21
1.812282115155437
 31
0.0
  0
SPLINE
  5
B4
330
1F
100
AcDbEntity
  8
외형선
  6
Continuous
370
    15
100
AcDbSpline
210
0.0
220
0.0
230
1.0
 70
     8
 71
     3
 72
    10
 73
     6
 74
     0
 42
0.000000001
 43
0.00000001
 40
0.0
 40
0.0
 40
0.0
 40
0.0
 40
0.5
 40
0.5
 40
1.0
 40
1.0
 40
1.0
 40
1.0
 10
25.39999999999056
 20
-3.059040224818191
 30
0.0
 10
25.14690499451671
 20
-3.012555330426806
 30
0.0
 10
24.8923163692182
 20
-2.960317606124529
 30
0.0
 10
24.3843743983537
 20
-2.845165318998295
 30
0.0
 10
24.1321153456574
 20
-2.782351382661778
 30
0.0
 10
23.88008511026546
 20
-2.714564169008848
 30
0.0
  0
SPLINE
  5
B5
330
1F
100
AcDbEntity
  8
외형선
  6
Continuous
370
    15
100
AcDbSpline
210
0.0
220
0.0
230
1.0
 70
    24
 71
     3
 72
    14
 73
    10
 74
     0
 42
0.000000001
 43
0.00000001
 40
0.0
 40
0.0
 40
0.0
 40
0.0
 40
0.25
 40
0.25
 40
0.4999999999999999
 40
0.4999999999999999
 40
0.75
 40
0.75
 40
1.0
 40
1.0
 40
1.0
 40
1.0
 10
25.4
 20
1.159552286352432
 30
0.0
 10
25.4
 20
0.7973476597422772
 30
0.0
 10
25.4
 20
0.414776858368512
 30
0.0
 10
25.4
 20
-0.3585514431576631
 30
0.0
 10
25.4
 20
-0.7489489179695749
 30
0.0
 10
25.4
 20
-1.498714433909999
 30
0.0
 10
25.4
 20
-1.857682968625257
 30
0.0
 10
25.4
 20
-2.511256853489544
 30
0.0
 10
25.4
 20
-2.805670379837924
 30
0.0
 10
25.4
 20
-3.059040224819924
 30
0.0
  0
SPLINE
  5
B6
330
1F
100
AcDbEntity
  8
외형선
  6
Continuous
370
    15
100
AcDbSpline
210
0.0
220
0.0
230
1.0
 70
    24
 71
     3
 72
    11
 73
     7
 74
     0
 42
0.000000001
 43
0.00000001
 40
0.0
 40
0.0
 40
0.0
 40
0.0
 40
0.253160666732298
 40
0.640783354286773
 40
0.9803250926700474
 40
1.0
 40
1.0
 40
1.0
 40
1.0
 10
25.40000000000001
 20
3.240141179653518
 30
0.0
 10
25.40000000000001
 20
3.242292568688475
 30
0.0
 10
25.40000000000001
 20
3.247738020780182
 30
0.0
 10
25.40000000000001
 20
3.102660376327007
 30
0.0
 10
25.40000000000002
 20
2.95607520782934
 30
0.0
 10
25.40000000000001
 20
2.839493560778788
 30
0.0
 10
25.40000000000001
 20
2.833108185464293
 30
0.0
  0
SPLINE
  5
B7
330
1F
100
AcDbEntity
  8
외형선
  6
Continuous
370
    15
100
AcDbSpline
210
0.0
220
0.0
230
1.0
 70
    24
 71
     3
 72
    10
 73
     6
 74
     0
 42
0.000000001
 43
0.00000001
 40
0.0
 40
0.0
 40
0.0
 40
0.0
 40
0.4036377594379257
 40
0.8072755188758516
 40
1.0
 40
1.0
 40
1.0
 40
1.0
 10
25.40000000000001
 20
-3.059040224819927
 30
0.0
 10
25.40000000000001
 20
-3.102738013106579
 30
0.0
 10
25.40000000000001
 20
-3.190133589679883
 30
0.0
 10
25.40000000000001
 20
-3.252989375311051
 30
0.0
 10
25.40000000000001
 20
-3.243285907811495
 30
0.0
 10
25.40000000000001
 20
-3.240150069202406
 30
0.0
  0
SPLINE
  5
B8
330
1F
100
AcDbEntity
  8
0
  6
Continuous
 62
     1
370
    15
100
AcDbSpline
210
0.0
220
0.0
230
1.0
 70
     8
 71
     3
 72
    36
 73
    32
 74
     0
 42
0.000000001
 43
0.00000001
 40
0.0
 40
0.0
 40
0.0
 40
0.0
 40
0.1249999999999998
 40
0.1249999999999998
 40
0.1874999999999998
 40
0.1874999999999998
 40
0.2499999999999999
 40
0.2499999999999999
 40
0.3124999999999999
 40
0.3124999999999999
 40
0.3749999999999999
 40
0.3749999999999999
 40
0.4375
 40
0.4375
 40
0.5
 40
0.5
 40
0.5625
 40
0.5625
 40
0.625
 40
0.625
 40
0.6875
 40
0.6875
 40
0.75
 40
0.75
 40
0.8125000000000001
 40
0.8125000000000001
 40
0.8750000000000001
 40
0.8750000000000001
 40
0.9375000000000001
 40
0.9375000000000001
 40
1.0
 40
1.0
 40
1.0
 40
1.0
 10
39.68750000000001
 20
-4.163665456589778
 30
0.0
 10
39.09647761922449
 20
-4.149570519492839
 30
0.0
 10
38.49332321418993
 20
-4.092505297198593
 30
0.0
 10
37.60587904785586
 20
-3.946086414139303
 30
0.0
 10
37.3068908073301
 20
-3.88691687208529
 30
0.0
 10
36.70938313764786
 20
-3.74900764809211
 30
0.0
 10
36.41194956610927
 20
-3.670378615845444
 30
0.0
 10
35.81974225187493
 20
-3.495141957882511
 30
0.0
 10
35.52062214383496
 20
-3.398082948654066
 30
0.0
 10
34.92317483349847
 20
-3.187149398801303
 30
0.0
 10
34.62633641910917
 20
-3.073483801265029
 30
0.0
 10
34.03358052447533
 20
-2.831254725005671
 30
0.0
 10
33.73434369800727
 20
-2.702212140995687
 30
0.0
 10
33.13698691398727
 20
-2.431114798943484
 30
0.0
 10
32.84067106668226
 20
-2.28936677430547
 30
0.0
 10
32.24739597266945
 20
-1.994869410384279
 30
0.0
 10
31.94805759667754
 20
-1.841701468753272
 30
0.0
 10
31.35082149070721
 20
-1.52696789007104
 30
0.0
 10
31.05495553308717
 20
-1.365786382725284
 30
0.0
 10
30.46119070732405
 20
-1.036941445597687
 30
0.0
 10
30.16176596796278
 20
-0.8689796358612338
 30
0.0
 10
29.56468067146697
 20
-0.5297956505107825
 30
0.0
 10
29.26919185091375
 20
-0.3589994523995981
 30
0.0
 10
28.67496684280669
 20
-0.0158326042594392
 30
0.0
 10
28.3754709409069
 20
0.1566874418057874
 30
0.0
 10
27.77856655993848
 20
0.4996485932859801
 30
0.0
 10
27.48338206075709
 20
0.66966583599341
 30
0.0
 10
26.88872649663113
 20
1.006244793036044
 30
0.0
 10
26.58917464512071
 20
1.172807757826259
 30
0.0
 10
25.99248125530591
 20
1.498646865397813
 30
0.0
 10
25.69752821088848
 20
1.657545816585231
 30
0.0
 10
25.39999999999495
 20
1.81228211515807
 30
0.0
1001
PE_URL
1000

  0
SPLINE
  5
B9
330
1F
100
AcDbEntity
  8
0
  6
Continuous
 62
     1
370
    15
100
AcDbSpline
210
0.0
220
0.0
230
1.0
 70
     8
 71
     3
 72
    11
 73
     7
 74
     0
 42
0.000000001
 43
0.00000001
 40
0.0
 40
0.0
 40
0.0
 40
0.0
 40
0.0494856839645228
 40
0.3838360791543846
 40
0.6919092191881494
 40
1.0
 40
1.0
 40
1.0
 40
1.0
 10
29.34445886272159
 20
-0.3994497878163573
 30
0.0
 10
29.2793896577832
 20
-0.3737689852822396
 30
0.0
 10
28.77467988121129
 20
-0.1745756476434078
 30
0.0
 10
27.86466023638835
 20
0.1968944623005065
 30
0.0
 10
26.61514946949239
 20
0.6989538830489515
 30
0.0
 10
25.80505755414352
 20
1.006016554849001
 30
0.0
 10
25.40000000000001
 20
1.159552286352427
 30
0.0
1001
PE_URL
1000

  0
SPLINE
  5
BA
330
1F
100
AcDbEntity
  8
외형선
  6
Continuous
370
    15
100
AcDbSpline
210
0.0
220
0.0
230
1.0
 70
    24
 71
     3
 72
    10
 73
     6
 74
     0
 42
0.000000001
 43
0.00000001
 40
0.0
 40
0.0
 40
0.0
 40
0.0
 40
0.5
 40
0.5
 40
1.0
 40
1.0
 40
1.0
 40
1.0
 10
25.40000000000002
 20
1.812282115155435
 30
0.0
 10
25.40000000000002
 20
1.778322151964701
 30
0.0
 10
25.40000000000002
 20
1.70069534347735
 30
0.0
 10
25.40000000000002
 20
1.472851925750038
 30
0.0
 10
25.40000000000002
 20
1.323517968755837
 30
0.0
 10
25.40000000000002
 20
1.159552286352425
 30
0.0
  0
SPLINE
  5
BB
330
1F
100
AcDbEntity
  8
0
  6
Continuous
 62
     1
370
    15
100
AcDbSpline
210
0.0
220
0.0
230
1.0
 70
     8
 71
     3
 72
    36
 73
    32
 74
     0
 42
0.000000001
 43
0.00000001
 40
0.0
 40
0.0
 40
0.0
 40
0.0
 40
0.1250000000000001
 40
0.1250000000000001
 40
0.1875000000000001
 40
0.1875000000000001
 40
0.2500000000000001
 40
0.2500000000000001
 40
0.3125
 40
0.3125
 40
0.3750000000000001
 40
0.3750000000000001
 40
0.4375000000000001
 40
0.4375000000000001
 40
0.5000000000000001
 40
0.5000000000000001
 40
0.5625000000000001
 40
0.5625000000000001
 40
0.6250000000000001
 40
0.6250000000000001
 40
0.6875000000000002
 40
0.6875000000000002
 40
0.7500000000000002
 40
0.7500000000000002
 40
0.8125000000000002
 40
0.8125000000000002
 40
0.8750000000000001
 40
0.8750000000000001
 40
0.9375000000000001
 40
0.9375000000000001
 40
1.0
 40
1.0
 40
1.0
 40
1.0
 10
39.68750000000002
 20
-3.954414528502307
 30
0.0
 10
39.09647761922437
 20
-3.846246195457349
 30
0.0
 10
38.4933232141897
 20
-3.696633291360307
 30
0.0
 10
37.60587904785548
 20
-3.419683535369065
 30
0.0
 10
37.30689080732965
 20
-3.318080154235204
 30
0.0
 10
36.70938313764731
 20
-3.098453684263789
 30
0.0
 10
36.41194956610869
 20
-2.980588214566335
 30
0.0
 10
35.8197422518742
 20
-2.730692790650325
 30
0.0
 10
35.52062214383418
 20
-2.598033738115222
 30
0.0
 10
34.92317483349758
 20
-2.320207937915851
 30
0.0
 10
34.62633641910824
 20
-2.175299089896034
 30
0.0
 10
34.03358052447428
 20
-1.87533171738348
 30
0.0
 10
33.73434369800616
 20
-1.71969491300079
 30
0.0
 10
33.13698691398605
 20
-1.400605475761098
 30
0.0
 10
32.84067106668101
 20
-1.237496898957689
 30
0.0
 10
32.24739597266808
 20
-0.905711332549305
 30
0.0
 10
31.9480575966761
 20
-0.7365783261126954
 30
0.0
 10
31.35082149070567
 20
-0.3956751419402255
 30
0.0
 10
31.05495553308559
 20
-0.2243038055827547
 30
0.0
 10
30.46119070732234
 20
0.1190946835895788
 30
0.0
 10
30.16176596796102
 20
0.2914169717090792
 30
0.0
 10
29.5646806714651
 20
0.6333567010870402
 30
0.0
 10
29.26919185091185
 20
0.8025627140427513
 30
0.0
 10
28.67496684280465
 20
1.136649128539268
 30
0.0
 10
28.37547094090481
 20
1.30165720740578
 30
0.0
 10
27.77856655993629
 20
1.623796701003448
 30
0.0
 10
27.48338206075485
 20
1.780549411648664
 30
0.0
 10
26.88872649662876
 20
2.084955495734583
 30
0.0
 10
26.58917464511828
 20
2.232590237987703
 30
0.0
 10
25.99248125530339
 20
2.515304273262058
 30
0.0
 10
25.69752821088591
 20
2.65007803232461
 30
0.0
 10
25.39999999999232
 20
2.778156746731927
 30
0.0
1001
PE_URL
1000

  0
SPLINE
  5
BC
330
1F
100
AcDbEntity
  8
0
  6
Continuous
 62
     1
370
    15
100
AcDbSpline
210
0.0
220
0.0
230
1.0
 70
     8
 71
     3
 72
    16
 73
    12
 74
     0
 42
0.000000001
 43
0.00000001
 40
0.0
 40
0.0
 40
0.0
 40
0.0
 40
0.1218515951976557
 40
0.2435149034098859
 40
0.3651704540937885
 40
0.486998904966957
 40
0.6088722608110443
 40
0.7305446534453821
 40
0.8521937744388159
 40
0.9740003878395403
 40
1.0
 40
1.0
 40
1.0
 40
1.0
 10
39.68750000000001
 20
-3.287795357921926
 30
0.0
 10
39.24796170588414
 20
-3.197050339082833
 30
0.0
 10
38.36956429907995
 20
-3.015700522023113
 30
0.0
 10
37.05278929369919
 20
-2.613887602430936
 30
0.0
 10
35.73609852887188
 20
-2.133026924027095
 30
0.0
 10
34.41826855919504
 20
-1.579461853965422
 30
0.0
 10
33.10023597464611
 20
-0.9745178618730229
 30
0.0
 10
31.7833672534251
 20
-0.3354562979954569
 30
0.0
 10
30.46674955434903
 20
0.3112723719098217
 30
0.0
 10
29.49487306457178
 20
0.7896661373017417
 30
0.0
 10
28.96171445797867
 20
1.032684133778353
 30
0.0
 10
28.86793006602359
 20
1.075431816647695
 30
0.0
1001
PE_URL
1000

  0
LINE
  5
BD
330
1F
100
AcDbEntity
  8
0
  6
Continuous
 62
     1
370
    15
100
AcDbLine
 10
39.68749999999994
 20
-3.954414528502309
 30
0.0
 11
39.68750000000001
 21
-3.287795357921926
 31
0.0
1001
PE_URL
1000

  0
LINE
  5
BE
330
1F
100
AcDbEntity
  8
0
  6
Continuous
 62
     1
370
    15
100
AcDbLine
 10
39.68750000000001
 20
-4.163665456589779
 30
0.0
 11
39.68749999999993
 21
-3.954414528502304
 31
0.0
1001
PE_URL
1000

  0
SPLINE
  5
BF
330
1F
100
AcDbEntity
  8
0
  6
Continuous
 62
     1
370
    15
100
AcDbSpline
210
0.0
220
0.0
230
1.0
 70
     8
 71
     3
 72
     8
 73
     4
 74
     0
 42
0.000000001
 43
0.00000001
 40
0.0
 40
0.0
 40
0.0
 40
0.0
 40
1.0
 40
1.0
 40
1.0
 40
1.0
 10
37.10875952196392
 20
1.165930727621649
 30
0.0
 10
36.96066872780013
 20
1.341394103368312
 30
0.0
 10
36.82862535279112
 20
1.510125201973842
 30
0.0
 10
36.7163409057947
 20
1.670566956473068
 30
0.0
1001
PE_URL
1000

  0
LINE
  5
C0
330
1F
100
AcDbEntity
  8
0
  6
Continuous
 62
     1
370
    15
100
AcDbLine
 10
36.76899554996314
 20
1.714749448974582
 30
0.0
 11
39.68750000000001
 21
0.0000000000000014
 31
0.0
1001
PE_URL
1000

  0
LINE
  5
C1
330
1F
100
AcDbEntity
  8
0
  6
Continuous
 62
     1
370
    15
100
AcDbLine
 10
39.68750000000001
 20
0.0000000000000014
 30
0.0
 11
39.68750000000001
 21
-1.113651464157909
 31
0.0
1001
PE_URL
1000

  0
SPLINE
  5
C2
330
1F
100
AcDbEntity
  8
0
  6
Continuous
 62
     1
370
    15
100
AcDbSpline
210
0.0
220
0.0
230
1.0
 70
     8
 71
     3
 72
    12
 73
     8
 74
     0
 42
0.000000001
 43
0.00000001
 40
0.0
 40
0.0
 40
0.0
 40
0.0
 40
0.5000000000000006
 40
0.5000000000000006
 40
0.7500000000000002
 40
0.7500000000000002
 40
1.0
 40
1.0
 40
1.0
 40
1.0
 10
39.68750000000002
 20
-1.113651464157911
 30
0.0
 10
39.24110779103535
 20
-0.7627110357180481
 30
0.0
 10
38.80217385000385
 20
-0.3973794101440674
 30
0.0
 10
38.15524388017434
 20
0.1727519318326126
 30
0.0
 10
37.94154665866498
 20
0.366550838269329
 30
0.0
 10
37.51852256393367
 20
0.7625815130769973
 30
0.0
 10
37.31034782117013
 20
0.9637792197434034
 30
0.0
 10
37.10875952196392
 20
1.165930727621652
 30
0.0
1001
PE_URL
1000

  0
SPLINE
  5
C3
330
1F
100
AcDbEntity
  8
0
  6
Continuous
 62
     1
370
    15
100
AcDbSpline
210
0.0
220
0.0
230
1.0
 70
     8
 71
     3
 72
    15
 73
    11
 74
     0
 42
0.000000001
 43
0.00000001
 40
0.0
 40
0.0
 40
0.0
 40
0.0
 40
0.1429931410786658
 40
0.2803533408910313
 40
0.4177648950188455
 40
0.5549466975991565
 40
0.6921018850690437
 40
0.829437111210653
 40
0.9668688896927645
 40
1.0
 40
1.0
 40
1.0
 40
1.0
 10
37.10875952196392
 20
1.165930727621649
 30
0.0
 10
36.65140406662152
 20
1.359913609215772
 30
0.0
 10
35.75470979924097
 20
1.740237787846572
 30
0.0
 10
34.41825496051865
 20
2.235239871900792
 30
0.0
 10
33.10023521985995
 20
2.651957322774822
 30
0.0
 10
31.78335110259787
 20
2.979688932069514
 30
0.0
 10
30.46670202572887
 20
3.210668796360014
 30
0.0
 10
29.14901408396214
 20
3.326726087886444
 30
0.0
 10
28.16377940576758
 20
3.353550617095316
 30
0.0
 10
27.61829431409057
 20
3.310657366221438
 30
0.0
 10
27.51233617236593
 20
3.302325536031264
 30
0.0
1001
PE_URL
1000

  0
SPLINE
  5
C4
330
1F
100
AcDbEntity
  8
0
  6
Continuous
 62
     1
370
    15
100
AcDbSpline
210
0.0
220
0.0
230
1.0
 70
    24
 71
     3
 72
    10
 73
     6
 74
     0
 42
0.000000001
 43
0.00000001
 40
0.0
 40
0.0
 40
0.0
 40
0.0
 40
0.5
 40
0.5
 40
1.0
 40
1.0
 40
1.0
 40
1.0
 10
39.68750000000001
 20
-3.287795357921925
 30
0.0
 10
39.68750000000001
 20
-3.035760210114295
 30
0.0
 10
39.68750000000002
 20
-2.717304136841489
 30
0.0
 10
39.68750000000001
 20
-1.976924414460725
 30
0.0
 10
39.68750000000001
 20
-1.55564211034038
 30
0.0
 10
39.68750000000001
 20
-1.113651464158044
 30
0.0
1001
PE_URL
1000

  0
SPLINE
  5
C5
330
1F
100
AcDbEntity
  8
외형선
  6
Continuous
370
    15
100
AcDbSpline
210
0.0
220
0.0
230
1.0
 70
    24
 71
     3
 72
    11
 73
     7
 74
     0
 42
0.000000001
 43
0.00000001
 40
0.0
 40
0.0
 40
0.0
 40
0.0
 40
0.2562932291905023
 40
0.6422900619929672
 40
0.9804076176166134
 40
1.0
 40
1.0
 40
1.0
 40
1.0
 10
25.40000000000002
 20
3.240294207959169
 30
0.0
 10
25.40000000000002
 20
3.242530942962969
 30
0.0
 10
25.40000000000002
 20
3.248136368704375
 30
0.0
 10
25.40000000000002
 20
3.102725116320995
 30
0.0
 10
25.40000000000002
 20
2.956074591213708
 30
0.0
 10
25.40000000000002
 20
2.839493528759453
 30
0.0
 10
25.40000000000002
 20
2.833108185464294
 30
0.0
  0
SPLINE
  5
C6
330
1F
100
AcDbEntity
  8
0
  6
Continuous
 62
     1
370
    15
100
AcDbSpline
210
0.0
220
0.0
230
1.0
 70
    24
 71
     3
 72
     8
 73
     4
 74
     0
 42
0.000000001
 43
0.00000001
 40
0.0
 40
0.0
 40
0.0
 40
0.0
 40
1.0
 40
1.0
 40
1.0
 40
1.0
 10
37.15113194379332
 20
2.035399956095078
 30
0.0
 10
37.0136169328873
 20
1.9200111611625
 30
0.0
 10
36.8682230760994
 20
1.798011229558141
 30
0.0
 10
36.71634090579476
 20
1.670566956473116
 30
0.0
1001
PE_URL
1000

  0
SPLINE
  5
C7
330
1F
100
AcDbEntity
  8
0
  6
Continuous
 62
     1
370
    15
100
AcDbSpline
210
0.0
220
0.0
230
1.0
 70
     8
 71
     3
 72
     9
 73
     5
 74
     0
 42
0.000000001
 43
0.00000001
 40
0.0
 40
0.0
 40
0.0
 40
0.0
 40
0.8503543774020355
 40
1.0
 40
1.0
 40
1.0
 40
1.0
 10
39.68750000000001
 20
2.917031249999999
 30
0.0
 10
39.24795454373546
 20
2.914401508873833
 30
0.0
 10
38.73105774406538
 20
2.911308985102507
 30
0.0
 10
38.21428972255684
 20
2.852083123580712
 30
0.0
 10
38.13695765023947
 20
2.843220232659381
 30
0.0
1001
PE_URL
1000

  0
SPLINE
  5
C8
330
1F
100
AcDbEntity
  8
0
  6
Continuous
 62
     1
370
    15
100
AcDbSpline
210
0.0
220
0.0
230
1.0
 70
     8
 71
     3
 72
    10
 73
     6
 74
     0
 42
0.000000001
 43
0.00000001
 40
0.0
 40
0.0
 40
0.0
 40
0.0
 40
0.5
 40
0.5
 40
1.0
 40
1.0
 40
1.0
 40
1.0
 10
39.68750000000001
 20
2.917031250000001
 30
0.0
 10
39.25886427350984
 20
2.800732904691761
 30
0.0
 10
38.83283347788314
 20
2.670270107168914
 30
0.0
 10
37.98650371116338
 20
2.378177406751074
 30
0.0
 10
37.56614053853907
 20
2.217061635923944
 30
0.0
 10
37.15113194380046
 20
2.035399956099498
 30
0.0
1001
PE_URL
1000

  0
SPLINE
  5
C9
330
1F
100
AcDbEntity
  8
0
  6
Continuous
 62
     1
370
    15
100
AcDbSpline
210
0.0
220
0.0
230
1.0
 70
     8
 71
     3
 72
    12
 73
     8
 74
     0
 42
0.000000001
 43
0.00000001
 40
0.0
 40
0.0
 40
0.0
 40
0.0
 40
0.0724085814103249
 40
0.3136555995297391
 40
0.5550722242744381
 40
0.7775299073467814
 40
1.0
 40
1.0
 40
1.0
 40
1.0
 10
30.86275251985839
 20
-3.122954313039917
 30
0.0
 10
30.73091649381607
 20
-3.146842729986325
 30
0.0
 10
30.15983628505474
 20
-3.250321290029946
 30
0.0
 10
29.14898978109751
 20
-3.327348072641858
 30
0.0
 10
27.86462965830417
 20
-3.343415064604495
 30
0.0
 10
26.61515550312636
 20
-3.256873476627025
 30
0.0
 10
25.80505936590011
 20
-3.124985868257963
 30
0.0
 10
25.40000000000001
 20
-3.059040224819927
 30
0.0
1001
PE_URL
1000

  0
SPLINE
  5
CA
330
1F
100
AcDbEntity
  8
외형선
  6
Continuous
370
    15
100
AcDbSpline
210
0.0
220
0.0
230
1.0
 70
    24
 71
     3
 72
    14
 73
    10
 74
     0
 42
0.000000001
 43
0.00000001
 40
0.0
 40
0.0
 40
0.0
 40
0.0
 40
0.25
 40
0.25
 40
0.5
 40
0.5
 40
0.75
 40
0.75
 40
1.0
 40
1.0
 40
1.0
 40
1.0
 10
25.40000000000001
 20
1.159552286352431
 30
0.0
 10
25.40000000000001
 20
0.7973476597422762
 30
0.0
 10
25.40000000000001
 20
0.414776858368511
 30
0.0
 10
25.40000000000001
 20
-0.358551443157664
 30
0.0
 10
25.40000000000001
 20
-0.748948917969576
 30
0.0
 10
25.40000000000001
 20
-1.49871443391
 30
0.0
 10
25.40000000000001
 20
-1.857682968625257
 30
0.0
 10
25.40000000000001
 20
-2.511256853489543
 30
0.0
 10
25.40000000000001
 20
-2.805670379837923
 30
0.0
 10
25.40000000000001
 20
-3.059040224819924
 30
0.0
  0
LINE
  5
CB
330
1F
100
AcDbEntity
  8
0
  6
Continuous
 62
     1
370
    15
100
AcDbLine
 10
39.68750000000001
 20
0.0000000000000014
 30
0.0
 11
39.68750000000001
 21
2.91703125
 31
0.0
1001
PE_URL
1000

  0
SPLINE
  5
CC
330
1F
100
AcDbEntity
  8
외형선
  6
Continuous
370
    15
100
AcDbSpline
210
0.0
220
0.0
230
1.0
 70
    24
 71
     3
 72
    10
 73
     6
 74
     0
 42
0.000000001
 43
0.00000001
 40
0.0
 40
0.0
 40
0.0
 40
0.0
 40
0.4061565889435978
 40
0.8123131778871956
 40
1.0
 40
1.0
 40
1.0
 40
1.0
 10
25.40000000000002
 20
-3.059040224819928
 30
0.0
 10
25.40000000000002
 20
-3.102717313392504
 30
0.0
 10
25.40000000000002
 20
-3.190071490537659
 30
0.0
 10
25.40000000000002
 20
-3.252792292670915
 30
0.0
 10
25.40000000000002
 20
-3.243295660369441
 30
0.0
 10
25.40000000000002
 20
-3.240294207959171
 30
0.0
  0
SPLINE
  5
CD
330
1F
100
AcDbEntity
  8
0
  6
Continuous
 62
     1
370
    15
100
AcDbSpline
210
0.0
220
0.0
230
1.0
 70
     8
 71
     3
 72
    11
 73
     7
 74
     0
 42
0.000000001
 43
0.00000001
 40
0.0
 40
0.0
 40
0.0
 40
0.0
 40
0.1731792685913856
 40
0.4487129836862379
 40
0.724312780071475
 40
0.9999999999999999
 40
0.9999999999999999
 40
0.9999999999999999
 40
0.9999999999999999
 10
33.98337409144555
 20
2.792397828706277
 30
0.0
 10
34.31262797984687
 20
2.934126082341739
 30
0.0
 10
35.16573525912196
 20
3.30134848764858
 30
0.0
 10
36.54287508931529
 20
3.72614624316749
 30
0.0
 10
38.11497456398118
 20
4.070016953939969
 30
0.0
 10
39.16326944150907
 20
4.132445989024125
 30
0.0
 10
39.68750000000001
 20
4.163665456589777
 30
0.0
1001
PE_URL
1000

  0
SPLINE
  5
CE
330
1F
100
AcDbEntity
  8
0
  6
Continuous
 62
     1
370
    15
100
AcDbSpline
210
0.0
220
0.0
230
1.0
 70
    24
 71
     3
 72
    10
 73
     6
 74
     0
 42
0.000000001
 43
0.00000001
 40
0.0
 40
0.0
 40
0.0
 40
0.0
 40
0.5
 40
0.5
 40
1.0
 40
1.0
 40
1.0
 40
1.0
 10
39.68750000000001
 20
2.917031249999999
 30
0.0
 10
39.68750000000001
 20
3.093854420164226
 30
0.0
 10
39.68750000000002
 20
3.299339319482189
 30
0.0
 10
39.68750000000001
 20
3.730446084816561
 30
0.0
 10
39.68750000000001
 20
3.954966958253944
 30
0.0
 10
39.68750000000001
 20
4.163665456589777
 30
0.0
1001
PE_URL
1000

  0
LINE
  5
CF
330
1F
100
AcDbEntity
  8
중심선
 62
     1
100
AcDbLine
 10
-42.68750000000001
 20
-0.0000000000000052
 30
0.0
 11
42.6875
 21
0.0000000000000052
 31
0.0
  0
LINE
  5
D0
330
1F
100
AcDbEntity
  8
참조1
100
AcDbLine
 10
-0.0000000000000018
 20
-0.0000000000000048
 30
0.0
 11
0.0000000000000036
 21
-40.00000000000001
 31
0.0
  0
LINE
  5
D1
330
1F
100
AcDbEntity
  8
참조1
100
AcDbLine
 10
0.0000000000000036
 20
-40.00000000000001
 30
0.0
 11
-14.46571559669921
 21
-40.0
 31
0.0
  0
CIRCLE
  5
D2
330
1F
100
AcDbEntity
  8
해칭선
100
AcDbCircle
 10
0.0
 20
0.0
 30
0.0
 40
3.000000000000002
  0
INSERT
  5
D3
330
1F
100
AcDbEntity
  8
0
  6
Continuous
 62
     7
100
AcDbBlockReference
 66
     1
  2
블럭10
 10
-13.94027293212521
 20
-52.04717430164393
 30
0.0
  0
ATTRIB
  5
D4
330
D3
100
AcDbEntity
  8
FORMAT
 62
     2
100
AcDbText
 10
-23.12156822086649
 20
-49.97180738881174
 30
0.0
 40
4.233333333333333
  1
E2050021 [ 2 FLUTE ]
 41
0.75
  7
SLDTEXTSTYLE0
 11
-23.12156822086649
 21
-52.08847405547841
 31
0.0
100
AcDbAttribute
  2
AUTOATTR0
 70
     0
 74
     1
  0
SEQEND
  5
D5
330
D3
100
AcDbEntity
  8
0
  6
Continuous
 62
     7
  0
HATCH
  5
D6
330
1F
100
AcDbEntity
  8
중심선
100
AcDbHatch
 10
0.0
 20
0.0
 30
0.0
210
0.0
220
0.0
230
1.0
  2
SOLID
 70
     1
 71
     0
 91
        1
 92
        0
 93
        4
 72
     1
 10
-8.225363627744372
 20
-35.8
 11
-11.67163887158165
 21
-35.8
 72
     1
 10
-11.67163887158165
 20
-35.8
 11
-13.79986873078568
 21
-38.3363255805726
 72
     1
 10
-13.79986873078568
 20
-38.3363255805726
 11
-10.35356040183525
 21
-38.33628615127011
 72
     1
 10
-10.35356040183525
 20
-38.33628615127011
 11
-8.225363627744372
 21
-35.8
 97
        0
 75
     0
 76
     1
 98
        1
 10
14.99421167873052
 20
-0.001074928723894
  0
HATCH
  5
D7
330
1F
100
AcDbEntity
  8
중심선
100
AcDbHatch
 10
0.0
 20
0.0
 30
0.0
210
0.0
220
0.0
230
1.0
  2
SOLID
 70
     1
 71
     0
 91
        1
 92
        0
 93
        4
 72
     1
 10
-3.212599636708418
 20
-35.80000000000003
 11
-6.658874880545675
 21
-35.8
 72
     1
 10
-6.658874880545675
 20
-35.8
 11
-11.19001288890309
 21
-41.20000000000002
 72
     1
 10
-11.19001288890309
 20
-41.20000000000002
 11
-7.743737645065806
 21
-41.20000000000002
 72
     1
 10
-7.743737645065806
 20
-41.20000000000002
 11
-3.212599636708418
 21
-35.80000000000003
 97
        0
 75
     0
 76
     1
 98
        1
 10
14.99421167873052
 20
-0.001074928723894
  0
HATCH
  5
D8
330
1F
100
AcDbEntity
  8
중심선
100
AcDbHatch
 10
0.0
 20
0.0
 30
0.0
210
0.0
220
0.0
230
1.0
  2
SOLID
 70
     1
 71
     0
 91
        1
 92
        0
 93
        4
 72
     1
 10
1.800164354327476
 20
-35.8
 11
-1.646110889509639
 21
-35.8
 72
     1
 10
-1.646110889509639
 20
-35.8
 11
-8.69454779139889
 21
-44.20000000000002
 72
     1
 10
-8.69454779139889
 20
-44.20000000000002
 11
-5.248272547561605
 21
-44.20000000000002
 72
     1
 10
-5.248272547561605
 20
-44.20000000000002
 11
1.800164354327476
 21
-35.8
 97
        0
 75
     0
 76
     1
 98
        1
 10
14.99421167873052
 20
-0.001074928723894
  0
HATCH
  5
D9
330
1F
100
AcDbEntity
  8
중심선
100
AcDbHatch
 10
0.0
 20
0.0
 30
0.0
210
0.0
220
0.0
230
1.0
  2
SOLID
 70
     1
 71
     0
 91
        1
 92
        0
 93
        6
 72
     3
 10
6.600054785339676
 20
-40.00000000005127
 11
3.960054785062283
 21
1.540882976769353E-10
 40
0.3939339440162628
 50
17.09539180608436
 51
320.0019657685077
 73
     0
 72
     1
 10
8.283054441040242
 20
-38.5878940046383
 11
10.58835631474131
 21
-36.65356729459035
 72
     3
 10
6.600054785286829
 20
-40.00000000000015
 11
6.600054785286829
 21
-1.278976924368180E-13
 40
0.636358354079598
 50
39.99873849337431
 51
368.4976242363724
 73
     1
 72
     1
 10
13.02538727718744
 20
-39.03999999993002
 11
5.280122092122751
 21
-39.03999999993
 72
     1
 10
5.280122092122751
 20
-39.03999999993
 11
5.280097047676817
 21
-40.95999999992991
 72
     1
 10
5.280097047676817
 20
-40.95999999992991
 11
9.721476817148854
 21
-40.95999999992988
 97
        0
 75
     0
 76
     1
 98
        1
 10
14.99421167873052
 20
-0.001074928723894
  0
DIMENSION
  5
DA
330
1F
100
AcDbEntity
  8
치수문자_일반주서
100
AcDbDimension
  2
_D
 10
-49.68749999999996
 20
-4.762500000000102
 30
0.0
 11
-49.68750000000006
 21
24.49149999999996
 31
0.0
 70
   160
  1
%%c<>
 71
     2
 42
9.524999999999995
 52
-270.0
  3
SLDDIMSTYLE0
100
AcDbAlignedDimension
 13
-22.17826350361915
 23
4.762499999999994
 33
0.0
 14
-22.17826350361911
 24
-4.762500000000001
 34
0.0
 50
90.0000000000002
100
AcDbRotatedDimension
1001
PE_URL
1000

1001
ACAD
1000
DSTYLE
1002
{
1070
   171
1070
     8
1070
   273
1070
     7
1002
}
  0
DIMENSION
  5
EF
330
1F
100
AcDbEntity
  8
치수문자_일반주서
100
AcDbDimension
  2
_D_1
 10
80.4505016589839
 20
4.163665456589932
 30
0.0
 11
80.45050165898382
 21
26.08016545658993
 31
0.0
 70
   160
  1
%%c<>
 71
     2
 42
8.327330913179557
 52
-270.0
  3
SLDDIMSTYLE0
100
AcDbAlignedDimension
 13
39.68750000000001
 23
-4.163665456589779
 33
0.0
 14
39.68750000000001
 24
4.163665456589777
 34
0.0
 50
90.0000000000002
100
AcDbRotatedDimension
1001
PE_URL
1000

1001
ACAD
1000
DSTYLE
1002
{
1070
   171
1070
     8
1070
   273
1070
     7
1002
}
  0
DIMENSION
  5
103
330
1F
100
AcDbEntity
  8
치수문자_일반주서
100
AcDbDimension
  2
_D_2
 10
25.40000000000002
 20
14.76250000000001
 30
0.0
 11
59.85400000000001
 21
14.76250000000001
 31
0.0
 70
   160
  1
<>
 71
     2
 42
14.28749999999999
  3
SLDDIMSTYLE0
100
AcDbAlignedDimension
 13
39.68750000000001
 23
4.163665456589777
 33
0.0
 14
25.40000000000002
 24
3.254355887204972
 34
0.0
 50
0.0000000000000285
100
AcDbRotatedDimension
1001
PE_URL
1000

1001
ACAD
1000
DSTYLE
1002
{
1070
   171
1070
     8
1070
   273
1070
     7
1002
}
  0
DIMENSION
  5
117
330
1F
100
AcDbEntity
  8
치수문자_일반주서
100
AcDbDimension
  2
_D_3
 10
39.68750000000001
 20
24.76249999999999
 30
0.0
 11
0.0000000000000071
 21
24.76249999999999
 31
0.0
 70
   160
  1
<>
 71
     2
 42
79.375
  3
SLDDIMSTYLE0
100
AcDbAlignedDimension
 13
-39.68749999999999
 23
4.163665456589708
 33
0.0
 14
39.68750000000001
 24
4.163665456589777
 34
0.0
100
AcDbRotatedDimension
1001
PE_URL
1000

1001
ACAD
1000
DSTYLE
1002
{
1070
   171
1070
     8
1070
   273
1070
     7
1002
}
  0
LINE
  5
12A
330
1F
100
AcDbEntity
  8
참조1
100
AcDbLine
 10
83.50662503295506
 20
7.440000000000001
 30
0.0
 11
83.50662503295506
 21
-7.440000000000003
 31
0.0
  0
LINE
  5
12B
330
1F
100
AcDbEntity
  8
참조1
100
AcDbLine
 10
96.20662503295506
 20
5.440000000000001
 30
0.0
 11
83.50662503295506
 21
5.440000000000001
 31
0.0
  0
SOLID
  5
12C
330
1F
100
AcDbEntity
  8
참조1
100
AcDbTrace
 10
83.50662503295506
 20
5.440000000000001
 30
0.0
 11
89.85662503295505
 21
4.424000000000001
 31
0.0
 12
89.85662503295505
 22
6.456000000000001
 32
0.0
 13
89.85662503295505
 23
6.456000000000001
 33
0.0
  0
LINE
  5
12D
330
1F
100
AcDbEntity
  8
참조1
100
AcDbLine
 10
96.20662503295506
 20
-5.440000000000003
 30
0.0
 11
83.50662503295506
 21
-5.440000000000003
 31
0.0
  0
SOLID
  5
12E
330
1F
100
AcDbEntity
  8
참조1
100
AcDbTrace
 10
83.50662503295506
 20
-5.440000000000003
 30
0.0
 11
89.85662503295505
 21
-6.456000000000003
 31
0.0
 12
89.85662503295505
 22
-4.424000000000003
 32
0.0
 13
89.85662503295505
 23
-4.424000000000003
 33
0.0
  0
MTEXT
  5
12F
330
1F
100
AcDbEntity
  8
참조1
100
AcDbMText
 10
92.89097516558105
 20
11.01029177718833
 30
0.0
 40
3.5
 41
0.0
 71
     1
 72
     1
  1
A
  7
SLDTEXTSTYLE0
 73
     1
 44
1.0
  0
MTEXT
  5
130
330
1F
100
AcDbEntity
  8
참조1
100
AcDbMText
 10
92.89097516558105
 20
0.1302917771883252
 30
0.0
 40
3.5
 41
0.0
 71
     1
 72
     1
  1
A
  7
SLDTEXTSTYLE0
 73
     1
 44
1.0
  0
INSERT
  5
137
330
1F
100
AcDbEntity
  8
해칭선
100
AcDbBlockReference
  2
SW_DOWELSYMBOL_0
 10
0.0
 20
0.0
 30
0.0
  0
LINE
  5
1DF
330
1F
100
AcDbEntity
  8
외형선
  6
Continuous
370
    15
100
AcDbLine
 10
-3.568700000000049
 20
3.492500000000014
 30
0.0
 11
3.568700000000078
 21
3.492500000000014
 31
0.0
1001
PE_URL
1000

  0
LINE
  5
1E0
330
1F
100
AcDbEntity
  8
외형선
  6
Continuous
370
    15
100
AcDbLine
 10
-3.568700000000049
 20
3.492500000000014
 30
0.0
 11
-4.838700000000031
 21
4.762499999999996
 31
0.0
1001
PE_URL
1000

  0
LINE
  5
1E1
330
1F
100
AcDbEntity
  8
외형선
  6
Continuous
370
    15
100
AcDbLine
 10
3.568700000000078
 20
3.492500000000014
 30
0.0
 11
4.838700000000173
 21
4.762499999999996
 31
0.0
1001
PE_URL
1000

  0
LINE
  5
21B
330
1F
100
AcDbEntity
  8
외형선
  6
Continuous
370
    15
100
AcDbLine
 10
-22.17826350361915
 20
4.76249999999999
 30
0.0
 11
-23.88006158810884
 21
4.306504577580139
 31
0.0
  0
LINE
  5
21C
330
1F
100
AcDbEntity
  8
외형선
  6
Continuous
370
    15
100
AcDbLine
 10
-23.88006158810881
 20
-4.306504577580167
 30
0.0
 11
-22.17826350361911
 21
-4.762500000000006
 31
0.0
  0
SPLINE
  5
21D
330
1F
100
AcDbEntity
  8
외형선
  6
Continuous
370
    15
100
AcDbSpline
210
0.0
220
0.0
230
1.0
 70
     8
 71
     3
 72
     9
 73
     5
 74
     0
 42
0.000000001
 43
0.00000001
 40
0.0
 40
0.0
 40
0.0
 40
0.0
 40
0.461328405220277
 40
1.0
 40
1.0
 40
1.0
 40
1.0
 10
-25.39999999999996
 20
-3.254007925415166
 30
0.0
 10
-25.24393931160542
 20
-3.254548195450866
 30
0.0
 10
-24.90565385892442
 20
-3.255719313529855
 30
0.0
 10
-24.5544760233775
 20
-3.263734707496525
 30
0.0
 10
-24.36530649865215
 20
-3.268052372547341
 30
0.0
  0
SPLINE
  5
21E
330
1F
100
AcDbEntity
  8
외형선
  6
Continuous
370
    15
100
AcDbSpline
210
0.0
220
0.0
230
1.0
 70
     8
 71
     3
 72
    16
 73
    12
 74
     0
 42
0.000000001
 43
0.00000001
 40
0.0
 40
0.0
 40
0.0
 40
0.0
 40
0.0044680360691017
 40
0.0326563556735389
 40
0.120833356305319
 40
0.5000382679166963
 40
0.8791833508217236
 40
0.9673123559779397
 40
0.9889124384594936
 40
0.9955351188379036
 40
0.9999999999999999
 40
0.9999999999999999
 40
0.9999999999999999
 40
0.9999999999999999
 10
-24.36702051735237
 20
-3.267724071636859
 30
0.0
 10
-24.36599918053357
 20
-3.267897569555046
 30
0.0
 10
-24.35853434858022
 20
-3.269165645648737
 30
0.0
 10
-24.33471422746605
 20
-3.286251004033463
 30
0.0
 10
-24.24500300485816
 20
-3.357293701191157
 30
0.0
 10
-24.10389462435281
 20
-3.499418152974364
 30
0.0
 10
-23.96869819863172
 20
-3.64344157376339
 30
0.0
 10
-23.89738297635414
 20
-3.733503341955753
 30
0.0
 10
-23.88353524696397
 20
-3.756896193147774
 30
0.0
 10
-23.88051359977439
 20
-3.763962417525949
 30
0.0
 10
-23.88019135411466
 20
-3.766502864982805
 30
0.0
 10
-23.88006158810881
 20
-3.767525884873336
 30
0.0
  0
SPLINE
  5
21F
330
1F
100
AcDbEntity
  8
외형선
  6
Continuous
370
    15
100
AcDbSpline
210
0.0
220
0.0
230
1.0
 70
     8
 71
     3
 72
     9
 73
     5
 74
     0
 42
0.000000001
 43
0.00000001
 40
0.0
 40
0.0
 40
0.0
 40
0.0
 40
0.5561398370411058
 40
0.9999999999999999
 40
0.9999999999999999
 40
0.9999999999999999
 40
0.9999999999999999
 10
-23.88008511026542
 20
3.283419556670744
 30
0.0
 10
-24.16631373511527
 20
3.274065288234386
 30
0.0
 10
-24.68098397771595
 20
3.257245294748351
 30
0.0
 10
-25.17896573573506
 20
3.255003132095569
 30
0.0
 10
-25.39999999999998
 20
3.254007925415126
 30
0.0
  0
LINE
  5
220
330
1F
100
AcDbEntity
  8
0
  6
Continuous
 62
     1
370
    15
100
AcDbLine
 10
-26.61322438586848
 20
-1.158812402039887
 30
0.0
 11
-26.54156920688566
 21
-1.198104529851063
 31
0.0
1001
PE_URL
1000

  0
LINE
  5
221
330
1F
100
AcDbEntity
  8
0
  6
Continuous
 62
     1
370
    15
100
AcDbLine
 10
-27.77426492766041
 20
-1.625610325009905
 30
0.0
 11
-27.7345160001835
 21
-1.646090601612777
 31
0.0
1001
PE_URL
1000

  0
SPLINE
  5
222
330
1F
100
AcDbEntity
  8
0
  6
Continuous
 62
     1
370
    15
100
AcDbSpline
210
0.0
220
0.0
230
1.0
 70
     8
 71
     3
 72
     9
 73
     5
 74
     0
 42
0.000000001
 43
0.00000001
 40
0.0
 40
0.0
 40
0.0
 40
0.0
 40
0.5170068808580057
 40
1.0
 40
1.0
 40
1.0
 40
1.0
 10
-28.89203673188916
 20
-1.067845991409012
 30
0.0
 10
-28.69942183641922
 20
-1.159471982450938
 30
0.0
 10
-28.32686413438192
 20
-1.336695912023924
 30
0.0
 10
-27.9542398790238
 20
-1.531514356733322
 30
0.0
 10
-27.77426492766041
 20
-1.625610325009905
 30
0.0
1001
PE_URL
1000

  0
SPLINE
  5
223
330
1F
100
AcDbEntity
  8
0
  6
Continuous
 62
     1
370
    15
100
AcDbSpline
210
0.0
220
0.0
230
1.0
 70
     8
 71
     3
 72
    11
 73
     7
 74
     0
 42
0.000000001
 43
0.00000001
 40
0.0
 40
0.0
 40
0.0
 40
0.0
 40
0.207649787638536
 40
0.4425588231653185
 40
0.7064698319655958
 40
1.0
 40
1.0
 40
1.0
 40
1.0
 10
-27.51364893449423
 20
-3.311411889922965
 30
0.0
 10
-27.37431431104764
 20
-3.304145413459246
 30
0.0
 10
-27.07735389668859
 20
-3.288658553063598
 30
0.0
 10
-26.57757411916027
 20
-3.270124889646805
 30
0.0
 10
-26.01147554607202
 20
-3.257385594714528
 30
0.0
 10
-25.61091958133447
 20
-3.255173003232397
 30
0.0
 10
-25.39999999999995
 20
-3.254007925415166
 30
0.0
1001
PE_URL
1000

  0
SPLINE
  5
224
330
1F
100
AcDbEntity
  8
0
  6
Continuous
 62
     1
370
    15
100
AcDbSpline
210
0.0
220
0.0
230
1.0
 70
     8
 71
     3
 72
    20
 73
    16
 74
     0
 42
0.000000001
 43
0.00000001
 40
0.0
 40
0.0
 40
0.0
 40
0.0
 40
0.0790508052491742
 40
0.1460654117328921
 40
0.2343614187311952
 40
0.3183993751129019
 40
0.4043928963686432
 40
0.4953032866101229
 40
0.581840772310724
 40
0.6604584089807541
 40
0.7329649896158597
 40
0.7961544901875008
 40
0.8652596833982239
 40
0.9320846526006291
 40
1.0
 40
1.0
 40
1.0
 40
1.0
 10
-38.13821080827805
 20
-2.8501454554414
 30
0.0
 10
-37.96953752008393
 20
-2.835224180602648
 30
0.0
 10
-37.6578729745963
 20
-2.807653529727787
 30
0.0
 10
-37.08414253827047
 20
-2.770589872421464
 30
0.0
 10
-36.47131098349764
 20
-2.752562218393162
 30
0.0
 10
-35.82649455471278
 20
-2.740187343160251
 30
0.0
 10
-35.18948735124657
 20
-2.743760818296892
 30
0.0
 10
-34.54316618318664
 20
-2.761587347051226
 30
0.0
 10
-33.915502677745
 20
-2.793614429911393
 30
0.0
 10
-33.33592408364949
 20
-2.834813493867532
 30
0.0
 10
-32.807015086802
 20
-2.882535357809932
 30
0.0
 10
-32.29022893014024
 20
-2.937466076923119
 30
0.0
 10
-31.78796587251296
 20
-2.993507457910066
 30
0.0
 10
-31.28480682168053
 20
-3.065216641370728
 30
0.0
 10
-31.00220174341514
 20
-3.111132060815809
 30
0.0
 10
-30.85975572168027
 20
-3.134275554472705
 30
0.0
1001
PE_URL
1000

  0
SPLINE
  5
225
330
1F
100
AcDbEntity
  8
0
  6
Continuous
 62
     1
370
    15
100
AcDbSpline
210
0.0
220
0.0
230
1.0
 70
     8
 71
     3
 72
    14
 73
    10
 74
     0
 42
0.000000001
 43
0.00000001
 40
0.0
 40
0.0
 40
0.0
 40
0.0
 40
0.1579780639772993
 40
0.3134197964307857
 40
0.4741655638051339
 40
0.6211508233415182
 40
0.7492518926265489
 40
0.8773252734003368
 40
0.9999999999999999
 40
0.9999999999999999
 40
0.9999999999999999
 40
0.9999999999999999
 10
-30.85975572168029
 20
3.134275554472627
 30
0.0
 10
-31.00220476103699
 20
3.111131923447418
 30
0.0
 10
-31.28481582609824
 20
3.065216231471151
 30
0.0
 10
-31.78793002674855
 20
2.993509089682437
 30
0.0
 10
-32.29036349840381
 20
2.937459951100669
 30
0.0
 10
-32.76258940301622
 20
2.887231372750529
 30
0.0
 10
-33.19337323960248
 20
2.847541143144296
 30
0.0
 10
-33.58908268213997
 20
2.816076027846089
 30
0.0
 10
-33.85338050127906
 20
2.79998432252056
 30
0.0
 10
-33.98268421983309
 20
2.792111698587282
 30
0.0
1001
PE_URL
1000

  0
SPLINE
  5
226
330
1F
100
AcDbEntity
  8
0
  6
Continuous
 62
     1
370
    15
100
AcDbSpline
210
0.0
220
0.0
230
1.0
 70
     8
 71
     3
 72
    11
 73
     7
 74
     0
 42
0.000000001
 43
0.00000001
 40
0.0
 40
0.0
 40
0.0
 40
0.0
 40
0.2935301680344042
 40
0.5574411768346814
 40
0.792350212361464
 40
1.0
 40
1.0
 40
1.0
 40
1.0
 10
-25.39999999999997
 20
3.254007925415126
 30
0.0
 10
-25.6109195813345
 20
3.255173003232354
 30
0.0
 10
-26.01147554607205
 20
3.257385594714483
 30
0.0
 10
-26.57757411916029
 20
3.270124889646755
 30
0.0
 10
-27.07735389668861
 20
3.288658553063547
 30
0.0
 10
-27.37431431104766
 20
3.304145413459191
 30
0.0
 10
-27.51364893449425
 20
3.31141188992291
 30
0.0
1001
PE_URL
1000

  0
LINE
  5
227
330
1F
100
AcDbEntity
  8
외형선
  6
Continuous
370
    15
100
AcDbLine
 10
-22.17826350361911
 20
-4.762500000000006
 30
0.0
 11
-22.17826350361915
 21
4.762499999999994
 31
0.0
  0
SPLINE
  5
228
330
1F
100
AcDbEntity
  8
외형선
  6
Continuous
370
    15
100
AcDbSpline
210
0.0
220
0.0
230
1.0
 70
     8
 71
     3
 72
     8
 73
     4
 74
     0
 42
0.000000001
 43
0.00000001
 40
0.0
 40
0.0
 40
0.0
 40
0.0
 40
1.0
 40
1.0
 40
1.0
 40
1.0
 10
-24.39999999999996
 20
-3.179882916344859
 30
0.0
 10
-24.22620101458516
 20
-3.267304381148161
 30
0.0
 10
-24.0530186122286
 20
-3.354516087500919
 30
0.0
 10
-23.88012595805112
 20
-3.441045032330365
 30
0.0
  0
LINE
  5
229
330
1F
100
AcDbEntity
  8
외형선
  6
Continuous
370
    15
100
AcDbLine
 10
-24.39999999999996
 20
-3.179882916345193
 30
0.0
 11
-24.39999999999997
 21
-2.312369452928813
 31
0.0
  0
SPLINE
  5
22A
330
1F
100
AcDbEntity
  8
외형선
  6
Continuous
370
    15
100
AcDbSpline
210
0.0
220
0.0
230
1.0
 70
     8
 71
     3
 72
     8
 73
     4
 74
     0
 42
0.000000001
 43
0.00000001
 40
0.0
 40
0.0
 40
0.0
 40
0.0
 40
0.0005969665157926
 40
0.0005969665157926
 40
0.0005969665157926
 40
0.0005969665157926
 10
-23.88006158810882
 20
-2.603430364587595
 30
0.0
 10
-24.05346778791416
 20
-2.506965529547042
 30
0.0
 10
-24.22670377610117
 20
-2.409742790755089
 30
0.0
 10
-24.40000000000009
 20
-2.312369452928511
 30
0.0
  0
LINE
  5
22B
330
1F
100
AcDbEntity
  8
외형선
  6
Continuous
370
    15
100
AcDbLine
 10
-23.88006158810884
 20
4.306504577580139
 30
0.0
 11
-23.88006158810882
 21
-2.603479836804141
 31
0.0
  0
SPLINE
  5
22C
330
1F
100
AcDbEntity
  8
외형선
  6
Continuous
370
    15
100
AcDbSpline
210
0.0
220
0.0
230
1.0
 70
     8
 71
     3
 72
     9
 73
     5
 74
     0
 42
0.000000001
 43
0.00000001
 40
0.0
 40
0.0
 40
0.0
 40
0.0
 40
0.2179979265126283
 40
1.0
 40
1.0
 40
1.0
 40
1.0
 10
-24.21231211544008
 20
3.274251361778934
 30
0.0
 10
-24.1881123001242
 20
3.286421203481202
 30
0.0
 10
-24.07710291713136
 20
3.342246696397362
 30
0.0
 10
-23.96656603167492
 20
3.397689020176273
 30
0.0
 10
-23.88012595805115
 20
3.441045032330337
 30
0.0
  0
LINE
  5
22D
330
1F
100
AcDbEntity
  8
외형선
  6
Continuous
370
    15
100
AcDbLine
 10
-23.88006158810882
 20
-3.441127177535073
 30
0.0
 11
-23.88006158810881
 21
-4.306504577580167
 31
0.0
  0
SPLINE
  5
22E
330
1F
100
AcDbEntity
  8
외형선
  6
Continuous
370
    15
100
AcDbSpline
210
0.0
220
0.0
230
1.0
 70
    24
 71
     3
 72
    10
 73
     6
 74
     0
 42
0.000000001
 43
0.00000001
 40
0.0
 40
0.0
 40
0.0
 40
0.0
 40
0.5
 40
0.5
 40
1.0
 40
1.0
 40
1.0
 40
1.0
 10
-25.39999999999996
 20
-1.812282115155458
 30
0.0
 10
-25.39999999999996
 20
-1.778322151964723
 30
0.0
 10
-25.39999999999996
 20
-1.700695343477374
 30
0.0
 10
-25.39999999999996
 20
-1.47285192575006
 30
0.0
 10
-25.39999999999996
 20
-1.323517968755858
 30
0.0
 10
-25.39999999999996
 20
-1.159552286352445
 30
0.0
  0
SPLINE
  5
22F
330
1F
100
AcDbEntity
  8
외형선
  6
Continuous
370
    15
100
AcDbSpline
210
0.0
220
0.0
230
1.0
 70
     8
 71
     3
 72
    10
 73
     6
 74
     0
 42
0.000000001
 43
0.00000001
 40
0.0
 40
0.0
 40
0.0
 40
0.0
 40
0.5000000000000001
 40
0.5000000000000001
 40
1.0
 40
1.0
 40
1.0
 40
1.0
 10
-25.3999999999875
 20
-1.159552286357069
 30
0.0
 10
-25.14690365541136
 20
-1.253443532619864
 30
0.0
 10
-24.8923136751942
 20
-1.345372924080294
 30
0.0
 10
-24.38436902994959
 20
-1.523766015901444
 30
0.0
 10
-24.13210872284936
 20
-1.610108412096647
 30
0.0
 10
-23.8800771094496
 20
-1.693309738817728
 30
0.0
  0
SPLINE
  5
230
330
1F
100
AcDbEntity
  8
외형선
  6
Continuous
370
    15
100
AcDbSpline
210
0.0
220
0.0
230
1.0
 70
     8
 71
     3
 72
     8
 73
     4
 74
     0
 42
0.000000001
 43
0.00000001
 40
0.0
 40
0.0
 40
0.0
 40
0.0
 40
1.0
 40
1.0
 40
1.0
 40
1.0
 10
-25.39999999999964
 20
-1.812282115155625
 30
0.0
 10
-25.06764859335633
 20
-1.985129007001731
 30
0.0
 10
-24.73272153591035
 20
-2.152624250335762
 30
0.0
 10
-24.39999999999997
 20
-2.312369452928809
 30
0.0
  0
SPLINE
  5
231
330
1F
100
AcDbEntity
  8
외형선
  6
Continuous
370
    15
100
AcDbSpline
210
0.0
220
0.0
230
1.0
 70
     8
 71
     3
 72
     8
 73
     4
 74
     0
 42
0.000000001
 43
0.00000001
 40
0.0
 40
0.0
 40
0.0
 40
0.0
 40
1.0
 40
1.0
 40
1.0
 40
1.0
 10
-25.39999999999489
 20
-2.778156746730819
 30
0.0
 10
-25.06764859335314
 20
-2.92122600650389
 30
0.0
 10
-24.73272153590876
 20
-3.055778513263096
 30
0.0
 10
-24.39999999999996
 20
-3.179882916345193
 30
0.0
  0
LINE
  5
232
330
1F
100
AcDbEntity
  8
외형선
  6
Continuous
370
    15
100
AcDbLine
 10
-25.39999999999996
 20
-2.778156746728637
 30
0.0
 11
-25.39999999999996
 21
-1.812282115155458
 31
0.0
  0
SPLINE
  5
233
330
1F
100
AcDbEntity
  8
외형선
  6
Continuous
370
    15
100
AcDbSpline
210
0.0
220
0.0
230
1.0
 70
     8
 71
     3
 72
    10
 73
     6
 74
     0
 42
0.000000001
 43
0.00000001
 40
0.0
 40
0.0
 40
0.0
 40
0.0
 40
0.5
 40
0.5
 40
1.0
 40
1.0
 40
1.0
 40
1.0
 10
-25.39999999999053
 20
3.059040224818171
 30
0.0
 10
-25.14690499451667
 20
3.012555330426787
 30
0.0
 10
-24.89231636921816
 20
2.96031760612451
 30
0.0
 10
-24.38437439835367
 20
2.845165318998278
 30
0.0
 10
-24.13211534565737
 20
2.782351382661762
 30
0.0
 10
-23.88008511026542
 20
2.714564169008835
 30
0.0
  0
SPLINE
  5
234
330
1F
100
AcDbEntity
  8
외형선
  6
Continuous
370
    15
100
AcDbSpline
210
0.0
220
0.0
230
1.0
 70
    24
 71
     3
 72
    14
 73
    10
 74
     0
 42
0.000000001
 43
0.00000001
 40
0.0
 40
0.0
 40
0.0
 40
0.0
 40
0.25
 40
0.25
 40
0.4999999999999999
 40
0.4999999999999999
 40
0.75
 40
0.75
 40
1.0
 40
1.0
 40
1.0
 40
1.0
 10
-25.39999999999995
 20
-1.159552286352451
 30
0.0
 10
-25.39999999999995
 20
-0.7973476597422966
 30
0.0
 10
-25.39999999999996
 20
-0.4147768583685316
 30
0.0
 10
-25.39999999999996
 20
0.3585514431576442
 30
0.0
 10
-25.39999999999996
 20
0.748948917969555
 30
0.0
 10
-25.39999999999996
 20
1.49871443390998
 30
0.0
 10
-25.39999999999996
 20
1.857682968625237
 30
0.0
 10
-25.39999999999997
 20
2.511256853489524
 30
0.0
 10
-25.39999999999997
 20
2.805670379837904
 30
0.0
 10
-25.39999999999997
 20
3.059040224819904
 30
0.0
  0
SPLINE
  5
235
330
1F
100
AcDbEntity
  8
외형선
  6
Continuous
370
    15
100
AcDbSpline
210
0.0
220
0.0
230
1.0
 70
    24
 71
     3
 72
    11
 73
     7
 74
     0
 42
0.000000001
 43
0.00000001
 40
0.0
 40
0.0
 40
0.0
 40
0.0
 40
0.253160666732298
 40
0.640783354286773
 40
0.9803250926700474
 40
1.0
 40
1.0
 40
1.0
 40
1.0
 10
-25.39999999999996
 20
-3.240141179653541
 30
0.0
 10
-25.39999999999996
 20
-3.242292568688498
 30
0.0
 10
-25.39999999999996
 20
-3.247738020780204
 30
0.0
 10
-25.39999999999996
 20
-3.10266037632703
 30
0.0
 10
-25.39999999999996
 20
-2.956075207829361
 30
0.0
 10
-25.39999999999996
 20
-2.839493560778809
 30
0.0
 10
-25.39999999999996
 20
-2.833108185464315
 30
0.0
  0
SPLINE
  5
236
330
1F
100
AcDbEntity
  8
외형선
  6
Continuous
370
    15
100
AcDbSpline
210
0.0
220
0.0
230
1.0
 70
    24
 71
     3
 72
    10
 73
     6
 74
     0
 42
0.000000001
 43
0.00000001
 40
0.0
 40
0.0
 40
0.0
 40
0.0
 40
0.4036377594379257
 40
0.8072755188758516
 40
1.0
 40
1.0
 40
1.0
 40
1.0
 10
-25.39999999999998
 20
3.059040224819908
 30
0.0
 10
-25.39999999999998
 20
3.10273801310656
 30
0.0
 10
-25.39999999999998
 20
3.190133589679863
 30
0.0
 10
-25.39999999999998
 20
3.252989375311031
 30
0.0
 10
-25.39999999999998
 20
3.243285907811474
 30
0.0
 10
-25.39999999999998
 20
3.240150069202388
 30
0.0
  0
SPLINE
  5
237
330
1F
100
AcDbEntity
  8
0
  6
Continuous
 62
     1
370
    15
100
AcDbSpline
210
0.0
220
0.0
230
1.0
 70
     8
 71
     3
 72
    36
 73
    32
 74
     0
 42
0.000000001
 43
0.00000001
 40
0.0
 40
0.0
 40
0.0
 40
0.0
 40
0.1249999999999998
 40
0.1249999999999998
 40
0.1874999999999998
 40
0.1874999999999998
 40
0.2499999999999999
 40
0.2499999999999999
 40
0.3124999999999999
 40
0.3124999999999999
 40
0.3749999999999999
 40
0.3749999999999999
 40
0.4375
 40
0.4375
 40
0.5
 40
0.5
 40
0.5625
 40
0.5625
 40
0.625
 40
0.625
 40
0.6875
 40
0.6875
 40
0.75
 40
0.75
 40
0.8125000000000001
 40
0.8125000000000001
 40
0.8750000000000001
 40
0.8750000000000001
 40
0.9375000000000001
 40
0.9375000000000001
 40
1.0
 40
1.0
 40
1.0
 40
1.0
 10
-39.68749999999999
 20
4.163665456589708
 30
0.0
 10
-39.09647761922446
 20
4.149570519492769
 30
0.0
 10
-38.4933232141899
 20
4.092505297198525
 30
0.0
 10
-37.60587904785584
 20
3.94608641413924
 30
0.0
 10
-37.30689080733008
 20
3.886916872085228
 30
0.0
 10
-36.70938313764783
 20
3.74900764809205
 30
0.0
 10
-36.41194956610924
 20
3.670378615845383
 30
0.0
 10
-35.8197422518749
 20
3.495141957882455
 30
0.0
 10
-35.52062214383493
 20
3.398082948654009
 30
0.0
 10
-34.92317483349844
 20
3.187149398801248
 30
0.0
 10
-34.62633641910914
 20
3.073483801264976
 30
0.0
 10
-34.0335805244753
 20
2.831254725005619
 30
0.0
 10
-33.73434369800724
 20
2.702212140995638
 30
0.0
 10
-33.13698691398724
 20
2.431114798943437
 30
0.0
 10
-32.84067106668223
 20
2.289366774305424
 30
0.0
 10
-32.24739597266942
 20
1.994869410384235
 30
0.0
 10
-31.9480575966775
 20
1.841701468753227
 30
0.0
 10
-31.35082149070717
 20
1.526967890070999
 30
0.0
 10
-31.05495553308712
 20
1.365786382725243
 30
0.0
 10
-30.46119070732401
 20
1.036941445597648
 30
0.0
 10
-30.16176596796274
 20
0.8689796358611961
 30
0.0
 10
-29.56468067146693
 20
0.5297956505107475
 30
0.0
 10
-29.2691918509137
 20
0.3589994523995639
 30
0.0
 10
-28.67496684280664
 20
0.0158326042594066
 30
0.0
 10
-28.37547094090685
 20
-0.1566874418058184
 30
0.0
 10
-27.77856655993844
 20
-0.4996485932860093
 30
0.0
 10
-27.48338206075704
 20
-0.6696658359934382
 30
0.0
 10
-26.88872649663108
 20
-1.006244793036069
 30
0.0
 10
-26.58917464512066
 20
-1.172807757826284
 30
0.0
 10
-25.99248125530586
 20
-1.498646865397834
 30
0.0
 10
-25.69752821088843
 20
-1.657545816585252
 30
0.0
 10
-25.3999999999949
 20
-1.812282115158091
 30
0.0
1001
PE_URL
1000

  0
SPLINE
  5
238
330
1F
100
AcDbEntity
  8
0
  6
Continuous
 62
     1
370
    15
100
AcDbSpline
210
0.0
220
0.0
230
1.0
 70
     8
 71
     3
 72
    11
 73
     7
 74
     0
 42
0.000000001
 43
0.00000001
 40
0.0
 40
0.0
 40
0.0
 40
0.0
 40
0.0494856839645228
 40
0.3838360791543846
 40
0.6919092191881494
 40
1.0
 40
1.0
 40
1.0
 40
1.0
 10
-29.34445886272155
 20
0.399449787816323
 30
0.0
 10
-29.27938965778315
 20
0.3737689852822061
 30
0.0
 10
-28.77467988121124
 20
0.1745756476433762
 30
0.0
 10
-27.8646602363883
 20
-0.1968944623005342
 30
0.0
 10
-26.61514946949234
 20
-0.6989538830489757
 30
0.0
 10
-25.80505755414347
 20
-1.006016554849023
 30
0.0
 10
-25.39999999999996
 20
-1.159552286352447
 30
0.0
1001
PE_URL
1000

  0
SPLINE
  5
239
330
1F
100
AcDbEntity
  8
외형선
  6
Continuous
370
    15
100
AcDbSpline
210
0.0
220
0.0
230
1.0
 70
    24
 71
     3
 72
    10
 73
     6
 74
     0
 42
0.000000001
 43
0.00000001
 40
0.0
 40
0.0
 40
0.0
 40
0.0
 40
0.5
 40
0.5
 40
1.0
 40
1.0
 40
1.0
 40
1.0
 10
-25.39999999999997
 20
-1.812282115155455
 30
0.0
 10
-25.39999999999997
 20
-1.778322151964723
 30
0.0
 10
-25.39999999999997
 20
-1.700695343477371
 30
0.0
 10
-25.39999999999997
 20
-1.47285192575006
 30
0.0
 10
-25.39999999999997
 20
-1.323517968755858
 30
0.0
 10
-25.39999999999997
 20
-1.159552286352444
 30
0.0
  0
SPLINE
  5
23A
330
1F
100
AcDbEntity
  8
0
  6
Continuous
 62
     1
370
    15
100
AcDbSpline
210
0.0
220
0.0
230
1.0
 70
     8
 71
     3
 72
    36
 73
    32
 74
     0
 42
0.000000001
 43
0.00000001
 40
0.0
 40
0.0
 40
0.0
 40
0.0
 40
0.1250000000000001
 40
0.1250000000000001
 40
0.1875000000000001
 40
0.1875000000000001
 40
0.2500000000000001
 40
0.2500000000000001
 40
0.3125
 40
0.3125
 40
0.3750000000000001
 40
0.3750000000000001
 40
0.4375000000000001
 40
0.4375000000000001
 40
0.5000000000000001
 40
0.5000000000000001
 40
0.5625000000000001
 40
0.5625000000000001
 40
0.6250000000000001
 40
0.6250000000000001
 40
0.6875000000000002
 40
0.6875000000000002
 40
0.7500000000000002
 40
0.7500000000000002
 40
0.8125000000000002
 40
0.8125000000000002
 40
0.8750000000000001
 40
0.8750000000000001
 40
0.9375000000000001
 40
0.9375000000000001
 40
1.0
 40
1.0
 40
1.0
 40
1.0
 10
-39.6875
 20
3.954414528502236
 30
0.0
 10
-39.09647761922434
 20
3.84624619545728
 30
0.0
 10
-38.49332321418967
 20
3.696633291360239
 30
0.0
 10
-37.60587904785545
 20
3.419683535369
 30
0.0
 10
-37.30689080732962
 20
3.318080154235142
 30
0.0
 10
-36.70938313764728
 20
3.098453684263729
 30
0.0
 10
-36.41194956610866
 20
2.980588214566275
 30
0.0
 10
-35.81974225187417
 20
2.730692790650268
 30
0.0
 10
-35.52062214383415
 20
2.598033738115165
 30
0.0
 10
-34.92317483349755
 20
2.320207937915796
 30
0.0
 10
-34.62633641910821
 20
2.175299089895981
 30
0.0
 10
-34.03358052447425
 20
1.875331717383428
 30
0.0
 10
-33.73434369800613
 20
1.71969491300074
 30
0.0
 10
-33.13698691398601
 20
1.400605475761049
 30
0.0
 10
-32.84067106668097
 20
1.237496898957643
 30
0.0
 10
-32.24739597266804
 20
0.9057113325492612
 30
0.0
 10
-31.94805759667605
 20
0.7365783261126513
 30
0.0
 10
-31.35082149070562
 20
0.3956751419401847
 30
0.0
 10
-31.05495553308554
 20
0.2243038055827142
 30
0.0
 10
-30.46119070732229
 20
-0.1190946835896174
 30
0.0
 10
-30.16176596796097
 20
-0.2914169717091166
 30
0.0
 10
-29.56468067146505
 20
-0.6333567010870755
 30
0.0
 10
-29.2691918509118
 20
-0.8025627140427858
 30
0.0
 10
-28.6749668428046
 20
-1.1366491285393
 30
0.0
 10
-28.37547094090476
 20
-1.30165720740581
 30
0.0
 10
-27.77856655993624
 20
-1.623796701003478
 30
0.0
 10
-27.4833820607548
 20
-1.780549411648693
 30
0.0
 10
-26.88872649662871
 20
-2.084955495734608
 30
0.0
 10
-26.58917464511822
 20
-2.232590237987729
 30
0.0
 10
-25.99248125530334
 20
-2.515304273262078
 30
0.0
 10
-25.69752821088586
 20
-2.650078032324632
 30
0.0
 10
-25.39999999999227
 20
-2.778156746731948
 30
0.0
1001
PE_URL
1000

  0
SPLINE
  5
23B
330
1F
100
AcDbEntity
  8
0
  6
Continuous
 62
     1
370
    15
100
AcDbSpline
210
0.0
220
0.0
230
1.0
 70
     8
 71
     3
 72
    16
 73
    12
 74
     0
 42
0.000000001
 43
0.00000001
 40
0.0
 40
0.0
 40
0.0
 40
0.0
 40
0.1218515951976557
 40
0.2435149034098859
 40
0.3651704540937885
 40
0.486998904966957
 40
0.6088722608110443
 40
0.7305446534453821
 40
0.8521937744388159
 40
0.9740003878395403
 40
1.0
 40
1.0
 40
1.0
 40
1.0
 10
-39.68749999999999
 20
3.287795357921855
 30
0.0
 10
-39.24796170588411
 20
3.197050339082764
 30
0.0
 10
-38.36956429907993
 20
3.015700522023046
 30
0.0
 10
-37.05278929369916
 20
2.613887602430873
 30
0.0
 10
-35.73609852887185
 20
2.133026924027039
 30
0.0
 10
-34.418268559195
 20
1.579461853965368
 30
0.0
 10
-33.10023597464607
 20
0.9745178618729753
 30
0.0
 10
-31.78336725342506
 20
0.3354562979954139
 30
0.0
 10
-30.46674955434898
 20
-0.31127237190986
 30
0.0
 10
-29.49487306457173
 20
-0.7896661373017775
 30
0.0
 10
-28.96171445797862
 20
-1.032684133778387
 30
0.0
 10
-28.86793006602354
 20
-1.075431816647727
 30
0.0
1001
PE_URL
1000

  0
LINE
  5
23C
330
1F
100
AcDbEntity
  8
0
  6
Continuous
 62
     1
370
    15
100
AcDbLine
 10
-39.68749999999991
 20
3.954414528502237
 30
0.0
 11
-39.68749999999999
 21
3.287795357921855
 31
0.0
1001
PE_URL
1000

  0
LINE
  5
23D
330
1F
100
AcDbEntity
  8
0
  6
Continuous
 62
     1
370
    15
100
AcDbLine
 10
-39.68749999999999
 20
4.163665456589708
 30
0.0
 11
-39.6874999999999
 21
3.954414528502232
 31
0.0
1001
PE_URL
1000

  0
SPLINE
  5
23E
330
1F
100
AcDbEntity
  8
0
  6
Continuous
 62
     1
370
    15
100
AcDbSpline
210
0.0
220
0.0
230
1.0
 70
     8
 71
     3
 72
     8
 73
     4
 74
     0
 42
0.000000001
 43
0.00000001
 40
0.0
 40
0.0
 40
0.0
 40
0.0
 40
1.0
 40
1.0
 40
1.0
 40
1.0
 10
-37.10875952196388
 20
-1.165930727621712
 30
0.0
 10
-36.96066872780008
 20
-1.341394103368373
 30
0.0
 10
-36.82862535279108
 20
-1.510125201973903
 30
0.0
 10
-36.71634090579465
 20
-1.670566956473127
 30
0.0
1001
PE_URL
1000

  0
LINE
  5
23F
330
1F
100
AcDbEntity
  8
0
  6
Continuous
 62
     1
370
    15
100
AcDbLine
 10
-36.76899554996309
 20
-1.714749448974644
 30
0.0
 11
-39.68749999999997
 21
-0.0000000000000728
 31
0.0
1001
PE_URL
1000

  0
LINE
  5
240
330
1F
100
AcDbEntity
  8
0
  6
Continuous
 62
     1
370
    15
100
AcDbLine
 10
-39.68749999999997
 20
-0.0000000000000728
 30
0.0
 11
-39.68749999999997
 21
1.113651464157838
 31
0.0
1001
PE_URL
1000

  0
SPLINE
  5
241
330
1F
100
AcDbEntity
  8
0
  6
Continuous
 62
     1
370
    15
100
AcDbSpline
210
0.0
220
0.0
230
1.0
 70
     8
 71
     3
 72
    12
 73
     8
 74
     0
 42
0.000000001
 43
0.00000001
 40
0.0
 40
0.0
 40
0.0
 40
0.0
 40
0.5000000000000006
 40
0.5000000000000006
 40
0.7500000000000002
 40
0.7500000000000002
 40
1.0
 40
1.0
 40
1.0
 40
1.0
 10
-39.68749999999999
 20
1.11365146415784
 30
0.0
 10
-39.2411077910353
 20
0.7627110357179792
 30
0.0
 10
-38.80217385000381
 20
0.3973794101439996
 30
0.0
 10
-38.1552438801743
 20
-0.1727519318326785
 30
0.0
 10
-37.94154665866493
 20
-0.3665508382693954
 30
0.0
 10
-37.51852256393363
 20
-0.7625815130770608
 30
0.0
 10
-37.31034782117008
 20
-0.9637792197434649
 30
0.0
 10
-37.10875952196388
 20
-1.165930727621713
 30
0.0
1001
PE_URL
1000

  0
SPLINE
  5
242
330
1F
100
AcDbEntity
  8
0
  6
Continuous
 62
     1
370
    15
100
AcDbSpline
210
0.0
220
0.0
230
1.0
 70
     8
 71
     3
 72
    15
 73
    11
 74
     0
 42
0.000000001
 43
0.00000001
 40
0.0
 40
0.0
 40
0.0
 40
0.0
 40
0.1429931410786658
 40
0.2803533408910313
 40
0.4177648950188455
 40
0.5549466975991565
 40
0.6921018850690437
 40
0.829437111210653
 40
0.9668688896927645
 40
1.0
 40
1.0
 40
1.0
 40
1.0
 10
-37.10875952196388
 20
-1.165930727621712
 30
0.0
 10
-36.65140406662148
 20
-1.359913609215834
 30
0.0
 10
-35.75470979924093
 20
-1.740237787846628
 30
0.0
 10
-34.4182549605186
 20
-2.235239871900845
 30
0.0
 10
-33.1002352198599
 20
-2.651957322774869
 30
0.0
 10
-31.78335110259781
 20
-2.979688932069557
 30
0.0
 10
-30.46670202572881
 20
-3.210668796360054
 30
0.0
 10
-29.14901408396209
 20
-3.326726087886478
 30
0.0
 10
-28.16377940576752
 20
-3.353550617095344
 30
0.0
 10
-27.61829431409051
 20
-3.310657366221466
 30
0.0
 10
-27.51233617236588
 20
-3.30232553603129
 30
0.0
1001
PE_URL
1000

  0
SPLINE
  5
243
330
1F
100
AcDbEntity
  8
0
  6
Continuous
 62
     1
370
    15
100
AcDbSpline
210
0.0
220
0.0
230
1.0
 70
    24
 71
     3
 72
    10
 73
     6
 74
     0
 42
0.000000001
 43
0.00000001
 40
0.0
 40
0.0
 40
0.0
 40
0.0
 40
0.5
 40
0.5
 40
1.0
 40
1.0
 40
1.0
 40
1.0
 10
-39.68749999999999
 20
3.287795357921855
 30
0.0
 10
-39.68749999999999
 20
3.035760210114223
 30
0.0
 10
-39.68749999999999
 20
2.717304136841417
 30
0.0
 10
-39.68749999999999
 20
1.976924414460655
 30
0.0
 10
-39.68749999999997
 20
1.55564211034031
 30
0.0
 10
-39.68749999999997
 20
1.113651464157973
 30
0.0
1001
PE_URL
1000

  0
SPLINE
  5
244
330
1F
100
AcDbEntity
  8
외형선
  6
Continuous
370
    15
100
AcDbSpline
210
0.0
220
0.0
230
1.0
 70
    24
 71
     3
 72
    11
 73
     7
 74
     0
 42
0.000000001
 43
0.00000001
 40
0.0
 40
0.0
 40
0.0
 40
0.0
 40
0.2562932291905023
 40
0.6422900619929672
 40
0.9804076176166134
 40
1.0
 40
1.0
 40
1.0
 40
1.0
 10
-25.39999999999996
 20
-3.240294207959192
 30
0.0
 10
-25.39999999999996
 20
-3.24253094296299
 30
0.0
 10
-25.39999999999996
 20
-3.248136368704397
 30
0.0
 10
-25.39999999999996
 20
-3.102725116321015
 30
0.0
 10
-25.39999999999996
 20
-2.956074591213728
 30
0.0
 10
-25.39999999999996
 20
-2.839493528759473
 30
0.0
 10
-25.39999999999996
 20
-2.833108185464315
 30
0.0
  0
SPLINE
  5
245
330
1F
100
AcDbEntity
  8
0
  6
Continuous
 62
     1
370
    15
100
AcDbSpline
210
0.0
220
0.0
230
1.0
 70
    24
 71
     3
 72
     8
 73
     4
 74
     0
 42
0.000000001
 43
0.00000001
 40
0.0
 40
0.0
 40
0.0
 40
0.0
 40
1.0
 40
1.0
 40
1.0
 40
1.0
 10
-37.15113194379327
 20
-2.035399956095141
 30
0.0
 10
-37.01361693288726
 20
-1.920011161162559
 30
0.0
 10
-36.86822307609935
 20
-1.798011229558202
 30
0.0
 10
-36.71634090579471
 20
-1.670566956473177
 30
0.0
1001
PE_URL
1000

  0
SPLINE
  5
246
330
1F
100
AcDbEntity
  8
0
  6
Continuous
 62
     1
370
    15
100
AcDbSpline
210
0.0
220
0.0
230
1.0
 70
     8
 71
     3
 72
     9
 73
     5
 74
     0
 42
0.000000001
 43
0.00000001
 40
0.0
 40
0.0
 40
0.0
 40
0.0
 40
0.8503543774020355
 40
1.0
 40
1.0
 40
1.0
 40
1.0
 10
-39.68749999999996
 20
-2.917031250000072
 30
0.0
 10
-39.2479545437354
 20
-2.914401508873905
 30
0.0
 10
-38.73105774406532
 20
-2.911308985102576
 30
0.0
 10
-38.21428972255679
 20
-2.85208312358078
 30
0.0
 10
-38.13695765023941
 20
-2.843220232659448
 30
0.0
1001
PE_URL
1000

  0
SPLINE
  5
247
330
1F
100
AcDbEntity
  8
0
  6
Continuous
 62
     1
370
    15
100
AcDbSpline
210
0.0
220
0.0
230
1.0
 70
     8
 71
     3
 72
    10
 73
     6
 74
     0
 42
0.000000001
 43
0.00000001
 40
0.0
 40
0.0
 40
0.0
 40
0.0
 40
0.5
 40
0.5
 40
1.0
 40
1.0
 40
1.0
 40
1.0
 10
-39.68749999999996
 20
-2.917031250000072
 30
0.0
 10
-39.25886427350979
 20
-2.800732904691831
 30
0.0
 10
-38.83283347788309
 20
-2.670270107168982
 30
0.0
 10
-37.98650371116332
 20
-2.378177406751139
 30
0.0
 10
-37.56614053853902
 20
-2.217061635924008
 30
0.0
 10
-37.15113194380041
 20
-2.03539995609956
 30
0.0
1001
PE_URL
1000

  0
SPLINE
  5
248
330
1F
100
AcDbEntity
  8
0
  6
Continuous
 62
     1
370
    15
100
AcDbSpline
210
0.0
220
0.0
230
1.0
 70
     8
 71
     3
 72
    12
 73
     8
 74
     0
 42
0.000000001
 43
0.00000001
 40
0.0
 40
0.0
 40
0.0
 40
0.0
 40
0.0724085814103249
 40
0.3136555995297391
 40
0.5550722242744381
 40
0.7775299073467814
 40
1.0
 40
1.0
 40
1.0
 40
1.0
 10
-30.86275251985835
 20
3.122954313039878
 30
0.0
 10
-30.73091649381604
 20
3.146842729986286
 30
0.0
 10
-30.15983628505471
 20
3.250321290029909
 30
0.0
 10
-29.14898978109747
 20
3.327348072641824
 30
0.0
 10
-27.86462965830414
 20
3.343415064604468
 30
0.0
 10
-26.61515550312633
 20
3.256873476627
 30
0.0
 10
-25.80505936590008
 20
3.124985868257943
 30
0.0
 10
-25.39999999999998
 20
3.059040224819908
 30
0.0
1001
PE_URL
1000

  0
SPLINE
  5
249
330
1F
100
AcDbEntity
  8
외형선
  6
Continuous
370
    15
100
AcDbSpline
210
0.0
220
0.0
230
1.0
 70
    24
 71
     3
 72
    14
 73
    10
 74
     0
 42
0.000000001
 43
0.00000001
 40
0.0
 40
0.0
 40
0.0
 40
0.0
 40
0.25
 40
0.25
 40
0.5
 40
0.5
 40
0.75
 40
0.75
 40
1.0
 40
1.0
 40
1.0
 40
1.0
 10
-25.39999999999996
 20
-1.159552286352451
 30
0.0
 10
-25.39999999999996
 20
-0.7973476597422948
 30
0.0
 10
-25.39999999999996
 20
-0.4147768583685298
 30
0.0
 10
-25.39999999999996
 20
0.3585514431576442
 30
0.0
 10
-25.39999999999996
 20
0.7489489179695568
 30
0.0
 10
-25.39999999999997
 20
1.498714433909981
 30
0.0
 10
-25.39999999999997
 20
1.857682968625237
 30
0.0
 10
-25.39999999999997
 20
2.511256853489524
 30
0.0
 10
-25.39999999999997
 20
2.805670379837904
 30
0.0
 10
-25.39999999999997
 20
3.059040224819904
 30
0.0
  0
LINE
  5
24A
330
1F
100
AcDbEntity
  8
0
  6
Continuous
 62
     1
370
    15
100
AcDbLine
 10
-39.68749999999997
 20
-0.0000000000000728
 30
0.0
 11
-39.68749999999996
 21
-2.917031250000072
 31
0.0
1001
PE_URL
1000

  0
SPLINE
  5
24B
330
1F
100
AcDbEntity
  8
외형선
  6
Continuous
370
    15
100
AcDbSpline
210
0.0
220
0.0
230
1.0
 70
    24
 71
     3
 72
    10
 73
     6
 74
     0
 42
0.000000001
 43
0.00000001
 40
0.0
 40
0.0
 40
0.0
 40
0.0
 40
0.4061565889435978
 40
0.8123131778871956
 40
1.0
 40
1.0
 40
1.0
 40
1.0
 10
-25.39999999999998
 20
3.059040224819908
 30
0.0
 10
-25.39999999999998
 20
3.102717313392484
 30
0.0
 10
-25.39999999999998
 20
3.190071490537639
 30
0.0
 10
-25.39999999999998
 20
3.252792292670895
 30
0.0
 10
-25.39999999999998
 20
3.243295660369421
 30
0.0
 10
-25.39999999999998
 20
3.240294207959151
 30
0.0
  0
SPLINE
  5
24C
330
1F
100
AcDbEntity
  8
0
  6
Continuous
 62
     1
370
    15
100
AcDbSpline
210
0.0
220
0.0
230
1.0
 70
     8
 71
     3
 72
    11
 73
     7
 74
     0
 42
0.000000001
 43
0.00000001
 40
0.0
 40
0.0
 40
0.0
 40
0.0
 40
0.1731792685913856
 40
0.4487129836862379
 40
0.724312780071475
 40
0.9999999999999999
 40
0.9999999999999999
 40
0.9999999999999999
 40
0.9999999999999999
 10
-33.9833740914455
 20
-2.792397828706328
 30
0.0
 10
-34.31262797984681
 20
-2.934126082341791
 30
0.0
 10
-35.1657352591219
 20
-3.301348487648639
 30
0.0
 10
-36.54287508931523
 20
-3.726146243167552
 30
0.0
 10
-38.11497456398112
 20
-4.070016953940033
 30
0.0
 10
-39.163269441509
 20
-4.132445989024198
 30
0.0
 10
-39.68749999999996
 20
-4.163665456589847
 30
0.0
1001
PE_URL
1000

  0
SPLINE
  5
24D
330
1F
100
AcDbEntity
  8
0
  6
Continuous
 62
     1
370
    15
100
AcDbSpline
210
0.0
220
0.0
230
1.0
 70
    24
 71
     3
 72
    10
 73
     6
 74
     0
 42
0.000000001
 43
0.00000001
 40
0.0
 40
0.0
 40
0.0
 40
0.0
 40
0.5
 40
0.5
 40
1.0
 40
1.0
 40
1.0
 40
1.0
 10
-39.68749999999996
 20
-2.917031250000068
 30
0.0
 10
-39.68749999999996
 20
-3.093854420164298
 30
0.0
 10
-39.68749999999997
 20
-3.299339319482261
 30
0.0
 10
-39.68749999999996
 20
-3.730446084816631
 30
0.0
 10
-39.68749999999996
 20
-3.954966958254015
 30
0.0
 10
-39.68749999999996
 20
-4.163665456589847
 30
0.0
1001
PE_URL
1000

  0
LINE
  5
24F
330
1F
100
AcDbEntity
  8
외형선
  6
Continuous
370
    15
100
AcDbLine
 10
-4.838700000000035
 20
4.762499999999995
 30
0.0
 11
-22.17826350361915
 21
4.762499999999994
 31
0.0
  0
ENDSEC
  0
SECTION
  2
OBJECTS
  0
DICTIONARY
  5
C
330
0
100
AcDbDictionary
281
     1
  3
ACAD_GROUP
350
D
  3
ACAD_IMAGE_VARS
350
273
  3
ACAD_LAYOUT
350
1A
  3
ACAD_MLINESTYLE
350
17
  3
ACAD_PLOTSETTINGS
350
19
  3
ACAD_PLOTSTYLENAME
350
E
  3
ACAD_SCALELIST
350
47
  3
APPDATA
350
159
  3
DWGPROPS
350
274
  0
DICTIONARY
  5
192
330
2
100
AcDbDictionary
280
     1
281
     1
  3
ACAD_LAYERSTATES
360
193
  0
DICTIONARY
  5
D
102
{ACAD_REACTORS
330
C
102
}
330
C
100
AcDbDictionary
281
     1
  0
RASTERVARIABLES
  5
273
102
{ACAD_REACTORS
330
C
102
}
330
C
100
AcDbRasterVariables
 90
        0
 70
     1
 71
     1
 72
     1
  0
DICTIONARY
  5
1A
102
{ACAD_REACTORS
330
C
102
}
330
C
100
AcDbDictionary
281
     1
  3
Layout1
350
1E
  3
Layout2
350
26
  3
Model
350
22
  0
DICTIONARY
  5
17
102
{ACAD_REACTORS
330
C
102
}
330
C
100
AcDbDictionary
281
     1
  3
Standard
350
18
  0
DICTIONARY
  5
19
102
{ACAD_REACTORS
330
C
102
}
330
C
100
AcDbDictionary
281
     1
  0
ACDBDICTIONARYWDFLT
  5
E
102
{ACAD_REACTORS
330
C
102
}
330
C
100
AcDbDictionary
281
     1
  3
Normal
350
F
100
AcDbDictionaryWithDefault
340
F
  0
DICTIONARY
  5
47
102
{ACAD_REACTORS
330
C
102
}
330
C
100
AcDbDictionary
281
     1
  3
A0
350
48
  3
A1
350
49
  3
A2
350
4A
  3
A3
350
4B
  3
A4
350
4C
  3
A5
350
4D
  3
A6
350
4E
  3
A7
350
4F
  3
A8
350
50
  3
A9
350
51
  3
B0
350
52
  3
B1
350
53
  3
B2
350
54
  3
B3
350
55
  3
B4
350
56
  3
B5
350
57
  3
B6
350
58
  3
B7
350
59
  3
B8
350
5A
  3
B9
350
5B
  3
C0
350
5C
  3
C1
350
5D
  3
C2
350
5E
  3
C3
350
5F
  3
C4
350
60
  3
C5
350
61
  3
C6
350
62
  3
C7
350
63
  3
C8
350
64
  3
C9
350
65
  3
D0
350
66
  3
D1
350
67
  3
D2
350
68
  0
DICTIONARY
  5
159
102
{ACAD_REACTORS
330
C
102
}
330
C
100
AcDbDictionary
281
     1
  0
XRECORD
  5
274
102
{ACAD_REACTORS
330
C
102
}
330
C
100
AcDbXrecord
280
     1
  1
DWGPROPS COOKIE
  2

  3

  4

  6

  7

  8
12016016
  9

300
=
301
=
302
=
303
=
304
=
305
=
306
=
307
=
308
=
309
=
 40
0.0
 41
2458313.0215236
 42
2458330.40151419
  1

 90
        0
  0
DICTIONARY
  5
193
102
{ACAD_REACTORS
330
192
102
}
330
192
100
AcDbDictionary
281
     1
  0
LAYOUT
  5
1E
102
{ACAD_REACTORS
330
1A
102
}
330
1A
100
AcDbPlotSettings
  1

  2
none_device
  4

  6

 40
0.0
 41
0.0
 42
0.0
 43
0.0
 44
0.0
 45
0.0
 46
0.0
 47
0.0
 48
0.0
 49
0.0
140
0.0
141
0.0
142
1.0
143
1.0
 70
   688
 72
     1
 73
     0
 74
     5
  7

 75
    16
147
1.0
148
0.0
149
0.0
100
AcDbLayout
  1
Layout1
 70
     1
 71
     1
 10
0.0
 20
0.0
 11
420.0
 21
297.0
 12
0.0
 22
0.0
 32
0.0
 14
1.000000000000000E+20
 24
1.000000000000000E+20
 34
1.000000000000000E+20
 15
-1.000000000000000E+20
 25
-1.000000000000000E+20
 35
-1.000000000000000E+20
146
0.0
 13
0.0
 23
0.0
 33
0.0
 16
1.0
 26
0.0
 36
0.0
 17
0.0
 27
1.0
 37
0.0
 76
     0
330
1B
  0
LAYOUT
  5
26
102
{ACAD_REACTORS
330
1A
102
}
330
1A
100
AcDbPlotSettings
  1

  2
none_device
  4

  6

 40
0.0
 41
0.0
 42
0.0
 43
0.0
 44
0.0
 45
0.0
 46
0.0
 47
0.0
 48
0.0
 49
0.0
140
0.0
141
0.0
142
1.0
143
1.0
 70
   688
 72
     1
 73
     0
 74
     5
  7

 75
    16
147
1.0
148
0.0
149
0.0
100
AcDbLayout
  1
Layout2
 70
     1
 71
     2
 10
0.0
 20
0.0
 11
0.0
 21
0.0
 12
0.0
 22
0.0
 32
0.0
 14
0.0
 24
0.0
 34
0.0
 15
0.0
 25
0.0
 35
0.0
146
0.0
 13
0.0
 23
0.0
 33
0.0
 16
1.0
 26
0.0
 36
0.0
 17
0.0
 27
1.0
 37
0.0
 76
     0
330
23
  0
LAYOUT
  5
22
102
{ACAD_REACTORS
330
1A
102
}
330
1A
100
AcDbPlotSettings
  1

  2
none_device
  4
ANSI_A_(11.00_x_8.50_Inches)
  6

 40
6.35
 41
19.05
 42
6.35000508
 43
19.05000254
 44
279.4
 45
215.9
 46
82.12739698969841
 47
54.00395747112837
 48
0.0
 49
0.0
140
0.0
141
0.0
142
0.0440071892659234
143
1.0
 70
  1696
 72
     0
 73
     0
 74
     0
  7

 75
     0
147
0.0235690232323232
148
0.0
149
0.0
100
AcDbLayout
  1
Model
 70
     1
 71
     0
 10
0.0
 20
0.0
 11
420.0
 21
297.0
 12
0.0
 22
0.0
 32
0.0
 14
-54.0625000000001
 24
-49.97180738881174
 34
0.0
 15
96.20662503295506
 25
41.39266545658985
 35
0.0
146
0.0
 13
0.0
 23
0.0
 33
0.0
 16
1.0
 26
0.0
 36
0.0
 17
0.0
 27
1.0
 37
0.0
 76
     0
330
1F
331
29
  0
MLINESTYLE
  5
18
102
{ACAD_REACTORS
330
17
102
}
330
17
100
AcDbMlineStyle
  2
Standard
 70
     0
  3

 62
   256
 51
90.0
 52
90.0
 71
     2
 49
0.5
 62
   256
  6
BYLAYER
 49
-0.5
 62
   256
  6
BYLAYER
  0
ACDBPLACEHOLDER
  5
F
102
{ACAD_REACTORS
330
E
102
}
330
E
  0
SCALE
  5
48
102
{ACAD_REACTORS
330
47
102
}
330
47
100
AcDbScale
 70
     0
300
1:1
140
1.0
141
1.0
290
     1
  0
SCALE
  5
49
102
{ACAD_REACTORS
330
47
102
}
330
47
100
AcDbScale
 70
     0
300
1:2
140
1.0
141
2.0
290
     0
  0
SCALE
  5
4A
102
{ACAD_REACTORS
330
47
102
}
330
47
100
AcDbScale
 70
     0
300
1:4
140
1.0
141
4.0
290
     0
  0
SCALE
  5
4B
102
{ACAD_REACTORS
330
47
102
}
330
47
100
AcDbScale
 70
     0
300
1:5
140
1.0
141
5.0
290
     0
  0
SCALE
  5
4C
102
{ACAD_REACTORS
330
47
102
}
330
47
100
AcDbScale
 70
     0
300
1:8
140
1.0
141
8.0
290
     0
  0
SCALE
  5
4D
102
{ACAD_REACTORS
330
47
102
}
330
47
100
AcDbScale
 70
     0
300
1:10
140
1.0
141
10.0
290
     0
  0
SCALE
  5
4E
102
{ACAD_REACTORS
330
47
102
}
330
47
100
AcDbScale
 70
     0
300
1:16
140
1.0
141
16.0
290
     0
  0
SCALE
  5
4F
102
{ACAD_REACTORS
330
47
102
}
330
47
100
AcDbScale
 70
     0
300
1:20
140
1.0
141
20.0
290
     0
  0
SCALE
  5
50
102
{ACAD_REACTORS
330
47
102
}
330
47
100
AcDbScale
 70
     0
300
1:30
140
1.0
141
30.0
290
     0
  0
SCALE
  5
51
102
{ACAD_REACTORS
330
47
102
}
330
47
100
AcDbScale
 70
     0
300
1:40
140
1.0
141
40.0
290
     0
  0
SCALE
  5
52
102
{ACAD_REACTORS
330
47
102
}
330
47
100
AcDbScale
 70
     0
300
1:50
140
1.0
141
50.0
290
     0
  0
SCALE
  5
53
102
{ACAD_REACTORS
330
47
102
}
330
47
100
AcDbScale
 70
     0
300
1:100
140
1.0
141
100.0
290
     0
  0
SCALE
  5
54
102
{ACAD_REACTORS
330
47
102
}
330
47
100
AcDbScale
 70
     0
300
2:1
140
2.0
141
1.0
290
     0
  0
SCALE
  5
55
102
{ACAD_REACTORS
330
47
102
}
330
47
100
AcDbScale
 70
     0
300
4:1
140
4.0
141
1.0
290
     0
  0
SCALE
  5
56
102
{ACAD_REACTORS
330
47
102
}
330
47
100
AcDbScale
 70
     0
300
8:1
140
8.0
141
1.0
290
     0
  0
SCALE
  5
57
102
{ACAD_REACTORS
330
47
102
}
330
47
100
AcDbScale
 70
     0
300
10:1
140
10.0
141
1.0
290
     0
  0
SCALE
  5
58
102
{ACAD_REACTORS
330
47
102
}
330
47
100
AcDbScale
 70
     0
300
100:1
140
100.0
141
1.0
290
     0
  0
SCALE
  5
59
102
{ACAD_REACTORS
330
47
102
}
330
47
100
AcDbScale
 70
     0
300
1/128" = 1'-0"
140
0.0078125
141
12.0
290
     0
  0
SCALE
  5
5A
102
{ACAD_REACTORS
330
47
102
}
330
47
100
AcDbScale
 70
     0
300
1/64" = 1'-0"
140
0.015625
141
12.0
290
     0
  0
SCALE
  5
5B
102
{ACAD_REACTORS
330
47
102
}
330
47
100
AcDbScale
 70
     0
300
1/32" = 1'-0"
140
0.03125
141
12.0
290
     0
  0
SCALE
  5
5C
102
{ACAD_REACTORS
330
47
102
}
330
47
100
AcDbScale
 70
     0
300
1/16" = 1'-0"
140
0.0625
141
12.0
290
     0
  0
SCALE
  5
5D
102
{ACAD_REACTORS
330
47
102
}
330
47
100
AcDbScale
 70
     0
300
3/32" = 1'-0"
140
0.09375
141
12.0
290
     0
  0
SCALE
  5
5E
102
{ACAD_REACTORS
330
47
102
}
330
47
100
AcDbScale
 70
     0
300
1/8" = 1'-0"
140
0.125
141
12.0
290
     0
  0
SCALE
  5
5F
102
{ACAD_REACTORS
330
47
102
}
330
47
100
AcDbScale
 70
     0
300
3/16" = 1'-0"
140
0.1875
141
12.0
290
     0
  0
SCALE
  5
60
102
{ACAD_REACTORS
330
47
102
}
330
47
100
AcDbScale
 70
     0
300
1/4" = 1'-0"
140
0.25
141
12.0
290
     0
  0
SCALE
  5
61
102
{ACAD_REACTORS
330
47
102
}
330
47
100
AcDbScale
 70
     0
300
3/8" = 1'-0"
140
0.375
141
12.0
290
     0
  0
SCALE
  5
62
102
{ACAD_REACTORS
330
47
102
}
330
47
100
AcDbScale
 70
     0
300
1/2" = 1'-0"
140
0.5
141
12.0
290
     0
  0
SCALE
  5
63
102
{ACAD_REACTORS
330
47
102
}
330
47
100
AcDbScale
 70
     0
300
3/4" = 1'-0"
140
0.75
141
12.0
290
     0
  0
SCALE
  5
64
102
{ACAD_REACTORS
330
47
102
}
330
47
100
AcDbScale
 70
     0
300
1" = 1'-0"
140
1.0
141
12.0
290
     0
  0
SCALE
  5
65
102
{ACAD_REACTORS
330
47
102
}
330
47
100
AcDbScale
 70
     0
300
1-1/2" = 1'-0"
140
1.5
141
12.0
290
     0
  0
SCALE
  5
66
102
{ACAD_REACTORS
330
47
102
}
330
47
100
AcDbScale
 70
     0
300
3" = 1'-0"
140
3.0
141
12.0
290
     0
  0
SCALE
  5
67
102
{ACAD_REACTORS
330
47
102
}
330
47
100
AcDbScale
 70
     0
300
6" = 1'-0"
140
6.0
141
12.0
290
     0
  0
SCALE
  5
68
102
{ACAD_REACTORS
330
47
102
}
330
47
100
AcDbScale
 70
     0
300
1'-0" = 1'-0"
140
12.0
141
12.0
290
     0
  0
ENDSEC
  0
EOF
