  0
SECTION
  2
HEADER
  9
$ACADVER
  1
AC1015
  9
$ACADMAINTVER
 70
     6
  9
$DWGCODEPAGE
  3
ANSI_949
  9
$INSBASE
 10
0.0
 20
0.0
 30
0.0
  9
$EXTMIN
 10
-54.0625000000001
 20
-49.97180738881175
 30
0.0
  9
$EXTMAX
 10
96.20662503295506
 20
40.71593524023699
 30
0.0
  9
$LIMMIN
 10
0.0
 20
0.0
  9
$LIMMAX
 10
420.0
 20
297.0
  9
$ORTHOMODE
 70
     1
  9
$REGENMODE
 70
     1
  9
$FILLMODE
 70
     1
  9
$QTEXTMODE
 70
     0
  9
$MIRRTEXT
 70
     1
  9
$LTSCALE
 40
1.0
  9
$ATTMODE
 70
     1
  9
$TEXTSIZE
 40
3.5
  9
$TRACEWID
 40
1.0
  9
$TEXTSTYLE
  7
Standard
  9
$CLAYER
  8
0
  9
$CELTYPE
  6
ByLayer
  9
$CECOLOR
 62
   256
  9
$CELTSCALE
 40
1.0
  9
$DISPSILH
 70
     0
  9
$DIMSCALE
 40
1.0
  9
$DIMASZ
 40
3.302
  9
$DIMEXO
 40
1.0
  9
$DIMDLI
 40
3.75
  9
$DIMRND
 40
0.0
  9
$DIMDLE
 40
0.0
  9
$DIMEXE
 40
1.0
  9
$DIMTP
 40
0.0
  9
$DIMTM
 40
0.0
  9
$DIMTXT
 40
3.5
  9
$DIMCEN
 40
2.5
  9
$DIMTSZ
 40
0.0
  9
$DIMTOL
 70
     0
  9
$DIMLIM
 70
     0
  9
$DIMTIH
 70
     1
  9
$DIMTOH
 70
     1
  9
$DIMSE1
 70
     0
  9
$DIMSE2
 70
     0
  9
$DIMTAD
 70
     1
  9
$DIMZIN
 70
     0
  9
$DIMBLK
  1

  9
$DIMASO
 70
     1
  9
$DIMSHO
 70
     1
  9
$DIMPOST
  1

  9
$DIMAPOST
  1

  9
$DIMALT
 70
     0
  9
$DIMALTD
 70
     3
  9
$DIMALTF
 40
0.0393700787401575
  9
$DIMLFAC
 40
1.0
  9
$DIMTOFL
 70
     1
  9
$DIMTVP
 40
0.0
  9
$DIMTIX
 70
     0
  9
$DIMSOXD
 70
     0
  9
$DIMSAH
 70
     0
  9
$DIMBLK1
  1

  9
$DIMBLK2
  1

  9
$DIMSTYLE
  2
ISO-25
  9
$DIMCLRD
 70
     0
  9
$DIMCLRE
 70
     0
  9
$DIMCLRT
 70
     0
  9
$DIMTFAC
 40
1.0
  9
$DIMGAP
 40
1.524
  9
$DIMJUST
 70
     0
  9
$DIMSD1
 70
     0
  9
$DIMSD2
 70
     0
  9
$DIMTOLJ
 70
     0
  9
$DIMTZIN
 70
     0
  9
$DIMALTZ
 70
     0
  9
$DIMALTTZ
 70
     0
  9
$DIMUPT
 70
     0
  9
$DIMDEC
 70
     2
  9
$DIMTDEC
 70
     2
  9
$DIMALTU
 70
     2
  9
$DIMALTTD
 70
     3
  9
$DIMTXSTY
  7
Standard
  9
$DIMAUNIT
 70
     0
  9
$DIMADEC
 70
     2
  9
$DIMALTRND
 40
0.0
  9
$DIMAZIN
 70
     0
  9
$DIMDSEP
 70
    44
  9
$DIMATFIT
 70
     3
  9
$DIMFRAC
 70
     0
  9
$DIMLDRBLK
  1

  9
$DIMLUNIT
 70
     2
  9
$DIMLWD
 70
    -2
  9
$DIMLWE
 70
    -2
  9
$DIMTMOVE
 70
     0
  9
$LUNITS
 70
     2
  9
$LUPREC
 70
     2
  9
$SKETCHINC
 40
1.0
  9
$FILLETRAD
 40
10.0
  9
$AUNITS
 70
     0
  9
$AUPREC
 70
     2
  9
$MENU
  1
.
  9
$ELEVATION
 40
0.0
  9
$PELEVATION
 40
0.0
  9
$THICKNESS
 40
0.0
  9
$LIMCHECK
 70
     0
  9
$CHAMFERA
 40
0.0
  9
$CHAMFERB
 40
0.0
  9
$CHAMFERC
 40
0.0
  9
$CHAMFERD
 40
0.0
  9
$SKPOLY
 70
     0
  9
$TDCREATE
 40
2458313.396735382
  9
$TDUCREATE
 40
2458313.021735382
  9
$TDUPDATE
 40
2458330.776470266
  9
$TDUUPDATE
 40
2458330.401470266
  9
$TDINDWG
 40
0.0020863542
  9
$TDUSRTIMER
 40
2458330.401433438
  9
$USRTIMER
 70
     1
  9
$ANGBASE
 50
0.0
  9
$ANGDIR
 70
     0
  9
$PDMODE
 70
     0
  9
$PDSIZE
 40
-1.0
  9
$PLINEWID
 40
0.0
  9
$SPLFRAME
 70
     0
  9
$SPLINETYPE
 70
     6
  9
$SPLINESEGS
 70
     8
  9
$HANDSEED
  5
272
  9
$SURFTAB1
 70
     6
  9
$SURFTAB2
 70
     6
  9
$SURFTYPE
 70
     6
  9
$SURFU
 70
     6
  9
$SURFV
 70
     6
  9
$UCSBASE
  2

  9
$UCSNAME
  2

  9
$UCSORG
 10
0.0
 20
0.0
 30
0.0
  9
$UCSXDIR
 10
1.0
 20
0.0
 30
0.0
  9
$UCSYDIR
 10
0.0
 20
1.0
 30
0.0
  9
$UCSORTHOREF
  2

  9
$UCSORTHOVIEW
 70
     0
  9
$UCSORGTOP
 10
0.0
 20
0.0
 30
0.0
  9
$UCSORGBOTTOM
 10
0.0
 20
0.0
 30
0.0
  9
$UCSORGLEFT
 10
0.0
 20
0.0
 30
0.0
  9
$UCSORGRIGHT
 10
0.0
 20
0.0
 30
0.0
  9
$UCSORGFRONT
 10
0.0
 20
0.0
 30
0.0
  9
$UCSORGBACK
 10
0.0
 20
0.0
 30
0.0
  9
$PUCSBASE
  2

  9
$PUCSNAME
  2

  9
$PUCSORG
 10
0.0
 20
0.0
 30
0.0
  9
$PUCSXDIR
 10
1.0
 20
0.0
 30
0.0
  9
$PUCSYDIR
 10
0.0
 20
1.0
 30
0.0
  9
$PUCSORTHOREF
  2

  9
$PUCSORTHOVIEW
 70
     0
  9
$PUCSORGTOP
 10
0.0
 20
0.0
 30
0.0
  9
$PUCSORGBOTTOM
 10
0.0
 20
0.0
 30
0.0
  9
$PUCSORGLEFT
 10
0.0
 20
0.0
 30
0.0
  9
$PUCSORGRIGHT
 10
0.0
 20
0.0
 30
0.0
  9
$PUCSORGFRONT
 10
0.0
 20
0.0
 30
0.0
  9
$PUCSORGBACK
 10
0.0
 20
0.0
 30
0.0
  9
$USERI1
 70
     0
  9
$USERI2
 70
     0
  9
$USERI3
 70
     0
  9
$USERI4
 70
     0
  9
$USERI5
 70
     0
  9
$USERR1
 40
0.0
  9
$USERR2
 40
0.0
  9
$USERR3
 40
0.0
  9
$USERR4
 40
0.0
  9
$USERR5
 40
0.0
  9
$WORLDVIEW
 70
     1
  9
$SHADEDGE
 70
     3
  9
$SHADEDIF
 70
    70
  9
$TILEMODE
 70
     1
  9
$MAXACTVP
 70
    64
  9
$PINSBASE
 10
0.0
 20
0.0
 30
0.0
  9
$PLIMCHECK
 70
     0
  9
$PEXTMIN
 10
1.000000000000000E+20
 20
1.000000000000000E+20
 30
1.000000000000000E+20
  9
$PEXTMAX
 10
-1.000000000000000E+20
 20
-1.000000000000000E+20
 30
-1.000000000000000E+20
  9
$PLIMMIN
 10
0.0
 20
0.0
  9
$PLIMMAX
 10
0.0
 20
0.0
  9
$UNITMODE
 70
     0
  9
$VISRETAIN
 70
     1
  9
$PLINEGEN
 70
     0
  9
$PSLTSCALE
 70
     1
  9
$TREEDEPTH
 70
  3020
  9
$CMLSTYLE
  2
Standard
  9
$CMLJUST
 70
     0
  9
$CMLSCALE
 40
20.0
  9
$PROXYGRAPHICS
 70
     1
  9
$MEASUREMENT
 70
     1
  9
$CELWEIGHT
370
    -1
  9
$ENDCAPS
280
     0
  9
$JOINSTYLE
280
     0
  9
$LWDISPLAY
290
     1
  9
$INSUNITS
 70
     4
  9
$HYPERLINKBASE
  1

  9
$STYLESHEET
  1

  9
$XEDIT
290
     1
  9
$CEPSNTYPE
380
     0
  9
$PSTYLEMODE
290
     1
  9
$FINGERPRINTGUID
  2
{CF50912A-68ED-46E5-9D09-62CC64BF63DC}
  9
$VERSIONGUID
  2
{FAEB1C32-E019-11D5-929B-00C0DF256EC4}
  9
$EXTNAMES
290
     1
  9
$PSVPSCALE
 40
0.0
  9
$OLESTARTUP
290
     0
  0
ENDSEC
  0
SECTION
  2
CLASSES
  0
CLASS
  1
ACDBDICTIONARYWDFLT
  2
AcDbDictionaryWithDefault
  3
ObjectDBX Classes
 90
        0
280
     0
281
     0
  0
CLASS
  1
VISUALSTYLE
  2
AcDbVisualStyle
  3
ObjectDBX Classes
 90
     4095
280
     0
281
     0
  0
CLASS
  1
MATERIAL
  2
AcDbMaterial
  3
ObjectDBX Classes
 90
     1153
280
     0
281
     0
  0
CLASS
  1
SCALE
  2
AcDbScale
  3
ObjectDBX Classes
 90
     1153
280
     0
281
     0
  0
CLASS
  1
SUN
  2
AcDbSun
  3
SCENEOE
 90
     1153
280
     0
281
     0
  0
CLASS
  1
ACDBPLACEHOLDER
  2
AcDbPlaceHolder
  3
ObjectDBX Classes
 90
        0
280
     0
281
     0
  0
CLASS
  1
LAYOUT
  2
AcDbLayout
  3
ObjectDBX Classes
 90
        0
280
     0
281
     0
  0
CLASS
  1
TABLESTYLE
  2
AcDbTableStyle
  3
ObjectDBX Classes
 90
     4095
280
     0
281
     0
  0
CLASS
  1
MLEADERSTYLE
  2
AcDbMLeaderStyle
  3
ACDB_MLEADERSTYLE_CLASS
 90
     4095
280
     0
281
     0
  0
CLASS
  1
RASTERVARIABLES
  2
AcDbRasterVariables
  3
ISM
 90
        0
280
     0
281
     0
  0
ENDSEC
  0
SECTION
  2
TABLES
  0
TABLE
  2
VPORT
  5
8
330
0
100
AcDbSymbolTable
 70
     1
  0
VPORT
  5
29
330
8
100
AcDbSymbolTableRecord
100
AcDbViewportTableRecord
  2
*Active
 70
     0
 10
0.0
 20
0.0
 11
1.0
 21
1.0
 12
21.07206251647749
 22
-4.627936074287341
 13
0.0
 23
0.0
 14
10.0
 24
10.0
 15
10.0
 25
10.0
 16
0.0
 26
0.0
 36
1.0
 17
0.0
 27
0.0
 37
0.0
 40
92.50149748162981
 41
1.782762691853601
 42
50.0
 43
0.0
 44
0.0
 50
0.0
 51
0.0
 71
    16
 72
  2000
 73
     1
 74
     3
 75
     0
 76
     0
 77
     0
 78
     0
281
     0
 65
     1
110
0.0
120
0.0
130
0.0
111
1.0
121
0.0
131
0.0
112
0.0
122
1.0
132
0.0
 79
     0
146
0.0
  0
ENDTAB
  0
TABLE
  2
LTYPE
  5
5
330
0
100
AcDbSymbolTable
 70
     6
  0
LTYPE
  5
14
330
5
100
AcDbSymbolTableRecord
100
AcDbLinetypeTableRecord
  2
ByBlock
 70
     0
  3

 72
    65
 73
     0
 40
0.0
  0
LTYPE
  5
15
330
5
100
AcDbSymbolTableRecord
100
AcDbLinetypeTableRecord
  2
ByLayer
 70
     0
  3

 72
    65
 73
     0
 40
0.0
  0
LTYPE
  5
16
330
5
100
AcDbSymbolTableRecord
100
AcDbLinetypeTableRecord
  2
Continuous
 70
     0
  3
Solid line
 72
    65
 73
     0
 40
0.0
  0
LTYPE
  5
6A
330
5
100
AcDbSymbolTableRecord
100
AcDbLinetypeTableRecord
  2
HIDDEN
 70
     0
  3
Hidden __ __ __ __ __ __ __ __ __ __ __ __ __ __
 72
    65
 73
     2
 40
1.905
 49
1.27
 74
     0
 49
-0.635
 74
     0
  0
LTYPE
  5
6B
330
5
100
AcDbSymbolTableRecord
100
AcDbLinetypeTableRecord
  2
PHANTOM
 70
     0
  3
Phantom ______  __  __  ______  __  __  ______
 72
    65
 73
     6
 40
12.7
 49
6.35
 74
     0
 49
-1.27
 74
     0
 49
1.27
 74
     0
 49
-1.27
 74
     0
 49
1.27
 74
     0
 49
-1.27
 74
     0
  0
LTYPE
  5
6C
330
5
100
AcDbSymbolTableRecord
100
AcDbLinetypeTableRecord
  2
CENTER
 70
     0
  3
Center ____ _ ____ _ ____ _ ____ _ ____ _ ____
 72
    65
 73
     4
 40
10.16
 49
6.35
 74
     0
 49
-1.27
 74
     0
 49
1.27
 74
     0
 49
-1.27
 74
     0
  0
LTYPE
  5
6D
330
5
100
AcDbSymbolTableRecord
100
AcDbLinetypeTableRecord
  2
CENTERX2
 70
     0
  3
Center (2x) ________  __  ________  __  _____
 72
    65
 73
     4
 40
20.32
 49
12.7
 74
     0
 49
-2.54
 74
     0
 49
2.54
 74
     0
 49
-2.54
 74
     0
  0
LTYPE
  5
6E
330
5
100
AcDbSymbolTableRecord
100
AcDbLinetypeTableRecord
  2
DOT2
 70
     0
  3
Dot (.5x) ........................................
 72
    65
 73
     2
 40
0.635
 49
0.0
 74
     0
 49
-0.635
 74
     0
  0
ENDTAB
  0
TABLE
  2
LAYER
  5
2
102
{ACAD_XDICTIONARY
360
191
102
}
330
0
100
AcDbSymbolTable
 70
    18
  0
LAYER
  5
10
330
2
100
AcDbSymbolTableRecord
100
AcDbLayerTableRecord
  2
0
 70
     0
 62
     7
  6
Continuous
370
    -3
390
F
  0
LAYER
  5
6F
330
2
100
AcDbSymbolTableRecord
100
AcDbLayerTableRecord
  2
FORMAT
 70
     0
 62
     2
  6
Continuous
370
    -3
390
F
  0
LAYER
  5
70
330
2
100
AcDbSymbolTableRecord
100
AcDbLayerTableRecord
  2
외형선
 70
     0
 62
     4
  6
Continuous
370
    30
390
F
  0
LAYER
  5
71
330
2
100
AcDbSymbolTableRecord
100
AcDbLayerTableRecord
  2
숨은선
 70
     0
 62
     2
  6
HIDDEN
370
    15
390
F
  0
LAYER
  5
72
330
2
100
AcDbSymbolTableRecord
100
AcDbLayerTableRecord
  2
중심선
 70
     0
 62
     1
  6
CENTERX2
370
    -3
390
F
  0
LAYER
  5
73
330
2
100
AcDbSymbolTableRecord
100
AcDbLayerTableRecord
  2
파단선
 70
     0
 62
     4
  6
Continuous
370
    -3
390
F
  0
LAYER
  5
74
330
2
100
AcDbSymbolTableRecord
100
AcDbLayerTableRecord
  2
해칭선
 70
     0
 62
   100
  6
Continuous
370
    -3
390
F
  0
LAYER
  5
75
330
2
100
AcDbSymbolTableRecord
100
AcDbLayerTableRecord
  2
가는실선
 70
     0
 62
     4
  6
Continuous
370
    -3
390
F
  0
LAYER
  5
76
330
2
100
AcDbSymbolTableRecord
100
AcDbLayerTableRecord
  2
치수_보조선
 70
     0
 62
     4
  6
Continuous
370
    -3
390
F
  0
LAYER
  5
77
330
2
100
AcDbSymbolTableRecord
100
AcDbLayerTableRecord
  2
치수문자_일반주서
 70
     0
 62
     7
  6
Continuous
370
    15
390
F
  0
LAYER
  5
78
330
2
100
AcDbSymbolTableRecord
100
AcDbLayerTableRecord
  2
개별주서
 70
     0
 62
   100
  6
Continuous
370
    30
390
F
  0
LAYER
  5
79
330
2
100
AcDbSymbolTableRecord
100
AcDbLayerTableRecord
  2
중간선
 70
     0
 62
     2
  6
Continuous
370
    15
390
F
  0
LAYER
  5
7A
330
2
100
AcDbSymbolTableRecord
100
AcDbLayerTableRecord
  2
윤곽선
 70
     0
 62
     3
  6
Continuous
370
    40
390
F
  0
LAYER
  5
7B
330
2
100
AcDbSymbolTableRecord
100
AcDbLayerTableRecord
  2
중심마크
 70
     0
 62
   100
  6
Continuous
370
    30
390
F
  0
LAYER
  5
7C
330
2
100
AcDbSymbolTableRecord
100
AcDbLayerTableRecord
  2
가상선
 70
     0
 62
     4
  6
PHANTOM
370
    -3
390
F
  0
LAYER
  5
7D
330
2
100
AcDbSymbolTableRecord
100
AcDbLayerTableRecord
  2
특수지정선
 70
     0
 62
     5
  6
CENTERX2
370
    60
390
F
  0
LAYER
  5
7E
330
2
100
AcDbSymbolTableRecord
100
AcDbLayerTableRecord
  2
참조1
 70
     0
 62
    -4
  6
Continuous
370
    -3
390
F
  0
LAYER
  5
15A
330
2
100
AcDbSymbolTableRecord
100
AcDbLayerTableRecord
  2
Defpoints
 70
     0
 62
     7
  6
Continuous
290
     0
370
    -3
390
F
  0
ENDTAB
  0
TABLE
  2
STYLE
  5
3
330
0
100
AcDbSymbolTable
 70
     2
  0
STYLE
  5
11
330
3
100
AcDbSymbolTableRecord
100
AcDbTextStyleTableRecord
  2
Standard
 70
     0
 40
0.0
 41
1.0
 50
0.0
 71
     0
 42
3.5
  3
txt
  4

  0
STYLE
  5
94
330
3
100
AcDbSymbolTableRecord
100
AcDbTextStyleTableRecord
  2
SLDTEXTSTYLE0
 70
     0
 40
0.0
 41
0.75
 50
0.0
 71
     0
 42
3.5
  3
TXT
  4

  0
ENDTAB
  0
TABLE
  2
VIEW
  5
6
330
0
100
AcDbSymbolTable
 70
     0
  0
ENDTAB
  0
TABLE
  2
UCS
  5
7
330
0
100
AcDbSymbolTable
 70
     0
  0
ENDTAB
  0
TABLE
  2
APPID
  5
9
330
0
100
AcDbSymbolTable
 70
     2
  0
APPID
  5
12
330
9
100
AcDbSymbolTableRecord
100
AcDbRegAppTableRecord
  2
ACAD
 70
     0
  0
APPID
  5
161
330
9
100
AcDbSymbolTableRecord
100
AcDbRegAppTableRecord
  2
PE_URL
 70
     0
  0
ENDTAB
  0
TABLE
  2
DIMSTYLE
  5
A
330
0
100
AcDbSymbolTable
 70
     3
100
AcDbDimStyleTable
  0
DIMSTYLE
105
27
330
A
100
AcDbSymbolTableRecord
100
AcDbDimStyleTableRecord
  2
ISO-25
 70
     0
 41
2.5
 42
0.625
 43
3.75
 44
1.25
 73
     0
 74
     0
 77
     1
 78
     8
140
2.5
141
2.5
143
0.03937007874016
147
0.625
171
     3
172
     1
178
     0
271
     2
272
     2
274
     3
278
    44
283
     0
284
     8
340
11
  0
DIMSTYLE
105
DA
102
{ACAD_REACTORS
330
D9
330
EE
330
102
330
116
102
}
330
A
100
AcDbSymbolTableRecord
100
AcDbDimStyleTableRecord
  2
SLDDIMSTYLE0
 70
     0
 41
3.302
 44
0.0
 45
0.000000001
 73
     0
 74
     0
 77
     1
 78
    12
 79
     3
140
3.5
143
0.0393700787401575
147
0.875
148
0.000000001
170
     1
172
     1
173
     1
178
     0
271
     2
272
     2
276
     2
284
    12
289
     0
340
94
  0
DIMSTYLE
105
EF
330
A
100
AcDbSymbolTableRecord
100
AcDbDimStyleTableRecord
  2
SLDDIMSTYLE1
 70
     0
 41
3.302
 44
0.0
 45
0.000000001
 73
     0
 74
     0
 77
     1
 78
    12
 79
     3
140
3.5
143
0.0393700787401575
147
0.875
148
0.000000001
170
     1
173
     1
178
     0
271
     2
272
     2
276
     2
284
    12
340
94
  0
ENDTAB
  0
TABLE
  2
BLOCK_RECORD
  5
1
330
0
100
AcDbSymbolTable
 70
     9
  0
BLOCK_RECORD
  5
1F
330
1
100
AcDbSymbolTableRecord
100
AcDbBlockTableRecord
  2
*Model_Space
340
22
  0
BLOCK_RECORD
  5
1B
330
1
100
AcDbSymbolTableRecord
100
AcDbBlockTableRecord
  2
*Paper_Space
340
1E
  0
BLOCK_RECORD
  5
23
330
1
100
AcDbSymbolTableRecord
100
AcDbBlockTableRecord
  2
*Paper_Space0
340
26
  0
BLOCK_RECORD
  5
7F
330
1
100
AcDbSymbolTableRecord
100
AcDbBlockTableRecord
  2
블럭10
340
0
102
{BLKREFS
331
D2
102
}
  0
BLOCK_RECORD
  5
DB
330
1
100
AcDbSymbolTableRecord
100
AcDbBlockTableRecord
  2
_D
340
0
  0
BLOCK_RECORD
  5
F0
330
1
100
AcDbSymbolTableRecord
100
AcDbBlockTableRecord
  2
_D_1
340
0
  0
BLOCK_RECORD
  5
103
330
1
100
AcDbSymbolTableRecord
100
AcDbBlockTableRecord
  2
_D_2
340
0
  0
BLOCK_RECORD
  5
117
330
1
100
AcDbSymbolTableRecord
100
AcDbBlockTableRecord
  2
_D_3
340
0
  0
BLOCK_RECORD
  5
130
330
1
100
AcDbSymbolTableRecord
100
AcDbBlockTableRecord
  2
SW_DOWELSYMBOL_0
340
0
102
{BLKREFS
331
136
102
}
  0
BLOCK_RECORD
  5
195
330
1
100
AcDbSymbolTableRecord
100
AcDbBlockTableRecord
  2
*D7
340
0
  0
BLOCK_RECORD
  5
1A7
330
1
100
AcDbSymbolTableRecord
100
AcDbBlockTableRecord
  2
*D8
340
0
  0
ENDTAB
  0
ENDSEC
  0
SECTION
  2
BLOCKS
  0
BLOCK
  5
20
330
1F
100
AcDbEntity
  8
0
100
AcDbBlockBegin
  2
*Model_Space
 70
     0
 10
0.0
 20
0.0
 30
0.0
  3
*Model_Space
  1
*Model_Space
  0
ENDBLK
  5
21
330
1F
100
AcDbEntity
  8
0
100
AcDbBlockEnd
  0
BLOCK
  5
1C
330
1B
100
AcDbEntity
 67
     1
  8
0
100
AcDbBlockBegin
  2
*Paper_Space
 70
     0
 10
0.0
 20
0.0
 30
0.0
  3
*Paper_Space
  1
*Paper_Space
  0
ENDBLK
  5
1D
330
1B
100
AcDbEntity
 67
     1
  8
0
100
AcDbBlockEnd
  0
BLOCK
  5
24
330
23
100
AcDbEntity
  8
0
100
AcDbBlockBegin
  2
*Paper_Space0
 70
     0
 10
0.0
 20
0.0
 30
0.0
  3
*Paper_Space0
  1
*Paper_Space0
  0
ENDBLK
  5
25
330
23
100
AcDbEntity
  8
0
100
AcDbBlockEnd
  0
BLOCK
  5
80
330
7F
100
AcDbEntity
  8
0
100
AcDbBlockBegin
  2
블럭10
 70
     2
 10
0.0
 20
0.0
 30
0.0
  3
블럭10
  1
블럭10
  0
ELLIPSE
  5
82
330
7F
100
AcDbEntity
  8
중심선
100
AcDbEllipse
 10
20.54032771741204
 20
12.0471743016438
 30
0.0
 11
6.600054785286829
 21
-1.261213355974178E-13
 31
0.0
210
0.0
220
0.0
230
1.0
 40
0.636358354079598
 41
0.9219305317359503
 42
6.513795318482858
  0
ELLIPSE
  5
83
330
7F
100
AcDbEntity
  8
중심선
100
AcDbEllipse
 10
20.54032771746488
 20
12.04717430159265
 30
0.0
 11
3.960054785062283
 21
1.540847449632565E-10
 31
0.0
210
0.0
220
0.0
230
1.0
 40
0.3939339440162632
 41
1.131841032648279
 42
5.62031148352944
  0
LINE
  5
84
330
7F
100
AcDbEntity
  8
중심선
100
AcDbLine
 10
2.268634060543552
 20
16.24717430164393
 30
0.0
 11
5.714909304380834
 21
16.24717430164393
 31
0.0
  0
LINE
  5
85
330
7F
100
AcDbEntity
  8
중심선
100
AcDbLine
 10
5.245725140726316
 20
7.84717430164391
 30
0.0
 11
8.692000384563599
 21
7.84717430164391
 31
0.0
  0
LINE
  5
86
330
7F
100
AcDbEntity
  8
중심선
100
AcDbLine
 10
15.74043728645272
 20
16.24717430164393
 30
0.0
 11
8.692000384563599
 21
7.84717430164391
 31
0.0
  0
LINE
  5
87
330
7F
100
AcDbEntity
  8
중심선
100
AcDbLine
 10
0.1404042013395286
 20
13.71084872107135
 30
0.0
 11
3.58671253028996
 21
13.71088815037384
 31
0.0
  0
LINE
  5
88
330
7F
100
AcDbEntity
  8
중심선
100
AcDbLine
 10
2.750260043222114
 20
10.84717430164391
 30
0.0
 11
6.196535287059397
 21
10.84717430164391
 31
0.0
  0
LINE
  5
89
330
7F
100
AcDbEntity
  8
중심선
100
AcDbLine
 10
12.29416204261559
 20
16.24717430164393
 30
0.0
 11
5.245725140726316
 21
7.84717430164391
 31
0.0
  0
LINE
  5
8A
330
7F
100
AcDbEntity
  8
중심선
100
AcDbLine
 10
10.72767329541681
 20
16.24717430164393
 30
0.0
 11
6.196535287059397
 21
10.84717430164391
 31
0.0
  0
LINE
  5
8B
330
7F
100
AcDbEntity
  8
중심선
100
AcDbLine
 10
7.28139805157953
 20
16.24717430164393
 30
0.0
 11
2.750260043222114
 21
10.84717430164391
 31
0.0
  0
LINE
  5
8C
330
7F
100
AcDbEntity
  8
중심선
100
AcDbLine
 10
5.714909304380834
 20
16.24717430164393
 30
0.0
 11
3.58671253028996
 21
13.71088815037384
 31
0.0
  0
LINE
  5
8D
330
7F
100
AcDbEntity
  8
중심선
100
AcDbLine
 10
2.268634060543552
 20
16.24717430164393
 30
0.0
 11
0.1404042013395286
 21
13.71084872107135
 31
0.0
  0
LINE
  5
8E
330
7F
100
AcDbEntity
  8
중심선
100
AcDbLine
 10
7.28139805157953
 20
16.24717430164393
 30
0.0
 11
10.72767329541681
 21
16.24717430164393
 31
0.0
  0
LINE
  5
8F
330
7F
100
AcDbEntity
  8
중심선
100
AcDbLine
 10
12.29416204261559
 20
16.24717430164393
 30
0.0
 11
15.74043728645272
 21
16.24717430164393
 31
0.0
  0
LINE
  5
90
330
7F
100
AcDbEntity
  8
중심선
100
AcDbLine
 10
19.22036997980202
 20
11.08717430171403
 30
0.0
 11
23.66174974927406
 21
11.08717430171406
 31
0.0
  0
LINE
  5
91
330
7F
100
AcDbEntity
  8
중심선
100
AcDbLine
 10
19.22039502424796
 20
13.00717430171391
 30
0.0
 11
19.22036997980202
 21
11.08717430171403
 31
0.0
  0
LINE
  5
92
330
7F
100
AcDbEntity
  8
중심선
100
AcDbLine
 10
19.22039502424796
 20
13.00717430171391
 30
0.0
 11
26.96566020931264
 21
13.00717430171391
 31
0.0
  0
LINE
  5
93
330
7F
100
AcDbEntity
  8
중심선
100
AcDbLine
 10
22.22332737316547
 20
13.45928029700563
 30
0.0
 11
24.52862924686651
 21
15.39360700705356
 31
0.0
  0
ATTDEF
  5
95
330
7F
100
AcDbEntity
  8
FORMAT
 62
     2
100
AcDbText
 10
4.408487351596664
 20
2.075366912832191
 30
0.0
 40
4.233333333333333
  1
E1050022
 41
0.75
  7
SLDTEXTSTYLE0
 11
4.408487351596664
 21
-0.0412997538344756
 31
0.0
100
AcDbAttributeDefinition
  3

  2
AUTOATTR0
 70
     0
 74
     1
  0
ENDBLK
  5
81
330
7F
100
AcDbEntity
  8
0
100
AcDbBlockEnd
  0
BLOCK
  5
DC
330
DB
100
AcDbEntity
  8
0
100
AcDbBlockBegin
  2
_D
 70
     0
 10
0.0
 20
0.0
 30
0.0
  3
_D
  1
_D
  0
LINE
  5
DE
330
DB
100
AcDbEntity
  8
치수문자_일반주서
 62
     0
370
    -2
100
AcDbLine
 10
-22.98134233574612
 20
4.762499999999994
 30
0.0
 11
-49.68749999999999
 21
4.762499999999893
 31
0.0
  0
LINE
  5
DF
330
DB
100
AcDbEntity
  8
치수문자_일반주서
 62
     0
370
    -2
100
AcDbLine
 10
-22.98134233574614
 20
-4.762500000000001
 30
0.0
 11
-49.68749999999996
 21
-4.762500000000099
 31
0.0
  0
LINE
  5
E0
330
DB
100
AcDbEntity
  8
치수문자_일반주서
 62
     0
370
    -2
100
AcDbLine
 10
-49.68749999999999
 20
4.762499999999893
 30
0.0
 11
-49.68750000000011
 21
37.61649999999996
 31
0.0
  0
LINE
  5
E1
330
DB
100
AcDbEntity
  8
치수문자_일반주서
 62
     0
370
    -2
100
AcDbLine
 10
-49.68749999999999
 20
4.762499999999893
 30
0.0
 11
-49.68749999999996
 21
-4.762500000000099
 31
0.0
  0
LINE
  5
E2
330
DB
100
AcDbEntity
  8
치수문자_일반주서
 62
     0
370
    -2
100
AcDbLine
 10
-49.68750000000001
 20
8.064499999999892
 30
0.0
 11
-49.68750000000002
 21
11.36649999999989
 31
0.0
  0
LINE
  5
E3
330
DB
100
AcDbEntity
  8
치수문자_일반주서
 62
     0
370
    -2
100
AcDbLine
 10
-49.68749999999994
 20
-8.064500000000098
 30
0.0
 11
-49.68749999999993
 21
-11.3665000000001
 31
0.0
  0
SOLID
  5
E4
330
DB
100
AcDbEntity
  8
치수문자_일반주서
 62
     0
100
AcDbTrace
 10
-50.23783333333334
 20
8.06449999999989
 30
0.0
 11
-49.13716666666667
 21
8.064499999999894
 31
0.0
 12
-49.68749999999999
 22
4.762499999999893
 32
0.0
 13
-49.68749999999999
 23
4.762499999999893
 33
0.0
  0
SOLID
  5
E5
330
DB
100
AcDbEntity
  8
치수문자_일반주서
 62
     0
100
AcDbTrace
 10
-49.13716666666661
 20
-8.064500000000097
 30
0.0
 11
-50.23783333333328
 21
-8.0645000000001
 31
0.0
 12
-49.68749999999996
 22
-4.762500000000099
 32
0.0
 13
-49.68749999999996
 23
-4.762500000000099
 33
0.0
  0
MTEXT
  5
E6
330
DB
100
AcDbEntity
  8
치수문자_일반주서
 62
     0
100
AcDbMText
 10
-54.06250000000006
 20
24.49149999999995
 30
0.0
 40
3.5
 41
0.0
 71
     2
 72
     1
  1
\A1;%%c9.53 [3/8]
  7
SLDTEXTSTYLE0
 11
-3.729883127349610E-15
 21
1.0
 31
0.0
 73
     1
 44
1.0
  0
POINT
  5
1E4
330
DB
100
AcDbEntity
  8
Defpoints
 62
     0
100
AcDbPoint
 10
-22.91884233574612
 20
4.762499999999994
 30
0.0
  0
POINT
  5
1E5
330
DB
100
AcDbEntity
  8
Defpoints
 62
     0
100
AcDbPoint
 10
-22.91884233574614
 20
-4.762500000000001
 30
0.0
  0
POINT
  5
1E6
330
DB
100
AcDbEntity
  8
Defpoints
 62
     0
100
AcDbPoint
 10
-49.68749999999996
 20
-4.762500000000101
 30
0.0
  0
ENDBLK
  5
DD
330
DB
100
AcDbEntity
  8
0
100
AcDbBlockEnd
  0
BLOCK
  5
F1
330
F0
100
AcDbEntity
  8
0
100
AcDbBlockBegin
  2
_D_1
 70
     0
 10
0.0
 20
0.0
 30
0.0
  3
_D_1
  1
_D_1
  0
LINE
  5
F3
330
F0
100
AcDbEntity
  8
치수문자_일반주서
 62
     0
370
    -2
100
AcDbLine
 10
39.75000000000001
 20
-4.361935240236914
 30
0.0
 11
80.89430428113563
 21
-4.361935240236757
 31
0.0
  0
LINE
  5
F4
330
F0
100
AcDbEntity
  8
치수문자_일반주서
 62
     0
370
    -2
100
AcDbLine
 10
39.75000000000001
 20
4.361935240236914
 30
0.0
 11
80.8943042811356
 21
4.36193524023707
 31
0.0
  0
LINE
  5
F5
330
F0
100
AcDbEntity
  8
치수문자_일반주서
 62
     0
370
    -2
100
AcDbLine
 10
80.8943042811356
 20
4.36193524023707
 30
0.0
 11
80.89430428113549
 21
40.71593524023707
 31
0.0
  0
LINE
  5
F6
330
F0
100
AcDbEntity
  8
치수문자_일반주서
 62
     0
370
    -2
100
AcDbLine
 10
80.89430428113563
 20
-4.361935240236757
 30
0.0
 11
80.8943042811356
 21
4.36193524023707
 31
0.0
  0
LINE
  5
F7
330
F0
100
AcDbEntity
  8
치수문자_일반주서
 62
     0
370
    -2
100
AcDbLine
 10
80.89430428113565
 20
-7.663935240236757
 30
0.0
 11
80.89430428113566
 21
-10.96593524023676
 31
0.0
  0
LINE
  5
F8
330
F0
100
AcDbEntity
  8
치수문자_일반주서
 62
     0
370
    -2
100
AcDbLine
 10
80.89430428113559
 20
7.66393524023707
 30
0.0
 11
80.89430428113558
 21
10.96593524023707
 31
0.0
  0
SOLID
  5
F9
330
F0
100
AcDbEntity
  8
치수문자_일반주서
 62
     0
100
AcDbTrace
 10
81.44463761446897
 20
-7.663935240236755
 30
0.0
 11
80.34397094780232
 21
-7.663935240236759
 31
0.0
 12
80.89430428113563
 22
-4.361935240236757
 32
0.0
 13
80.89430428113563
 23
-4.361935240236757
 33
0.0
  0
SOLID
  5
FA
330
F0
100
AcDbEntity
  8
치수문자_일반주서
 62
     0
100
AcDbTrace
 10
80.34397094780226
 20
7.663935240237068
 30
0.0
 11
81.44463761446892
 21
7.663935240237072
 31
0.0
 12
80.8943042811356
 22
4.36193524023707
 32
0.0
 13
80.8943042811356
 23
4.36193524023707
 33
0.0
  0
MTEXT
  5
FB
330
F0
100
AcDbEntity
  8
치수문자_일반주서
 62
     0
100
AcDbMText
 10
76.51930428113553
 20
25.84093524023706
 30
0.0
 40
3.5
 41
0.0
 71
     2
 72
     1
  1
\A1;%%c8.72 [11/32]
  7
SLDTEXTSTYLE0
 11
-3.257924277305447E-15
 21
1.0
 31
0.0
 73
     1
 44
1.0
  0
POINT
  5
FC
330
F0
100
AcDbEntity
  8
Defpoints
 62
     0
100
AcDbPoint
 10
39.68750000000001
 20
-4.361935240236914
 30
0.0
  0
POINT
  5
FD
330
F0
100
AcDbEntity
  8
Defpoints
 62
     0
100
AcDbPoint
 10
39.68750000000001
 20
4.361935240236914
 30
0.0
  0
POINT
  5
FE
330
F0
100
AcDbEntity
  8
Defpoints
 62
     0
100
AcDbPoint
 10
80.8943042811356
 20
4.361935240237067
 30
0.0
  0
ENDBLK
  5
F2
330
F0
100
AcDbEntity
  8
0
100
AcDbBlockEnd
  0
BLOCK
  5
104
330
103
100
AcDbEntity
  8
0
100
AcDbBlockBegin
  2
_D_2
 70
     0
 10
0.0
 20
0.0
 30
0.0
  3
_D_2
  1
_D_2
  0
LINE
  5
106
330
103
100
AcDbEntity
  8
치수문자_일반주서
 62
     0
370
    -2
100
AcDbLine
 10
39.68750000000001
 20
4.424435240236914
 30
0.0
 11
39.68750000000001
 21
14.7625
 31
0.0
  0
LINE
  5
107
330
103
100
AcDbEntity
  8
치수문자_일반주서
 62
     0
370
    -2
100
AcDbLine
 10
25.40000000000002
 20
3.477619199700485
 30
0.0
 11
25.40000000000002
 21
14.7625
 31
0.0
  0
LINE
  5
108
330
103
100
AcDbEntity
  8
치수문자_일반주서
 62
     0
370
    -2
100
AcDbLine
 10
39.68750000000001
 20
14.7625
 30
0.0
 11
73.41650000000001
 21
14.7625
 31
0.0
  0
LINE
  5
109
330
103
100
AcDbEntity
  8
치수문자_일반주서
 62
     0
370
    -2
100
AcDbLine
 10
39.68750000000001
 20
14.7625
 30
0.0
 11
25.40000000000002
 21
14.7625
 31
0.0
  0
LINE
  5
10A
330
103
100
AcDbEntity
  8
치수문자_일반주서
 62
     0
370
    -2
100
AcDbLine
 10
42.98950000000001
 20
14.7625
 30
0.0
 11
46.29150000000001
 21
14.7625
 31
0.0
  0
LINE
  5
10B
330
103
100
AcDbEntity
  8
치수문자_일반주서
 62
     0
370
    -2
100
AcDbLine
 10
22.09800000000002
 20
14.7625
 30
0.0
 11
18.79600000000002
 21
14.7625
 31
0.0
  0
SOLID
  5
10C
330
103
100
AcDbEntity
  8
치수문자_일반주서
 62
     0
100
AcDbTrace
 10
42.98950000000001
 20
15.31283333333333
 30
0.0
 11
42.98950000000001
 21
14.21216666666666
 31
0.0
 12
39.68750000000001
 22
14.7625
 32
0.0
 13
39.68750000000001
 23
14.7625
 33
0.0
  0
SOLID
  5
10D
330
103
100
AcDbEntity
  8
치수문자_일반주서
 62
     0
100
AcDbTrace
 10
22.09800000000002
 20
14.21216666666666
 30
0.0
 11
22.09800000000002
 21
15.31283333333333
 31
0.0
 12
25.40000000000002
 22
14.7625
 32
0.0
 13
25.40000000000002
 23
14.7625
 33
0.0
  0
MTEXT
  5
10E
330
103
100
AcDbEntity
  8
치수문자_일반주서
 62
     0
100
AcDbMText
 10
59.85400000000001
 20
19.1375
 30
0.0
 40
3.5
 41
0.0
 71
     2
 72
     1
  1
\A1;14.29 [9/16]
  7
SLDTEXTSTYLE0
 73
     1
 44
1.0
  0
POINT
  5
10F
330
103
100
AcDbEntity
  8
Defpoints
 62
     0
100
AcDbPoint
 10
39.68750000000001
 20
4.361935240236914
 30
0.0
  0
POINT
  5
110
330
103
100
AcDbEntity
  8
Defpoints
 62
     0
100
AcDbPoint
 10
25.40000000000002
 20
3.415119199700485
 30
0.0
  0
POINT
  5
111
330
103
100
AcDbEntity
  8
Defpoints
 62
     0
100
AcDbPoint
 10
25.40000000000002
 20
14.7625
 30
0.0
  0
ENDBLK
  5
105
330
103
100
AcDbEntity
  8
0
100
AcDbBlockEnd
  0
BLOCK
  5
118
330
117
100
AcDbEntity
  8
0
100
AcDbBlockBegin
  2
_D_3
 70
     0
 10
0.0
 20
0.0
 30
0.0
  3
_D_3
  1
_D_3
  0
LINE
  5
11A
330
117
100
AcDbEntity
  8
치수문자_일반주서
 62
     0
370
    -2
100
AcDbLine
 10
-39.68750000000004
 20
4.424435240237191
 30
0.0
 11
-39.68750000000004
 21
24.7625
 31
0.0
  0
LINE
  5
11B
330
117
100
AcDbEntity
  8
치수문자_일반주서
 62
     0
370
    -2
100
AcDbLine
 10
39.68750000000001
 20
4.424435240236914
 30
0.0
 11
39.68750000000001
 21
24.7625
 31
0.0
  0
LINE
  5
11C
330
117
100
AcDbEntity
  8
치수문자_일반주서
 62
     0
370
    -2
100
AcDbLine
 10
-36.38550000000004
 20
24.7625
 30
0.0
 11
36.38550000000001
 21
24.7625
 31
0.0
  0
SOLID
  5
11D
330
117
100
AcDbEntity
  8
치수문자_일반주서
 62
     0
100
AcDbTrace
 10
-36.38550000000004
 20
25.31283333333333
 30
0.0
 11
-36.38550000000004
 21
24.21216666666666
 31
0.0
 12
-39.68750000000004
 22
24.7625
 32
0.0
 13
-39.68750000000004
 23
24.7625
 33
0.0
  0
SOLID
  5
11E
330
117
100
AcDbEntity
  8
치수문자_일반주서
 62
     0
100
AcDbTrace
 10
36.38550000000001
 20
24.21216666666666
 30
0.0
 11
36.38550000000001
 21
25.31283333333333
 31
0.0
 12
39.68750000000001
 22
24.7625
 32
0.0
 13
39.68750000000001
 23
24.7625
 33
0.0
  0
MTEXT
  5
11F
330
117
100
AcDbEntity
  8
치수문자_일반주서
 62
     0
100
AcDbMText
 10
0.0000000000000071
 20
29.1375
 30
0.0
 40
3.5
 41
0.0
 71
     2
 72
     1
  1
\A1;79.38 [3 1/8]
  7
SLDTEXTSTYLE0
 73
     1
 44
1.0
  0
POINT
  5
120
330
117
100
AcDbEntity
  8
Defpoints
 62
     0
100
AcDbPoint
 10
-39.68750000000004
 20
4.361935240237191
 30
0.0
  0
POINT
  5
121
330
117
100
AcDbEntity
  8
Defpoints
 62
     0
100
AcDbPoint
 10
39.68750000000001
 20
4.361935240236914
 30
0.0
  0
POINT
  5
122
330
117
100
AcDbEntity
  8
Defpoints
 62
     0
100
AcDbPoint
 10
39.68750000000001
 20
24.7625
 30
0.0
  0
ENDBLK
  5
119
330
117
100
AcDbEntity
  8
0
100
AcDbBlockEnd
  0
BLOCK
  5
131
330
130
100
AcDbEntity
  8
0
100
AcDbBlockBegin
  2
SW_DOWELSYMBOL_0
 70
     0
 10
0.0
 20
0.0
 30
0.0
  3
SW_DOWELSYMBOL_0
  1
SW_DOWELSYMBOL_0
  0
CIRCLE
  5
133
330
130
100
AcDbEntity
  8
해칭선
 62
     0
100
AcDbCircle
 10
0.0
 20
0.0
 30
0.0
 40
3.000000000000001
  0
HATCH
  5
134
330
130
100
AcDbEntity
  8
0
  6
Continuous
 62
     0
370
     0
100
AcDbHatch
 10
0.0
 20
0.0
 30
0.0
210
0.0
220
0.0
230
1.0
  2
SOLID
 70
     1
 71
     0
 91
        1
 92
        0
 93
        3
 72
     2
 10
0.0
 20
0.0
 40
3.000000000000001
 50
0.0
 51
90.0
 73
     1
 72
     1
 10
0.0
 20
3.000000000000001
 11
0.0
 21
0.0
 72
     1
 10
0.0
 20
0.0
 11
3.000000000000001
 21
0.0
 97
        0
 75
     0
 76
     1
 98
        1
 10
0.0
 20
0.0
  0
HATCH
  5
135
330
130
100
AcDbEntity
  8
0
  6
Continuous
 62
     0
370
     0
100
AcDbHatch
 10
0.0
 20
0.0
 30
0.0
210
0.0
220
0.0
230
1.0
  2
SOLID
 70
     1
 71
     0
 91
        1
 92
        0
 93
        3
 72
     2
 10
0.0
 20
0.0
 40
3.000000000000001
 50
180.0
 51
270.0000000000007
 73
     1
 72
     1
 10
0.0
 20
-3.000000000000001
 11
0.0
 21
0.0
 72
     1
 10
0.0
 20
0.0
 11
-3.000000000000001
 21
0.0
 97
        0
 75
     0
 76
     1
 98
        1
 10
0.0
 20
0.0
  0
ENDBLK
  5
132
330
130
100
AcDbEntity
  8
0
100
AcDbBlockEnd
  0
BLOCK
  5
196
330
195
100
AcDbEntity
  8
0
100
AcDbBlockBegin
  2
*D7
 70
     1
 10
0.0
 20
0.0
 30
0.0
  3
*D7
  1
*D7
  0
LINE
  5
198
330
195
100
AcDbEntity
  8
치수문자_일반주서
 62
     0
370
    -2
100
AcDbLine
 10
16.129
 20
1.204062975115863
 30
0.0
 11
16.129
 21
14.31790470593878
 31
0.0
  0
LINE
  5
199
330
195
100
AcDbEntity
  8
치수문자_일반주서
 62
     0
370
    -2
100
AcDbLine
 10
6.603999999999999
 20
0.6820206663775747
 30
0.0
 11
6.603999999999999
 21
14.31790470593878
 31
0.0
  0
LINE
  5
19A
330
195
100
AcDbEntity
  8
치수문자_일반주서
 62
     0
370
    -2
100
AcDbLine
 10
16.129
 20
14.31790470593878
 30
0.0
 11
46.358
 21
14.31790470593878
 31
0.0
  0
LINE
  5
19B
330
195
100
AcDbEntity
  8
치수문자_일반주서
 62
     0
370
    -2
100
AcDbLine
 10
16.129
 20
14.31790470593878
 30
0.0
 11
6.603999999999999
 21
14.31790470593878
 31
0.0
  0
LINE
  5
19C
330
195
100
AcDbEntity
  8
치수문자_일반주서
 62
     0
370
    -2
100
AcDbLine
 10
19.431
 20
14.31790470593878
 30
0.0
 11
22.733
 21
14.31790470593878
 31
0.0
  0
LINE
  5
19D
330
195
100
AcDbEntity
  8
치수문자_일반주서
 62
     0
370
    -2
100
AcDbLine
 10
3.302
 20
14.31790470593878
 30
0.0
 11
0.0
 21
14.31790470593878
 31
0.0
  0
SOLID
  5
19E
330
195
100
AcDbEntity
  8
치수문자_일반주서
 62
     0
100
AcDbTrace
 10
19.431
 20
14.86823803927212
 30
0.0
 11
19.431
 21
13.76757137260545
 31
0.0
 12
16.129
 22
14.31790470593878
 32
0.0
 13
16.129
 23
14.31790470593878
 33
0.0
  0
SOLID
  5
19F
330
195
100
AcDbEntity
  8
치수문자_일반주서
 62
     0
100
AcDbTrace
 10
3.302
 20
13.76757137260545
 30
0.0
 11
3.302
 21
14.86823803927212
 31
0.0
 12
6.603999999999999
 22
14.31790470593878
 32
0.0
 13
6.603999999999999
 23
14.31790470593878
 33
0.0
  0
MTEXT
  5
1A0
330
195
100
AcDbEntity
  8
치수문자_일반주서
 62
     0
100
AcDbMText
 10
34.5455
 20
18.69290470593878
 30
0.0
 40
3.5
 41
0.0
 71
     2
 72
     1
  1
\A1;9.53 [3/8]
  7
SLDTEXTSTYLE0
 73
     1
 44
1.0
  0
POINT
  5
1A1
330
195
100
AcDbEntity
  8
Defpoints
 62
     0
100
AcDbPoint
 10
16.129
 20
1.141562975115863
 30
0.0
  0
POINT
  5
1A2
330
195
100
AcDbEntity
  8
Defpoints
 62
     0
100
AcDbPoint
 10
6.603999999999999
 20
0.6195206663775747
 30
0.0
  0
POINT
  5
1A3
330
195
100
AcDbEntity
  8
Defpoints
 62
     0
100
AcDbPoint
 10
6.603999999999999
 20
14.31790470593878
 30
0.0
  0
ENDBLK
  5
197
330
195
100
AcDbEntity
  8
0
100
AcDbBlockEnd
  0
BLOCK
  5
1A8
330
1A7
100
AcDbEntity
  8
0
100
AcDbBlockBegin
  2
*D8
 70
     1
 10
0.0
 20
0.0
 30
0.0
  3
*D8
  1
*D8
  0
LINE
  5
1AA
330
1A7
100
AcDbEntity
  8
치수문자_일반주서
 62
     0
370
    -2
100
AcDbLine
 10
82.2559457638046
 20
-5.01037526574717
 30
0.0
 11
82.2559457638046
 21
8.103466465075751
 31
0.0
  0
LINE
  5
1AB
330
1A7
100
AcDbEntity
  8
치수문자_일반주서
 62
     0
370
    -2
100
AcDbLine
 10
72.7309457638046
 20
-5.532417574485457
 30
0.0
 11
72.7309457638046
 21
8.103466465075751
 31
0.0
  0
LINE
  5
1AC
330
1A7
100
AcDbEntity
  8
치수문자_일반주서
 62
     0
370
    -2
100
AcDbLine
 10
82.2559457638046
 20
8.103466465075751
 30
0.0
 11
112.4849457638046
 21
8.103466465075751
 31
0.0
  0
LINE
  5
1AD
330
1A7
100
AcDbEntity
  8
치수문자_일반주서
 62
     0
370
    -2
100
AcDbLine
 10
82.2559457638046
 20
8.103466465075751
 30
0.0
 11
72.7309457638046
 21
8.103466465075751
 31
0.0
  0
LINE
  5
1AE
330
1A7
100
AcDbEntity
  8
치수문자_일반주서
 62
     0
370
    -2
100
AcDbLine
 10
85.55794576380461
 20
8.103466465075751
 30
0.0
 11
88.8599457638046
 21
8.103466465075751
 31
0.0
  0
LINE
  5
1AF
330
1A7
100
AcDbEntity
  8
치수문자_일반주서
 62
     0
370
    -2
100
AcDbLine
 10
69.42894576380459
 20
8.103466465075751
 30
0.0
 11
66.1269457638046
 21
8.103466465075751
 31
0.0
  0
SOLID
  5
1B0
330
1A7
100
AcDbEntity
  8
치수문자_일반주서
 62
     0
100
AcDbTrace
 10
85.55794576380461
 20
8.653799798409084
 30
0.0
 11
85.55794576380461
 21
7.553133131742418
 31
0.0
 12
82.2559457638046
 22
8.103466465075751
 32
0.0
 13
82.2559457638046
 23
8.103466465075751
 33
0.0
  0
SOLID
  5
1B1
330
1A7
100
AcDbEntity
  8
치수문자_일반주서
 62
     0
100
AcDbTrace
 10
69.42894576380459
 20
7.553133131742418
 30
0.0
 11
69.42894576380459
 21
8.653799798409084
 31
0.0
 12
72.7309457638046
 22
8.103466465075751
 32
0.0
 13
72.7309457638046
 23
8.103466465075751
 33
0.0
  0
MTEXT
  5
1B2
330
1A7
100
AcDbEntity
  8
치수문자_일반주서
 62
     0
100
AcDbMText
 10
100.6724457638046
 20
12.47846646507575
 30
0.0
 40
3.5
 41
0.0
 71
     2
 72
     1
  1
\A1;9.53 [3/8]
  7
SLDTEXTSTYLE0
 73
     1
 44
1.0
  0
POINT
  5
1B3
330
1A7
100
AcDbEntity
  8
Defpoints
 62
     0
100
AcDbPoint
 10
82.2559457638046
 20
-5.07287526574717
 30
0.0
  0
POINT
  5
1B4
330
1A7
100
AcDbEntity
  8
Defpoints
 62
     0
100
AcDbPoint
 10
72.7309457638046
 20
-5.594917574485457
 30
0.0
  0
POINT
  5
1B5
330
1A7
100
AcDbEntity
  8
Defpoints
 62
     0
100
AcDbPoint
 10
72.7309457638046
 20
8.103466465075751
 30
0.0
  0
ENDBLK
  5
1A9
330
1A7
100
AcDbEntity
  8
0
100
AcDbBlockEnd
  0
ENDSEC
  0
SECTION
  2
ENTITIES
  0
LINE
  5
96
330
1F
100
AcDbEntity
  8
외형선
  6
Continuous
370
    15
100
AcDbLine
 10
22.91884233574612
 20
4.762499999999997
 30
0.0
 11
4.838700000000152
 21
4.762499999999996
 31
0.0
  0
LINE
  5
97
330
1F
100
AcDbEntity
  8
외형선
  6
Continuous
370
    15
100
AcDbLine
 10
-22.91884233574614
 20
-4.762500000000001
 30
0.0
 11
22.91884233574612
 21
-4.762499999999998
 31
0.0
  0
LINE
  5
98
330
1F
100
AcDbEntity
  8
외형선
  6
Continuous
370
    15
100
AcDbLine
 10
22.91884233574612
 20
-4.7625
 30
0.0
 11
23.87991460144359
 21
-4.504981462538411
 31
0.0
  0
LINE
  5
99
330
1F
100
AcDbEntity
  8
외형선
  6
Continuous
370
    15
100
AcDbLine
 10
23.87991460144359
 20
4.504981462538411
 30
0.0
 11
22.91884233574612
 21
4.7625
 31
0.0
  0
SPLINE
  5
9C
330
1F
100
AcDbEntity
  8
외형선
  6
Continuous
370
    15
100
AcDbSpline
210
0.0
220
0.0
230
1.0
 70
     8
 71
     3
 72
     9
 73
     5
 74
     0
 42
0.000000001
 43
0.00000001
 40
0.0
 40
0.0
 40
0.0
 40
0.0
 40
0.553441639249017
 40
1.0
 40
1.0
 40
1.0
 40
1.0
 10
25.40000000000004
 20
3.415081114508362
 30
0.0
 10
25.1968535220847
 20
3.412369515782193
 30
0.0
 10
24.82979317911702
 20
3.407469995157313
 30
0.0
 10
24.47960889907872
 20
3.410019277788957
 30
0.0
 10
24.32323118102405
 20
3.411157681262035
 30
0.0
  0
SPLINE
  5
9D
330
1F
100
AcDbEntity
  8
외형선
  6
Continuous
370
    15
100
AcDbSpline
210
0.0
220
0.0
230
1.0
 70
     8
 71
     3
 72
    15
 73
    11
 74
     0
 42
0.000000001
 43
0.00000001
 40
0.0
 40
0.0
 40
0.0
 40
0.0
 40
0.0366909294030382
 40
0.0766961883267001
 40
0.1799251280122673
 40
0.5300960217188525
 40
0.8812492330945182
 40
0.9396505382912854
 40
0.9884379466407588
 40
1.0
 40
1.0
 40
1.0
 40
1.0
 10
24.37582419809633
 20
3.41069075960736
 30
0.0
 10
24.37347511298368
 20
3.411092813390146
 30
0.0
 10
24.36856474747573
 20
3.411933238888865
 30
0.0
 10
24.34709027360132
 20
3.423546523946289
 30
0.0
 10
24.26076421484553
 20
3.488529036137809
 30
0.0
 10
24.10575877073627
 20
3.634516277364554
 30
0.0
 10
23.96459781984279
 20
3.781216918183102
 30
0.0
 10
23.9043180972362
 20
3.851489017555779
 30
0.0
 10
23.89135171240692
 20
3.867402259099547
 30
0.0
 10
23.88808028699658
 20
3.871992702916341
 30
0.0
 10
23.88745353086514
 20
3.872872163227164
 30
0.0
  0
LINE
  5
9E
330
1F
100
AcDbEntity
  8
외형선
  6
Continuous
370
    15
100
AcDbLine
 10
23.87067762824017
 20
-3.417903632680527
 30
0.0
 11
25.40000000000004
 21
-3.415081114508363
 31
0.0
  0
LINE
  5
9F
330
1F
100
AcDbEntity
  8
0
  6
Continuous
 62
     1
370
    15
100
AcDbLine
 10
25.96491879042819
 20
1.22813741132034
 30
0.0
 11
25.89651576518017
 21
1.265665931591974
 31
0.0
1001
PE_URL
1000

  0
SPLINE
  5
A0
330
1F
100
AcDbEntity
  8
0
  6
Continuous
 62
     1
370
    15
100
AcDbSpline
210
0.0
220
0.0
230
1.0
 70
     8
 71
     3
 72
     9
 73
     5
 74
     0
 42
0.000000001
 43
0.00000001
 40
0.0
 40
0.0
 40
0.0
 40
0.0
 40
0.4997377003951666
 40
1.0
 40
1.0
 40
1.0
 40
1.0
 10
28.3780784587192
 20
1.118643651753684
 30
0.0
 10
28.17604071432217
 20
1.214810035806704
 30
0.0
 10
27.77175313658433
 20
1.407243754489476
 30
0.0
 10
27.367604208422
 20
1.618660361177837
 30
0.0
 10
27.16542373623668
 20
1.724424119014407
 30
0.0
1001
PE_URL
1000

  0
LINE
  5
A1
330
1F
100
AcDbEntity
  8
0
  6
Continuous
 62
     1
370
    15
100
AcDbLine
 10
26.93380564928644
 20
3.469090874133752
 30
0.0
 11
25.4
 21
3.415081114508361
 31
0.0
1001
PE_URL
1000

  0
SPLINE
  5
A2
330
1F
100
AcDbEntity
  8
0
  6
Continuous
 62
     1
370
    15
100
AcDbSpline
210
0.0
220
0.0
230
1.0
 70
     8
 71
     3
 72
    22
 73
    18
 74
     0
 42
0.000000001
 43
0.00000001
 40
0.0
 40
0.0
 40
0.0
 40
0.0
 40
0.1114994169192969
 40
0.2056002228267521
 40
0.2815297164562108
 40
0.3490934843086486
 40
0.4133499569474404
 40
0.4740534620463116
 40
0.532371673139038
 40
0.5991995154505461
 40
0.6697070523282902
 40
0.742580271478261
 40
0.7789117024831963
 40
0.8156305110459838
 40
0.8540507630490424
 40
0.920445352942841
 40
1.0
 40
1.0
 40
1.0
 40
1.0
 10
38.06446357698557
 20
2.985869120012174
 30
0.0
 10
37.7867764848703
 20
2.963867353667355
 30
0.0
 10
37.27473319717906
 20
2.923297024350287
 30
0.0
 10
36.56264154570221
 20
2.889808267454138
 30
0.0
 10
35.94632951567434
 20
2.874615740844167
 30
0.0
 10
35.40588410117631
 20
2.871488806021377
 30
0.0
 10
34.90905926997753
 20
2.876770969746414
 30
0.0
 10
34.44109295012164
 20
2.889316110607001
 30
0.0
 10
33.96770471673979
 20
2.909335437727565
 30
0.0
 10
33.46782771021603
 20
2.938298551570612
 30
0.0
 10
32.93190863522145
 20
2.978347696277989
 30
0.0
 10
32.46837085033675
 20
3.021399712850856
 30
0.0
 10
32.08569208626479
 20
3.061606572329766
 30
0.0
 10
31.79383087731976
 20
3.093335943778965
 30
0.0
 10
31.42139176908378
 20
3.135976256706946
 30
0.0
 10
30.95469106094207
 20
3.20159029969588
 30
0.0
 10
30.62114917165341
 20
3.254625444052433
 30
0.0
 10
30.43934070293184
 20
3.283534072004553
 30
0.0
1001
PE_URL
1000

  0
SPLINE
  5
A3
330
1F
100
AcDbEntity
  8
0
  6
Continuous
 62
     1
370
    15
100
AcDbSpline
210
0.0
220
0.0
230
1.0
 70
     8
 71
     3
 72
    13
 73
     9
 74
     0
 42
0.000000001
 43
0.00000001
 40
0.0
 40
0.0
 40
0.0
 40
0.0
 40
0.1851556745517658
 40
0.3396826007983448
 40
0.5357139445212693
 40
0.7259398149745304
 40
0.9127965141151799
 40
1.0
 40
1.0
 40
1.0
 40
1.0
 10
30.43934070293184
 20
-3.283534072004555
 30
0.0
 10
30.62104363520804
 20
-3.254592970365488
 30
0.0
 10
30.9543919096138
 20
-3.201498250484359
 30
0.0
 10
31.53842133258411
 20
-3.12000531441351
 30
0.0
 10
32.15371090309986
 20
-3.053607054745965
 30
0.0
 10
32.79499559437645
 20
-2.989797599582811
 30
0.0
 10
33.3024399600229
 20
-2.948982328265211
 30
0.0
 10
33.60317441266741
 20
-2.932021352735002
 30
0.0
 10
33.6988654105912
 20
-2.926624522874059
 30
0.0
1001
PE_URL
1000

  0
LINE
  5
A4
330
1F
100
AcDbEntity
  8
0
  6
Continuous
 62
     1
370
    15
100
AcDbLine
 10
25.4
 20
-3.415081114508362
 30
0.0
 11
26.93380564928644
 21
-3.469090874133753
 31
0.0
1001
PE_URL
1000

  0
LINE
  5
A5
330
1F
100
AcDbEntity
  8
외형선
  6
Continuous
370
    15
100
AcDbLine
 10
22.91884233574612
 20
4.7625
 30
0.0
 11
22.91884233574612
 21
-4.762500000000004
 31
0.0
  0
SPLINE
  5
A7
330
1F
100
AcDbEntity
  8
외형선
  6
Continuous
370
    15
100
AcDbSpline
210
0.0
220
0.0
230
1.0
 70
     8
 71
     3
 72
     8
 73
     4
 74
     0
 42
0.000000001
 43
0.00000001
 40
0.0
 40
0.0
 40
0.0
 40
0.0
 40
0.0005906899726241
 40
0.0005906899726241
 40
0.0005906899726241
 40
0.0005906899726241
 10
24.40000000000002
 20
3.045236647308174
 30
0.0
 10
24.22626146717245
 20
3.135104407424558
 30
0.0
 10
24.05282627559816
 20
3.224848332884822
 30
0.0
 10
23.87982509210178
 20
3.31435074990568
 30
0.0
  0
LINE
  5
A8
330
1F
100
AcDbEntity
  8
외형선
  6
Continuous
370
    15
100
AcDbLine
 10
24.40000000000002
 20
3.045236647308176
 30
0.0
 11
24.40000000000002
 21
2.062864152861194
 31
0.0
  0
SPLINE
  5
A9
330
1F
100
AcDbEntity
  8
외형선
  6
Continuous
370
    15
100
AcDbSpline
210
0.0
220
0.0
230
1.0
 70
     8
 71
     3
 72
     8
 73
     4
 74
     0
 42
0.000000001
 43
0.00000001
 40
0.0
 40
0.0
 40
0.0
 40
0.0
 40
0.0005965476276722
 40
0.0005965476276722
 40
0.0005965476276722
 40
0.0005965476276722
 10
23.87991460144359
 20
2.354977658111546
 30
0.0
 10
24.05337759683719
 20
2.257887721051407
 30
0.0
 10
24.22676838461618
 20
2.160494636011418
 30
0.0
 10
24.4000000000001
 20
2.062864152861013
 30
0.0
  0
LINE
  5
AA
330
1F
100
AcDbEntity
  8
외형선
  6
Continuous
370
    15
100
AcDbLine
 10
23.87991460144359
 20
-4.504981462538411
 30
0.0
 11
23.87991460144359
 21
2.355029410409792
 31
0.0
  0
LINE
  5
AB
330
1F
100
AcDbEntity
  8
외형선
  6
Continuous
370
    15
100
AcDbLine
 10
23.87991460144359
 20
3.314429128248099
 30
0.0
 11
23.87991460144359
 21
4.504981462538411
 31
0.0
  0
LINE
  5
AD
330
1F
100
AcDbEntity
  8
외형선
  6
Continuous
370
    15
100
AcDbLine
 10
25.40000000000001
 20
1.536749769451096
 30
0.0
 11
25.40000000000001
 21
1.531297233835389
 31
0.0
  0
SPLINE
  5
AE
330
1F
100
AcDbEntity
  8
외형선
  6
Continuous
370
    15
100
AcDbSpline
210
0.0
220
0.0
230
1.0
 70
    24
 71
     3
 72
    11
 73
     7
 74
     0
 42
0.000000001
 43
0.00000001
 40
0.0
 40
0.0
 40
0.0
 40
0.0
 40
0.2052296866895484
 40
0.5002564141787639
 40
0.7474973937218423
 40
1.0
 40
1.0
 40
1.0
 40
1.0
 10
25.40000000000001
 20
1.476335765227824
 30
0.0
 10
25.40000000000001
 20
1.457950202530204
 30
0.0
 10
25.40000000000001
 20
1.413134582450432
 30
0.0
 10
25.40000000000001
 20
1.29431027331526
 30
0.0
 10
25.40000000000001
 20
1.139708799832139
 30
0.0
 10
25.40000000000001
 20
1.018488367039168
 30
0.0
 10
25.40000000000001
 20
0.9572400067143578
 30
0.0
  0
SPLINE
  5
AF
330
1F
100
AcDbEntity
  8
외형선
  6
Continuous
370
    15
100
AcDbSpline
210
0.0
220
0.0
230
1.0
 70
     8
 71
     3
 72
    10
 73
     6
 74
     0
 42
0.000000001
 43
0.00000001
 40
0.0
 40
0.0
 40
0.0
 40
0.0
 40
0.5
 40
0.5
 40
1.0
 40
1.0
 40
1.0
 40
1.0
 10
25.40000000000002
 20
0.9572400067143524
 30
0.0
 10
25.14679078276604
 20
1.05447465208821
 30
0.0
 10
24.89585800246786
 20
1.149812176299425
 30
0.0
 10
24.38875972299912
 20
1.336954235719394
 30
0.0
 10
24.13397795545363
 20
1.428575691630181
 30
0.0
 10
23.8798930420512
 20
1.517548676181313
 30
0.0
  0
SPLINE
  5
B0
330
1F
100
AcDbEntity
  8
외형선
  6
Continuous
370
    15
100
AcDbSpline
210
0.0
220
0.0
230
1.0
 70
     8
 71
     3
 72
     8
 73
     4
 74
     0
 42
0.000000001
 43
0.00000001
 40
0.0
 40
0.0
 40
0.0
 40
0.0
 40
1.0
 40
1.0
 40
1.0
 40
1.0
 10
24.40000000000002
 20
2.062864152861194
 30
0.0
 10
24.73499098781612
 20
1.892736842016644
 30
0.0
 10
25.06623329149053
 20
1.717211750445277
 30
0.0
 10
25.40000000000004
 20
1.53674976945108
 30
0.0
  0
SPLINE
  5
B1
330
1F
100
AcDbEntity
  8
외형선
  6
Continuous
370
    15
100
AcDbSpline
210
0.0
220
0.0
230
1.0
 70
     8
 71
     3
 72
     8
 73
     4
 74
     0
 42
0.000000001
 43
0.00000001
 40
0.0
 40
0.0
 40
0.0
 40
0.0
 40
1.0
 40
1.0
 40
1.0
 40
1.0
 10
25.4000000000004
 20
2.605510591513185
 30
0.0
 10
25.06623329149076
 20
2.760209641721838
 30
0.0
 10
24.73499098781624
 20
2.906918119992717
 30
0.0
 10
24.40000000000002
 20
3.045236647308176
 30
0.0
  0
LINE
  5
B2
330
1F
100
AcDbEntity
  8
외형선
  6
Continuous
370
    15
100
AcDbLine
 10
25.40000000000001
 20
2.605510591513361
 30
0.0
 11
25.40000000000001
 21
1.536749769451096
 31
0.0
  0
SPLINE
  5
B3
330
1F
100
AcDbEntity
  8
외형선
  6
Continuous
370
    15
100
AcDbSpline
210
0.0
220
0.0
230
1.0
 70
     8
 71
     3
 72
    10
 73
     6
 74
     0
 42
0.000000001
 43
0.00000001
 40
0.0
 40
0.0
 40
0.0
 40
0.0
 40
0.5
 40
0.5
 40
1.0
 40
1.0
 40
1.0
 40
1.0
 10
25.40000000000003
 20
-3.316737137428006
 30
0.0
 10
25.14678893603894
 20
-3.280083432144798
 30
0.0
 10
24.89585432200666
 20
-3.237973759732714
 30
0.0
 10
24.38875230822245
 20
-3.142710199545492
 30
0.0
 10
24.13396866954587
 20
-3.089610973437012
 30
0.0
 10
23.87988192336886
 20
-3.031435454925955
 30
0.0
  0
SPLINE
  5
B4
330
1F
100
AcDbEntity
  8
외형선
  6
Continuous
370
    15
100
AcDbSpline
210
0.0
220
0.0
230
1.0
 70
    24
 71
     3
 72
    14
 73
    10
 74
     0
 42
0.000000001
 43
0.00000001
 40
0.0
 40
0.0
 40
0.0
 40
0.0
 40
0.2499999999999999
 40
0.2499999999999999
 40
0.4999999999999999
 40
0.4999999999999999
 40
0.7499999999999999
 40
0.7499999999999999
 40
1.0
 40
1.0
 40
1.0
 40
1.0
 10
25.39999999999997
 20
0.9572400067143769
 30
0.0
 10
25.39999999999997
 20
0.5726052340784329
 30
0.0
 10
25.39999999999996
 20
0.1706949517105542
 30
0.0
 10
25.39999999999997
 20
-0.6322343739314226
 30
0.0
 10
25.39999999999997
 20
-1.03286134911311
 30
0.0
 10
25.39999999999996
 20
-1.792470311132756
 30
0.0
 10
25.39999999999997
 20
-2.151047546557852
 30
0.0
 10
25.39999999999997
 20
-2.793753777184574
 30
0.0
 10
25.39999999999997
 20
-3.077715746275977
 30
0.0
 10
25.39999999999997
 20
-3.316737137427996
 30
0.0
  0
SPLINE
  5
B5
330
1F
100
AcDbEntity
  8
외형선
  6
Continuous
370
    15
100
AcDbSpline
210
0.0
220
0.0
230
1.0
 70
    24
 71
     3
 72
    12
 73
     8
 74
     0
 42
0.000000001
 43
0.00000001
 40
0.0
 40
0.0
 40
0.0
 40
0.0
 40
0.0362635199966086
 40
0.3225335949954208
 40
0.6171055215625116
 40
0.8751385708056493
 40
0.9999999999999999
 40
0.9999999999999999
 40
0.9999999999999999
 40
0.9999999999999999
 10
25.40000000000002
 20
3.410352707169633
 30
0.0
 10
25.40000000000002
 20
3.411663618708706
 30
0.0
 10
25.40000000000002
 20
3.423323077345312
 30
0.0
 10
25.40000000000001
 20
3.343882789309303
 30
0.0
 10
25.40000000000001
 20
3.132165073079587
 30
0.0
 10
25.40000000000001
 20
2.875947067530504
 30
0.0
 10
25.40000000000001
 20
2.672013185366468
 30
0.0
 10
25.40000000000001
 20
2.605510591513287
 30
0.0
  0
SPLINE
  5
B6
330
1F
100
AcDbEntity
  8
외형선
  6
Continuous
370
    15
100
AcDbSpline
210
0.0
220
0.0
230
1.0
 70
    24
 71
     3
 72
     9
 73
     5
 74
     0
 42
0.000000001
 43
0.00000001
 40
0.0
 40
0.0
 40
0.0
 40
0.0
 40
0.5473214571692208
 40
1.0
 40
1.0
 40
1.0
 40
1.0
 10
25.4
 20
-3.316737137428
 30
0.0
 10
25.40000000000001
 20
-3.348727770204634
 30
0.0
 10
25.40000000000001
 20
-3.407177210396676
 30
0.0
 10
25.40000000000002
 20
-3.409363127914054
 30
0.0
 10
25.40000000000002
 20
-3.410352645870569
 30
0.0
  0
SPLINE
  5
B7
330
1F
100
AcDbEntity
  8
0
  6
Continuous
 62
     1
370
    15
100
AcDbSpline
210
0.0
220
0.0
230
1.0
 70
     8
 71
     3
 72
    32
 73
    28
 74
     0
 42
0.000000001
 43
0.00000001
 40
0.0
 40
0.0
 40
0.0
 40
0.0
 40
0.0625000000000001
 40
0.0625000000000001
 40
0.1250000000000002
 40
0.1250000000000002
 40
0.1875000000000003
 40
0.1875000000000003
 40
0.2500000000000004
 40
0.2500000000000004
 40
0.3125000000000004
 40
0.3125000000000004
 40
0.3750000000000006
 40
0.3750000000000006
 40
0.4375000000000007
 40
0.4375000000000007
 40
0.5000000000000007
 40
0.5000000000000007
 40
0.5625000000000007
 40
0.5625000000000007
 40
0.6250000000000008
 40
0.6250000000000008
 40
0.7500000000000004
 40
0.7500000000000004
 40
0.8750000000000002
 40
0.8750000000000002
 40
1.0
 40
1.0
 40
1.0
 40
1.0
 10
25.39999999999941
 20
1.536749769451441
 30
0.0
 10
25.69739457554601
 20
1.375953581959487
 30
0.0
 10
25.99682267244928
 20
1.211210212467165
 30
0.0
 10
26.59349865961799
 20
0.8772484342540038
 30
0.0
 10
26.88862668811366
 20
0.7084435178691344
 30
0.0
 10
27.48302495580092
 20
0.367553941810074
 30
0.0
 10
27.78240182640264
 20
0.1954406959148192
 30
0.0
 10
28.37926732667836
 20
-0.1485366122130554
 30
0.0
 10
28.67468948116674
 20
-0.3200000421023982
 30
0.0
 10
29.2686702171254
 20
-0.6612519964890894
 30
0.0
 10
29.5679822090627
 20
-0.8311787424801401
 30
0.0
 10
30.16501020236726
 20
-1.166070992519265
 30
0.0
 10
30.46079562955554
 20
-1.330683649971139
 30
0.0
 10
31.05433224818905
 20
-1.653351582629291
 30
0.0
 10
31.35356571899723
 20
-1.811658242425795
 30
0.0
 10
31.95072916070238
 20
-2.118866293992777
 30
0.0
 10
32.24694695274184
 20
-2.267490058394674
 30
0.0
 10
32.84001293511456
 20
-2.553669006120916
 30
0.0
 10
33.13915425430487
 20
-2.691569051008234
 30
0.0
 10
33.73642607931207
 20
-2.954029239947482
 30
0.0
 10
34.03314526344234
 20
-3.078401640977328
 30
0.0
 10
34.9219986100689
 20
-3.429133225904246
 30
0.0
 10
35.52336964775003
 20
-3.634133190124867
 30
0.0
 10
36.70746052621969
 20
-3.971155659824922
 30
0.0
 10
37.30994222038275
 20
-4.10496829647027
 30
0.0
 10
38.49293359070037
 20
-4.292737739512154
 30
0.0
 10
39.09658028229853
 20
-4.347842751490117
 30
0.0
 10
39.68750000000002
 20
-4.361935240237179
 30
0.0
1001
PE_URL
1000

  0
SPLINE
  5
B8
330
1F
100
AcDbEntity
  8
0
  6
Continuous
 62
     1
370
    15
100
AcDbSpline
210
0.0
220
0.0
230
1.0
 70
     8
 71
     3
 72
    10
 73
     6
 74
     0
 42
0.000000001
 43
0.00000001
 40
0.0
 40
0.0
 40
0.0
 40
0.0
 40
0.2907577399016379
 40
0.6449054727968223
 40
1.0
 40
1.0
 40
1.0
 40
1.0
 10
28.83002439387378
 20
-0.4074359110770863
 30
0.0
 10
28.49750265115967
 20
-0.2751443988930541
 30
0.0
 10
27.75996392984203
 20
0.0182803616684765
 30
0.0
 10
26.61711180021739
 20
0.484286459081173
 30
0.0
 10
25.80606483249288
 20
0.7994485835580973
 30
0.0
 10
25.40000000000002
 20
0.9572400067143565
 30
0.0
1001
PE_URL
1000

  0
SPLINE
  5
B9
330
1F
100
AcDbEntity
  8
외형선
  6
Continuous
370
    15
100
AcDbSpline
210
0.0
220
0.0
230
1.0
 70
    24
 71
     3
 72
    10
 73
     6
 74
     0
 42
0.000000001
 43
0.00000001
 40
0.0
 40
0.0
 40
0.0
 40
0.0
 40
0.5
 40
0.5
 40
1.0
 40
1.0
 40
1.0
 40
1.0
 10
25.40000000000002
 20
1.536749769451092
 30
0.0
 10
25.40000000000002
 20
1.521392017801305
 30
0.0
 10
25.40000000000002
 20
1.460316087430935
 30
0.0
 10
25.40000000000002
 20
1.25761490631772
 30
0.0
 10
25.40000000000002
 20
1.1168334347936
 30
0.0
 10
25.40000000000002
 20
0.9572400067143567
 30
0.0
  0
SPLINE
  5
BA
330
1F
100
AcDbEntity
  8
0
  6
Continuous
 62
     1
370
    15
100
AcDbSpline
210
0.0
220
0.0
230
1.0
 70
     8
 71
     3
 72
    32
 73
    28
 74
     0
 42
0.000000001
 43
0.00000001
 40
0.0
 40
0.0
 40
0.0
 40
0.0
 40
0.1250000000000002
 40
0.1250000000000002
 40
0.2500000000000004
 40
0.2500000000000004
 40
0.3750000000000007
 40
0.3750000000000007
 40
0.4375000000000008
 40
0.4375000000000008
 40
0.5000000000000009
 40
0.5000000000000009
 40
0.5625000000000008
 40
0.5625000000000008
 40
0.6250000000000007
 40
0.6250000000000007
 40
0.6875000000000006
 40
0.6875000000000006
 40
0.7500000000000004
 40
0.7500000000000004
 40
0.8125000000000003
 40
0.8125000000000003
 40
0.8750000000000002
 40
0.8750000000000002
 40
0.9375000000000001
 40
0.9375000000000001
 40
1.0
 40
1.0
 40
1.0
 40
1.0
 10
39.68750000000002
 20
-4.142719982240513
 30
0.0
 10
39.09658028229846
 20
-4.03457043849009
 30
0.0
 10
38.49293359070022
 20
-3.886802828724642
 30
0.0
 10
37.30994222038245
 20
-3.524141299862131
 30
0.0
 10
36.70746052621931
 20
-3.306977265265836
 30
0.0
 10
35.52336964774952
 20
-2.818008957986861
 30
0.0
 10
34.9219986100683
 20
-2.54357962206871
 30
0.0
 10
34.03314526344164
 20
-2.102439318672298
 30
0.0
 10
33.73642607931133
 20
-1.950107318758312
 30
0.0
 10
33.13915425430405
 20
-1.636413869104368
 30
0.0
 10
32.84001293511372
 20
-1.475289422894202
 30
0.0
 10
32.24694695274091
 20
-1.147895515715008
 30
0.0
 10
31.95072916070143
 20
-0.981217002959992
 30
0.0
 10
31.35356571899619
 20
-0.64318398923937
 30
0.0
 10
31.05433224818798
 20
-0.4721485576296782
 30
0.0
 10
30.4607956295544
 20
-0.1296228780742691
 30
0.0
 10
30.16501020236608
 20
0.0421494129535742
 30
0.0
 10
29.56798220906145
 20
0.3857495244037522
 30
0.0
 10
29.2686702171241
 20
0.5572006404087567
 30
0.0
 10
28.67468948116539
 20
0.8958392423792754
 30
0.0
 10
28.37926732667696
 20
1.063180085630314
 30
0.0
 10
27.78240182640117
 20
1.393268294602907
 30
0.0
 10
27.48302495579941
 20
1.555615094242232
 30
0.0
 10
26.88862668811209
 20
1.871554649810155
 30
0.0
 10
26.59349865961637
 20
2.025191599105091
 30
0.0
 10
25.99682267244759
 20
2.323442879163546
 30
0.0
 10
25.69739457554427
 20
2.467669826688963
 30
0.0
 10
25.39999999999765
 20
2.605510591514462
 30
0.0
1001
PE_URL
1000

  0
SPLINE
  5
BB
330
1F
100
AcDbEntity
  8
0
  6
Continuous
 62
     1
370
    15
100
AcDbSpline
210
0.0
220
0.0
230
1.0
 70
     8
 71
     3
 72
    16
 73
    12
 74
     0
 42
0.000000001
 43
0.00000001
 40
0.0
 40
0.0
 40
0.0
 40
0.0
 40
0.1163281691630022
 40
0.2324443077676199
 40
0.3486165233920462
 40
0.4650286535905452
 40
0.5812358298770258
 40
0.6973427222041243
 40
0.8136176359355803
 40
0.9299932972593061
 40
1.0
 40
1.0
 40
1.0
 40
1.0
 10
39.68750000000002
 20
-3.444357041632495
 30
0.0
 10
39.24799626845262
 20
-3.354110143098927
 30
0.0
 10
38.36978988580362
 20
-3.173780838436565
 30
0.0
 10
37.05322832281006
 20
-2.778790232512597
 30
0.0
 10
35.73625410560892
 20
-2.30702729225229
 30
0.0
 10
34.41819050834246
 20
-1.764527700096233
 30
0.0
 10
33.10103089628201
 20
-1.168265305071632
 30
0.0
 10
31.78457297663673
 20
-0.5359322738181559
 30
0.0
 10
30.46710325084596
 20
0.1106831560907573
 30
0.0
 10
29.32345137944735
 20
0.6729924326409293
 30
0.0
 10
28.61954654148841
 20
1.001495250100113
 30
0.0
 10
28.35515426920402
 20
1.124883528850548
 30
0.0
1001
PE_URL
1000

  0
LINE
  5
BC
330
1F
100
AcDbEntity
  8
0
  6
Continuous
 62
     1
370
    15
100
AcDbLine
 10
39.68749999999994
 20
-4.142719982240513
 30
0.0
 11
39.68750000000001
 21
-3.444357041632494
 31
0.0
1001
PE_URL
1000

  0
LINE
  5
BD
330
1F
100
AcDbEntity
  8
0
  6
Continuous
 62
     1
370
    15
100
AcDbLine
 10
39.68750000000001
 20
-4.361935240236914
 30
0.0
 11
39.68749999999993
 21
-4.142719982240508
 31
0.0
1001
PE_URL
1000

  0
SPLINE
  5
BE
330
1F
100
AcDbEntity
  8
0
  6
Continuous
 62
     1
370
    15
100
AcDbSpline
210
0.0
220
0.0
230
1.0
 70
     8
 71
     3
 72
     8
 73
     4
 74
     0
 42
0.000000001
 43
0.00000001
 40
0.0
 40
0.0
 40
0.0
 40
0.0
 40
1.0
 40
1.0
 40
1.0
 40
1.0
 10
36.98596235634315
 20
1.221451238460774
 30
0.0
 10
36.83080514540699
 20
1.405287162604608
 30
0.0
 10
36.69247670705671
 20
1.582052726402442
 30
0.0
 10
36.57485713941053
 20
1.750117763914768
 30
0.0
1001
PE_URL
1000

  0
LINE
  5
BF
330
1F
100
AcDbEntity
  8
0
  6
Continuous
 62
     1
370
    15
100
AcDbLine
 10
36.63001914758043
 20
1.796404184640039
 30
0.0
 11
39.68750000000001
 21
0.0000000000000014
 31
0.0
1001
PE_URL
1000

  0
LINE
  5
C0
330
1F
100
AcDbEntity
  8
0
  6
Continuous
 62
     1
370
    15
100
AcDbLine
 10
39.68750000000001
 20
0.0000000000000014
 30
0.0
 11
39.68750000000001
 21
-1.166682486260667
 31
0.0
1001
PE_URL
1000

  0
SPLINE
  5
C1
330
1F
100
AcDbEntity
  8
0
  6
Continuous
 62
     1
370
    15
100
AcDbSpline
210
0.0
220
0.0
230
1.0
 70
     8
 71
     3
 72
    12
 73
     8
 74
     0
 42
0.000000001
 43
0.00000001
 40
0.0
 40
0.0
 40
0.0
 40
0.0
 40
0.5000000000000004
 40
0.5000000000000004
 40
0.7500000000000002
 40
0.7500000000000002
 40
1.0
 40
1.0
 40
1.0
 40
1.0
 10
39.68750000000002
 20
-1.166682486260668
 30
0.0
 10
39.21985101917988
 20
-0.7990306088474789
 30
0.0
 10
38.76001546190879
 20
-0.4163022391985479
 30
0.0
 10
38.08227930303979
 20
0.1809782143008301
 30
0.0
 10
37.85840602336332
 20
0.3840056400916773
 30
0.0
 10
37.41523792412099
 20
0.7988949184616152
 30
0.0
 10
37.1971500983687
 20
1.009673468302612
 30
0.0
 10
36.98596235634314
 20
1.221451238460776
 30
0.0
1001
PE_URL
1000

  0
SPLINE
  5
C2
330
1F
100
AcDbEntity
  8
0
  6
Continuous
 62
     1
370
    15
100
AcDbSpline
210
0.0
220
0.0
230
1.0
 70
     8
 71
     3
 72
    15
 73
    11
 74
     0
 42
0.000000001
 43
0.00000001
 40
0.0
 40
0.0
 40
0.0
 40
0.0
 40
0.1242499470905822
 40
0.255480225428616
 40
0.3864762220684356
 40
0.5173576011749562
 40
0.6484310567067333
 40
0.7796196301643994
 40
0.9105304664129119
 40
1.0
 40
1.0
 40
1.0
 40
1.0
 10
36.98596235633941
 20
1.221451238462394
 30
0.0
 10
36.56969949581816
 20
1.39853212819866
 30
0.0
 10
35.71378823039124
 20
1.762642268188814
 30
0.0
 10
34.41822397176036
 20
2.251975844363155
 30
0.0
 10
33.10106410004523
 20
2.685321795938187
 30
0.0
 10
31.78458762017077
 20
3.036395421205215
 30
0.0
 10
30.467119293533
 20
3.296360817705212
 30
0.0
 10
29.14924111750471
 20
3.453037547307078
 30
0.0
 10
27.97141581503118
 20
3.511269472246661
 30
0.0
 10
27.2330261954674
 20
3.475083346121529
 30
0.0
 10
26.93325641598477
 20
3.460392582923544
 30
0.0
1001
PE_URL
1000

  0
SPLINE
  5
C3
330
1F
100
AcDbEntity
  8
0
  6
Continuous
 62
     1
370
    15
100
AcDbSpline
210
0.0
220
0.0
230
1.0
 70
    24
 71
     3
 72
    10
 73
     6
 74
     0
 42
0.000000001
 43
0.00000001
 40
0.0
 40
0.0
 40
0.0
 40
0.0
 40
0.5
 40
0.5
 40
1.0
 40
1.0
 40
1.0
 40
1.0
 10
39.68750000000001
 20
-3.444357041632493
 30
0.0
 10
39.68750000000001
 20
-3.180320220119736
 30
0.0
 10
39.68750000000002
 20
-2.846699571929178
 30
0.0
 10
39.68750000000001
 20
-2.071063672292188
 30
0.0
 10
39.68750000000001
 20
-1.629720306070874
 30
0.0
 10
39.68750000000001
 20
-1.166682486260808
 30
0.0
1001
PE_URL
1000

  0
SPLINE
  5
C4
330
1F
100
AcDbEntity
  8
외형선
  6
Continuous
370
    15
100
AcDbSpline
210
0.0
220
0.0
230
1.0
 70
    24
 71
     3
 72
    12
 73
     8
 74
     0
 42
0.000000001
 43
0.00000001
 40
0.0
 40
0.0
 40
0.0
 40
0.0
 40
0.0380688496551016
 40
0.3238026661771862
 40
0.6178227827353949
 40
0.875372468812007
 40
1.0
 40
1.0
 40
1.0
 40
1.0
 10
25.40000000000002
 20
3.41018396475894
 30
0.0
 10
25.40000000000002
 20
3.411573293781381
 30
0.0
 10
25.40000000000002
 20
3.423390526131164
 30
0.0
 10
25.40000000000002
 20
3.343959169411442
 30
0.0
 10
25.40000000000002
 20
3.132146827926761
 30
0.0
 10
25.40000000000002
 20
2.875948903004927
 30
0.0
 10
25.40000000000002
 20
2.672013636724996
 30
0.0
 10
25.40000000000002
 20
2.605510591513286
 30
0.0
  0
SPLINE
  5
C5
330
1F
100
AcDbEntity
  8
0
  6
Continuous
 62
     1
370
    15
100
AcDbSpline
210
0.0
220
0.0
230
1.0
 70
    24
 71
     3
 72
     8
 73
     4
 74
     0
 42
0.000000001
 43
0.00000001
 40
0.0
 40
0.0
 40
0.0
 40
0.0
 40
1.0
 40
1.0
 40
1.0
 40
1.0
 10
37.03035251254397
 20
2.132323763528825
 30
0.0
 10
36.88691698158817
 20
2.011967062406104
 30
0.0
 10
36.73393718385012
 20
1.883601770546566
 30
0.0
 10
36.574857139404
 20
1.750117763924156
 30
0.0
1001
PE_URL
1000

  0
LINE
  5
C6
330
1F
100
AcDbEntity
  8
0
  6
Continuous
 62
     1
370
    15
100
AcDbLine
 10
39.68750000000001
 20
3.055937499999999
 30
0.0
 11
38.06163096600794
 21
2.970563371206169
 31
0.0
1001
PE_URL
1000

  0
SPLINE
  5
C7
330
1F
100
AcDbEntity
  8
0
  6
Continuous
 62
     1
370
    15
100
AcDbSpline
210
0.0
220
0.0
230
1.0
 70
     8
 71
     3
 72
    10
 73
     6
 74
     0
 42
0.000000001
 43
0.00000001
 40
0.0
 40
0.0
 40
0.0
 40
0.0
 40
0.5
 40
0.5
 40
1.0
 40
1.0
 40
1.0
 40
1.0
 10
39.68750000000001
 20
3.055937500000001
 30
0.0
 10
39.23837241041667
 20
2.934079259371011
 30
0.0
 10
38.79197476569691
 20
2.797376796152021
 30
0.0
 10
37.90518654199496
 20
2.491308125434745
 30
0.0
 10
37.46504351005276
 20
2.322601019984874
 30
0.0
 10
37.03035251254302
 20
2.132323763529452
 30
0.0
1001
PE_URL
1000

  0
SPLINE
  5
C8
330
1F
100
AcDbEntity
  8
0
  6
Continuous
 62
     1
370
    15
100
AcDbSpline
210
0.0
220
0.0
230
1.0
 70
     8
 71
     3
 72
    11
 73
     7
 74
     0
 42
0.000000001
 43
0.00000001
 40
0.0
 40
0.0
 40
0.0
 40
0.0
 40
0.2561693521057433
 40
0.5173139497903528
 40
0.7583431769373612
 40
1.0
 40
1.0
 40
1.0
 40
1.0
 10
30.43958416404369
 20
-3.282427043869963
 30
0.0
 10
30.00916803956549
 20
-3.341405967192436
 30
0.0
 10
29.1399763756253
 20
-3.46050928508558
 30
0.0
 10
27.86632433655955
 20
-3.506540110395904
 30
0.0
 10
26.61712151538352
 20
-3.46801545015405
 30
0.0
 10
25.80605869063091
 20
-3.367206932604563
 30
0.0
 10
25.40000000000002
 20
-3.316737137428005
 30
0.0
1001
PE_URL
1000

  0
SPLINE
  5
C9
330
1F
100
AcDbEntity
  8
외형선
  6
Continuous
370
    15
100
AcDbSpline
210
0.0
220
0.0
230
1.0
 70
    24
 71
     3
 72
    14
 73
    10
 74
     0
 42
0.000000001
 43
0.00000001
 40
0.0
 40
0.0
 40
0.0
 40
0.0
 40
0.2499999999999999
 40
0.2499999999999999
 40
0.4999999999999998
 40
0.4999999999999998
 40
0.7499999999999998
 40
0.7499999999999998
 40
1.0
 40
1.0
 40
1.0
 40
1.0
 10
25.39999999999985
 20
0.9572400067144219
 30
0.0
 10
25.39999999999985
 20
0.5726052340784776
 30
0.0
 10
25.39999999999985
 20
0.1706949517105992
 30
0.0
 10
25.39999999999985
 20
-0.6322343739313788
 30
0.0
 10
25.39999999999985
 20
-1.032861349113069
 30
0.0
 10
25.39999999999985
 20
-1.79247031113272
 30
0.0
 10
25.39999999999985
 20
-2.151047546557819
 30
0.0
 10
25.39999999999985
 20
-2.793753777184548
 30
0.0
 10
25.39999999999985
 20
-3.077715746275956
 30
0.0
 10
25.39999999999985
 20
-3.316737137427979
 30
0.0
  0
LINE
  5
CA
330
1F
100
AcDbEntity
  8
0
  6
Continuous
 62
     1
370
    15
100
AcDbLine
 10
39.68750000000001
 20
0.0000000000000014
 30
0.0
 11
39.68750000000001
 21
3.0559375
 31
0.0
1001
PE_URL
1000

  0
SPLINE
  5
CB
330
1F
100
AcDbEntity
  8
외형선
  6
Continuous
370
    15
100
AcDbSpline
210
0.0
220
0.0
230
1.0
 70
    24
 71
     3
 72
     9
 73
     5
 74
     0
 42
0.000000001
 43
0.00000001
 40
0.0
 40
0.0
 40
0.0
 40
0.0
 40
0.5502193712240191
 40
1.0
 40
1.0
 40
1.0
 40
1.0
 10
25.4
 20
-3.316737137428
 30
0.0
 10
25.40000000000001
 20
-3.348757516551715
 30
0.0
 10
25.40000000000002
 20
-3.40695317595295
 30
0.0
 10
25.40000000000002
 20
-3.409181643309918
 30
0.0
 10
25.40000000000002
 20
-3.410183964758941
 30
0.0
  0
SPLINE
  5
CC
330
1F
100
AcDbEntity
  8
0
  6
Continuous
 62
     1
370
    15
100
AcDbSpline
210
0.0
220
0.0
230
1.0
 70
    24
 71
     3
 72
    10
 73
     6
 74
     0
 42
0.000000001
 43
0.00000001
 40
0.0
 40
0.0
 40
0.0
 40
0.0
 40
0.5
 40
0.5
 40
1.0
 40
1.0
 40
1.0
 40
1.0
 10
39.68750000000001
 20
3.055937499999999
 30
0.0
 10
39.68750000000001
 20
3.241180821124428
 30
0.0
 10
39.68750000000001
 20
3.456450715648006
 30
0.0
 10
39.68750000000002
 20
3.908086374569733
 30
0.0
 10
39.68750000000001
 20
4.143298718170802
 30
0.0
 10
39.68750000000001
 20
4.361935240236914
 30
0.0
1001
PE_URL
1000

  0
SPLINE
  5
CD
330
1F
100
AcDbEntity
  8
0
  6
Continuous
 62
     1
370
    15
100
AcDbSpline
210
0.0
220
0.0
230
1.0
 70
     8
 71
     3
 72
    14
 73
    10
 74
     0
 42
0.000000001
 43
0.00000001
 40
0.0
 40
0.0
 40
0.0
 40
0.0
 40
0.1276515655805709
 40
0.3384451623430677
 40
0.4203471643465077
 40
0.5846727985976936
 40
0.750049185389514
 40
0.9164889726006544
 40
1.0
 40
1.0
 40
1.0
 40
1.0
 10
33.69827074708819
 20
2.92635175335147
 30
0.0
 10
33.95305141116886
 20
3.036307740931636
 30
0.0
 10
34.62855650837998
 20
3.327836261540909
 30
0.0
 10
35.46897149635794
 20
3.612756092227817
 30
0.0
 10
36.3799958833432
 20
3.882363559087747
 30
0.0
 10
37.2028172561191
 20
4.081841767011827
 30
0.0
 10
38.19210451939916
 20
4.253627341433734
 30
0.0
 10
39.02230173256498
 20
4.338359278382472
 30
0.0
 10
39.52091005254753
 20
4.356030958102179
 30
0.0
 10
39.68749999999977
 20
4.361935240236903
 30
0.0
1001
PE_URL
1000

  0
LINE
  5
CE
330
1F
100
AcDbEntity
  8
중심선
 62
     1
100
AcDbLine
 10
-42.68750000000001
 20
-0.0000000000000052
 30
0.0
 11
42.6875
 21
0.0000000000000052
 31
0.0
  0
LINE
  5
CF
330
1F
100
AcDbEntity
  8
참조1
100
AcDbLine
 10
-0.0000000000000018
 20
-0.0000000000000048
 30
0.0
 11
0.0000000000000036
 21
-40.00000000000001
 31
0.0
  0
LINE
  5
D0
330
1F
100
AcDbEntity
  8
참조1
100
AcDbLine
 10
0.0000000000000036
 20
-40.00000000000001
 30
0.0
 11
-14.46571559669921
 21
-40.0
 31
0.0
  0
CIRCLE
  5
D1
330
1F
100
AcDbEntity
  8
해칭선
100
AcDbCircle
 10
0.0
 20
0.0
 30
0.0
 40
3.0
  0
INSERT
  5
D2
330
1F
100
AcDbEntity
  8
0
  6
Continuous
 62
     7
100
AcDbBlockReference
 66
     1
  2
블럭10
 10
-13.94027293212521
 20
-52.04717430164393
 30
0.0
  0
ATTRIB
  5
D3
330
D2
100
AcDbEntity
  8
FORMAT
 62
     2
100
AcDbText
 10
-23.12156822086649
 20
-49.97180738881174
 30
0.0
 40
4.233333333333333
  1
E2050022 [ 2 FLUTE ]
 41
0.75
  7
SLDTEXTSTYLE0
 11
-23.12156822086649
 21
-52.08847405547841
 31
0.0
100
AcDbAttribute
  2
AUTOATTR0
 70
     0
 74
     1
  0
SEQEND
  5
D4
330
D2
100
AcDbEntity
  8
0
  6
Continuous
 62
     7
  0
HATCH
  5
D5
330
1F
100
AcDbEntity
  8
중심선
100
AcDbHatch
 10
0.0
 20
0.0
 30
0.0
210
0.0
220
0.0
230
1.0
  2
SOLID
 70
     1
 71
     0
 91
        1
 92
        0
 93
        4
 72
     1
 10
-8.225363627744372
 20
-35.8
 11
-11.67163887158165
 21
-35.8
 72
     1
 10
-11.67163887158165
 20
-35.8
 11
-13.79986873078568
 21
-38.3363255805726
 72
     1
 10
-13.79986873078568
 20
-38.3363255805726
 11
-10.35356040183525
 21
-38.33628615127011
 72
     1
 10
-10.35356040183525
 20
-38.33628615127011
 11
-8.225363627744372
 21
-35.8
 97
        0
 75
     0
 76
     1
 98
        1
 10
14.99421167873052
 20
-0.001074928723894
  0
HATCH
  5
D6
330
1F
100
AcDbEntity
  8
중심선
100
AcDbHatch
 10
0.0
 20
0.0
 30
0.0
210
0.0
220
0.0
230
1.0
  2
SOLID
 70
     1
 71
     0
 91
        1
 92
        0
 93
        4
 72
     1
 10
-3.212599636708418
 20
-35.80000000000003
 11
-6.658874880545675
 21
-35.8
 72
     1
 10
-6.658874880545675
 20
-35.8
 11
-11.19001288890309
 21
-41.20000000000002
 72
     1
 10
-11.19001288890309
 20
-41.20000000000002
 11
-7.743737645065806
 21
-41.20000000000002
 72
     1
 10
-7.743737645065806
 20
-41.20000000000002
 11
-3.212599636708418
 21
-35.80000000000003
 97
        0
 75
     0
 76
     1
 98
        1
 10
14.99421167873052
 20
-0.001074928723894
  0
HATCH
  5
D7
330
1F
100
AcDbEntity
  8
중심선
100
AcDbHatch
 10
0.0
 20
0.0
 30
0.0
210
0.0
220
0.0
230
1.0
  2
SOLID
 70
     1
 71
     0
 91
        1
 92
        0
 93
        4
 72
     1
 10
1.800164354327476
 20
-35.8
 11
-1.646110889509639
 21
-35.8
 72
     1
 10
-1.646110889509639
 20
-35.8
 11
-8.69454779139889
 21
-44.20000000000002
 72
     1
 10
-8.69454779139889
 20
-44.20000000000002
 11
-5.248272547561605
 21
-44.20000000000002
 72
     1
 10
-5.248272547561605
 20
-44.20000000000002
 11
1.800164354327476
 21
-35.8
 97
        0
 75
     0
 76
     1
 98
        1
 10
14.99421167873052
 20
-0.001074928723894
  0
HATCH
  5
D8
330
1F
100
AcDbEntity
  8
중심선
100
AcDbHatch
 10
0.0
 20
0.0
 30
0.0
210
0.0
220
0.0
230
1.0
  2
SOLID
 70
     1
 71
     0
 91
        1
 92
        0
 93
        6
 72
     3
 10
6.600054785339676
 20
-40.00000000005127
 11
3.960054785062283
 21
1.540882976769353E-10
 40
0.3939339440162628
 50
17.09539180608436
 51
320.0019657685077
 73
     0
 72
     1
 10
8.283054441040242
 20
-38.5878940046383
 11
10.58835631474131
 21
-36.65356729459035
 72
     3
 10
6.600054785286829
 20
-40.00000000000015
 11
6.600054785286829
 21
-1.278976924368180E-13
 40
0.636358354079598
 50
39.99873849337431
 51
368.4976242363724
 73
     1
 72
     1
 10
13.02538727718744
 20
-39.03999999993002
 11
5.280122092122751
 21
-39.03999999993
 72
     1
 10
5.280122092122751
 20
-39.03999999993
 11
5.280097047676817
 21
-40.95999999992991
 72
     1
 10
5.280097047676817
 20
-40.95999999992991
 11
9.721476817148854
 21
-40.95999999992988
 97
        0
 75
     0
 76
     1
 98
        1
 10
14.99421167873052
 20
-0.001074928723894
  0
DIMENSION
  5
D9
330
1F
100
AcDbEntity
  8
치수문자_일반주서
100
AcDbDimension
  2
_D
 10
-49.68749999999996
 20
-4.762500000000099
 30
0.0
 11
-49.68750000000006
 21
24.49149999999996
 31
0.0
 70
   160
  1
%%c<>
 71
     2
 42
9.524999999999995
 52
-270.0
  3
SLDDIMSTYLE0
100
AcDbAlignedDimension
 13
-22.91884233574612
 23
4.762499999999994
 33
0.0
 14
-22.91884233574614
 24
-4.762500000000001
 34
0.0
 50
90.0000000000002
100
AcDbRotatedDimension
1001
PE_URL
1000

1001
ACAD
1000
DSTYLE
1002
{
1070
   171
1070
     8
1070
   273
1070
     7
1002
}
  0
DIMENSION
  5
EE
330
1F
100
AcDbEntity
  8
치수문자_일반주서
100
AcDbDimension
  2
_D_1
 10
80.8943042811356
 20
4.36193524023707
 30
0.0
 11
80.89430428113553
 21
25.84093524023707
 31
0.0
 70
   160
  1
%%c<>
 71
     2
 42
8.723870480473828
 52
-270.0
  3
SLDDIMSTYLE0
100
AcDbAlignedDimension
 13
39.68750000000001
 23
-4.361935240236914
 33
0.0
 14
39.68750000000001
 24
4.361935240236914
 34
0.0
 50
90.0000000000002
100
AcDbRotatedDimension
1001
PE_URL
1000

1001
ACAD
1000
DSTYLE
1002
{
1070
   171
1070
     8
1070
   273
1070
     7
1002
}
  0
DIMENSION
  5
102
330
1F
100
AcDbEntity
  8
치수문자_일반주서
100
AcDbDimension
  2
_D_2
 10
25.40000000000002
 20
14.7625
 30
0.0
 11
59.85400000000001
 21
14.7625
 31
0.0
 70
   160
  1
<>
 71
     2
 42
14.28749999999999
  3
SLDDIMSTYLE0
100
AcDbAlignedDimension
 13
39.68750000000001
 23
4.361935240236914
 33
0.0
 14
25.40000000000002
 24
3.415119199700485
 34
0.0
 50
0.0000000000000142
100
AcDbRotatedDimension
1001
PE_URL
1000

1001
ACAD
1000
DSTYLE
1002
{
1070
   171
1070
     8
1070
   273
1070
     7
1002
}
  0
DIMENSION
  5
116
330
1F
100
AcDbEntity
  8
치수문자_일반주서
100
AcDbDimension
  2
_D_3
 10
39.68750000000001
 20
24.7625
 30
0.0
 11
0.0000000000000071
 21
24.7625
 31
0.0
 70
   160
  1
<>
 71
     2
 42
79.37500000000006
  3
SLDDIMSTYLE0
100
AcDbAlignedDimension
 13
-39.68750000000004
 23
4.361935240237191
 33
0.0
 14
39.68750000000001
 24
4.361935240236914
 34
0.0
100
AcDbRotatedDimension
1001
PE_URL
1000

1001
ACAD
1000
DSTYLE
1002
{
1070
   171
1070
     8
1070
   273
1070
     7
1002
}
  0
LINE
  5
129
330
1F
100
AcDbEntity
  8
참조1
100
AcDbLine
 10
83.50662503295506
 20
7.440000000000001
 30
0.0
 11
83.50662503295506
 21
-7.440000000000003
 31
0.0
  0
LINE
  5
12A
330
1F
100
AcDbEntity
  8
참조1
100
AcDbLine
 10
96.20662503295506
 20
5.440000000000001
 30
0.0
 11
83.50662503295506
 21
5.440000000000001
 31
0.0
  0
SOLID
  5
12B
330
1F
100
AcDbEntity
  8
참조1
100
AcDbTrace
 10
83.50662503295506
 20
5.440000000000001
 30
0.0
 11
89.85662503295505
 21
4.424000000000001
 31
0.0
 12
89.85662503295505
 22
6.456000000000001
 32
0.0
 13
89.85662503295505
 23
6.456000000000001
 33
0.0
  0
LINE
  5
12C
330
1F
100
AcDbEntity
  8
참조1
100
AcDbLine
 10
96.20662503295506
 20
-5.440000000000003
 30
0.0
 11
83.50662503295506
 21
-5.440000000000003
 31
0.0
  0
SOLID
  5
12D
330
1F
100
AcDbEntity
  8
참조1
100
AcDbTrace
 10
83.50662503295506
 20
-5.440000000000003
 30
0.0
 11
89.85662503295505
 21
-6.456000000000003
 31
0.0
 12
89.85662503295505
 22
-4.424000000000003
 32
0.0
 13
89.85662503295505
 23
-4.424000000000003
 33
0.0
  0
MTEXT
  5
12E
330
1F
100
AcDbEntity
  8
참조1
100
AcDbMText
 10
92.89097516558105
 20
11.01029177718833
 30
0.0
 40
3.5
 41
0.0
 71
     1
 72
     1
  1
A
  7
SLDTEXTSTYLE0
 73
     1
 44
1.0
  0
MTEXT
  5
12F
330
1F
100
AcDbEntity
  8
참조1
100
AcDbMText
 10
92.89097516558105
 20
0.1302917771883252
 30
0.0
 40
3.5
 41
0.0
 71
     1
 72
     1
  1
A
  7
SLDTEXTSTYLE0
 73
     1
 44
1.0
  0
INSERT
  5
136
330
1F
100
AcDbEntity
  8
해칭선
100
AcDbBlockReference
  2
SW_DOWELSYMBOL_0
 10
0.0
 20
0.0
 30
0.0
  0
LINE
  5
1DE
330
1F
100
AcDbEntity
  8
외형선
  6
Continuous
370
    15
100
AcDbLine
 10
-3.568700000000067
 20
3.492500000000014
 30
0.0
 11
3.56870000000006
 21
3.492500000000014
 31
0.0
1001
PE_URL
1000

  0
LINE
  5
1DF
330
1F
100
AcDbEntity
  8
외형선
  6
Continuous
370
    15
100
AcDbLine
 10
-3.568700000000067
 20
3.492500000000014
 30
0.0
 11
-4.838700000000049
 21
4.762499999999996
 31
0.0
1001
PE_URL
1000

  0
LINE
  5
1E0
330
1F
100
AcDbEntity
  8
외형선
  6
Continuous
370
    15
100
AcDbLine
 10
3.56870000000006
 20
3.492500000000014
 30
0.0
 11
4.838700000000156
 21
4.762499999999996
 31
0.0
1001
PE_URL
1000

  0
LINE
  5
219
330
1F
100
AcDbEntity
  8
외형선
  6
Continuous
370
    15
100
AcDbLine
 10
-22.91884233574613
 20
4.762499999999994
 30
0.0
 11
-23.8799146014436
 21
4.504981462538405
 31
0.0
  0
LINE
  5
21A
330
1F
100
AcDbEntity
  8
외형선
  6
Continuous
370
    15
100
AcDbLine
 10
-23.87991460144361
 20
-4.504981462538414
 30
0.0
 11
-22.91884233574614
 21
-4.762500000000006
 31
0.0
  0
SPLINE
  5
21B
330
1F
100
AcDbEntity
  8
외형선
  6
Continuous
370
    15
100
AcDbSpline
210
0.0
220
0.0
230
1.0
 70
     8
 71
     3
 72
     9
 73
     5
 74
     0
 42
0.000000001
 43
0.00000001
 40
0.0
 40
0.0
 40
0.0
 40
0.0
 40
0.553441639249017
 40
1.0
 40
1.0
 40
1.0
 40
1.0
 10
-25.40000000000006
 20
-3.415081114508364
 30
0.0
 10
-25.19685352208472
 20
-3.412369515782196
 30
0.0
 10
-24.82979317911704
 20
-3.407469995157317
 30
0.0
 10
-24.47960889907873
 20
-3.410019277788962
 30
0.0
 10
-24.32323118102406
 20
-3.411157681262036
 30
0.0
  0
SPLINE
  5
21C
330
1F
100
AcDbEntity
  8
외형선
  6
Continuous
370
    15
100
AcDbSpline
210
0.0
220
0.0
230
1.0
 70
     8
 71
     3
 72
    15
 73
    11
 74
     0
 42
0.000000001
 43
0.00000001
 40
0.0
 40
0.0
 40
0.0
 40
0.0
 40
0.0366909294030382
 40
0.0766961883267001
 40
0.1799251280122673
 40
0.5300960217188525
 40
0.8812492330945182
 40
0.9396505382912854
 40
0.9884379466407588
 40
1.0
 40
1.0
 40
1.0
 40
1.0
 10
-24.37582419809635
 20
-3.410690759607363
 30
0.0
 10
-24.37347511298369
 20
-3.411092813390152
 30
0.0
 10
-24.36856474747574
 20
-3.411933238888867
 30
0.0
 10
-24.34709027360133
 20
-3.423546523946293
 30
0.0
 10
-24.26076421484554
 20
-3.488529036137813
 30
0.0
 10
-24.10575877073629
 20
-3.634516277364558
 30
0.0
 10
-23.96459781984281
 20
-3.781216918183105
 30
0.0
 10
-23.90431809723621
 20
-3.851489017555782
 30
0.0
 10
-23.89135171240694
 20
-3.867402259099553
 30
0.0
 10
-23.88808028699659
 20
-3.871992702916344
 30
0.0
 10
-23.88745353086515
 20
-3.872872163227168
 30
0.0
  0
LINE
  5
21D
330
1F
100
AcDbEntity
  8
외형선
  6
Continuous
370
    15
100
AcDbLine
 10
-23.87067762824017
 20
3.417903632680522
 30
0.0
 11
-25.40000000000005
 21
3.415081114508359
 31
0.0
  0
LINE
  5
21E
330
1F
100
AcDbEntity
  8
0
  6
Continuous
 62
     1
370
    15
100
AcDbLine
 10
-25.96491879042821
 20
-1.228137411320343
 30
0.0
 11
-25.89651576518018
 21
-1.265665931591979
 31
0.0
1001
PE_URL
1000

  0
SPLINE
  5
21F
330
1F
100
AcDbEntity
  8
0
  6
Continuous
 62
     1
370
    15
100
AcDbSpline
210
0.0
220
0.0
230
1.0
 70
     8
 71
     3
 72
     9
 73
     5
 74
     0
 42
0.000000001
 43
0.00000001
 40
0.0
 40
0.0
 40
0.0
 40
0.0
 40
0.4997377003951666
 40
1.0
 40
1.0
 40
1.0
 40
1.0
 10
-28.37807845871922
 20
-1.118643651753683
 30
0.0
 10
-28.17604071432218
 20
-1.214810035806703
 30
0.0
 10
-27.77175313658435
 20
-1.407243754489475
 30
0.0
 10
-27.36760420842201
 20
-1.618660361177838
 30
0.0
 10
-27.16542373623669
 20
-1.724424119014408
 30
0.0
1001
PE_URL
1000

  0
LINE
  5
220
330
1F
100
AcDbEntity
  8
0
  6
Continuous
 62
     1
370
    15
100
AcDbLine
 10
-26.93380564928646
 20
-3.469090874133752
 30
0.0
 11
-25.40000000000002
 21
-3.415081114508364
 31
0.0
1001
PE_URL
1000

  0
SPLINE
  5
221
330
1F
100
AcDbEntity
  8
0
  6
Continuous
 62
     1
370
    15
100
AcDbSpline
210
0.0
220
0.0
230
1.0
 70
     8
 71
     3
 72
    22
 73
    18
 74
     0
 42
0.000000001
 43
0.00000001
 40
0.0
 40
0.0
 40
0.0
 40
0.0
 40
0.1114994169192969
 40
0.2056002228267521
 40
0.2815297164562108
 40
0.3490934843086486
 40
0.4133499569474404
 40
0.4740534620463116
 40
0.532371673139038
 40
0.5991995154505461
 40
0.6697070523282902
 40
0.742580271478261
 40
0.7789117024831963
 40
0.8156305110459838
 40
0.8540507630490424
 40
0.920445352942841
 40
1.0
 40
1.0
 40
1.0
 40
1.0
 10
-38.0644635769856
 20
-2.985869120012165
 30
0.0
 10
-37.78677648487032
 20
-2.963867353667343
 30
0.0
 10
-37.27473319717908
 20
-2.92329702435028
 30
0.0
 10
-36.56264154570223
 20
-2.889808267454132
 30
0.0
 10
-35.94632951567436
 20
-2.87461574084416
 30
0.0
 10
-35.40588410117633
 20
-2.871488806021368
 30
0.0
 10
-34.90905926997755
 20
-2.876770969746406
 30
0.0
 10
-34.44109295012166
 20
-2.889316110606995
 30
0.0
 10
-33.96770471673981
 20
-2.90933543772756
 30
0.0
 10
-33.46782771021605
 20
-2.938298551570607
 30
0.0
 10
-32.93190863522148
 20
-2.978347696277986
 30
0.0
 10
-32.46837085033678
 20
-3.021399712850851
 30
0.0
 10
-32.08569208626481
 20
-3.061606572329762
 30
0.0
 10
-31.79383087731977
 20
-3.09333594377896
 30
0.0
 10
-31.42139176908379
 20
-3.135976256706943
 30
0.0
 10
-30.95469106094208
 20
-3.201590299695876
 30
0.0
 10
-30.62114917165343
 20
-3.254625444052429
 30
0.0
 10
-30.43934070293185
 20
-3.283534072004549
 30
0.0
1001
PE_URL
1000

  0
SPLINE
  5
222
330
1F
100
AcDbEntity
  8
0
  6
Continuous
 62
     1
370
    15
100
AcDbSpline
210
0.0
220
0.0
230
1.0
 70
     8
 71
     3
 72
    13
 73
     9
 74
     0
 42
0.000000001
 43
0.00000001
 40
0.0
 40
0.0
 40
0.0
 40
0.0
 40
0.1851556745517658
 40
0.3396826007983448
 40
0.5357139445212693
 40
0.7259398149745304
 40
0.9127965141151799
 40
1.0
 40
1.0
 40
1.0
 40
1.0
 10
-30.43934070293184
 20
3.283534072004556
 30
0.0
 10
-30.62104363520805
 20
3.25459297036549
 30
0.0
 10
-30.95439190961381
 20
3.201498250484361
 30
0.0
 10
-31.53842133258411
 20
3.120005314413513
 30
0.0
 10
-32.15371090309988
 20
3.053607054745967
 30
0.0
 10
-32.79499559437646
 20
2.989797599582815
 30
0.0
 10
-33.30243996002292
 20
2.948982328265215
 30
0.0
 10
-33.60317441266743
 20
2.932021352735008
 30
0.0
 10
-33.69886541059121
 20
2.926624522874064
 30
0.0
1001
PE_URL
1000

  0
LINE
  5
223
330
1F
100
AcDbEntity
  8
0
  6
Continuous
 62
     1
370
    15
100
AcDbLine
 10
-25.40000000000001
 20
3.415081114508359
 30
0.0
 11
-26.93380564928645
 21
3.469090874133752
 31
0.0
1001
PE_URL
1000

  0
LINE
  5
224
330
1F
100
AcDbEntity
  8
외형선
  6
Continuous
370
    15
100
AcDbLine
 10
-22.91884233574614
 20
-4.762500000000006
 30
0.0
 11
-22.91884233574613
 21
4.762499999999998
 31
0.0
  0
SPLINE
  5
225
330
1F
100
AcDbEntity
  8
외형선
  6
Continuous
370
    15
100
AcDbSpline
210
0.0
220
0.0
230
1.0
 70
     8
 71
     3
 72
     8
 73
     4
 74
     0
 42
0.000000001
 43
0.00000001
 40
0.0
 40
0.0
 40
0.0
 40
0.0
 40
0.0005906899726241
 40
0.0005906899726241
 40
0.0005906899726241
 40
0.0005906899726241
 10
-24.40000000000003
 20
-3.045236647308176
 30
0.0
 10
-24.22626146717246
 20
-3.13510440742456
 30
0.0
 10
-24.05282627559818
 20
-3.224848332884825
 30
0.0
 10
-23.8798250921018
 20
-3.314350749905685
 30
0.0
  0
LINE
  5
226
330
1F
100
AcDbEntity
  8
외형선
  6
Continuous
370
    15
100
AcDbLine
 10
-24.40000000000003
 20
-3.04523664730818
 30
0.0
 11
-24.40000000000003
 21
-2.062864152861199
 31
0.0
  0
SPLINE
  5
227
330
1F
100
AcDbEntity
  8
외형선
  6
Continuous
370
    15
100
AcDbSpline
210
0.0
220
0.0
230
1.0
 70
     8
 71
     3
 72
     8
 73
     4
 74
     0
 42
0.000000001
 43
0.00000001
 40
0.0
 40
0.0
 40
0.0
 40
0.0
 40
0.0005965476276722
 40
0.0005965476276722
 40
0.0005965476276722
 40
0.0005965476276722
 10
-23.87991460144361
 20
-2.354977658111547
 30
0.0
 10
-24.0533775968372
 20
-2.257887721051411
 30
0.0
 10
-24.22676838461619
 20
-2.160494636011421
 30
0.0
 10
-24.40000000000011
 20
-2.062864152861017
 30
0.0
  0
LINE
  5
228
330
1F
100
AcDbEntity
  8
외형선
  6
Continuous
370
    15
100
AcDbLine
 10
-23.8799146014436
 20
4.504981462538405
 30
0.0
 11
-23.87991460144361
 21
-2.355029410409795
 31
0.0
  0
LINE
  5
229
330
1F
100
AcDbEntity
  8
외형선
  6
Continuous
370
    15
100
AcDbLine
 10
-23.87991460144361
 20
-3.314429128248104
 30
0.0
 11
-23.87991460144361
 21
-4.504981462538414
 31
0.0
  0
LINE
  5
22A
330
1F
100
AcDbEntity
  8
외형선
  6
Continuous
370
    15
100
AcDbLine
 10
-25.40000000000003
 20
-1.536749769451099
 30
0.0
 11
-25.40000000000003
 21
-1.531297233835392
 31
0.0
  0
SPLINE
  5
22B
330
1F
100
AcDbEntity
  8
외형선
  6
Continuous
370
    15
100
AcDbSpline
210
0.0
220
0.0
230
1.0
 70
    24
 71
     3
 72
    11
 73
     7
 74
     0
 42
0.000000001
 43
0.00000001
 40
0.0
 40
0.0
 40
0.0
 40
0.0
 40
0.2052296866895484
 40
0.5002564141787639
 40
0.7474973937218423
 40
1.0
 40
1.0
 40
1.0
 40
1.0
 10
-25.40000000000003
 20
-1.476335765227827
 30
0.0
 10
-25.40000000000003
 20
-1.45795020253021
 30
0.0
 10
-25.40000000000003
 20
-1.413134582450436
 30
0.0
 10
-25.40000000000003
 20
-1.294310273315265
 30
0.0
 10
-25.40000000000003
 20
-1.139708799832142
 30
0.0
 10
-25.40000000000003
 20
-1.018488367039172
 30
0.0
 10
-25.40000000000003
 20
-0.9572400067143612
 30
0.0
  0
SPLINE
  5
22C
330
1F
100
AcDbEntity
  8
외형선
  6
Continuous
370
    15
100
AcDbSpline
210
0.0
220
0.0
230
1.0
 70
     8
 71
     3
 72
    10
 73
     6
 74
     0
 42
0.000000001
 43
0.00000001
 40
0.0
 40
0.0
 40
0.0
 40
0.0
 40
0.5
 40
0.5
 40
1.0
 40
1.0
 40
1.0
 40
1.0
 10
-25.40000000000003
 20
-0.9572400067143576
 30
0.0
 10
-25.14679078276605
 20
-1.054474652088214
 30
0.0
 10
-24.89585800246788
 20
-1.149812176299427
 30
0.0
 10
-24.38875972299913
 20
-1.336954235719396
 30
0.0
 10
-24.13397795545364
 20
-1.428575691630183
 30
0.0
 10
-23.87989304205121
 20
-1.517548676181317
 30
0.0
  0
SPLINE
  5
22D
330
1F
100
AcDbEntity
  8
외형선
  6
Continuous
370
    15
100
AcDbSpline
210
0.0
220
0.0
230
1.0
 70
     8
 71
     3
 72
     8
 73
     4
 74
     0
 42
0.000000001
 43
0.00000001
 40
0.0
 40
0.0
 40
0.0
 40
0.0
 40
1.0
 40
1.0
 40
1.0
 40
1.0
 10
-24.40000000000003
 20
-2.062864152861199
 30
0.0
 10
-24.73499098781613
 20
-1.892736842016646
 30
0.0
 10
-25.06623329149054
 20
-1.71721175044528
 30
0.0
 10
-25.40000000000006
 20
-1.536749769451085
 30
0.0
  0
SPLINE
  5
22E
330
1F
100
AcDbEntity
  8
외형선
  6
Continuous
370
    15
100
AcDbSpline
210
0.0
220
0.0
230
1.0
 70
     8
 71
     3
 72
     8
 73
     4
 74
     0
 42
0.000000001
 43
0.00000001
 40
0.0
 40
0.0
 40
0.0
 40
0.0
 40
1.0
 40
1.0
 40
1.0
 40
1.0
 10
-25.40000000000041
 20
-2.605510591513188
 30
0.0
 10
-25.06623329149078
 20
-2.760209641721843
 30
0.0
 10
-24.73499098781625
 20
-2.906918119992721
 30
0.0
 10
-24.40000000000003
 20
-3.04523664730818
 30
0.0
  0
LINE
  5
22F
330
1F
100
AcDbEntity
  8
외형선
  6
Continuous
370
    15
100
AcDbLine
 10
-25.40000000000003
 20
-2.605510591513365
 30
0.0
 11
-25.40000000000003
 21
-1.536749769451099
 31
0.0
  0
SPLINE
  5
230
330
1F
100
AcDbEntity
  8
외형선
  6
Continuous
370
    15
100
AcDbSpline
210
0.0
220
0.0
230
1.0
 70
     8
 71
     3
 72
    10
 73
     6
 74
     0
 42
0.000000001
 43
0.00000001
 40
0.0
 40
0.0
 40
0.0
 40
0.0
 40
0.5
 40
0.5
 40
1.0
 40
1.0
 40
1.0
 40
1.0
 10
-25.40000000000003
 20
3.316737137428003
 30
0.0
 10
-25.14678893603895
 20
3.280083432144794
 30
0.0
 10
-24.89585432200667
 20
3.237973759732711
 30
0.0
 10
-24.38875230822245
 20
3.142710199545489
 30
0.0
 10
-24.13396866954588
 20
3.089610973437006
 30
0.0
 10
-23.87988192336887
 20
3.031435454925949
 30
0.0
  0
SPLINE
  5
231
330
1F
100
AcDbEntity
  8
외형선
  6
Continuous
370
    15
100
AcDbSpline
210
0.0
220
0.0
230
1.0
 70
    24
 71
     3
 72
    14
 73
    10
 74
     0
 42
0.000000001
 43
0.00000001
 40
0.0
 40
0.0
 40
0.0
 40
0.0
 40
0.2499999999999999
 40
0.2499999999999999
 40
0.4999999999999999
 40
0.4999999999999999
 40
0.7499999999999999
 40
0.7499999999999999
 40
1.0
 40
1.0
 40
1.0
 40
1.0
 10
-25.39999999999998
 20
-0.9572400067143789
 30
0.0
 10
-25.39999999999998
 20
-0.572605234078436
 30
0.0
 10
-25.39999999999997
 20
-0.1706949517105585
 30
0.0
 10
-25.39999999999998
 20
0.6322343739314196
 30
0.0
 10
-25.39999999999998
 20
1.032861349113107
 30
0.0
 10
-25.39999999999997
 20
1.792470311132753
 30
0.0
 10
-25.39999999999998
 20
2.151047546557848
 30
0.0
 10
-25.39999999999998
 20
2.79375377718457
 30
0.0
 10
-25.39999999999997
 20
3.077715746275974
 30
0.0
 10
-25.39999999999997
 20
3.316737137427992
 30
0.0
  0
SPLINE
  5
232
330
1F
100
AcDbEntity
  8
외형선
  6
Continuous
370
    15
100
AcDbSpline
210
0.0
220
0.0
230
1.0
 70
    24
 71
     3
 72
    12
 73
     8
 74
     0
 42
0.000000001
 43
0.00000001
 40
0.0
 40
0.0
 40
0.0
 40
0.0
 40
0.0362635199966086
 40
0.3225335949954208
 40
0.6171055215625116
 40
0.8751385708056493
 40
0.9999999999999999
 40
0.9999999999999999
 40
0.9999999999999999
 40
0.9999999999999999
 10
-25.40000000000003
 20
-3.410352707169636
 30
0.0
 10
-25.40000000000003
 20
-3.411663618708712
 30
0.0
 10
-25.40000000000003
 20
-3.423323077345316
 30
0.0
 10
-25.40000000000003
 20
-3.343882789309308
 30
0.0
 10
-25.40000000000003
 20
-3.132165073079591
 30
0.0
 10
-25.40000000000003
 20
-2.875947067530507
 30
0.0
 10
-25.40000000000003
 20
-2.67201318536647
 30
0.0
 10
-25.40000000000003
 20
-2.605510591513291
 30
0.0
  0
SPLINE
  5
233
330
1F
100
AcDbEntity
  8
외형선
  6
Continuous
370
    15
100
AcDbSpline
210
0.0
220
0.0
230
1.0
 70
    24
 71
     3
 72
     9
 73
     5
 74
     0
 42
0.000000001
 43
0.00000001
 40
0.0
 40
0.0
 40
0.0
 40
0.0
 40
0.5473214571692208
 40
1.0
 40
1.0
 40
1.0
 40
1.0
 10
-25.40000000000001
 20
3.316737137427996
 30
0.0
 10
-25.40000000000001
 20
3.348727770204629
 30
0.0
 10
-25.40000000000002
 20
3.407177210396673
 30
0.0
 10
-25.40000000000003
 20
3.409363127914052
 30
0.0
 10
-25.40000000000003
 20
3.410352645870566
 30
0.0
  0
SPLINE
  5
234
330
1F
100
AcDbEntity
  8
0
  6
Continuous
 62
     1
370
    15
100
AcDbSpline
210
0.0
220
0.0
230
1.0
 70
     8
 71
     3
 72
    32
 73
    28
 74
     0
 42
0.000000001
 43
0.00000001
 40
0.0
 40
0.0
 40
0.0
 40
0.0
 40
0.0625000000000001
 40
0.0625000000000001
 40
0.1250000000000002
 40
0.1250000000000002
 40
0.1875000000000003
 40
0.1875000000000003
 40
0.2500000000000004
 40
0.2500000000000004
 40
0.3125000000000004
 40
0.3125000000000004
 40
0.3750000000000006
 40
0.3750000000000006
 40
0.4375000000000007
 40
0.4375000000000007
 40
0.5000000000000007
 40
0.5000000000000007
 40
0.5625000000000007
 40
0.5625000000000007
 40
0.6250000000000008
 40
0.6250000000000008
 40
0.7500000000000004
 40
0.7500000000000004
 40
0.8750000000000002
 40
0.8750000000000002
 40
1.0
 40
1.0
 40
1.0
 40
1.0
 10
-25.39999999999943
 20
-1.536749769451443
 30
0.0
 10
-25.69739457554602
 20
-1.375953581959489
 30
0.0
 10
-25.9968226724493
 20
-1.211210212467169
 30
0.0
 10
-26.59349865961801
 20
-0.8772484342540068
 30
0.0
 10
-26.88862668811367
 20
-0.7084435178691351
 30
0.0
 10
-27.48302495580093
 20
-0.3675539418100762
 30
0.0
 10
-27.78240182640265
 20
-0.1954406959148187
 30
0.0
 10
-28.37926732667837
 20
0.1485366122130554
 30
0.0
 10
-28.67468948116675
 20
0.3200000421023983
 30
0.0
 10
-29.26867021712541
 20
0.6612519964890886
 30
0.0
 10
-29.56798220906271
 20
0.8311787424801427
 30
0.0
 10
-30.16501020236727
 20
1.166070992519268
 30
0.0
 10
-30.46079562955555
 20
1.330683649971141
 30
0.0
 10
-31.05433224818906
 20
1.653351582629293
 30
0.0
 10
-31.35356571899724
 20
1.811658242425798
 30
0.0
 10
-31.95072916070239
 20
2.118866293992781
 30
0.0
 10
-32.24694695274185
 20
2.267490058394678
 30
0.0
 10
-32.84001293511457
 20
2.55366900612092
 30
0.0
 10
-33.13915425430488
 20
2.691569051008239
 30
0.0
 10
-33.73642607931208
 20
2.954029239947486
 30
0.0
 10
-34.03314526344235
 20
3.078401640977335
 30
0.0
 10
-34.92199861006891
 20
3.429133225904254
 30
0.0
 10
-35.52336964775004
 20
3.634133190124874
 30
0.0
 10
-36.70746052621971
 20
3.971155659824932
 30
0.0
 10
-37.30994222038277
 20
4.104968296470279
 30
0.0
 10
-38.49293359070039
 20
4.292737739512164
 30
0.0
 10
-39.09658028229855
 20
4.347842751490127
 30
0.0
 10
-39.68750000000004
 20
4.361935240237191
 30
0.0
1001
PE_URL
1000

  0
SPLINE
  5
235
330
1F
100
AcDbEntity
  8
0
  6
Continuous
 62
     1
370
    15
100
AcDbSpline
210
0.0
220
0.0
230
1.0
 70
     8
 71
     3
 72
    10
 73
     6
 74
     0
 42
0.000000001
 43
0.00000001
 40
0.0
 40
0.0
 40
0.0
 40
0.0
 40
0.2907577399016379
 40
0.6449054727968223
 40
1.0
 40
1.0
 40
1.0
 40
1.0
 10
-28.83002439387379
 20
0.4074359110770871
 30
0.0
 10
-28.49750265115969
 20
0.2751443988930546
 30
0.0
 10
-27.75996392984204
 20
-0.0182803616684772
 30
0.0
 10
-26.6171118002174
 20
-0.484286459081174
 30
0.0
 10
-25.8060648324929
 20
-0.7994485835580996
 30
0.0
 10
-25.40000000000003
 20
-0.9572400067143612
 30
0.0
1001
PE_URL
1000

  0
SPLINE
  5
236
330
1F
100
AcDbEntity
  8
외형선
  6
Continuous
370
    15
100
AcDbSpline
210
0.0
220
0.0
230
1.0
 70
    24
 71
     3
 72
    10
 73
     6
 74
     0
 42
0.000000001
 43
0.00000001
 40
0.0
 40
0.0
 40
0.0
 40
0.0
 40
0.5
 40
0.5
 40
1.0
 40
1.0
 40
1.0
 40
1.0
 10
-25.40000000000003
 20
-1.536749769451095
 30
0.0
 10
-25.40000000000003
 20
-1.521392017801308
 30
0.0
 10
-25.40000000000003
 20
-1.46031608743094
 30
0.0
 10
-25.40000000000003
 20
-1.257614906317723
 30
0.0
 10
-25.40000000000003
 20
-1.116833434793602
 30
0.0
 10
-25.40000000000003
 20
-0.9572400067143612
 30
0.0
  0
SPLINE
  5
237
330
1F
100
AcDbEntity
  8
0
  6
Continuous
 62
     1
370
    15
100
AcDbSpline
210
0.0
220
0.0
230
1.0
 70
     8
 71
     3
 72
    32
 73
    28
 74
     0
 42
0.000000001
 43
0.00000001
 40
0.0
 40
0.0
 40
0.0
 40
0.0
 40
0.1250000000000002
 40
0.1250000000000002
 40
0.2500000000000004
 40
0.2500000000000004
 40
0.3750000000000007
 40
0.3750000000000007
 40
0.4375000000000008
 40
0.4375000000000008
 40
0.5000000000000009
 40
0.5000000000000009
 40
0.5625000000000008
 40
0.5625000000000008
 40
0.6250000000000007
 40
0.6250000000000007
 40
0.6875000000000006
 40
0.6875000000000006
 40
0.7500000000000004
 40
0.7500000000000004
 40
0.8125000000000003
 40
0.8125000000000003
 40
0.8750000000000002
 40
0.8750000000000002
 40
0.9375000000000001
 40
0.9375000000000001
 40
1.0
 40
1.0
 40
1.0
 40
1.0
 10
-39.68750000000004
 20
4.142719982240525
 30
0.0
 10
-39.09658028229848
 20
4.0345704384901
 30
0.0
 10
-38.49293359070023
 20
3.886802828724653
 30
0.0
 10
-37.30994222038247
 20
3.524141299862139
 30
0.0
 10
-36.70746052621933
 20
3.306977265265845
 30
0.0
 10
-35.52336964774953
 20
2.818008957986869
 30
0.0
 10
-34.92199861006831
 20
2.543579622068716
 30
0.0
 10
-34.03314526344165
 20
2.102439318672303
 30
0.0
 10
-33.73642607931134
 20
1.950107318758317
 30
0.0
 10
-33.13915425430407
 20
1.636413869104373
 30
0.0
 10
-32.84001293511373
 20
1.475289422894205
 30
0.0
 10
-32.24694695274093
 20
1.147895515715012
 30
0.0
 10
-31.95072916070144
 20
0.9812170029599958
 30
0.0
 10
-31.3535657189962
 20
0.6431839892393736
 30
0.0
 10
-31.05433224818799
 20
0.47214855762968
 30
0.0
 10
-30.46079562955441
 20
0.1296228780742705
 30
0.0
 10
-30.16501020236609
 20
-0.042149412953572
 30
0.0
 10
-29.56798220906146
 20
-0.3857495244037512
 30
0.0
 10
-29.26867021712411
 20
-0.557200640408757
 30
0.0
 10
-28.67468948116541
 20
-0.8958392423792745
 30
0.0
 10
-28.37926732667697
 20
-1.063180085630314
 30
0.0
 10
-27.78240182640118
 20
-1.393268294602908
 30
0.0
 10
-27.48302495579942
 20
-1.555615094242231
 30
0.0
 10
-26.8886266881121
 20
-1.871554649810154
 30
0.0
 10
-26.59349865961639
 20
-2.025191599105096
 30
0.0
 10
-25.9968226724476
 20
-2.323442879163547
 30
0.0
 10
-25.69739457554428
 20
-2.467669826688965
 30
0.0
 10
-25.39999999999766
 20
-2.605510591514467
 30
0.0
1001
PE_URL
1000

  0
SPLINE
  5
238
330
1F
100
AcDbEntity
  8
0
  6
Continuous
 62
     1
370
    15
100
AcDbSpline
210
0.0
220
0.0
230
1.0
 70
     8
 71
     3
 72
    16
 73
    12
 74
     0
 42
0.000000001
 43
0.00000001
 40
0.0
 40
0.0
 40
0.0
 40
0.0
 40
0.1163281691630022
 40
0.2324443077676199
 40
0.3486165233920462
 40
0.4650286535905452
 40
0.5812358298770258
 40
0.6973427222041243
 40
0.8136176359355803
 40
0.9299932972593061
 40
1.0
 40
1.0
 40
1.0
 40
1.0
 10
-39.68750000000004
 20
3.444357041632506
 30
0.0
 10
-39.24799626845264
 20
3.354110143098938
 30
0.0
 10
-38.36978988580363
 20
3.173780838436574
 30
0.0
 10
-37.05322832281007
 20
2.778790232512605
 30
0.0
 10
-35.73625410560894
 20
2.307027292252297
 30
0.0
 10
-34.41819050834248
 20
1.764527700096238
 30
0.0
 10
-33.10103089628203
 20
1.168265305071635
 30
0.0
 10
-31.78457297663675
 20
0.53593227381816
 30
0.0
 10
-30.46710325084597
 20
-0.1106831560907562
 30
0.0
 10
-29.32345137944736
 20
-0.6729924326409282
 30
0.0
 10
-28.61954654148842
 20
-1.001495250100113
 30
0.0
 10
-28.35515426920404
 20
-1.124883528850546
 30
0.0
1001
PE_URL
1000

  0
LINE
  5
239
330
1F
100
AcDbEntity
  8
0
  6
Continuous
 62
     1
370
    15
100
AcDbLine
 10
-39.68749999999996
 20
4.142719982240525
 30
0.0
 11
-39.68750000000003
 21
3.444357041632506
 31
0.0
1001
PE_URL
1000

  0
LINE
  5
23A
330
1F
100
AcDbEntity
  8
0
  6
Continuous
 62
     1
370
    15
100
AcDbLine
 10
-39.68750000000003
 20
4.361935240236924
 30
0.0
 11
-39.68749999999994
 21
4.142719982240518
 31
0.0
1001
PE_URL
1000

  0
SPLINE
  5
23B
330
1F
100
AcDbEntity
  8
0
  6
Continuous
 62
     1
370
    15
100
AcDbSpline
210
0.0
220
0.0
230
1.0
 70
     8
 71
     3
 72
     8
 73
     4
 74
     0
 42
0.000000001
 43
0.00000001
 40
0.0
 40
0.0
 40
0.0
 40
0.0
 40
1.0
 40
1.0
 40
1.0
 40
1.0
 10
-36.98596235634317
 20
-1.221451238460766
 30
0.0
 10
-36.83080514540701
 20
-1.405287162604601
 30
0.0
 10
-36.69247670705672
 20
-1.582052726402434
 30
0.0
 10
-36.57485713941054
 20
-1.750117763914762
 30
0.0
1001
PE_URL
1000

  0
LINE
  5
23C
330
1F
100
AcDbEntity
  8
0
  6
Continuous
 62
     1
370
    15
100
AcDbLine
 10
-36.63001914758045
 20
-1.796404184640032
 30
0.0
 11
-39.68750000000003
 21
0.0000000000000089
 31
0.0
1001
PE_URL
1000

  0
LINE
  5
23D
330
1F
100
AcDbEntity
  8
0
  6
Continuous
 62
     1
370
    15
100
AcDbLine
 10
-39.68750000000003
 20
0.0000000000000089
 30
0.0
 11
-39.68750000000003
 21
1.166682486260678
 31
0.0
1001
PE_URL
1000

  0
SPLINE
  5
23E
330
1F
100
AcDbEntity
  8
0
  6
Continuous
 62
     1
370
    15
100
AcDbSpline
210
0.0
220
0.0
230
1.0
 70
     8
 71
     3
 72
    12
 73
     8
 74
     0
 42
0.000000001
 43
0.00000001
 40
0.0
 40
0.0
 40
0.0
 40
0.0
 40
0.5000000000000004
 40
0.5000000000000004
 40
0.7500000000000002
 40
0.7500000000000002
 40
1.0
 40
1.0
 40
1.0
 40
1.0
 10
-39.68750000000004
 20
1.166682486260679
 30
0.0
 10
-39.21985101917989
 20
0.7990306088474899
 30
0.0
 10
-38.76001546190881
 20
0.4163022391985578
 30
0.0
 10
-38.0822793030398
 20
-0.1809782143008221
 30
0.0
 10
-37.85840602336333
 20
-0.3840056400916687
 30
0.0
 10
-37.415237924121
 20
-0.7988949184616096
 30
0.0
 10
-37.19715009836871
 20
-1.009673468302605
 30
0.0
 10
-36.98596235634316
 20
-1.221451238460769
 30
0.0
1001
PE_URL
1000

  0
SPLINE
  5
23F
330
1F
100
AcDbEntity
  8
0
  6
Continuous
 62
     1
370
    15
100
AcDbSpline
210
0.0
220
0.0
230
1.0
 70
     8
 71
     3
 72
    15
 73
    11
 74
     0
 42
0.000000001
 43
0.00000001
 40
0.0
 40
0.0
 40
0.0
 40
0.0
 40
0.1242499470905822
 40
0.255480225428616
 40
0.3864762220684356
 40
0.5173576011749562
 40
0.6484310567067333
 40
0.7796196301643994
 40
0.9105304664129119
 40
1.0
 40
1.0
 40
1.0
 40
1.0
 10
-36.98596235633942
 20
-1.221451238462386
 30
0.0
 10
-36.56969949581817
 20
-1.398532128198653
 30
0.0
 10
-35.71378823039126
 20
-1.762642268188806
 30
0.0
 10
-34.41822397176038
 20
-2.251975844363148
 30
0.0
 10
-33.10106410004525
 20
-2.685321795938183
 30
0.0
 10
-31.78458762017079
 20
-3.03639542120521
 30
0.0
 10
-30.46711929353301
 20
-3.29636081770521
 30
0.0
 10
-29.14924111750472
 20
-3.453037547307076
 30
0.0
 10
-27.97141581503119
 20
-3.51126947224666
 30
0.0
 10
-27.23302619546741
 20
-3.475083346121529
 30
0.0
 10
-26.93325641598478
 20
-3.460392582923543
 30
0.0
1001
PE_URL
1000

  0
SPLINE
  5
240
330
1F
100
AcDbEntity
  8
0
  6
Continuous
 62
     1
370
    15
100
AcDbSpline
210
0.0
220
0.0
230
1.0
 70
    24
 71
     3
 72
    10
 73
     6
 74
     0
 42
0.000000001
 43
0.00000001
 40
0.0
 40
0.0
 40
0.0
 40
0.0
 40
0.5
 40
0.5
 40
1.0
 40
1.0
 40
1.0
 40
1.0
 10
-39.68750000000003
 20
3.444357041632504
 30
0.0
 10
-39.68750000000003
 20
3.180320220119746
 30
0.0
 10
-39.68750000000004
 20
2.846699571929189
 30
0.0
 10
-39.68750000000003
 20
2.071063672292199
 30
0.0
 10
-39.68750000000003
 20
1.629720306070885
 30
0.0
 10
-39.68750000000003
 20
1.166682486260818
 30
0.0
1001
PE_URL
1000

  0
SPLINE
  5
241
330
1F
100
AcDbEntity
  8
외형선
  6
Continuous
370
    15
100
AcDbSpline
210
0.0
220
0.0
230
1.0
 70
    24
 71
     3
 72
    12
 73
     8
 74
     0
 42
0.000000001
 43
0.00000001
 40
0.0
 40
0.0
 40
0.0
 40
0.0
 40
0.0380688496551016
 40
0.3238026661771862
 40
0.6178227827353949
 40
0.875372468812007
 40
1.0
 40
1.0
 40
1.0
 40
1.0
 10
-25.40000000000003
 20
-3.410183964758943
 30
0.0
 10
-25.40000000000003
 20
-3.411573293781384
 30
0.0
 10
-25.40000000000003
 20
-3.423390526131168
 30
0.0
 10
-25.40000000000003
 20
-3.343959169411445
 30
0.0
 10
-25.40000000000003
 20
-3.132146827926764
 30
0.0
 10
-25.40000000000003
 20
-2.875948903004929
 30
0.0
 10
-25.40000000000003
 20
-2.672013636725001
 30
0.0
 10
-25.40000000000003
 20
-2.605510591513291
 30
0.0
  0
SPLINE
  5
242
330
1F
100
AcDbEntity
  8
0
  6
Continuous
 62
     1
370
    15
100
AcDbSpline
210
0.0
220
0.0
230
1.0
 70
    24
 71
     3
 72
     8
 73
     4
 74
     0
 42
0.000000001
 43
0.00000001
 40
0.0
 40
0.0
 40
0.0
 40
0.0
 40
1.0
 40
1.0
 40
1.0
 40
1.0
 10
-37.03035251254398
 20
-2.132323763528817
 30
0.0
 10
-36.88691698158819
 20
-2.011967062406097
 30
0.0
 10
-36.73393718385014
 20
-1.883601770546559
 30
0.0
 10
-36.57485713940402
 20
-1.750117763924148
 30
0.0
1001
PE_URL
1000

  0
LINE
  5
243
330
1F
100
AcDbEntity
  8
0
  6
Continuous
 62
     1
370
    15
100
AcDbLine
 10
-39.68750000000004
 20
-3.055937499999988
 30
0.0
 11
-38.06163096600796
 21
-2.970563371206158
 31
0.0
1001
PE_URL
1000

  0
SPLINE
  5
244
330
1F
100
AcDbEntity
  8
0
  6
Continuous
 62
     1
370
    15
100
AcDbSpline
210
0.0
220
0.0
230
1.0
 70
     8
 71
     3
 72
    10
 73
     6
 74
     0
 42
0.000000001
 43
0.00000001
 40
0.0
 40
0.0
 40
0.0
 40
0.0
 40
0.5
 40
0.5
 40
1.0
 40
1.0
 40
1.0
 40
1.0
 10
-39.68750000000004
 20
-3.055937499999992
 30
0.0
 10
-39.23837241041669
 20
-2.934079259371
 30
0.0
 10
-38.79197476569693
 20
-2.797376796152012
 30
0.0
 10
-37.90518654199498
 20
-2.491308125434735
 30
0.0
 10
-37.46504351005277
 20
-2.322601019984866
 30
0.0
 10
-37.03035251254303
 20
-2.132323763529445
 30
0.0
1001
PE_URL
1000

  0
SPLINE
  5
245
330
1F
100
AcDbEntity
  8
0
  6
Continuous
 62
     1
370
    15
100
AcDbSpline
210
0.0
220
0.0
230
1.0
 70
     8
 71
     3
 72
    11
 73
     7
 74
     0
 42
0.000000001
 43
0.00000001
 40
0.0
 40
0.0
 40
0.0
 40
0.0
 40
0.2561693521057433
 40
0.5173139497903528
 40
0.7583431769373612
 40
1.0
 40
1.0
 40
1.0
 40
1.0
 10
-30.43958416404369
 20
3.282427043869964
 30
0.0
 10
-30.00916803956549
 20
3.341405967192438
 30
0.0
 10
-29.1399763756253
 20
3.46050928508558
 30
0.0
 10
-27.86632433655956
 20
3.506540110395903
 30
0.0
 10
-26.61712151538353
 20
3.468015450154049
 30
0.0
 10
-25.80605869063092
 20
3.36720693260456
 30
0.0
 10
-25.40000000000003
 20
3.316737137428001
 30
0.0
1001
PE_URL
1000

  0
SPLINE
  5
246
330
1F
100
AcDbEntity
  8
외형선
  6
Continuous
370
    15
100
AcDbSpline
210
0.0
220
0.0
230
1.0
 70
    24
 71
     3
 72
    14
 73
    10
 74
     0
 42
0.000000001
 43
0.00000001
 40
0.0
 40
0.0
 40
0.0
 40
0.0
 40
0.2499999999999999
 40
0.2499999999999999
 40
0.4999999999999998
 40
0.4999999999999998
 40
0.7499999999999998
 40
0.7499999999999998
 40
1.0
 40
1.0
 40
1.0
 40
1.0
 10
-25.39999999999986
 20
-0.9572400067144251
 30
0.0
 10
-25.39999999999986
 20
-0.5726052340784804
 30
0.0
 10
-25.39999999999986
 20
-0.1706949517106029
 30
0.0
 10
-25.39999999999986
 20
0.6322343739313752
 30
0.0
 10
-25.39999999999986
 20
1.032861349113066
 30
0.0
 10
-25.39999999999986
 20
1.792470311132718
 30
0.0
 10
-25.39999999999986
 20
2.151047546557816
 30
0.0
 10
-25.39999999999986
 20
2.793753777184545
 30
0.0
 10
-25.39999999999986
 20
3.077715746275953
 30
0.0
 10
-25.39999999999986
 20
3.316737137427976
 30
0.0
  0
LINE
  5
247
330
1F
100
AcDbEntity
  8
0
  6
Continuous
 62
     1
370
    15
100
AcDbLine
 10
-39.68750000000003
 20
0.0000000000000089
 30
0.0
 11
-39.68750000000004
 21
-3.055937499999988
 31
0.0
1001
PE_URL
1000

  0
SPLINE
  5
248
330
1F
100
AcDbEntity
  8
외형선
  6
Continuous
370
    15
100
AcDbSpline
210
0.0
220
0.0
230
1.0
 70
    24
 71
     3
 72
     9
 73
     5
 74
     0
 42
0.000000001
 43
0.00000001
 40
0.0
 40
0.0
 40
0.0
 40
0.0
 40
0.5502193712240191
 40
1.0
 40
1.0
 40
1.0
 40
1.0
 10
-25.40000000000001
 20
3.316737137427996
 30
0.0
 10
-25.40000000000001
 20
3.348757516551711
 30
0.0
 10
-25.40000000000003
 20
3.406953175952946
 30
0.0
 10
-25.40000000000003
 20
3.409181643309914
 30
0.0
 10
-25.40000000000003
 20
3.410183964758938
 30
0.0
  0
SPLINE
  5
249
330
1F
100
AcDbEntity
  8
0
  6
Continuous
 62
     1
370
    15
100
AcDbSpline
210
0.0
220
0.0
230
1.0
 70
    24
 71
     3
 72
    10
 73
     6
 74
     0
 42
0.000000001
 43
0.00000001
 40
0.0
 40
0.0
 40
0.0
 40
0.0
 40
0.5
 40
0.5
 40
1.0
 40
1.0
 40
1.0
 40
1.0
 10
-39.68750000000004
 20
-3.055937499999988
 30
0.0
 10
-39.68750000000004
 20
-3.241180821124416
 30
0.0
 10
-39.68750000000004
 20
-3.456450715647996
 30
0.0
 10
-39.68750000000004
 20
-3.908086374569724
 30
0.0
 10
-39.68750000000004
 20
-4.14329871817079
 30
0.0
 10
-39.68750000000004
 20
-4.361935240236903
 30
0.0
1001
PE_URL
1000

  0
SPLINE
  5
24A
330
1F
100
AcDbEntity
  8
0
  6
Continuous
 62
     1
370
    15
100
AcDbSpline
210
0.0
220
0.0
230
1.0
 70
     8
 71
     3
 72
    14
 73
    10
 74
     0
 42
0.000000001
 43
0.00000001
 40
0.0
 40
0.0
 40
0.0
 40
0.0
 40
0.1276515655805709
 40
0.3384451623430677
 40
0.4203471643465077
 40
0.5846727985976936
 40
0.750049185389514
 40
0.9164889726006544
 40
1.0
 40
1.0
 40
1.0
 40
1.0
 10
-33.69827074708821
 20
-2.926351753351465
 30
0.0
 10
-33.95305141116888
 20
-3.036307740931633
 30
0.0
 10
-34.62855650838
 20
-3.327836261540902
 30
0.0
 10
-35.46897149635796
 20
-3.612756092227809
 30
0.0
 10
-36.37999588334322
 20
-3.882363559087739
 30
0.0
 10
-37.20281725611912
 20
-4.08184176701182
 30
0.0
 10
-38.19210451939918
 20
-4.253627341433724
 30
0.0
 10
-39.022301732565
 20
-4.338359278382462
 30
0.0
 10
-39.52091005254756
 20
-4.356030958102167
 30
0.0
 10
-39.68749999999979
 20
-4.361935240236892
 30
0.0
1001
PE_URL
1000

  0
LINE
  5
24C
330
1F
100
AcDbEntity
  8
외형선
  6
Continuous
370
    15
100
AcDbLine
 10
-4.838700000000056
 20
4.762499999999995
 30
0.0
 11
-22.91884233574612
 21
4.762499999999994
 31
0.0
1001
PE_URL
1000

  0
ENDSEC
  0
SECTION
  2
OBJECTS
  0
DICTIONARY
  5
C
330
0
100
AcDbDictionary
281
     1
  3
ACAD_GROUP
350
D
  3
ACAD_IMAGE_VARS
350
270
  3
ACAD_LAYOUT
350
1A
  3
ACAD_MLINESTYLE
350
17
  3
ACAD_PLOTSETTINGS
350
19
  3
ACAD_PLOTSTYLENAME
350
E
  3
ACAD_SCALELIST
350
47
  3
APPDATA
350
158
  3
DWGPROPS
350
271
  0
DICTIONARY
  5
191
330
2
100
AcDbDictionary
280
     1
281
     1
  3
ACAD_LAYERSTATES
360
192
  0
DICTIONARY
  5
D
102
{ACAD_REACTORS
330
C
102
}
330
C
100
AcDbDictionary
281
     1
  0
RASTERVARIABLES
  5
270
102
{ACAD_REACTORS
330
C
102
}
330
C
100
AcDbRasterVariables
 90
        0
 70
     1
 71
     1
 72
     1
  0
DICTIONARY
  5
1A
102
{ACAD_REACTORS
330
C
102
}
330
C
100
AcDbDictionary
281
     1
  3
Layout1
350
1E
  3
Layout2
350
26
  3
Model
350
22
  0
DICTIONARY
  5
17
102
{ACAD_REACTORS
330
C
102
}
330
C
100
AcDbDictionary
281
     1
  3
Standard
350
18
  0
DICTIONARY
  5
19
102
{ACAD_REACTORS
330
C
102
}
330
C
100
AcDbDictionary
281
     1
  0
ACDBDICTIONARYWDFLT
  5
E
102
{ACAD_REACTORS
330
C
102
}
330
C
100
AcDbDictionary
281
     1
  3
Normal
350
F
100
AcDbDictionaryWithDefault
340
F
  0
DICTIONARY
  5
47
102
{ACAD_REACTORS
330
C
102
}
330
C
100
AcDbDictionary
281
     1
  3
A0
350
48
  3
A1
350
49
  3
A2
350
4A
  3
A3
350
4B
  3
A4
350
4C
  3
A5
350
4D
  3
A6
350
4E
  3
A7
350
4F
  3
A8
350
50
  3
A9
350
51
  3
B0
350
52
  3
B1
350
53
  3
B2
350
54
  3
B3
350
55
  3
B4
350
56
  3
B5
350
57
  3
B6
350
58
  3
B7
350
59
  3
B8
350
5A
  3
B9
350
5B
  3
C0
350
5C
  3
C1
350
5D
  3
C2
350
5E
  3
C3
350
5F
  3
C4
350
60
  3
C5
350
61
  3
C6
350
62
  3
C7
350
63
  3
C8
350
64
  3
C9
350
65
  3
D0
350
66
  3
D1
350
67
  3
D2
350
68
  0
DICTIONARY
  5
158
102
{ACAD_REACTORS
330
C
102
}
330
C
100
AcDbDictionary
281
     1
  0
XRECORD
  5
271
102
{ACAD_REACTORS
330
C
102
}
330
C
100
AcDbXrecord
280
     1
  1
DWGPROPS COOKIE
  2

  3

  4

  6

  7

  8
12016016
  9

300
=
301
=
302
=
303
=
304
=
305
=
306
=
307
=
308
=
309
=
 40
0.0
 41
2458313.021735382
 42
2458330.401470266
  1

 90
        0
  0
DICTIONARY
  5
192
102
{ACAD_REACTORS
330
191
102
}
330
191
100
AcDbDictionary
281
     1
  0
LAYOUT
  5
1E
102
{ACAD_REACTORS
330
1A
102
}
330
1A
100
AcDbPlotSettings
  1

  2
none_device
  4

  6

 40
0.0
 41
0.0
 42
0.0
 43
0.0
 44
0.0
 45
0.0
 46
0.0
 47
0.0
 48
0.0
 49
0.0
140
0.0
141
0.0
142
1.0
143
1.0
 70
   688
 72
     1
 73
     0
 74
     5
  7

 75
    16
147
1.0
148
0.0
149
0.0
100
AcDbLayout
  1
Layout1
 70
     1
 71
     1
 10
0.0
 20
0.0
 11
420.0
 21
297.0
 12
0.0
 22
0.0
 32
0.0
 14
1.000000000000000E+20
 24
1.000000000000000E+20
 34
1.000000000000000E+20
 15
-1.000000000000000E+20
 25
-1.000000000000000E+20
 35
-1.000000000000000E+20
146
0.0
 13
0.0
 23
0.0
 33
0.0
 16
1.0
 26
0.0
 36
0.0
 17
0.0
 27
1.0
 37
0.0
 76
     0
330
1B
  0
LAYOUT
  5
26
102
{ACAD_REACTORS
330
1A
102
}
330
1A
100
AcDbPlotSettings
  1

  2
none_device
  4

  6

 40
0.0
 41
0.0
 42
0.0
 43
0.0
 44
0.0
 45
0.0
 46
0.0
 47
0.0
 48
0.0
 49
0.0
140
0.0
141
0.0
142
1.0
143
1.0
 70
   688
 72
     1
 73
     0
 74
     5
  7

 75
    16
147
1.0
148
0.0
149
0.0
100
AcDbLayout
  1
Layout2
 70
     1
 71
     2
 10
0.0
 20
0.0
 11
0.0
 21
0.0
 12
0.0
 22
0.0
 32
0.0
 14
0.0
 24
0.0
 34
0.0
 15
0.0
 25
0.0
 35
0.0
146
0.0
 13
0.0
 23
0.0
 33
0.0
 16
1.0
 26
0.0
 36
0.0
 17
0.0
 27
1.0
 37
0.0
 76
     0
330
23
  0
LAYOUT
  5
22
102
{ACAD_REACTORS
330
1A
102
}
330
1A
100
AcDbPlotSettings
  1

  2
none_device
  4
ANSI_A_(11.00_x_8.50_Inches)
  6

 40
6.35
 41
19.05
 42
6.35000508
 43
19.05000254
 44
279.4
 45
215.9
 46
82.12739698969841
 47
51.18324145559941
 48
0.0
 49
0.0
140
0.0
141
0.0
142
0.0440071892659234
143
1.0
 70
  1696
 72
     0
 73
     0
 74
     0
  7

 75
     0
147
0.0235690232323232
148
0.0
149
0.0
100
AcDbLayout
  1
Model
 70
     1
 71
     0
 10
0.0
 20
0.0
 11
420.0
 21
297.0
 12
0.0
 22
0.0
 32
0.0
 14
-54.0625000000001
 24
-49.97180738881175
 34
0.0
 15
96.20662503295506
 25
40.71593524023699
 35
0.0
146
0.0
 13
0.0
 23
0.0
 33
0.0
 16
1.0
 26
0.0
 36
0.0
 17
0.0
 27
1.0
 37
0.0
 76
     0
330
1F
331
29
  0
MLINESTYLE
  5
18
102
{ACAD_REACTORS
330
17
102
}
330
17
100
AcDbMlineStyle
  2
Standard
 70
     0
  3

 62
   256
 51
90.0
 52
90.0
 71
     2
 49
0.5
 62
   256
  6
BYLAYER
 49
-0.5
 62
   256
  6
BYLAYER
  0
ACDBPLACEHOLDER
  5
F
102
{ACAD_REACTORS
330
E
102
}
330
E
  0
SCALE
  5
48
102
{ACAD_REACTORS
330
47
102
}
330
47
100
AcDbScale
 70
     0
300
1:1
140
1.0
141
1.0
290
     1
  0
SCALE
  5
49
102
{ACAD_REACTORS
330
47
102
}
330
47
100
AcDbScale
 70
     0
300
1:2
140
1.0
141
2.0
290
     0
  0
SCALE
  5
4A
102
{ACAD_REACTORS
330
47
102
}
330
47
100
AcDbScale
 70
     0
300
1:4
140
1.0
141
4.0
290
     0
  0
SCALE
  5
4B
102
{ACAD_REACTORS
330
47
102
}
330
47
100
AcDbScale
 70
     0
300
1:5
140
1.0
141
5.0
290
     0
  0
SCALE
  5
4C
102
{ACAD_REACTORS
330
47
102
}
330
47
100
AcDbScale
 70
     0
300
1:8
140
1.0
141
8.0
290
     0
  0
SCALE
  5
4D
102
{ACAD_REACTORS
330
47
102
}
330
47
100
AcDbScale
 70
     0
300
1:10
140
1.0
141
10.0
290
     0
  0
SCALE
  5
4E
102
{ACAD_REACTORS
330
47
102
}
330
47
100
AcDbScale
 70
     0
300
1:16
140
1.0
141
16.0
290
     0
  0
SCALE
  5
4F
102
{ACAD_REACTORS
330
47
102
}
330
47
100
AcDbScale
 70
     0
300
1:20
140
1.0
141
20.0
290
     0
  0
SCALE
  5
50
102
{ACAD_REACTORS
330
47
102
}
330
47
100
AcDbScale
 70
     0
300
1:30
140
1.0
141
30.0
290
     0
  0
SCALE
  5
51
102
{ACAD_REACTORS
330
47
102
}
330
47
100
AcDbScale
 70
     0
300
1:40
140
1.0
141
40.0
290
     0
  0
SCALE
  5
52
102
{ACAD_REACTORS
330
47
102
}
330
47
100
AcDbScale
 70
     0
300
1:50
140
1.0
141
50.0
290
     0
  0
SCALE
  5
53
102
{ACAD_REACTORS
330
47
102
}
330
47
100
AcDbScale
 70
     0
300
1:100
140
1.0
141
100.0
290
     0
  0
SCALE
  5
54
102
{ACAD_REACTORS
330
47
102
}
330
47
100
AcDbScale
 70
     0
300
2:1
140
2.0
141
1.0
290
     0
  0
SCALE
  5
55
102
{ACAD_REACTORS
330
47
102
}
330
47
100
AcDbScale
 70
     0
300
4:1
140
4.0
141
1.0
290
     0
  0
SCALE
  5
56
102
{ACAD_REACTORS
330
47
102
}
330
47
100
AcDbScale
 70
     0
300
8:1
140
8.0
141
1.0
290
     0
  0
SCALE
  5
57
102
{ACAD_REACTORS
330
47
102
}
330
47
100
AcDbScale
 70
     0
300
10:1
140
10.0
141
1.0
290
     0
  0
SCALE
  5
58
102
{ACAD_REACTORS
330
47
102
}
330
47
100
AcDbScale
 70
     0
300
100:1
140
100.0
141
1.0
290
     0
  0
SCALE
  5
59
102
{ACAD_REACTORS
330
47
102
}
330
47
100
AcDbScale
 70
     0
300
1/128" = 1'-0"
140
0.0078125
141
12.0
290
     0
  0
SCALE
  5
5A
102
{ACAD_REACTORS
330
47
102
}
330
47
100
AcDbScale
 70
     0
300
1/64" = 1'-0"
140
0.015625
141
12.0
290
     0
  0
SCALE
  5
5B
102
{ACAD_REACTORS
330
47
102
}
330
47
100
AcDbScale
 70
     0
300
1/32" = 1'-0"
140
0.03125
141
12.0
290
     0
  0
SCALE
  5
5C
102
{ACAD_REACTORS
330
47
102
}
330
47
100
AcDbScale
 70
     0
300
1/16" = 1'-0"
140
0.0625
141
12.0
290
     0
  0
SCALE
  5
5D
102
{ACAD_REACTORS
330
47
102
}
330
47
100
AcDbScale
 70
     0
300
3/32" = 1'-0"
140
0.09375
141
12.0
290
     0
  0
SCALE
  5
5E
102
{ACAD_REACTORS
330
47
102
}
330
47
100
AcDbScale
 70
     0
300
1/8" = 1'-0"
140
0.125
141
12.0
290
     0
  0
SCALE
  5
5F
102
{ACAD_REACTORS
330
47
102
}
330
47
100
AcDbScale
 70
     0
300
3/16" = 1'-0"
140
0.1875
141
12.0
290
     0
  0
SCALE
  5
60
102
{ACAD_REACTORS
330
47
102
}
330
47
100
AcDbScale
 70
     0
300
1/4" = 1'-0"
140
0.25
141
12.0
290
     0
  0
SCALE
  5
61
102
{ACAD_REACTORS
330
47
102
}
330
47
100
AcDbScale
 70
     0
300
3/8" = 1'-0"
140
0.375
141
12.0
290
     0
  0
SCALE
  5
62
102
{ACAD_REACTORS
330
47
102
}
330
47
100
AcDbScale
 70
     0
300
1/2" = 1'-0"
140
0.5
141
12.0
290
     0
  0
SCALE
  5
63
102
{ACAD_REACTORS
330
47
102
}
330
47
100
AcDbScale
 70
     0
300
3/4" = 1'-0"
140
0.75
141
12.0
290
     0
  0
SCALE
  5
64
102
{ACAD_REACTORS
330
47
102
}
330
47
100
AcDbScale
 70
     0
300
1" = 1'-0"
140
1.0
141
12.0
290
     0
  0
SCALE
  5
65
102
{ACAD_REACTORS
330
47
102
}
330
47
100
AcDbScale
 70
     0
300
1-1/2" = 1'-0"
140
1.5
141
12.0
290
     0
  0
SCALE
  5
66
102
{ACAD_REACTORS
330
47
102
}
330
47
100
AcDbScale
 70
     0
300
3" = 1'-0"
140
3.0
141
12.0
290
     0
  0
SCALE
  5
67
102
{ACAD_REACTORS
330
47
102
}
330
47
100
AcDbScale
 70
     0
300
6" = 1'-0"
140
6.0
141
12.0
290
     0
  0
SCALE
  5
68
102
{ACAD_REACTORS
330
47
102
}
330
47
100
AcDbScale
 70
     0
300
1'-0" = 1'-0"
140
12.0
141
12.0
290
     0
  0
ENDSEC
  0
EOF
