  0
SECTION
  2
HEADER
  9
$ACADVER
  1
AC1015
  9
$ACADMAINTVER
 70
     6
  9
$DWGCODEPAGE
  3
ANSI_949
  9
$INSBASE
 10
0.0
 20
0.0
 30
0.0
  9
$EXTMIN
 10
-54.0625000000001
 20
-49.97180738881174
 30
0.0
  9
$EXTMAX
 10
96.20662503295506
 20
41.78920502388411
 30
0.0
  9
$LIMMIN
 10
0.0
 20
0.0
  9
$LIMMAX
 10
420.0
 20
297.0
  9
$ORTHOMODE
 70
     1
  9
$REGENMODE
 70
     1
  9
$FILLMODE
 70
     1
  9
$QTEXTMODE
 70
     0
  9
$MIRRTEXT
 70
     1
  9
$LTSCALE
 40
1.0
  9
$ATTMODE
 70
     1
  9
$TEXTSIZE
 40
3.5
  9
$TRACEWID
 40
1.0
  9
$TEXTSTYLE
  7
Standard
  9
$CLAYER
  8
0
  9
$CELTYPE
  6
ByLayer
  9
$CECOLOR
 62
   256
  9
$CELTSCALE
 40
1.0
  9
$DISPSILH
 70
     0
  9
$DIMSCALE
 40
1.0
  9
$DIMASZ
 40
3.302
  9
$DIMEXO
 40
1.0
  9
$DIMDLI
 40
3.75
  9
$DIMRND
 40
0.0
  9
$DIMDLE
 40
0.0
  9
$DIMEXE
 40
1.0
  9
$DIMTP
 40
0.0
  9
$DIMTM
 40
0.0
  9
$DIMTXT
 40
3.5
  9
$DIMCEN
 40
2.5
  9
$DIMTSZ
 40
0.0
  9
$DIMTOL
 70
     0
  9
$DIMLIM
 70
     0
  9
$DIMTIH
 70
     1
  9
$DIMTOH
 70
     1
  9
$DIMSE1
 70
     0
  9
$DIMSE2
 70
     0
  9
$DIMTAD
 70
     1
  9
$DIMZIN
 70
     0
  9
$DIMBLK
  1

  9
$DIMASO
 70
     1
  9
$DIMSHO
 70
     1
  9
$DIMPOST
  1

  9
$DIMAPOST
  1

  9
$DIMALT
 70
     0
  9
$DIMALTD
 70
     3
  9
$DIMALTF
 40
0.0393700787401575
  9
$DIMLFAC
 40
1.0
  9
$DIMTOFL
 70
     1
  9
$DIMTVP
 40
0.0
  9
$DIMTIX
 70
     0
  9
$DIMSOXD
 70
     0
  9
$DIMSAH
 70
     0
  9
$DIMBLK1
  1

  9
$DIMBLK2
  1

  9
$DIMSTYLE
  2
ISO-25
  9
$DIMCLRD
 70
     0
  9
$DIMCLRE
 70
     0
  9
$DIMCLRT
 70
     0
  9
$DIMTFAC
 40
1.0
  9
$DIMGAP
 40
1.524
  9
$DIMJUST
 70
     0
  9
$DIMSD1
 70
     0
  9
$DIMSD2
 70
     0
  9
$DIMTOLJ
 70
     0
  9
$DIMTZIN
 70
     0
  9
$DIMALTZ
 70
     0
  9
$DIMALTTZ
 70
     0
  9
$DIMUPT
 70
     0
  9
$DIMDEC
 70
     2
  9
$DIMTDEC
 70
     2
  9
$DIMALTU
 70
     2
  9
$DIMALTTD
 70
     3
  9
$DIMTXSTY
  7
Standard
  9
$DIMAUNIT
 70
     0
  9
$DIMADEC
 70
     2
  9
$DIMALTRND
 40
0.0
  9
$DIMAZIN
 70
     0
  9
$DIMDSEP
 70
    44
  9
$DIMATFIT
 70
     3
  9
$DIMFRAC
 70
     0
  9
$DIMLDRBLK
  1

  9
$DIMLUNIT
 70
     2
  9
$DIMLWD
 70
    -2
  9
$DIMLWE
 70
    -2
  9
$DIMTMOVE
 70
     0
  9
$LUNITS
 70
     2
  9
$LUPREC
 70
     2
  9
$SKETCHINC
 40
1.0
  9
$FILLETRAD
 40
10.0
  9
$AUNITS
 70
     0
  9
$AUPREC
 70
     2
  9
$MENU
  1
.
  9
$ELEVATION
 40
0.0
  9
$PELEVATION
 40
0.0
  9
$THICKNESS
 40
0.0
  9
$LIMCHECK
 70
     0
  9
$CHAMFERA
 40
0.0
  9
$CHAMFERB
 40
0.0
  9
$CHAMFERC
 40
0.0
  9
$CHAMFERD
 40
0.0
  9
$SKPOLY
 70
     0
  9
$TDCREATE
 40
2458313.396947176
  9
$TDUCREATE
 40
2458313.021947176
  9
$TDUPDATE
 40
2458330.776426887
  9
$TDUUPDATE
 40
2458330.401426887
  9
$TDINDWG
 40
0.0013966204
  9
$TDUSRTIMER
 40
2458330.401387245
  9
$USRTIMER
 70
     1
  9
$ANGBASE
 50
0.0
  9
$ANGDIR
 70
     0
  9
$PDMODE
 70
     0
  9
$PDSIZE
 40
-1.0
  9
$PLINEWID
 40
0.0
  9
$SPLFRAME
 70
     0
  9
$SPLINETYPE
 70
     6
  9
$SPLINESEGS
 70
     8
  9
$HANDSEED
  5
276
  9
$SURFTAB1
 70
     6
  9
$SURFTAB2
 70
     6
  9
$SURFTYPE
 70
     6
  9
$SURFU
 70
     6
  9
$SURFV
 70
     6
  9
$UCSBASE
  2

  9
$UCSNAME
  2

  9
$UCSORG
 10
0.0
 20
0.0
 30
0.0
  9
$UCSXDIR
 10
1.0
 20
0.0
 30
0.0
  9
$UCSYDIR
 10
0.0
 20
1.0
 30
0.0
  9
$UCSORTHOREF
  2

  9
$UCSORTHOVIEW
 70
     0
  9
$UCSORGTOP
 10
0.0
 20
0.0
 30
0.0
  9
$UCSORGBOTTOM
 10
0.0
 20
0.0
 30
0.0
  9
$UCSORGLEFT
 10
0.0
 20
0.0
 30
0.0
  9
$UCSORGRIGHT
 10
0.0
 20
0.0
 30
0.0
  9
$UCSORGFRONT
 10
0.0
 20
0.0
 30
0.0
  9
$UCSORGBACK
 10
0.0
 20
0.0
 30
0.0
  9
$PUCSBASE
  2

  9
$PUCSNAME
  2

  9
$PUCSORG
 10
0.0
 20
0.0
 30
0.0
  9
$PUCSXDIR
 10
1.0
 20
0.0
 30
0.0
  9
$PUCSYDIR
 10
0.0
 20
1.0
 30
0.0
  9
$PUCSORTHOREF
  2

  9
$PUCSORTHOVIEW
 70
     0
  9
$PUCSORGTOP
 10
0.0
 20
0.0
 30
0.0
  9
$PUCSORGBOTTOM
 10
0.0
 20
0.0
 30
0.0
  9
$PUCSORGLEFT
 10
0.0
 20
0.0
 30
0.0
  9
$PUCSORGRIGHT
 10
0.0
 20
0.0
 30
0.0
  9
$PUCSORGFRONT
 10
0.0
 20
0.0
 30
0.0
  9
$PUCSORGBACK
 10
0.0
 20
0.0
 30
0.0
  9
$USERI1
 70
     0
  9
$USERI2
 70
     0
  9
$USERI3
 70
     0
  9
$USERI4
 70
     0
  9
$USERI5
 70
     0
  9
$USERR1
 40
0.0
  9
$USERR2
 40
0.0
  9
$USERR3
 40
0.0
  9
$USERR4
 40
0.0
  9
$USERR5
 40
0.0
  9
$WORLDVIEW
 70
     1
  9
$SHADEDGE
 70
     3
  9
$SHADEDIF
 70
    70
  9
$TILEMODE
 70
     1
  9
$MAXACTVP
 70
    64
  9
$PINSBASE
 10
0.0
 20
0.0
 30
0.0
  9
$PLIMCHECK
 70
     0
  9
$PEXTMIN
 10
1.000000000000000E+20
 20
1.000000000000000E+20
 30
1.000000000000000E+20
  9
$PEXTMAX
 10
-1.000000000000000E+20
 20
-1.000000000000000E+20
 30
-1.000000000000000E+20
  9
$PLIMMIN
 10
0.0
 20
0.0
  9
$PLIMMAX
 10
0.0
 20
0.0
  9
$UNITMODE
 70
     0
  9
$VISRETAIN
 70
     1
  9
$PLINEGEN
 70
     0
  9
$PSLTSCALE
 70
     1
  9
$TREEDEPTH
 70
  3020
  9
$CMLSTYLE
  2
Standard
  9
$CMLJUST
 70
     0
  9
$CMLSCALE
 40
20.0
  9
$PROXYGRAPHICS
 70
     1
  9
$MEASUREMENT
 70
     1
  9
$CELWEIGHT
370
    -1
  9
$ENDCAPS
280
     0
  9
$JOINSTYLE
280
     0
  9
$LWDISPLAY
290
     1
  9
$INSUNITS
 70
     4
  9
$HYPERLINKBASE
  1

  9
$STYLESHEET
  1

  9
$XEDIT
290
     1
  9
$CEPSNTYPE
380
     0
  9
$PSTYLEMODE
290
     1
  9
$FINGERPRINTGUID
  2
{0BBB0FCD-EE5F-41FA-B78C-46349E19B55E}
  9
$VERSIONGUID
  2
{FAEB1C32-E019-11D5-929B-00C0DF256EC4}
  9
$EXTNAMES
290
     1
  9
$PSVPSCALE
 40
0.0
  9
$OLESTARTUP
290
     0
  0
ENDSEC
  0
SECTION
  2
CLASSES
  0
CLASS
  1
ACDBDICTIONARYWDFLT
  2
AcDbDictionaryWithDefault
  3
ObjectDBX Classes
 90
        0
280
     0
281
     0
  0
CLASS
  1
VISUALSTYLE
  2
AcDbVisualStyle
  3
ObjectDBX Classes
 90
     4095
280
     0
281
     0
  0
CLASS
  1
MATERIAL
  2
AcDbMaterial
  3
ObjectDBX Classes
 90
     1153
280
     0
281
     0
  0
CLASS
  1
SCALE
  2
AcDbScale
  3
ObjectDBX Classes
 90
     1153
280
     0
281
     0
  0
CLASS
  1
SUN
  2
AcDbSun
  3
SCENEOE
 90
     1153
280
     0
281
     0
  0
CLASS
  1
ACDBPLACEHOLDER
  2
AcDbPlaceHolder
  3
ObjectDBX Classes
 90
        0
280
     0
281
     0
  0
CLASS
  1
LAYOUT
  2
AcDbLayout
  3
ObjectDBX Classes
 90
        0
280
     0
281
     0
  0
CLASS
  1
TABLESTYLE
  2
AcDbTableStyle
  3
ObjectDBX Classes
 90
     4095
280
     0
281
     0
  0
CLASS
  1
MLEADERSTYLE
  2
AcDbMLeaderStyle
  3
ACDB_MLEADERSTYLE_CLASS
 90
     4095
280
     0
281
     0
  0
CLASS
  1
DICTIONARYVAR
  2
AcDbDictionaryVar
  3
ObjectDBX Classes
 90
        0
280
     0
281
     0
  0
CLASS
  1
RASTERVARIABLES
  2
AcDbRasterVariables
  3
ISM
 90
        0
280
     0
281
     0
  0
ENDSEC
  0
SECTION
  2
TABLES
  0
TABLE
  2
VPORT
  5
8
330
0
100
AcDbSymbolTable
 70
     1
  0
VPORT
  5
29
330
8
100
AcDbSymbolTableRecord
100
AcDbViewportTableRecord
  2
*Active
 70
     0
 10
0.0
 20
0.0
 11
1.0
 21
1.0
 12
21.07206251647749
 22
-4.091301182463774
 13
0.0
 23
0.0
 14
10.0
 24
10.0
 15
10.0
 25
10.0
 16
0.0
 26
0.0
 36
1.0
 17
0.0
 27
0.0
 37
0.0
 40
93.59623266094985
 41
1.782762691853601
 42
50.0
 43
0.0
 44
0.0
 50
0.0
 51
0.0
 71
    16
 72
  2000
 73
     1
 74
     3
 75
     0
 76
     0
 77
     0
 78
     0
281
     0
 65
     1
110
0.0
120
0.0
130
0.0
111
1.0
121
0.0
131
0.0
112
0.0
122
1.0
132
0.0
 79
     0
146
0.0
  0
ENDTAB
  0
TABLE
  2
LTYPE
  5
5
330
0
100
AcDbSymbolTable
 70
     6
  0
LTYPE
  5
14
330
5
100
AcDbSymbolTableRecord
100
AcDbLinetypeTableRecord
  2
ByBlock
 70
     0
  3

 72
    65
 73
     0
 40
0.0
  0
LTYPE
  5
15
330
5
100
AcDbSymbolTableRecord
100
AcDbLinetypeTableRecord
  2
ByLayer
 70
     0
  3

 72
    65
 73
     0
 40
0.0
  0
LTYPE
  5
16
330
5
100
AcDbSymbolTableRecord
100
AcDbLinetypeTableRecord
  2
Continuous
 70
     0
  3
Solid line
 72
    65
 73
     0
 40
0.0
  0
LTYPE
  5
6A
330
5
100
AcDbSymbolTableRecord
100
AcDbLinetypeTableRecord
  2
HIDDEN
 70
     0
  3
Hidden __ __ __ __ __ __ __ __ __ __ __ __ __ __
 72
    65
 73
     2
 40
1.905
 49
1.27
 74
     0
 49
-0.635
 74
     0
  0
LTYPE
  5
6B
330
5
100
AcDbSymbolTableRecord
100
AcDbLinetypeTableRecord
  2
PHANTOM
 70
     0
  3
Phantom ______  __  __  ______  __  __  ______
 72
    65
 73
     6
 40
12.7
 49
6.35
 74
     0
 49
-1.27
 74
     0
 49
1.27
 74
     0
 49
-1.27
 74
     0
 49
1.27
 74
     0
 49
-1.27
 74
     0
  0
LTYPE
  5
6C
330
5
100
AcDbSymbolTableRecord
100
AcDbLinetypeTableRecord
  2
CENTER
 70
     0
  3
Center ____ _ ____ _ ____ _ ____ _ ____ _ ____
 72
    65
 73
     4
 40
10.16
 49
6.35
 74
     0
 49
-1.27
 74
     0
 49
1.27
 74
     0
 49
-1.27
 74
     0
  0
LTYPE
  5
6D
330
5
100
AcDbSymbolTableRecord
100
AcDbLinetypeTableRecord
  2
CENTERX2
 70
     0
  3
Center (2x) ________  __  ________  __  _____
 72
    65
 73
     4
 40
20.32
 49
12.7
 74
     0
 49
-2.54
 74
     0
 49
2.54
 74
     0
 49
-2.54
 74
     0
  0
LTYPE
  5
6E
330
5
100
AcDbSymbolTableRecord
100
AcDbLinetypeTableRecord
  2
DOT2
 70
     0
  3
Dot (.5x) ........................................
 72
    65
 73
     2
 40
0.635
 49
0.0
 74
     0
 49
-0.635
 74
     0
  0
ENDTAB
  0
TABLE
  2
LAYER
  5
2
102
{ACAD_XDICTIONARY
360
190
102
}
330
0
100
AcDbSymbolTable
 70
    18
  0
LAYER
  5
10
330
2
100
AcDbSymbolTableRecord
100
AcDbLayerTableRecord
  2
0
 70
     0
 62
     7
  6
Continuous
370
    -3
390
F
  0
LAYER
  5
6F
330
2
100
AcDbSymbolTableRecord
100
AcDbLayerTableRecord
  2
FORMAT
 70
     0
 62
     2
  6
Continuous
370
    -3
390
F
  0
LAYER
  5
70
330
2
100
AcDbSymbolTableRecord
100
AcDbLayerTableRecord
  2
외형선
 70
     0
 62
     4
  6
Continuous
370
    30
390
F
  0
LAYER
  5
71
330
2
100
AcDbSymbolTableRecord
100
AcDbLayerTableRecord
  2
숨은선
 70
     0
 62
     2
  6
HIDDEN
370
    15
390
F
  0
LAYER
  5
72
330
2
100
AcDbSymbolTableRecord
100
AcDbLayerTableRecord
  2
중심선
 70
     0
 62
     1
  6
CENTERX2
370
    -3
390
F
  0
LAYER
  5
73
330
2
100
AcDbSymbolTableRecord
100
AcDbLayerTableRecord
  2
파단선
 70
     0
 62
     4
  6
Continuous
370
    -3
390
F
  0
LAYER
  5
74
330
2
100
AcDbSymbolTableRecord
100
AcDbLayerTableRecord
  2
해칭선
 70
     0
 62
   100
  6
Continuous
370
    -3
390
F
  0
LAYER
  5
75
330
2
100
AcDbSymbolTableRecord
100
AcDbLayerTableRecord
  2
가는실선
 70
     0
 62
     4
  6
Continuous
370
    -3
390
F
  0
LAYER
  5
76
330
2
100
AcDbSymbolTableRecord
100
AcDbLayerTableRecord
  2
치수_보조선
 70
     0
 62
     4
  6
Continuous
370
    -3
390
F
  0
LAYER
  5
77
330
2
100
AcDbSymbolTableRecord
100
AcDbLayerTableRecord
  2
치수문자_일반주서
 70
     0
 62
     7
  6
Continuous
370
    15
390
F
  0
LAYER
  5
78
330
2
100
AcDbSymbolTableRecord
100
AcDbLayerTableRecord
  2
개별주서
 70
     0
 62
   100
  6
Continuous
370
    30
390
F
  0
LAYER
  5
79
330
2
100
AcDbSymbolTableRecord
100
AcDbLayerTableRecord
  2
중간선
 70
     0
 62
     2
  6
Continuous
370
    15
390
F
  0
LAYER
  5
7A
330
2
100
AcDbSymbolTableRecord
100
AcDbLayerTableRecord
  2
윤곽선
 70
     0
 62
     3
  6
Continuous
370
    40
390
F
  0
LAYER
  5
7B
330
2
100
AcDbSymbolTableRecord
100
AcDbLayerTableRecord
  2
중심마크
 70
     0
 62
   100
  6
Continuous
370
    30
390
F
  0
LAYER
  5
7C
330
2
100
AcDbSymbolTableRecord
100
AcDbLayerTableRecord
  2
가상선
 70
     0
 62
     4
  6
PHANTOM
370
    -3
390
F
  0
LAYER
  5
7D
330
2
100
AcDbSymbolTableRecord
100
AcDbLayerTableRecord
  2
특수지정선
 70
     0
 62
     5
  6
CENTERX2
370
    60
390
F
  0
LAYER
  5
7E
330
2
100
AcDbSymbolTableRecord
100
AcDbLayerTableRecord
  2
참조1
 70
     0
 62
    -4
  6
Continuous
370
    -3
390
F
  0
LAYER
  5
159
330
2
100
AcDbSymbolTableRecord
100
AcDbLayerTableRecord
  2
Defpoints
 70
     0
 62
     7
  6
Continuous
290
     0
370
    -3
390
F
  0
ENDTAB
  0
TABLE
  2
STYLE
  5
3
330
0
100
AcDbSymbolTable
 70
     2
  0
STYLE
  5
11
330
3
100
AcDbSymbolTableRecord
100
AcDbTextStyleTableRecord
  2
Standard
 70
     0
 40
0.0
 41
1.0
 50
0.0
 71
     0
 42
3.5
  3
txt
  4

  0
STYLE
  5
94
330
3
100
AcDbSymbolTableRecord
100
AcDbTextStyleTableRecord
  2
SLDTEXTSTYLE0
 70
     0
 40
0.0
 41
0.75
 50
0.0
 71
     0
 42
3.5
  3
TXT
  4

  0
ENDTAB
  0
TABLE
  2
VIEW
  5
6
330
0
100
AcDbSymbolTable
 70
     0
  0
ENDTAB
  0
TABLE
  2
UCS
  5
7
330
0
100
AcDbSymbolTable
 70
     0
  0
ENDTAB
  0
TABLE
  2
APPID
  5
9
330
0
100
AcDbSymbolTable
 70
     2
  0
APPID
  5
12
330
9
100
AcDbSymbolTableRecord
100
AcDbRegAppTableRecord
  2
ACAD
 70
     0
  0
APPID
  5
160
330
9
100
AcDbSymbolTableRecord
100
AcDbRegAppTableRecord
  2
PE_URL
 70
     0
  0
ENDTAB
  0
TABLE
  2
DIMSTYLE
  5
A
330
0
100
AcDbSymbolTable
 70
     3
100
AcDbDimStyleTable
  0
DIMSTYLE
105
27
330
A
100
AcDbSymbolTableRecord
100
AcDbDimStyleTableRecord
  2
ISO-25
 70
     0
 41
2.5
 42
0.625
 43
3.75
 44
1.25
 73
     0
 74
     0
 77
     1
 78
     8
140
2.5
141
2.5
143
0.03937007874016
147
0.625
171
     3
172
     1
178
     0
271
     2
272
     2
274
     3
278
    44
283
     0
284
     8
340
11
  0
DIMSTYLE
105
D9
102
{ACAD_REACTORS
330
D8
330
ED
330
101
330
115
102
}
330
A
100
AcDbSymbolTableRecord
100
AcDbDimStyleTableRecord
  2
SLDDIMSTYLE0
 70
     0
 41
3.302
 44
0.0
 45
0.000000001
 73
     0
 74
     0
 77
     1
 78
    12
 79
     3
140
3.5
143
0.0393700787401575
147
0.875
148
0.000000001
170
     1
172
     1
173
     1
178
     0
271
     2
272
     2
276
     2
284
    12
289
     0
340
94
  0
DIMSTYLE
105
EE
330
A
100
AcDbSymbolTableRecord
100
AcDbDimStyleTableRecord
  2
SLDDIMSTYLE1
 70
     0
 41
3.302
 44
0.0
 45
0.000000001
 73
     0
 74
     0
 77
     1
 78
    12
 79
     3
140
3.5
143
0.0393700787401575
147
0.875
148
0.000000001
170
     1
173
     1
178
     0
271
     2
272
     2
276
     2
284
    12
340
94
  0
ENDTAB
  0
TABLE
  2
BLOCK_RECORD
  5
1
330
0
100
AcDbSymbolTable
 70
     9
  0
BLOCK_RECORD
  5
1F
330
1
100
AcDbSymbolTableRecord
100
AcDbBlockTableRecord
  2
*Model_Space
340
22
  0
BLOCK_RECORD
  5
1B
330
1
100
AcDbSymbolTableRecord
100
AcDbBlockTableRecord
  2
*Paper_Space
340
1E
  0
BLOCK_RECORD
  5
23
330
1
100
AcDbSymbolTableRecord
100
AcDbBlockTableRecord
  2
*Paper_Space0
340
26
  0
BLOCK_RECORD
  5
7F
330
1
100
AcDbSymbolTableRecord
100
AcDbBlockTableRecord
  2
블럭10
340
0
102
{BLKREFS
331
D1
102
}
  0
BLOCK_RECORD
  5
DA
330
1
100
AcDbSymbolTableRecord
100
AcDbBlockTableRecord
  2
_D
340
0
  0
BLOCK_RECORD
  5
EF
330
1
100
AcDbSymbolTableRecord
100
AcDbBlockTableRecord
  2
_D_1
340
0
  0
BLOCK_RECORD
  5
102
330
1
100
AcDbSymbolTableRecord
100
AcDbBlockTableRecord
  2
_D_2
340
0
  0
BLOCK_RECORD
  5
116
330
1
100
AcDbSymbolTableRecord
100
AcDbBlockTableRecord
  2
_D_3
340
0
  0
BLOCK_RECORD
  5
12F
330
1
100
AcDbSymbolTableRecord
100
AcDbBlockTableRecord
  2
SW_DOWELSYMBOL_0
340
0
102
{BLKREFS
331
135
102
}
  0
BLOCK_RECORD
  5
194
330
1
100
AcDbSymbolTableRecord
100
AcDbBlockTableRecord
  2
*D7
340
0
  0
BLOCK_RECORD
  5
1A6
330
1
100
AcDbSymbolTableRecord
100
AcDbBlockTableRecord
  2
*D8
340
0
  0
ENDTAB
  0
ENDSEC
  0
SECTION
  2
BLOCKS
  0
BLOCK
  5
20
330
1F
100
AcDbEntity
  8
0
100
AcDbBlockBegin
  2
*Model_Space
 70
     0
 10
0.0
 20
0.0
 30
0.0
  3
*Model_Space
  1
*Model_Space
  0
ENDBLK
  5
21
330
1F
100
AcDbEntity
  8
0
100
AcDbBlockEnd
  0
BLOCK
  5
1C
330
1B
100
AcDbEntity
 67
     1
  8
0
100
AcDbBlockBegin
  2
*Paper_Space
 70
     0
 10
0.0
 20
0.0
 30
0.0
  3
*Paper_Space
  1
*Paper_Space
  0
ENDBLK
  5
1D
330
1B
100
AcDbEntity
 67
     1
  8
0
100
AcDbBlockEnd
  0
BLOCK
  5
24
330
23
100
AcDbEntity
  8
0
100
AcDbBlockBegin
  2
*Paper_Space0
 70
     0
 10
0.0
 20
0.0
 30
0.0
  3
*Paper_Space0
  1
*Paper_Space0
  0
ENDBLK
  5
25
330
23
100
AcDbEntity
  8
0
100
AcDbBlockEnd
  0
BLOCK
  5
80
330
7F
100
AcDbEntity
  8
0
100
AcDbBlockBegin
  2
블럭10
 70
     2
 10
0.0
 20
0.0
 30
0.0
  3
블럭10
  1
블럭10
  0
ELLIPSE
  5
82
330
7F
100
AcDbEntity
  8
중심선
100
AcDbEllipse
 10
20.54032771741204
 20
12.0471743016438
 30
0.0
 11
6.600054785286829
 21
-1.261213355974178E-13
 31
0.0
210
0.0
220
0.0
230
1.0
 40
0.636358354079598
 41
0.9219305317359503
 42
6.513795318482858
  0
ELLIPSE
  5
83
330
7F
100
AcDbEntity
  8
중심선
100
AcDbEllipse
 10
20.54032771746488
 20
12.04717430159265
 30
0.0
 11
3.960054785062283
 21
1.540847449632565E-10
 31
0.0
210
0.0
220
0.0
230
1.0
 40
0.3939339440162632
 41
1.131841032648279
 42
5.62031148352944
  0
LINE
  5
84
330
7F
100
AcDbEntity
  8
중심선
100
AcDbLine
 10
2.268634060543552
 20
16.24717430164393
 30
0.0
 11
5.714909304380834
 21
16.24717430164393
 31
0.0
  0
LINE
  5
85
330
7F
100
AcDbEntity
  8
중심선
100
AcDbLine
 10
5.245725140726316
 20
7.84717430164391
 30
0.0
 11
8.692000384563599
 21
7.84717430164391
 31
0.0
  0
LINE
  5
86
330
7F
100
AcDbEntity
  8
중심선
100
AcDbLine
 10
15.74043728645272
 20
16.24717430164393
 30
0.0
 11
8.692000384563599
 21
7.84717430164391
 31
0.0
  0
LINE
  5
87
330
7F
100
AcDbEntity
  8
중심선
100
AcDbLine
 10
0.1404042013395286
 20
13.71084872107135
 30
0.0
 11
3.58671253028996
 21
13.71088815037384
 31
0.0
  0
LINE
  5
88
330
7F
100
AcDbEntity
  8
중심선
100
AcDbLine
 10
2.750260043222114
 20
10.84717430164391
 30
0.0
 11
6.196535287059397
 21
10.84717430164391
 31
0.0
  0
LINE
  5
89
330
7F
100
AcDbEntity
  8
중심선
100
AcDbLine
 10
12.29416204261559
 20
16.24717430164393
 30
0.0
 11
5.245725140726316
 21
7.84717430164391
 31
0.0
  0
LINE
  5
8A
330
7F
100
AcDbEntity
  8
중심선
100
AcDbLine
 10
10.72767329541681
 20
16.24717430164393
 30
0.0
 11
6.196535287059397
 21
10.84717430164391
 31
0.0
  0
LINE
  5
8B
330
7F
100
AcDbEntity
  8
중심선
100
AcDbLine
 10
7.28139805157953
 20
16.24717430164393
 30
0.0
 11
2.750260043222114
 21
10.84717430164391
 31
0.0
  0
LINE
  5
8C
330
7F
100
AcDbEntity
  8
중심선
100
AcDbLine
 10
5.714909304380834
 20
16.24717430164393
 30
0.0
 11
3.58671253028996
 21
13.71088815037384
 31
0.0
  0
LINE
  5
8D
330
7F
100
AcDbEntity
  8
중심선
100
AcDbLine
 10
2.268634060543552
 20
16.24717430164393
 30
0.0
 11
0.1404042013395286
 21
13.71084872107135
 31
0.0
  0
LINE
  5
8E
330
7F
100
AcDbEntity
  8
중심선
100
AcDbLine
 10
7.28139805157953
 20
16.24717430164393
 30
0.0
 11
10.72767329541681
 21
16.24717430164393
 31
0.0
  0
LINE
  5
8F
330
7F
100
AcDbEntity
  8
중심선
100
AcDbLine
 10
12.29416204261559
 20
16.24717430164393
 30
0.0
 11
15.74043728645272
 21
16.24717430164393
 31
0.0
  0
LINE
  5
90
330
7F
100
AcDbEntity
  8
중심선
100
AcDbLine
 10
19.22036997980202
 20
11.08717430171403
 30
0.0
 11
23.66174974927406
 21
11.08717430171406
 31
0.0
  0
LINE
  5
91
330
7F
100
AcDbEntity
  8
중심선
100
AcDbLine
 10
19.22039502424796
 20
13.00717430171391
 30
0.0
 11
19.22036997980202
 21
11.08717430171403
 31
0.0
  0
LINE
  5
92
330
7F
100
AcDbEntity
  8
중심선
100
AcDbLine
 10
19.22039502424796
 20
13.00717430171391
 30
0.0
 11
26.96566020931264
 21
13.00717430171391
 31
0.0
  0
LINE
  5
93
330
7F
100
AcDbEntity
  8
중심선
100
AcDbLine
 10
22.22332737316547
 20
13.45928029700563
 30
0.0
 11
24.52862924686651
 21
15.39360700705356
 31
0.0
  0
ATTDEF
  5
95
330
7F
100
AcDbEntity
  8
FORMAT
 62
     2
100
AcDbText
 10
4.408487351596664
 20
2.075366912832191
 30
0.0
 40
4.233333333333333
  1
E1050023
 41
0.75
  7
SLDTEXTSTYLE0
 11
4.408487351596664
 21
-0.0412997538344756
 31
0.0
100
AcDbAttributeDefinition
  3

  2
AUTOATTR0
 70
     0
 74
     1
  0
ENDBLK
  5
81
330
7F
100
AcDbEntity
  8
0
100
AcDbBlockEnd
  0
BLOCK
  5
DB
330
DA
100
AcDbEntity
  8
0
100
AcDbBlockBegin
  2
_D
 70
     0
 10
0.0
 20
0.0
 30
0.0
  3
_D
  1
_D
  0
LINE
  5
DD
330
DA
100
AcDbEntity
  8
치수문자_일반주서
 62
     0
370
    -2
100
AcDbLine
 10
-23.72192116787308
 20
4.76249999999999
 30
0.0
 11
-49.68749999999999
 21
4.762499999999889
 31
0.0
  0
LINE
  5
DE
330
DA
100
AcDbEntity
  8
치수문자_일반주서
 62
     0
370
    -2
100
AcDbLine
 10
-23.7219211678731
 20
-4.762500000000001
 30
0.0
 11
-49.68749999999996
 21
-4.762500000000102
 31
0.0
  0
LINE
  5
DF
330
DA
100
AcDbEntity
  8
치수문자_일반주서
 62
     0
370
    -2
100
AcDbLine
 10
-49.68749999999999
 20
4.762499999999889
 30
0.0
 11
-49.68750000000011
 21
37.61649999999996
 31
0.0
  0
LINE
  5
E0
330
DA
100
AcDbEntity
  8
치수문자_일반주서
 62
     0
370
    -2
100
AcDbLine
 10
-49.68749999999999
 20
4.762499999999889
 30
0.0
 11
-49.68749999999996
 21
-4.762500000000102
 31
0.0
  0
LINE
  5
E1
330
DA
100
AcDbEntity
  8
치수문자_일반주서
 62
     0
370
    -2
100
AcDbLine
 10
-49.68750000000001
 20
8.064499999999889
 30
0.0
 11
-49.68750000000002
 21
11.36649999999989
 31
0.0
  0
LINE
  5
E2
330
DA
100
AcDbEntity
  8
치수문자_일반주서
 62
     0
370
    -2
100
AcDbLine
 10
-49.68749999999994
 20
-8.064500000000102
 30
0.0
 11
-49.68749999999993
 21
-11.3665000000001
 31
0.0
  0
SOLID
  5
E3
330
DA
100
AcDbEntity
  8
치수문자_일반주서
 62
     0
100
AcDbTrace
 10
-50.23783333333334
 20
8.064499999999887
 30
0.0
 11
-49.13716666666667
 21
8.06449999999989
 31
0.0
 12
-49.68749999999999
 22
4.762499999999889
 32
0.0
 13
-49.68749999999999
 23
4.762499999999889
 33
0.0
  0
SOLID
  5
E4
330
DA
100
AcDbEntity
  8
치수문자_일반주서
 62
     0
100
AcDbTrace
 10
-49.13716666666661
 20
-8.0645000000001
 30
0.0
 11
-50.23783333333328
 21
-8.064500000000104
 31
0.0
 12
-49.68749999999996
 22
-4.762500000000102
 32
0.0
 13
-49.68749999999996
 23
-4.762500000000102
 33
0.0
  0
MTEXT
  5
E5
330
DA
100
AcDbEntity
  8
치수문자_일반주서
 62
     0
100
AcDbMText
 10
-54.06250000000006
 20
24.49149999999994
 30
0.0
 40
3.5
 41
0.0
 71
     2
 72
     1
  1
\A1;%%c9.53 [3/8]
  7
SLDTEXTSTYLE0
 11
-3.729883127349611E-15
 21
1.0
 31
0.0
 73
     1
 44
1.0
  0
POINT
  5
1EA
330
DA
100
AcDbEntity
  8
Defpoints
 62
     0
100
AcDbPoint
 10
-23.65942116787308
 20
4.76249999999999
 30
0.0
  0
POINT
  5
1EB
330
DA
100
AcDbEntity
  8
Defpoints
 62
     0
100
AcDbPoint
 10
-23.6594211678731
 20
-4.762500000000001
 30
0.0
  0
POINT
  5
1EC
330
DA
100
AcDbEntity
  8
Defpoints
 62
     0
100
AcDbPoint
 10
-49.68749999999996
 20
-4.762500000000098
 30
0.0
  0
ENDBLK
  5
DC
330
DA
100
AcDbEntity
  8
0
100
AcDbBlockEnd
  0
BLOCK
  5
F0
330
EF
100
AcDbEntity
  8
0
100
AcDbBlockBegin
  2
_D_1
 70
     0
 10
0.0
 20
0.0
 30
0.0
  3
_D_1
  1
_D_1
  0
LINE
  5
F2
330
EF
100
AcDbEntity
  8
치수문자_일반주서
 62
     0
370
    -2
100
AcDbLine
 10
39.75000000000001
 20
-4.560205023884048
 30
0.0
 11
79.48060827910994
 21
-4.560205023883899
 31
0.0
  0
LINE
  5
F3
330
EF
100
AcDbEntity
  8
치수문자_일반주서
 62
     0
370
    -2
100
AcDbLine
 10
39.75000000000001
 20
4.560205023884046
 30
0.0
 11
79.48060827910992
 21
4.560205023884194
 31
0.0
  0
LINE
  5
F4
330
EF
100
AcDbEntity
  8
치수문자_일반주서
 62
     0
370
    -2
100
AcDbLine
 10
79.48060827910992
 20
4.560205023884194
 30
0.0
 11
79.4806082791098
 21
41.78920502388419
 31
0.0
  0
LINE
  5
F5
330
EF
100
AcDbEntity
  8
치수문자_일반주서
 62
     0
370
    -2
100
AcDbLine
 10
79.48060827910994
 20
-4.560205023883899
 30
0.0
 11
79.48060827910992
 21
4.560205023884194
 31
0.0
  0
LINE
  5
F6
330
EF
100
AcDbEntity
  8
치수문자_일반주서
 62
     0
370
    -2
100
AcDbLine
 10
79.48060827910996
 20
-7.862205023883899
 30
0.0
 11
79.48060827910997
 21
-11.1642050238839
 31
0.0
  0
LINE
  5
F7
330
EF
100
AcDbEntity
  8
치수문자_일반주서
 62
     0
370
    -2
100
AcDbLine
 10
79.4806082791099
 20
7.862205023884194
 30
0.0
 11
79.48060827910989
 21
11.16420502388419
 31
0.0
  0
SOLID
  5
F8
330
EF
100
AcDbEntity
  8
치수문자_일반주서
 62
     0
100
AcDbTrace
 10
80.03094161244329
 20
-7.862205023883897
 30
0.0
 11
78.93027494577663
 21
-7.862205023883901
 31
0.0
 12
79.48060827910994
 22
-4.560205023883899
 32
0.0
 13
79.48060827910994
 23
-4.560205023883899
 33
0.0
  0
SOLID
  5
F9
330
EF
100
AcDbEntity
  8
치수문자_일반주서
 62
     0
100
AcDbTrace
 10
78.93027494577657
 20
7.862205023884192
 30
0.0
 11
80.03094161244323
 21
7.862205023884195
 31
0.0
 12
79.48060827910992
 22
4.560205023884194
 32
0.0
 13
79.48060827910992
 23
4.560205023884194
 33
0.0
  0
MTEXT
  5
FA
330
EF
100
AcDbEntity
  8
치수문자_일반주서
 62
     0
100
AcDbMText
 10
75.10560827910984
 20
26.47670502388418
 30
0.0
 40
3.5
 41
0.0
 71
     2
 72
     1
  1
\A1;%%c9.12 [23/64]
  7
SLDTEXTSTYLE0
 11
-3.116275395683470E-15
 21
1.0
 31
0.0
 73
     1
 44
1.0
  0
POINT
  5
FB
330
EF
100
AcDbEntity
  8
Defpoints
 62
     0
100
AcDbPoint
 10
39.68750000000001
 20
-4.560205023884048
 30
0.0
  0
POINT
  5
FC
330
EF
100
AcDbEntity
  8
Defpoints
 62
     0
100
AcDbPoint
 10
39.68750000000001
 20
4.560205023884046
 30
0.0
  0
POINT
  5
FD
330
EF
100
AcDbEntity
  8
Defpoints
 62
     0
100
AcDbPoint
 10
79.48060827910992
 20
4.560205023884194
 30
0.0
  0
ENDBLK
  5
F1
330
EF
100
AcDbEntity
  8
0
100
AcDbBlockEnd
  0
BLOCK
  5
103
330
102
100
AcDbEntity
  8
0
100
AcDbBlockBegin
  2
_D_2
 70
     0
 10
0.0
 20
0.0
 30
0.0
  3
_D_2
  1
_D_2
  0
LINE
  5
105
330
102
100
AcDbEntity
  8
치수문자_일반주서
 62
     0
370
    -2
100
AcDbLine
 10
39.68750000000001
 20
4.622705023884046
 30
0.0
 11
39.68750000000001
 21
14.7625
 31
0.0
  0
LINE
  5
106
330
102
100
AcDbEntity
  8
치수문자_일반주서
 62
     0
370
    -2
100
AcDbLine
 10
25.40000000000002
 20
3.648600097437003
 30
0.0
 11
25.40000000000002
 21
14.7625
 31
0.0
  0
LINE
  5
107
330
102
100
AcDbEntity
  8
치수문자_일반주서
 62
     0
370
    -2
100
AcDbLine
 10
39.68750000000001
 20
14.7625
 30
0.0
 11
73.41650000000001
 21
14.7625
 31
0.0
  0
LINE
  5
108
330
102
100
AcDbEntity
  8
치수문자_일반주서
 62
     0
370
    -2
100
AcDbLine
 10
39.68750000000001
 20
14.7625
 30
0.0
 11
25.40000000000002
 21
14.7625
 31
0.0
  0
LINE
  5
109
330
102
100
AcDbEntity
  8
치수문자_일반주서
 62
     0
370
    -2
100
AcDbLine
 10
42.98950000000001
 20
14.7625
 30
0.0
 11
46.29150000000001
 21
14.7625
 31
0.0
  0
LINE
  5
10A
330
102
100
AcDbEntity
  8
치수문자_일반주서
 62
     0
370
    -2
100
AcDbLine
 10
22.09800000000002
 20
14.7625
 30
0.0
 11
18.79600000000002
 21
14.7625
 31
0.0
  0
SOLID
  5
10B
330
102
100
AcDbEntity
  8
치수문자_일반주서
 62
     0
100
AcDbTrace
 10
42.98950000000001
 20
15.31283333333333
 30
0.0
 11
42.98950000000001
 21
14.21216666666666
 31
0.0
 12
39.68750000000001
 22
14.7625
 32
0.0
 13
39.68750000000001
 23
14.7625
 33
0.0
  0
SOLID
  5
10C
330
102
100
AcDbEntity
  8
치수문자_일반주서
 62
     0
100
AcDbTrace
 10
22.09800000000002
 20
14.21216666666666
 30
0.0
 11
22.09800000000002
 21
15.31283333333333
 31
0.0
 12
25.40000000000002
 22
14.7625
 32
0.0
 13
25.40000000000002
 23
14.7625
 33
0.0
  0
MTEXT
  5
10D
330
102
100
AcDbEntity
  8
치수문자_일반주서
 62
     0
100
AcDbMText
 10
59.85400000000001
 20
19.1375
 30
0.0
 40
3.5
 41
0.0
 71
     2
 72
     1
  1
\A1;14.29 [9/16]
  7
SLDTEXTSTYLE0
 73
     1
 44
1.0
  0
POINT
  5
10E
330
102
100
AcDbEntity
  8
Defpoints
 62
     0
100
AcDbPoint
 10
39.68750000000001
 20
4.560205023884046
 30
0.0
  0
POINT
  5
10F
330
102
100
AcDbEntity
  8
Defpoints
 62
     0
100
AcDbPoint
 10
25.40000000000002
 20
3.586100097437003
 30
0.0
  0
POINT
  5
110
330
102
100
AcDbEntity
  8
Defpoints
 62
     0
100
AcDbPoint
 10
25.40000000000002
 20
14.7625
 30
0.0
  0
ENDBLK
  5
104
330
102
100
AcDbEntity
  8
0
100
AcDbBlockEnd
  0
BLOCK
  5
117
330
116
100
AcDbEntity
  8
0
100
AcDbBlockBegin
  2
_D_3
 70
     0
 10
0.0
 20
0.0
 30
0.0
  3
_D_3
  1
_D_3
  0
LINE
  5
119
330
116
100
AcDbEntity
  8
치수문자_일반주서
 62
     0
370
    -2
100
AcDbLine
 10
-39.6875
 20
4.594057575395894
 30
0.0
 11
-39.6875
 21
24.7625
 31
0.0
  0
LINE
  5
11A
330
116
100
AcDbEntity
  8
치수문자_일반주서
 62
     0
370
    -2
100
AcDbLine
 10
39.68750000000001
 20
4.622705023884046
 30
0.0
 11
39.68750000000001
 21
24.7625
 31
0.0
  0
LINE
  5
11B
330
116
100
AcDbEntity
  8
치수문자_일반주서
 62
     0
370
    -2
100
AcDbLine
 10
-36.3855
 20
24.7625
 30
0.0
 11
36.38550000000001
 21
24.7625
 31
0.0
  0
SOLID
  5
11C
330
116
100
AcDbEntity
  8
치수문자_일반주서
 62
     0
100
AcDbTrace
 10
-36.3855
 20
25.31283333333333
 30
0.0
 11
-36.3855
 21
24.21216666666666
 31
0.0
 12
-39.6875
 22
24.7625
 32
0.0
 13
-39.6875
 23
24.7625
 33
0.0
  0
SOLID
  5
11D
330
116
100
AcDbEntity
  8
치수문자_일반주서
 62
     0
100
AcDbTrace
 10
36.38550000000001
 20
24.21216666666666
 30
0.0
 11
36.38550000000001
 21
25.31283333333333
 31
0.0
 12
39.68750000000001
 22
24.7625
 32
0.0
 13
39.68750000000001
 23
24.7625
 33
0.0
  0
MTEXT
  5
11E
330
116
100
AcDbEntity
  8
치수문자_일반주서
 62
     0
100
AcDbMText
 10
0.0000000000000071
 20
29.1375
 30
0.0
 40
3.5
 41
0.0
 71
     2
 72
     1
  1
\A1;79.38 [3 1/8]
  7
SLDTEXTSTYLE0
 73
     1
 44
1.0
  0
POINT
  5
11F
330
116
100
AcDbEntity
  8
Defpoints
 62
     0
100
AcDbPoint
 10
-39.6875
 20
4.531557575395894
 30
0.0
  0
POINT
  5
120
330
116
100
AcDbEntity
  8
Defpoints
 62
     0
100
AcDbPoint
 10
39.68750000000001
 20
4.560205023884046
 30
0.0
  0
POINT
  5
121
330
116
100
AcDbEntity
  8
Defpoints
 62
     0
100
AcDbPoint
 10
39.68750000000001
 20
24.7625
 30
0.0
  0
ENDBLK
  5
118
330
116
100
AcDbEntity
  8
0
100
AcDbBlockEnd
  0
BLOCK
  5
130
330
12F
100
AcDbEntity
  8
0
100
AcDbBlockBegin
  2
SW_DOWELSYMBOL_0
 70
     0
 10
0.0
 20
0.0
 30
0.0
  3
SW_DOWELSYMBOL_0
  1
SW_DOWELSYMBOL_0
  0
CIRCLE
  5
132
330
12F
100
AcDbEntity
  8
해칭선
 62
     0
100
AcDbCircle
 10
0.0
 20
0.0
 30
0.0
 40
3.000000000000001
  0
HATCH
  5
133
330
12F
100
AcDbEntity
  8
0
  6
Continuous
 62
     0
370
     0
100
AcDbHatch
 10
0.0
 20
0.0
 30
0.0
210
0.0
220
0.0
230
1.0
  2
SOLID
 70
     1
 71
     0
 91
        1
 92
        0
 93
        3
 72
     2
 10
0.0
 20
0.0
 40
3.000000000000001
 50
0.0
 51
90.0
 73
     1
 72
     1
 10
0.0
 20
3.000000000000001
 11
0.0
 21
0.0
 72
     1
 10
0.0
 20
0.0
 11
3.000000000000001
 21
0.0
 97
        0
 75
     0
 76
     1
 98
        1
 10
0.0
 20
0.0
  0
HATCH
  5
134
330
12F
100
AcDbEntity
  8
0
  6
Continuous
 62
     0
370
     0
100
AcDbHatch
 10
0.0
 20
0.0
 30
0.0
210
0.0
220
0.0
230
1.0
  2
SOLID
 70
     1
 71
     0
 91
        1
 92
        0
 93
        3
 72
     2
 10
0.0
 20
0.0
 40
3.000000000000001
 50
180.0
 51
270.0000000000007
 73
     1
 72
     1
 10
0.0
 20
-3.000000000000001
 11
0.0
 21
0.0
 72
     1
 10
0.0
 20
0.0
 11
-3.000000000000001
 21
0.0
 97
        0
 75
     0
 76
     1
 98
        1
 10
0.0
 20
0.0
  0
ENDBLK
  5
131
330
12F
100
AcDbEntity
  8
0
100
AcDbBlockEnd
  0
BLOCK
  5
195
330
194
100
AcDbEntity
  8
0
100
AcDbBlockBegin
  2
*D7
 70
     1
 10
0.0
 20
0.0
 30
0.0
  3
*D7
  1
*D7
  0
LINE
  5
197
330
194
100
AcDbEntity
  8
치수문자_일반주서
 62
     0
370
    -2
100
AcDbLine
 10
16.129
 20
1.204062975115863
 30
0.0
 11
16.129
 21
14.31790470593878
 31
0.0
  0
LINE
  5
198
330
194
100
AcDbEntity
  8
치수문자_일반주서
 62
     0
370
    -2
100
AcDbLine
 10
6.603999999999999
 20
0.6820206663775747
 30
0.0
 11
6.603999999999999
 21
14.31790470593878
 31
0.0
  0
LINE
  5
199
330
194
100
AcDbEntity
  8
치수문자_일반주서
 62
     0
370
    -2
100
AcDbLine
 10
16.129
 20
14.31790470593878
 30
0.0
 11
46.358
 21
14.31790470593878
 31
0.0
  0
LINE
  5
19A
330
194
100
AcDbEntity
  8
치수문자_일반주서
 62
     0
370
    -2
100
AcDbLine
 10
16.129
 20
14.31790470593878
 30
0.0
 11
6.603999999999999
 21
14.31790470593878
 31
0.0
  0
LINE
  5
19B
330
194
100
AcDbEntity
  8
치수문자_일반주서
 62
     0
370
    -2
100
AcDbLine
 10
19.431
 20
14.31790470593878
 30
0.0
 11
22.733
 21
14.31790470593878
 31
0.0
  0
LINE
  5
19C
330
194
100
AcDbEntity
  8
치수문자_일반주서
 62
     0
370
    -2
100
AcDbLine
 10
3.302
 20
14.31790470593878
 30
0.0
 11
0.0
 21
14.31790470593878
 31
0.0
  0
SOLID
  5
19D
330
194
100
AcDbEntity
  8
치수문자_일반주서
 62
     0
100
AcDbTrace
 10
19.431
 20
14.86823803927212
 30
0.0
 11
19.431
 21
13.76757137260545
 31
0.0
 12
16.129
 22
14.31790470593878
 32
0.0
 13
16.129
 23
14.31790470593878
 33
0.0
  0
SOLID
  5
19E
330
194
100
AcDbEntity
  8
치수문자_일반주서
 62
     0
100
AcDbTrace
 10
3.302
 20
13.76757137260545
 30
0.0
 11
3.302
 21
14.86823803927212
 31
0.0
 12
6.603999999999999
 22
14.31790470593878
 32
0.0
 13
6.603999999999999
 23
14.31790470593878
 33
0.0
  0
MTEXT
  5
19F
330
194
100
AcDbEntity
  8
치수문자_일반주서
 62
     0
100
AcDbMText
 10
34.5455
 20
18.69290470593878
 30
0.0
 40
3.5
 41
0.0
 71
     2
 72
     1
  1
\A1;9.53 [3/8]
  7
SLDTEXTSTYLE0
 73
     1
 44
1.0
  0
POINT
  5
1A0
330
194
100
AcDbEntity
  8
Defpoints
 62
     0
100
AcDbPoint
 10
16.129
 20
1.141562975115863
 30
0.0
  0
POINT
  5
1A1
330
194
100
AcDbEntity
  8
Defpoints
 62
     0
100
AcDbPoint
 10
6.603999999999999
 20
0.6195206663775747
 30
0.0
  0
POINT
  5
1A2
330
194
100
AcDbEntity
  8
Defpoints
 62
     0
100
AcDbPoint
 10
6.603999999999999
 20
14.31790470593878
 30
0.0
  0
ENDBLK
  5
196
330
194
100
AcDbEntity
  8
0
100
AcDbBlockEnd
  0
BLOCK
  5
1A7
330
1A6
100
AcDbEntity
  8
0
100
AcDbBlockBegin
  2
*D8
 70
     1
 10
0.0
 20
0.0
 30
0.0
  3
*D8
  1
*D8
  0
LINE
  5
1A9
330
1A6
100
AcDbEntity
  8
치수문자_일반주서
 62
     0
370
    -2
100
AcDbLine
 10
82.01306695712141
 20
-10.19631606234773
 30
0.0
 11
82.01306695712141
 21
2.917525668475189
 31
0.0
  0
LINE
  5
1AA
330
1A6
100
AcDbEntity
  8
치수문자_일반주서
 62
     0
370
    -2
100
AcDbLine
 10
72.4880669571214
 20
-10.71835837108602
 30
0.0
 11
72.4880669571214
 21
2.917525668475189
 31
0.0
  0
LINE
  5
1AB
330
1A6
100
AcDbEntity
  8
치수문자_일반주서
 62
     0
370
    -2
100
AcDbLine
 10
82.01306695712141
 20
2.917525668475189
 30
0.0
 11
112.2420669571214
 21
2.917525668475189
 31
0.0
  0
LINE
  5
1AC
330
1A6
100
AcDbEntity
  8
치수문자_일반주서
 62
     0
370
    -2
100
AcDbLine
 10
82.01306695712141
 20
2.917525668475189
 30
0.0
 11
72.4880669571214
 21
2.917525668475189
 31
0.0
  0
LINE
  5
1AD
330
1A6
100
AcDbEntity
  8
치수문자_일반주서
 62
     0
370
    -2
100
AcDbLine
 10
85.31506695712142
 20
2.917525668475189
 30
0.0
 11
88.61706695712141
 21
2.917525668475189
 31
0.0
  0
LINE
  5
1AE
330
1A6
100
AcDbEntity
  8
치수문자_일반주서
 62
     0
370
    -2
100
AcDbLine
 10
69.1860669571214
 20
2.917525668475189
 30
0.0
 11
65.8840669571214
 21
2.917525668475189
 31
0.0
  0
SOLID
  5
1AF
330
1A6
100
AcDbEntity
  8
치수문자_일반주서
 62
     0
100
AcDbTrace
 10
85.31506695712142
 20
3.467859001808522
 30
0.0
 11
85.31506695712142
 21
2.367192335141856
 31
0.0
 12
82.01306695712141
 22
2.917525668475189
 32
0.0
 13
82.01306695712141
 23
2.917525668475189
 33
0.0
  0
SOLID
  5
1B0
330
1A6
100
AcDbEntity
  8
치수문자_일반주서
 62
     0
100
AcDbTrace
 10
69.1860669571214
 20
2.367192335141856
 30
0.0
 11
69.1860669571214
 21
3.467859001808522
 31
0.0
 12
72.4880669571214
 22
2.917525668475189
 32
0.0
 13
72.4880669571214
 23
2.917525668475189
 33
0.0
  0
MTEXT
  5
1B1
330
1A6
100
AcDbEntity
  8
치수문자_일반주서
 62
     0
100
AcDbMText
 10
100.4295669571214
 20
7.292525668475189
 30
0.0
 40
3.5
 41
0.0
 71
     2
 72
     1
  1
\A1;9.53 [3/8]
  7
SLDTEXTSTYLE0
 73
     1
 44
1.0
  0
POINT
  5
1B2
330
1A6
100
AcDbEntity
  8
Defpoints
 62
     0
100
AcDbPoint
 10
82.01306695712141
 20
-10.25881606234773
 30
0.0
  0
POINT
  5
1B3
330
1A6
100
AcDbEntity
  8
Defpoints
 62
     0
100
AcDbPoint
 10
72.4880669571214
 20
-10.78085837108602
 30
0.0
  0
POINT
  5
1B4
330
1A6
100
AcDbEntity
  8
Defpoints
 62
     0
100
AcDbPoint
 10
72.4880669571214
 20
2.917525668475189
 30
0.0
  0
ENDBLK
  5
1A8
330
1A6
100
AcDbEntity
  8
0
100
AcDbBlockEnd
  0
ENDSEC
  0
SECTION
  2
ENTITIES
  0
LINE
  5
96
330
1F
100
AcDbEntity
  8
외형선
  6
Continuous
370
    15
100
AcDbLine
 10
23.65942116787307
 20
4.762499999999997
 30
0.0
 11
4.838700000000152
 21
4.762499999999996
 31
0.0
  0
LINE
  5
97
330
1F
100
AcDbEntity
  8
외형선
  6
Continuous
370
    15
100
AcDbLine
 10
-23.6594211678731
 20
-4.762500000000001
 30
0.0
 11
23.65942116787307
 21
-4.762499999999998
 31
0.0
  0
LINE
  5
98
330
1F
100
AcDbEntity
  8
외형선
  6
Continuous
370
    15
100
AcDbLine
 10
23.65942116787307
 20
-4.7625
 30
0.0
 11
23.88011721757775
 21
-4.703364671708894
 31
0.0
  0
LINE
  5
99
330
1F
100
AcDbEntity
  8
외형선
  6
Continuous
370
    15
100
AcDbLine
 10
23.88011721757775
 20
4.703364671708892
 30
0.0
 11
23.65942116787307
 21
4.7625
 31
0.0
  0
SPLINE
  5
9C
330
1F
100
AcDbEntity
  8
외형선
  6
Continuous
370
    15
100
AcDbSpline
210
0.0
220
0.0
230
1.0
 70
     8
 71
     3
 72
    20
 73
    16
 74
     0
 42
0.000000001
 43
0.00000001
 40
0.0
 40
0.0
 40
0.0
 40
0.0
 40
0.0061724360765253
 40
0.0126400355799096
 40
0.0195670210827545
 40
0.027312750372796
 40
0.0363862730909122
 40
0.0473550279853791
 40
0.0770481703270718
 40
0.1201004633103504
 40
0.1789659279895405
 40
0.3445509808531197
 40
0.5557444487547257
 40
0.7932923460535237
 40
1.0
 40
1.0
 40
1.0
 40
1.0
 10
24.38426135680479
 20
3.565745510235072
 30
0.0
 10
24.38324405158072
 20
3.565835366373859
 30
0.0
 10
24.38116079400328
 20
3.566019375536087
 30
0.0
 10
24.37648464533964
 20
3.56773343198256
 30
0.0
 10
24.37031903880651
 20
3.570789052235347
 30
0.0
 10
24.36239437478626
 20
3.575514019271476
 30
0.0
 10
24.35264877183093
 20
3.582041329901442
 30
0.0
 10
24.33528483400339
 20
3.594678595670042
 30
0.0
 10
24.30766446059051
 20
3.616858670997952
 30
0.0
 10
24.26868069306572
 20
3.650494647404625
 30
0.0
 10
24.1975238487491
 20
3.714937658247166
 30
0.0
 10
24.10115339293575
 20
3.806278748288003
 30
0.0
 10
23.99581156055578
 20
3.903016879247454
 30
0.0
 10
23.92386463574361
 20
3.95789548931398
 30
0.0
 10
23.90612933953112
 20
3.949617057059232
 30
0.0
 10
23.89787728401521
 20
3.945765185529575
 30
0.0
  0
LINE
  5
9D
330
1F
100
AcDbEntity
  8
외형선
  6
Continuous
370
    15
100
AcDbLine
 10
25.40000000000002
 20
3.582175404166023
 30
0.0
 11
24.38489421434849
 21
3.565989554267139
 31
0.0
  0
LINE
  5
9E
330
1F
100
AcDbEntity
  8
외형선
  6
Continuous
370
    15
100
AcDbLine
 10
23.88016205780754
 20
-3.564428120732023
 30
0.0
 11
25.40000000000002
 21
-3.582175404166024
 31
0.0
  0
SPLINE
  5
9F
330
1F
100
AcDbEntity
  8
0
  6
Continuous
 62
     1
370
    15
100
AcDbSpline
210
0.0
220
0.0
230
1.0
 70
     8
 71
     3
 72
     9
 73
     5
 74
     0
 42
0.000000001
 43
0.00000001
 40
0.0
 40
0.0
 40
0.0
 40
0.0
 40
0.4743927037319213
 40
0.9999999999999999
 40
0.9999999999999999
 40
0.9999999999999999
 40
0.9999999999999999
 10
27.86410492834504
 20
1.16944845370777
 30
0.0
 10
27.66304542060201
 20
1.265079203533586
 30
0.0
 10
27.2392203782661
 20
1.466664828846779
 30
0.0
 10
26.81765874464288
 20
1.687052357206561
 30
0.0
 10
26.59608287418382
 20
1.80288965011895
 30
0.0
1001
PE_URL
1000

  0
LINE
  5
A0
330
1F
100
AcDbEntity
  8
0
  6
Continuous
 62
     1
370
    15
100
AcDbLine
 10
26.34150677444268
 20
3.626097325786032
 30
0.0
 11
25.40000000000001
 21
3.582175404166023
 31
0.0
1001
PE_URL
1000

  0
SPLINE
  5
A1
330
1F
100
AcDbEntity
  8
0
  6
Continuous
 62
     1
370
    15
100
AcDbSpline
210
0.0
220
0.0
230
1.0
 70
     8
 71
     3
 72
    25
 73
    21
 74
     0
 42
0.000000001
 43
0.00000001
 40
0.0
 40
0.0
 40
0.0
 40
0.0
 40
0.096685613782989
 40
0.1783151589036246
 40
0.2440465851503459
 40
0.2989144047175933
 40
0.3346259751557843
 40
0.3664805350847938
 40
0.4012145114780035
 40
0.4387713277599671
 40
0.4790500267602348
 40
0.5219631612268452
 40
0.567532013241741
 40
0.6279732387798596
 40
0.6726655745416817
 40
0.7153560775828307
 40
0.7632374865655428
 40
0.821423524315479
 40
0.900210127350055
 40
1.0
 40
1.0
 40
1.0
 40
1.0
 10
37.9907660391657
 20
3.121597068808126
 30
0.0
 10
37.73206126551602
 20
3.101018325262641
 30
0.0
 10
37.25493772026955
 20
3.063065399467638
 30
0.0
 10
36.60368298200382
 20
3.030266682710184
 30
0.0
 10
36.0654412060932
 20
3.012293686077827
 30
0.0
 10
35.65046400395628
 20
3.005010596216461
 30
0.0
 10
35.32659197804603
 20
3.003108513145425
 30
0.0
 10
35.05570411567568
 20
3.003843541766591
 30
0.0
 10
34.77914972586986
 20
3.006936393910437
 30
0.0
 10
34.47964120577243
 20
3.013057926804117
 30
0.0
 10
34.15847008684522
 20
3.022828929489909
 30
0.0
 10
33.81632173144261
 20
3.036961822648847
 30
0.0
 10
33.42045662871529
 20
3.057668869976387
 30
0.0
 10
33.01937492139084
 20
3.083984986719087
 30
0.0
 10
32.63439730932487
 20
3.113918638728062
 30
0.0
 10
32.2708008111293
 20
3.146315858390842
 30
0.0
 10
31.8641293202743
 20
3.18724894844639
 30
0.0
 10
31.35854218287002
 20
3.242566270912746
 30
0.0
 10
30.73362671648276
 20
3.323200853335535
 30
0.0
 10
30.27519078159622
 20
3.393496830981043
 30
0.0
 10
30.01901334621383
 20
3.432778750002904
 30
0.0
1001
PE_URL
1000

  0
SPLINE
  5
A2
330
1F
100
AcDbEntity
  8
0
  6
Continuous
 62
     1
370
    15
100
AcDbSpline
210
0.0
220
0.0
230
1.0
 70
     8
 71
     3
 72
    14
 73
    10
 74
     0
 42
0.000000001
 43
0.00000001
 40
0.0
 40
0.0
 40
0.0
 40
0.0
 40
0.1497603537127232
 40
0.2884822422541309
 40
0.4596677963971167
 40
0.6225526706083917
 40
0.7759881174780104
 40
0.9066752637659413
 40
1.0
 40
1.0
 40
1.0
 40
1.0
 10
30.01901334621383
 20
-3.432778750002905
 30
0.0
 10
30.15169816973679
 20
-3.410200725628765
 30
0.0
 10
30.40728794669754
 20
-3.366708847200015
 30
0.0
 10
30.94182771662224
 20
-3.286399774552966
 30
0.0
 10
31.50297533204601
 20
-3.22665593672807
 30
0.0
 10
32.08131475162895
 20
-3.163859782369495
 30
0.0
 10
32.60210062171749
 20
-3.116243694361848
 30
0.0
 10
33.0389698880431
 20
-3.082363288730608
 30
0.0
 10
33.29700709773724
 20
-3.066416857687384
 30
0.0
 10
33.40450699578803
 20
-3.059773475853222
 30
0.0
1001
PE_URL
1000

  0
LINE
  5
A3
330
1F
100
AcDbEntity
  8
0
  6
Continuous
 62
     1
370
    15
100
AcDbLine
 10
25.40000000000001
 20
-3.582175404166024
 30
0.0
 11
26.34150677444268
 21
-3.626097325786033
 31
0.0
1001
PE_URL
1000

  0
LINE
  5
A4
330
1F
100
AcDbEntity
  8
외형선
  6
Continuous
370
    15
100
AcDbLine
 10
23.65942116787307
 20
4.7625
 30
0.0
 11
23.65942116787307
 21
-4.762500000000004
 31
0.0
  0
SPLINE
  5
A6
330
1F
100
AcDbEntity
  8
외형선
  6
Continuous
370
    15
100
AcDbSpline
210
0.0
220
0.0
230
1.0
 70
     8
 71
     3
 72
     8
 73
     4
 74
     0
 42
0.000000001
 43
0.00000001
 40
0.0
 40
0.0
 40
0.0
 40
0.0
 40
0.0005906419268212
 40
0.0005906419268212
 40
0.0005906419268212
 40
0.0005906419268212
 10
24.40000000000002
 20
2.884016329986971
 30
0.0
 10
24.22651867435756
 20
2.975902401672076
 30
0.0
 10
24.05322881030581
 20
3.067742693148527
 30
0.0
 10
23.88024002006709
 20
3.159462288801081
 30
0.0
  0
LINE
  5
A7
330
1F
100
AcDbEntity
  8
외형선
  6
Continuous
370
    15
100
AcDbLine
 10
24.40000000000002
 20
2.884016329987165
 30
0.0
 11
24.40000000000002
 21
1.794885897839363
 31
0.0
  0
SPLINE
  5
A8
330
1F
100
AcDbEntity
  8
외형선
  6
Continuous
370
    15
100
AcDbSpline
210
0.0
220
0.0
230
1.0
 70
     8
 71
     3
 72
     8
 73
     4
 74
     0
 42
0.000000001
 43
0.00000001
 40
0.0
 40
0.0
 40
0.0
 40
0.0
 40
0.0005968345189088
 40
0.0005968345189088
 40
0.0005968345189088
 40
0.0005968345189088
 10
23.88011721757775
 20
2.087448889880927
 30
0.0
 10
24.05362004764419
 20
1.990175526609376
 30
0.0
 10
24.22693918259818
 20
1.892633522084496
 30
0.0
 10
24.39999999999924
 20
1.794885897839696
 30
0.0
  0
LINE
  5
A9
330
1F
100
AcDbEntity
  8
외형선
  6
Continuous
370
    15
100
AcDbLine
 10
23.88011721757775
 20
-4.703364671708894
 30
0.0
 11
23.88011721757775
 21
2.087501890048155
 31
0.0
  0
LINE
  5
AA
330
1F
100
AcDbEntity
  8
외형선
  6
Continuous
370
    15
100
AcDbLine
 10
23.88011721757775
 20
3.159577147642759
 30
0.0
 11
23.88011721757775
 21
4.703364671708892
 31
0.0
  0
SPLINE
  5
AC
330
1F
100
AcDbEntity
  8
외형선
  6
Continuous
370
    15
100
AcDbSpline
210
0.0
220
0.0
230
1.0
 70
    24
 71
     3
 72
     9
 73
     5
 74
     0
 42
0.000000001
 43
0.00000001
 40
0.0
 40
0.0
 40
0.0
 40
0.0
 40
0.6365427730015408
 40
1.0
 40
1.0
 40
1.0
 40
1.0
 10
25.40000000000001
 20
1.251170532527602
 30
0.0
 10
25.40000000000001
 20
1.251838865829173
 30
0.0
 10
25.40000000000001
 20
1.252888808315237
 30
0.0
 10
25.40000000000001
 20
1.247891226043775
 30
0.0
 10
25.40000000000001
 20
1.246074818649693
 30
0.0
  0
SPLINE
  5
AD
330
1F
100
AcDbEntity
  8
외형선
  6
Continuous
370
    15
100
AcDbSpline
210
0.0
220
0.0
230
1.0
 70
    24
 71
     3
 72
    10
 73
     6
 74
     0
 42
0.000000001
 43
0.00000001
 40
0.0
 40
0.0
 40
0.0
 40
0.0
 40
0.2278990008473019
 40
0.5610934978883145
 40
0.9999999999999999
 40
0.9999999999999999
 40
0.9999999999999999
 40
0.9999999999999999
 10
25.40000000000001
 20
1.191113310436252
 30
0.0
 10
25.40000000000001
 20
1.173298736261659
 30
0.0
 10
25.40000000000001
 20
1.129438773296264
 30
0.0
 10
25.40000000000002
 20
0.9907742735982857
 30
0.0
 10
25.40000000000001
 20
0.8364891843246458
 30
0.0
 10
25.40000000000001
 20
0.7487846884939258
 30
0.0
  0
SPLINE
  5
AE
330
1F
100
AcDbEntity
  8
외형선
  6
Continuous
370
    15
100
AcDbSpline
210
0.0
220
0.0
230
1.0
 70
     8
 71
     3
 72
    10
 73
     6
 74
     0
 42
0.000000001
 43
0.00000001
 40
0.0
 40
0.0
 40
0.0
 40
0.0
 40
0.5
 40
0.5
 40
1.0
 40
1.0
 40
1.0
 40
1.0
 10
25.40000000000001
 20
0.7487846884939257
 30
0.0
 10
25.14558419128394
 20
0.8484999585562679
 30
0.0
 10
24.89107724709528
 20
0.9470660579271293
 30
0.0
 10
24.38540103252115
 20
1.140551348503133
 30
0.0
 10
24.13400337858439
 20
1.235508092773334
 30
0.0
 10
23.88014680141284
 20
1.328720192520062
 30
0.0
  0
SPLINE
  5
AF
330
1F
100
AcDbEntity
  8
외형선
  6
Continuous
370
    15
100
AcDbSpline
210
0.0
220
0.0
230
1.0
 70
     8
 71
     3
 72
     8
 73
     4
 74
     0
 42
0.000000001
 43
0.00000001
 40
0.0
 40
0.0
 40
0.0
 40
0.0
 40
1.0
 40
1.0
 40
1.0
 40
1.0
 10
25.40000000000001
 20
1.251170532527602
 30
0.0
 10
25.06549164057606
 20
1.436451276256355
 30
0.0
 10
24.73089957972991
 20
1.618386709567816
 30
0.0
 10
24.40000000000001
 20
1.794885897839366
 30
0.0
  0
SPLINE
  5
B0
330
1F
100
AcDbEntity
  8
외형선
  6
Continuous
370
    15
100
AcDbSpline
210
0.0
220
0.0
230
1.0
 70
     8
 71
     3
 72
     8
 73
     4
 74
     0
 42
0.000000001
 43
0.00000001
 40
0.0
 40
0.0
 40
0.0
 40
0.0
 40
1.0
 40
1.0
 40
1.0
 40
1.0
 10
25.40000000000001
 20
2.414724898651517
 30
0.0
 10
25.06549164057606
 20
2.578212713565764
 30
0.0
 10
24.73089957972991
 20
2.735231903240516
 30
0.0
 10
24.40000000000001
 20
2.884016329987169
 30
0.0
  0
LINE
  5
B1
330
1F
100
AcDbEntity
  8
외형선
  6
Continuous
370
    15
100
AcDbLine
 10
25.40000000000001
 20
2.414724898651516
 30
0.0
 11
25.40000000000001
 21
1.251170532527602
 31
0.0
  0
SPLINE
  5
B2
330
1F
100
AcDbEntity
  8
외형선
  6
Continuous
370
    15
100
AcDbSpline
210
0.0
220
0.0
230
1.0
 70
     8
 71
     3
 72
    10
 73
     6
 74
     0
 42
0.000000001
 43
0.00000001
 40
0.0
 40
0.0
 40
0.0
 40
0.0
 40
0.5
 40
0.5
 40
1.0
 40
1.0
 40
1.0
 40
1.0
 10
25.40000000000002
 20
-3.549550925721512
 30
0.0
 10
25.14558673961809
 20
-3.52207674457246
 30
0.0
 10
24.89108234551477
 20
-3.4890987883263
 30
0.0
 10
24.38541112929008
 20
-3.412659325429721
 30
0.0
 10
24.13401605228064
 20
-3.369212540245915
 30
0.0
 10
23.88016205780754
 20
-3.320495487709381
 30
0.0
  0
SPLINE
  5
B3
330
1F
100
AcDbEntity
  8
외형선
  6
Continuous
370
    15
100
AcDbSpline
210
0.0
220
0.0
230
1.0
 70
    24
 71
     3
 72
    14
 73
    10
 74
     0
 42
0.000000001
 43
0.00000001
 40
0.0
 40
0.0
 40
0.0
 40
0.0
 40
0.25
 40
0.25
 40
0.5000000000000001
 40
0.5000000000000001
 40
0.7500000000000001
 40
0.7500000000000001
 40
1.0
 40
1.0
 40
1.0
 40
1.0
 10
25.40000000000001
 20
0.7487846884939255
 30
0.0
 10
25.40000000000001
 20
0.3445774337332036
 30
0.0
 10
25.40000000000002
 20
-0.0737016973450199
 30
0.0
 10
25.40000000000001
 20
-0.900331280166505
 30
0.0
 10
25.40000000000001
 20
-1.308260568406554
 30
0.0
 10
25.40000000000001
 20
-2.072198732839916
 30
0.0
 10
25.40000000000002
 20
-2.427800550840324
 30
0.0
 10
25.40000000000001
 20
-3.055045564705007
 30
0.0
 10
25.40000000000001
 20
-3.32654764345146
 30
0.0
 10
25.40000000000001
 20
-3.54955092572151
 30
0.0
  0
LINE
  5
B4
330
1F
100
AcDbEntity
  8
외형선
  6
Continuous
370
    15
100
AcDbLine
 10
24.38498527127614
 20
3.560659237850119
 30
0.0
 11
24.38419123718087
 21
3.559693074652288
 31
0.0
  0
SPLINE
  5
B5
330
1F
100
AcDbEntity
  8
외형선
  6
Continuous
370
    15
100
AcDbSpline
210
0.0
220
0.0
230
1.0
 70
    24
 71
     3
 72
    12
 73
     8
 74
     0
 42
0.000000001
 43
0.00000001
 40
0.0
 40
0.0
 40
0.0
 40
0.0
 40
0.1032620327534535
 40
0.3573249039714645
 40
0.6187556156662395
 40
0.8477583060806011
 40
1.0
 40
1.0
 40
1.0
 40
1.0
 10
25.40000000000001
 20
3.574263967550784
 30
0.0
 10
25.40000000000001
 20
3.570504206999748
 30
0.0
 10
25.40000000000001
 20
3.557494042062724
 30
0.0
 10
25.40000000000001
 20
3.418095004136997
 30
0.0
 10
25.40000000000001
 20
3.131194315588497
 30
0.0
 10
25.40000000000001
 20
2.789756424996347
 30
0.0
 10
25.40000000000001
 20
2.521748187864305
 30
0.0
 10
25.40000000000001
 20
2.414724898651436
 30
0.0
  0
SPLINE
  5
B6
330
1F
100
AcDbEntity
  8
0
  6
Continuous
 62
     1
370
    15
100
AcDbSpline
210
0.0
220
0.0
230
1.0
 70
     8
 71
     3
 72
    34
 73
    30
 74
     0
 42
0.000000001
 43
0.00000001
 40
0.0
 40
0.0
 40
0.0
 40
0.0
 40
0.1249999999999996
 40
0.1249999999999996
 40
0.1874999999999994
 40
0.1874999999999994
 40
0.2499999999999993
 40
0.2499999999999993
 40
0.3124999999999992
 40
0.3124999999999992
 40
0.374999999999999
 40
0.374999999999999
 40
0.4374999999999989
 40
0.4374999999999989
 40
0.4999999999999988
 40
0.4999999999999988
 40
0.5624999999999989
 40
0.5624999999999989
 40
0.6249999999999991
 40
0.6249999999999991
 40
0.6874999999999992
 40
0.6874999999999992
 40
0.7499999999999993
 40
0.7499999999999993
 40
0.8124999999999996
 40
0.8124999999999996
 40
0.8749999999999997
 40
0.8749999999999997
 40
1.0
 40
1.0
 40
1.0
 40
1.0
 10
39.68750000000002
 20
-4.560205023884047
 30
0.0
 10
39.09652192985941
 20
-4.546111143524773
 30
0.0
 10
38.49336428416744
 20
-4.492824972660328
 30
0.0
 10
37.60452670140107
 20
-4.356975249291275
 30
0.0
 10
37.30784619420419
 20
-4.302338676100997
 30
0.0
 10
36.71059968521094
 20
-4.174721914057429
 30
0.0
 10
36.41138062420261
 20
-4.101809512124976
 30
0.0
 10
35.81745835029625
 20
-3.939266777191594
 30
0.0
 10
35.52202831305681
 20
-3.849616758495933
 30
0.0
 10
34.92522652336677
 20
-3.653718106695381
 30
0.0
 10
34.62582938506668
 20
-3.54764326770171
 30
0.0
 10
34.03076133703116
 20
-3.321313664084608
 30
0.0
 10
33.73598347584938
 20
-3.201220635038322
 30
0.0
 10
33.13984807554804
 20
-2.94705694181927
 30
0.0
 10
32.84038492883703
 20
-2.81321310946239
 30
0.0
 10
32.24439063148957
 20
-2.534562190267718
 30
0.0
 10
31.94966584850674
 20
-2.390075929101643
 30
0.0
 10
31.35441768221098
 20
-2.090638174974581
 30
0.0
 10
31.05500067860473
 20
-1.935840238291259
 30
0.0
 10
30.45830080192002
 20
-1.619023281802641
 30
0.0
 10
30.16302993382888
 20
-1.457384565082714
 30
0.0
 10
29.56888874887243
 20
-1.127968236410468
 30
0.0
 10
29.26962998211847
 20
-0.9601023998354442
 30
0.0
 10
28.6724460698675
 20
-0.6212386317280313
 30
0.0
 10
28.37603062659154
 20
-0.4505362691092799
 30
0.0
 10
27.78321480405546
 20
-0.1079533771598416
 30
0.0
 10
27.48422616988254
 20
0.0644282051325934
 30
0.0
 10
26.58805746406096
 20
0.5799107167236697
 30
0.0
 10
25.99748522660246
 20
0.9202296037493686
 30
0.0
 10
25.40000000000001
 20
1.251170532527604
 30
0.0
1001
PE_URL
1000

  0
SPLINE
  5
B7
330
1F
100
AcDbEntity
  8
0
  6
Continuous
 62
     1
370
    15
100
AcDbSpline
210
0.0
220
0.0
230
1.0
 70
     8
 71
     3
 72
     9
 73
     5
 74
     0
 42
0.000000001
 43
0.00000001
 40
0.0
 40
0.0
 40
0.0
 40
0.0
 40
0.4589954447704517
 40
0.9999999999999999
 40
0.9999999999999999
 40
0.9999999999999999
 40
0.9999999999999999
 10
28.34784306939279
 20
-0.4338225733487119
 30
0.0
 10
27.89681420580228
 20
-0.2519368073177033
 30
0.0
 10
26.914170764066
 20
0.1443324108266543
 30
0.0
 10
25.93158394501508
 20
0.536578024647849
 30
0.0
 10
25.40000000000001
 20
0.7487846884939255
 30
0.0
1001
PE_URL
1000

  0
SPLINE
  5
B8
330
1F
100
AcDbEntity
  8
외형선
  6
Continuous
370
    15
100
AcDbSpline
210
0.0
220
0.0
230
1.0
 70
    24
 71
     3
 72
     9
 73
     5
 74
     0
 42
0.000000001
 43
0.00000001
 40
0.0
 40
0.0
 40
0.0
 40
0.0
 40
0.3884974807404375
 40
1.0
 40
1.0
 40
1.0
 40
1.0
 10
25.40000000000001
 20
1.251170532527602
 30
0.0
 10
25.40000000000001
 20
1.25152058170207
 30
0.0
 10
25.40000000000001
 20
1.252421615021001
 30
0.0
 10
25.40000000000001
 20
1.243413940124853
 30
0.0
 10
25.40000000000001
 20
1.237905724233187
 30
0.0
  0
SPLINE
  5
B9
330
1F
100
AcDbEntity
  8
외형선
  6
Continuous
370
    15
100
AcDbSpline
210
0.0
220
0.0
230
1.0
 70
    24
 71
     3
 72
    10
 73
     6
 74
     0
 42
0.000000001
 43
0.00000001
 40
0.0
 40
0.0
 40
0.0
 40
0.0
 40
0.2027608999685945
 40
0.5468035592164172
 40
1.0
 40
1.0
 40
1.0
 40
1.0
 10
25.40000000000001
 20
1.182944216019745
 30
0.0
 10
25.40000000000001
 20
1.167460412450242
 30
0.0
 10
25.40000000000001
 20
1.125703846448988
 30
0.0
 10
25.40000000000001
 20
0.990510982296013
 30
0.0
 10
25.40000000000001
 20
0.8363937594289316
 30
0.0
 10
25.40000000000001
 20
0.7487846884939257
 30
0.0
  0
SPLINE
  5
BA
330
1F
100
AcDbEntity
  8
0
  6
Continuous
 62
     1
370
    15
100
AcDbSpline
210
0.0
220
0.0
230
1.0
 70
     8
 71
     3
 72
    34
 73
    30
 74
     0
 42
0.000000001
 43
0.00000001
 40
0.0
 40
0.0
 40
0.0
 40
0.0
 40
0.1250000000000002
 40
0.1250000000000002
 40
0.1875000000000002
 40
0.1875000000000002
 40
0.2500000000000002
 40
0.2500000000000002
 40
0.3125000000000002
 40
0.3125000000000002
 40
0.3750000000000001
 40
0.3750000000000001
 40
0.4375000000000001
 40
0.4375000000000001
 40
0.5000000000000001
 40
0.5000000000000001
 40
0.5625000000000001
 40
0.5625000000000001
 40
0.6250000000000001
 40
0.6250000000000001
 40
0.6875000000000001
 40
0.6875000000000001
 40
0.75
 40
0.75
 40
0.8125
 40
0.8125
 40
0.875
 40
0.875
 40
1.0
 40
1.0
 40
1.0
 40
1.0
 10
39.68750000000002
 20
-4.33102543597872
 30
0.0
 10
39.09652192985929
 20
-4.222865212622446
 30
0.0
 10
38.4933642841672
 20
-4.076842453398374
 30
0.0
 10
37.60452670140067
 20
-3.809148566040222
 30
0.0
 10
37.30784619420371
 20
-3.711612004453731
 30
0.0
 10
36.71059968521034
 20
-3.500708916513192
 30
0.0
 10
36.41138062420195
 20
-3.387478157294573
 30
0.0
 10
35.81745835029548
 20
-3.147701792059044
 30
0.0
 10
35.52202831305597
 20
-3.021096065033654
 30
0.0
 10
34.92522652336581
 20
-2.754723161172584
 30
0.0
 10
34.62582938506565
 20
-2.615218175746302
 30
0.0
 10
34.03076133703003
 20
-2.326269676790735
 30
0.0
 10
33.73598347584819
 20
-2.177005601861318
 30
0.0
 10
33.13984807554672
 20
-1.868760885594176
 30
0.0
 10
32.84038492883565
 20
-1.710079452545863
 30
0.0
 10
32.24439063148807
 20
-1.386632718944516
 30
0.0
 10
31.94966584850519
 20
-1.222217520577492
 30
0.0
 10
31.35441768220931
 20
-0.8878320613886385
 30
0.0
 10
31.05500067860299
 20
-0.7180540128879298
 30
0.0
 10
30.45830080191817
 20
-0.3765630435450139
 30
0.0
 10
30.16302993382698
 20
-0.2052432270369417
 30
0.0
 10
29.56888874887039
 20
0.1382286377044452
 30
0.0
 10
29.26962998211636
 20
0.3104565481114887
 30
0.0
 10
28.67244606986529
 20
0.6526023226260818
 30
0.0
 10
28.37603062658928
 20
0.8222319727258495
 30
0.0
 10
27.78321480405307
 20
1.15729006562371
 30
0.0
 10
27.48422616988008
 20
1.323198506504661
 30
0.0
 10
26.58805746405832
 20
1.811252295304579
 30
0.0
 10
25.99748522659971
 20
2.12270961296921
 30
0.0
 10
25.39999999999714
 20
2.414724898652926
 30
0.0
1001
PE_URL
1000

  0
SPLINE
  5
BB
330
1F
100
AcDbEntity
  8
0
  6
Continuous
 62
     1
370
    15
100
AcDbSpline
210
0.0
220
0.0
230
1.0
 70
     8
 71
     3
 72
    16
 73
    12
 74
     0
 42
0.000000001
 43
0.00000001
 40
0.0
 40
0.0
 40
0.0
 40
0.0
 40
0.1113539250151083
 40
0.2224825940696207
 40
0.3337549514136596
 40
0.4451793676291701
 40
0.5563261835478812
 40
0.6675349341502598
 40
0.7789897363022019
 40
0.8901728224318982
 40
1.0
 40
1.0
 40
1.0
 40
1.0
 10
39.68750000000002
 20
-3.600918725343063
 30
0.0
 10
39.24795760451008
 20
-3.511113040556983
 30
0.0
 10
38.36976195636468
 20
-3.33168333737683
 30
0.0
 10
37.05304663397628
 20
-2.94274949758762
 30
0.0
 10
35.73562847023632
 20
-2.47974539097116
 30
0.0
 10
34.41761759580911
 20
-1.947033682899636
 30
0.0
 10
33.10076479704481
 20
-1.359480070001936
 30
0.0
 10
31.78361347564805
 20
-0.7341313153489487
 30
0.0
 10
30.46547129662009
 20
-0.0907722630177963
 30
0.0
 10
29.15375618409859
 20
0.5567826244360896
 30
0.0
 10
28.28165083771651
 20
0.9709020985404206
 30
0.0
 10
27.84827336857704
 20
1.176691514180661
 30
0.0
1001
PE_URL
1000

  0
LINE
  5
BC
330
1F
100
AcDbEntity
  8
0
  6
Continuous
 62
     1
370
    15
100
AcDbLine
 10
39.68749999999994
 20
-4.33102543597872
 30
0.0
 11
39.68750000000001
 21
-3.600918725343062
 31
0.0
1001
PE_URL
1000

  0
LINE
  5
BD
330
1F
100
AcDbEntity
  8
0
  6
Continuous
 62
     1
370
    15
100
AcDbLine
 10
39.68750000000001
 20
-4.560205023884048
 30
0.0
 11
39.68749999999979
 21
-4.331025435978715
 31
0.0
1001
PE_URL
1000

  0
SPLINE
  5
BE
330
1F
100
AcDbEntity
  8
0
  6
Continuous
 62
     1
370
    15
100
AcDbSpline
210
0.0
220
0.0
230
1.0
 70
     8
 71
     3
 72
     8
 73
     4
 74
     0
 42
0.000000001
 43
0.00000001
 40
0.0
 40
0.0
 40
0.0
 40
0.0
 40
1.0
 40
1.0
 40
1.0
 40
1.0
 10
36.86316519072239
 20
1.276971749299899
 30
0.0
 10
36.70094136937939
 20
1.469180451266092
 30
0.0
 10
36.55632790825867
 20
1.653980469540664
 30
0.0
 10
36.43337337301809
 20
1.829668571368297
 30
0.0
1001
PE_URL
1000

  0
LINE
  5
BF
330
1F
100
AcDbEntity
  8
0
  6
Continuous
 62
     1
370
    15
100
AcDbLine
 10
36.49104274519772
 20
1.878058920305496
 30
0.0
 11
39.68750000000001
 21
0.0000000000000014
 31
0.0
1001
PE_URL
1000

  0
LINE
  5
C0
330
1F
100
AcDbEntity
  8
0
  6
Continuous
 62
     1
370
    15
100
AcDbLine
 10
39.68750000000001
 20
0.0000000000000014
 30
0.0
 11
39.68750000000001
 21
-1.219713508363425
 31
0.0
1001
PE_URL
1000

  0
SPLINE
  5
C1
330
1F
100
AcDbEntity
  8
0
  6
Continuous
 62
     1
370
    15
100
AcDbSpline
210
0.0
220
0.0
230
1.0
 70
     8
 71
     3
 72
    12
 73
     8
 74
     0
 42
0.000000001
 43
0.00000001
 40
0.0
 40
0.0
 40
0.0
 40
0.0
 40
0.4999999999999994
 40
0.4999999999999994
 40
0.7499999999999997
 40
0.7499999999999997
 40
1.0
 40
1.0
 40
1.0
 40
1.0
 10
39.68750000000002
 20
-1.219713508363425
 30
0.0
 10
39.19859424732441
 20
-0.835350181976909
 30
0.0
 10
38.71785707381374
 20
-0.435225068253027
 30
0.0
 10
38.00931472590523
 20
0.1892044967690502
 30
0.0
 10
37.77526538806164
 20
0.4014604419140258
 30
0.0
 10
37.3119532843083
 20
0.8352083238462336
 30
0.0
 10
37.08395237556728
 20
1.055567716861822
 30
0.0
 10
36.86316519072238
 20
1.276971749299903
 30
0.0
1001
PE_URL
1000

  0
SPLINE
  5
C2
330
1F
100
AcDbEntity
  8
0
  6
Continuous
 62
     1
370
    15
100
AcDbSpline
210
0.0
220
0.0
230
1.0
 70
     8
 71
     3
 72
    16
 73
    12
 74
     0
 42
0.000000001
 43
0.00000001
 40
0.0
 40
0.0
 40
0.0
 40
0.0
 40
0.1071184943714927
 40
0.2324883246233074
 40
0.3575414502840301
 40
0.4826652113874293
 40
0.6080697013084245
 40
0.7331642187991511
 40
0.8582359973925467
 40
0.9739803232087719
 40
0.9999999999999999
 40
0.9999999999999999
 40
0.9999999999999999
 40
0.9999999999999999
 10
36.8631651907167
 20
1.276971749302355
 30
0.0
 10
36.48752090640779
 20
1.437114120807102
 30
0.0
 10
35.67222835748134
 20
1.7846846488545
 30
0.0
 10
34.41760175152536
 20
2.26718568958524
 30
0.0
 10
33.10073225763063
 20
2.715069048539382
 30
0.0
 10
31.78354245453175
 20
3.08679265114998
 30
0.0
 10
30.46547101050373
 20
3.371903284880498
 30
0.0
 10
29.14837727720511
 20
3.566490121346167
 30
0.0
 10
27.86530662161608
 20
3.651722014909504
 30
0.0
 10
26.92882141402019
 20
3.665200521199819
 30
0.0
 10
26.43168134672475
 20
3.625841915685406
 30
0.0
 10
26.3404351655146
 20
3.618617950675938
 30
0.0
1001
PE_URL
1000

  0
SPLINE
  5
C3
330
1F
100
AcDbEntity
  8
0
  6
Continuous
 62
     1
370
    15
100
AcDbSpline
210
0.0
220
0.0
230
1.0
 70
    24
 71
     3
 72
    10
 73
     6
 74
     0
 42
0.000000001
 43
0.00000001
 40
0.0
 40
0.0
 40
0.0
 40
0.0
 40
0.5
 40
0.5
 40
1.0
 40
1.0
 40
1.0
 40
1.0
 10
39.68750000000001
 20
-3.600918725343062
 30
0.0
 10
39.68750000000001
 20
-3.324880230125179
 30
0.0
 10
39.68750000000002
 20
-2.976095007016868
 30
0.0
 10
39.68750000000001
 20
-2.165202930123651
 30
0.0
 10
39.68750000000001
 20
-1.703798501801369
 30
0.0
 10
39.68750000000001
 20
-1.219713508363572
 30
0.0
1001
PE_URL
1000

  0
SPLINE
  5
C4
330
1F
100
AcDbEntity
  8
외형선
  6
Continuous
370
    15
100
AcDbSpline
210
0.0
220
0.0
230
1.0
 70
    24
 71
     3
 72
    12
 73
     8
 74
     0
 42
0.000000001
 43
0.00000001
 40
0.0
 40
0.0
 40
0.0
 40
0.0
 40
0.1050537290971206
 40
0.3586089787645234
 40
0.619517347849334
 40
0.8480624873423659
 40
1.0
 40
1.0
 40
1.0
 40
1.0
 10
25.40000000000001
 20
3.574527569547022
 30
0.0
 10
25.40000000000001
 20
3.570744961618862
 30
0.0
 10
25.40000000000001
 20
3.557832738722613
 30
0.0
 10
25.40000000000001
 20
3.41813647981184
 30
0.0
 10
25.40000000000001
 20
3.131184515450565
 30
0.0
 10
25.40000000000001
 20
2.789757856602093
 30
0.0
 10
25.40000000000001
 20
2.521748596403707
 30
0.0
 10
25.40000000000001
 20
2.414724898651436
 30
0.0
  0
SPLINE
  5
C5
330
1F
100
AcDbEntity
  8
0
  6
Continuous
 62
     1
370
    15
100
AcDbSpline
210
0.0
220
0.0
230
1.0
 70
    24
 71
     3
 72
     8
 73
     4
 74
     0
 42
0.000000001
 43
0.00000001
 40
0.0
 40
0.0
 40
0.0
 40
0.0
 40
1.0
 40
1.0
 40
1.0
 40
1.0
 10
36.90957308129596
 20
2.229247570961949
 30
0.0
 10
36.75962211934997
 20
2.103423774098388
 30
0.0
 10
36.59969256987596
 20
1.969226948120444
 30
0.0
 10
36.43337337301327
 20
1.829668571375258
 30
0.0
1001
PE_URL
1000

  0
LINE
  5
C6
330
1F
100
AcDbEntity
  8
0
  6
Continuous
 62
     1
370
    15
100
AcDbLine
 10
39.68750000000001
 20
3.194843749999999
 30
0.0
 11
37.98792822693988
 21
3.109433975359497
 31
0.0
1001
PE_URL
1000

  0
SPLINE
  5
C7
330
1F
100
AcDbEntity
  8
0
  6
Continuous
 62
     1
370
    15
100
AcDbSpline
210
0.0
220
0.0
230
1.0
 70
     8
 71
     3
 72
    10
 73
     6
 74
     0
 42
0.000000001
 43
0.00000001
 40
0.0
 40
0.0
 40
0.0
 40
0.0
 40
0.5
 40
0.5
 40
1.0
 40
1.0
 40
1.0
 40
1.0
 10
39.68750000000001
 20
3.194843750000001
 30
0.0
 10
39.21795751998106
 20
3.067446498433329
 30
0.0
 10
38.75126907322858
 20
2.924530286886203
 30
0.0
 10
37.82417229390384
 20
2.604549403863596
 30
0.0
 10
37.36402276050971
 20
2.428173793620549
 30
0.0
 10
36.90957308129498
 20
2.229247570962608
 30
0.0
1001
PE_URL
1000

  0
SPLINE
  5
C8
330
1F
100
AcDbEntity
  8
0
  6
Continuous
 62
     1
370
    15
100
AcDbSpline
210
0.0
220
0.0
230
1.0
 70
     8
 71
     3
 72
    11
 73
     7
 74
     0
 42
0.000000001
 43
0.00000001
 40
0.0
 40
0.0
 40
0.0
 40
0.0
 40
0.1888227748339923
 40
0.4736316630808456
 40
0.7372004163786525
 40
1.0
 40
1.0
 40
1.0
 40
1.0
 10
30.02077481952149
 20
-3.421626131259417
 30
0.0
 10
29.72994800895579
 20
-3.467713185166332
 30
0.0
 10
29.00045557311044
 20
-3.583315172308081
 30
0.0
 10
27.86528657312662
 20
-3.653329255776147
 30
0.0
 10
26.6152154355879
 20
-3.657425863766165
 30
0.0
 10
25.80467700494467
 20
-3.58547419130724
 30
0.0
 10
25.40000000000002
 20
-3.549550925721511
 30
0.0
1001
PE_URL
1000

  0
SPLINE
  5
C9
330
1F
100
AcDbEntity
  8
외형선
  6
Continuous
370
    15
100
AcDbSpline
210
0.0
220
0.0
230
1.0
 70
    24
 71
     3
 72
    14
 73
    10
 74
     0
 42
0.000000001
 43
0.00000001
 40
0.0
 40
0.0
 40
0.0
 40
0.0
 40
0.25
 40
0.25
 40
0.5
 40
0.5
 40
0.75
 40
0.75
 40
1.0
 40
1.0
 40
1.0
 40
1.0
 10
25.40000000000002
 20
0.7487846884939244
 30
0.0
 10
25.40000000000002
 20
0.3445774337332024
 30
0.0
 10
25.40000000000002
 20
-0.073701697345021
 30
0.0
 10
25.40000000000002
 20
-0.9003312801665061
 30
0.0
 10
25.40000000000002
 20
-1.308260568406554
 30
0.0
 10
25.40000000000002
 20
-2.072198732839917
 30
0.0
 10
25.40000000000002
 20
-2.427800550840324
 30
0.0
 10
25.40000000000002
 20
-3.055045564705007
 30
0.0
 10
25.40000000000002
 20
-3.326547643451461
 30
0.0
 10
25.40000000000002
 20
-3.549550925721511
 30
0.0
  0
LINE
  5
CA
330
1F
100
AcDbEntity
  8
0
  6
Continuous
 62
     1
370
    15
100
AcDbLine
 10
39.68750000000001
 20
0.0000000000000014
 30
0.0
 11
39.68750000000001
 21
3.194843749999999
 31
0.0
1001
PE_URL
1000

  0
SPLINE
  5
CB
330
1F
100
AcDbEntity
  8
0
  6
Continuous
 62
     1
370
    15
100
AcDbSpline
210
0.0
220
0.0
230
1.0
 70
     8
 71
     3
 72
    11
 73
     7
 74
     0
 42
0.000000001
 43
0.00000001
 40
0.0
 40
0.0
 40
0.0
 40
0.0
 40
0.2495884032511622
 40
0.4995825863754185
 40
0.7496786501299415
 40
1.0
 40
1.0
 40
1.0
 40
1.0
 10
33.40483108461374
 20
3.059899063986615
 30
0.0
 10
33.92749090547381
 20
3.272465624813784
 30
0.0
 10
34.97366028553522
 20
3.697944336371151
 30
0.0
 10
36.54348265904045
 20
4.15548964519703
 30
0.0
 10
38.1149505527145
 20
4.47109065562892
 30
0.0
 10
39.16315955093416
 20
4.53049132047728
 30
0.0
 10
39.68750000000002
 20
4.560205023884046
 30
0.0
1001
PE_URL
1000

  0
SPLINE
  5
CC
330
1F
100
AcDbEntity
  8
0
  6
Continuous
 62
     1
370
    15
100
AcDbSpline
210
0.0
220
0.0
230
1.0
 70
    24
 71
     3
 72
    10
 73
     6
 74
     0
 42
0.000000001
 43
0.00000001
 40
0.0
 40
0.0
 40
0.0
 40
0.0
 40
0.5000000000000004
 40
0.5000000000000004
 40
1.0
 40
1.0
 40
1.0
 40
1.0
 10
39.68750000000001
 20
3.194843749999999
 30
0.0
 10
39.68750000000002
 20
3.38850722208463
 30
0.0
 10
39.68750000000001
 20
3.613562111813825
 30
0.0
 10
39.68750000000002
 20
4.085726664322904
 30
0.0
 10
39.68750000000002
 20
4.331630478087658
 30
0.0
 10
39.68750000000002
 20
4.560205023884046
 30
0.0
1001
PE_URL
1000

  0
LINE
  5
CD
330
1F
100
AcDbEntity
  8
중심선
 62
     1
100
AcDbLine
 10
-42.68750000000001
 20
-0.0000000000000052
 30
0.0
 11
42.6875
 21
0.0000000000000052
 31
0.0
  0
LINE
  5
CE
330
1F
100
AcDbEntity
  8
참조1
100
AcDbLine
 10
-0.0000000000000018
 20
-0.0000000000000048
 30
0.0
 11
0.0000000000000036
 21
-40.00000000000001
 31
0.0
  0
LINE
  5
CF
330
1F
100
AcDbEntity
  8
참조1
100
AcDbLine
 10
0.0000000000000036
 20
-40.00000000000001
 30
0.0
 11
-14.46571559669921
 21
-40.0
 31
0.0
  0
CIRCLE
  5
D0
330
1F
100
AcDbEntity
  8
해칭선
100
AcDbCircle
 10
0.0
 20
0.0
 30
0.0
 40
3.000000000000001
  0
INSERT
  5
D1
330
1F
100
AcDbEntity
  8
0
  6
Continuous
 62
     7
100
AcDbBlockReference
 66
     1
  2
블럭10
 10
-13.94027293212521
 20
-52.04717430164393
 30
0.0
  0
ATTRIB
  5
D2
330
D1
100
AcDbEntity
  8
FORMAT
 62
     2
100
AcDbText
 10
-23.12156822086649
 20
-49.97180738881174
 30
0.0
 40
4.233333333333333
  1
E2050023 [ 2 FLUTE ]
 41
0.75
  7
SLDTEXTSTYLE0
 11
-23.12156822086649
 21
-52.08847405547841
 31
0.0
100
AcDbAttribute
  2
AUTOATTR0
 70
     0
 74
     1
  0
SEQEND
  5
D3
330
D1
100
AcDbEntity
  8
0
  6
Continuous
 62
     7
  0
HATCH
  5
D4
330
1F
100
AcDbEntity
  8
중심선
100
AcDbHatch
 10
0.0
 20
0.0
 30
0.0
210
0.0
220
0.0
230
1.0
  2
SOLID
 70
     1
 71
     0
 91
        1
 92
        0
 93
        4
 72
     1
 10
-8.225363627744372
 20
-35.8
 11
-11.67163887158165
 21
-35.8
 72
     1
 10
-11.67163887158165
 20
-35.8
 11
-13.79986873078568
 21
-38.3363255805726
 72
     1
 10
-13.79986873078568
 20
-38.3363255805726
 11
-10.35356040183525
 21
-38.33628615127011
 72
     1
 10
-10.35356040183525
 20
-38.33628615127011
 11
-8.225363627744372
 21
-35.8
 97
        0
 75
     0
 76
     1
 98
        1
 10
14.99421167873052
 20
-0.001074928723894
  0
HATCH
  5
D5
330
1F
100
AcDbEntity
  8
중심선
100
AcDbHatch
 10
0.0
 20
0.0
 30
0.0
210
0.0
220
0.0
230
1.0
  2
SOLID
 70
     1
 71
     0
 91
        1
 92
        0
 93
        4
 72
     1
 10
-3.212599636708418
 20
-35.80000000000003
 11
-6.658874880545675
 21
-35.8
 72
     1
 10
-6.658874880545675
 20
-35.8
 11
-11.19001288890309
 21
-41.20000000000002
 72
     1
 10
-11.19001288890309
 20
-41.20000000000002
 11
-7.743737645065806
 21
-41.20000000000002
 72
     1
 10
-7.743737645065806
 20
-41.20000000000002
 11
-3.212599636708418
 21
-35.80000000000003
 97
        0
 75
     0
 76
     1
 98
        1
 10
14.99421167873052
 20
-0.001074928723894
  0
HATCH
  5
D6
330
1F
100
AcDbEntity
  8
중심선
100
AcDbHatch
 10
0.0
 20
0.0
 30
0.0
210
0.0
220
0.0
230
1.0
  2
SOLID
 70
     1
 71
     0
 91
        1
 92
        0
 93
        4
 72
     1
 10
1.800164354327476
 20
-35.8
 11
-1.646110889509639
 21
-35.8
 72
     1
 10
-1.646110889509639
 20
-35.8
 11
-8.69454779139889
 21
-44.20000000000002
 72
     1
 10
-8.69454779139889
 20
-44.20000000000002
 11
-5.248272547561605
 21
-44.20000000000002
 72
     1
 10
-5.248272547561605
 20
-44.20000000000002
 11
1.800164354327476
 21
-35.8
 97
        0
 75
     0
 76
     1
 98
        1
 10
14.99421167873052
 20
-0.001074928723894
  0
HATCH
  5
D7
330
1F
100
AcDbEntity
  8
중심선
100
AcDbHatch
 10
0.0
 20
0.0
 30
0.0
210
0.0
220
0.0
230
1.0
  2
SOLID
 70
     1
 71
     0
 91
        1
 92
        0
 93
        6
 72
     3
 10
6.600054785339676
 20
-40.00000000005127
 11
3.960054785062283
 21
1.540882976769353E-10
 40
0.3939339440162628
 50
17.09539180608436
 51
320.0019657685077
 73
     0
 72
     1
 10
8.283054441040242
 20
-38.5878940046383
 11
10.58835631474131
 21
-36.65356729459035
 72
     3
 10
6.600054785286829
 20
-40.00000000000015
 11
6.600054785286829
 21
-1.278976924368180E-13
 40
0.636358354079598
 50
39.99873849337431
 51
368.4976242363724
 73
     1
 72
     1
 10
13.02538727718744
 20
-39.03999999993002
 11
5.280122092122751
 21
-39.03999999993
 72
     1
 10
5.280122092122751
 20
-39.03999999993
 11
5.280097047676817
 21
-40.95999999992991
 72
     1
 10
5.280097047676817
 20
-40.95999999992991
 11
9.721476817148854
 21
-40.95999999992988
 97
        0
 75
     0
 76
     1
 98
        1
 10
14.99421167873052
 20
-0.001074928723894
  0
DIMENSION
  5
D8
330
1F
100
AcDbEntity
  8
치수문자_일반주서
100
AcDbDimension
  2
_D
 10
-49.68749999999996
 20
-4.762500000000102
 30
0.0
 11
-49.68750000000006
 21
24.49149999999996
 31
0.0
 70
   160
  1
%%c<>
 71
     2
 42
9.524999999999991
 52
-270.0
  3
SLDDIMSTYLE0
100
AcDbAlignedDimension
 13
-23.65942116787308
 23
4.76249999999999
 33
0.0
 14
-23.6594211678731
 24
-4.762500000000001
 34
0.0
 50
90.0000000000002
100
AcDbRotatedDimension
1001
PE_URL
1000

1001
ACAD
1000
DSTYLE
1002
{
1070
   171
1070
     8
1070
   273
1070
     7
1002
}
  0
DIMENSION
  5
ED
330
1F
100
AcDbEntity
  8
치수문자_일반주서
100
AcDbDimension
  2
_D_1
 10
79.48060827910992
 20
4.560205023884194
 30
0.0
 11
79.48060827910984
 21
26.47670502388419
 31
0.0
 70
   160
  1
%%c<>
 71
     2
 42
9.120410047768093
 52
-270.0
  3
SLDDIMSTYLE0
100
AcDbAlignedDimension
 13
39.68750000000001
 23
-4.560205023884048
 33
0.0
 14
39.68750000000001
 24
4.560205023884046
 34
0.0
 50
90.0000000000002
100
AcDbRotatedDimension
1001
PE_URL
1000

1001
ACAD
1000
DSTYLE
1002
{
1070
   171
1070
     8
1070
   273
1070
     7
1002
}
  0
DIMENSION
  5
101
330
1F
100
AcDbEntity
  8
치수문자_일반주서
100
AcDbDimension
  2
_D_2
 10
25.40000000000002
 20
14.7625
 30
0.0
 11
59.85400000000001
 21
14.7625
 31
0.0
 70
   160
  1
<>
 71
     2
 42
14.28749999999999
  3
SLDDIMSTYLE0
100
AcDbAlignedDimension
 13
39.68750000000001
 23
4.560205023884046
 33
0.0
 14
25.40000000000002
 24
3.586100097437003
 34
0.0
 50
0.0000000000000142
100
AcDbRotatedDimension
1001
PE_URL
1000

1001
ACAD
1000
DSTYLE
1002
{
1070
   171
1070
     8
1070
   273
1070
     7
1002
}
  0
DIMENSION
  5
115
330
1F
100
AcDbEntity
  8
치수문자_일반주서
100
AcDbDimension
  2
_D_3
 10
39.68750000000001
 20
24.7625
 30
0.0
 11
0.0000000000000071
 21
24.7625
 31
0.0
 70
   160
  1
<>
 71
     2
 42
79.37500000000001
  3
SLDDIMSTYLE0
100
AcDbAlignedDimension
 13
-39.6875
 23
4.531557575395894
 33
0.0
 14
39.68750000000001
 24
4.560205023884046
 34
0.0
100
AcDbRotatedDimension
1001
PE_URL
1000

1001
ACAD
1000
DSTYLE
1002
{
1070
   171
1070
     8
1070
   273
1070
     7
1002
}
  0
LINE
  5
128
330
1F
100
AcDbEntity
  8
참조1
100
AcDbLine
 10
83.50662503295506
 20
7.440000000000001
 30
0.0
 11
83.50662503295506
 21
-7.440000000000003
 31
0.0
  0
LINE
  5
129
330
1F
100
AcDbEntity
  8
참조1
100
AcDbLine
 10
96.20662503295506
 20
5.440000000000001
 30
0.0
 11
83.50662503295506
 21
5.440000000000001
 31
0.0
  0
SOLID
  5
12A
330
1F
100
AcDbEntity
  8
참조1
100
AcDbTrace
 10
83.50662503295506
 20
5.440000000000001
 30
0.0
 11
89.85662503295505
 21
4.424000000000001
 31
0.0
 12
89.85662503295505
 22
6.456000000000001
 32
0.0
 13
89.85662503295505
 23
6.456000000000001
 33
0.0
  0
LINE
  5
12B
330
1F
100
AcDbEntity
  8
참조1
100
AcDbLine
 10
96.20662503295506
 20
-5.440000000000003
 30
0.0
 11
83.50662503295506
 21
-5.440000000000003
 31
0.0
  0
SOLID
  5
12C
330
1F
100
AcDbEntity
  8
참조1
100
AcDbTrace
 10
83.50662503295506
 20
-5.440000000000003
 30
0.0
 11
89.85662503295505
 21
-6.456000000000003
 31
0.0
 12
89.85662503295505
 22
-4.424000000000003
 32
0.0
 13
89.85662503295505
 23
-4.424000000000003
 33
0.0
  0
MTEXT
  5
12D
330
1F
100
AcDbEntity
  8
참조1
100
AcDbMText
 10
92.89097516558105
 20
11.01029177718833
 30
0.0
 40
3.5
 41
0.0
 71
     1
 72
     1
  1
A
  7
SLDTEXTSTYLE0
 73
     1
 44
1.0
  0
MTEXT
  5
12E
330
1F
100
AcDbEntity
  8
참조1
100
AcDbMText
 10
92.89097516558105
 20
0.1302917771883252
 30
0.0
 40
3.5
 41
0.0
 71
     1
 72
     1
  1
A
  7
SLDTEXTSTYLE0
 73
     1
 44
1.0
  0
INSERT
  5
135
330
1F
100
AcDbEntity
  8
해칭선
100
AcDbBlockReference
  2
SW_DOWELSYMBOL_0
 10
0.0
 20
0.0
 30
0.0
  0
LINE
  5
1DD
330
1F
100
AcDbEntity
  8
외형선
  6
Continuous
370
    15
100
AcDbLine
 10
-3.568700000000074
 20
3.492500000000014
 30
0.0
 11
3.568700000000053
 21
3.492500000000014
 31
0.0
1001
PE_URL
1000

  0
LINE
  5
1DE
330
1F
100
AcDbEntity
  8
외형선
  6
Continuous
370
    15
100
AcDbLine
 10
-3.568700000000074
 20
3.492500000000014
 30
0.0
 11
-4.838700000000056
 21
4.762499999999996
 31
0.0
1001
PE_URL
1000

  0
LINE
  5
1DF
330
1F
100
AcDbEntity
  8
외형선
  6
Continuous
370
    15
100
AcDbLine
 10
3.568700000000053
 20
3.492500000000014
 30
0.0
 11
4.838700000000149
 21
4.762499999999996
 31
0.0
1001
PE_URL
1000

  0
LINE
  5
21E
330
1F
100
AcDbEntity
  8
외형선
  6
Continuous
370
    15
100
AcDbLine
 10
-23.65942116787308
 20
4.76249999999999
 30
0.0
 11
-23.88011721757776
 21
4.703364671708885
 31
0.0
  0
LINE
  5
21F
330
1F
100
AcDbEntity
  8
외형선
  6
Continuous
370
    15
100
AcDbLine
 10
-23.88011721757778
 20
-4.703364671708899
 30
0.0
 11
-23.6594211678731
 21
-4.762500000000008
 31
0.0
  0
SPLINE
  5
220
330
1F
100
AcDbEntity
  8
외형선
  6
Continuous
370
    15
100
AcDbSpline
210
0.0
220
0.0
230
1.0
 70
     8
 71
     3
 72
    20
 73
    16
 74
     0
 42
0.000000001
 43
0.00000001
 40
0.0
 40
0.0
 40
0.0
 40
0.0
 40
0.0061724360765253
 40
0.0126400355799096
 40
0.0195670210827545
 40
0.027312750372796
 40
0.0363862730909122
 40
0.0473550279853791
 40
0.0770481703270718
 40
0.1201004633103504
 40
0.1789659279895405
 40
0.3445509808531197
 40
0.5557444487547257
 40
0.7932923460535237
 40
1.0
 40
1.0
 40
1.0
 40
1.0
 10
-24.38426135680481
 20
-3.565745510235081
 30
0.0
 10
-24.38324405158075
 20
-3.56583536637387
 30
0.0
 10
-24.3811607940033
 20
-3.566019375536095
 30
0.0
 10
-24.37648464533967
 20
-3.567733431982569
 30
0.0
 10
-24.37031903880654
 20
-3.570789052235357
 30
0.0
 10
-24.36239437478628
 20
-3.575514019271486
 30
0.0
 10
-24.35264877183096
 20
-3.582041329901452
 30
0.0
 10
-24.33528483400341
 20
-3.594678595670052
 30
0.0
 10
-24.30766446059054
 20
-3.616858670997962
 30
0.0
 10
-24.26868069306575
 20
-3.650494647404633
 30
0.0
 10
-24.19752384874913
 20
-3.714937658247175
 30
0.0
 10
-24.10115339293577
 20
-3.80627874828801
 30
0.0
 10
-23.9958115605558
 20
-3.903016879247462
 30
0.0
 10
-23.92386463574363
 20
-3.957895489313989
 30
0.0
 10
-23.90612933953115
 20
-3.949617057059241
 30
0.0
 10
-23.89787728401524
 20
-3.945765185529583
 30
0.0
  0
LINE
  5
221
330
1F
100
AcDbEntity
  8
외형선
  6
Continuous
370
    15
100
AcDbLine
 10
-25.40000000000004
 20
-3.582175404166028
 30
0.0
 11
-24.38489421434852
 21
-3.56598955426715
 31
0.0
  0
LINE
  5
222
330
1F
100
AcDbEntity
  8
외형선
  6
Continuous
370
    15
100
AcDbLine
 10
-23.88016205780756
 20
3.564428120732014
 30
0.0
 11
-25.40000000000004
 21
3.582175404166017
 31
0.0
  0
SPLINE
  5
223
330
1F
100
AcDbEntity
  8
0
  6
Continuous
 62
     1
370
    15
100
AcDbSpline
210
0.0
220
0.0
230
1.0
 70
     8
 71
     3
 72
     9
 73
     5
 74
     0
 42
0.000000001
 43
0.00000001
 40
0.0
 40
0.0
 40
0.0
 40
0.0
 40
0.4743927037319213
 40
0.9999999999999999
 40
0.9999999999999999
 40
0.9999999999999999
 40
0.9999999999999999
 10
-27.86410492834506
 20
-1.169448453707771
 30
0.0
 10
-27.66304542060203
 20
-1.26507920353359
 30
0.0
 10
-27.23922037826612
 20
-1.466664828846783
 30
0.0
 10
-26.8176587446429
 20
-1.687052357206566
 30
0.0
 10
-26.59608287418384
 20
-1.802889650118955
 30
0.0
1001
PE_URL
1000

  0
LINE
  5
224
330
1F
100
AcDbEntity
  8
0
  6
Continuous
 62
     1
370
    15
100
AcDbLine
 10
-26.34150677444271
 20
-3.626097325786036
 30
0.0
 11
-25.40000000000004
 21
-3.582175404166028
 31
0.0
1001
PE_URL
1000

  0
SPLINE
  5
225
330
1F
100
AcDbEntity
  8
0
  6
Continuous
 62
     1
370
    15
100
AcDbSpline
210
0.0
220
0.0
230
1.0
 70
     8
 71
     3
 72
    25
 73
    21
 74
     0
 42
0.000000001
 43
0.00000001
 40
0.0
 40
0.0
 40
0.0
 40
0.0
 40
0.096685613782989
 40
0.1783151589036246
 40
0.2440465851503459
 40
0.2989144047175933
 40
0.3346259751557843
 40
0.3664805350847938
 40
0.4012145114780035
 40
0.4387713277599671
 40
0.4790500267602348
 40
0.5219631612268452
 40
0.567532013241741
 40
0.6279732387798596
 40
0.6726655745416817
 40
0.7153560775828307
 40
0.7632374865655428
 40
0.821423524315479
 40
0.900210127350055
 40
1.0
 40
1.0
 40
1.0
 40
1.0
 10
-37.99076603916573
 20
-3.121597068808116
 30
0.0
 10
-37.73206126551605
 20
-3.101018325262631
 30
0.0
 10
-37.25493772026958
 20
-3.06306539946763
 30
0.0
 10
-36.60368298200385
 20
-3.030266682710176
 30
0.0
 10
-36.06544120609323
 20
-3.012293686077816
 30
0.0
 10
-35.65046400395632
 20
-3.005010596216456
 30
0.0
 10
-35.32659197804605
 20
-3.003108513145419
 30
0.0
 10
-35.05570411567571
 20
-3.003843541766587
 30
0.0
 10
-34.77914972586989
 20
-3.006936393910431
 30
0.0
 10
-34.47964120577247
 20
-3.013057926804111
 30
0.0
 10
-34.15847008684526
 20
-3.022828929489902
 30
0.0
 10
-33.81632173144264
 20
-3.036961822648843
 30
0.0
 10
-33.42045662871531
 20
-3.05766886997638
 30
0.0
 10
-33.01937492139088
 20
-3.083984986719086
 30
0.0
 10
-32.6343973093249
 20
-3.113918638728061
 30
0.0
 10
-32.27080081112933
 20
-3.146315858390841
 30
0.0
 10
-31.86412932027432
 20
-3.187248948446387
 30
0.0
 10
-31.35854218287005
 20
-3.242566270912745
 30
0.0
 10
-30.73362671648278
 20
-3.323200853335534
 30
0.0
 10
-30.27519078159624
 20
-3.393496830981045
 30
0.0
 10
-30.01901334621385
 20
-3.432778750002905
 30
0.0
1001
PE_URL
1000

  0
SPLINE
  5
226
330
1F
100
AcDbEntity
  8
0
  6
Continuous
 62
     1
370
    15
100
AcDbSpline
210
0.0
220
0.0
230
1.0
 70
     8
 71
     3
 72
    14
 73
    10
 74
     0
 42
0.000000001
 43
0.00000001
 40
0.0
 40
0.0
 40
0.0
 40
0.0
 40
0.1497603537127232
 40
0.2884822422541309
 40
0.4596677963971167
 40
0.6225526706083917
 40
0.7759881174780104
 40
0.9066752637659413
 40
1.0
 40
1.0
 40
1.0
 40
1.0
 10
-30.01901334621385
 20
3.432778750002905
 30
0.0
 10
-30.15169816973681
 20
3.410200725628766
 30
0.0
 10
-30.40728794669756
 20
3.366708847200014
 30
0.0
 10
-30.94182771662225
 20
3.286399774552965
 30
0.0
 10
-31.50297533204603
 20
3.226655936728072
 30
0.0
 10
-32.08131475162897
 20
3.163859782369498
 30
0.0
 10
-32.60210062171751
 20
3.116243694361852
 30
0.0
 10
-33.03896988804311
 20
3.082363288730612
 30
0.0
 10
-33.29700709773725
 20
3.066416857687388
 30
0.0
 10
-33.40450699578804
 20
3.059773475853225
 30
0.0
1001
PE_URL
1000

  0
LINE
  5
227
330
1F
100
AcDbEntity
  8
0
  6
Continuous
 62
     1
370
    15
100
AcDbLine
 10
-25.40000000000003
 20
3.582175404166016
 30
0.0
 11
-26.3415067744427
 21
3.626097325786029
 31
0.0
1001
PE_URL
1000

  0
LINE
  5
228
330
1F
100
AcDbEntity
  8
외형선
  6
Continuous
370
    15
100
AcDbLine
 10
-23.6594211678731
 20
-4.762500000000008
 30
0.0
 11
-23.65942116787308
 21
4.762499999999994
 31
0.0
  0
SPLINE
  5
229
330
1F
100
AcDbEntity
  8
외형선
  6
Continuous
370
    15
100
AcDbSpline
210
0.0
220
0.0
230
1.0
 70
     8
 71
     3
 72
     8
 73
     4
 74
     0
 42
0.000000001
 43
0.00000001
 40
0.0
 40
0.0
 40
0.0
 40
0.0
 40
0.0005906419268212
 40
0.0005906419268212
 40
0.0005906419268212
 40
0.0005906419268212
 10
-24.40000000000004
 20
-2.884016329986979
 30
0.0
 10
-24.22651867435759
 20
-2.975902401672085
 30
0.0
 10
-24.05322881030583
 20
-3.067742693148537
 30
0.0
 10
-23.88024002006712
 20
-3.159462288801089
 30
0.0
  0
LINE
  5
22A
330
1F
100
AcDbEntity
  8
외형선
  6
Continuous
370
    15
100
AcDbLine
 10
-24.40000000000004
 20
-2.884016329987174
 30
0.0
 11
-24.40000000000004
 21
-1.794885897839373
 31
0.0
  0
SPLINE
  5
22B
330
1F
100
AcDbEntity
  8
외형선
  6
Continuous
370
    15
100
AcDbSpline
210
0.0
220
0.0
230
1.0
 70
     8
 71
     3
 72
     8
 73
     4
 74
     0
 42
0.000000001
 43
0.00000001
 40
0.0
 40
0.0
 40
0.0
 40
0.0
 40
0.0005968345189088
 40
0.0005968345189088
 40
0.0005968345189088
 40
0.0005968345189088
 10
-23.88011721757777
 20
-2.087448889880937
 30
0.0
 10
-24.05362004764421
 20
-1.990175526609386
 30
0.0
 10
-24.2269391825982
 20
-1.892633522084504
 30
0.0
 10
-24.39999999999926
 20
-1.794885897839704
 30
0.0
  0
LINE
  5
22C
330
1F
100
AcDbEntity
  8
외형선
  6
Continuous
370
    15
100
AcDbLine
 10
-23.88011721757776
 20
4.703364671708885
 30
0.0
 11
-23.88011721757777
 21
-2.087501890048165
 31
0.0
  0
LINE
  5
22D
330
1F
100
AcDbEntity
  8
외형선
  6
Continuous
370
    15
100
AcDbLine
 10
-23.88011721757777
 20
-3.159577147642766
 30
0.0
 11
-23.88011721757778
 21
-4.703364671708899
 31
0.0
  0
SPLINE
  5
22E
330
1F
100
AcDbEntity
  8
외형선
  6
Continuous
370
    15
100
AcDbSpline
210
0.0
220
0.0
230
1.0
 70
    24
 71
     3
 72
     9
 73
     5
 74
     0
 42
0.000000001
 43
0.00000001
 40
0.0
 40
0.0
 40
0.0
 40
0.0
 40
0.6365427730015408
 40
1.0
 40
1.0
 40
1.0
 40
1.0
 10
-25.40000000000003
 20
-1.251170532527608
 30
0.0
 10
-25.40000000000003
 20
-1.251838865829177
 30
0.0
 10
-25.40000000000003
 20
-1.252888808315243
 30
0.0
 10
-25.40000000000003
 20
-1.247891226043782
 30
0.0
 10
-25.40000000000003
 20
-1.246074818649697
 30
0.0
  0
SPLINE
  5
22F
330
1F
100
AcDbEntity
  8
외형선
  6
Continuous
370
    15
100
AcDbSpline
210
0.0
220
0.0
230
1.0
 70
    24
 71
     3
 72
    10
 73
     6
 74
     0
 42
0.000000001
 43
0.00000001
 40
0.0
 40
0.0
 40
0.0
 40
0.0
 40
0.2278990008473019
 40
0.5610934978883145
 40
0.9999999999999999
 40
0.9999999999999999
 40
0.9999999999999999
 40
0.9999999999999999
 10
-25.40000000000003
 20
-1.191113310436256
 30
0.0
 10
-25.40000000000003
 20
-1.173298736261662
 30
0.0
 10
-25.40000000000003
 20
-1.12943877329627
 30
0.0
 10
-25.40000000000004
 20
-0.9907742735982925
 30
0.0
 10
-25.40000000000003
 20
-0.83648918432465
 30
0.0
 10
-25.40000000000003
 20
-0.7487846884939326
 30
0.0
  0
SPLINE
  5
230
330
1F
100
AcDbEntity
  8
외형선
  6
Continuous
370
    15
100
AcDbSpline
210
0.0
220
0.0
230
1.0
 70
     8
 71
     3
 72
    10
 73
     6
 74
     0
 42
0.000000001
 43
0.00000001
 40
0.0
 40
0.0
 40
0.0
 40
0.0
 40
0.5
 40
0.5
 40
1.0
 40
1.0
 40
1.0
 40
1.0
 10
-25.40000000000003
 20
-0.7487846884939326
 30
0.0
 10
-25.14558419128396
 20
-0.8484999585562729
 30
0.0
 10
-24.8910772470953
 20
-0.9470660579271399
 30
0.0
 10
-24.38540103252117
 20
-1.140551348503143
 30
0.0
 10
-24.13400337858441
 20
-1.235508092773342
 30
0.0
 10
-23.88014680141287
 20
-1.328720192520072
 30
0.0
  0
SPLINE
  5
231
330
1F
100
AcDbEntity
  8
외형선
  6
Continuous
370
    15
100
AcDbSpline
210
0.0
220
0.0
230
1.0
 70
     8
 71
     3
 72
     8
 73
     4
 74
     0
 42
0.000000001
 43
0.00000001
 40
0.0
 40
0.0
 40
0.0
 40
0.0
 40
1.0
 40
1.0
 40
1.0
 40
1.0
 10
-25.40000000000003
 20
-1.251170532527608
 30
0.0
 10
-25.06549164057609
 20
-1.436451276256365
 30
0.0
 10
-24.73089957972993
 20
-1.618386709567824
 30
0.0
 10
-24.40000000000004
 20
-1.794885897839373
 30
0.0
  0
SPLINE
  5
232
330
1F
100
AcDbEntity
  8
외형선
  6
Continuous
370
    15
100
AcDbSpline
210
0.0
220
0.0
230
1.0
 70
     8
 71
     3
 72
     8
 73
     4
 74
     0
 42
0.000000001
 43
0.00000001
 40
0.0
 40
0.0
 40
0.0
 40
0.0
 40
1.0
 40
1.0
 40
1.0
 40
1.0
 10
-25.40000000000004
 20
-2.414724898651523
 30
0.0
 10
-25.06549164057609
 20
-2.578212713565774
 30
0.0
 10
-24.73089957972993
 20
-2.735231903240527
 30
0.0
 10
-24.40000000000004
 20
-2.884016329987178
 30
0.0
  0
LINE
  5
233
330
1F
100
AcDbEntity
  8
외형선
  6
Continuous
370
    15
100
AcDbLine
 10
-25.40000000000004
 20
-2.414724898651523
 30
0.0
 11
-25.40000000000003
 21
-1.251170532527608
 31
0.0
  0
SPLINE
  5
234
330
1F
100
AcDbEntity
  8
외형선
  6
Continuous
370
    15
100
AcDbSpline
210
0.0
220
0.0
230
1.0
 70
     8
 71
     3
 72
    10
 73
     6
 74
     0
 42
0.000000001
 43
0.00000001
 40
0.0
 40
0.0
 40
0.0
 40
0.0
 40
0.5
 40
0.5
 40
1.0
 40
1.0
 40
1.0
 40
1.0
 10
-25.40000000000004
 20
3.549550925721505
 30
0.0
 10
-25.1455867396181
 20
3.522076744572454
 30
0.0
 10
-24.89108234551479
 20
3.489098788326292
 30
0.0
 10
-24.38541112929009
 20
3.412659325429711
 30
0.0
 10
-24.13401605228065
 20
3.369212540245906
 30
0.0
 10
-23.88016205780756
 20
3.320495487709371
 30
0.0
  0
SPLINE
  5
235
330
1F
100
AcDbEntity
  8
외형선
  6
Continuous
370
    15
100
AcDbSpline
210
0.0
220
0.0
230
1.0
 70
    24
 71
     3
 72
    14
 73
    10
 74
     0
 42
0.000000001
 43
0.00000001
 40
0.0
 40
0.0
 40
0.0
 40
0.0
 40
0.25
 40
0.25
 40
0.5000000000000001
 40
0.5000000000000001
 40
0.7500000000000001
 40
0.7500000000000001
 40
1.0
 40
1.0
 40
1.0
 40
1.0
 10
-25.40000000000003
 20
-0.7487846884939326
 30
0.0
 10
-25.40000000000003
 20
-0.3445774337332086
 30
0.0
 10
-25.40000000000004
 20
0.0737016973450135
 30
0.0
 10
-25.40000000000003
 20
0.9003312801664975
 30
0.0
 10
-25.40000000000003
 20
1.308260568406546
 30
0.0
 10
-25.40000000000003
 20
2.072198732839908
 30
0.0
 10
-25.40000000000004
 20
2.427800550840317
 30
0.0
 10
-25.40000000000003
 20
3.055045564705001
 30
0.0
 10
-25.40000000000003
 20
3.326547643451454
 30
0.0
 10
-25.40000000000003
 20
3.549550925721503
 30
0.0
  0
LINE
  5
236
330
1F
100
AcDbEntity
  8
외형선
  6
Continuous
370
    15
100
AcDbLine
 10
-24.38498527127617
 20
-3.560659237850127
 30
0.0
 11
-24.3841912371809
 21
-3.559693074652296
 31
0.0
  0
SPLINE
  5
237
330
1F
100
AcDbEntity
  8
외형선
  6
Continuous
370
    15
100
AcDbSpline
210
0.0
220
0.0
230
1.0
 70
    24
 71
     3
 72
    12
 73
     8
 74
     0
 42
0.000000001
 43
0.00000001
 40
0.0
 40
0.0
 40
0.0
 40
0.0
 40
0.1032620327534535
 40
0.3573249039714645
 40
0.6187556156662395
 40
0.8477583060806011
 40
1.0
 40
1.0
 40
1.0
 40
1.0
 10
-25.40000000000004
 20
-3.57426396755079
 30
0.0
 10
-25.40000000000004
 20
-3.570504206999752
 30
0.0
 10
-25.40000000000004
 20
-3.55749404206273
 30
0.0
 10
-25.40000000000004
 20
-3.418095004137003
 30
0.0
 10
-25.40000000000004
 20
-3.131194315588504
 30
0.0
 10
-25.40000000000004
 20
-2.789756424996353
 30
0.0
 10
-25.40000000000004
 20
-2.52174818786431
 30
0.0
 10
-25.40000000000004
 20
-2.414724898651441
 30
0.0
  0
SPLINE
  5
238
330
1F
100
AcDbEntity
  8
0
  6
Continuous
 62
     1
370
    15
100
AcDbSpline
210
0.0
220
0.0
230
1.0
 70
     8
 71
     3
 72
    34
 73
    30
 74
     0
 42
0.000000001
 43
0.00000001
 40
0.0
 40
0.0
 40
0.0
 40
0.0
 40
0.1249999999999996
 40
0.1249999999999996
 40
0.1874999999999994
 40
0.1874999999999994
 40
0.2499999999999993
 40
0.2499999999999993
 40
0.3124999999999992
 40
0.3124999999999992
 40
0.374999999999999
 40
0.374999999999999
 40
0.4374999999999989
 40
0.4374999999999989
 40
0.4999999999999988
 40
0.4999999999999988
 40
0.5624999999999989
 40
0.5624999999999989
 40
0.6249999999999991
 40
0.6249999999999991
 40
0.6874999999999992
 40
0.6874999999999992
 40
0.7499999999999993
 40
0.7499999999999993
 40
0.8124999999999996
 40
0.8124999999999996
 40
0.8749999999999997
 40
0.8749999999999997
 40
1.0
 40
1.0
 40
1.0
 40
1.0
 10
-39.68750000000004
 20
4.560205023884059
 30
0.0
 10
-39.09652192985942
 20
4.546111143524785
 30
0.0
 10
-38.49336428416746
 20
4.492824972660339
 30
0.0
 10
-37.60452670140108
 20
4.356975249291283
 30
0.0
 10
-37.3078461942042
 20
4.302338676101007
 30
0.0
 10
-36.71059968521095
 20
4.174721914057438
 30
0.0
 10
-36.41138062420262
 20
4.101809512124985
 30
0.0
 10
-35.81745835029626
 20
3.939266777191602
 30
0.0
 10
-35.52202831305682
 20
3.849616758495941
 30
0.0
 10
-34.92522652336679
 20
3.653718106695386
 30
0.0
 10
-34.62582938506669
 20
3.547643267701716
 30
0.0
 10
-34.03076133703118
 20
3.321313664084613
 30
0.0
 10
-33.73598347584939
 20
3.201220635038327
 30
0.0
 10
-33.13984807554806
 20
2.947056941819273
 30
0.0
 10
-32.84038492883705
 20
2.813213109462392
 30
0.0
 10
-32.24439063148959
 20
2.534562190267719
 30
0.0
 10
-31.94966584850675
 20
2.390075929101645
 30
0.0
 10
-31.354417682211
 20
2.090638174974583
 30
0.0
 10
-31.05500067860475
 20
1.935840238291259
 30
0.0
 10
-30.45830080192004
 20
1.619023281802642
 30
0.0
 10
-30.1630299338289
 20
1.457384565082714
 30
0.0
 10
-29.56888874887245
 20
1.127968236410466
 30
0.0
 10
-29.26962998211849
 20
0.9601023998354421
 30
0.0
 10
-28.67244606986753
 20
0.6212386317280298
 30
0.0
 10
-28.37603062659156
 20
0.4505362691092767
 30
0.0
 10
-27.78321480405548
 20
0.1079533771598378
 30
0.0
 10
-27.48422616988256
 20
-0.0644282051325966
 30
0.0
 10
-26.58805746406098
 20
-0.5799107167236759
 30
0.0
 10
-25.99748522660249
 20
-0.9202296037493749
 30
0.0
 10
-25.40000000000003
 20
-1.251170532527608
 30
0.0
1001
PE_URL
1000

  0
SPLINE
  5
239
330
1F
100
AcDbEntity
  8
0
  6
Continuous
 62
     1
370
    15
100
AcDbSpline
210
0.0
220
0.0
230
1.0
 70
     8
 71
     3
 72
     9
 73
     5
 74
     0
 42
0.000000001
 43
0.00000001
 40
0.0
 40
0.0
 40
0.0
 40
0.0
 40
0.4589954447704517
 40
0.9999999999999999
 40
0.9999999999999999
 40
0.9999999999999999
 40
0.9999999999999999
 10
-28.34784306939282
 20
0.4338225733487082
 30
0.0
 10
-27.8968142058023
 20
0.2519368073176995
 30
0.0
 10
-26.91417076406602
 20
-0.1443324108266584
 30
0.0
 10
-25.9315839450151
 20
-0.536578024647854
 30
0.0
 10
-25.40000000000003
 20
-0.7487846884939326
 30
0.0
1001
PE_URL
1000

  0
SPLINE
  5
23A
330
1F
100
AcDbEntity
  8
외형선
  6
Continuous
370
    15
100
AcDbSpline
210
0.0
220
0.0
230
1.0
 70
    24
 71
     3
 72
     9
 73
     5
 74
     0
 42
0.000000001
 43
0.00000001
 40
0.0
 40
0.0
 40
0.0
 40
0.0
 40
0.3884974807404375
 40
1.0
 40
1.0
 40
1.0
 40
1.0
 10
-25.40000000000003
 20
-1.251170532527608
 30
0.0
 10
-25.40000000000003
 20
-1.251520581702076
 30
0.0
 10
-25.40000000000003
 20
-1.252421615021005
 30
0.0
 10
-25.40000000000003
 20
-1.243413940124858
 30
0.0
 10
-25.40000000000003
 20
-1.237905724233192
 30
0.0
  0
SPLINE
  5
23B
330
1F
100
AcDbEntity
  8
외형선
  6
Continuous
370
    15
100
AcDbSpline
210
0.0
220
0.0
230
1.0
 70
    24
 71
     3
 72
    10
 73
     6
 74
     0
 42
0.000000001
 43
0.00000001
 40
0.0
 40
0.0
 40
0.0
 40
0.0
 40
0.2027608999685945
 40
0.5468035592164172
 40
1.0
 40
1.0
 40
1.0
 40
1.0
 10
-25.40000000000003
 20
-1.182944216019751
 30
0.0
 10
-25.40000000000003
 20
-1.167460412450248
 30
0.0
 10
-25.40000000000003
 20
-1.125703846448994
 30
0.0
 10
-25.40000000000003
 20
-0.9905109822960174
 30
0.0
 10
-25.40000000000003
 20
-0.8363937594289386
 30
0.0
 10
-25.40000000000003
 20
-0.7487846884939326
 30
0.0
  0
SPLINE
  5
23C
330
1F
100
AcDbEntity
  8
0
  6
Continuous
 62
     1
370
    15
100
AcDbSpline
210
0.0
220
0.0
230
1.0
 70
     8
 71
     3
 72
    34
 73
    30
 74
     0
 42
0.000000001
 43
0.00000001
 40
0.0
 40
0.0
 40
0.0
 40
0.0
 40
0.1250000000000002
 40
0.1250000000000002
 40
0.1875000000000002
 40
0.1875000000000002
 40
0.2500000000000002
 40
0.2500000000000002
 40
0.3125000000000002
 40
0.3125000000000002
 40
0.3750000000000001
 40
0.3750000000000001
 40
0.4375000000000001
 40
0.4375000000000001
 40
0.5000000000000001
 40
0.5000000000000001
 40
0.5625000000000001
 40
0.5625000000000001
 40
0.6250000000000001
 40
0.6250000000000001
 40
0.6875000000000001
 40
0.6875000000000001
 40
0.75
 40
0.75
 40
0.8125
 40
0.8125
 40
0.875
 40
0.875
 40
1.0
 40
1.0
 40
1.0
 40
1.0
 10
-39.68750000000004
 20
4.331025435978733
 30
0.0
 10
-39.09652192985931
 20
4.222865212622459
 30
0.0
 10
-38.49336428416721
 20
4.076842453398385
 30
0.0
 10
-37.60452670140069
 20
3.80914856604023
 30
0.0
 10
-37.30784619420373
 20
3.711612004453739
 30
0.0
 10
-36.71059968521035
 20
3.500708916513201
 30
0.0
 10
-36.41138062420197
 20
3.387478157294582
 30
0.0
 10
-35.8174583502955
 20
3.147701792059051
 30
0.0
 10
-35.52202831305598
 20
3.02109606503366
 30
0.0
 10
-34.92522652336582
 20
2.75472316117259
 30
0.0
 10
-34.62582938506567
 20
2.615218175746309
 30
0.0
 10
-34.03076133703006
 20
2.326269676790741
 30
0.0
 10
-33.73598347584822
 20
2.177005601861323
 30
0.0
 10
-33.13984807554675
 20
1.868760885594179
 30
0.0
 10
-32.84038492883568
 20
1.710079452545866
 30
0.0
 10
-32.24439063148809
 20
1.386632718944519
 30
0.0
 10
-31.94966584850521
 20
1.222217520577495
 30
0.0
 10
-31.35441768220933
 20
0.8878320613886395
 30
0.0
 10
-31.05500067860301
 20
0.7180540128879294
 30
0.0
 10
-30.45830080191819
 20
0.3765630435450138
 30
0.0
 10
-30.163029933827
 20
0.2052432270369415
 30
0.0
 10
-29.56888874887041
 20
-0.1382286377044455
 30
0.0
 10
-29.26962998211638
 20
-0.3104565481114907
 30
0.0
 10
-28.67244606986531
 20
-0.6526023226260822
 30
0.0
 10
-28.3760306265893
 20
-0.8222319727258505
 30
0.0
 10
-27.78321480405309
 20
-1.157290065623711
 30
0.0
 10
-27.4842261698801
 20
-1.323198506504665
 30
0.0
 10
-26.58805746405835
 20
-1.811252295304586
 30
0.0
 10
-25.99748522659973
 20
-2.122709612969215
 30
0.0
 10
-25.39999999999716
 20
-2.414724898652933
 30
0.0
1001
PE_URL
1000

  0
SPLINE
  5
23D
330
1F
100
AcDbEntity
  8
0
  6
Continuous
 62
     1
370
    15
100
AcDbSpline
210
0.0
220
0.0
230
1.0
 70
     8
 71
     3
 72
    16
 73
    12
 74
     0
 42
0.000000001
 43
0.00000001
 40
0.0
 40
0.0
 40
0.0
 40
0.0
 40
0.1113539250151083
 40
0.2224825940696207
 40
0.3337549514136596
 40
0.4451793676291701
 40
0.5563261835478812
 40
0.6675349341502598
 40
0.7789897363022019
 40
0.8901728224318982
 40
1.0
 40
1.0
 40
1.0
 40
1.0
 10
-39.68750000000004
 20
3.600918725343075
 30
0.0
 10
-39.24795760451009
 20
3.511113040556996
 30
0.0
 10
-38.3697619563647
 20
3.331683337376841
 30
0.0
 10
-37.05304663397629
 20
2.942749497587629
 30
0.0
 10
-35.73562847023635
 20
2.479745390971168
 30
0.0
 10
-34.41761759580913
 20
1.947033682899642
 30
0.0
 10
-33.10076479704483
 20
1.35948007000194
 30
0.0
 10
-31.78361347564807
 20
0.7341313153489502
 30
0.0
 10
-30.46547129662012
 20
0.0907722630177954
 30
0.0
 10
-29.15375618409861
 20
-0.5567826244360905
 30
0.0
 10
-28.28165083771653
 20
-0.9709020985404226
 30
0.0
 10
-27.84827336857706
 20
-1.176691514180662
 30
0.0
1001
PE_URL
1000

  0
LINE
  5
23E
330
1F
100
AcDbEntity
  8
0
  6
Continuous
 62
     1
370
    15
100
AcDbLine
 10
-39.68749999999996
 20
4.331025435978733
 30
0.0
 11
-39.68750000000003
 21
3.600918725343075
 31
0.0
1001
PE_URL
1000

  0
LINE
  5
23F
330
1F
100
AcDbEntity
  8
0
  6
Continuous
 62
     1
370
    15
100
AcDbLine
 10
-39.68750000000003
 20
4.560205023884061
 30
0.0
 11
-39.6874999999998
 21
4.331025435978727
 31
0.0
1001
PE_URL
1000

  0
SPLINE
  5
240
330
1F
100
AcDbEntity
  8
0
  6
Continuous
 62
     1
370
    15
100
AcDbSpline
210
0.0
220
0.0
230
1.0
 70
     8
 71
     3
 72
     8
 73
     4
 74
     0
 42
0.000000001
 43
0.00000001
 40
0.0
 40
0.0
 40
0.0
 40
0.0
 40
1.0
 40
1.0
 40
1.0
 40
1.0
 10
-36.86316519072241
 20
-1.276971749299891
 30
0.0
 10
-36.70094136937942
 20
-1.469180451266082
 30
0.0
 10
-36.55632790825869
 20
-1.653980469540654
 30
0.0
 10
-36.43337337301811
 20
-1.829668571368289
 30
0.0
1001
PE_URL
1000

  0
LINE
  5
241
330
1F
100
AcDbEntity
  8
0
  6
Continuous
 62
     1
370
    15
100
AcDbLine
 10
-36.49104274519775
 20
-1.878058920305486
 30
0.0
 11
-39.68750000000004
 21
0.0000000000000107
 31
0.0
1001
PE_URL
1000

  0
LINE
  5
242
330
1F
100
AcDbEntity
  8
0
  6
Continuous
 62
     1
370
    15
100
AcDbLine
 10
-39.68750000000004
 20
0.0000000000000107
 30
0.0
 11
-39.68750000000004
 21
1.219713508363437
 31
0.0
1001
PE_URL
1000

  0
SPLINE
  5
243
330
1F
100
AcDbEntity
  8
0
  6
Continuous
 62
     1
370
    15
100
AcDbSpline
210
0.0
220
0.0
230
1.0
 70
     8
 71
     3
 72
    12
 73
     8
 74
     0
 42
0.000000001
 43
0.00000001
 40
0.0
 40
0.0
 40
0.0
 40
0.0
 40
0.4999999999999994
 40
0.4999999999999994
 40
0.7499999999999997
 40
0.7499999999999997
 40
1.0
 40
1.0
 40
1.0
 40
1.0
 10
-39.68750000000004
 20
1.219713508363437
 30
0.0
 10
-39.19859424732444
 20
0.8353501819769207
 30
0.0
 10
-38.71785707381376
 20
0.4352250682530379
 30
0.0
 10
-38.00931472590526
 20
-0.1892044967690421
 30
0.0
 10
-37.77526538806167
 20
-0.4014604419140166
 30
0.0
 10
-37.31195328430833
 20
-0.835208323846226
 30
0.0
 10
-37.08395237556731
 20
-1.055567716861814
 30
0.0
 10
-36.86316519072241
 20
-1.276971749299895
 30
0.0
1001
PE_URL
1000

  0
SPLINE
  5
244
330
1F
100
AcDbEntity
  8
0
  6
Continuous
 62
     1
370
    15
100
AcDbSpline
210
0.0
220
0.0
230
1.0
 70
     8
 71
     3
 72
    16
 73
    12
 74
     0
 42
0.000000001
 43
0.00000001
 40
0.0
 40
0.0
 40
0.0
 40
0.0
 40
0.1071184943714927
 40
0.2324883246233074
 40
0.3575414502840301
 40
0.4826652113874293
 40
0.6080697013084245
 40
0.7331642187991511
 40
0.8582359973925467
 40
0.9739803232087719
 40
0.9999999999999999
 40
0.9999999999999999
 40
0.9999999999999999
 40
0.9999999999999999
 10
-36.86316519071673
 20
-1.276971749302346
 30
0.0
 10
-36.48752090640782
 20
-1.437114120807093
 30
0.0
 10
-35.67222835748137
 20
-1.784684648854496
 30
0.0
 10
-34.41760175152538
 20
-2.267185689585235
 30
0.0
 10
-33.10073225763067
 20
-2.715069048539375
 30
0.0
 10
-31.78354245453178
 20
-3.086792651149979
 30
0.0
 10
-30.46547101050375
 20
-3.371903284880494
 30
0.0
 10
-29.14837727720514
 20
-3.566490121346169
 30
0.0
 10
-27.8653066216161
 20
-3.651722014909504
 30
0.0
 10
-26.92882141402022
 20
-3.665200521199823
 30
0.0
 10
-26.43168134672478
 20
-3.625841915685411
 30
0.0
 10
-26.34043516551462
 20
-3.618617950675942
 30
0.0
1001
PE_URL
1000

  0
SPLINE
  5
245
330
1F
100
AcDbEntity
  8
0
  6
Continuous
 62
     1
370
    15
100
AcDbSpline
210
0.0
220
0.0
230
1.0
 70
    24
 71
     3
 72
    10
 73
     6
 74
     0
 42
0.000000001
 43
0.00000001
 40
0.0
 40
0.0
 40
0.0
 40
0.0
 40
0.5
 40
0.5
 40
1.0
 40
1.0
 40
1.0
 40
1.0
 10
-39.68750000000003
 20
3.600918725343075
 30
0.0
 10
-39.68750000000003
 20
3.324880230125192
 30
0.0
 10
-39.68750000000004
 20
2.97609500701688
 30
0.0
 10
-39.68750000000004
 20
2.165202930123664
 30
0.0
 10
-39.68750000000004
 20
1.703798501801382
 30
0.0
 10
-39.68750000000004
 20
1.219713508363585
 30
0.0
1001
PE_URL
1000

  0
SPLINE
  5
246
330
1F
100
AcDbEntity
  8
외형선
  6
Continuous
370
    15
100
AcDbSpline
210
0.0
220
0.0
230
1.0
 70
    24
 71
     3
 72
    12
 73
     8
 74
     0
 42
0.000000001
 43
0.00000001
 40
0.0
 40
0.0
 40
0.0
 40
0.0
 40
0.1050537290971206
 40
0.3586089787645234
 40
0.619517347849334
 40
0.8480624873423659
 40
1.0
 40
1.0
 40
1.0
 40
1.0
 10
-25.40000000000004
 20
-3.574527569547028
 30
0.0
 10
-25.40000000000004
 20
-3.570744961618869
 30
0.0
 10
-25.40000000000004
 20
-3.557832738722619
 30
0.0
 10
-25.40000000000004
 20
-3.418136479811844
 30
0.0
 10
-25.40000000000004
 20
-3.131184515450569
 30
0.0
 10
-25.40000000000004
 20
-2.789757856602099
 30
0.0
 10
-25.40000000000004
 20
-2.521748596403713
 30
0.0
 10
-25.40000000000004
 20
-2.414724898651441
 30
0.0
  0
SPLINE
  5
247
330
1F
100
AcDbEntity
  8
0
  6
Continuous
 62
     1
370
    15
100
AcDbSpline
210
0.0
220
0.0
230
1.0
 70
    24
 71
     3
 72
     8
 73
     4
 74
     0
 42
0.000000001
 43
0.00000001
 40
0.0
 40
0.0
 40
0.0
 40
0.0
 40
1.0
 40
1.0
 40
1.0
 40
1.0
 10
-36.90957308129599
 20
-2.22924757096194
 30
0.0
 10
-36.75962211935
 20
-2.103423774098379
 30
0.0
 10
-36.59969256987598
 20
-1.969226948120435
 30
0.0
 10
-36.4333733730133
 20
-1.829668571375249
 30
0.0
1001
PE_URL
1000

  0
LINE
  5
248
330
1F
100
AcDbEntity
  8
0
  6
Continuous
 62
     1
370
    15
100
AcDbLine
 10
-39.68750000000004
 20
-3.194843749999988
 30
0.0
 11
-37.98792822693991
 21
-3.109433975359488
 31
0.0
1001
PE_URL
1000

  0
SPLINE
  5
249
330
1F
100
AcDbEntity
  8
0
  6
Continuous
 62
     1
370
    15
100
AcDbSpline
210
0.0
220
0.0
230
1.0
 70
     8
 71
     3
 72
    10
 73
     6
 74
     0
 42
0.000000001
 43
0.00000001
 40
0.0
 40
0.0
 40
0.0
 40
0.0
 40
0.5
 40
0.5
 40
1.0
 40
1.0
 40
1.0
 40
1.0
 10
-39.68750000000004
 20
-3.194843749999988
 30
0.0
 10
-39.2179575199811
 20
-3.067446498433315
 30
0.0
 10
-38.75126907322861
 20
-2.92453028688619
 30
0.0
 10
-37.82417229390386
 20
-2.604549403863588
 30
0.0
 10
-37.36402276050973
 20
-2.428173793620539
 30
0.0
 10
-36.90957308129501
 20
-2.229247570962597
 30
0.0
1001
PE_URL
1000

  0
SPLINE
  5
24A
330
1F
100
AcDbEntity
  8
0
  6
Continuous
 62
     1
370
    15
100
AcDbSpline
210
0.0
220
0.0
230
1.0
 70
     8
 71
     3
 72
    11
 73
     7
 74
     0
 42
0.000000001
 43
0.00000001
 40
0.0
 40
0.0
 40
0.0
 40
0.0
 40
0.1888227748339923
 40
0.4736316630808456
 40
0.7372004163786525
 40
1.0
 40
1.0
 40
1.0
 40
1.0
 10
-30.02077481952151
 20
3.421626131259417
 30
0.0
 10
-29.72994800895581
 20
3.46771318516633
 30
0.0
 10
-29.00045557311046
 20
3.58331517230808
 30
0.0
 10
-27.86528657312664
 20
3.653329255776143
 30
0.0
 10
-26.61521543558792
 20
3.657425863766159
 30
0.0
 10
-25.80467700494469
 20
3.585474191307235
 30
0.0
 10
-25.40000000000004
 20
3.549550925721505
 30
0.0
1001
PE_URL
1000

  0
SPLINE
  5
24B
330
1F
100
AcDbEntity
  8
외형선
  6
Continuous
370
    15
100
AcDbSpline
210
0.0
220
0.0
230
1.0
 70
    24
 71
     3
 72
    14
 73
    10
 74
     0
 42
0.000000001
 43
0.00000001
 40
0.0
 40
0.0
 40
0.0
 40
0.0
 40
0.25
 40
0.25
 40
0.5
 40
0.5
 40
0.75
 40
0.75
 40
1.0
 40
1.0
 40
1.0
 40
1.0
 10
-25.40000000000004
 20
-0.7487846884939291
 30
0.0
 10
-25.40000000000004
 20
-0.3445774337332086
 30
0.0
 10
-25.40000000000004
 20
0.0737016973450135
 30
0.0
 10
-25.40000000000004
 20
0.9003312801664993
 30
0.0
 10
-25.40000000000004
 20
1.308260568406547
 30
0.0
 10
-25.40000000000004
 20
2.07219873283991
 30
0.0
 10
-25.40000000000004
 20
2.427800550840317
 30
0.0
 10
-25.40000000000004
 20
3.055045564705001
 30
0.0
 10
-25.40000000000004
 20
3.326547643451454
 30
0.0
 10
-25.40000000000004
 20
3.549550925721505
 30
0.0
  0
LINE
  5
24C
330
1F
100
AcDbEntity
  8
0
  6
Continuous
 62
     1
370
    15
100
AcDbLine
 10
-39.68750000000004
 20
0.0000000000000107
 30
0.0
 11
-39.68750000000004
 21
-3.194843749999988
 31
0.0
1001
PE_URL
1000

  0
SPLINE
  5
24D
330
1F
100
AcDbEntity
  8
0
  6
Continuous
 62
     1
370
    15
100
AcDbSpline
210
0.0
220
0.0
230
1.0
 70
     8
 71
     3
 72
    11
 73
     7
 74
     0
 42
0.000000001
 43
0.00000001
 40
0.0
 40
0.0
 40
0.0
 40
0.0
 40
0.2495884032511622
 40
0.4995825863754185
 40
0.7496786501299415
 40
1.0
 40
1.0
 40
1.0
 40
1.0
 10
-33.40483108461378
 20
-3.059899063986608
 30
0.0
 10
-33.92749090547385
 20
-3.272465624813778
 30
0.0
 10
-34.97366028553526
 20
-3.697944336371146
 30
0.0
 10
-36.54348265904048
 20
-4.15548964519702
 30
0.0
 10
-38.11495055271453
 20
-4.471090655628911
 30
0.0
 10
-39.1631595509342
 20
-4.530491320477269
 30
0.0
 10
-39.68750000000006
 20
-4.560205023884032
 30
0.0
1001
PE_URL
1000

  0
SPLINE
  5
24E
330
1F
100
AcDbEntity
  8
0
  6
Continuous
 62
     1
370
    15
100
AcDbSpline
210
0.0
220
0.0
230
1.0
 70
    24
 71
     3
 72
    10
 73
     6
 74
     0
 42
0.000000001
 43
0.00000001
 40
0.0
 40
0.0
 40
0.0
 40
0.0
 40
0.5000000000000004
 40
0.5000000000000004
 40
1.0
 40
1.0
 40
1.0
 40
1.0
 10
-39.68750000000004
 20
-3.194843749999984
 30
0.0
 10
-39.68750000000006
 20
-3.388507222084618
 30
0.0
 10
-39.68750000000004
 20
-3.613562111813811
 30
0.0
 10
-39.68750000000006
 20
-4.085726664322893
 30
0.0
 10
-39.68750000000006
 20
-4.331630478087645
 30
0.0
 10
-39.68750000000006
 20
-4.560205023884032
 30
0.0
1001
PE_URL
1000

  0
LINE
  5
250
330
1F
100
AcDbEntity
  8
외형선
  6
Continuous
370
    15
100
AcDbLine
 10
-4.838700000000056
 20
4.762499999999995
 30
0.0
 11
-23.65942116787309
 21
4.762499999999994
 31
0.0
1001
PE_URL
1000

  0
ENDSEC
  0
SECTION
  2
OBJECTS
  0
DICTIONARY
  5
C
330
0
100
AcDbDictionary
281
     1
  3
ACAD_DETAILVIEWSTYLE
350
1E5
  3
ACAD_GROUP
350
D
  3
ACAD_IMAGE_VARS
350
274
  3
ACAD_LAYOUT
350
1A
  3
ACAD_MLINESTYLE
350
17
  3
ACAD_PLOTSETTINGS
350
19
  3
ACAD_PLOTSTYLENAME
350
E
  3
ACAD_SCALELIST
350
47
  3
ACAD_SECTIONVIEWSTYLE
350
1E6
  3
AcDbVariableDictionary
350
1E0
  3
APPDATA
350
157
  3
DWGPROPS
350
275
  0
DICTIONARY
  5
190
330
2
100
AcDbDictionary
280
     1
281
     1
  3
ACAD_LAYERSTATES
360
191
  0
DICTIONARY
  5
1E5
102
{ACAD_REACTORS
330
C
102
}
330
C
100
AcDbDictionary
281
     1
  0
DICTIONARY
  5
D
102
{ACAD_REACTORS
330
C
102
}
330
C
100
AcDbDictionary
281
     1
  0
RASTERVARIABLES
  5
274
102
{ACAD_REACTORS
330
C
102
}
330
C
100
AcDbRasterVariables
 90
        0
 70
     1
 71
     1
 72
     1
  0
DICTIONARY
  5
1A
102
{ACAD_REACTORS
330
C
102
}
330
C
100
AcDbDictionary
281
     1
  3
Layout1
350
1E
  3
Layout2
350
26
  3
Model
350
22
  0
DICTIONARY
  5
17
102
{ACAD_REACTORS
330
C
102
}
330
C
100
AcDbDictionary
281
     1
  3
Standard
350
18
  0
DICTIONARY
  5
19
102
{ACAD_REACTORS
330
C
102
}
330
C
100
AcDbDictionary
281
     1
  0
ACDBDICTIONARYWDFLT
  5
E
102
{ACAD_REACTORS
330
C
102
}
330
C
100
AcDbDictionary
281
     1
  3
Normal
350
F
100
AcDbDictionaryWithDefault
340
F
  0
DICTIONARY
  5
47
102
{ACAD_REACTORS
330
C
102
}
330
C
100
AcDbDictionary
281
     1
  3
A0
350
48
  3
A1
350
49
  3
A2
350
4A
  3
A3
350
4B
  3
A4
350
4C
  3
A5
350
4D
  3
A6
350
4E
  3
A7
350
4F
  3
A8
350
50
  3
A9
350
51
  3
B0
350
52
  3
B1
350
53
  3
B2
350
54
  3
B3
350
55
  3
B4
350
56
  3
B5
350
57
  3
B6
350
58
  3
B7
350
59
  3
B8
350
5A
  3
B9
350
5B
  3
C0
350
5C
  3
C1
350
5D
  3
C2
350
5E
  3
C3
350
5F
  3
C4
350
60
  3
C5
350
61
  3
C6
350
62
  3
C7
350
63
  3
C8
350
64
  3
C9
350
65
  3
D0
350
66
  3
D1
350
67
  3
D2
350
68
  0
DICTIONARY
  5
1E6
102
{ACAD_REACTORS
330
C
102
}
330
C
100
AcDbDictionary
281
     1
  0
DICTIONARY
  5
1E0
102
{ACAD_REACTORS
330
C
102
}
330
C
100
AcDbDictionary
281
     1
  0
DICTIONARY
  5
157
102
{ACAD_REACTORS
330
C
102
}
330
C
100
AcDbDictionary
281
     1
  0
XRECORD
  5
275
102
{ACAD_REACTORS
330
C
102
}
330
C
100
AcDbXrecord
280
     1
  1
DWGPROPS COOKIE
  2

  3

  4

  6

  7

  8
12016016
  9

300
=
301
=
302
=
303
=
304
=
305
=
306
=
307
=
308
=
309
=
 40
0.0
 41
2458313.021947176
 42
2458330.401426887
  1

 90
        0
  0
DICTIONARY
  5
191
102
{ACAD_REACTORS
330
190
102
}
330
190
100
AcDbDictionary
281
     1
  0
LAYOUT
  5
1E
102
{ACAD_REACTORS
330
1A
102
}
330
1A
100
AcDbPlotSettings
  1

  2
none_device
  4

  6

 40
0.0
 41
0.0
 42
0.0
 43
0.0
 44
0.0
 45
0.0
 46
0.0
 47
0.0
 48
0.0
 49
0.0
140
0.0
141
0.0
142
1.0
143
1.0
 70
   688
 72
     1
 73
     0
 74
     5
  7

 75
    16
147
1.0
148
0.0
149
0.0
100
AcDbLayout
  1
Layout1
 70
     1
 71
     1
 10
0.0
 20
0.0
 11
420.0
 21
297.0
 12
0.0
 22
0.0
 32
0.0
 14
1.000000000000000E+20
 24
1.000000000000000E+20
 34
1.000000000000000E+20
 15
-1.000000000000000E+20
 25
-1.000000000000000E+20
 35
-1.000000000000000E+20
146
0.0
 13
0.0
 23
0.0
 33
0.0
 16
1.0
 26
0.0
 36
0.0
 17
0.0
 27
1.0
 37
0.0
 76
     0
330
1B
  0
LAYOUT
  5
26
102
{ACAD_REACTORS
330
1A
102
}
330
1A
100
AcDbPlotSettings
  1

  2
none_device
  4

  6

 40
0.0
 41
0.0
 42
0.0
 43
0.0
 44
0.0
 45
0.0
 46
0.0
 47
0.0
 48
0.0
 49
0.0
140
0.0
141
0.0
142
1.0
143
1.0
 70
   688
 72
     1
 73
     0
 74
     5
  7

 75
    16
147
1.0
148
0.0
149
0.0
100
AcDbLayout
  1
Layout2
 70
     1
 71
     2
 10
0.0
 20
0.0
 11
0.0
 21
0.0
 12
0.0
 22
0.0
 32
0.0
 14
0.0
 24
0.0
 34
0.0
 15
0.0
 25
0.0
 35
0.0
146
0.0
 13
0.0
 23
0.0
 33
0.0
 16
1.0
 26
0.0
 36
0.0
 17
0.0
 27
1.0
 37
0.0
 76
     0
330
23
  0
LAYOUT
  5
22
102
{ACAD_REACTORS
330
1A
102
}
330
1A
100
AcDbPlotSettings
  1

  2
none_device
  4
ANSI_A_(11.00_x_8.50_Inches)
  6

 40
6.35
 41
19.05
 42
6.35000508
 43
19.05000254
 44
279.4
 45
215.9
 46
82.12739698969841
 47
48.36252544007046
 48
0.0
 49
0.0
140
0.0
141
0.0
142
0.0440071892659234
143
1.0
 70
  1696
 72
     0
 73
     0
 74
     0
  7

 75
     0
147
0.0235690232323232
148
0.0
149
0.0
100
AcDbLayout
  1
Model
 70
     1
 71
     0
 10
0.0
 20
0.0
 11
420.0
 21
297.0
 12
0.0
 22
0.0
 32
0.0
 14
-54.0625000000001
 24
-49.97180738881174
 34
0.0
 15
96.20662503295506
 25
41.78920502388411
 35
0.0
146
0.0
 13
0.0
 23
0.0
 33
0.0
 16
1.0
 26
0.0
 36
0.0
 17
0.0
 27
1.0
 37
0.0
 76
     0
330
1F
331
29
  0
MLINESTYLE
  5
18
102
{ACAD_REACTORS
330
17
102
}
330
17
100
AcDbMlineStyle
  2
Standard
 70
     0
  3

 62
   256
 51
90.0
 52
90.0
 71
     2
 49
0.5
 62
   256
  6
BYLAYER
 49
-0.5
 62
   256
  6
BYLAYER
  0
ACDBPLACEHOLDER
  5
F
102
{ACAD_REACTORS
330
E
102
}
330
E
  0
SCALE
  5
48
102
{ACAD_REACTORS
330
47
102
}
330
47
100
AcDbScale
 70
     0
300
1:1
140
1.0
141
1.0
290
     1
  0
SCALE
  5
49
102
{ACAD_REACTORS
330
47
102
}
330
47
100
AcDbScale
 70
     0
300
1:2
140
1.0
141
2.0
290
     0
  0
SCALE
  5
4A
102
{ACAD_REACTORS
330
47
102
}
330
47
100
AcDbScale
 70
     0
300
1:4
140
1.0
141
4.0
290
     0
  0
SCALE
  5
4B
102
{ACAD_REACTORS
330
47
102
}
330
47
100
AcDbScale
 70
     0
300
1:5
140
1.0
141
5.0
290
     0
  0
SCALE
  5
4C
102
{ACAD_REACTORS
330
47
102
}
330
47
100
AcDbScale
 70
     0
300
1:8
140
1.0
141
8.0
290
     0
  0
SCALE
  5
4D
102
{ACAD_REACTORS
330
47
102
}
330
47
100
AcDbScale
 70
     0
300
1:10
140
1.0
141
10.0
290
     0
  0
SCALE
  5
4E
102
{ACAD_REACTORS
330
47
102
}
330
47
100
AcDbScale
 70
     0
300
1:16
140
1.0
141
16.0
290
     0
  0
SCALE
  5
4F
102
{ACAD_REACTORS
330
47
102
}
330
47
100
AcDbScale
 70
     0
300
1:20
140
1.0
141
20.0
290
     0
  0
SCALE
  5
50
102
{ACAD_REACTORS
330
47
102
}
330
47
100
AcDbScale
 70
     0
300
1:30
140
1.0
141
30.0
290
     0
  0
SCALE
  5
51
102
{ACAD_REACTORS
330
47
102
}
330
47
100
AcDbScale
 70
     0
300
1:40
140
1.0
141
40.0
290
     0
  0
SCALE
  5
52
102
{ACAD_REACTORS
330
47
102
}
330
47
100
AcDbScale
 70
     0
300
1:50
140
1.0
141
50.0
290
     0
  0
SCALE
  5
53
102
{ACAD_REACTORS
330
47
102
}
330
47
100
AcDbScale
 70
     0
300
1:100
140
1.0
141
100.0
290
     0
  0
SCALE
  5
54
102
{ACAD_REACTORS
330
47
102
}
330
47
100
AcDbScale
 70
     0
300
2:1
140
2.0
141
1.0
290
     0
  0
SCALE
  5
55
102
{ACAD_REACTORS
330
47
102
}
330
47
100
AcDbScale
 70
     0
300
4:1
140
4.0
141
1.0
290
     0
  0
SCALE
  5
56
102
{ACAD_REACTORS
330
47
102
}
330
47
100
AcDbScale
 70
     0
300
8:1
140
8.0
141
1.0
290
     0
  0
SCALE
  5
57
102
{ACAD_REACTORS
330
47
102
}
330
47
100
AcDbScale
 70
     0
300
10:1
140
10.0
141
1.0
290
     0
  0
SCALE
  5
58
102
{ACAD_REACTORS
330
47
102
}
330
47
100
AcDbScale
 70
     0
300
100:1
140
100.0
141
1.0
290
     0
  0
SCALE
  5
59
102
{ACAD_REACTORS
330
47
102
}
330
47
100
AcDbScale
 70
     0
300
1/128" = 1'-0"
140
0.0078125
141
12.0
290
     0
  0
SCALE
  5
5A
102
{ACAD_REACTORS
330
47
102
}
330
47
100
AcDbScale
 70
     0
300
1/64" = 1'-0"
140
0.015625
141
12.0
290
     0
  0
SCALE
  5
5B
102
{ACAD_REACTORS
330
47
102
}
330
47
100
AcDbScale
 70
     0
300
1/32" = 1'-0"
140
0.03125
141
12.0
290
     0
  0
SCALE
  5
5C
102
{ACAD_REACTORS
330
47
102
}
330
47
100
AcDbScale
 70
     0
300
1/16" = 1'-0"
140
0.0625
141
12.0
290
     0
  0
SCALE
  5
5D
102
{ACAD_REACTORS
330
47
102
}
330
47
100
AcDbScale
 70
     0
300
3/32" = 1'-0"
140
0.09375
141
12.0
290
     0
  0
SCALE
  5
5E
102
{ACAD_REACTORS
330
47
102
}
330
47
100
AcDbScale
 70
     0
300
1/8" = 1'-0"
140
0.125
141
12.0
290
     0
  0
SCALE
  5
5F
102
{ACAD_REACTORS
330
47
102
}
330
47
100
AcDbScale
 70
     0
300
3/16" = 1'-0"
140
0.1875
141
12.0
290
     0
  0
SCALE
  5
60
102
{ACAD_REACTORS
330
47
102
}
330
47
100
AcDbScale
 70
     0
300
1/4" = 1'-0"
140
0.25
141
12.0
290
     0
  0
SCALE
  5
61
102
{ACAD_REACTORS
330
47
102
}
330
47
100
AcDbScale
 70
     0
300
3/8" = 1'-0"
140
0.375
141
12.0
290
     0
  0
SCALE
  5
62
102
{ACAD_REACTORS
330
47
102
}
330
47
100
AcDbScale
 70
     0
300
1/2" = 1'-0"
140
0.5
141
12.0
290
     0
  0
SCALE
  5
63
102
{ACAD_REACTORS
330
47
102
}
330
47
100
AcDbScale
 70
     0
300
3/4" = 1'-0"
140
0.75
141
12.0
290
     0
  0
SCALE
  5
64
102
{ACAD_REACTORS
330
47
102
}
330
47
100
AcDbScale
 70
     0
300
1" = 1'-0"
140
1.0
141
12.0
290
     0
  0
SCALE
  5
65
102
{ACAD_REACTORS
330
47
102
}
330
47
100
AcDbScale
 70
     0
300
1-1/2" = 1'-0"
140
1.5
141
12.0
290
     0
  0
SCALE
  5
66
102
{ACAD_REACTORS
330
47
102
}
330
47
100
AcDbScale
 70
     0
300
3" = 1'-0"
140
3.0
141
12.0
290
     0
  0
SCALE
  5
67
102
{ACAD_REACTORS
330
47
102
}
330
47
100
AcDbScale
 70
     0
300
6" = 1'-0"
140
6.0
141
12.0
290
     0
  0
SCALE
  5
68
102
{ACAD_REACTORS
330
47
102
}
330
47
100
AcDbScale
 70
     0
300
1'-0" = 1'-0"
140
12.0
141
12.0
290
     0
  0
ENDSEC
  0
EOF
