  0
SECTION
  2
HEADER
  9
$ACADVER
  1
AC1015
  9
$ACADMAINTVER
 70
     6
  9
$DWGCODEPAGE
  3
ANSI_949
  9
$INSBASE
 10
0.0
 20
0.0
 30
0.0
  9
$EXTMIN
 10
-62.00000000000011
 20
-49.97180738881174
 30
0.0
  9
$EXTMAX
 10
97.79412503295505
 20
42.8215143748256
 30
0.0
  9
$LIMMIN
 10
0.0
 20
0.0
  9
$LIMMAX
 10
420.0
 20
297.0
  9
$ORTHOMODE
 70
     1
  9
$REGENMODE
 70
     1
  9
$FILLMODE
 70
     1
  9
$QTEXTMODE
 70
     0
  9
$MIRRTEXT
 70
     1
  9
$LTSCALE
 40
1.0
  9
$ATTMODE
 70
     1
  9
$TEXTSIZE
 40
3.5
  9
$TRACEWID
 40
1.0
  9
$TEXTSTYLE
  7
Standard
  9
$CLAYER
  8
0
  9
$CELTYPE
  6
ByLayer
  9
$CECOLOR
 62
   256
  9
$CELTSCALE
 40
1.0
  9
$DISPSILH
 70
     0
  9
$DIMSCALE
 40
1.0
  9
$DIMASZ
 40
3.302
  9
$DIMEXO
 40
1.0
  9
$DIMDLI
 40
3.75
  9
$DIMRND
 40
0.0
  9
$DIMDLE
 40
0.0
  9
$DIMEXE
 40
1.0
  9
$DIMTP
 40
0.0
  9
$DIMTM
 40
0.0
  9
$DIMTXT
 40
3.5
  9
$DIMCEN
 40
2.5
  9
$DIMTSZ
 40
0.0
  9
$DIMTOL
 70
     0
  9
$DIMLIM
 70
     0
  9
$DIMTIH
 70
     1
  9
$DIMTOH
 70
     1
  9
$DIMSE1
 70
     0
  9
$DIMSE2
 70
     0
  9
$DIMTAD
 70
     1
  9
$DIMZIN
 70
     0
  9
$DIMBLK
  1

  9
$DIMASO
 70
     1
  9
$DIMSHO
 70
     1
  9
$DIMPOST
  1

  9
$DIMAPOST
  1

  9
$DIMALT
 70
     0
  9
$DIMALTD
 70
     3
  9
$DIMALTF
 40
0.0393700787401575
  9
$DIMLFAC
 40
1.0
  9
$DIMTOFL
 70
     1
  9
$DIMTVP
 40
0.0
  9
$DIMTIX
 70
     0
  9
$DIMSOXD
 70
     0
  9
$DIMSAH
 70
     0
  9
$DIMBLK1
  1

  9
$DIMBLK2
  1

  9
$DIMSTYLE
  2
ISO-25
  9
$DIMCLRD
 70
     0
  9
$DIMCLRE
 70
     0
  9
$DIMCLRT
 70
     0
  9
$DIMTFAC
 40
1.0
  9
$DIMGAP
 40
1.524
  9
$DIMJUST
 70
     0
  9
$DIMSD1
 70
     0
  9
$DIMSD2
 70
     0
  9
$DIMTOLJ
 70
     0
  9
$DIMTZIN
 70
     0
  9
$DIMALTZ
 70
     0
  9
$DIMALTTZ
 70
     0
  9
$DIMUPT
 70
     0
  9
$DIMDEC
 70
     2
  9
$DIMTDEC
 70
     2
  9
$DIMALTU
 70
     2
  9
$DIMALTTD
 70
     3
  9
$DIMTXSTY
  7
Standard
  9
$DIMAUNIT
 70
     0
  9
$DIMADEC
 70
     2
  9
$DIMALTRND
 40
0.0
  9
$DIMAZIN
 70
     0
  9
$DIMDSEP
 70
    44
  9
$DIMATFIT
 70
     3
  9
$DIMFRAC
 70
     0
  9
$DIMLDRBLK
  1

  9
$DIMLUNIT
 70
     2
  9
$DIMLWD
 70
    -2
  9
$DIMLWE
 70
    -2
  9
$DIMTMOVE
 70
     0
  9
$LUNITS
 70
     2
  9
$LUPREC
 70
     2
  9
$SKETCHINC
 40
1.0
  9
$FILLETRAD
 40
10.0
  9
$AUNITS
 70
     0
  9
$AUPREC
 70
     2
  9
$MENU
  1
.
  9
$ELEVATION
 40
0.0
  9
$PELEVATION
 40
0.0
  9
$THICKNESS
 40
0.0
  9
$LIMCHECK
 70
     0
  9
$CHAMFERA
 40
0.0
  9
$CHAMFERB
 40
0.0
  9
$CHAMFERC
 40
0.0
  9
$CHAMFERD
 40
0.0
  9
$SKPOLY
 70
     0
  9
$TDCREATE
 40
2458313.397582558
  9
$TDUCREATE
 40
2458313.022582558
  9
$TDUPDATE
 40
2458330.776282222
  9
$TDUUPDATE
 40
2458330.401282222
  9
$TDINDWG
 40
0.0022471875
  9
$TDUSRTIMER
 40
2458330.401241123
  9
$USRTIMER
 70
     1
  9
$ANGBASE
 50
0.0
  9
$ANGDIR
 70
     0
  9
$PDMODE
 70
     0
  9
$PDSIZE
 40
-1.0
  9
$PLINEWID
 40
0.0
  9
$SPLFRAME
 70
     0
  9
$SPLINETYPE
 70
     6
  9
$SPLINESEGS
 70
     8
  9
$HANDSEED
  5
2D1
  9
$SURFTAB1
 70
     6
  9
$SURFTAB2
 70
     6
  9
$SURFTYPE
 70
     6
  9
$SURFU
 70
     6
  9
$SURFV
 70
     6
  9
$UCSBASE
  2

  9
$UCSNAME
  2

  9
$UCSORG
 10
0.0
 20
0.0
 30
0.0
  9
$UCSXDIR
 10
1.0
 20
0.0
 30
0.0
  9
$UCSYDIR
 10
0.0
 20
1.0
 30
0.0
  9
$UCSORTHOREF
  2

  9
$UCSORTHOVIEW
 70
     0
  9
$UCSORGTOP
 10
0.0
 20
0.0
 30
0.0
  9
$UCSORGBOTTOM
 10
0.0
 20
0.0
 30
0.0
  9
$UCSORGLEFT
 10
0.0
 20
0.0
 30
0.0
  9
$UCSORGRIGHT
 10
0.0
 20
0.0
 30
0.0
  9
$UCSORGFRONT
 10
0.0
 20
0.0
 30
0.0
  9
$UCSORGBACK
 10
0.0
 20
0.0
 30
0.0
  9
$PUCSBASE
  2

  9
$PUCSNAME
  2

  9
$PUCSORG
 10
0.0
 20
0.0
 30
0.0
  9
$PUCSXDIR
 10
1.0
 20
0.0
 30
0.0
  9
$PUCSYDIR
 10
0.0
 20
1.0
 30
0.0
  9
$PUCSORTHOREF
  2

  9
$PUCSORTHOVIEW
 70
     0
  9
$PUCSORGTOP
 10
0.0
 20
0.0
 30
0.0
  9
$PUCSORGBOTTOM
 10
0.0
 20
0.0
 30
0.0
  9
$PUCSORGLEFT
 10
0.0
 20
0.0
 30
0.0
  9
$PUCSORGRIGHT
 10
0.0
 20
0.0
 30
0.0
  9
$PUCSORGFRONT
 10
0.0
 20
0.0
 30
0.0
  9
$PUCSORGBACK
 10
0.0
 20
0.0
 30
0.0
  9
$USERI1
 70
     0
  9
$USERI2
 70
     0
  9
$USERI3
 70
     0
  9
$USERI4
 70
     0
  9
$USERI5
 70
     0
  9
$USERR1
 40
0.0
  9
$USERR2
 40
0.0
  9
$USERR3
 40
0.0
  9
$USERR4
 40
0.0
  9
$USERR5
 40
0.0
  9
$WORLDVIEW
 70
     1
  9
$SHADEDGE
 70
     3
  9
$SHADEDIF
 70
    70
  9
$TILEMODE
 70
     1
  9
$MAXACTVP
 70
    64
  9
$PINSBASE
 10
0.0
 20
0.0
 30
0.0
  9
$PLIMCHECK
 70
     0
  9
$PEXTMIN
 10
1.000000000000000E+20
 20
1.000000000000000E+20
 30
1.000000000000000E+20
  9
$PEXTMAX
 10
-1.000000000000000E+20
 20
-1.000000000000000E+20
 30
-1.000000000000000E+20
  9
$PLIMMIN
 10
0.0
 20
0.0
  9
$PLIMMAX
 10
0.0
 20
0.0
  9
$UNITMODE
 70
     0
  9
$VISRETAIN
 70
     1
  9
$PLINEGEN
 70
     0
  9
$PSLTSCALE
 70
     1
  9
$TREEDEPTH
 70
  3020
  9
$CMLSTYLE
  2
Standard
  9
$CMLJUST
 70
     0
  9
$CMLSCALE
 40
20.0
  9
$PROXYGRAPHICS
 70
     1
  9
$MEASUREMENT
 70
     1
  9
$CELWEIGHT
370
    -1
  9
$ENDCAPS
280
     0
  9
$JOINSTYLE
280
     0
  9
$LWDISPLAY
290
     1
  9
$INSUNITS
 70
     4
  9
$HYPERLINKBASE
  1

  9
$STYLESHEET
  1

  9
$XEDIT
290
     1
  9
$CEPSNTYPE
380
     0
  9
$PSTYLEMODE
290
     1
  9
$FINGERPRINTGUID
  2
{EAECA83A-337F-4DF3-A3B3-780FF91C609B}
  9
$VERSIONGUID
  2
{FAEB1C32-E019-11D5-929B-00C0DF256EC4}
  9
$EXTNAMES
290
     1
  9
$PSVPSCALE
 40
0.0
  9
$OLESTARTUP
290
     0
  0
ENDSEC
  0
SECTION
  2
CLASSES
  0
CLASS
  1
ACDBDICTIONARYWDFLT
  2
AcDbDictionaryWithDefault
  3
ObjectDBX Classes
 90
        0
280
     0
281
     0
  0
CLASS
  1
VISUALSTYLE
  2
AcDbVisualStyle
  3
ObjectDBX Classes
 90
     4095
280
     0
281
     0
  0
CLASS
  1
MATERIAL
  2
AcDbMaterial
  3
ObjectDBX Classes
 90
     1153
280
     0
281
     0
  0
CLASS
  1
SCALE
  2
AcDbScale
  3
ObjectDBX Classes
 90
     1153
280
     0
281
     0
  0
CLASS
  1
SUN
  2
AcDbSun
  3
SCENEOE
 90
     1153
280
     0
281
     0
  0
CLASS
  1
ACDBPLACEHOLDER
  2
AcDbPlaceHolder
  3
ObjectDBX Classes
 90
        0
280
     0
281
     0
  0
CLASS
  1
LAYOUT
  2
AcDbLayout
  3
ObjectDBX Classes
 90
        0
280
     0
281
     0
  0
CLASS
  1
TABLESTYLE
  2
AcDbTableStyle
  3
ObjectDBX Classes
 90
     4095
280
     0
281
     0
  0
CLASS
  1
MLEADERSTYLE
  2
AcDbMLeaderStyle
  3
ACDB_MLEADERSTYLE_CLASS
 90
     4095
280
     0
281
     0
  0
CLASS
  1
DICTIONARYVAR
  2
AcDbDictionaryVar
  3
ObjectDBX Classes
 90
        0
280
     0
281
     0
  0
CLASS
  1
RASTERVARIABLES
  2
AcDbRasterVariables
  3
ISM
 90
        0
280
     0
281
     0
  0
ENDSEC
  0
SECTION
  2
TABLES
  0
TABLE
  2
VPORT
  5
8
330
0
100
AcDbSymbolTable
 70
     1
  0
VPORT
  5
29
330
8
100
AcDbSymbolTableRecord
100
AcDbViewportTableRecord
  2
*Active
 70
     0
 10
0.0
 20
0.0
 11
1.0
 21
1.0
 12
17.89706251647746
 22
-3.575146506993072
 13
0.0
 23
0.0
 14
10.0
 24
10.0
 15
10.0
 25
10.0
 16
0.0
 26
0.0
 36
1.0
 17
0.0
 27
0.0
 37
0.0
 40
94.64918819891008
 41
1.782762691853601
 42
50.0
 43
0.0
 44
0.0
 50
0.0
 51
0.0
 71
    16
 72
  2000
 73
     1
 74
     3
 75
     0
 76
     0
 77
     0
 78
     0
281
     0
 65
     1
110
0.0
120
0.0
130
0.0
111
1.0
121
0.0
131
0.0
112
0.0
122
1.0
132
0.0
 79
     0
146
0.0
  0
ENDTAB
  0
TABLE
  2
LTYPE
  5
5
330
0
100
AcDbSymbolTable
 70
     6
  0
LTYPE
  5
14
330
5
100
AcDbSymbolTableRecord
100
AcDbLinetypeTableRecord
  2
ByBlock
 70
     0
  3

 72
    65
 73
     0
 40
0.0
  0
LTYPE
  5
15
330
5
100
AcDbSymbolTableRecord
100
AcDbLinetypeTableRecord
  2
ByLayer
 70
     0
  3

 72
    65
 73
     0
 40
0.0
  0
LTYPE
  5
16
330
5
100
AcDbSymbolTableRecord
100
AcDbLinetypeTableRecord
  2
Continuous
 70
     0
  3
Solid line
 72
    65
 73
     0
 40
0.0
  0
LTYPE
  5
6A
330
5
100
AcDbSymbolTableRecord
100
AcDbLinetypeTableRecord
  2
HIDDEN
 70
     0
  3
Hidden __ __ __ __ __ __ __ __ __ __ __ __ __ __
 72
    65
 73
     2
 40
1.905
 49
1.27
 74
     0
 49
-0.635
 74
     0
  0
LTYPE
  5
6B
330
5
100
AcDbSymbolTableRecord
100
AcDbLinetypeTableRecord
  2
PHANTOM
 70
     0
  3
Phantom ______  __  __  ______  __  __  ______
 72
    65
 73
     6
 40
12.7
 49
6.35
 74
     0
 49
-1.27
 74
     0
 49
1.27
 74
     0
 49
-1.27
 74
     0
 49
1.27
 74
     0
 49
-1.27
 74
     0
  0
LTYPE
  5
6C
330
5
100
AcDbSymbolTableRecord
100
AcDbLinetypeTableRecord
  2
CENTER
 70
     0
  3
Center ____ _ ____ _ ____ _ ____ _ ____ _ ____
 72
    65
 73
     4
 40
10.16
 49
6.35
 74
     0
 49
-1.27
 74
     0
 49
1.27
 74
     0
 49
-1.27
 74
     0
  0
LTYPE
  5
6D
330
5
100
AcDbSymbolTableRecord
100
AcDbLinetypeTableRecord
  2
CENTERX2
 70
     0
  3
Center (2x) ________  __  ________  __  _____
 72
    65
 73
     4
 40
20.32
 49
12.7
 74
     0
 49
-2.54
 74
     0
 49
2.54
 74
     0
 49
-2.54
 74
     0
  0
LTYPE
  5
6E
330
5
100
AcDbSymbolTableRecord
100
AcDbLinetypeTableRecord
  2
DOT2
 70
     0
  3
Dot (.5x) ........................................
 72
    65
 73
     2
 40
0.635
 49
0.0
 74
     0
 49
-0.635
 74
     0
  0
ENDTAB
  0
TABLE
  2
LAYER
  5
2
102
{ACAD_XDICTIONARY
360
18D
102
}
330
0
100
AcDbSymbolTable
 70
    18
  0
LAYER
  5
10
330
2
100
AcDbSymbolTableRecord
100
AcDbLayerTableRecord
  2
0
 70
     0
 62
     7
  6
Continuous
370
    -3
390
F
  0
LAYER
  5
6F
330
2
100
AcDbSymbolTableRecord
100
AcDbLayerTableRecord
  2
FORMAT
 70
     0
 62
     2
  6
Continuous
370
    -3
390
F
  0
LAYER
  5
70
330
2
100
AcDbSymbolTableRecord
100
AcDbLayerTableRecord
  2
외형선
 70
     0
 62
     4
  6
Continuous
370
    30
390
F
  0
LAYER
  5
71
330
2
100
AcDbSymbolTableRecord
100
AcDbLayerTableRecord
  2
숨은선
 70
     0
 62
     2
  6
HIDDEN
370
    15
390
F
  0
LAYER
  5
72
330
2
100
AcDbSymbolTableRecord
100
AcDbLayerTableRecord
  2
중심선
 70
     0
 62
     1
  6
CENTERX2
370
    -3
390
F
  0
LAYER
  5
73
330
2
100
AcDbSymbolTableRecord
100
AcDbLayerTableRecord
  2
파단선
 70
     0
 62
     4
  6
Continuous
370
    -3
390
F
  0
LAYER
  5
74
330
2
100
AcDbSymbolTableRecord
100
AcDbLayerTableRecord
  2
해칭선
 70
     0
 62
   100
  6
Continuous
370
    -3
390
F
  0
LAYER
  5
75
330
2
100
AcDbSymbolTableRecord
100
AcDbLayerTableRecord
  2
가는실선
 70
     0
 62
     4
  6
Continuous
370
    -3
390
F
  0
LAYER
  5
76
330
2
100
AcDbSymbolTableRecord
100
AcDbLayerTableRecord
  2
치수_보조선
 70
     0
 62
     4
  6
Continuous
370
    -3
390
F
  0
LAYER
  5
77
330
2
100
AcDbSymbolTableRecord
100
AcDbLayerTableRecord
  2
치수문자_일반주서
 70
     0
 62
     7
  6
Continuous
370
    15
390
F
  0
LAYER
  5
78
330
2
100
AcDbSymbolTableRecord
100
AcDbLayerTableRecord
  2
개별주서
 70
     0
 62
   100
  6
Continuous
370
    30
390
F
  0
LAYER
  5
79
330
2
100
AcDbSymbolTableRecord
100
AcDbLayerTableRecord
  2
중간선
 70
     0
 62
     2
  6
Continuous
370
    15
390
F
  0
LAYER
  5
7A
330
2
100
AcDbSymbolTableRecord
100
AcDbLayerTableRecord
  2
윤곽선
 70
     0
 62
     3
  6
Continuous
370
    40
390
F
  0
LAYER
  5
7B
330
2
100
AcDbSymbolTableRecord
100
AcDbLayerTableRecord
  2
중심마크
 70
     0
 62
   100
  6
Continuous
370
    30
390
F
  0
LAYER
  5
7C
330
2
100
AcDbSymbolTableRecord
100
AcDbLayerTableRecord
  2
가상선
 70
     0
 62
     4
  6
PHANTOM
370
    -3
390
F
  0
LAYER
  5
7D
330
2
100
AcDbSymbolTableRecord
100
AcDbLayerTableRecord
  2
특수지정선
 70
     0
 62
     5
  6
CENTERX2
370
    60
390
F
  0
LAYER
  5
7E
330
2
100
AcDbSymbolTableRecord
100
AcDbLayerTableRecord
  2
참조1
 70
     0
 62
    -4
  6
Continuous
370
    -3
390
F
  0
LAYER
  5
15A
330
2
100
AcDbSymbolTableRecord
100
AcDbLayerTableRecord
  2
Defpoints
 70
     0
 62
     7
  6
Continuous
290
     0
370
    -3
390
F
  0
ENDTAB
  0
TABLE
  2
STYLE
  5
3
330
0
100
AcDbSymbolTable
 70
     2
  0
STYLE
  5
11
330
3
100
AcDbSymbolTableRecord
100
AcDbTextStyleTableRecord
  2
Standard
 70
     0
 40
0.0
 41
1.0
 50
0.0
 71
     0
 42
3.5
  3
txt
  4

  0
STYLE
  5
94
330
3
100
AcDbSymbolTableRecord
100
AcDbTextStyleTableRecord
  2
SLDTEXTSTYLE0
 70
     0
 40
0.0
 41
0.75
 50
0.0
 71
     0
 42
3.5
  3
TXT
  4

  0
ENDTAB
  0
TABLE
  2
VIEW
  5
6
330
0
100
AcDbSymbolTable
 70
     0
  0
ENDTAB
  0
TABLE
  2
UCS
  5
7
330
0
100
AcDbSymbolTable
 70
     0
  0
ENDTAB
  0
TABLE
  2
APPID
  5
9
330
0
100
AcDbSymbolTable
 70
     2
  0
APPID
  5
12
330
9
100
AcDbSymbolTableRecord
100
AcDbRegAppTableRecord
  2
ACAD
 70
     0
  0
APPID
  5
1DE
330
9
100
AcDbSymbolTableRecord
100
AcDbRegAppTableRecord
  2
PE_URL
 70
     0
  0
ENDTAB
  0
TABLE
  2
DIMSTYLE
  5
A
330
0
100
AcDbSymbolTable
 70
     3
100
AcDbDimStyleTable
  0
DIMSTYLE
105
27
330
A
100
AcDbSymbolTableRecord
100
AcDbDimStyleTableRecord
  2
ISO-25
 70
     0
 41
2.5
 42
0.625
 43
3.75
 44
1.25
 73
     0
 74
     0
 77
     1
 78
     8
140
2.5
141
2.5
143
0.03937007874016
147
0.625
171
     3
172
     1
178
     0
271
     2
272
     2
274
     3
278
    44
283
     0
284
     8
340
11
  0
DIMSTYLE
105
DA
102
{ACAD_REACTORS
330
D9
330
EE
330
102
330
116
102
}
330
A
100
AcDbSymbolTableRecord
100
AcDbDimStyleTableRecord
  2
SLDDIMSTYLE0
 70
     0
 41
3.302
 44
0.0
 45
0.000000001
 73
     0
 74
     0
 77
     1
 78
     4
 79
     1
140
3.5
143
0.0393700787401575
147
0.875
148
0.000000001
170
     1
172
     1
173
     1
178
     0
271
     2
272
     2
276
     2
284
    12
289
     0
340
94
  0
DIMSTYLE
105
EF
330
A
100
AcDbSymbolTableRecord
100
AcDbDimStyleTableRecord
  2
SLDDIMSTYLE1
 70
     0
 41
3.302
 44
0.0
 45
0.000000001
 73
     0
 74
     0
 77
     1
 78
    12
 79
     3
140
3.5
143
0.0393700787401575
147
0.875
148
0.000000001
170
     1
173
     1
178
     0
271
     2
272
     2
276
     2
284
    12
340
94
  0
ENDTAB
  0
TABLE
  2
BLOCK_RECORD
  5
1
330
0
100
AcDbSymbolTable
 70
    11
  0
BLOCK_RECORD
  5
1F
330
1
100
AcDbSymbolTableRecord
100
AcDbBlockTableRecord
  2
*Model_Space
340
22
  0
BLOCK_RECORD
  5
1B
330
1
100
AcDbSymbolTableRecord
100
AcDbBlockTableRecord
  2
*Paper_Space
340
1E
  0
BLOCK_RECORD
  5
23
330
1
100
AcDbSymbolTableRecord
100
AcDbBlockTableRecord
  2
*Paper_Space0
340
26
  0
BLOCK_RECORD
  5
7F
330
1
100
AcDbSymbolTableRecord
100
AcDbBlockTableRecord
  2
블럭10
340
0
102
{BLKREFS
331
D2
102
}
  0
BLOCK_RECORD
  5
DB
330
1
100
AcDbSymbolTableRecord
100
AcDbBlockTableRecord
  2
_D
340
0
  0
BLOCK_RECORD
  5
F0
330
1
100
AcDbSymbolTableRecord
100
AcDbBlockTableRecord
  2
_D_1
340
0
  0
BLOCK_RECORD
  5
103
330
1
100
AcDbSymbolTableRecord
100
AcDbBlockTableRecord
  2
_D_2
340
0
  0
BLOCK_RECORD
  5
117
330
1
100
AcDbSymbolTableRecord
100
AcDbBlockTableRecord
  2
_D_3
340
0
  0
BLOCK_RECORD
  5
130
330
1
100
AcDbSymbolTableRecord
100
AcDbBlockTableRecord
  2
SW_DOWELSYMBOL_0
340
0
102
{BLKREFS
331
136
102
}
  0
BLOCK_RECORD
  5
191
330
1
100
AcDbSymbolTableRecord
100
AcDbBlockTableRecord
  2
*D7
340
0
  0
BLOCK_RECORD
  5
1A0
330
1
100
AcDbSymbolTableRecord
100
AcDbBlockTableRecord
  2
*D8
340
0
  0
BLOCK_RECORD
  5
21C
330
1
100
AcDbSymbolTableRecord
100
AcDbBlockTableRecord
  2
*D9
340
0
  0
BLOCK_RECORD
  5
231
330
1
100
AcDbSymbolTableRecord
100
AcDbBlockTableRecord
  2
*D10
340
0
  0
ENDTAB
  0
ENDSEC
  0
SECTION
  2
BLOCKS
  0
BLOCK
  5
20
330
1F
100
AcDbEntity
  8
0
100
AcDbBlockBegin
  2
*Model_Space
 70
     0
 10
0.0
 20
0.0
 30
0.0
  3
*Model_Space
  1
*Model_Space
  0
ENDBLK
  5
21
330
1F
100
AcDbEntity
  8
0
100
AcDbBlockEnd
  0
BLOCK
  5
1C
330
1B
100
AcDbEntity
 67
     1
  8
0
100
AcDbBlockBegin
  2
*Paper_Space
 70
     0
 10
0.0
 20
0.0
 30
0.0
  3
*Paper_Space
  1
*Paper_Space
  0
ENDBLK
  5
1D
330
1B
100
AcDbEntity
 67
     1
  8
0
100
AcDbBlockEnd
  0
BLOCK
  5
24
330
23
100
AcDbEntity
  8
0
100
AcDbBlockBegin
  2
*Paper_Space0
 70
     0
 10
0.0
 20
0.0
 30
0.0
  3
*Paper_Space0
  1
*Paper_Space0
  0
ENDBLK
  5
25
330
23
100
AcDbEntity
  8
0
100
AcDbBlockEnd
  0
BLOCK
  5
80
330
7F
100
AcDbEntity
  8
0
100
AcDbBlockBegin
  2
블럭10
 70
     2
 10
0.0
 20
0.0
 30
0.0
  3
블럭10
  1
블럭10
  0
ELLIPSE
  5
82
330
7F
100
AcDbEntity
  8
중심선
100
AcDbEllipse
 10
20.54032771741204
 20
12.0471743016438
 30
0.0
 11
6.600054785286829
 21
-1.261213355974178E-13
 31
0.0
210
0.0
220
0.0
230
1.0
 40
0.636358354079598
 41
0.9219305317359503
 42
6.513795318482858
  0
ELLIPSE
  5
83
330
7F
100
AcDbEntity
  8
중심선
100
AcDbEllipse
 10
20.54032771746488
 20
12.04717430159265
 30
0.0
 11
3.960054785062283
 21
1.540847449632565E-10
 31
0.0
210
0.0
220
0.0
230
1.0
 40
0.3939339440162632
 41
1.131841032648279
 42
5.62031148352944
  0
LINE
  5
84
330
7F
100
AcDbEntity
  8
중심선
100
AcDbLine
 10
2.268634060543552
 20
16.24717430164393
 30
0.0
 11
5.714909304380834
 21
16.24717430164393
 31
0.0
  0
LINE
  5
85
330
7F
100
AcDbEntity
  8
중심선
100
AcDbLine
 10
5.245725140726316
 20
7.84717430164391
 30
0.0
 11
8.692000384563599
 21
7.84717430164391
 31
0.0
  0
LINE
  5
86
330
7F
100
AcDbEntity
  8
중심선
100
AcDbLine
 10
15.74043728645272
 20
16.24717430164393
 30
0.0
 11
8.692000384563599
 21
7.84717430164391
 31
0.0
  0
LINE
  5
87
330
7F
100
AcDbEntity
  8
중심선
100
AcDbLine
 10
0.1404042013395286
 20
13.71084872107135
 30
0.0
 11
3.58671253028996
 21
13.71088815037384
 31
0.0
  0
LINE
  5
88
330
7F
100
AcDbEntity
  8
중심선
100
AcDbLine
 10
2.750260043222114
 20
10.84717430164391
 30
0.0
 11
6.196535287059397
 21
10.84717430164391
 31
0.0
  0
LINE
  5
89
330
7F
100
AcDbEntity
  8
중심선
100
AcDbLine
 10
12.29416204261559
 20
16.24717430164393
 30
0.0
 11
5.245725140726316
 21
7.84717430164391
 31
0.0
  0
LINE
  5
8A
330
7F
100
AcDbEntity
  8
중심선
100
AcDbLine
 10
10.72767329541681
 20
16.24717430164393
 30
0.0
 11
6.196535287059397
 21
10.84717430164391
 31
0.0
  0
LINE
  5
8B
330
7F
100
AcDbEntity
  8
중심선
100
AcDbLine
 10
7.28139805157953
 20
16.24717430164393
 30
0.0
 11
2.750260043222114
 21
10.84717430164391
 31
0.0
  0
LINE
  5
8C
330
7F
100
AcDbEntity
  8
중심선
100
AcDbLine
 10
5.714909304380834
 20
16.24717430164393
 30
0.0
 11
3.58671253028996
 21
13.71088815037384
 31
0.0
  0
LINE
  5
8D
330
7F
100
AcDbEntity
  8
중심선
100
AcDbLine
 10
2.268634060543552
 20
16.24717430164393
 30
0.0
 11
0.1404042013395286
 21
13.71084872107135
 31
0.0
  0
LINE
  5
8E
330
7F
100
AcDbEntity
  8
중심선
100
AcDbLine
 10
7.28139805157953
 20
16.24717430164393
 30
0.0
 11
10.72767329541681
 21
16.24717430164393
 31
0.0
  0
LINE
  5
8F
330
7F
100
AcDbEntity
  8
중심선
100
AcDbLine
 10
12.29416204261559
 20
16.24717430164393
 30
0.0
 11
15.74043728645272
 21
16.24717430164393
 31
0.0
  0
LINE
  5
90
330
7F
100
AcDbEntity
  8
중심선
100
AcDbLine
 10
19.22036997980202
 20
11.08717430171403
 30
0.0
 11
23.66174974927406
 21
11.08717430171406
 31
0.0
  0
LINE
  5
91
330
7F
100
AcDbEntity
  8
중심선
100
AcDbLine
 10
19.22039502424796
 20
13.00717430171391
 30
0.0
 11
19.22036997980202
 21
11.08717430171403
 31
0.0
  0
LINE
  5
92
330
7F
100
AcDbEntity
  8
중심선
100
AcDbLine
 10
19.22039502424796
 20
13.00717430171391
 30
0.0
 11
26.96566020931264
 21
13.00717430171391
 31
0.0
  0
LINE
  5
93
330
7F
100
AcDbEntity
  8
중심선
100
AcDbLine
 10
22.22332737316547
 20
13.45928029700563
 30
0.0
 11
24.52862924686651
 21
15.39360700705356
 31
0.0
  0
ATTDEF
  5
95
330
7F
100
AcDbEntity
  8
FORMAT
 62
     2
100
AcDbText
 10
4.408487351596664
 20
2.075366912832191
 30
0.0
 40
4.233333333333333
  1
E1050026
 41
0.75
  7
SLDTEXTSTYLE0
 11
4.408487351596664
 21
-0.0412997538344756
 31
0.0
100
AcDbAttributeDefinition
  3

  2
AUTOATTR0
 70
     0
 74
     1
  0
ENDBLK
  5
81
330
7F
100
AcDbEntity
  8
0
100
AcDbBlockEnd
  0
BLOCK
  5
DC
330
DB
100
AcDbEntity
  8
0
100
AcDbBlockBegin
  2
_D
 70
     0
 10
0.0
 20
0.0
 30
0.0
  3
_D
  1
_D
  0
LINE
  5
DE
330
DB
100
AcDbEntity
  8
치수문자_일반주서
 62
     0
370
    -2
100
AcDbLine
 10
-21.60652700723833
 20
6.349999999999992
 30
0.0
 11
-57.62499999999999
 21
6.349999999999856
 31
0.0
  0
LINE
  5
DF
330
DB
100
AcDbEntity
  8
치수문자_일반주서
 62
     0
370
    -2
100
AcDbLine
 10
-21.60652700723834
 20
-6.350000000000001
 30
0.0
 11
-57.62499999999995
 21
-6.350000000000136
 31
0.0
  0
LINE
  5
E0
330
DB
100
AcDbEntity
  8
치수문자_일반주서
 62
     0
370
    -2
100
AcDbLine
 10
-57.62499999999999
 20
6.349999999999856
 30
0.0
 11
-57.6250000000001
 21
39.64149999999995
 31
0.0
  0
LINE
  5
E1
330
DB
100
AcDbEntity
  8
치수문자_일반주서
 62
     0
370
    -2
100
AcDbLine
 10
-57.62499999999999
 20
6.349999999999856
 30
0.0
 11
-57.62499999999995
 21
-6.350000000000136
 31
0.0
  0
LINE
  5
E2
330
DB
100
AcDbEntity
  8
치수문자_일반주서
 62
     0
370
    -2
100
AcDbLine
 10
-57.62500000000001
 20
9.651999999999855
 30
0.0
 11
-57.62500000000002
 21
12.95399999999985
 31
0.0
  0
LINE
  5
E3
330
DB
100
AcDbEntity
  8
치수문자_일반주서
 62
     0
370
    -2
100
AcDbLine
 10
-57.62499999999994
 20
-9.652000000000136
 30
0.0
 11
-57.62499999999992
 21
-12.95400000000014
 31
0.0
  0
SOLID
  5
E4
330
DB
100
AcDbEntity
  8
치수문자_일반주서
 62
     0
100
AcDbTrace
 10
-58.17533333333334
 20
9.651999999999854
 30
0.0
 11
-57.07466666666667
 21
9.651999999999857
 31
0.0
 12
-57.62499999999999
 22
6.349999999999856
 32
0.0
 13
-57.62499999999999
 23
6.349999999999856
 33
0.0
  0
SOLID
  5
E5
330
DB
100
AcDbEntity
  8
치수문자_일반주서
 62
     0
100
AcDbTrace
 10
-57.0746666666666
 20
-9.652000000000134
 30
0.0
 11
-58.17533333333327
 21
-9.652000000000138
 31
0.0
 12
-57.62499999999995
 22
-6.350000000000136
 32
0.0
 13
-57.62499999999995
 23
-6.350000000000136
 33
0.0
  0
MTEXT
  5
E6
330
DB
100
AcDbEntity
  8
치수문자_일반주서
 62
     0
100
AcDbMText
 10
-62.00000000000006
 20
26.29774999999994
 30
0.0
 40
3.5
 41
0.0
 71
     2
 72
     1
  1
\A1;%%c12.70 [1/2]
  7
SLDTEXTSTYLE0
 11
-3.356894814614648E-15
 21
1.0
 31
0.0
 73
     1
 44
1.0
  0
POINT
  5
243
330
DB
100
AcDbEntity
  8
Defpoints
 62
     0
100
AcDbPoint
 10
-21.54402700723833
 20
6.349999999999992
 30
0.0
  0
POINT
  5
244
330
DB
100
AcDbEntity
  8
Defpoints
 62
     0
100
AcDbPoint
 10
-21.54402700723834
 20
-6.350000000000001
 30
0.0
  0
POINT
  5
245
330
DB
100
AcDbEntity
  8
Defpoints
 62
     0
100
AcDbPoint
 10
-57.62499999999995
 20
-6.350000000000136
 30
0.0
  0
ENDBLK
  5
DD
330
DB
100
AcDbEntity
  8
0
100
AcDbBlockEnd
  0
BLOCK
  5
F1
330
F0
100
AcDbEntity
  8
0
100
AcDbBlockBegin
  2
_D_1
 70
     0
 10
0.0
 20
0.0
 30
0.0
  3
_D_1
  1
_D_1
  0
LINE
  5
F3
330
F0
100
AcDbEntity
  8
치수문자_일반주서
 62
     0
370
    -2
100
AcDbLine
 10
47.68750000000001
 20
-5.155014374825443
 30
0.0
 11
90.18585882704264
 21
-5.155014374825289
 31
0.0
  0
LINE
  5
F4
330
F0
100
AcDbEntity
  8
치수문자_일반주서
 62
     0
370
    -2
100
AcDbLine
 10
47.68750000000001
 20
5.155014374825439
 30
0.0
 11
90.1858588270426
 21
5.155014374825598
 31
0.0
  0
LINE
  5
F5
330
F0
100
AcDbEntity
  8
치수문자_일반주서
 62
     0
370
    -2
100
AcDbLine
 10
90.1858588270426
 20
5.155014374825598
 30
0.0
 11
90.18585882704244
 21
42.8215143748256
 31
0.0
  0
LINE
  5
F6
330
F0
100
AcDbEntity
  8
치수문자_일반주서
 62
     0
370
    -2
100
AcDbLine
 10
90.18585882704264
 20
-5.155014374825289
 30
0.0
 11
90.1858588270426
 21
5.155014374825598
 31
0.0
  0
LINE
  5
F7
330
F0
100
AcDbEntity
  8
치수문자_일반주서
 62
     0
370
    -2
100
AcDbLine
 10
90.18585882704265
 20
-8.457014374825288
 30
0.0
 11
90.18585882704267
 21
-11.75901437482529
 31
0.0
  0
LINE
  5
F8
330
F0
100
AcDbEntity
  8
치수문자_일반주서
 62
     0
370
    -2
100
AcDbLine
 10
90.18585882704258
 20
8.457014374825597
 30
0.0
 11
90.18585882704257
 21
11.7590143748256
 31
0.0
  0
SOLID
  5
F9
330
F0
100
AcDbEntity
  8
치수문자_일반주서
 62
     0
100
AcDbTrace
 10
90.73619216037598
 20
-8.457014374825286
 30
0.0
 11
89.63552549370932
 21
-8.45701437482529
 31
0.0
 12
90.18585882704264
 22
-5.155014374825289
 32
0.0
 13
90.18585882704264
 23
-5.155014374825289
 33
0.0
  0
SOLID
  5
FA
330
F0
100
AcDbEntity
  8
치수문자_일반주서
 62
     0
100
AcDbTrace
 10
89.63552549370925
 20
8.457014374825595
 30
0.0
 11
90.73619216037591
 21
8.457014374825599
 31
0.0
 12
90.1858588270426
 22
5.155014374825598
 32
0.0
 13
90.1858588270426
 23
5.155014374825598
 33
0.0
  0
MTEXT
  5
FB
330
F0
100
AcDbEntity
  8
치수문자_일반주서
 62
     0
100
AcDbMText
 10
85.81085882704251
 20
27.29026437482558
 30
0.0
 40
3.5
 41
0.0
 71
     2
 72
     1
  1
\A1;%%c10.31 [13/32]
  7
SLDTEXTSTYLE0
 11
-4.135057736579992E-15
 21
1.0
 31
0.0
 73
     1
 44
1.0
  0
POINT
  5
FC
330
F0
100
AcDbEntity
  8
Defpoints
 62
     0
100
AcDbPoint
 10
47.62500000000001
 20
-5.155014374825443
 30
0.0
  0
POINT
  5
FD
330
F0
100
AcDbEntity
  8
Defpoints
 62
     0
100
AcDbPoint
 10
47.62500000000001
 20
5.155014374825439
 30
0.0
  0
POINT
  5
FE
330
F0
100
AcDbEntity
  8
Defpoints
 62
     0
100
AcDbPoint
 10
90.1858588270426
 20
5.155014374825598
 30
0.0
  0
ENDBLK
  5
F2
330
F0
100
AcDbEntity
  8
0
100
AcDbBlockEnd
  0
BLOCK
  5
104
330
103
100
AcDbEntity
  8
0
100
AcDbBlockBegin
  2
_D_2
 70
     0
 10
0.0
 20
0.0
 30
0.0
  3
_D_2
  1
_D_2
  0
LINE
  5
106
330
103
100
AcDbEntity
  8
치수문자_일반주서
 62
     0
370
    -2
100
AcDbLine
 10
47.62500000000001
 20
5.217514374825439
 30
0.0
 11
47.62500000000001
 21
16.34999999999999
 31
0.0
  0
LINE
  5
107
330
103
100
AcDbEntity
  8
치수문자_일반주서
 62
     0
370
    -2
100
AcDbLine
 10
26.98750000000001
 20
4.562352614348421
 30
0.0
 11
26.98750000000001
 21
16.34999999999999
 31
0.0
  0
LINE
  5
108
330
103
100
AcDbEntity
  8
치수문자_일반주서
 62
     0
370
    -2
100
AcDbLine
 10
47.62500000000001
 20
16.34999999999999
 30
0.0
 11
83.54150000000001
 21
16.34999999999999
 31
0.0
  0
LINE
  5
109
330
103
100
AcDbEntity
  8
치수문자_일반주서
 62
     0
370
    -2
100
AcDbLine
 10
47.62500000000001
 20
16.34999999999999
 30
0.0
 11
26.98750000000001
 21
16.34999999999999
 31
0.0
  0
LINE
  5
10A
330
103
100
AcDbEntity
  8
치수문자_일반주서
 62
     0
370
    -2
100
AcDbLine
 10
50.92700000000001
 20
16.34999999999999
 30
0.0
 11
54.22900000000001
 21
16.34999999999999
 31
0.0
  0
LINE
  5
10B
330
103
100
AcDbEntity
  8
치수문자_일반주서
 62
     0
370
    -2
100
AcDbLine
 10
23.68550000000001
 20
16.34999999999999
 30
0.0
 11
20.38350000000001
 21
16.34999999999999
 31
0.0
  0
SOLID
  5
10C
330
103
100
AcDbEntity
  8
치수문자_일반주서
 62
     0
100
AcDbTrace
 10
50.92700000000001
 20
16.90033333333333
 30
0.0
 11
50.92700000000001
 21
15.79966666666666
 31
0.0
 12
47.62500000000001
 22
16.34999999999999
 32
0.0
 13
47.62500000000001
 23
16.34999999999999
 33
0.0
  0
SOLID
  5
10D
330
103
100
AcDbEntity
  8
치수문자_일반주서
 62
     0
100
AcDbTrace
 10
23.68550000000001
 20
15.79966666666666
 30
0.0
 11
23.68550000000001
 21
16.90033333333333
 31
0.0
 12
26.98750000000001
 22
16.34999999999999
 32
0.0
 13
26.98750000000001
 23
16.34999999999999
 33
0.0
  0
MTEXT
  5
10E
330
103
100
AcDbEntity
  8
치수문자_일반주서
 62
     0
100
AcDbMText
 10
68.88525000000001
 20
20.72499999999999
 30
0.0
 40
3.5
 41
0.0
 71
     2
 72
     1
  1
\A1;20.64 [13/16]
  7
SLDTEXTSTYLE0
 73
     1
 44
1.0
  0
POINT
  5
10F
330
103
100
AcDbEntity
  8
Defpoints
 62
     0
100
AcDbPoint
 10
47.62500000000001
 20
5.155014374825439
 30
0.0
  0
POINT
  5
110
330
103
100
AcDbEntity
  8
Defpoints
 62
     0
100
AcDbPoint
 10
26.98750000000001
 20
4.499852614348421
 30
0.0
  0
POINT
  5
111
330
103
100
AcDbEntity
  8
Defpoints
 62
     0
100
AcDbPoint
 10
26.98750000000001
 20
16.34999999999999
 30
0.0
  0
ENDBLK
  5
105
330
103
100
AcDbEntity
  8
0
100
AcDbBlockEnd
  0
BLOCK
  5
118
330
117
100
AcDbEntity
  8
0
100
AcDbBlockBegin
  2
_D_3
 70
     0
 10
0.0
 20
0.0
 30
0.0
  3
_D_3
  1
_D_3
  0
LINE
  5
11A
330
117
100
AcDbEntity
  8
치수문자_일반주서
 62
     0
370
    -2
100
AcDbLine
 10
-47.62500000000001
 20
5.217514374825431
 30
0.0
 11
-47.62500000000001
 21
26.34999999999999
 31
0.0
  0
LINE
  5
11B
330
117
100
AcDbEntity
  8
치수문자_일반주서
 62
     0
370
    -2
100
AcDbLine
 10
47.62500000000001
 20
5.217514374825439
 30
0.0
 11
47.62500000000001
 21
26.34999999999999
 31
0.0
  0
LINE
  5
11C
330
117
100
AcDbEntity
  8
치수문자_일반주서
 62
     0
370
    -2
100
AcDbLine
 10
-44.32300000000001
 20
26.34999999999999
 30
0.0
 11
44.32300000000001
 21
26.34999999999999
 31
0.0
  0
SOLID
  5
11D
330
117
100
AcDbEntity
  8
치수문자_일반주서
 62
     0
100
AcDbTrace
 10
-44.32300000000001
 20
26.90033333333333
 30
0.0
 11
-44.32300000000001
 21
25.79966666666666
 31
0.0
 12
-47.62500000000001
 22
26.34999999999999
 32
0.0
 13
-47.62500000000001
 23
26.34999999999999
 33
0.0
  0
SOLID
  5
11E
330
117
100
AcDbEntity
  8
치수문자_일반주서
 62
     0
100
AcDbTrace
 10
44.32300000000001
 20
25.79966666666666
 30
0.0
 11
44.32300000000001
 21
26.90033333333333
 31
0.0
 12
47.62500000000001
 22
26.34999999999999
 32
0.0
 13
47.62500000000001
 23
26.34999999999999
 33
0.0
  0
MTEXT
  5
11F
330
117
100
AcDbEntity
  8
치수문자_일반주서
 62
     0
100
AcDbMText
 10
0.0000000000000142
 20
30.72499999999999
 30
0.0
 40
3.5
 41
0.0
 71
     2
 72
     1
  1
\A1;95.25 [3 3/4]
  7
SLDTEXTSTYLE0
 73
     1
 44
1.0
  0
POINT
  5
120
330
117
100
AcDbEntity
  8
Defpoints
 62
     0
100
AcDbPoint
 10
-47.62500000000001
 20
5.155014374825431
 30
0.0
  0
POINT
  5
121
330
117
100
AcDbEntity
  8
Defpoints
 62
     0
100
AcDbPoint
 10
47.62500000000001
 20
5.155014374825439
 30
0.0
  0
POINT
  5
122
330
117
100
AcDbEntity
  8
Defpoints
 62
     0
100
AcDbPoint
 10
47.62500000000001
 20
26.34999999999999
 30
0.0
  0
ENDBLK
  5
119
330
117
100
AcDbEntity
  8
0
100
AcDbBlockEnd
  0
BLOCK
  5
131
330
130
100
AcDbEntity
  8
0
100
AcDbBlockBegin
  2
SW_DOWELSYMBOL_0
 70
     0
 10
0.0
 20
0.0
 30
0.0
  3
SW_DOWELSYMBOL_0
  1
SW_DOWELSYMBOL_0
  0
CIRCLE
  5
133
330
130
100
AcDbEntity
  8
해칭선
 62
     0
100
AcDbCircle
 10
0.0
 20
0.0
 30
0.0
 40
3.000000000000001
  0
HATCH
  5
134
330
130
100
AcDbEntity
  8
0
  6
Continuous
 62
     0
370
     0
100
AcDbHatch
 10
0.0
 20
0.0
 30
0.0
210
0.0
220
0.0
230
1.0
  2
SOLID
 70
     1
 71
     0
 91
        1
 92
        0
 93
        3
 72
     2
 10
0.0
 20
0.0
 40
3.000000000000001
 50
0.0
 51
90.0
 73
     1
 72
     1
 10
0.0
 20
3.000000000000001
 11
0.0
 21
0.0
 72
     1
 10
0.0
 20
0.0
 11
3.000000000000001
 21
0.0
 97
        0
 75
     0
 76
     1
 98
        1
 10
0.0
 20
0.0
  0
HATCH
  5
135
330
130
100
AcDbEntity
  8
0
  6
Continuous
 62
     0
370
     0
100
AcDbHatch
 10
0.0
 20
0.0
 30
0.0
210
0.0
220
0.0
230
1.0
  2
SOLID
 70
     1
 71
     0
 91
        1
 92
        0
 93
        3
 72
     2
 10
0.0
 20
0.0
 40
3.000000000000001
 50
180.0
 51
270.0000000000007
 73
     1
 72
     1
 10
0.0
 20
-3.000000000000001
 11
0.0
 21
0.0
 72
     1
 10
0.0
 20
0.0
 11
-3.000000000000001
 21
0.0
 97
        0
 75
     0
 76
     1
 98
        1
 10
0.0
 20
0.0
  0
ENDBLK
  5
132
330
130
100
AcDbEntity
  8
0
100
AcDbBlockEnd
  0
BLOCK
  5
192
330
191
100
AcDbEntity
  8
0
100
AcDbBlockBegin
  2
*D7
 70
     1
 10
0.0
 20
0.0
 30
0.0
  3
*D7
  1
*D7
  0
LINE
  5
194
330
191
100
AcDbEntity
  8
치수문자_일반주서
 62
     0
370
    -2
100
AcDbLine
 10
0.0
 20
0.5121961990748796
 30
0.0
 11
0.0
 21
33.79272327212171
 31
0.0
  0
LINE
  5
195
330
191
100
AcDbEntity
  8
치수문자_일반주서
 62
     0
370
    -2
100
AcDbLine
 10
25.99995813577124
 20
8.175743682859753
 30
0.0
 11
25.99995813577124
 21
33.79272327212171
 31
0.0
  0
LINE
  5
196
330
191
100
AcDbEntity
  8
치수문자_일반주서
 62
     0
370
    -2
100
AcDbLine
 10
3.302
 20
33.79272327212171
 30
0.0
 11
22.69795813577124
 21
33.79272327212171
 31
0.0
  0
SOLID
  5
197
330
191
100
AcDbEntity
  8
치수문자_일반주서
 62
     0
100
AcDbTrace
 10
3.302
 20
34.34305660545504
 30
0.0
 11
3.302
 21
33.24238993878837
 31
0.0
 12
0.0
 22
33.79272327212171
 32
0.0
 13
0.0
 23
33.79272327212171
 33
0.0
  0
SOLID
  5
198
330
191
100
AcDbEntity
  8
치수문자_일반주서
 62
     0
100
AcDbTrace
 10
22.69795813577124
 20
33.24238993878837
 30
0.0
 11
22.69795813577124
 21
34.34305660545504
 31
0.0
 12
25.99995813577124
 22
33.79272327212171
 32
0.0
 13
25.99995813577124
 23
33.79272327212171
 33
0.0
  0
MTEXT
  5
199
330
191
100
AcDbEntity
  8
치수문자_일반주서
 62
     0
100
AcDbMText
 10
13.04655386270326
 20
38.16772327212171
 30
0.0
 40
3.5
 41
0.0
 71
     2
 72
     1
  1
\A1;26.00 [1.02]
  7
SLDTEXTSTYLE0
 73
     1
 44
1.0
  0
POINT
  5
19A
330
191
100
AcDbEntity
  8
Defpoints
 62
     0
100
AcDbPoint
 10
0.0
 20
0.4496961990748796
 30
0.0
  0
POINT
  5
19B
330
191
100
AcDbEntity
  8
Defpoints
 62
     0
100
AcDbPoint
 10
25.99995813577124
 20
8.113243682859753
 30
0.0
  0
POINT
  5
19C
330
191
100
AcDbEntity
  8
Defpoints
 62
     0
100
AcDbPoint
 10
25.99995813577124
 20
33.79272327212171
 30
0.0
  0
ENDBLK
  5
193
330
191
100
AcDbEntity
  8
0
100
AcDbBlockEnd
  0
BLOCK
  5
1A1
330
1A0
100
AcDbEntity
  8
0
100
AcDbBlockBegin
  2
*D8
 70
     1
 10
0.0
 20
0.0
 30
0.0
  3
*D8
  1
*D8
  0
LINE
  5
1A3
330
1A0
100
AcDbEntity
  8
치수문자_일반주서
 62
     0
370
    -2
100
AcDbLine
 10
73.50747820153092
 20
-20.2379937822148
 30
0.0
 11
73.50747820153092
 21
13.04253329083203
 31
0.0
  0
LINE
  5
1A4
330
1A0
100
AcDbEntity
  8
치수문자_일반주서
 62
     0
370
    -2
100
AcDbLine
 10
99.50743633730215
 20
-12.57444629842993
 30
0.0
 11
99.50743633730215
 21
13.04253329083203
 31
0.0
  0
LINE
  5
1A5
330
1A0
100
AcDbEntity
  8
치수문자_일반주서
 62
     0
370
    -2
100
AcDbLine
 10
76.80947820153091
 20
13.04253329083203
 30
0.0
 11
96.20543633730216
 21
13.04253329083203
 31
0.0
  0
SOLID
  5
1A6
330
1A0
100
AcDbEntity
  8
치수문자_일반주서
 62
     0
100
AcDbTrace
 10
76.80947820153091
 20
13.59286662416536
 30
0.0
 11
76.80947820153091
 21
12.49219995749869
 31
0.0
 12
73.50747820153092
 22
13.04253329083203
 32
0.0
 13
73.50747820153092
 23
13.04253329083203
 33
0.0
  0
SOLID
  5
1A7
330
1A0
100
AcDbEntity
  8
치수문자_일반주서
 62
     0
100
AcDbTrace
 10
96.20543633730216
 20
12.49219995749869
 30
0.0
 11
96.20543633730216
 21
13.59286662416536
 31
0.0
 12
99.50743633730215
 22
13.04253329083203
 32
0.0
 13
99.50743633730215
 23
13.04253329083203
 33
0.0
  0
MTEXT
  5
1A8
330
1A0
100
AcDbEntity
  8
치수문자_일반주서
 62
     0
100
AcDbMText
 10
86.55403206423418
 20
17.41753329083203
 30
0.0
 40
3.5
 41
0.0
 71
     2
 72
     1
  1
\A1;26.00 [1.02]
  7
SLDTEXTSTYLE0
 73
     1
 44
1.0
  0
POINT
  5
1A9
330
1A0
100
AcDbEntity
  8
Defpoints
 62
     0
100
AcDbPoint
 10
73.50747820153092
 20
-20.3004937822148
 30
0.0
  0
POINT
  5
1AA
330
1A0
100
AcDbEntity
  8
Defpoints
 62
     0
100
AcDbPoint
 10
99.50743633730215
 20
-12.63694629842993
 30
0.0
  0
POINT
  5
1AB
330
1A0
100
AcDbEntity
  8
Defpoints
 62
     0
100
AcDbPoint
 10
99.50743633730215
 20
13.04253329083203
 30
0.0
  0
ENDBLK
  5
1A2
330
1A0
100
AcDbEntity
  8
0
100
AcDbBlockEnd
  0
BLOCK
  5
21D
330
21C
100
AcDbEntity
  8
0
100
AcDbBlockBegin
  2
*D9
 70
     1
 10
0.0
 20
0.0
 30
0.0
  3
*D9
  1
*D9
  0
LINE
  5
21F
330
21C
100
AcDbEntity
  8
치수문자_일반주서
 62
     0
370
    -2
100
AcDbLine
 10
54.73699999999996
 20
3.631580296889929
 30
0.0
 11
54.73699999999996
 21
14.96233570571162
 31
0.0
  0
LINE
  5
220
330
21C
100
AcDbEntity
  8
치수문자_일반주서
 62
     0
370
    -2
100
AcDbLine
 10
34.09949999999996
 20
3.20671347064068
 30
0.0
 11
34.09949999999996
 21
14.96233570571162
 31
0.0
  0
LINE
  5
221
330
21C
100
AcDbEntity
  8
치수문자_일반주서
 62
     0
370
    -2
100
AcDbLine
 10
54.73699999999996
 20
14.96233570571162
 30
0.0
 11
90.65349999999997
 21
14.96233570571162
 31
0.0
  0
LINE
  5
222
330
21C
100
AcDbEntity
  8
치수문자_일반주서
 62
     0
370
    -2
100
AcDbLine
 10
54.73699999999996
 20
14.96233570571162
 30
0.0
 11
34.09949999999996
 21
14.96233570571162
 31
0.0
  0
LINE
  5
223
330
21C
100
AcDbEntity
  8
치수문자_일반주서
 62
     0
370
    -2
100
AcDbLine
 10
58.03899999999996
 20
14.96233570571162
 30
0.0
 11
61.34099999999996
 21
14.96233570571162
 31
0.0
  0
LINE
  5
224
330
21C
100
AcDbEntity
  8
치수문자_일반주서
 62
     0
370
    -2
100
AcDbLine
 10
30.79749999999996
 20
14.96233570571162
 30
0.0
 11
27.49549999999996
 21
14.96233570571162
 31
0.0
  0
SOLID
  5
225
330
21C
100
AcDbEntity
  8
치수문자_일반주서
 62
     0
100
AcDbTrace
 10
58.03899999999996
 20
15.51266903904495
 30
0.0
 11
58.03899999999996
 21
14.41200237237829
 31
0.0
 12
54.73699999999996
 22
14.96233570571162
 32
0.0
 13
54.73699999999996
 23
14.96233570571162
 33
0.0
  0
SOLID
  5
226
330
21C
100
AcDbEntity
  8
치수문자_일반주서
 62
     0
100
AcDbTrace
 10
30.79749999999996
 20
14.41200237237829
 30
0.0
 11
30.79749999999996
 21
15.51266903904495
 31
0.0
 12
34.09949999999996
 22
14.96233570571162
 32
0.0
 13
34.09949999999996
 23
14.96233570571162
 33
0.0
  0
MTEXT
  5
227
330
21C
100
AcDbEntity
  8
치수문자_일반주서
 62
     0
100
AcDbMText
 10
75.99724999999997
 20
19.33733570571162
 30
0.0
 40
3.5
 41
0.0
 71
     2
 72
     1
  1
\A1;20.64 [13/16]
  7
SLDTEXTSTYLE0
 73
     1
 44
1.0
  0
POINT
  5
228
330
21C
100
AcDbEntity
  8
Defpoints
 62
     0
100
AcDbPoint
 10
54.73699999999996
 20
3.569080296889929
 30
0.0
  0
POINT
  5
229
330
21C
100
AcDbEntity
  8
Defpoints
 62
     0
100
AcDbPoint
 10
34.09949999999996
 20
3.14421347064068
 30
0.0
  0
POINT
  5
22A
330
21C
100
AcDbEntity
  8
Defpoints
 62
     0
100
AcDbPoint
 10
34.09949999999996
 20
14.96233570571162
 30
0.0
  0
ENDBLK
  5
21E
330
21C
100
AcDbEntity
  8
0
100
AcDbBlockEnd
  0
BLOCK
  5
232
330
231
100
AcDbEntity
  8
0
100
AcDbBlockBegin
  2
*D10
 70
     1
 10
0.0
 20
0.0
 30
0.0
  3
*D10
  1
*D10
  0
LINE
  5
234
330
231
100
AcDbEntity
  8
치수문자_일반주서
 62
     0
370
    -2
100
AcDbLine
 10
161.0952285877835
 20
-18.4464959038792
 30
0.0
 11
161.0952285877835
 21
-7.115740495057503
 31
0.0
  0
LINE
  5
235
330
231
100
AcDbEntity
  8
치수문자_일반주서
 62
     0
370
    -2
100
AcDbLine
 10
140.4577285877834
 20
-18.87136273012845
 30
0.0
 11
140.4577285877834
 21
-7.115740495057503
 31
0.0
  0
LINE
  5
236
330
231
100
AcDbEntity
  8
치수문자_일반주서
 62
     0
370
    -2
100
AcDbLine
 10
161.0952285877835
 20
-7.115740495057503
 30
0.0
 11
197.0117285877835
 21
-7.115740495057503
 31
0.0
  0
LINE
  5
237
330
231
100
AcDbEntity
  8
치수문자_일반주서
 62
     0
370
    -2
100
AcDbLine
 10
161.0952285877835
 20
-7.115740495057503
 30
0.0
 11
140.4577285877834
 21
-7.115740495057503
 31
0.0
  0
LINE
  5
238
330
231
100
AcDbEntity
  8
치수문자_일반주서
 62
     0
370
    -2
100
AcDbLine
 10
164.3972285877834
 20
-7.115740495057503
 30
0.0
 11
167.6992285877834
 21
-7.115740495057503
 31
0.0
  0
LINE
  5
239
330
231
100
AcDbEntity
  8
치수문자_일반주서
 62
     0
370
    -2
100
AcDbLine
 10
137.1557285877834
 20
-7.115740495057503
 30
0.0
 11
133.8537285877835
 21
-7.115740495057503
 31
0.0
  0
SOLID
  5
23A
330
231
100
AcDbEntity
  8
치수문자_일반주서
 62
     0
100
AcDbTrace
 10
164.3972285877834
 20
-6.56540716172417
 30
0.0
 11
164.3972285877834
 21
-7.666073828390837
 31
0.0
 12
161.0952285877835
 22
-7.115740495057503
 32
0.0
 13
161.0952285877835
 23
-7.115740495057503
 33
0.0
  0
SOLID
  5
23B
330
231
100
AcDbEntity
  8
치수문자_일반주서
 62
     0
100
AcDbTrace
 10
137.1557285877834
 20
-7.666073828390837
 30
0.0
 11
137.1557285877834
 21
-6.56540716172417
 31
0.0
 12
140.4577285877834
 22
-7.115740495057503
 32
0.0
 13
140.4577285877834
 23
-7.115740495057503
 33
0.0
  0
MTEXT
  5
23C
330
231
100
AcDbEntity
  8
치수문자_일반주서
 62
     0
100
AcDbMText
 10
182.3554785877835
 20
-2.740740495057503
 30
0.0
 40
3.5
 41
0.0
 71
     2
 72
     1
  1
\A1;20.64 [13/16]
  7
SLDTEXTSTYLE0
 73
     1
 44
1.0
  0
POINT
  5
23D
330
231
100
AcDbEntity
  8
Defpoints
 62
     0
100
AcDbPoint
 10
161.0952285877835
 20
-18.5089959038792
 30
0.0
  0
POINT
  5
23E
330
231
100
AcDbEntity
  8
Defpoints
 62
     0
100
AcDbPoint
 10
140.4577285877834
 20
-18.93386273012845
 30
0.0
  0
POINT
  5
23F
330
231
100
AcDbEntity
  8
Defpoints
 62
     0
100
AcDbPoint
 10
140.4577285877834
 20
-7.115740495057503
 30
0.0
  0
ENDBLK
  5
233
330
231
100
AcDbEntity
  8
0
100
AcDbBlockEnd
  0
ENDSEC
  0
SECTION
  2
ENTITIES
  0
LINE
  5
96
330
1F
100
AcDbEntity
  8
외형선
  6
Continuous
370
    15
100
AcDbLine
 10
21.54402700723833
 20
6.349999999999994
 30
0.0
 11
7.112000000000053
 21
6.349999999999993
 31
0.0
  0
LINE
  5
97
330
1F
100
AcDbEntity
  8
외형선
  6
Continuous
370
    15
100
AcDbLine
 10
-21.54402700723834
 20
-6.350000000000001
 30
0.0
 11
21.54402700723833
 21
-6.349999999999998
 31
0.0
  0
LINE
  5
98
330
1F
100
AcDbEntity
  8
외형선
  6
Continuous
370
    15
100
AcDbLine
 10
21.54402700723833
 20
-6.35
 30
0.0
 11
24.95759800082932
 21
-5.435336408960987
 31
0.0
  0
LINE
  5
99
330
1F
100
AcDbEntity
  8
외형선
  6
Continuous
370
    15
100
AcDbLine
 10
24.95759800082932
 20
5.435336408960984
 30
0.0
 11
21.54402700723833
 21
6.349999999999996
 31
0.0
  0
SPLINE
  5
9C
330
1F
100
AcDbEntity
  8
외형선
  6
Continuous
370
    15
100
AcDbSpline
210
0.0
220
0.0
230
1.0
 70
     8
 71
     3
 72
     9
 73
     5
 74
     0
 42
0.000000001
 43
0.00000001
 40
0.0
 40
0.0
 40
0.0
 40
0.0
 40
0.5603039496088383
 40
1.0
 40
1.0
 40
1.0
 40
1.0
 10
24.95763549222306
 20
-4.272103219156911
 30
0.0
 10
25.33796665083896
 20
-4.238939458218561
 30
0.0
 10
26.01676100679776
 20
-4.179750582320932
 30
0.0
 10
26.6910276292133
 20
-4.13644332904842
 30
0.0
 10
26.9875
 20
-4.117401300831207
 30
0.0
  0
SPLINE
  5
9D
330
1F
100
AcDbEntity
  8
0
  6
Continuous
 62
     1
370
    15
100
AcDbSpline
210
0.0
220
0.0
230
1.0
 70
     8
 71
     3
 72
     9
 73
     5
 74
     0
 42
0.000000001
 43
0.00000001
 40
0.0
 40
0.0
 40
0.0
 40
0.0
 40
0.4403992498702914
 40
1.0
 40
1.0
 40
1.0
 40
1.0
 10
34.25762658801514
 20
1.322065236498404
 30
0.0
 10
34.04726390432729
 20
1.422226905709525
 30
0.0
 10
33.56960032122673
 20
1.649660692757576
 30
0.0
 10
33.09386950183001
 20
1.898612692217477
 30
0.0
 10
32.82765017843579
 20
2.037926417861528
 30
0.0
1001
PE_URL
1000

  0
LINE
  5
9E
330
1F
100
AcDbEntity
  8
0
  6
Continuous
 62
     1
370
    15
100
AcDbLine
 10
31.43532785121425
 20
1.436305308170032
 30
0.0
 11
31.35025646870677
 21
1.483193290888615
 31
0.0
1001
PE_URL
1000

  0
SPLINE
  5
9F
330
1F
100
AcDbEntity
  8
0
  6
Continuous
 62
     1
370
    15
100
AcDbSpline
210
0.0
220
0.0
230
1.0
 70
     8
 71
     3
 72
    17
 73
    13
 74
     0
 42
0.000000001
 43
0.00000001
 40
0.0
 40
0.0
 40
0.0
 40
0.0
 40
0.1355532441893
 40
0.2377681621647535
 40
0.3202235687981402
 40
0.4199489782328724
 40
0.5330107777288716
 40
0.6416581014385675
 40
0.7550718278852774
 40
0.8575690157396378
 40
0.9537547925800409
 40
1.0
 40
1.0
 40
1.0
 40
1.0
 10
32.55261129627655
 20
4.099835938507432
 30
0.0
 10
32.36344978066428
 20
4.09032481130077
 30
0.0
 10
32.0316496368284
 20
4.07364174886602
 30
0.0
 10
31.57984556098725
 20
4.056725988282325
 30
0.0
 10
31.17312212918385
 20
4.044685410660065
 30
0.0
 10
30.75497460131394
 20
4.035589864484565
 30
0.0
 10
30.30032649077089
 20
4.029886092215566
 30
0.0
 10
29.82049553004829
 20
4.028475697277508
 30
0.0
 10
29.35099759786776
 20
4.030220967056557
 30
0.0
 10
28.91888203240284
 20
4.038731339628497
 30
0.0
 10
28.59384487912205
 20
4.047041859416634
 30
0.0
 10
28.39300761339577
 20
4.053418358904517
 30
0.0
 10
28.32779876112672
 20
4.055488712788271
 30
0.0
1001
PE_URL
1000

  0
SPLINE
  5
A0
330
1F
100
AcDbEntity
  8
0
  6
Continuous
 62
     1
370
    15
100
AcDbSpline
210
0.0
220
0.0
230
1.0
 70
     8
 71
     3
 72
    27
 73
    23
 74
     0
 42
0.000000001
 43
0.00000001
 40
0.0
 40
0.0
 40
0.0
 40
0.0
 40
0.0658910465557861
 40
0.116003053814007
 40
0.1499776585089914
 40
0.1807254229593057
 40
0.2194566071235401
 40
0.2650648525038948
 40
0.3076485539148036
 40
0.3717191724339386
 40
0.4257796122004688
 40
0.4792103944058305
 40
0.5327057111625176
 40
0.592870695193725
 40
0.6568201069655936
 40
0.7104085450907338
 40
0.7402814805789639
 40
0.7678890674401267
 40
0.795847656124887
 40
0.8421830249538057
 40
0.9101095688683633
 40
1.0
 40
1.0
 40
1.0
 40
1.0
 10
45.70749213940051
 20
3.528766114296971
 30
0.0
 10
45.5103568824682
 20
3.512648098889971
 30
0.0
 10
45.16329467881667
 20
3.484271876225936
 30
0.0
 10
44.71419925235658
 20
3.456048562102425
 30
0.0
 10
44.36779034956984
 20
3.437596317697153
 30
0.0
 10
44.05446740357483
 20
3.42353182288365
 30
0.0
 10
43.70795739615133
 20
3.410983885547707
 30
0.0
 10
43.32682681294575
 20
3.401289583788038
 30
0.0
 10
42.86953997003455
 20
3.394894916861223
 30
0.0
 10
42.38681977998568
 20
3.394741659028737
 30
0.0
 10
41.87135334108503
 20
3.402372440729394
 30
0.0
 10
41.38778489475494
 20
3.416296399899184
 30
0.0
 10
40.88611698419331
 20
3.437507711226053
 30
0.0
 10
40.35013398537963
 20
3.467791156907304
 30
0.0
 10
39.81130639005355
 20
3.506564278041704
 30
0.0
 10
39.36896604637238
 20
3.545131694860141
 30
0.0
 10
39.04054315337495
 20
3.576902123090921
 30
0.0
 10
38.78697359335459
 20
3.603046828733987
 30
0.0
 10
38.48406973056431
 20
3.63615496384622
 30
0.0
 10
38.05697438648703
 20
3.686568134423978
 30
0.0
 10
37.443137949072
 20
3.766765680469258
 30
0.0
 10
36.9665160359677
 20
3.839251984405958
 30
0.0
 10
36.69503859038119
 20
3.880539210384669
 30
0.0
1001
PE_URL
1000

  0
SPLINE
  5
A1
330
1F
100
AcDbEntity
  8
0
  6
Continuous
 62
     1
370
    15
100
AcDbSpline
210
0.0
220
0.0
230
1.0
 70
     8
 71
     3
 72
    17
 73
    13
 74
     0
 42
0.000000001
 43
0.00000001
 40
0.0
 40
0.0
 40
0.0
 40
0.0
 40
0.1484685814633518
 40
0.2633134161075028
 40
0.3452579716894461
 40
0.4209288247277543
 40
0.5139387187304185
 40
0.6216757589525481
 40
0.7198429290481498
 40
0.8620812413747401
 40
0.9856572852603449
 40
1.0
 40
1.0
 40
1.0
 40
1.0
 10
36.69503859038119
 20
-3.880539210384673
 30
0.0
 10
36.88403641384793
 20
-3.851533841839139
 30
0.0
 10
37.21922963818808
 20
-3.800091963686172
 30
0.0
 10
37.6590854582918
 20
-3.738865880991717
 30
0.0
 10
38.00970726399473
 20
-3.693225552554499
 30
0.0
 10
38.33367317376351
 20
-3.653670726615156
 30
0.0
 10
38.68873696062707
 20
-3.61322576648978
 30
0.0
 10
39.07159527923815
 20
-3.573447480025624
 30
0.0
 10
39.51694022049965
 20
-3.53152738962094
 30
0.0
 10
39.98301225617798
 20
-3.494017569657989
 30
0.0
 10
40.3400259566564
 20
-3.468554107842774
 30
0.0
 10
40.51625978317902
 20
-3.459155750238149
 30
0.0
 10
40.53458703268799
 20
-3.458178378026509
 30
0.0
1001
PE_URL
1000

  0
SPLINE
  5
A2
330
1F
100
AcDbEntity
  8
0
  6
Continuous
 62
     1
370
    15
100
AcDbSpline
210
0.0
220
0.0
230
1.0
 70
     8
 71
     3
 72
    19
 73
    15
 74
     0
 42
0.000000001
 43
0.00000001
 40
0.0
 40
0.0
 40
0.0
 40
0.0
 40
0.1254032366263146
 40
0.2122081594593364
 40
0.2678293252343577
 40
0.3220169720793998
 40
0.4119848150197567
 40
0.5125204274771813
 40
0.5950618164178166
 40
0.6809569645713346
 40
0.7567202095953048
 40
0.8193631128606469
 40
0.8970176837425805
 40
1.0
 40
1.0
 40
1.0
 40
1.0
 10
26.9875
 20
-4.117401300831207
 30
0.0
 10
27.22077084877037
 20
-4.104400363647446
 30
0.0
 10
27.6155132717318
 20
-4.082400094553646
 30
0.0
 10
28.11287352095424
 20
-4.062400833206607
 30
0.0
 10
28.47961933428163
 20
-4.050375406710766
 30
0.0
 10
28.83830868522607
 20
-4.040839119834725
 30
0.0
 10
29.27047347611856
 20
-4.030837679918918
 30
0.0
 10
29.79398757755656
 20
-4.028347585626589
 30
0.0
 10
30.30017694888983
 20
-4.029898586594665
 30
0.0
 10
30.75501025923595
 20
-4.035586885228244
 30
0.0
 10
31.17311488563249
 20
-4.044686015866288
 30
0.0
 10
31.57984780269491
 20
-4.056725800985331
 30
0.0
 10
32.03164879279909
 20
-4.073641819385549
 30
0.0
 10
32.36344947419668
 20
-4.090324836906459
 30
0.0
 10
32.55261129627655
 20
-4.099835938507437
 30
0.0
1001
PE_URL
1000

  0
LINE
  5
A3
330
1F
100
AcDbEntity
  8
외형선
  6
Continuous
370
    15
100
AcDbLine
 10
21.54402700723833
 20
6.349999999999996
 30
0.0
 11
21.54402700723833
 21
-6.349999999999998
 31
0.0
  0
SPLINE
  5
A5
330
1F
100
AcDbEntity
  8
외형선
  6
Continuous
370
    15
100
AcDbSpline
210
0.0
220
0.0
230
1.0
 70
     8
 71
     3
 72
     8
 73
     4
 74
     0
 42
0.000000001
 43
0.00000001
 40
0.0
 40
0.0
 40
0.0
 40
0.0
 40
1.0
 40
1.0
 40
1.0
 40
1.0
 10
25.98750000000001
 20
4.753215197150262
 30
0.0
 10
25.64281405254193
 20
4.900254419067103
 30
0.0
 10
25.30001597589262
 20
5.043052419236296
 30
0.0
 10
24.95770068131359
 20
5.180311856130562
 30
0.0
  0
LINE
  5
A6
330
1F
100
AcDbEntity
  8
외형선
  6
Continuous
370
    15
100
AcDbLine
 10
25.98750000000001
 20
4.753215197150261
 30
0.0
 11
25.98750000000001
 21
4.014181848932195
 31
0.0
  0
SPLINE
  5
A7
330
1F
100
AcDbEntity
  8
외형선
  6
Continuous
370
    15
100
AcDbSpline
210
0.0
220
0.0
230
1.0
 70
     8
 71
     3
 72
     8
 73
     4
 74
     0
 42
0.000000001
 43
0.00000001
 40
0.0
 40
0.0
 40
0.0
 40
0.0
 40
1.0
 40
1.0
 40
1.0
 40
1.0
 10
24.95759800082931
 20
4.537331895617442
 30
0.0
 10
25.30162171945567
 20
4.367668551167553
 30
0.0
 10
25.64442458463941
 20
4.192805511788023
 30
0.0
 10
25.98750000000001
 20
4.014181848932197
 30
0.0
  0
LINE
  5
A8
330
1F
100
AcDbEntity
  8
외형선
  6
Continuous
370
    15
100
AcDbLine
 10
24.95759800082932
 20
-5.435336408960987
 30
0.0
 11
24.95759800082931
 21
4.537385323678601
 31
0.0
  0
SPLINE
  5
A9
330
1F
100
AcDbEntity
  8
외형선
  6
Continuous
370
    15
100
AcDbSpline
210
0.0
220
0.0
230
1.0
 70
     8
 71
     3
 72
     8
 73
     4
 74
     0
 42
0.000000001
 43
0.00000001
 40
0.0
 40
0.0
 40
0.0
 40
0.0
 40
1.0
 40
1.0
 40
1.0
 40
1.0
 10
25.98750000000001
 20
-4.753215197150267
 30
0.0
 10
25.64281405254193
 20
-4.900254419067108
 30
0.0
 10
25.30001597589262
 20
-5.043052419236299
 30
0.0
 10
24.95770068131359
 20
-5.180311856130564
 30
0.0
  0
LINE
  5
AA
330
1F
100
AcDbEntity
  8
외형선
  6
Continuous
370
    15
100
AcDbLine
 10
24.95759800082932
 20
5.18036195435042
 30
0.0
 11
24.95759800082932
 21
5.435336408960984
 31
0.0
  0
SPLINE
  5
AC
330
1F
100
AcDbEntity
  8
외형선
  6
Continuous
370
    15
100
AcDbSpline
210
0.0
220
0.0
230
1.0
 70
    24
 71
     3
 72
    10
 73
     6
 74
     0
 42
0.000000001
 43
0.00000001
 40
0.0
 40
0.0
 40
0.0
 40
0.0
 40
0.5
 40
0.5
 40
1.0
 40
1.0
 40
1.0
 40
1.0
 10
26.98750000000001
 20
3.627759175942154
 30
0.0
 10
26.98750000000001
 20
3.50266392279217
 30
0.0
 10
26.98750000000001
 20
3.327091267129584
 30
0.0
 10
26.98750000000001
 20
2.911369659872339
 30
0.0
 10
26.98750000000001
 20
2.672582454539652
 30
0.0
 10
26.98750000000001
 20
2.431726044697859
 30
0.0
  0
SPLINE
  5
AD
330
1F
100
AcDbEntity
  8
외형선
  6
Continuous
370
    15
100
AcDbSpline
210
0.0
220
0.0
230
1.0
 70
     8
 71
     3
 72
    10
 73
     6
 74
     0
 42
0.000000001
 43
0.00000001
 40
0.0
 40
0.0
 40
0.0
 40
0.0
 40
0.5
 40
0.5
 40
1.0
 40
1.0
 40
1.0
 40
1.0
 10
26.98749999999955
 20
2.431726044697994
 30
0.0
 10
26.64868183384924
 20
2.532865111679013
 30
0.0
 10
26.30851392428149
 20
2.628887749268534
 30
0.0
 10
25.63204635087484
 20
2.808865117364072
 30
0.0
 10
25.29650424314354
 20
2.892788289478228
 30
0.0
 10
24.95762273599096
 20
2.970592198926275
 30
0.0
  0
SPLINE
  5
AE
330
1F
100
AcDbEntity
  8
외형선
  6
Continuous
370
    15
100
AcDbSpline
210
0.0
220
0.0
230
1.0
 70
     8
 71
     3
 72
     8
 73
     4
 74
     0
 42
0.000000001
 43
0.00000001
 40
0.0
 40
0.0
 40
0.0
 40
0.0
 40
1.0
 40
1.0
 40
1.0
 40
1.0
 10
26.98749999999999
 20
3.627759175942162
 30
0.0
 10
26.65443115352961
 20
3.764354945339579
 30
0.0
 10
26.32005787623483
 20
3.893560326051665
 30
0.0
 10
25.98750000000003
 20
4.014181848932188
 30
0.0
  0
SPLINE
  5
AF
330
1F
100
AcDbEntity
  8
외형선
  6
Continuous
370
    15
100
AcDbSpline
210
0.0
220
0.0
230
1.0
 70
    24
 71
     3
 72
    14
 73
    10
 74
     0
 42
0.000000001
 43
0.00000001
 40
0.0
 40
0.0
 40
0.0
 40
0.0
 40
0.25
 40
0.25
 40
0.5
 40
0.5
 40
0.75
 40
0.75
 40
1.0
 40
1.0
 40
1.0
 40
1.0
 10
26.98750000000001
 20
2.431726044697858
 30
0.0
 10
26.98750000000001
 20
2.036042748305202
 30
0.0
 10
26.98750000000001
 20
1.599615546920084
 30
0.0
 10
26.98750000000001
 20
0.6770822872111797
 30
0.0
 10
26.98750000000001
 20
0.1913281047567642
 30
0.0
 10
26.9875
 20
-0.7832318995465891
 30
0.0
 10
26.9875
 20
-1.271518435080614
 30
0.0
 10
26.98750000000001
 20
-2.203700778242473
 30
0.0
 10
26.98750000000001
 20
-2.647231157342587
 30
0.0
 10
26.98750000000001
 20
-3.051683699327904
 30
0.0
  0
SPLINE
  5
B0
330
1F
100
AcDbEntity
  8
외형선
  6
Continuous
370
    15
100
AcDbSpline
210
0.0
220
0.0
230
1.0
 70
     8
 71
     3
 72
    10
 73
     6
 74
     0
 42
0.000000001
 43
0.00000001
 40
0.0
 40
0.0
 40
0.0
 40
0.0
 40
0.5
 40
0.5
 40
1.0
 40
1.0
 40
1.0
 40
1.0
 10
26.9874999999997
 20
-3.05168369932781
 30
0.0
 10
26.64868395949077
 20
-2.946420821165624
 30
0.0
 10
26.30851819245819
 20
-2.834430879717041
 30
0.0
 10
25.63205481454984
 20
-2.599180659224752
 30
0.0
 10
25.29651484145574
 20
-2.476044056195341
 30
0.0
 10
24.95763549222306
 20
-2.347447232944136
 30
0.0
  0
SPLINE
  5
B1
330
1F
100
AcDbEntity
  8
외형선
  6
Continuous
370
    15
100
AcDbSpline
210
0.0
220
0.0
230
1.0
 70
     8
 71
     3
 72
     8
 73
     4
 74
     0
 42
0.000000001
 43
0.00000001
 40
0.0
 40
0.0
 40
0.0
 40
0.0
 40
1.0
 40
1.0
 40
1.0
 40
1.0
 10
26.98749999999988
 20
4.499852614348456
 30
0.0
 10
26.65443115352954
 20
4.593830283197592
 30
0.0
 10
26.3200578762348
 20
4.67854305612113
 30
0.0
 10
25.98750000000003
 20
4.753215197150261
 30
0.0
  0
LINE
  5
B2
330
1F
100
AcDbEntity
  8
외형선
  6
Continuous
370
    15
100
AcDbLine
 10
26.9875
 20
4.49985261434842
 30
0.0
 11
26.98750000000001
 21
3.627759175942154
 31
0.0
  0
SPLINE
  5
B3
330
1F
100
AcDbEntity
  8
외형선
  6
Continuous
370
    15
100
AcDbSpline
210
0.0
220
0.0
230
1.0
 70
    24
 71
     3
 72
    12
 73
     8
 74
     0
 42
0.000000001
 43
0.00000001
 40
0.0
 40
0.0
 40
0.0
 40
0.0
 40
0.1825858283998383
 40
0.3651716567996764
 40
0.631804283597974
 40
0.9061692746363993
 40
0.9999999999999999
 40
0.9999999999999999
 40
0.9999999999999999
 40
0.9999999999999999
 10
26.98750000000001
 20
-3.051683699327906
 30
0.0
 10
26.98750000000001
 20
-3.171373300060751
 30
0.0
 10
26.9875
 20
-3.410752501526441
 30
0.0
 10
26.98750000000001
 20
-3.734446613739984
 30
0.0
 10
26.9875
 20
-3.992061622147082
 30
0.0
 10
26.9875
 20
-4.121101906679558
 30
0.0
 10
26.9875
 20
-4.106061022401235
 30
0.0
 10
26.9875
 20
-4.102228014522338
 30
0.0
  0
SPLINE
  5
B4
330
1F
100
AcDbEntity
  8
외형선
  6
Continuous
370
    15
100
AcDbSpline
210
0.0
220
0.0
230
1.0
 70
     8
 71
     3
 72
     8
 73
     4
 74
     0
 42
0.000000001
 43
0.00000001
 40
0.0
 40
0.0
 40
0.0
 40
0.0
 40
1.0
 40
1.0
 40
1.0
 40
1.0
 10
26.98749999999988
 20
-4.49985261434846
 30
0.0
 10
26.65443115352954
 20
-4.593830283197594
 30
0.0
 10
26.3200578762348
 20
-4.678543056121135
 30
0.0
 10
25.98750000000003
 20
-4.753215197150265
 30
0.0
  0
SPLINE
  5
B5
330
1F
100
AcDbEntity
  8
외형선
  6
Continuous
370
    15
100
AcDbSpline
210
0.0
220
0.0
230
1.0
 70
    24
 71
     3
 72
    10
 73
     6
 74
     0
 42
0.000000001
 43
0.00000001
 40
0.0
 40
0.0
 40
0.0
 40
0.0
 40
0.1891952457885556
 40
0.7929261343319151
 40
1.0
 40
1.0
 40
1.0
 40
1.0
 10
26.9875
 20
-4.117401300831207
 30
0.0
 10
26.9875
 20
-4.143480104631855
 30
0.0
 10
26.9875
 20
-4.252777592523064
 30
0.0
 10
26.98750000000001
 20
-4.378022633364995
 30
0.0
 10
26.9875
 20
-4.475067925257398
 30
0.0
 10
26.9875
 20
-4.49985261433657
 30
0.0
  0
SPLINE
  5
B6
330
1F
100
AcDbEntity
  8
0
  6
Continuous
 62
     1
370
    15
100
AcDbSpline
210
0.0
220
0.0
230
1.0
 70
     8
 71
     3
 72
    38
 73
    34
 74
     0
 42
0.000000001
 43
0.00000001
 40
0.0
 40
0.0
 40
0.0
 40
0.0
 40
0.0625
 40
0.0625
 40
0.125
 40
0.125
 40
0.1875
 40
0.1875
 40
0.25
 40
0.25
 40
0.3125
 40
0.3125
 40
0.375
 40
0.375
 40
0.4375
 40
0.4375
 40
0.5
 40
0.5
 40
0.5625
 40
0.5625
 40
0.625
 40
0.625
 40
0.6875
 40
0.6875
 40
0.75
 40
0.75
 40
0.8125
 40
0.8125
 40
0.875
 40
0.875
 40
0.9375
 40
0.9375
 40
1.0
 40
1.0
 40
1.0
 40
1.0
 10
47.62500000000001
 20
-4.895941797193331
 30
0.0
 10
47.19773299851974
 20
-4.817796553413379
 30
0.0
 10
46.76524869110629
 20
-4.722315707363201
 30
0.0
 10
45.9032651372314
 20
-4.499365130573319
 30
0.0
 10
45.47686327914296
 20
-4.37229353397354
 30
0.0
 10
44.61569676194225
 20
-4.087906311588218
 30
0.0
 10
44.18287996965665
 20
-3.930690619950111
 30
0.0
 10
43.32623303575835
 20
-3.591250230971642
 30
0.0
 10
42.89614100167221
 20
-3.40824260434281
 30
0.0
 10
42.03366175616668
 20
-3.019464102987398
 30
0.0
 10
41.60667143896063
 20
-2.814555000831446
 30
0.0
 10
40.74664228800801
 20
-2.385711515686921
 30
0.0
 10
40.31365594460512
 20
-2.161723659661439
 30
0.0
 10
39.45521081335657
 20
-1.701613837402466
 30
0.0
 10
39.02692716599019
 20
-1.465027080991378
 30
0.0
 10
38.16427419055103
 20
-0.9821980962725442
 30
0.0
 10
37.73610768514501
 20
-0.7371204639912217
 30
0.0
 10
36.87753481837674
 20
-0.2431403532401405
 30
0.0
 10
36.44454207154214
 20
0.0062648219104154
 30
0.0
 10
35.58461569868014
 20
0.5021465213011911
 30
0.0
 10
35.15755431227626
 20
0.7486504699819619
 30
0.0
 10
34.29504978482757
 20
1.236348475614803
 30
0.0
 10
33.86512082031085
 20
1.476483432072849
 30
0.0
 10
33.00832135153168
 20
1.944324299382316
 30
0.0
 10
32.57548535703252
 20
2.173092045811244
 30
0.0
 10
31.71439653304304
 20
2.613135795907795
 30
0.0
 10
31.2879697666645
 20
2.824162508949804
 30
0.0
 10
30.42593568036626
 20
3.226657332646695
 30
0.0
 10
29.99366016834652
 20
3.417520380775783
 30
0.0
 10
29.1389490194199
 20
3.772896778770392
 30
0.0
 10
28.70643273523419
 20
3.93879819928539
 30
0.0
 10
27.84450169318995
 20
4.241647706144035
 30
0.0
 10
27.41812111862676
 20
4.378349900076029
 30
0.0
 10
26.98749999999655
 20
4.499852614349396
 30
0.0
1001
PE_URL
1000

  0
SPLINE
  5
B7
330
1F
100
AcDbEntity
  8
0
  6
Continuous
 62
     1
370
    15
100
AcDbSpline
210
0.0
220
0.0
230
1.0
 70
     8
 71
     3
 72
    15
 73
    11
 74
     0
 42
0.000000001
 43
0.00000001
 40
0.0
 40
0.0
 40
0.0
 40
0.0
 40
0.1410432461871111
 40
0.2820719053921569
 40
0.4230878664493994
 40
0.5640930285266775
 40
0.7050892995964586
 40
0.8460785948916583
 40
0.9870628353488757
 40
1.0
 40
1.0
 40
1.0
 40
1.0
 10
47.62500000000001
 20
-4.070603776474766
 30
0.0
 10
46.99511850696064
 20
-3.938045936781302
 30
0.0
 10
45.735420664519
 20
-3.672943966798279
 30
0.0
 10
43.84600091894646
 20
-3.063208603348883
 30
0.0
 10
41.95677413570704
 20
-2.32998325188619
 30
0.0
 10
40.06771413358947
 20
-1.490087396803546
 30
0.0
 10
38.17879059812719
 20
-0.5828490335321245
 30
0.0
 10
36.28997493664201
 20
0.3432492548157579
 30
0.0
 10
34.97302620437084
 20
0.9973189027737077
 30
0.0
 10
34.28567978390406
 20
1.307119051318976
 30
0.0
 10
34.22790800221014
 20
1.333157895804912
 30
0.0
1001
PE_URL
1000

  0
LINE
  5
B8
330
1F
100
AcDbEntity
  8
0
  6
Continuous
 62
     1
370
    15
100
AcDbLine
 10
47.62500000000001
 20
-4.895941797193335
 30
0.0
 11
47.62500000000001
 21
-4.070603776474766
 31
0.0
1001
PE_URL
1000

  0
SPLINE
  5
B9
330
1F
100
AcDbEntity
  8
0
  6
Continuous
 62
     1
370
    15
100
AcDbSpline
210
0.0
220
0.0
230
1.0
 70
     8
 71
     3
 72
    38
 73
    34
 74
     0
 42
0.000000001
 43
0.00000001
 40
0.0
 40
0.0
 40
0.0
 40
0.0
 40
0.0625
 40
0.0625
 40
0.1250000000000001
 40
0.1250000000000001
 40
0.1875000000000001
 40
0.1875000000000001
 40
0.2500000000000002
 40
0.2500000000000002
 40
0.3125000000000002
 40
0.3125000000000002
 40
0.3750000000000002
 40
0.3750000000000002
 40
0.4375000000000003
 40
0.4375000000000003
 40
0.5000000000000003
 40
0.5000000000000003
 40
0.5625000000000003
 40
0.5625000000000003
 40
0.6250000000000004
 40
0.6250000000000004
 40
0.6875000000000004
 40
0.6875000000000004
 40
0.7500000000000003
 40
0.7500000000000003
 40
0.8125000000000003
 40
0.8125000000000003
 40
0.8750000000000002
 40
0.8750000000000002
 40
0.9375000000000002
 40
0.9375000000000002
 40
1.0
 40
1.0
 40
1.0
 40
1.0
 10
47.62500000000001
 20
-5.155014374825441
 30
0.0
 10
47.19773299851983
 20
-5.144831613711376
 30
0.0
 10
46.76524869110644
 20
-5.116688180519488
 30
0.0
 10
45.90326513723168
 20
-5.025047956264488
 30
0.0
 10
45.47686327914332
 20
-4.96180284755122
 30
0.0
 10
44.61569676194274
 20
-4.800953050774575
 30
0.0
 10
44.18287996965721
 20
-4.703335810056434
 30
0.0
 10
43.32623303575904
 20
-4.476925084033104
 30
0.0
 10
42.89614100167297
 20
-4.347632147373935
 30
0.0
 10
42.03366175616759
 20
-4.059473163983397
 30
0.0
 10
41.60667143896158
 20
-3.901271594109836
 30
0.0
 10
40.74664228800912
 20
-3.558213570821896
 30
0.0
 10
40.3136559446063
 20
-3.373272949250589
 30
0.0
 10
39.45521081335788
 20
-2.982366824408495
 30
0.0
 10
39.02692716599158
 20
-2.776035939427089
 30
0.0
 10
38.16427419055256
 20
-2.344540240687714
 30
0.0
 10
37.73610768514658
 20
-2.120416988410463
 30
0.0
 10
36.87753481837847
 20
-1.658669136818827
 30
0.0
 10
36.44454207154396
 20
-1.420546397544119
 30
0.0
 10
35.58461569868207
 20
-0.9371957004478536
 30
0.0
 10
35.15755431227828
 20
-0.6919763448373549
 30
0.0
 10
34.29504978482971
 20
-0.19684325238595
 30
0.0
 10
33.86512082031305
 20
0.0520142070577522
 30
0.0
 10
33.00832135153404
 20
0.5470606431580218
 30
0.0
 10
32.57548535703496
 20
0.7943908508595788
 30
0.0
 10
31.7143965330456
 20
1.28094928127105
 30
0.0
 10
31.28796976666714
 20
1.519857401562146
 30
0.0
 10
30.42593568036904
 20
1.987168711099633
 30
0.0
 10
29.99366016834932
 20
2.21491629065457
 30
0.0
 10
29.13894901942289
 20
2.651826325821659
 30
0.0
 10
28.70643273523725
 20
2.862697213724245
 30
0.0
 10
27.84450169319313
 20
3.262556890554696
 30
0.0
 10
27.41812111863001
 20
3.451155979211555
 30
0.0
 10
26.98749999999989
 20
3.627759175942202
 30
0.0
1001
PE_URL
1000

  0
SPLINE
  5
BA
330
1F
100
AcDbEntity
  8
0
  6
Continuous
 62
     1
370
    15
100
AcDbSpline
210
0.0
220
0.0
230
1.0
 70
     8
 71
     3
 72
    12
 73
     8
 74
     0
 42
0.000000001
 43
0.00000001
 40
0.0
 40
0.0
 40
0.0
 40
0.0
 40
0.0512984067869544
 40
0.2929839058856328
 40
0.534667258095279
 40
0.7673248438357416
 40
1.0
 40
1.0
 40
1.0
 40
1.0
 10
34.80205813739003
 20
-0.4869950975178677
 30
0.0
 10
34.66843131593025
 20
-0.4342473581210857
 30
0.0
 10
33.90523981477971
 20
-0.1329857852365884
 30
0.0
 10
32.51249959953468
 20
0.4385907029907428
 30
0.0
 10
30.64731292898494
 20
1.173929673464487
 30
0.0
 10
28.80569700536228
 20
1.859295255447421
 30
0.0
 10
27.59358092448583
 20
2.240910978492241
 30
0.0
 10
26.9875
 20
2.431726044697858
 30
0.0
1001
PE_URL
1000

  0
SPLINE
  5
BB
330
1F
100
AcDbEntity
  8
외형선
  6
Continuous
370
    15
100
AcDbSpline
210
0.0
220
0.0
230
1.0
 70
    24
 71
     3
 72
    10
 73
     6
 74
     0
 42
0.000000001
 43
0.00000001
 40
0.0
 40
0.0
 40
0.0
 40
0.0
 40
0.5
 40
0.5
 40
1.0
 40
1.0
 40
1.0
 40
1.0
 10
26.98750000000001
 20
3.627759175942153
 30
0.0
 10
26.98750000000001
 20
3.50266392279217
 30
0.0
 10
26.9875
 20
3.327091267129582
 30
0.0
 10
26.98750000000001
 20
2.911369659872339
 30
0.0
 10
26.98750000000001
 20
2.672582454539652
 30
0.0
 10
26.98750000000001
 20
2.431726044697859
 30
0.0
  0
LINE
  5
BC
330
1F
100
AcDbEntity
  8
0
  6
Continuous
 62
     1
370
    15
100
AcDbLine
 10
47.62500000000001
 20
-5.155014374825443
 30
0.0
 11
47.62500000000001
 21
-4.895941797193333
 31
0.0
1001
PE_URL
1000

  0
SPLINE
  5
BD
330
1F
100
AcDbEntity
  8
0
  6
Continuous
 62
     1
370
    15
100
AcDbSpline
210
0.0
220
0.0
230
1.0
 70
     8
 71
     3
 72
     8
 73
     4
 74
     0
 42
0.000000001
 43
0.00000001
 40
0.0
 40
0.0
 40
0.0
 40
0.0
 40
1.0
 40
1.0
 40
1.0
 40
1.0
 10
44.43262441845125
 20
1.443170866059929
 30
0.0
 10
44.24904190190288
 20
1.660658537773414
 30
0.0
 10
44.08545272727458
 20
1.86968325620738
 30
0.0
 10
43.94641545099554
 20
2.068315436491261
 30
0.0
1001
PE_URL
1000

  0
LINE
  5
BE
330
1F
100
AcDbEntity
  8
0
  6
Continuous
 62
     1
370
    15
100
AcDbLine
 10
44.01161353804959
 20
2.123023127301862
 30
0.0
 11
47.62500000000001
 21
0.0000000000000012
 31
0.0
1001
PE_URL
1000

  0
LINE
  5
BF
330
1F
100
AcDbEntity
  8
0
  6
Continuous
 62
     1
370
    15
100
AcDbLine
 10
47.62500000000001
 20
0.0000000000000012
 30
0.0
 11
47.62500000000001
 21
-1.378806574671698
 31
0.0
1001
PE_URL
1000

  0
SPLINE
  5
C0
330
1F
100
AcDbEntity
  8
0
  6
Continuous
 62
     1
370
    15
100
AcDbSpline
210
0.0
220
0.0
230
1.0
 70
     8
 71
     3
 72
    12
 73
     8
 74
     0
 42
0.000000001
 43
0.00000001
 40
0.0
 40
0.0
 40
0.0
 40
0.0
 40
0.500000000000001
 40
0.500000000000001
 40
0.7500000000000006
 40
0.7500000000000006
 40
1.0
 40
1.0
 40
1.0
 40
1.0
 10
47.62500000000001
 20
-1.378806574671698
 30
0.0
 10
47.07239005827019
 20
-0.9443619064637587
 30
0.0
 10
46.52901028189652
 20
-0.4921038092001284
 30
0.0
 10
45.72814174730745
 20
0.2136903019550624
 30
0.0
 10
45.46359362435717
 20
0.4536023461742083
 30
0.0
 10
44.93990036914771
 20
0.9438537441623277
 30
0.0
 10
44.68218429650944
 20
1.192920902099384
 30
0.0
 10
44.43262441845126
 20
1.443170866059927
 30
0.0
1001
PE_URL
1000

  0
SPLINE
  5
C1
330
1F
100
AcDbEntity
  8
0
  6
Continuous
 62
     1
370
    15
100
AcDbSpline
210
0.0
220
0.0
230
1.0
 70
     8
 71
     3
 72
    14
 73
    10
 74
     0
 42
0.000000001
 43
0.00000001
 40
0.0
 40
0.0
 40
0.0
 40
0.0
 40
0.1040587999568182
 40
0.2084279120146506
 40
0.3674279357585454
 40
0.5264177942016194
 40
0.6853996768510079
 40
0.8443757797583674
 40
1.0
 40
1.0
 40
1.0
 40
1.0
 10
44.43262441845125
 20
1.443170866059928
 30
0.0
 10
44.02071226888394
 20
1.619019304127488
 30
0.0
 10
43.19565961304504
 20
1.97124057510763
 30
0.0
 10
41.74028274133578
 20
2.537321448219137
 30
0.0
 10
40.06771618141923
 20
3.112086946175128
 30
0.0
 10
38.17875802837352
 20
3.621952093787824
 30
0.0
 10
36.28994414629532
 20
3.967324492753943
 30
0.0
 10
34.41445799947847
 20
4.148489876428687
 30
0.0
 10
33.16857961928245
 20
4.114660593358176
 30
0.0
 10
32.55227748235778
 20
4.097926167447594
 30
0.0
1001
PE_URL
1000

  0
SPLINE
  5
C2
330
1F
100
AcDbEntity
  8
0
  6
Continuous
 62
     1
370
    15
100
AcDbSpline
210
0.0
220
0.0
230
1.0
 70
    24
 71
     3
 72
    10
 73
     6
 74
     0
 42
0.000000001
 43
0.00000001
 40
0.0
 40
0.0
 40
0.0
 40
0.0
 40
0.5
 40
0.5
 40
1.0
 40
1.0
 40
1.0
 40
1.0
 10
47.62500000000001
 20
-4.070603776474764
 30
0.0
 10
47.62500000000001
 20
-3.758560260141506
 30
0.0
 10
47.625
 20
-3.364281312279937
 30
0.0
 10
47.62500000000001
 20
-2.447620703618039
 30
0.0
 10
47.62500000000001
 20
-1.926033088992851
 30
0.0
 10
47.62500000000001
 20
-1.378806574671863
 30
0.0
1001
PE_URL
1000

  0
SPLINE
  5
C3
330
1F
100
AcDbEntity
  8
0
  6
Continuous
 62
     1
370
    15
100
AcDbSpline
210
0.0
220
0.0
230
1.0
 70
    24
 71
     3
 72
     8
 73
     4
 74
     0
 42
0.000000001
 43
0.00000001
 40
0.0
 40
0.0
 40
0.0
 40
0.0
 40
1.0
 40
1.0
 40
1.0
 40
1.0
 10
44.4845937721281
 20
2.519900667270923
 30
0.0
 10
44.3142975329496
 20
2.377005155785358
 30
0.0
 10
44.13432508343001
 20
2.22599033977174
 30
0.0
 10
43.9464154509912
 20
2.068315436497675
 30
0.0
1001
PE_URL
1000

  0
SPLINE
  5
C4
330
1F
100
AcDbEntity
  8
0
  6
Continuous
 62
     1
370
    15
100
AcDbSpline
210
0.0
220
0.0
230
1.0
 70
     8
 71
     3
 72
     9
 73
     5
 74
     0
 42
0.000000001
 43
0.00000001
 40
0.0
 40
0.0
 40
0.0
 40
0.0
 40
0.9852697900518008
 40
1.0
 40
1.0
 40
1.0
 40
1.0
 10
47.62500000000001
 20
3.611562499999998
 30
0.0
 10
46.99511501056038
 20
3.610581886247663
 30
0.0
 10
46.35581296781071
 20
3.609586611895159
 30
0.0
 10
45.71652155886534
 20
3.528790442272043
 30
0.0
 10
45.70710466219349
 20
3.527600297730483
 30
0.0
1001
PE_URL
1000

  0
SPLINE
  5
C5
330
1F
100
AcDbEntity
  8
0
  6
Continuous
 62
     1
370
    15
100
AcDbSpline
210
0.0
220
0.0
230
1.0
 70
     8
 71
     3
 72
    10
 73
     6
 74
     0
 42
0.000000001
 43
0.00000001
 40
0.0
 40
0.0
 40
0.0
 40
0.0
 40
0.5
 40
0.5
 40
1.0
 40
1.0
 40
1.0
 40
1.0
 10
47.62500000000001
 20
3.6115625
 30
0.0
 10
47.09427591479987
 20
3.467597002118773
 30
0.0
 10
46.56678937335585
 20
3.306026951760108
 30
0.0
 10
45.51889818413592
 20
2.944378161087559
 30
0.0
 10
44.99843926681182
 20
2.744829681958376
 30
0.0
 10
44.48459377213805
 20
2.519900667275559
 30
0.0
1001
PE_URL
1000

  0
SPLINE
  5
C6
330
1F
100
AcDbEntity
  8
0
  6
Continuous
 62
     1
370
    15
100
AcDbSpline
210
0.0
220
0.0
230
1.0
 70
     8
 71
     3
 72
    13
 73
     9
 74
     0
 42
0.000000001
 43
0.00000001
 40
0.0
 40
0.0
 40
0.0
 40
0.0
 40
0.0423721794416745
 40
0.2368030586158714
 40
0.4312295606725582
 40
0.6256543808290626
 40
0.8128203074577071
 40
1.0
 40
1.0
 40
1.0
 40
1.0
 10
36.70153390766856
 20
-3.864855431418405
 30
0.0
 10
36.56432959436103
 20
-3.890961539577856
 30
0.0
 10
35.79754342771511
 20
-4.03685930415294
 30
0.0
 10
34.4011974516721
 20
-4.131989992675573
 30
0.0
 10
32.51250844028745
 20
-4.131134478109996
 30
0.0
 10
30.6473119618866
 20
-3.931930948798122
 30
0.0
 10
28.80570484915927
 20
-3.580738455390363
 30
0.0
 10
27.59358314094726
 20
-3.228039607979059
 30
0.0
 10
26.98750000000001
 20
-3.051683699327906
 30
0.0
1001
PE_URL
1000

  0
SPLINE
  5
C7
330
1F
100
AcDbEntity
  8
외형선
  6
Continuous
370
    15
100
AcDbSpline
210
0.0
220
0.0
230
1.0
 70
    24
 71
     3
 72
    14
 73
    10
 74
     0
 42
0.000000001
 43
0.00000001
 40
0.0
 40
0.0
 40
0.0
 40
0.0
 40
0.25
 40
0.25
 40
0.5
 40
0.5
 40
0.75
 40
0.75
 40
1.0
 40
1.0
 40
1.0
 40
1.0
 10
26.98750000000001
 20
2.431726044697858
 30
0.0
 10
26.98750000000001
 20
2.036042748305202
 30
0.0
 10
26.98750000000001
 20
1.599615546920084
 30
0.0
 10
26.98750000000001
 20
0.6770822872111797
 30
0.0
 10
26.98750000000001
 20
0.1913281047567642
 30
0.0
 10
26.9875
 20
-0.7832318995465891
 30
0.0
 10
26.9875
 20
-1.271518435080614
 30
0.0
 10
26.98750000000001
 20
-2.203700778242473
 30
0.0
 10
26.98750000000001
 20
-2.647231157342587
 30
0.0
 10
26.98750000000001
 20
-3.051683699327904
 30
0.0
  0
LINE
  5
C8
330
1F
100
AcDbEntity
  8
0
  6
Continuous
 62
     1
370
    15
100
AcDbLine
 10
47.62500000000001
 20
0.0000000000000012
 30
0.0
 11
47.62500000000001
 21
3.611562499999999
 31
0.0
1001
PE_URL
1000

  0
SPLINE
  5
C9
330
1F
100
AcDbEntity
  8
외형선
  6
Continuous
370
    15
100
AcDbSpline
210
0.0
220
0.0
230
1.0
 70
    24
 71
     3
 72
    12
 73
     8
 74
     0
 42
0.000000001
 43
0.00000001
 40
0.0
 40
0.0
 40
0.0
 40
0.0
 40
0.1827655578972838
 40
0.3655311157945674
 40
0.6324262040798104
 40
0.9070612680060832
 40
1.0
 40
1.0
 40
1.0
 40
1.0
 10
26.98750000000001
 20
-3.051683699327905
 30
0.0
 10
26.98750000000001
 20
-3.171372827879071
 30
0.0
 10
26.9875
 20
-3.410751084981402
 30
0.0
 10
26.9875
 20
-3.734453366679139
 30
0.0
 10
26.9875
 20
-3.992022485105954
 30
0.0
 10
26.9875
 20
-4.121009087186037
 30
0.0
 10
26.9875
 20
-4.10606569508162
 30
0.0
 10
26.9875
 20
-4.102287351986199
 30
0.0
  0
SPLINE
  5
CA
330
1F
100
AcDbEntity
  8
0
  6
Continuous
 62
     1
370
    15
100
AcDbSpline
210
0.0
220
0.0
230
1.0
 70
     8
 71
     3
 72
    11
 73
     7
 74
     0
 42
0.000000001
 43
0.00000001
 40
0.0
 40
0.0
 40
0.0
 40
0.0
 40
0.2312772935075298
 40
0.4874639084087121
 40
0.7436998854275544
 40
1.0
 40
1.0
 40
1.0
 40
1.0
 10
40.53582054088926
 20
3.458664342574512
 30
0.0
 10
41.0823107446344
 20
3.684074531726096
 30
0.0
 10
42.23414993552325
 20
4.159172325082972
 30
0.0
 10
43.99151139707101
 20
4.678469572763374
 30
0.0
 10
45.80806092336115
 20
5.050771279703176
 30
0.0
 10
47.01930311712647
 20
5.120263777742434
 30
0.0
 10
47.62500000000001
 20
5.155014374825439
 30
0.0
1001
PE_URL
1000

  0
SPLINE
  5
CB
330
1F
100
AcDbEntity
  8
0
  6
Continuous
 62
     1
370
    15
100
AcDbSpline
210
0.0
220
0.0
230
1.0
 70
    24
 71
     3
 72
    10
 73
     6
 74
     0
 42
0.000000001
 43
0.00000001
 40
0.0
 40
0.0
 40
0.0
 40
0.0
 40
0.5
 40
0.5
 40
1.0
 40
1.0
 40
1.0
 40
1.0
 10
47.62500000000001
 20
3.611562499999998
 30
0.0
 10
47.62500000000001
 20
3.830486424965232
 30
0.0
 10
47.62500000000001
 20
4.084896300311279
 30
0.0
 10
47.62500000000001
 20
4.618647533582409
 30
0.0
 10
47.62500000000002
 20
4.896625757838217
 30
0.0
 10
47.62500000000001
 20
5.15501437482544
 30
0.0
1001
PE_URL
1000

  0
LINE
  5
CC
330
1F
100
AcDbEntity
  8
0
  6
Continuous
 62
     1
370
    15
100
AcDbLine
 10
28.32722486082144
 20
-4.055678984230848
 30
0.0
 11
26.98749999999655
 21
-4.499852614349399
 31
0.0
1001
PE_URL
1000

  0
SPLINE
  5
CD
330
1F
100
AcDbEntity
  8
외형선
  6
Continuous
370
    15
100
AcDbSpline
210
0.0
220
0.0
230
1.0
 70
    24
 71
     3
 72
    11
 73
     7
 74
     0
 42
0.000000001
 43
0.00000001
 40
0.0
 40
0.0
 40
0.0
 40
0.0
 40
0.1918896534015024
 40
0.492587439435496
 40
0.7936367035434444
 40
1.0
 40
1.0
 40
1.0
 40
1.0
 10
26.9875
 20
-4.117401300831207
 30
0.0
 10
26.9875
 20
-4.143449057788381
 30
0.0
 10
26.9875
 20
-4.210314559263469
 30
0.0
 10
26.9875
 20
-4.312997540230421
 30
0.0
 10
26.9875
 20
-4.41432665836628
 30
0.0
 10
26.9875
 20
-4.475125778827895
 30
0.0
 10
26.9875
 20
-4.499852614336579
 30
0.0
  0
LINE
  5
CE
330
1F
100
AcDbEntity
  8
중심선
 62
     1
100
AcDbLine
 10
-50.625
 20
-0.0000000000000062
 30
0.0
 11
50.625
 21
0.0000000000000062
 31
0.0
  0
LINE
  5
CF
330
1F
100
AcDbEntity
  8
참조1
100
AcDbLine
 10
0.0
 20
-0.0000000000000058
 30
0.0
 11
0.0000000000000071
 21
-40.00000000000001
 31
0.0
  0
LINE
  5
D0
330
1F
100
AcDbEntity
  8
참조1
100
AcDbLine
 10
0.0000000000000071
 20
-40.00000000000001
 30
0.0
 11
-12.87821559669922
 21
-40.0
 31
0.0
  0
CIRCLE
  5
D1
330
1F
100
AcDbEntity
  8
해칭선
100
AcDbCircle
 10
0.0
 20
0.0
 30
0.0
 40
3.000000000000001
  0
INSERT
  5
D2
330
1F
100
AcDbEntity
  8
0
  6
Continuous
 62
     7
100
AcDbBlockReference
 66
     1
  2
블럭10
 10
-13.94027293212521
 20
-52.04717430164393
 30
0.0
  0
ATTRIB
  5
D3
330
D2
100
AcDbEntity
  8
FORMAT
 62
     2
100
AcDbText
 10
-23.12156822086649
 20
-49.97180738881174
 30
0.0
 40
4.233333333333333
  1
E2050026 [ 2 FLUTE ]
 41
0.75
  7
SLDTEXTSTYLE0
 11
-23.12156822086649
 21
-52.08847405547841
 31
0.0
100
AcDbAttribute
  2
AUTOATTR0
 70
     0
 74
     1
  0
SEQEND
  5
D4
330
D2
100
AcDbEntity
  8
0
  6
Continuous
 62
     7
  0
HATCH
  5
D5
330
1F
100
AcDbEntity
  8
중심선
100
AcDbHatch
 10
0.0
 20
0.0
 30
0.0
210
0.0
220
0.0
230
1.0
  2
SOLID
 70
     1
 71
     0
 91
        1
 92
        0
 93
        4
 72
     1
 10
-8.225363627744372
 20
-35.8
 11
-11.67163887158165
 21
-35.8
 72
     1
 10
-11.67163887158165
 20
-35.8
 11
-13.79986873078568
 21
-38.33632558057257
 72
     1
 10
-13.79986873078568
 20
-38.33632558057257
 11
-10.35356040183525
 21
-38.33628615127008
 72
     1
 10
-10.35356040183525
 20
-38.33628615127008
 11
-8.225363627744372
 21
-35.8
 97
        0
 75
     0
 76
     1
 98
        1
 10
16.58171167873051
 20
-0.001074928723895
  0
HATCH
  5
D6
330
1F
100
AcDbEntity
  8
중심선
100
AcDbHatch
 10
0.0
 20
0.0
 30
0.0
210
0.0
220
0.0
230
1.0
  2
SOLID
 70
     1
 71
     0
 91
        1
 92
        0
 93
        4
 72
     1
 10
-3.212599636708394
 20
-35.8
 11
-6.658874880545646
 21
-35.8
 72
     1
 10
-6.658874880545646
 20
-35.8
 11
-11.19001288890309
 21
-41.20000000000002
 72
     1
 10
-11.19001288890309
 20
-41.20000000000002
 11
-7.743737645065806
 21
-41.20000000000002
 72
     1
 10
-7.743737645065806
 20
-41.20000000000002
 11
-3.212599636708394
 21
-35.8
 97
        0
 75
     0
 76
     1
 98
        1
 10
16.58171167873051
 20
-0.001074928723895
  0
HATCH
  5
D7
330
1F
100
AcDbEntity
  8
중심선
100
AcDbHatch
 10
0.0
 20
0.0
 30
0.0
210
0.0
220
0.0
230
1.0
  2
SOLID
 70
     1
 71
     0
 91
        1
 92
        0
 93
        4
 72
     1
 10
1.800164354327503
 20
-35.80000000000003
 11
-1.646110889509611
 21
-35.8
 72
     1
 10
-1.646110889509611
 20
-35.8
 11
-8.69454779139889
 21
-44.20000000000002
 72
     1
 10
-8.69454779139889
 20
-44.20000000000002
 11
-5.248272547561605
 21
-44.20000000000002
 72
     1
 10
-5.248272547561605
 20
-44.20000000000002
 11
1.800164354327503
 21
-35.80000000000003
 97
        0
 75
     0
 76
     1
 98
        1
 10
16.58171167873051
 20
-0.001074928723895
  0
HATCH
  5
D8
330
1F
100
AcDbEntity
  8
중심선
100
AcDbHatch
 10
0.0
 20
0.0
 30
0.0
210
0.0
220
0.0
230
1.0
  2
SOLID
 70
     1
 71
     0
 91
        1
 92
        0
 93
        6
 72
     3
 10
6.600054785339674
 20
-40.00000000005127
 11
3.960054785062283
 21
1.540882976769353E-10
 40
0.3939339440162628
 50
17.09539180608436
 51
320.0019657685077
 73
     0
 72
     1
 10
8.283054441040242
 20
-38.5878940046383
 11
10.58835631474131
 21
-36.65356729459035
 72
     3
 10
6.600054785286828
 20
-40.00000000000015
 11
6.600054785286829
 21
-1.278976924368180E-13
 40
0.636358354079598
 50
39.9987384933743
 51
368.4976242363725
 73
     1
 72
     1
 10
13.02538727718744
 20
-39.03999999993002
 11
5.280122092122751
 21
-39.03999999993
 72
     1
 10
5.280122092122751
 20
-39.03999999993
 11
5.280097047676817
 21
-40.95999999992991
 72
     1
 10
5.280097047676817
 20
-40.95999999992991
 11
9.721476817148854
 21
-40.95999999992988
 97
        0
 75
     0
 76
     1
 98
        1
 10
16.58171167873051
 20
-0.001074928723895
  0
DIMENSION
  5
D9
330
1F
100
AcDbEntity
  8
치수문자_일반주서
100
AcDbDimension
  2
_D
 10
-57.62499999999995
 20
-6.350000000000136
 30
0.0
 11
-57.62500000000006
 21
26.29774999999995
 31
0.0
 70
   160
  1
%%c<>
 71
     2
 42
12.69999999999999
 52
-270.0
  3
SLDDIMSTYLE0
100
AcDbAlignedDimension
 13
-21.54402700723833
 23
6.349999999999992
 33
0.0
 14
-21.54402700723834
 24
-6.350000000000001
 34
0.0
 50
90.0000000000002
100
AcDbRotatedDimension
1001
PE_URL
1000

1001
ACAD
1000
DSTYLE
1002
{
1070
   171
1070
     8
1070
   273
1070
     7
1002
}
  0
DIMENSION
  5
EE
330
1F
100
AcDbEntity
  8
치수문자_일반주서
100
AcDbDimension
  2
_D_1
 10
90.1858588270426
 20
5.155014374825598
 30
0.0
 11
90.18585882704251
 21
27.2902643748256
 31
0.0
 70
   160
  1
%%c<>
 71
     2
 42
10.31002874965088
 52
-270.0
  3
SLDDIMSTYLE0
100
AcDbAlignedDimension
 13
47.62500000000001
 23
-5.155014374825443
 33
0.0
 14
47.62500000000001
 24
5.155014374825439
 34
0.0
 50
90.0000000000002
100
AcDbRotatedDimension
1001
PE_URL
1000

1001
ACAD
1000
DSTYLE
1002
{
1070
   171
1070
     8
1070
   273
1070
     7
1002
}
  0
DIMENSION
  5
102
330
1F
100
AcDbEntity
  8
치수문자_일반주서
100
AcDbDimension
  2
_D_2
 10
26.98750000000001
 20
16.34999999999999
 30
0.0
 11
68.88525000000001
 21
16.34999999999999
 31
0.0
 70
   160
  1
<>
 71
     2
 42
20.6375
  3
SLDDIMSTYLE0
100
AcDbAlignedDimension
 13
47.62500000000001
 23
5.155014374825439
 33
0.0
 14
26.98750000000001
 24
4.499852614348421
 34
0.0
 50
0.0000000000000099
100
AcDbRotatedDimension
1001
PE_URL
1000

1001
ACAD
1000
DSTYLE
1002
{
1070
   171
1070
     8
1070
   273
1070
     7
1002
}
  0
DIMENSION
  5
116
330
1F
100
AcDbEntity
  8
치수문자_일반주서
100
AcDbDimension
  2
_D_3
 10
47.62500000000001
 20
26.34999999999999
 30
0.0
 11
0.0000000000000142
 21
26.34999999999999
 31
0.0
 70
   160
  1
<>
 71
     2
 42
95.25000000000003
  3
SLDDIMSTYLE0
100
AcDbAlignedDimension
 13
-47.62500000000001
 23
5.155014374825431
 33
0.0
 14
47.62500000000001
 24
5.155014374825439
 34
0.0
100
AcDbRotatedDimension
1001
PE_URL
1000

1001
ACAD
1000
DSTYLE
1002
{
1070
   171
1070
     8
1070
   273
1070
     7
1002
}
  0
LINE
  5
129
330
1F
100
AcDbEntity
  8
참조1
100
AcDbLine
 10
85.09412503295505
 20
7.44
 30
0.0
 11
85.09412503295505
 21
-7.440000000000004
 31
0.0
  0
LINE
  5
12A
330
1F
100
AcDbEntity
  8
참조1
100
AcDbLine
 10
97.79412503295505
 20
5.44
 30
0.0
 11
85.09412503295505
 21
5.44
 31
0.0
  0
SOLID
  5
12B
330
1F
100
AcDbEntity
  8
참조1
100
AcDbTrace
 10
85.09412503295505
 20
5.44
 30
0.0
 11
91.44412503295504
 21
4.424
 31
0.0
 12
91.44412503295504
 22
6.456
 32
0.0
 13
91.44412503295504
 23
6.456
 33
0.0
  0
LINE
  5
12C
330
1F
100
AcDbEntity
  8
참조1
100
AcDbLine
 10
97.79412503295505
 20
-5.440000000000004
 30
0.0
 11
85.09412503295505
 21
-5.440000000000004
 31
0.0
  0
SOLID
  5
12D
330
1F
100
AcDbEntity
  8
참조1
100
AcDbTrace
 10
85.09412503295505
 20
-5.440000000000004
 30
0.0
 11
91.44412503295504
 21
-6.456000000000004
 31
0.0
 12
91.44412503295504
 22
-4.424000000000004
 32
0.0
 13
91.44412503295504
 23
-4.424000000000004
 33
0.0
  0
MTEXT
  5
12E
330
1F
100
AcDbEntity
  8
참조1
100
AcDbMText
 10
94.47847516558105
 20
11.01029177718833
 30
0.0
 40
3.5
 41
0.0
 71
     1
 72
     1
  1
A
  7
SLDTEXTSTYLE0
 73
     1
 44
1.0
  0
MTEXT
  5
12F
330
1F
100
AcDbEntity
  8
참조1
100
AcDbMText
 10
94.47847516558105
 20
0.1302917771883242
 30
0.0
 40
3.5
 41
0.0
 71
     1
 72
     1
  1
A
  7
SLDTEXTSTYLE0
 73
     1
 44
1.0
  0
INSERT
  5
136
330
1F
100
AcDbEntity
  8
해칭선
100
AcDbBlockReference
  2
SW_DOWELSYMBOL_0
 10
0.0
 20
0.0
 30
0.0
  0
LINE
  5
22E
330
1F
100
AcDbEntity
  8
외형선
  6
Continuous
370
    15
100
AcDbLine
 10
-5.587999999999923
 20
4.825999999999996
 30
0.0
 11
5.587999999999937
 21
4.825999999999996
 31
0.0
1001
PE_URL
1000

  0
LINE
  5
22F
330
1F
100
AcDbEntity
  8
외형선
  6
Continuous
370
    15
100
AcDbLine
 10
-5.587999999999923
 20
4.825999999999996
 30
0.0
 11
-7.111999999999924
 21
6.349999999999993
 31
0.0
1001
PE_URL
1000

  0
LINE
  5
230
330
1F
100
AcDbEntity
  8
외형선
  6
Continuous
370
    15
100
AcDbLine
 10
5.588000000000051
 20
4.825999999999996
 30
0.0
 11
7.112000000000052
 21
6.349999999999993
 31
0.0
1001
PE_URL
1000

  0
LINE
  5
278
330
1F
100
AcDbEntity
  8
외형선
  6
Continuous
370
    15
100
AcDbLine
 10
-21.54402700723833
 20
6.349999999999991
 30
0.0
 11
-24.95759800082932
 21
5.435336408960978
 31
0.0
  0
LINE
  5
279
330
1F
100
AcDbEntity
  8
외형선
  6
Continuous
370
    15
100
AcDbLine
 10
-24.95759800082932
 20
-5.435336408960993
 30
0.0
 11
-21.54402700723833
 21
-6.350000000000001
 31
0.0
  0
SPLINE
  5
27A
330
1F
100
AcDbEntity
  8
외형선
  6
Continuous
370
    15
100
AcDbSpline
210
0.0
220
0.0
230
1.0
 70
     8
 71
     3
 72
     9
 73
     5
 74
     0
 42
0.000000001
 43
0.00000001
 40
0.0
 40
0.0
 40
0.0
 40
0.0
 40
0.5603039496088383
 40
1.0
 40
1.0
 40
1.0
 40
1.0
 10
-24.95763549222306
 20
4.272103219156904
 30
0.0
 10
-25.33796665083896
 20
4.238939458218553
 30
0.0
 10
-26.01676100679776
 20
4.179750582320924
 30
0.0
 10
-26.6910276292133
 20
4.136443329048411
 30
0.0
 10
-26.9875
 20
4.117401300831201
 30
0.0
  0
SPLINE
  5
27B
330
1F
100
AcDbEntity
  8
0
  6
Continuous
 62
     1
370
    15
100
AcDbSpline
210
0.0
220
0.0
230
1.0
 70
     8
 71
     3
 72
     9
 73
     5
 74
     0
 42
0.000000001
 43
0.00000001
 40
0.0
 40
0.0
 40
0.0
 40
0.0
 40
0.4403992498702914
 40
1.0
 40
1.0
 40
1.0
 40
1.0
 10
-34.25762658801514
 20
-1.32206523649841
 30
0.0
 10
-34.04726390432729
 20
-1.422226905709532
 30
0.0
 10
-33.56960032122673
 20
-1.649660692757582
 30
0.0
 10
-33.09386950183001
 20
-1.898612692217483
 30
0.0
 10
-32.82765017843579
 20
-2.037926417861534
 30
0.0
1001
PE_URL
1000

  0
LINE
  5
27C
330
1F
100
AcDbEntity
  8
0
  6
Continuous
 62
     1
370
    15
100
AcDbLine
 10
-31.43532785121425
 20
-1.436305308170038
 30
0.0
 11
-31.35025646870677
 21
-1.483193290888622
 31
0.0
1001
PE_URL
1000

  0
SPLINE
  5
27D
330
1F
100
AcDbEntity
  8
0
  6
Continuous
 62
     1
370
    15
100
AcDbSpline
210
0.0
220
0.0
230
1.0
 70
     8
 71
     3
 72
    17
 73
    13
 74
     0
 42
0.000000001
 43
0.00000001
 40
0.0
 40
0.0
 40
0.0
 40
0.0
 40
0.1355532441893
 40
0.2377681621647535
 40
0.3202235687981402
 40
0.4199489782328724
 40
0.5330107777288716
 40
0.6416581014385675
 40
0.7550718278852774
 40
0.8575690157396378
 40
0.9537547925800409
 40
1.0
 40
1.0
 40
1.0
 40
1.0
 10
-32.55261129627655
 20
-4.099835938507439
 30
0.0
 10
-32.36344978066428
 20
-4.090324811300778
 30
0.0
 10
-32.0316496368284
 20
-4.073641748866027
 30
0.0
 10
-31.57984556098725
 20
-4.056725988282331
 30
0.0
 10
-31.17312212918385
 20
-4.044685410660072
 30
0.0
 10
-30.75497460131394
 20
-4.035589864484571
 30
0.0
 10
-30.30032649077089
 20
-4.029886092215573
 30
0.0
 10
-29.82049553004829
 20
-4.028475697277514
 30
0.0
 10
-29.35099759786776
 20
-4.030220967056565
 30
0.0
 10
-28.91888203240284
 20
-4.038731339628505
 30
0.0
 10
-28.59384487912205
 20
-4.047041859416641
 30
0.0
 10
-28.39300761339577
 20
-4.053418358904523
 30
0.0
 10
-28.32779876112672
 20
-4.055488712788279
 30
0.0
1001
PE_URL
1000

  0
SPLINE
  5
27E
330
1F
100
AcDbEntity
  8
0
  6
Continuous
 62
     1
370
    15
100
AcDbSpline
210
0.0
220
0.0
230
1.0
 70
     8
 71
     3
 72
    27
 73
    23
 74
     0
 42
0.000000001
 43
0.00000001
 40
0.0
 40
0.0
 40
0.0
 40
0.0
 40
0.0658910465557861
 40
0.116003053814007
 40
0.1499776585089914
 40
0.1807254229593057
 40
0.2194566071235401
 40
0.2650648525038948
 40
0.3076485539148036
 40
0.3717191724339386
 40
0.4257796122004688
 40
0.4792103944058305
 40
0.5327057111625176
 40
0.592870695193725
 40
0.6568201069655936
 40
0.7104085450907338
 40
0.7402814805789639
 40
0.7678890674401267
 40
0.795847656124887
 40
0.8421830249538057
 40
0.9101095688683633
 40
1.0
 40
1.0
 40
1.0
 40
1.0
 10
-45.70749213940051
 20
-3.528766114296982
 30
0.0
 10
-45.5103568824682
 20
-3.512648098889983
 30
0.0
 10
-45.16329467881667
 20
-3.484271876225947
 30
0.0
 10
-44.71419925235658
 20
-3.456048562102435
 30
0.0
 10
-44.36779034956984
 20
-3.437596317697164
 30
0.0
 10
-44.05446740357483
 20
-3.42353182288366
 30
0.0
 10
-43.70795739615133
 20
-3.410983885547719
 30
0.0
 10
-43.32682681294575
 20
-3.401289583788049
 30
0.0
 10
-42.86953997003455
 20
-3.394894916861233
 30
0.0
 10
-42.38681977998568
 20
-3.394741659028746
 30
0.0
 10
-41.87135334108503
 20
-3.402372440729405
 30
0.0
 10
-41.38778489475494
 20
-3.416296399899196
 30
0.0
 10
-40.88611698419331
 20
-3.437507711226065
 30
0.0
 10
-40.35013398537963
 20
-3.467791156907314
 30
0.0
 10
-39.81130639005355
 20
-3.506564278041715
 30
0.0
 10
-39.36896604637238
 20
-3.545131694860149
 30
0.0
 10
-39.04054315337495
 20
-3.576902123090932
 30
0.0
 10
-38.78697359335459
 20
-3.603046828733998
 30
0.0
 10
-38.48406973056431
 20
-3.636154963846231
 30
0.0
 10
-38.05697438648703
 20
-3.68656813442399
 30
0.0
 10
-37.443137949072
 20
-3.76676568046927
 30
0.0
 10
-36.9665160359677
 20
-3.839251984405969
 30
0.0
 10
-36.69503859038119
 20
-3.880539210384679
 30
0.0
1001
PE_URL
1000

  0
SPLINE
  5
27F
330
1F
100
AcDbEntity
  8
0
  6
Continuous
 62
     1
370
    15
100
AcDbSpline
210
0.0
220
0.0
230
1.0
 70
     8
 71
     3
 72
    17
 73
    13
 74
     0
 42
0.000000001
 43
0.00000001
 40
0.0
 40
0.0
 40
0.0
 40
0.0
 40
0.1484685814633518
 40
0.2633134161075028
 40
0.3452579716894461
 40
0.4209288247277543
 40
0.5139387187304185
 40
0.6216757589525481
 40
0.7198429290481498
 40
0.8620812413747401
 40
0.9856572852603449
 40
1.0
 40
1.0
 40
1.0
 40
1.0
 10
-36.69503859038119
 20
3.880539210384661
 30
0.0
 10
-36.88403641384793
 20
3.851533841839128
 30
0.0
 10
-37.21922963818808
 20
3.80009196368616
 30
0.0
 10
-37.6590854582918
 20
3.738865880991707
 30
0.0
 10
-38.00970726399473
 20
3.693225552554487
 30
0.0
 10
-38.33367317376351
 20
3.653670726615143
 30
0.0
 10
-38.68873696062707
 20
3.613225766489769
 30
0.0
 10
-39.07159527923815
 20
3.573447480025614
 30
0.0
 10
-39.51694022049965
 20
3.53152738962093
 30
0.0
 10
-39.98301225617798
 20
3.494017569657977
 30
0.0
 10
-40.3400259566564
 20
3.468554107842763
 30
0.0
 10
-40.51625978317902
 20
3.459155750238139
 30
0.0
 10
-40.53458703268799
 20
3.458178378026499
 30
0.0
1001
PE_URL
1000

  0
SPLINE
  5
280
330
1F
100
AcDbEntity
  8
0
  6
Continuous
 62
     1
370
    15
100
AcDbSpline
210
0.0
220
0.0
230
1.0
 70
     8
 71
     3
 72
    19
 73
    15
 74
     0
 42
0.000000001
 43
0.00000001
 40
0.0
 40
0.0
 40
0.0
 40
0.0
 40
0.1254032366263146
 40
0.2122081594593364
 40
0.2678293252343577
 40
0.3220169720793998
 40
0.4119848150197567
 40
0.5125204274771813
 40
0.5950618164178166
 40
0.6809569645713346
 40
0.7567202095953048
 40
0.8193631128606469
 40
0.8970176837425805
 40
1.0
 40
1.0
 40
1.0
 40
1.0
 10
-26.9875
 20
4.117401300831201
 30
0.0
 10
-27.22077084877037
 20
4.104400363647439
 30
0.0
 10
-27.6155132717318
 20
4.082400094553641
 30
0.0
 10
-28.11287352095424
 20
4.062400833206599
 30
0.0
 10
-28.47961933428163
 20
4.05037540671076
 30
0.0
 10
-28.83830868522607
 20
4.040839119834718
 30
0.0
 10
-29.27047347611856
 20
4.030837679918911
 30
0.0
 10
-29.79398757755656
 20
4.028347585626584
 30
0.0
 10
-30.30017694888983
 20
4.029898586594658
 30
0.0
 10
-30.75501025923595
 20
4.035586885228238
 30
0.0
 10
-31.17311488563249
 20
4.044686015866283
 30
0.0
 10
-31.57984780269491
 20
4.056725800985323
 30
0.0
 10
-32.03164879279909
 20
4.073641819385543
 30
0.0
 10
-32.36344947419668
 20
4.090324836906451
 30
0.0
 10
-32.55261129627655
 20
4.099835938507429
 30
0.0
1001
PE_URL
1000

  0
LINE
  5
281
330
1F
100
AcDbEntity
  8
외형선
  6
Continuous
370
    15
100
AcDbLine
 10
-21.54402700723833
 20
-6.350000000000001
 30
0.0
 11
-21.54402700723833
 21
6.349999999999989
 31
0.0
  0
SPLINE
  5
282
330
1F
100
AcDbEntity
  8
외형선
  6
Continuous
370
    15
100
AcDbSpline
210
0.0
220
0.0
230
1.0
 70
     8
 71
     3
 72
     8
 73
     4
 74
     0
 42
0.000000001
 43
0.00000001
 40
0.0
 40
0.0
 40
0.0
 40
0.0
 40
1.0
 40
1.0
 40
1.0
 40
1.0
 10
-25.98750000000001
 20
-4.753215197150269
 30
0.0
 10
-25.64281405254193
 20
-4.90025441906711
 30
0.0
 10
-25.30001597589262
 20
-5.043052419236304
 30
0.0
 10
-24.95770068131359
 20
-5.180311856130569
 30
0.0
  0
LINE
  5
283
330
1F
100
AcDbEntity
  8
외형선
  6
Continuous
370
    15
100
AcDbLine
 10
-25.98750000000001
 20
-4.753215197150269
 30
0.0
 11
-25.98750000000001
 21
-4.014181848932203
 31
0.0
  0
SPLINE
  5
284
330
1F
100
AcDbEntity
  8
외형선
  6
Continuous
370
    15
100
AcDbSpline
210
0.0
220
0.0
230
1.0
 70
     8
 71
     3
 72
     8
 73
     4
 74
     0
 42
0.000000001
 43
0.00000001
 40
0.0
 40
0.0
 40
0.0
 40
0.0
 40
1.0
 40
1.0
 40
1.0
 40
1.0
 10
-24.95759800082931
 20
-4.537331895617449
 30
0.0
 10
-25.30162171945567
 20
-4.367668551167561
 30
0.0
 10
-25.64442458463941
 20
-4.192805511788031
 30
0.0
 10
-25.98750000000001
 20
-4.014181848932203
 30
0.0
  0
LINE
  5
285
330
1F
100
AcDbEntity
  8
외형선
  6
Continuous
370
    15
100
AcDbLine
 10
-24.95759800082932
 20
5.435336408960978
 30
0.0
 11
-24.95759800082931
 21
-4.537385323678606
 31
0.0
  0
SPLINE
  5
286
330
1F
100
AcDbEntity
  8
외형선
  6
Continuous
370
    15
100
AcDbSpline
210
0.0
220
0.0
230
1.0
 70
     8
 71
     3
 72
     8
 73
     4
 74
     0
 42
0.000000001
 43
0.00000001
 40
0.0
 40
0.0
 40
0.0
 40
0.0
 40
1.0
 40
1.0
 40
1.0
 40
1.0
 10
-25.98750000000001
 20
4.753215197150261
 30
0.0
 10
-25.64281405254193
 20
4.9002544190671
 30
0.0
 10
-25.30001597589262
 20
5.043052419236293
 30
0.0
 10
-24.95770068131359
 20
5.180311856130558
 30
0.0
  0
LINE
  5
287
330
1F
100
AcDbEntity
  8
외형선
  6
Continuous
370
    15
100
AcDbLine
 10
-24.95759800082932
 20
-5.180361954350428
 30
0.0
 11
-24.95759800082932
 21
-5.435336408960993
 31
0.0
  0
SPLINE
  5
288
330
1F
100
AcDbEntity
  8
외형선
  6
Continuous
370
    15
100
AcDbSpline
210
0.0
220
0.0
230
1.0
 70
    24
 71
     3
 72
    10
 73
     6
 74
     0
 42
0.000000001
 43
0.00000001
 40
0.0
 40
0.0
 40
0.0
 40
0.0
 40
0.5
 40
0.5
 40
1.0
 40
1.0
 40
1.0
 40
1.0
 10
-26.98750000000001
 20
-3.62775917594216
 30
0.0
 10
-26.98750000000001
 20
-3.502663922792177
 30
0.0
 10
-26.98750000000001
 20
-3.327091267129589
 30
0.0
 10
-26.98750000000001
 20
-2.911369659872346
 30
0.0
 10
-26.98750000000001
 20
-2.672582454539658
 30
0.0
 10
-26.98750000000001
 20
-2.431726044697864
 30
0.0
  0
SPLINE
  5
289
330
1F
100
AcDbEntity
  8
외형선
  6
Continuous
370
    15
100
AcDbSpline
210
0.0
220
0.0
230
1.0
 70
     8
 71
     3
 72
    10
 73
     6
 74
     0
 42
0.000000001
 43
0.00000001
 40
0.0
 40
0.0
 40
0.0
 40
0.0
 40
0.5
 40
0.5
 40
1.0
 40
1.0
 40
1.0
 40
1.0
 10
-26.98749999999955
 20
-2.431726044698003
 30
0.0
 10
-26.64868183384924
 20
-2.532865111679019
 30
0.0
 10
-26.30851392428149
 20
-2.628887749268539
 30
0.0
 10
-25.63204635087484
 20
-2.808865117364078
 30
0.0
 10
-25.29650424314354
 20
-2.892788289478233
 30
0.0
 10
-24.95762273599096
 20
-2.970592198926283
 30
0.0
  0
SPLINE
  5
28A
330
1F
100
AcDbEntity
  8
외형선
  6
Continuous
370
    15
100
AcDbSpline
210
0.0
220
0.0
230
1.0
 70
     8
 71
     3
 72
     8
 73
     4
 74
     0
 42
0.000000001
 43
0.00000001
 40
0.0
 40
0.0
 40
0.0
 40
0.0
 40
1.0
 40
1.0
 40
1.0
 40
1.0
 10
-26.98749999999999
 20
-3.62775917594217
 30
0.0
 10
-26.65443115352961
 20
-3.764354945339587
 30
0.0
 10
-26.32005787623483
 20
-3.893560326051674
 30
0.0
 10
-25.98750000000003
 20
-4.014181848932196
 30
0.0
  0
SPLINE
  5
28B
330
1F
100
AcDbEntity
  8
외형선
  6
Continuous
370
    15
100
AcDbSpline
210
0.0
220
0.0
230
1.0
 70
    24
 71
     3
 72
    14
 73
    10
 74
     0
 42
0.000000001
 43
0.00000001
 40
0.0
 40
0.0
 40
0.0
 40
0.0
 40
0.25
 40
0.25
 40
0.5
 40
0.5
 40
0.75
 40
0.75
 40
1.0
 40
1.0
 40
1.0
 40
1.0
 10
-26.98750000000001
 20
-2.431726044697864
 30
0.0
 10
-26.98750000000001
 20
-2.03604274830521
 30
0.0
 10
-26.98750000000001
 20
-1.599615546920091
 30
0.0
 10
-26.98750000000001
 20
-0.677082287211185
 30
0.0
 10
-26.98750000000001
 20
-0.1913281047567708
 30
0.0
 10
-26.9875
 20
0.7832318995465819
 30
0.0
 10
-26.9875
 20
1.271518435080608
 30
0.0
 10
-26.98750000000001
 20
2.203700778242467
 30
0.0
 10
-26.98750000000001
 20
2.647231157342581
 30
0.0
 10
-26.98750000000001
 20
3.051683699327896
 30
0.0
  0
SPLINE
  5
28C
330
1F
100
AcDbEntity
  8
외형선
  6
Continuous
370
    15
100
AcDbSpline
210
0.0
220
0.0
230
1.0
 70
     8
 71
     3
 72
    10
 73
     6
 74
     0
 42
0.000000001
 43
0.00000001
 40
0.0
 40
0.0
 40
0.0
 40
0.0
 40
0.5
 40
0.5
 40
1.0
 40
1.0
 40
1.0
 40
1.0
 10
-26.9874999999997
 20
3.051683699327803
 30
0.0
 10
-26.64868395949077
 20
2.946420821165617
 30
0.0
 10
-26.30851819245819
 20
2.834430879717033
 30
0.0
 10
-25.63205481454984
 20
2.599180659224743
 30
0.0
 10
-25.29651484145574
 20
2.476044056195335
 30
0.0
 10
-24.95763549222306
 20
2.347447232944127
 30
0.0
  0
SPLINE
  5
28D
330
1F
100
AcDbEntity
  8
외형선
  6
Continuous
370
    15
100
AcDbSpline
210
0.0
220
0.0
230
1.0
 70
     8
 71
     3
 72
     8
 73
     4
 74
     0
 42
0.000000001
 43
0.00000001
 40
0.0
 40
0.0
 40
0.0
 40
0.0
 40
1.0
 40
1.0
 40
1.0
 40
1.0
 10
-26.98749999999988
 20
-4.499852614348463
 30
0.0
 10
-26.65443115352954
 20
-4.593830283197597
 30
0.0
 10
-26.3200578762348
 20
-4.678543056121136
 30
0.0
 10
-25.98750000000003
 20
-4.753215197150269
 30
0.0
  0
LINE
  5
28E
330
1F
100
AcDbEntity
  8
외형선
  6
Continuous
370
    15
100
AcDbLine
 10
-26.9875
 20
-4.499852614348427
 30
0.0
 11
-26.98750000000001
 21
-3.62775917594216
 31
0.0
  0
SPLINE
  5
28F
330
1F
100
AcDbEntity
  8
외형선
  6
Continuous
370
    15
100
AcDbSpline
210
0.0
220
0.0
230
1.0
 70
    24
 71
     3
 72
    12
 73
     8
 74
     0
 42
0.000000001
 43
0.00000001
 40
0.0
 40
0.0
 40
0.0
 40
0.0
 40
0.1825858283998383
 40
0.3651716567996764
 40
0.631804283597974
 40
0.9061692746363993
 40
0.9999999999999999
 40
0.9999999999999999
 40
0.9999999999999999
 40
0.9999999999999999
 10
-26.98750000000001
 20
3.051683699327899
 30
0.0
 10
-26.98750000000001
 20
3.171373300060743
 30
0.0
 10
-26.9875
 20
3.410752501526435
 30
0.0
 10
-26.98750000000001
 20
3.734446613739976
 30
0.0
 10
-26.9875
 20
3.992061622147077
 30
0.0
 10
-26.9875
 20
4.121101906679552
 30
0.0
 10
-26.9875
 20
4.106061022401228
 30
0.0
 10
-26.9875
 20
4.102228014522332
 30
0.0
  0
SPLINE
  5
290
330
1F
100
AcDbEntity
  8
외형선
  6
Continuous
370
    15
100
AcDbSpline
210
0.0
220
0.0
230
1.0
 70
     8
 71
     3
 72
     8
 73
     4
 74
     0
 42
0.000000001
 43
0.00000001
 40
0.0
 40
0.0
 40
0.0
 40
0.0
 40
1.0
 40
1.0
 40
1.0
 40
1.0
 10
-26.98749999999988
 20
4.499852614348452
 30
0.0
 10
-26.65443115352954
 20
4.593830283197587
 30
0.0
 10
-26.3200578762348
 20
4.678543056121129
 30
0.0
 10
-25.98750000000003
 20
4.753215197150258
 30
0.0
  0
SPLINE
  5
291
330
1F
100
AcDbEntity
  8
외형선
  6
Continuous
370
    15
100
AcDbSpline
210
0.0
220
0.0
230
1.0
 70
    24
 71
     3
 72
    10
 73
     6
 74
     0
 42
0.000000001
 43
0.00000001
 40
0.0
 40
0.0
 40
0.0
 40
0.0
 40
0.1891952457885556
 40
0.7929261343319151
 40
1.0
 40
1.0
 40
1.0
 40
1.0
 10
-26.9875
 20
4.117401300831201
 30
0.0
 10
-26.9875
 20
4.143480104631848
 30
0.0
 10
-26.9875
 20
4.252777592523056
 30
0.0
 10
-26.98750000000001
 20
4.378022633364989
 30
0.0
 10
-26.9875
 20
4.475067925257392
 30
0.0
 10
-26.9875
 20
4.499852614336561
 30
0.0
  0
SPLINE
  5
292
330
1F
100
AcDbEntity
  8
0
  6
Continuous
 62
     1
370
    15
100
AcDbSpline
210
0.0
220
0.0
230
1.0
 70
     8
 71
     3
 72
    38
 73
    34
 74
     0
 42
0.000000001
 43
0.00000001
 40
0.0
 40
0.0
 40
0.0
 40
0.0
 40
0.0625
 40
0.0625
 40
0.125
 40
0.125
 40
0.1875
 40
0.1875
 40
0.25
 40
0.25
 40
0.3125
 40
0.3125
 40
0.375
 40
0.375
 40
0.4375
 40
0.4375
 40
0.5
 40
0.5
 40
0.5625
 40
0.5625
 40
0.625
 40
0.625
 40
0.6875
 40
0.6875
 40
0.75
 40
0.75
 40
0.8125
 40
0.8125
 40
0.875
 40
0.875
 40
0.9375
 40
0.9375
 40
1.0
 40
1.0
 40
1.0
 40
1.0
 10
-47.62500000000001
 20
4.89594179719332
 30
0.0
 10
-47.19773299851974
 20
4.81779655341337
 30
0.0
 10
-46.76524869110629
 20
4.72231570736319
 30
0.0
 10
-45.9032651372314
 20
4.49936513057331
 30
0.0
 10
-45.47686327914296
 20
4.372293533973529
 30
0.0
 10
-44.61569676194225
 20
4.087906311588206
 30
0.0
 10
-44.18287996965665
 20
3.930690619950102
 30
0.0
 10
-43.32623303575835
 20
3.591250230971632
 30
0.0
 10
-42.89614100167221
 20
3.408242604342799
 30
0.0
 10
-42.03366175616668
 20
3.019464102987389
 30
0.0
 10
-41.60667143896063
 20
2.814555000831437
 30
0.0
 10
-40.74664228800801
 20
2.385711515686911
 30
0.0
 10
-40.31365594460512
 20
2.16172365966143
 30
0.0
 10
-39.45521081335657
 20
1.701613837402455
 30
0.0
 10
-39.02692716599019
 20
1.465027080991369
 30
0.0
 10
-38.16427419055103
 20
0.9821980962725334
 30
0.0
 10
-37.73610768514501
 20
0.7371204639912108
 30
0.0
 10
-36.87753481837674
 20
0.2431403532401291
 30
0.0
 10
-36.44454207154214
 20
-0.0062648219104275
 30
0.0
 10
-35.58461569868014
 20
-0.5021465213012029
 30
0.0
 10
-35.15755431227626
 20
-0.7486504699819712
 30
0.0
 10
-34.29504978482757
 20
-1.236348475614815
 30
0.0
 10
-33.86512082031085
 20
-1.476483432072857
 30
0.0
 10
-33.00832135153168
 20
-1.944324299382323
 30
0.0
 10
-32.57548535703252
 20
-2.173092045811252
 30
0.0
 10
-31.71439653304304
 20
-2.613135795907802
 30
0.0
 10
-31.2879697666645
 20
-2.824162508949811
 30
0.0
 10
-30.42593568036626
 20
-3.226657332646703
 30
0.0
 10
-29.99366016834652
 20
-3.417520380775791
 30
0.0
 10
-29.1389490194199
 20
-3.772896778770399
 30
0.0
 10
-28.70643273523419
 20
-3.938798199285397
 30
0.0
 10
-27.84450169318995
 20
-4.241647706144043
 30
0.0
 10
-27.41812111862676
 20
-4.378349900076035
 30
0.0
 10
-26.98749999999655
 20
-4.499852614349404
 30
0.0
1001
PE_URL
1000

  0
SPLINE
  5
293
330
1F
100
AcDbEntity
  8
0
  6
Continuous
 62
     1
370
    15
100
AcDbSpline
210
0.0
220
0.0
230
1.0
 70
     8
 71
     3
 72
    15
 73
    11
 74
     0
 42
0.000000001
 43
0.00000001
 40
0.0
 40
0.0
 40
0.0
 40
0.0
 40
0.1410432461871111
 40
0.2820719053921569
 40
0.4230878664493994
 40
0.5640930285266775
 40
0.7050892995964586
 40
0.8460785948916583
 40
0.9870628353488757
 40
1.0
 40
1.0
 40
1.0
 40
1.0
 10
-47.62500000000001
 20
4.070603776474755
 30
0.0
 10
-46.99511850696064
 20
3.93804593678129
 30
0.0
 10
-45.735420664519
 20
3.672943966798268
 30
0.0
 10
-43.84600091894646
 20
3.063208603348873
 30
0.0
 10
-41.95677413570704
 20
2.32998325188618
 30
0.0
 10
-40.06771413358947
 20
1.490087396803535
 30
0.0
 10
-38.17879059812719
 20
0.5828490335321135
 30
0.0
 10
-36.28997493664201
 20
-0.3432492548157668
 30
0.0
 10
-34.97302620437084
 20
-0.997318902773717
 30
0.0
 10
-34.28567978390406
 20
-1.307119051318985
 30
0.0
 10
-34.22790800221014
 20
-1.33315789580492
 30
0.0
1001
PE_URL
1000

  0
LINE
  5
294
330
1F
100
AcDbEntity
  8
0
  6
Continuous
 62
     1
370
    15
100
AcDbLine
 10
-47.62500000000001
 20
4.895941797193323
 30
0.0
 11
-47.62500000000001
 21
4.070603776474755
 31
0.0
1001
PE_URL
1000

  0
SPLINE
  5
295
330
1F
100
AcDbEntity
  8
0
  6
Continuous
 62
     1
370
    15
100
AcDbSpline
210
0.0
220
0.0
230
1.0
 70
     8
 71
     3
 72
    38
 73
    34
 74
     0
 42
0.000000001
 43
0.00000001
 40
0.0
 40
0.0
 40
0.0
 40
0.0
 40
0.0625
 40
0.0625
 40
0.1250000000000001
 40
0.1250000000000001
 40
0.1875000000000001
 40
0.1875000000000001
 40
0.2500000000000002
 40
0.2500000000000002
 40
0.3125000000000002
 40
0.3125000000000002
 40
0.3750000000000002
 40
0.3750000000000002
 40
0.4375000000000003
 40
0.4375000000000003
 40
0.5000000000000003
 40
0.5000000000000003
 40
0.5625000000000003
 40
0.5625000000000003
 40
0.6250000000000004
 40
0.6250000000000004
 40
0.6875000000000004
 40
0.6875000000000004
 40
0.7500000000000003
 40
0.7500000000000003
 40
0.8125000000000003
 40
0.8125000000000003
 40
0.8750000000000002
 40
0.8750000000000002
 40
0.9375000000000002
 40
0.9375000000000002
 40
1.0
 40
1.0
 40
1.0
 40
1.0
 10
-47.62500000000001
 20
5.155014374825431
 30
0.0
 10
-47.19773299851983
 20
5.144831613711364
 30
0.0
 10
-46.76524869110644
 20
5.116688180519478
 30
0.0
 10
-45.90326513723168
 20
5.025047956264476
 30
0.0
 10
-45.47686327914332
 20
4.961802847551208
 30
0.0
 10
-44.61569676194274
 20
4.800953050774563
 30
0.0
 10
-44.18287996965721
 20
4.703335810056423
 30
0.0
 10
-43.32623303575904
 20
4.476925084033095
 30
0.0
 10
-42.89614100167297
 20
4.347632147373925
 30
0.0
 10
-42.03366175616759
 20
4.059473163983387
 30
0.0
 10
-41.60667143896158
 20
3.901271594109826
 30
0.0
 10
-40.74664228800912
 20
3.558213570821884
 30
0.0
 10
-40.3136559446063
 20
3.373272949250577
 30
0.0
 10
-39.45521081335788
 20
2.982366824408484
 30
0.0
 10
-39.02692716599158
 20
2.776035939427079
 30
0.0
 10
-38.16427419055256
 20
2.344540240687703
 30
0.0
 10
-37.73610768514658
 20
2.120416988410451
 30
0.0
 10
-36.87753481837847
 20
1.658669136818816
 30
0.0
 10
-36.44454207154396
 20
1.420546397544108
 30
0.0
 10
-35.58461569868207
 20
0.9371957004478446
 30
0.0
 10
-35.15755431227828
 20
0.691976344837343
 30
0.0
 10
-34.29504978482971
 20
0.1968432523859391
 30
0.0
 10
-33.86512082031305
 20
-0.0520142070577592
 30
0.0
 10
-33.00832135153404
 20
-0.54706064315803
 30
0.0
 10
-32.57548535703496
 20
-0.7943908508595854
 30
0.0
 10
-31.7143965330456
 20
-1.280949281271056
 30
0.0
 10
-31.28796976666714
 20
-1.519857401562152
 30
0.0
 10
-30.42593568036904
 20
-1.987168711099642
 30
0.0
 10
-29.99366016834932
 20
-2.214916290654578
 30
0.0
 10
-29.13894901942289
 20
-2.651826325821666
 30
0.0
 10
-28.70643273523725
 20
-2.862697213724253
 30
0.0
 10
-27.84450169319313
 20
-3.262556890554702
 30
0.0
 10
-27.41812111863001
 20
-3.451155979211563
 30
0.0
 10
-26.98749999999989
 20
-3.627759175942209
 30
0.0
1001
PE_URL
1000

  0
SPLINE
  5
296
330
1F
100
AcDbEntity
  8
0
  6
Continuous
 62
     1
370
    15
100
AcDbSpline
210
0.0
220
0.0
230
1.0
 70
     8
 71
     3
 72
    12
 73
     8
 74
     0
 42
0.000000001
 43
0.00000001
 40
0.0
 40
0.0
 40
0.0
 40
0.0
 40
0.0512984067869544
 40
0.2929839058856328
 40
0.534667258095279
 40
0.7673248438357416
 40
1.0
 40
1.0
 40
1.0
 40
1.0
 10
-34.80205813739003
 20
0.4869950975178554
 30
0.0
 10
-34.66843131593025
 20
0.4342473581210733
 30
0.0
 10
-33.90523981477971
 20
0.1329857852365812
 30
0.0
 10
-32.51249959953468
 20
-0.4385907029907514
 30
0.0
 10
-30.64731292898494
 20
-1.173929673464496
 30
0.0
 10
-28.80569700536228
 20
-1.859295255447428
 30
0.0
 10
-27.59358092448583
 20
-2.240910978492249
 30
0.0
 10
-26.9875
 20
-2.431726044697864
 30
0.0
1001
PE_URL
1000

  0
SPLINE
  5
297
330
1F
100
AcDbEntity
  8
외형선
  6
Continuous
370
    15
100
AcDbSpline
210
0.0
220
0.0
230
1.0
 70
    24
 71
     3
 72
    10
 73
     6
 74
     0
 42
0.000000001
 43
0.00000001
 40
0.0
 40
0.0
 40
0.0
 40
0.0
 40
0.5
 40
0.5
 40
1.0
 40
1.0
 40
1.0
 40
1.0
 10
-26.98750000000001
 20
-3.62775917594216
 30
0.0
 10
-26.98750000000001
 20
-3.502663922792177
 30
0.0
 10
-26.9875
 20
-3.327091267129589
 30
0.0
 10
-26.98750000000001
 20
-2.911369659872346
 30
0.0
 10
-26.98750000000001
 20
-2.672582454539658
 30
0.0
 10
-26.98750000000001
 20
-2.431726044697864
 30
0.0
  0
LINE
  5
298
330
1F
100
AcDbEntity
  8
0
  6
Continuous
 62
     1
370
    15
100
AcDbLine
 10
-47.62500000000001
 20
5.155014374825431
 30
0.0
 11
-47.62500000000001
 21
4.895941797193323
 31
0.0
1001
PE_URL
1000

  0
SPLINE
  5
299
330
1F
100
AcDbEntity
  8
0
  6
Continuous
 62
     1
370
    15
100
AcDbSpline
210
0.0
220
0.0
230
1.0
 70
     8
 71
     3
 72
     8
 73
     4
 74
     0
 42
0.000000001
 43
0.00000001
 40
0.0
 40
0.0
 40
0.0
 40
0.0
 40
1.0
 40
1.0
 40
1.0
 40
1.0
 10
-44.43262441845125
 20
-1.44317086605994
 30
0.0
 10
-44.24904190190288
 20
-1.660658537773426
 30
0.0
 10
-44.08545272727458
 20
-1.869683256207392
 30
0.0
 10
-43.94641545099554
 20
-2.068315436491272
 30
0.0
1001
PE_URL
1000

  0
LINE
  5
29A
330
1F
100
AcDbEntity
  8
0
  6
Continuous
 62
     1
370
    15
100
AcDbLine
 10
-44.01161353804959
 20
-2.123023127301874
 30
0.0
 11
-47.62500000000001
 21
-0.0000000000000107
 31
0.0
1001
PE_URL
1000

  0
LINE
  5
29B
330
1F
100
AcDbEntity
  8
0
  6
Continuous
 62
     1
370
    15
100
AcDbLine
 10
-47.62500000000001
 20
-0.0000000000000107
 30
0.0
 11
-47.62500000000001
 21
1.378806574671689
 31
0.0
1001
PE_URL
1000

  0
SPLINE
  5
29C
330
1F
100
AcDbEntity
  8
0
  6
Continuous
 62
     1
370
    15
100
AcDbSpline
210
0.0
220
0.0
230
1.0
 70
     8
 71
     3
 72
    12
 73
     8
 74
     0
 42
0.000000001
 43
0.00000001
 40
0.0
 40
0.0
 40
0.0
 40
0.0
 40
0.500000000000001
 40
0.500000000000001
 40
0.7500000000000006
 40
0.7500000000000006
 40
1.0
 40
1.0
 40
1.0
 40
1.0
 10
-47.62500000000001
 20
1.378806574671685
 30
0.0
 10
-47.07239005827019
 20
0.9443619064637474
 30
0.0
 10
-46.52901028189652
 20
0.4921038092001169
 30
0.0
 10
-45.72814174730745
 20
-0.2136903019550722
 30
0.0
 10
-45.46359362435717
 20
-0.4536023461742182
 30
0.0
 10
-44.93990036914771
 20
-0.9438537441623396
 30
0.0
 10
-44.68218429650944
 20
-1.192920902099395
 30
0.0
 10
-44.43262441845126
 20
-1.443170866059937
 30
0.0
1001
PE_URL
1000

  0
SPLINE
  5
29D
330
1F
100
AcDbEntity
  8
0
  6
Continuous
 62
     1
370
    15
100
AcDbSpline
210
0.0
220
0.0
230
1.0
 70
     8
 71
     3
 72
    14
 73
    10
 74
     0
 42
0.000000001
 43
0.00000001
 40
0.0
 40
0.0
 40
0.0
 40
0.0
 40
0.1040587999568182
 40
0.2084279120146506
 40
0.3674279357585454
 40
0.5264177942016194
 40
0.6853996768510079
 40
0.8443757797583674
 40
1.0
 40
1.0
 40
1.0
 40
1.0
 10
-44.43262441845125
 20
-1.44317086605994
 30
0.0
 10
-44.02071226888394
 20
-1.619019304127498
 30
0.0
 10
-43.19565961304504
 20
-1.97124057510764
 30
0.0
 10
-41.74028274133578
 20
-2.537321448219149
 30
0.0
 10
-40.06771618141923
 20
-3.11208694617514
 30
0.0
 10
-38.17875802837352
 20
-3.621952093787836
 30
0.0
 10
-36.28994414629532
 20
-3.967324492753953
 30
0.0
 10
-34.41445799947847
 20
-4.148489876428698
 30
0.0
 10
-33.16857961928245
 20
-4.114660593358181
 30
0.0
 10
-32.55227748235778
 20
-4.0979261674476
 30
0.0
1001
PE_URL
1000

  0
SPLINE
  5
29E
330
1F
100
AcDbEntity
  8
0
  6
Continuous
 62
     1
370
    15
100
AcDbSpline
210
0.0
220
0.0
230
1.0
 70
    24
 71
     3
 72
    10
 73
     6
 74
     0
 42
0.000000001
 43
0.00000001
 40
0.0
 40
0.0
 40
0.0
 40
0.0
 40
0.5
 40
0.5
 40
1.0
 40
1.0
 40
1.0
 40
1.0
 10
-47.62500000000001
 20
4.070603776474751
 30
0.0
 10
-47.62500000000001
 20
3.758560260141497
 30
0.0
 10
-47.625
 20
3.364281312279925
 30
0.0
 10
-47.62500000000001
 20
2.447620703618028
 30
0.0
 10
-47.62500000000001
 20
1.926033088992842
 30
0.0
 10
-47.62500000000001
 20
1.378806574671852
 30
0.0
1001
PE_URL
1000

  0
SPLINE
  5
29F
330
1F
100
AcDbEntity
  8
0
  6
Continuous
 62
     1
370
    15
100
AcDbSpline
210
0.0
220
0.0
230
1.0
 70
    24
 71
     3
 72
     8
 73
     4
 74
     0
 42
0.000000001
 43
0.00000001
 40
0.0
 40
0.0
 40
0.0
 40
0.0
 40
1.0
 40
1.0
 40
1.0
 40
1.0
 10
-44.4845937721281
 20
-2.519900667270935
 30
0.0
 10
-44.3142975329496
 20
-2.377005155785369
 30
0.0
 10
-44.13432508343001
 20
-2.225990339771752
 30
0.0
 10
-43.9464154509912
 20
-2.068315436497684
 30
0.0
1001
PE_URL
1000

  0
SPLINE
  5
2A0
330
1F
100
AcDbEntity
  8
0
  6
Continuous
 62
     1
370
    15
100
AcDbSpline
210
0.0
220
0.0
230
1.0
 70
     8
 71
     3
 72
     9
 73
     5
 74
     0
 42
0.000000001
 43
0.00000001
 40
0.0
 40
0.0
 40
0.0
 40
0.0
 40
0.9852697900518008
 40
1.0
 40
1.0
 40
1.0
 40
1.0
 10
-47.62500000000001
 20
-3.611562500000009
 30
0.0
 10
-46.99511501056038
 20
-3.610581886247672
 30
0.0
 10
-46.35581296781071
 20
-3.609586611895171
 30
0.0
 10
-45.71652155886534
 20
-3.528790442272054
 30
0.0
 10
-45.70710466219349
 20
-3.527600297730494
 30
0.0
1001
PE_URL
1000

  0
SPLINE
  5
2A1
330
1F
100
AcDbEntity
  8
0
  6
Continuous
 62
     1
370
    15
100
AcDbSpline
210
0.0
220
0.0
230
1.0
 70
     8
 71
     3
 72
    10
 73
     6
 74
     0
 42
0.000000001
 43
0.00000001
 40
0.0
 40
0.0
 40
0.0
 40
0.0
 40
0.5
 40
0.5
 40
1.0
 40
1.0
 40
1.0
 40
1.0
 10
-47.62500000000001
 20
-3.611562500000012
 30
0.0
 10
-47.09427591479987
 20
-3.467597002118783
 30
0.0
 10
-46.56678937335585
 20
-3.306026951760121
 30
0.0
 10
-45.51889818413592
 20
-2.94437816108757
 30
0.0
 10
-44.99843926681182
 20
-2.744829681958386
 30
0.0
 10
-44.48459377213805
 20
-2.519900667275568
 30
0.0
1001
PE_URL
1000

  0
SPLINE
  5
2A2
330
1F
100
AcDbEntity
  8
0
  6
Continuous
 62
     1
370
    15
100
AcDbSpline
210
0.0
220
0.0
230
1.0
 70
     8
 71
     3
 72
    13
 73
     9
 74
     0
 42
0.000000001
 43
0.00000001
 40
0.0
 40
0.0
 40
0.0
 40
0.0
 40
0.0423721794416745
 40
0.2368030586158714
 40
0.4312295606725582
 40
0.6256543808290626
 40
0.8128203074577071
 40
1.0
 40
1.0
 40
1.0
 40
1.0
 10
-36.70153390766856
 20
3.864855431418395
 30
0.0
 10
-36.56432959436103
 20
3.890961539577845
 30
0.0
 10
-35.79754342771511
 20
4.03685930415293
 30
0.0
 10
-34.4011974516721
 20
4.13198999267556
 30
0.0
 10
-32.51250844028745
 20
4.131134478109988
 30
0.0
 10
-30.6473119618866
 20
3.931930948798115
 30
0.0
 10
-28.80570484915927
 20
3.580738455390357
 30
0.0
 10
-27.59358314094726
 20
3.228039607979053
 30
0.0
 10
-26.98750000000001
 20
3.051683699327899
 30
0.0
1001
PE_URL
1000

  0
SPLINE
  5
2A3
330
1F
100
AcDbEntity
  8
외형선
  6
Continuous
370
    15
100
AcDbSpline
210
0.0
220
0.0
230
1.0
 70
    24
 71
     3
 72
    14
 73
    10
 74
     0
 42
0.000000001
 43
0.00000001
 40
0.0
 40
0.0
 40
0.0
 40
0.0
 40
0.25
 40
0.25
 40
0.5
 40
0.5
 40
0.75
 40
0.75
 40
1.0
 40
1.0
 40
1.0
 40
1.0
 10
-26.98750000000001
 20
-2.431726044697864
 30
0.0
 10
-26.98750000000001
 20
-2.03604274830521
 30
0.0
 10
-26.98750000000001
 20
-1.599615546920091
 30
0.0
 10
-26.98750000000001
 20
-0.677082287211185
 30
0.0
 10
-26.98750000000001
 20
-0.1913281047567708
 30
0.0
 10
-26.9875
 20
0.7832318995465819
 30
0.0
 10
-26.9875
 20
1.271518435080608
 30
0.0
 10
-26.98750000000001
 20
2.203700778242467
 30
0.0
 10
-26.98750000000001
 20
2.647231157342581
 30
0.0
 10
-26.98750000000001
 20
3.051683699327896
 30
0.0
  0
LINE
  5
2A4
330
1F
100
AcDbEntity
  8
0
  6
Continuous
 62
     1
370
    15
100
AcDbLine
 10
-47.62500000000001
 20
-0.0000000000000107
 30
0.0
 11
-47.62500000000001
 21
-3.611562500000009
 31
0.0
1001
PE_URL
1000

  0
SPLINE
  5
2A5
330
1F
100
AcDbEntity
  8
외형선
  6
Continuous
370
    15
100
AcDbSpline
210
0.0
220
0.0
230
1.0
 70
    24
 71
     3
 72
    12
 73
     8
 74
     0
 42
0.000000001
 43
0.00000001
 40
0.0
 40
0.0
 40
0.0
 40
0.0
 40
0.1827655578972838
 40
0.3655311157945674
 40
0.6324262040798104
 40
0.9070612680060832
 40
1.0
 40
1.0
 40
1.0
 40
1.0
 10
-26.98750000000001
 20
3.051683699327899
 30
0.0
 10
-26.98750000000001
 20
3.171372827879065
 30
0.0
 10
-26.9875
 20
3.410751084981396
 30
0.0
 10
-26.9875
 20
3.734453366679134
 30
0.0
 10
-26.9875
 20
3.992022485105945
 30
0.0
 10
-26.9875
 20
4.121009087186032
 30
0.0
 10
-26.9875
 20
4.106065695081611
 30
0.0
 10
-26.9875
 20
4.102287351986192
 30
0.0
  0
SPLINE
  5
2A6
330
1F
100
AcDbEntity
  8
0
  6
Continuous
 62
     1
370
    15
100
AcDbSpline
210
0.0
220
0.0
230
1.0
 70
     8
 71
     3
 72
    11
 73
     7
 74
     0
 42
0.000000001
 43
0.00000001
 40
0.0
 40
0.0
 40
0.0
 40
0.0
 40
0.2312772935075298
 40
0.4874639084087121
 40
0.7436998854275544
 40
1.0
 40
1.0
 40
1.0
 40
1.0
 10
-40.53582054088926
 20
-3.458664342574522
 30
0.0
 10
-41.0823107446344
 20
-3.684074531726107
 30
0.0
 10
-42.23414993552325
 20
-4.159172325082981
 30
0.0
 10
-43.99151139707101
 20
-4.678469572763387
 30
0.0
 10
-45.80806092336115
 20
-5.050771279703188
 30
0.0
 10
-47.01930311712647
 20
-5.120263777742444
 30
0.0
 10
-47.62500000000001
 20
-5.155014374825448
 30
0.0
1001
PE_URL
1000

  0
SPLINE
  5
2A7
330
1F
100
AcDbEntity
  8
0
  6
Continuous
 62
     1
370
    15
100
AcDbSpline
210
0.0
220
0.0
230
1.0
 70
    24
 71
     3
 72
    10
 73
     6
 74
     0
 42
0.000000001
 43
0.00000001
 40
0.0
 40
0.0
 40
0.0
 40
0.0
 40
0.5
 40
0.5
 40
1.0
 40
1.0
 40
1.0
 40
1.0
 10
-47.62500000000001
 20
-3.611562500000009
 30
0.0
 10
-47.62500000000001
 20
-3.83048642496524
 30
0.0
 10
-47.62500000000001
 20
-4.084896300311289
 30
0.0
 10
-47.62500000000001
 20
-4.618647533582418
 30
0.0
 10
-47.62500000000002
 20
-4.896625757838226
 30
0.0
 10
-47.62500000000001
 20
-5.155014374825452
 30
0.0
1001
PE_URL
1000

  0
LINE
  5
2A8
330
1F
100
AcDbEntity
  8
0
  6
Continuous
 62
     1
370
    15
100
AcDbLine
 10
-28.32722486082144
 20
4.055678984230841
 30
0.0
 11
-26.98749999999655
 21
4.499852614349393
 31
0.0
1001
PE_URL
1000

  0
SPLINE
  5
2A9
330
1F
100
AcDbEntity
  8
외형선
  6
Continuous
370
    15
100
AcDbSpline
210
0.0
220
0.0
230
1.0
 70
    24
 71
     3
 72
    11
 73
     7
 74
     0
 42
0.000000001
 43
0.00000001
 40
0.0
 40
0.0
 40
0.0
 40
0.0
 40
0.1918896534015024
 40
0.492587439435496
 40
0.7936367035434444
 40
1.0
 40
1.0
 40
1.0
 40
1.0
 10
-26.9875
 20
4.117401300831201
 30
0.0
 10
-26.9875
 20
4.143449057788374
 30
0.0
 10
-26.9875
 20
4.210314559263463
 30
0.0
 10
-26.9875
 20
4.312997540230413
 30
0.0
 10
-26.9875
 20
4.414326658366271
 30
0.0
 10
-26.9875
 20
4.475125778827888
 30
0.0
 10
-26.9875
 20
4.499852614336572
 30
0.0
  0
LINE
  5
2AB
330
1F
100
AcDbEntity
  8
외형선
  6
Continuous
370
    15
100
AcDbLine
 10
-7.11199999999991
 20
6.349999999999993
 30
0.0
 11
-21.54402700723833
 21
6.349999999999992
 31
0.0
  0
ENDSEC
  0
SECTION
  2
OBJECTS
  0
DICTIONARY
  5
C
330
0
100
AcDbDictionary
281
     1
  3
ACAD_DETAILVIEWSTYLE
350
1DC
  3
ACAD_GROUP
350
D
  3
ACAD_IMAGE_VARS
350
2CF
  3
ACAD_LAYOUT
350
1A
  3
ACAD_MLINESTYLE
350
17
  3
ACAD_PLOTSETTINGS
350
19
  3
ACAD_PLOTSTYLENAME
350
E
  3
ACAD_SCALELIST
350
47
  3
ACAD_SECTIONVIEWSTYLE
350
1DD
  3
AcDbVariableDictionary
350
1D7
  3
APPDATA
350
158
  3
DWGPROPS
350
2D0
  0
DICTIONARY
  5
18D
330
2
100
AcDbDictionary
280
     1
281
     1
  3
ACAD_LAYERSTATES
360
18E
  0
DICTIONARY
  5
1DC
102
{ACAD_REACTORS
330
C
102
}
330
C
100
AcDbDictionary
281
     1
  0
DICTIONARY
  5
D
102
{ACAD_REACTORS
330
C
102
}
330
C
100
AcDbDictionary
281
     1
  0
RASTERVARIABLES
  5
2CF
102
{ACAD_REACTORS
330
C
102
}
330
C
100
AcDbRasterVariables
 90
        0
 70
     1
 71
     1
 72
     1
  0
DICTIONARY
  5
1A
102
{ACAD_REACTORS
330
C
102
}
330
C
100
AcDbDictionary
281
     1
  3
Layout1
350
1E
  3
Layout2
350
26
  3
Model
350
22
  0
DICTIONARY
  5
17
102
{ACAD_REACTORS
330
C
102
}
330
C
100
AcDbDictionary
281
     1
  3
Standard
350
18
  0
DICTIONARY
  5
19
102
{ACAD_REACTORS
330
C
102
}
330
C
100
AcDbDictionary
281
     1
  0
ACDBDICTIONARYWDFLT
  5
E
102
{ACAD_REACTORS
330
C
102
}
330
C
100
AcDbDictionary
281
     1
  3
Normal
350
F
100
AcDbDictionaryWithDefault
340
F
  0
DICTIONARY
  5
47
102
{ACAD_REACTORS
330
C
102
}
330
C
100
AcDbDictionary
281
     1
  3
A0
350
48
  3
A1
350
49
  3
A2
350
4A
  3
A3
350
4B
  3
A4
350
4C
  3
A5
350
4D
  3
A6
350
4E
  3
A7
350
4F
  3
A8
350
50
  3
A9
350
51
  3
B0
350
52
  3
B1
350
53
  3
B2
350
54
  3
B3
350
55
  3
B4
350
56
  3
B5
350
57
  3
B6
350
58
  3
B7
350
59
  3
B8
350
5A
  3
B9
350
5B
  3
C0
350
5C
  3
C1
350
5D
  3
C2
350
5E
  3
C3
350
5F
  3
C4
350
60
  3
C5
350
61
  3
C6
350
62
  3
C7
350
63
  3
C8
350
64
  3
C9
350
65
  3
D0
350
66
  3
D1
350
67
  3
D2
350
68
  0
DICTIONARY
  5
1DD
102
{ACAD_REACTORS
330
C
102
}
330
C
100
AcDbDictionary
281
     1
  0
DICTIONARY
  5
1D7
102
{ACAD_REACTORS
330
C
102
}
330
C
100
AcDbDictionary
281
     1
  0
DICTIONARY
  5
158
102
{ACAD_REACTORS
330
C
102
}
330
C
100
AcDbDictionary
281
     1
  0
XRECORD
  5
2D0
102
{ACAD_REACTORS
330
C
102
}
330
C
100
AcDbXrecord
280
     1
  1
DWGPROPS COOKIE
  2

  3

  4

  6

  7

  8
12016016
  9

300
=
301
=
302
=
303
=
304
=
305
=
306
=
307
=
308
=
309
=
 40
0.0
 41
2458313.022582558
 42
2458330.401282222
  1

 90
        0
  0
DICTIONARY
  5
18E
102
{ACAD_REACTORS
330
18D
102
}
330
18D
100
AcDbDictionary
281
     1
  0
LAYOUT
  5
1E
102
{ACAD_REACTORS
330
1A
102
}
330
1A
100
AcDbPlotSettings
  1

  2
none_device
  4

  6

 40
0.0
 41
0.0
 42
0.0
 43
0.0
 44
0.0
 45
0.0
 46
0.0
 47
0.0
 48
0.0
 49
0.0
140
0.0
141
0.0
142
1.0
143
1.0
 70
   688
 72
     1
 73
     0
 74
     5
  7

 75
    16
147
1.0
148
0.0
149
0.0
100
AcDbLayout
  1
Layout1
 70
     1
 71
     1
 10
0.0
 20
0.0
 11
420.0
 21
297.0
 12
0.0
 22
0.0
 32
0.0
 14
1.000000000000000E+20
 24
1.000000000000000E+20
 34
1.000000000000000E+20
 15
-1.000000000000000E+20
 25
-1.000000000000000E+20
 35
-1.000000000000000E+20
146
0.0
 13
0.0
 23
0.0
 33
0.0
 16
1.0
 26
0.0
 36
0.0
 17
0.0
 27
1.0
 37
0.0
 76
     0
330
1B
  0
LAYOUT
  5
26
102
{ACAD_REACTORS
330
1A
102
}
330
1A
100
AcDbPlotSettings
  1

  2
none_device
  4

  6

 40
0.0
 41
0.0
 42
0.0
 43
0.0
 44
0.0
 45
0.0
 46
0.0
 47
0.0
 48
0.0
 49
0.0
140
0.0
141
0.0
142
1.0
143
1.0
 70
   688
 72
     1
 73
     0
 74
     5
  7

 75
    16
147
1.0
148
0.0
149
0.0
100
AcDbLayout
  1
Layout2
 70
     1
 71
     2
 10
0.0
 20
0.0
 11
0.0
 21
0.0
 12
0.0
 22
0.0
 32
0.0
 14
0.0
 24
0.0
 34
0.0
 15
0.0
 25
0.0
 35
0.0
146
0.0
 13
0.0
 23
0.0
 33
0.0
 16
1.0
 26
0.0
 36
0.0
 17
0.0
 27
1.0
 37
0.0
 76
     0
330
23
  0
LAYOUT
  5
22
102
{ACAD_REACTORS
330
1A
102
}
330
1A
100
AcDbPlotSettings
  1

  2
none_device
  4
ANSI_A_(11.00_x_8.50_Inches)
  6

 40
6.35
 41
19.05
 42
6.35000508
 43
19.05000254
 44
279.4
 45
215.9
 46
69.6453324306941
 47
50.94538938499159
 48
0.0
 49
0.0
140
0.0
141
0.0
142
0.0335920848724483
143
1.0
 70
  1696
 72
     0
 73
     0
 74
     0
  7

 75
     0
147
0.0235690232323232
148
0.0
149
0.0
100
AcDbLayout
  1
Model
 70
     1
 71
     0
 10
0.0
 20
0.0
 11
420.0
 21
297.0
 12
0.0
 22
0.0
 32
0.0
 14
-62.00000000000011
 24
-49.97180738881174
 34
0.0
 15
97.79412503295505
 25
42.8215143748256
 35
0.0
146
0.0
 13
0.0
 23
0.0
 33
0.0
 16
1.0
 26
0.0
 36
0.0
 17
0.0
 27
1.0
 37
0.0
 76
     0
330
1F
331
29
  0
MLINESTYLE
  5
18
102
{ACAD_REACTORS
330
17
102
}
330
17
100
AcDbMlineStyle
  2
Standard
 70
     0
  3

 62
   256
 51
90.0
 52
90.0
 71
     2
 49
0.5
 62
   256
  6
BYLAYER
 49
-0.5
 62
   256
  6
BYLAYER
  0
ACDBPLACEHOLDER
  5
F
102
{ACAD_REACTORS
330
E
102
}
330
E
  0
SCALE
  5
48
102
{ACAD_REACTORS
330
47
102
}
330
47
100
AcDbScale
 70
     0
300
1:1
140
1.0
141
1.0
290
     1
  0
SCALE
  5
49
102
{ACAD_REACTORS
330
47
102
}
330
47
100
AcDbScale
 70
     0
300
1:2
140
1.0
141
2.0
290
     0
  0
SCALE
  5
4A
102
{ACAD_REACTORS
330
47
102
}
330
47
100
AcDbScale
 70
     0
300
1:4
140
1.0
141
4.0
290
     0
  0
SCALE
  5
4B
102
{ACAD_REACTORS
330
47
102
}
330
47
100
AcDbScale
 70
     0
300
1:5
140
1.0
141
5.0
290
     0
  0
SCALE
  5
4C
102
{ACAD_REACTORS
330
47
102
}
330
47
100
AcDbScale
 70
     0
300
1:8
140
1.0
141
8.0
290
     0
  0
SCALE
  5
4D
102
{ACAD_REACTORS
330
47
102
}
330
47
100
AcDbScale
 70
     0
300
1:10
140
1.0
141
10.0
290
     0
  0
SCALE
  5
4E
102
{ACAD_REACTORS
330
47
102
}
330
47
100
AcDbScale
 70
     0
300
1:16
140
1.0
141
16.0
290
     0
  0
SCALE
  5
4F
102
{ACAD_REACTORS
330
47
102
}
330
47
100
AcDbScale
 70
     0
300
1:20
140
1.0
141
20.0
290
     0
  0
SCALE
  5
50
102
{ACAD_REACTORS
330
47
102
}
330
47
100
AcDbScale
 70
     0
300
1:30
140
1.0
141
30.0
290
     0
  0
SCALE
  5
51
102
{ACAD_REACTORS
330
47
102
}
330
47
100
AcDbScale
 70
     0
300
1:40
140
1.0
141
40.0
290
     0
  0
SCALE
  5
52
102
{ACAD_REACTORS
330
47
102
}
330
47
100
AcDbScale
 70
     0
300
1:50
140
1.0
141
50.0
290
     0
  0
SCALE
  5
53
102
{ACAD_REACTORS
330
47
102
}
330
47
100
AcDbScale
 70
     0
300
1:100
140
1.0
141
100.0
290
     0
  0
SCALE
  5
54
102
{ACAD_REACTORS
330
47
102
}
330
47
100
AcDbScale
 70
     0
300
2:1
140
2.0
141
1.0
290
     0
  0
SCALE
  5
55
102
{ACAD_REACTORS
330
47
102
}
330
47
100
AcDbScale
 70
     0
300
4:1
140
4.0
141
1.0
290
     0
  0
SCALE
  5
56
102
{ACAD_REACTORS
330
47
102
}
330
47
100
AcDbScale
 70
     0
300
8:1
140
8.0
141
1.0
290
     0
  0
SCALE
  5
57
102
{ACAD_REACTORS
330
47
102
}
330
47
100
AcDbScale
 70
     0
300
10:1
140
10.0
141
1.0
290
     0
  0
SCALE
  5
58
102
{ACAD_REACTORS
330
47
102
}
330
47
100
AcDbScale
 70
     0
300
100:1
140
100.0
141
1.0
290
     0
  0
SCALE
  5
59
102
{ACAD_REACTORS
330
47
102
}
330
47
100
AcDbScale
 70
     0
300
1/128" = 1'-0"
140
0.0078125
141
12.0
290
     0
  0
SCALE
  5
5A
102
{ACAD_REACTORS
330
47
102
}
330
47
100
AcDbScale
 70
     0
300
1/64" = 1'-0"
140
0.015625
141
12.0
290
     0
  0
SCALE
  5
5B
102
{ACAD_REACTORS
330
47
102
}
330
47
100
AcDbScale
 70
     0
300
1/32" = 1'-0"
140
0.03125
141
12.0
290
     0
  0
SCALE
  5
5C
102
{ACAD_REACTORS
330
47
102
}
330
47
100
AcDbScale
 70
     0
300
1/16" = 1'-0"
140
0.0625
141
12.0
290
     0
  0
SCALE
  5
5D
102
{ACAD_REACTORS
330
47
102
}
330
47
100
AcDbScale
 70
     0
300
3/32" = 1'-0"
140
0.09375
141
12.0
290
     0
  0
SCALE
  5
5E
102
{ACAD_REACTORS
330
47
102
}
330
47
100
AcDbScale
 70
     0
300
1/8" = 1'-0"
140
0.125
141
12.0
290
     0
  0
SCALE
  5
5F
102
{ACAD_REACTORS
330
47
102
}
330
47
100
AcDbScale
 70
     0
300
3/16" = 1'-0"
140
0.1875
141
12.0
290
     0
  0
SCALE
  5
60
102
{ACAD_REACTORS
330
47
102
}
330
47
100
AcDbScale
 70
     0
300
1/4" = 1'-0"
140
0.25
141
12.0
290
     0
  0
SCALE
  5
61
102
{ACAD_REACTORS
330
47
102
}
330
47
100
AcDbScale
 70
     0
300
3/8" = 1'-0"
140
0.375
141
12.0
290
     0
  0
SCALE
  5
62
102
{ACAD_REACTORS
330
47
102
}
330
47
100
AcDbScale
 70
     0
300
1/2" = 1'-0"
140
0.5
141
12.0
290
     0
  0
SCALE
  5
63
102
{ACAD_REACTORS
330
47
102
}
330
47
100
AcDbScale
 70
     0
300
3/4" = 1'-0"
140
0.75
141
12.0
290
     0
  0
SCALE
  5
64
102
{ACAD_REACTORS
330
47
102
}
330
47
100
AcDbScale
 70
     0
300
1" = 1'-0"
140
1.0
141
12.0
290
     0
  0
SCALE
  5
65
102
{ACAD_REACTORS
330
47
102
}
330
47
100
AcDbScale
 70
     0
300
1-1/2" = 1'-0"
140
1.5
141
12.0
290
     0
  0
SCALE
  5
66
102
{ACAD_REACTORS
330
47
102
}
330
47
100
AcDbScale
 70
     0
300
3" = 1'-0"
140
3.0
141
12.0
290
     0
  0
SCALE
  5
67
102
{ACAD_REACTORS
330
47
102
}
330
47
100
AcDbScale
 70
     0
300
6" = 1'-0"
140
6.0
141
12.0
290
     0
  0
SCALE
  5
68
102
{ACAD_REACTORS
330
47
102
}
330
47
100
AcDbScale
 70
     0
300
1'-0" = 1'-0"
140
12.0
141
12.0
290
     0
  0
ENDSEC
  0
EOF
