  0
SECTION
  2
HEADER
  9
$ACADVER
  1
AC1015
  9
$ACADMAINTVER
 70
     6
  9
$DWGCODEPAGE
  3
ANSI_949
  9
$INSBASE
 10
0.0
 20
0.0
 30
0.0
  9
$EXTMIN
 10
-62.00000000000009
 20
-49.97180738881174
 30
0.0
  9
$EXTMAX
 10
97.79412503295505
 20
43.89478415847273
 30
0.0
  9
$LIMMIN
 10
0.0
 20
0.0
  9
$LIMMAX
 10
420.0
 20
297.0
  9
$ORTHOMODE
 70
     1
  9
$REGENMODE
 70
     1
  9
$FILLMODE
 70
     1
  9
$QTEXTMODE
 70
     0
  9
$MIRRTEXT
 70
     1
  9
$LTSCALE
 40
1.0
  9
$ATTMODE
 70
     1
  9
$TEXTSIZE
 40
3.5
  9
$TRACEWID
 40
1.0
  9
$TEXTSTYLE
  7
Standard
  9
$CLAYER
  8
0
  9
$CELTYPE
  6
ByLayer
  9
$CECOLOR
 62
   256
  9
$CELTSCALE
 40
1.0
  9
$DISPSILH
 70
     0
  9
$DIMSCALE
 40
1.0
  9
$DIMASZ
 40
3.302
  9
$DIMEXO
 40
1.0
  9
$DIMDLI
 40
3.75
  9
$DIMRND
 40
0.0
  9
$DIMDLE
 40
0.0
  9
$DIMEXE
 40
1.0
  9
$DIMTP
 40
0.0
  9
$DIMTM
 40
0.0
  9
$DIMTXT
 40
3.5
  9
$DIMCEN
 40
2.5
  9
$DIMTSZ
 40
0.0
  9
$DIMTOL
 70
     0
  9
$DIMLIM
 70
     0
  9
$DIMTIH
 70
     1
  9
$DIMTOH
 70
     1
  9
$DIMSE1
 70
     0
  9
$DIMSE2
 70
     0
  9
$DIMTAD
 70
     1
  9
$DIMZIN
 70
     0
  9
$DIMBLK
  1

  9
$DIMASO
 70
     1
  9
$DIMSHO
 70
     1
  9
$DIMPOST
  1

  9
$DIMAPOST
  1

  9
$DIMALT
 70
     0
  9
$DIMALTD
 70
     3
  9
$DIMALTF
 40
0.0393700787401575
  9
$DIMLFAC
 40
1.0
  9
$DIMTOFL
 70
     1
  9
$DIMTVP
 40
0.0
  9
$DIMTIX
 70
     0
  9
$DIMSOXD
 70
     0
  9
$DIMSAH
 70
     0
  9
$DIMBLK1
  1

  9
$DIMBLK2
  1

  9
$DIMSTYLE
  2
ISO-25
  9
$DIMCLRD
 70
     0
  9
$DIMCLRE
 70
     0
  9
$DIMCLRT
 70
     0
  9
$DIMTFAC
 40
1.0
  9
$DIMGAP
 40
1.524
  9
$DIMJUST
 70
     0
  9
$DIMSD1
 70
     0
  9
$DIMSD2
 70
     0
  9
$DIMTOLJ
 70
     0
  9
$DIMTZIN
 70
     0
  9
$DIMALTZ
 70
     0
  9
$DIMALTTZ
 70
     0
  9
$DIMUPT
 70
     0
  9
$DIMDEC
 70
     2
  9
$DIMTDEC
 70
     2
  9
$DIMALTU
 70
     2
  9
$DIMALTTD
 70
     3
  9
$DIMTXSTY
  7
Standard
  9
$DIMAUNIT
 70
     0
  9
$DIMADEC
 70
     2
  9
$DIMALTRND
 40
0.0
  9
$DIMAZIN
 70
     0
  9
$DIMDSEP
 70
    44
  9
$DIMATFIT
 70
     3
  9
$DIMFRAC
 70
     0
  9
$DIMLDRBLK
  1

  9
$DIMLUNIT
 70
     2
  9
$DIMLWD
 70
    -2
  9
$DIMLWE
 70
    -2
  9
$DIMTMOVE
 70
     0
  9
$LUNITS
 70
     2
  9
$LUPREC
 70
     2
  9
$SKETCHINC
 40
1.0
  9
$FILLETRAD
 40
10.0
  9
$AUNITS
 70
     0
  9
$AUPREC
 70
     2
  9
$MENU
  1
.
  9
$ELEVATION
 40
0.0
  9
$PELEVATION
 40
0.0
  9
$THICKNESS
 40
0.0
  9
$LIMCHECK
 70
     0
  9
$CHAMFERA
 40
0.0
  9
$CHAMFERB
 40
0.0
  9
$CHAMFERC
 40
0.0
  9
$CHAMFERD
 40
0.0
  9
$SKPOLY
 70
     0
  9
$TDCREATE
 40
2458313.397794352
  9
$TDUCREATE
 40
2458313.022794352
  9
$TDUPDATE
 40
2458330.776231435
  9
$TDUUPDATE
 40
2458330.401231435
  9
$TDINDWG
 40
0.0039239583
  9
$TDUSRTIMER
 40
2458330.401190718
  9
$USRTIMER
 70
     1
  9
$ANGBASE
 50
0.0
  9
$ANGDIR
 70
     0
  9
$PDMODE
 70
     0
  9
$PDSIZE
 40
-1.0
  9
$PLINEWID
 40
0.0
  9
$SPLFRAME
 70
     0
  9
$SPLINETYPE
 70
     6
  9
$SPLINESEGS
 70
     8
  9
$HANDSEED
  5
2D0
  9
$SURFTAB1
 70
     6
  9
$SURFTAB2
 70
     6
  9
$SURFTYPE
 70
     6
  9
$SURFU
 70
     6
  9
$SURFV
 70
     6
  9
$UCSBASE
  2

  9
$UCSNAME
  2

  9
$UCSORG
 10
0.0
 20
0.0
 30
0.0
  9
$UCSXDIR
 10
1.0
 20
0.0
 30
0.0
  9
$UCSYDIR
 10
0.0
 20
1.0
 30
0.0
  9
$UCSORTHOREF
  2

  9
$UCSORTHOVIEW
 70
     0
  9
$UCSORGTOP
 10
0.0
 20
0.0
 30
0.0
  9
$UCSORGBOTTOM
 10
0.0
 20
0.0
 30
0.0
  9
$UCSORGLEFT
 10
0.0
 20
0.0
 30
0.0
  9
$UCSORGRIGHT
 10
0.0
 20
0.0
 30
0.0
  9
$UCSORGFRONT
 10
0.0
 20
0.0
 30
0.0
  9
$UCSORGBACK
 10
0.0
 20
0.0
 30
0.0
  9
$PUCSBASE
  2

  9
$PUCSNAME
  2

  9
$PUCSORG
 10
0.0
 20
0.0
 30
0.0
  9
$PUCSXDIR
 10
1.0
 20
0.0
 30
0.0
  9
$PUCSYDIR
 10
0.0
 20
1.0
 30
0.0
  9
$PUCSORTHOREF
  2

  9
$PUCSORTHOVIEW
 70
     0
  9
$PUCSORGTOP
 10
0.0
 20
0.0
 30
0.0
  9
$PUCSORGBOTTOM
 10
0.0
 20
0.0
 30
0.0
  9
$PUCSORGLEFT
 10
0.0
 20
0.0
 30
0.0
  9
$PUCSORGRIGHT
 10
0.0
 20
0.0
 30
0.0
  9
$PUCSORGFRONT
 10
0.0
 20
0.0
 30
0.0
  9
$PUCSORGBACK
 10
0.0
 20
0.0
 30
0.0
  9
$USERI1
 70
     0
  9
$USERI2
 70
     0
  9
$USERI3
 70
     0
  9
$USERI4
 70
     0
  9
$USERI5
 70
     0
  9
$USERR1
 40
0.0
  9
$USERR2
 40
0.0
  9
$USERR3
 40
0.0
  9
$USERR4
 40
0.0
  9
$USERR5
 40
0.0
  9
$WORLDVIEW
 70
     1
  9
$SHADEDGE
 70
     3
  9
$SHADEDIF
 70
    70
  9
$TILEMODE
 70
     1
  9
$MAXACTVP
 70
    64
  9
$PINSBASE
 10
0.0
 20
0.0
 30
0.0
  9
$PLIMCHECK
 70
     0
  9
$PEXTMIN
 10
1.000000000000000E+20
 20
1.000000000000000E+20
 30
1.000000000000000E+20
  9
$PEXTMAX
 10
-1.000000000000000E+20
 20
-1.000000000000000E+20
 30
-1.000000000000000E+20
  9
$PLIMMIN
 10
0.0
 20
0.0
  9
$PLIMMAX
 10
0.0
 20
0.0
  9
$UNITMODE
 70
     0
  9
$VISRETAIN
 70
     1
  9
$PLINEGEN
 70
     0
  9
$PSLTSCALE
 70
     1
  9
$TREEDEPTH
 70
  3020
  9
$CMLSTYLE
  2
Standard
  9
$CMLJUST
 70
     0
  9
$CMLSCALE
 40
20.0
  9
$PROXYGRAPHICS
 70
     1
  9
$MEASUREMENT
 70
     1
  9
$CELWEIGHT
370
    -1
  9
$ENDCAPS
280
     0
  9
$JOINSTYLE
280
     0
  9
$LWDISPLAY
290
     1
  9
$INSUNITS
 70
     4
  9
$HYPERLINKBASE
  1

  9
$STYLESHEET
  1

  9
$XEDIT
290
     1
  9
$CEPSNTYPE
380
     0
  9
$PSTYLEMODE
290
     1
  9
$FINGERPRINTGUID
  2
{934F38F3-018E-4E56-8B57-6FB96D596655}
  9
$VERSIONGUID
  2
{FAEB1C32-E019-11D5-929B-00C0DF256EC4}
  9
$EXTNAMES
290
     1
  9
$PSVPSCALE
 40
0.0
  9
$OLESTARTUP
290
     0
  0
ENDSEC
  0
SECTION
  2
CLASSES
  0
CLASS
  1
ACDBDICTIONARYWDFLT
  2
AcDbDictionaryWithDefault
  3
ObjectDBX Classes
 90
        0
280
     0
281
     0
  0
CLASS
  1
VISUALSTYLE
  2
AcDbVisualStyle
  3
ObjectDBX Classes
 90
     4095
280
     0
281
     0
  0
CLASS
  1
MATERIAL
  2
AcDbMaterial
  3
ObjectDBX Classes
 90
     1153
280
     0
281
     0
  0
CLASS
  1
SCALE
  2
AcDbScale
  3
ObjectDBX Classes
 90
     1153
280
     0
281
     0
  0
CLASS
  1
SUN
  2
AcDbSun
  3
SCENEOE
 90
     1153
280
     0
281
     0
  0
CLASS
  1
ACDBPLACEHOLDER
  2
AcDbPlaceHolder
  3
ObjectDBX Classes
 90
        0
280
     0
281
     0
  0
CLASS
  1
LAYOUT
  2
AcDbLayout
  3
ObjectDBX Classes
 90
        0
280
     0
281
     0
  0
CLASS
  1
TABLESTYLE
  2
AcDbTableStyle
  3
ObjectDBX Classes
 90
     4095
280
     0
281
     0
  0
CLASS
  1
MLEADERSTYLE
  2
AcDbMLeaderStyle
  3
ACDB_MLEADERSTYLE_CLASS
 90
     4095
280
     0
281
     0
  0
CLASS
  1
DICTIONARYVAR
  2
AcDbDictionaryVar
  3
ObjectDBX Classes
 90
        0
280
     0
281
     0
  0
CLASS
  1
RASTERVARIABLES
  2
AcDbRasterVariables
  3
ISM
 90
        0
280
     0
281
     0
  0
ENDSEC
  0
SECTION
  2
TABLES
  0
TABLE
  2
VPORT
  5
8
330
0
100
AcDbSymbolTable
 70
     1
  0
VPORT
  5
29
330
8
100
AcDbSymbolTableRecord
100
AcDbViewportTableRecord
  2
*Active
 70
     0
 10
0.0
 20
0.0
 11
1.0
 21
1.0
 12
17.89706251647749
 22
-3.038511615169504
 13
0.0
 23
0.0
 14
10.0
 24
10.0
 15
10.0
 25
10.0
 16
0.0
 26
0.0
 36
1.0
 17
0.0
 27
0.0
 37
0.0
 40
95.74392337823016
 41
1.782762691853601
 42
50.0
 43
0.0
 44
0.0
 50
0.0
 51
0.0
 71
    16
 72
  2000
 73
     1
 74
     3
 75
     0
 76
     0
 77
     0
 78
     0
281
     0
 65
     1
110
0.0
120
0.0
130
0.0
111
1.0
121
0.0
131
0.0
112
0.0
122
1.0
132
0.0
 79
     0
146
0.0
  0
ENDTAB
  0
TABLE
  2
LTYPE
  5
5
330
0
100
AcDbSymbolTable
 70
     6
  0
LTYPE
  5
14
330
5
100
AcDbSymbolTableRecord
100
AcDbLinetypeTableRecord
  2
ByBlock
 70
     0
  3

 72
    65
 73
     0
 40
0.0
  0
LTYPE
  5
15
330
5
100
AcDbSymbolTableRecord
100
AcDbLinetypeTableRecord
  2
ByLayer
 70
     0
  3

 72
    65
 73
     0
 40
0.0
  0
LTYPE
  5
16
330
5
100
AcDbSymbolTableRecord
100
AcDbLinetypeTableRecord
  2
Continuous
 70
     0
  3
Solid line
 72
    65
 73
     0
 40
0.0
  0
LTYPE
  5
6A
330
5
100
AcDbSymbolTableRecord
100
AcDbLinetypeTableRecord
  2
HIDDEN
 70
     0
  3
Hidden __ __ __ __ __ __ __ __ __ __ __ __ __ __
 72
    65
 73
     2
 40
1.905
 49
1.27
 74
     0
 49
-0.635
 74
     0
  0
LTYPE
  5
6B
330
5
100
AcDbSymbolTableRecord
100
AcDbLinetypeTableRecord
  2
PHANTOM
 70
     0
  3
Phantom ______  __  __  ______  __  __  ______
 72
    65
 73
     6
 40
12.7
 49
6.35
 74
     0
 49
-1.27
 74
     0
 49
1.27
 74
     0
 49
-1.27
 74
     0
 49
1.27
 74
     0
 49
-1.27
 74
     0
  0
LTYPE
  5
6C
330
5
100
AcDbSymbolTableRecord
100
AcDbLinetypeTableRecord
  2
CENTER
 70
     0
  3
Center ____ _ ____ _ ____ _ ____ _ ____ _ ____
 72
    65
 73
     4
 40
10.16
 49
6.35
 74
     0
 49
-1.27
 74
     0
 49
1.27
 74
     0
 49
-1.27
 74
     0
  0
LTYPE
  5
6D
330
5
100
AcDbSymbolTableRecord
100
AcDbLinetypeTableRecord
  2
CENTERX2
 70
     0
  3
Center (2x) ________  __  ________  __  _____
 72
    65
 73
     4
 40
20.32
 49
12.7
 74
     0
 49
-2.54
 74
     0
 49
2.54
 74
     0
 49
-2.54
 74
     0
  0
LTYPE
  5
6E
330
5
100
AcDbSymbolTableRecord
100
AcDbLinetypeTableRecord
  2
DOT2
 70
     0
  3
Dot (.5x) ........................................
 72
    65
 73
     2
 40
0.635
 49
0.0
 74
     0
 49
-0.635
 74
     0
  0
ENDTAB
  0
TABLE
  2
LAYER
  5
2
102
{ACAD_XDICTIONARY
360
18D
102
}
330
0
100
AcDbSymbolTable
 70
    18
  0
LAYER
  5
10
330
2
100
AcDbSymbolTableRecord
100
AcDbLayerTableRecord
  2
0
 70
     0
 62
     7
  6
Continuous
370
    -3
390
F
  0
LAYER
  5
6F
330
2
100
AcDbSymbolTableRecord
100
AcDbLayerTableRecord
  2
FORMAT
 70
     0
 62
     2
  6
Continuous
370
    -3
390
F
  0
LAYER
  5
70
330
2
100
AcDbSymbolTableRecord
100
AcDbLayerTableRecord
  2
외형선
 70
     0
 62
     4
  6
Continuous
370
    30
390
F
  0
LAYER
  5
71
330
2
100
AcDbSymbolTableRecord
100
AcDbLayerTableRecord
  2
숨은선
 70
     0
 62
     2
  6
HIDDEN
370
    15
390
F
  0
LAYER
  5
72
330
2
100
AcDbSymbolTableRecord
100
AcDbLayerTableRecord
  2
중심선
 70
     0
 62
     1
  6
CENTERX2
370
    -3
390
F
  0
LAYER
  5
73
330
2
100
AcDbSymbolTableRecord
100
AcDbLayerTableRecord
  2
파단선
 70
     0
 62
     4
  6
Continuous
370
    -3
390
F
  0
LAYER
  5
74
330
2
100
AcDbSymbolTableRecord
100
AcDbLayerTableRecord
  2
해칭선
 70
     0
 62
   100
  6
Continuous
370
    -3
390
F
  0
LAYER
  5
75
330
2
100
AcDbSymbolTableRecord
100
AcDbLayerTableRecord
  2
가는실선
 70
     0
 62
     4
  6
Continuous
370
    -3
390
F
  0
LAYER
  5
76
330
2
100
AcDbSymbolTableRecord
100
AcDbLayerTableRecord
  2
치수_보조선
 70
     0
 62
     4
  6
Continuous
370
    -3
390
F
  0
LAYER
  5
77
330
2
100
AcDbSymbolTableRecord
100
AcDbLayerTableRecord
  2
치수문자_일반주서
 70
     0
 62
     7
  6
Continuous
370
    15
390
F
  0
LAYER
  5
78
330
2
100
AcDbSymbolTableRecord
100
AcDbLayerTableRecord
  2
개별주서
 70
     0
 62
   100
  6
Continuous
370
    30
390
F
  0
LAYER
  5
79
330
2
100
AcDbSymbolTableRecord
100
AcDbLayerTableRecord
  2
중간선
 70
     0
 62
     2
  6
Continuous
370
    15
390
F
  0
LAYER
  5
7A
330
2
100
AcDbSymbolTableRecord
100
AcDbLayerTableRecord
  2
윤곽선
 70
     0
 62
     3
  6
Continuous
370
    40
390
F
  0
LAYER
  5
7B
330
2
100
AcDbSymbolTableRecord
100
AcDbLayerTableRecord
  2
중심마크
 70
     0
 62
   100
  6
Continuous
370
    30
390
F
  0
LAYER
  5
7C
330
2
100
AcDbSymbolTableRecord
100
AcDbLayerTableRecord
  2
가상선
 70
     0
 62
     4
  6
PHANTOM
370
    -3
390
F
  0
LAYER
  5
7D
330
2
100
AcDbSymbolTableRecord
100
AcDbLayerTableRecord
  2
특수지정선
 70
     0
 62
     5
  6
CENTERX2
370
    60
390
F
  0
LAYER
  5
7E
330
2
100
AcDbSymbolTableRecord
100
AcDbLayerTableRecord
  2
참조1
 70
     0
 62
    -4
  6
Continuous
370
    -3
390
F
  0
LAYER
  5
15A
330
2
100
AcDbSymbolTableRecord
100
AcDbLayerTableRecord
  2
Defpoints
 70
     0
 62
     7
  6
Continuous
290
     0
370
    -3
390
F
  0
ENDTAB
  0
TABLE
  2
STYLE
  5
3
330
0
100
AcDbSymbolTable
 70
     2
  0
STYLE
  5
11
330
3
100
AcDbSymbolTableRecord
100
AcDbTextStyleTableRecord
  2
Standard
 70
     0
 40
0.0
 41
1.0
 50
0.0
 71
     0
 42
3.5
  3
txt
  4

  0
STYLE
  5
94
330
3
100
AcDbSymbolTableRecord
100
AcDbTextStyleTableRecord
  2
SLDTEXTSTYLE0
 70
     0
 40
0.0
 41
0.75
 50
0.0
 71
     0
 42
3.5
  3
TXT
  4

  0
ENDTAB
  0
TABLE
  2
VIEW
  5
6
330
0
100
AcDbSymbolTable
 70
     0
  0
ENDTAB
  0
TABLE
  2
UCS
  5
7
330
0
100
AcDbSymbolTable
 70
     0
  0
ENDTAB
  0
TABLE
  2
APPID
  5
9
330
0
100
AcDbSymbolTable
 70
     2
  0
APPID
  5
12
330
9
100
AcDbSymbolTableRecord
100
AcDbRegAppTableRecord
  2
ACAD
 70
     0
  0
APPID
  5
1E6
330
9
100
AcDbSymbolTableRecord
100
AcDbRegAppTableRecord
  2
PE_URL
 70
     0
  0
ENDTAB
  0
TABLE
  2
DIMSTYLE
  5
A
330
0
100
AcDbSymbolTable
 70
     3
100
AcDbDimStyleTable
  0
DIMSTYLE
105
27
330
A
100
AcDbSymbolTableRecord
100
AcDbDimStyleTableRecord
  2
ISO-25
 70
     0
 41
2.5
 42
0.625
 43
3.75
 44
1.25
 73
     0
 74
     0
 77
     1
 78
     8
140
2.5
141
2.5
143
0.03937007874016
147
0.625
171
     3
172
     1
178
     0
271
     2
272
     2
274
     3
278
    44
283
     0
284
     8
340
11
  0
DIMSTYLE
105
DA
102
{ACAD_REACTORS
330
D9
330
EE
330
102
330
116
102
}
330
A
100
AcDbSymbolTableRecord
100
AcDbDimStyleTableRecord
  2
SLDDIMSTYLE0
 70
     0
 41
3.302
 44
0.0
 45
0.000000001
 73
     0
 74
     0
 77
     1
 78
     4
 79
     1
140
3.5
143
0.0393700787401575
147
0.875
148
0.000000001
170
     1
172
     1
173
     1
178
     0
271
     2
272
     2
276
     2
284
    12
289
     0
340
94
  0
DIMSTYLE
105
EF
330
A
100
AcDbSymbolTableRecord
100
AcDbDimStyleTableRecord
  2
SLDDIMSTYLE1
 70
     0
 41
3.302
 44
0.0
 45
0.000000001
 73
     0
 74
     0
 77
     1
 78
    12
 79
     3
140
3.5
143
0.0393700787401575
147
0.875
148
0.000000001
170
     1
173
     1
178
     0
271
     2
272
     2
276
     2
284
    12
340
94
  0
ENDTAB
  0
TABLE
  2
BLOCK_RECORD
  5
1
330
0
100
AcDbSymbolTable
 70
    11
  0
BLOCK_RECORD
  5
1F
330
1
100
AcDbSymbolTableRecord
100
AcDbBlockTableRecord
  2
*Model_Space
340
22
  0
BLOCK_RECORD
  5
1B
330
1
100
AcDbSymbolTableRecord
100
AcDbBlockTableRecord
  2
*Paper_Space
340
1E
  0
BLOCK_RECORD
  5
23
330
1
100
AcDbSymbolTableRecord
100
AcDbBlockTableRecord
  2
*Paper_Space0
340
26
  0
BLOCK_RECORD
  5
7F
330
1
100
AcDbSymbolTableRecord
100
AcDbBlockTableRecord
  2
블럭10
340
0
102
{BLKREFS
331
D2
102
}
  0
BLOCK_RECORD
  5
DB
330
1
100
AcDbSymbolTableRecord
100
AcDbBlockTableRecord
  2
_D
340
0
  0
BLOCK_RECORD
  5
F0
330
1
100
AcDbSymbolTableRecord
100
AcDbBlockTableRecord
  2
_D_1
340
0
  0
BLOCK_RECORD
  5
103
330
1
100
AcDbSymbolTableRecord
100
AcDbBlockTableRecord
  2
_D_2
340
0
  0
BLOCK_RECORD
  5
117
330
1
100
AcDbSymbolTableRecord
100
AcDbBlockTableRecord
  2
_D_3
340
0
  0
BLOCK_RECORD
  5
130
330
1
100
AcDbSymbolTableRecord
100
AcDbBlockTableRecord
  2
SW_DOWELSYMBOL_0
340
0
102
{BLKREFS
331
136
102
}
  0
BLOCK_RECORD
  5
191
330
1
100
AcDbSymbolTableRecord
100
AcDbBlockTableRecord
  2
*D7
340
0
  0
BLOCK_RECORD
  5
1A0
330
1
100
AcDbSymbolTableRecord
100
AcDbBlockTableRecord
  2
*D8
340
0
  0
BLOCK_RECORD
  5
21B
330
1
100
AcDbSymbolTableRecord
100
AcDbBlockTableRecord
  2
*D9
340
0
  0
BLOCK_RECORD
  5
230
330
1
100
AcDbSymbolTableRecord
100
AcDbBlockTableRecord
  2
*D10
340
0
  0
ENDTAB
  0
ENDSEC
  0
SECTION
  2
BLOCKS
  0
BLOCK
  5
20
330
1F
100
AcDbEntity
  8
0
100
AcDbBlockBegin
  2
*Model_Space
 70
     0
 10
0.0
 20
0.0
 30
0.0
  3
*Model_Space
  1
*Model_Space
  0
ENDBLK
  5
21
330
1F
100
AcDbEntity
  8
0
100
AcDbBlockEnd
  0
BLOCK
  5
1C
330
1B
100
AcDbEntity
 67
     1
  8
0
100
AcDbBlockBegin
  2
*Paper_Space
 70
     0
 10
0.0
 20
0.0
 30
0.0
  3
*Paper_Space
  1
*Paper_Space
  0
ENDBLK
  5
1D
330
1B
100
AcDbEntity
 67
     1
  8
0
100
AcDbBlockEnd
  0
BLOCK
  5
24
330
23
100
AcDbEntity
  8
0
100
AcDbBlockBegin
  2
*Paper_Space0
 70
     0
 10
0.0
 20
0.0
 30
0.0
  3
*Paper_Space0
  1
*Paper_Space0
  0
ENDBLK
  5
25
330
23
100
AcDbEntity
  8
0
100
AcDbBlockEnd
  0
BLOCK
  5
80
330
7F
100
AcDbEntity
  8
0
100
AcDbBlockBegin
  2
블럭10
 70
     2
 10
0.0
 20
0.0
 30
0.0
  3
블럭10
  1
블럭10
  0
ELLIPSE
  5
82
330
7F
100
AcDbEntity
  8
중심선
100
AcDbEllipse
 10
20.54032771741204
 20
12.0471743016438
 30
0.0
 11
6.600054785286829
 21
-1.261213355974178E-13
 31
0.0
210
0.0
220
0.0
230
1.0
 40
0.636358354079598
 41
0.9219305317359503
 42
6.513795318482858
  0
ELLIPSE
  5
83
330
7F
100
AcDbEntity
  8
중심선
100
AcDbEllipse
 10
20.54032771746488
 20
12.04717430159265
 30
0.0
 11
3.960054785062283
 21
1.540847449632565E-10
 31
0.0
210
0.0
220
0.0
230
1.0
 40
0.3939339440162632
 41
1.131841032648279
 42
5.62031148352944
  0
LINE
  5
84
330
7F
100
AcDbEntity
  8
중심선
100
AcDbLine
 10
2.268634060543552
 20
16.24717430164393
 30
0.0
 11
5.714909304380834
 21
16.24717430164393
 31
0.0
  0
LINE
  5
85
330
7F
100
AcDbEntity
  8
중심선
100
AcDbLine
 10
5.245725140726316
 20
7.84717430164391
 30
0.0
 11
8.692000384563599
 21
7.84717430164391
 31
0.0
  0
LINE
  5
86
330
7F
100
AcDbEntity
  8
중심선
100
AcDbLine
 10
15.74043728645272
 20
16.24717430164393
 30
0.0
 11
8.692000384563599
 21
7.84717430164391
 31
0.0
  0
LINE
  5
87
330
7F
100
AcDbEntity
  8
중심선
100
AcDbLine
 10
0.1404042013395286
 20
13.71084872107135
 30
0.0
 11
3.58671253028996
 21
13.71088815037384
 31
0.0
  0
LINE
  5
88
330
7F
100
AcDbEntity
  8
중심선
100
AcDbLine
 10
2.750260043222114
 20
10.84717430164391
 30
0.0
 11
6.196535287059397
 21
10.84717430164391
 31
0.0
  0
LINE
  5
89
330
7F
100
AcDbEntity
  8
중심선
100
AcDbLine
 10
12.29416204261559
 20
16.24717430164393
 30
0.0
 11
5.245725140726316
 21
7.84717430164391
 31
0.0
  0
LINE
  5
8A
330
7F
100
AcDbEntity
  8
중심선
100
AcDbLine
 10
10.72767329541681
 20
16.24717430164393
 30
0.0
 11
6.196535287059397
 21
10.84717430164391
 31
0.0
  0
LINE
  5
8B
330
7F
100
AcDbEntity
  8
중심선
100
AcDbLine
 10
7.28139805157953
 20
16.24717430164393
 30
0.0
 11
2.750260043222114
 21
10.84717430164391
 31
0.0
  0
LINE
  5
8C
330
7F
100
AcDbEntity
  8
중심선
100
AcDbLine
 10
5.714909304380834
 20
16.24717430164393
 30
0.0
 11
3.58671253028996
 21
13.71088815037384
 31
0.0
  0
LINE
  5
8D
330
7F
100
AcDbEntity
  8
중심선
100
AcDbLine
 10
2.268634060543552
 20
16.24717430164393
 30
0.0
 11
0.1404042013395286
 21
13.71084872107135
 31
0.0
  0
LINE
  5
8E
330
7F
100
AcDbEntity
  8
중심선
100
AcDbLine
 10
7.28139805157953
 20
16.24717430164393
 30
0.0
 11
10.72767329541681
 21
16.24717430164393
 31
0.0
  0
LINE
  5
8F
330
7F
100
AcDbEntity
  8
중심선
100
AcDbLine
 10
12.29416204261559
 20
16.24717430164393
 30
0.0
 11
15.74043728645272
 21
16.24717430164393
 31
0.0
  0
LINE
  5
90
330
7F
100
AcDbEntity
  8
중심선
100
AcDbLine
 10
19.22036997980202
 20
11.08717430171403
 30
0.0
 11
23.66174974927406
 21
11.08717430171406
 31
0.0
  0
LINE
  5
91
330
7F
100
AcDbEntity
  8
중심선
100
AcDbLine
 10
19.22039502424796
 20
13.00717430171391
 30
0.0
 11
19.22036997980202
 21
11.08717430171403
 31
0.0
  0
LINE
  5
92
330
7F
100
AcDbEntity
  8
중심선
100
AcDbLine
 10
19.22039502424796
 20
13.00717430171391
 30
0.0
 11
26.96566020931264
 21
13.00717430171391
 31
0.0
  0
LINE
  5
93
330
7F
100
AcDbEntity
  8
중심선
100
AcDbLine
 10
22.22332737316547
 20
13.45928029700563
 30
0.0
 11
24.52862924686651
 21
15.39360700705356
 31
0.0
  0
ATTDEF
  5
95
330
7F
100
AcDbEntity
  8
FORMAT
 62
     2
100
AcDbText
 10
4.408487351596664
 20
2.075366912832191
 30
0.0
 40
4.233333333333333
  1
E1050027
 41
0.75
  7
SLDTEXTSTYLE0
 11
4.408487351596664
 21
-0.0412997538344756
 31
0.0
100
AcDbAttributeDefinition
  3

  2
AUTOATTR0
 70
     0
 74
     1
  0
ENDBLK
  5
81
330
7F
100
AcDbEntity
  8
0
100
AcDbBlockEnd
  0
BLOCK
  5
DC
330
DB
100
AcDbEntity
  8
0
100
AcDbBlockBegin
  2
_D
 70
     0
 10
0.0
 20
0.0
 30
0.0
  3
_D
  1
_D
  0
LINE
  5
DE
330
DB
100
AcDbEntity
  8
치수문자_일반주서
 62
     0
370
    -2
100
AcDbLine
 10
-22.3471058393653
 20
6.349999999999991
 30
0.0
 11
-57.62499999999999
 21
6.349999999999859
 31
0.0
  0
LINE
  5
DF
330
DB
100
AcDbEntity
  8
치수문자_일반주서
 62
     0
370
    -2
100
AcDbLine
 10
-22.34710583936532
 20
-6.350000000000001
 30
0.0
 11
-57.62499999999995
 21
-6.350000000000133
 31
0.0
  0
LINE
  5
E0
330
DB
100
AcDbEntity
  8
치수문자_일반주서
 62
     0
370
    -2
100
AcDbLine
 10
-57.62499999999999
 20
6.349999999999859
 30
0.0
 11
-57.6250000000001
 21
39.64149999999995
 31
0.0
  0
LINE
  5
E1
330
DB
100
AcDbEntity
  8
치수문자_일반주서
 62
     0
370
    -2
100
AcDbLine
 10
-57.62499999999999
 20
6.349999999999859
 30
0.0
 11
-57.62499999999995
 21
-6.350000000000133
 31
0.0
  0
LINE
  5
E2
330
DB
100
AcDbEntity
  8
치수문자_일반주서
 62
     0
370
    -2
100
AcDbLine
 10
-57.62500000000001
 20
9.651999999999859
 30
0.0
 11
-57.62500000000002
 21
12.95399999999986
 31
0.0
  0
LINE
  5
E3
330
DB
100
AcDbEntity
  8
치수문자_일반주서
 62
     0
370
    -2
100
AcDbLine
 10
-57.62499999999994
 20
-9.652000000000132
 30
0.0
 11
-57.62499999999992
 21
-12.95400000000013
 31
0.0
  0
SOLID
  5
E4
330
DB
100
AcDbEntity
  8
치수문자_일반주서
 62
     0
100
AcDbTrace
 10
-58.17533333333334
 20
9.651999999999857
 30
0.0
 11
-57.07466666666667
 21
9.65199999999986
 31
0.0
 12
-57.62499999999999
 22
6.349999999999859
 32
0.0
 13
-57.62499999999999
 23
6.349999999999859
 33
0.0
  0
SOLID
  5
E5
330
DB
100
AcDbEntity
  8
치수문자_일반주서
 62
     0
100
AcDbTrace
 10
-57.0746666666666
 20
-9.65200000000013
 30
0.0
 11
-58.17533333333327
 21
-9.652000000000134
 31
0.0
 12
-57.62499999999995
 22
-6.350000000000133
 32
0.0
 13
-57.62499999999995
 23
-6.350000000000133
 33
0.0
  0
MTEXT
  5
E6
330
DB
100
AcDbEntity
  8
치수문자_일반주서
 62
     0
100
AcDbMText
 10
-62.00000000000006
 20
26.29774999999994
 30
0.0
 40
3.5
 41
0.0
 71
     2
 72
     1
  1
\A1;%%c12.70 [1/2]
  7
SLDTEXTSTYLE0
 11
-3.356894814614648E-15
 21
1.0
 31
0.0
 73
     1
 44
1.0
  0
POINT
  5
242
330
DB
100
AcDbEntity
  8
Defpoints
 62
     0
100
AcDbPoint
 10
-22.2846058393653
 20
6.349999999999991
 30
0.0
  0
POINT
  5
243
330
DB
100
AcDbEntity
  8
Defpoints
 62
     0
100
AcDbPoint
 10
-22.28460583936532
 20
-6.350000000000001
 30
0.0
  0
POINT
  5
244
330
DB
100
AcDbEntity
  8
Defpoints
 62
     0
100
AcDbPoint
 10
-57.62499999999995
 20
-6.350000000000133
 30
0.0
  0
ENDBLK
  5
DD
330
DB
100
AcDbEntity
  8
0
100
AcDbBlockEnd
  0
BLOCK
  5
F1
330
F0
100
AcDbEntity
  8
0
100
AcDbBlockBegin
  2
_D_1
 70
     0
 10
0.0
 20
0.0
 30
0.0
  3
_D_1
  1
_D_1
  0
LINE
  5
F3
330
F0
100
AcDbEntity
  8
치수문자_일반주서
 62
     0
370
    -2
100
AcDbLine
 10
47.68750000000001
 20
-5.353284158472579
 30
0.0
 11
90.13899644385182
 21
-5.353284158472423
 31
0.0
  0
LINE
  5
F4
330
F0
100
AcDbEntity
  8
치수문자_일반주서
 62
     0
370
    -2
100
AcDbLine
 10
47.68750000000001
 20
5.353284158472575
 30
0.0
 11
90.13899644385178
 21
5.353284158472736
 31
0.0
  0
LINE
  5
F5
330
F0
100
AcDbEntity
  8
치수문자_일반주서
 62
     0
370
    -2
100
AcDbLine
 10
90.13899644385178
 20
5.353284158472736
 30
0.0
 11
90.13899644385164
 21
43.89478415847273
 31
0.0
  0
LINE
  5
F6
330
F0
100
AcDbEntity
  8
치수문자_일반주서
 62
     0
370
    -2
100
AcDbLine
 10
90.13899644385182
 20
-5.353284158472423
 30
0.0
 11
90.13899644385178
 21
5.353284158472736
 31
0.0
  0
LINE
  5
F7
330
F0
100
AcDbEntity
  8
치수문자_일반주서
 62
     0
370
    -2
100
AcDbLine
 10
90.13899644385184
 20
-8.655284158472423
 30
0.0
 11
90.13899644385185
 21
-11.95728415847242
 31
0.0
  0
LINE
  5
F8
330
F0
100
AcDbEntity
  8
치수문자_일반주서
 62
     0
370
    -2
100
AcDbLine
 10
90.13899644385177
 20
8.655284158472735
 30
0.0
 11
90.13899644385175
 21
11.95728415847273
 31
0.0
  0
SOLID
  5
F9
330
F0
100
AcDbEntity
  8
치수문자_일반주서
 62
     0
100
AcDbTrace
 10
90.68932977718516
 20
-8.655284158472421
 30
0.0
 11
89.58866311051851
 21
-8.655284158472424
 31
0.0
 12
90.13899644385182
 22
-5.353284158472423
 32
0.0
 13
90.13899644385182
 23
-5.353284158472423
 33
0.0
  0
SOLID
  5
FA
330
F0
100
AcDbEntity
  8
치수문자_일반주서
 62
     0
100
AcDbTrace
 10
89.58866311051844
 20
8.655284158472734
 30
0.0
 11
90.6893297771851
 21
8.655284158472737
 31
0.0
 12
90.13899644385178
 22
5.353284158472736
 32
0.0
 13
90.13899644385178
 23
5.353284158472736
 33
0.0
  0
MTEXT
  5
FB
330
F0
100
AcDbEntity
  8
치수문자_일반주서
 62
     0
100
AcDbMText
 10
85.7639964438517
 20
27.92603415847272
 30
0.0
 40
3.5
 41
0.0
 71
     2
 72
     1
  1
\A1;%%c10.71 [27/64]
  7
SLDTEXTSTYLE0
 11
-3.981907450039989E-15
 21
1.0
 31
0.0
 73
     1
 44
1.0
  0
POINT
  5
FC
330
F0
100
AcDbEntity
  8
Defpoints
 62
     0
100
AcDbPoint
 10
47.62500000000001
 20
-5.353284158472579
 30
0.0
  0
POINT
  5
FD
330
F0
100
AcDbEntity
  8
Defpoints
 62
     0
100
AcDbPoint
 10
47.62500000000001
 20
5.353284158472575
 30
0.0
  0
POINT
  5
FE
330
F0
100
AcDbEntity
  8
Defpoints
 62
     0
100
AcDbPoint
 10
90.13899644385178
 20
5.353284158472734
 30
0.0
  0
ENDBLK
  5
F2
330
F0
100
AcDbEntity
  8
0
100
AcDbBlockEnd
  0
BLOCK
  5
104
330
103
100
AcDbEntity
  8
0
100
AcDbBlockBegin
  2
_D_2
 70
     0
 10
0.0
 20
0.0
 30
0.0
  3
_D_2
  1
_D_2
  0
LINE
  5
106
330
103
100
AcDbEntity
  8
치수문자_일반주서
 62
     0
370
    -2
100
AcDbLine
 10
47.62500000000001
 20
5.415784158472575
 30
0.0
 11
47.62500000000001
 21
16.35000000000001
 31
0.0
  0
LINE
  5
107
330
103
100
AcDbEntity
  8
치수문자_일반주서
 62
     0
370
    -2
100
AcDbLine
 10
26.98750000000001
 20
4.49399142346573
 30
0.0
 11
26.98750000000001
 21
16.35000000000001
 31
0.0
  0
LINE
  5
108
330
103
100
AcDbEntity
  8
치수문자_일반주서
 62
     0
370
    -2
100
AcDbLine
 10
47.62500000000001
 20
16.35000000000001
 30
0.0
 11
83.54150000000001
 21
16.35000000000001
 31
0.0
  0
LINE
  5
109
330
103
100
AcDbEntity
  8
치수문자_일반주서
 62
     0
370
    -2
100
AcDbLine
 10
47.62500000000001
 20
16.35000000000001
 30
0.0
 11
26.98750000000001
 21
16.35000000000001
 31
0.0
  0
LINE
  5
10A
330
103
100
AcDbEntity
  8
치수문자_일반주서
 62
     0
370
    -2
100
AcDbLine
 10
50.92700000000001
 20
16.35000000000001
 30
0.0
 11
54.22900000000001
 21
16.35000000000001
 31
0.0
  0
LINE
  5
10B
330
103
100
AcDbEntity
  8
치수문자_일반주서
 62
     0
370
    -2
100
AcDbLine
 10
23.68550000000001
 20
16.35000000000001
 30
0.0
 11
20.38350000000001
 21
16.35000000000001
 31
0.0
  0
SOLID
  5
10C
330
103
100
AcDbEntity
  8
치수문자_일반주서
 62
     0
100
AcDbTrace
 10
50.92700000000001
 20
16.90033333333334
 30
0.0
 11
50.92700000000001
 21
15.79966666666668
 31
0.0
 12
47.62500000000001
 22
16.35000000000001
 32
0.0
 13
47.62500000000001
 23
16.35000000000001
 33
0.0
  0
SOLID
  5
10D
330
103
100
AcDbEntity
  8
치수문자_일반주서
 62
     0
100
AcDbTrace
 10
23.68550000000001
 20
15.79966666666668
 30
0.0
 11
23.68550000000001
 21
16.90033333333334
 31
0.0
 12
26.98750000000001
 22
16.35000000000001
 32
0.0
 13
26.98750000000001
 23
16.35000000000001
 33
0.0
  0
MTEXT
  5
10E
330
103
100
AcDbEntity
  8
치수문자_일반주서
 62
     0
100
AcDbMText
 10
68.88525000000001
 20
20.72500000000001
 30
0.0
 40
3.5
 41
0.0
 71
     2
 72
     1
  1
\A1;20.64 [13/16]
  7
SLDTEXTSTYLE0
 73
     1
 44
1.0
  0
POINT
  5
10F
330
103
100
AcDbEntity
  8
Defpoints
 62
     0
100
AcDbPoint
 10
47.62500000000001
 20
5.353284158472575
 30
0.0
  0
POINT
  5
110
330
103
100
AcDbEntity
  8
Defpoints
 62
     0
100
AcDbPoint
 10
26.98750000000001
 20
4.43149142346573
 30
0.0
  0
POINT
  5
111
330
103
100
AcDbEntity
  8
Defpoints
 62
     0
100
AcDbPoint
 10
26.98750000000001
 20
16.35000000000001
 30
0.0
  0
ENDBLK
  5
105
330
103
100
AcDbEntity
  8
0
100
AcDbBlockEnd
  0
BLOCK
  5
118
330
117
100
AcDbEntity
  8
0
100
AcDbBlockBegin
  2
_D_3
 70
     0
 10
0.0
 20
0.0
 30
0.0
  3
_D_3
  1
_D_3
  0
LINE
  5
11A
330
117
100
AcDbEntity
  8
치수문자_일반주서
 62
     0
370
    -2
100
AcDbLine
 10
-47.62500000000004
 20
5.415784158472619
 30
0.0
 11
-47.62500000000004
 21
26.35000000000001
 31
0.0
  0
LINE
  5
11B
330
117
100
AcDbEntity
  8
치수문자_일반주서
 62
     0
370
    -2
100
AcDbLine
 10
47.62500000000001
 20
5.415784158472575
 30
0.0
 11
47.62500000000001
 21
26.35000000000001
 31
0.0
  0
LINE
  5
11C
330
117
100
AcDbEntity
  8
치수문자_일반주서
 62
     0
370
    -2
100
AcDbLine
 10
-44.32300000000004
 20
26.35000000000001
 30
0.0
 11
44.32300000000001
 21
26.35000000000001
 31
0.0
  0
SOLID
  5
11D
330
117
100
AcDbEntity
  8
치수문자_일반주서
 62
     0
100
AcDbTrace
 10
-44.32300000000004
 20
26.90033333333334
 30
0.0
 11
-44.32300000000004
 21
25.79966666666667
 31
0.0
 12
-47.62500000000004
 22
26.35000000000001
 32
0.0
 13
-47.62500000000004
 23
26.35000000000001
 33
0.0
  0
SOLID
  5
11E
330
117
100
AcDbEntity
  8
치수문자_일반주서
 62
     0
100
AcDbTrace
 10
44.32300000000001
 20
25.79966666666667
 30
0.0
 11
44.32300000000001
 21
26.90033333333334
 31
0.0
 12
47.62500000000001
 22
26.35000000000001
 32
0.0
 13
47.62500000000001
 23
26.35000000000001
 33
0.0
  0
MTEXT
  5
11F
330
117
100
AcDbEntity
  8
치수문자_일반주서
 62
     0
100
AcDbMText
 10
0.0000000000000142
 20
30.72500000000001
 30
0.0
 40
3.5
 41
0.0
 71
     2
 72
     1
  1
\A1;95.25 [3 3/4]
  7
SLDTEXTSTYLE0
 73
     1
 44
1.0
  0
POINT
  5
120
330
117
100
AcDbEntity
  8
Defpoints
 62
     0
100
AcDbPoint
 10
-47.62500000000004
 20
5.353284158472619
 30
0.0
  0
POINT
  5
121
330
117
100
AcDbEntity
  8
Defpoints
 62
     0
100
AcDbPoint
 10
47.62500000000001
 20
5.353284158472575
 30
0.0
  0
POINT
  5
122
330
117
100
AcDbEntity
  8
Defpoints
 62
     0
100
AcDbPoint
 10
47.62500000000001
 20
26.35000000000001
 30
0.0
  0
ENDBLK
  5
119
330
117
100
AcDbEntity
  8
0
100
AcDbBlockEnd
  0
BLOCK
  5
131
330
130
100
AcDbEntity
  8
0
100
AcDbBlockBegin
  2
SW_DOWELSYMBOL_0
 70
     0
 10
0.0
 20
0.0
 30
0.0
  3
SW_DOWELSYMBOL_0
  1
SW_DOWELSYMBOL_0
  0
CIRCLE
  5
133
330
130
100
AcDbEntity
  8
해칭선
 62
     0
100
AcDbCircle
 10
0.0
 20
0.0
 30
0.0
 40
3.000000000000001
  0
HATCH
  5
134
330
130
100
AcDbEntity
  8
0
  6
Continuous
 62
     0
370
     0
100
AcDbHatch
 10
0.0
 20
0.0
 30
0.0
210
0.0
220
0.0
230
1.0
  2
SOLID
 70
     1
 71
     0
 91
        1
 92
        0
 93
        3
 72
     2
 10
0.0
 20
0.0
 40
3.000000000000001
 50
0.0
 51
90.0
 73
     1
 72
     1
 10
0.0
 20
3.000000000000001
 11
0.0
 21
0.0
 72
     1
 10
0.0
 20
0.0
 11
3.000000000000001
 21
0.0
 97
        0
 75
     0
 76
     1
 98
        1
 10
0.0
 20
0.0
  0
HATCH
  5
135
330
130
100
AcDbEntity
  8
0
  6
Continuous
 62
     0
370
     0
100
AcDbHatch
 10
0.0
 20
0.0
 30
0.0
210
0.0
220
0.0
230
1.0
  2
SOLID
 70
     1
 71
     0
 91
        1
 92
        0
 93
        3
 72
     2
 10
0.0
 20
0.0
 40
3.000000000000001
 50
180.0
 51
270.0000000000007
 73
     1
 72
     1
 10
0.0
 20
-3.000000000000001
 11
0.0
 21
0.0
 72
     1
 10
0.0
 20
0.0
 11
-3.000000000000001
 21
0.0
 97
        0
 75
     0
 76
     1
 98
        1
 10
0.0
 20
0.0
  0
ENDBLK
  5
132
330
130
100
AcDbEntity
  8
0
100
AcDbBlockEnd
  0
BLOCK
  5
192
330
191
100
AcDbEntity
  8
0
100
AcDbBlockBegin
  2
*D7
 70
     1
 10
0.0
 20
0.0
 30
0.0
  3
*D7
  1
*D7
  0
LINE
  5
194
330
191
100
AcDbEntity
  8
치수문자_일반주서
 62
     0
370
    -2
100
AcDbLine
 10
0.0
 20
0.5121961990748796
 30
0.0
 11
0.0
 21
33.79272327212171
 31
0.0
  0
LINE
  5
195
330
191
100
AcDbEntity
  8
치수문자_일반주서
 62
     0
370
    -2
100
AcDbLine
 10
25.99995813577124
 20
8.175743682859753
 30
0.0
 11
25.99995813577124
 21
33.79272327212171
 31
0.0
  0
LINE
  5
196
330
191
100
AcDbEntity
  8
치수문자_일반주서
 62
     0
370
    -2
100
AcDbLine
 10
3.302
 20
33.79272327212171
 30
0.0
 11
22.69795813577124
 21
33.79272327212171
 31
0.0
  0
SOLID
  5
197
330
191
100
AcDbEntity
  8
치수문자_일반주서
 62
     0
100
AcDbTrace
 10
3.302
 20
34.34305660545504
 30
0.0
 11
3.302
 21
33.24238993878837
 31
0.0
 12
0.0
 22
33.79272327212171
 32
0.0
 13
0.0
 23
33.79272327212171
 33
0.0
  0
SOLID
  5
198
330
191
100
AcDbEntity
  8
치수문자_일반주서
 62
     0
100
AcDbTrace
 10
22.69795813577124
 20
33.24238993878837
 30
0.0
 11
22.69795813577124
 21
34.34305660545504
 31
0.0
 12
25.99995813577124
 22
33.79272327212171
 32
0.0
 13
25.99995813577124
 23
33.79272327212171
 33
0.0
  0
MTEXT
  5
199
330
191
100
AcDbEntity
  8
치수문자_일반주서
 62
     0
100
AcDbMText
 10
13.04655386270326
 20
38.16772327212171
 30
0.0
 40
3.5
 41
0.0
 71
     2
 72
     1
  1
\A1;26.00 [1.02]
  7
SLDTEXTSTYLE0
 73
     1
 44
1.0
  0
POINT
  5
19A
330
191
100
AcDbEntity
  8
Defpoints
 62
     0
100
AcDbPoint
 10
0.0
 20
0.4496961990748796
 30
0.0
  0
POINT
  5
19B
330
191
100
AcDbEntity
  8
Defpoints
 62
     0
100
AcDbPoint
 10
25.99995813577124
 20
8.113243682859753
 30
0.0
  0
POINT
  5
19C
330
191
100
AcDbEntity
  8
Defpoints
 62
     0
100
AcDbPoint
 10
25.99995813577124
 20
33.79272327212171
 30
0.0
  0
ENDBLK
  5
193
330
191
100
AcDbEntity
  8
0
100
AcDbBlockEnd
  0
BLOCK
  5
1A1
330
1A0
100
AcDbEntity
  8
0
100
AcDbBlockBegin
  2
*D8
 70
     1
 10
0.0
 20
0.0
 30
0.0
  3
*D8
  1
*D8
  0
LINE
  5
1A3
330
1A0
100
AcDbEntity
  8
치수문자_일반주서
 62
     0
370
    -2
100
AcDbLine
 10
75.37320557156923
 20
-24.86459069845984
 30
0.0
 11
75.37320557156923
 21
8.415936374586991
 31
0.0
  0
LINE
  5
1A4
330
1A0
100
AcDbEntity
  8
치수문자_일반주서
 62
     0
370
    -2
100
AcDbLine
 10
101.3731637073405
 20
-17.20104321467496
 30
0.0
 11
101.3731637073405
 21
8.415936374586991
 31
0.0
  0
LINE
  5
1A5
330
1A0
100
AcDbEntity
  8
치수문자_일반주서
 62
     0
370
    -2
100
AcDbLine
 10
78.67520557156922
 20
8.415936374586991
 30
0.0
 11
98.07116370734047
 21
8.415936374586991
 31
0.0
  0
SOLID
  5
1A6
330
1A0
100
AcDbEntity
  8
치수문자_일반주서
 62
     0
100
AcDbTrace
 10
78.67520557156922
 20
8.966269707920324
 30
0.0
 11
78.67520557156922
 21
7.865603041253658
 31
0.0
 12
75.37320557156923
 22
8.415936374586991
 32
0.0
 13
75.37320557156923
 23
8.415936374586991
 33
0.0
  0
SOLID
  5
1A7
330
1A0
100
AcDbEntity
  8
치수문자_일반주서
 62
     0
100
AcDbTrace
 10
98.07116370734047
 20
7.865603041253658
 30
0.0
 11
98.07116370734047
 21
8.966269707920324
 31
0.0
 12
101.3731637073405
 22
8.415936374586991
 32
0.0
 13
101.3731637073405
 23
8.415936374586991
 33
0.0
  0
MTEXT
  5
1A8
330
1A0
100
AcDbEntity
  8
치수문자_일반주서
 62
     0
100
AcDbMText
 10
88.41975943427249
 20
12.79093637458699
 30
0.0
 40
3.5
 41
0.0
 71
     2
 72
     1
  1
\A1;26.00 [1.02]
  7
SLDTEXTSTYLE0
 73
     1
 44
1.0
  0
POINT
  5
1A9
330
1A0
100
AcDbEntity
  8
Defpoints
 62
     0
100
AcDbPoint
 10
75.37320557156923
 20
-24.92709069845984
 30
0.0
  0
POINT
  5
1AA
330
1A0
100
AcDbEntity
  8
Defpoints
 62
     0
100
AcDbPoint
 10
101.3731637073405
 20
-17.26354321467496
 30
0.0
  0
POINT
  5
1AB
330
1A0
100
AcDbEntity
  8
Defpoints
 62
     0
100
AcDbPoint
 10
101.3731637073405
 20
8.415936374586991
 30
0.0
  0
ENDBLK
  5
1A2
330
1A0
100
AcDbEntity
  8
0
100
AcDbBlockEnd
  0
BLOCK
  5
21C
330
21B
100
AcDbEntity
  8
0
100
AcDbBlockBegin
  2
*D9
 70
     1
 10
0.0
 20
0.0
 30
0.0
  3
*D9
  1
*D9
  0
LINE
  5
21E
330
21B
100
AcDbEntity
  8
치수문자_일반주서
 62
     0
370
    -2
100
AcDbLine
 10
54.73699999999996
 20
3.631580296889929
 30
0.0
 11
54.73699999999996
 21
14.96233570571162
 31
0.0
  0
LINE
  5
21F
330
21B
100
AcDbEntity
  8
치수문자_일반주서
 62
     0
370
    -2
100
AcDbLine
 10
34.09949999999996
 20
3.20671347064068
 30
0.0
 11
34.09949999999996
 21
14.96233570571162
 31
0.0
  0
LINE
  5
220
330
21B
100
AcDbEntity
  8
치수문자_일반주서
 62
     0
370
    -2
100
AcDbLine
 10
54.73699999999996
 20
14.96233570571162
 30
0.0
 11
90.65349999999997
 21
14.96233570571162
 31
0.0
  0
LINE
  5
221
330
21B
100
AcDbEntity
  8
치수문자_일반주서
 62
     0
370
    -2
100
AcDbLine
 10
54.73699999999996
 20
14.96233570571162
 30
0.0
 11
34.09949999999996
 21
14.96233570571162
 31
0.0
  0
LINE
  5
222
330
21B
100
AcDbEntity
  8
치수문자_일반주서
 62
     0
370
    -2
100
AcDbLine
 10
58.03899999999996
 20
14.96233570571162
 30
0.0
 11
61.34099999999996
 21
14.96233570571162
 31
0.0
  0
LINE
  5
223
330
21B
100
AcDbEntity
  8
치수문자_일반주서
 62
     0
370
    -2
100
AcDbLine
 10
30.79749999999996
 20
14.96233570571162
 30
0.0
 11
27.49549999999996
 21
14.96233570571162
 31
0.0
  0
SOLID
  5
224
330
21B
100
AcDbEntity
  8
치수문자_일반주서
 62
     0
100
AcDbTrace
 10
58.03899999999996
 20
15.51266903904495
 30
0.0
 11
58.03899999999996
 21
14.41200237237829
 31
0.0
 12
54.73699999999996
 22
14.96233570571162
 32
0.0
 13
54.73699999999996
 23
14.96233570571162
 33
0.0
  0
SOLID
  5
225
330
21B
100
AcDbEntity
  8
치수문자_일반주서
 62
     0
100
AcDbTrace
 10
30.79749999999996
 20
14.41200237237829
 30
0.0
 11
30.79749999999996
 21
15.51266903904495
 31
0.0
 12
34.09949999999996
 22
14.96233570571162
 32
0.0
 13
34.09949999999996
 23
14.96233570571162
 33
0.0
  0
MTEXT
  5
226
330
21B
100
AcDbEntity
  8
치수문자_일반주서
 62
     0
100
AcDbMText
 10
75.99724999999997
 20
19.33733570571162
 30
0.0
 40
3.5
 41
0.0
 71
     2
 72
     1
  1
\A1;20.64 [13/16]
  7
SLDTEXTSTYLE0
 73
     1
 44
1.0
  0
POINT
  5
227
330
21B
100
AcDbEntity
  8
Defpoints
 62
     0
100
AcDbPoint
 10
54.73699999999996
 20
3.569080296889929
 30
0.0
  0
POINT
  5
228
330
21B
100
AcDbEntity
  8
Defpoints
 62
     0
100
AcDbPoint
 10
34.09949999999996
 20
3.14421347064068
 30
0.0
  0
POINT
  5
229
330
21B
100
AcDbEntity
  8
Defpoints
 62
     0
100
AcDbPoint
 10
34.09949999999996
 20
14.96233570571162
 30
0.0
  0
ENDBLK
  5
21D
330
21B
100
AcDbEntity
  8
0
100
AcDbBlockEnd
  0
BLOCK
  5
231
330
230
100
AcDbEntity
  8
0
100
AcDbBlockBegin
  2
*D10
 70
     1
 10
0.0
 20
0.0
 30
0.0
  3
*D10
  1
*D10
  0
LINE
  5
233
330
230
100
AcDbEntity
  8
치수문자_일반주서
 62
     0
370
    -2
100
AcDbLine
 10
180.8313229042713
 20
-25.53743967224869
 30
0.0
 11
180.8313229042713
 21
-14.20668426342699
 31
0.0
  0
LINE
  5
234
330
230
100
AcDbEntity
  8
치수문자_일반주서
 62
     0
370
    -2
100
AcDbLine
 10
160.1938229042713
 20
-25.96230649849794
 30
0.0
 11
160.1938229042713
 21
-14.20668426342699
 31
0.0
  0
LINE
  5
235
330
230
100
AcDbEntity
  8
치수문자_일반주서
 62
     0
370
    -2
100
AcDbLine
 10
180.8313229042713
 20
-14.20668426342699
 30
0.0
 11
216.7478229042713
 21
-14.20668426342699
 31
0.0
  0
LINE
  5
236
330
230
100
AcDbEntity
  8
치수문자_일반주서
 62
     0
370
    -2
100
AcDbLine
 10
180.8313229042713
 20
-14.20668426342699
 30
0.0
 11
160.1938229042713
 21
-14.20668426342699
 31
0.0
  0
LINE
  5
237
330
230
100
AcDbEntity
  8
치수문자_일반주서
 62
     0
370
    -2
100
AcDbLine
 10
184.1333229042713
 20
-14.20668426342699
 30
0.0
 11
187.4353229042713
 21
-14.20668426342699
 31
0.0
  0
LINE
  5
238
330
230
100
AcDbEntity
  8
치수문자_일반주서
 62
     0
370
    -2
100
AcDbLine
 10
156.8918229042713
 20
-14.20668426342699
 30
0.0
 11
153.5898229042713
 21
-14.20668426342699
 31
0.0
  0
SOLID
  5
239
330
230
100
AcDbEntity
  8
치수문자_일반주서
 62
     0
100
AcDbTrace
 10
184.1333229042713
 20
-13.65635093009366
 30
0.0
 11
184.1333229042713
 21
-14.75701759676033
 31
0.0
 12
180.8313229042713
 22
-14.20668426342699
 32
0.0
 13
180.8313229042713
 23
-14.20668426342699
 33
0.0
  0
SOLID
  5
23A
330
230
100
AcDbEntity
  8
치수문자_일반주서
 62
     0
100
AcDbTrace
 10
156.8918229042713
 20
-14.75701759676033
 30
0.0
 11
156.8918229042713
 21
-13.65635093009366
 31
0.0
 12
160.1938229042713
 22
-14.20668426342699
 32
0.0
 13
160.1938229042713
 23
-14.20668426342699
 33
0.0
  0
MTEXT
  5
23B
330
230
100
AcDbEntity
  8
치수문자_일반주서
 62
     0
100
AcDbMText
 10
202.0915729042713
 20
-9.831684263426995
 30
0.0
 40
3.5
 41
0.0
 71
     2
 72
     1
  1
\A1;20.64 [13/16]
  7
SLDTEXTSTYLE0
 73
     1
 44
1.0
  0
POINT
  5
23C
330
230
100
AcDbEntity
  8
Defpoints
 62
     0
100
AcDbPoint
 10
180.8313229042713
 20
-25.59993967224869
 30
0.0
  0
POINT
  5
23D
330
230
100
AcDbEntity
  8
Defpoints
 62
     0
100
AcDbPoint
 10
160.1938229042713
 20
-26.02480649849794
 30
0.0
  0
POINT
  5
23E
330
230
100
AcDbEntity
  8
Defpoints
 62
     0
100
AcDbPoint
 10
160.1938229042713
 20
-14.20668426342699
 30
0.0
  0
ENDBLK
  5
232
330
230
100
AcDbEntity
  8
0
100
AcDbBlockEnd
  0
ENDSEC
  0
SECTION
  2
ENTITIES
  0
LINE
  5
96
330
1F
100
AcDbEntity
  8
외형선
  6
Continuous
370
    15
100
AcDbLine
 10
22.28460583936528
 20
6.349999999999994
 30
0.0
 11
7.112000000000052
 21
6.349999999999993
 31
0.0
  0
LINE
  5
97
330
1F
100
AcDbEntity
  8
외형선
  6
Continuous
370
    15
100
AcDbLine
 10
-22.28460583936532
 20
-6.350000000000001
 30
0.0
 11
22.28460583936528
 21
-6.349999999999998
 31
0.0
  0
LINE
  5
98
330
1F
100
AcDbEntity
  8
외형선
  6
Continuous
370
    15
100
AcDbLine
 10
22.28460583936528
 20
-6.35
 30
0.0
 11
24.95740353945055
 21
-5.633826014730385
 31
0.0
  0
LINE
  5
99
330
1F
100
AcDbEntity
  8
외형선
  6
Continuous
370
    15
100
AcDbLine
 10
24.95740353945055
 20
5.633826014730383
 30
0.0
 11
22.28460583936528
 21
6.349999999999996
 31
0.0
  0
SPLINE
  5
9C
330
1F
100
AcDbEntity
  8
외형선
  6
Continuous
370
    15
100
AcDbSpline
210
0.0
220
0.0
230
1.0
 70
     8
 71
     3
 72
     9
 73
     5
 74
     0
 42
0.000000001
 43
0.00000001
 40
0.0
 40
0.0
 40
0.0
 40
0.0
 40
0.561088885936145
 40
1.0
 40
1.0
 40
1.0
 40
1.0
 10
24.95736667670739
 20
-4.357690170101727
 30
0.0
 10
25.33966792728275
 20
-4.330684381084999
 30
0.0
 10
26.02102387668375
 20
-4.282553345711394
 30
0.0
 10
26.69269574985921
 20
-4.249127714635637
 30
0.0
 10
26.98750000000001
 20
-4.23445683366189
 30
0.0
  0
SPLINE
  5
9D
330
1F
100
AcDbEntity
  8
0
  6
Continuous
 62
     1
370
    15
100
AcDbSpline
210
0.0
220
0.0
230
1.0
 70
     8
 71
     3
 72
     9
 73
     5
 74
     0
 42
0.000000001
 43
0.00000001
 40
0.0
 40
0.0
 40
0.0
 40
0.0
 40
0.4616366451055335
 40
0.9999999999999999
 40
0.9999999999999999
 40
0.9999999999999999
 40
0.9999999999999999
 10
33.74329586470164
 20
1.373007807262161
 30
0.0
 10
33.51483839334931
 20
1.481884372389812
 30
0.0
 10
33.01995248302453
 20
1.71773342441375
 30
0.0
 10
32.52511122673367
 20
1.976759722549999
 30
0.0
 10
32.25870682785674
 20
2.116209989420524
 30
0.0
1001
PE_URL
1000

  0
LINE
  5
9E
330
1F
100
AcDbEntity
  8
0
  6
Continuous
 62
     1
370
    15
100
AcDbLine
 10
30.7900412107361
 20
1.504092143799657
 30
0.0
 11
30.72426394410616
 21
1.540261812548031
 31
0.0
1001
PE_URL
1000

  0
SPLINE
  5
9F
330
1F
100
AcDbEntity
  8
0
  6
Continuous
 62
     1
370
    15
100
AcDbSpline
210
0.0
220
0.0
230
1.0
 70
     8
 71
     3
 72
    17
 73
    13
 74
     0
 42
0.000000001
 43
0.00000001
 40
0.0
 40
0.0
 40
0.0
 40
0.0
 40
0.1541389994668298
 40
0.2839075788868901
 40
0.3993211276413143
 40
0.4992453347516259
 40
0.5571900132668351
 40
0.6162177131459824
 40
0.7018627367648692
 40
0.8164851341225153
 40
0.9607465688018318
 40
1.0
 40
1.0
 40
1.0
 40
1.0
 10
31.97286643857392
 20
4.257519932985211
 30
0.0
 10
31.76906533292941
 20
4.24619560862438
 30
0.0
 10
31.39368545711506
 20
4.225337412302002
 30
0.0
 10
30.79719765449472
 20
4.202000720407099
 30
0.0
 10
30.27845344292059
 20
4.193945379943331
 30
0.0
 10
29.86689781703017
 20
4.187589403085168
 30
0.0
 10
29.54168975973136
 20
4.184810862580259
 30
0.0
 10
29.24344519476479
 20
4.183834190868969
 30
0.0
 10
28.86016011022051
 20
4.184905366087106
 30
0.0
 10
28.35129810317898
 20
4.191401516096676
 30
0.0
 10
27.91049676825958
 20
4.199963304403583
 30
0.0
 10
27.63912603146694
 20
4.210338790352978
 30
0.0
 10
27.58108042031194
 20
4.212558084260938
 30
0.0
1001
PE_URL
1000

  0
SPLINE
  5
A0
330
1F
100
AcDbEntity
  8
0
  6
Continuous
 62
     1
370
    15
100
AcDbSpline
210
0.0
220
0.0
230
1.0
 70
     8
 71
     3
 72
    26
 73
    22
 74
     0
 42
0.000000001
 43
0.00000001
 40
0.0
 40
0.0
 40
0.0
 40
0.0
 40
0.0656190450925585
 40
0.1161438939027648
 40
0.1523414177434773
 40
0.189560654155351
 40
0.2327337151769228
 40
0.2785421726970865
 40
0.3174900921818762
 40
0.3605043770728388
 40
0.4017163909617861
 40
0.4487049342810586
 40
0.5099610716706384
 40
0.584495216456123
 40
0.6437785864211499
 40
0.6962851448856647
 40
0.7567883516969915
 40
0.8108314249079074
 40
0.8653454411829553
 40
0.9256725789381727
 40
1.0
 40
1.0
 40
1.0
 40
1.0
 10
45.63379517420556
 20
3.664492491523232
 30
0.0
 10
45.43138799561854
 20
3.647917784205766
 30
0.0
 10
45.07313289084202
 20
3.618581010934626
 30
0.0
 10
44.60038769816113
 20
3.588707118018548
 30
0.0
 10
44.20842861342516
 20
3.568018178093668
 30
0.0
 10
43.84077900291022
 20
3.552038462241226
 30
0.0
 10
43.44564401177999
 20
3.538828724353033
 30
0.0
 10
43.04672306832638
 20
3.530085487378009
 30
0.0
 10
42.6479741193638
 20
3.525708094387219
 30
0.0
 10
42.26341143854924
 20
3.525530594897902
 30
0.0
 10
41.854361022629
 20
3.529754382985095
 30
0.0
 10
41.38845824171899
 20
3.539856375007372
 30
0.0
 10
40.81735554105475
 20
3.560228464845101
 30
0.0
 10
40.20771670327601
 20
3.592335619608963
 30
0.0
 10
39.62547775627375
 20
3.632736926578907
 30
0.0
 10
39.09114403069175
 20
3.677392513782396
 30
0.0
 10
38.56966188262916
 20
3.727821951871043
 30
0.0
 10
38.03820617980679
 20
3.786391258685074
 30
0.0
 10
37.4999284736258
 20
3.852065663546589
 30
0.0
 10
36.90116146874965
 20
3.933074405337812
 30
0.0
 10
36.49753031682093
 20
3.995384477426972
 30
0.0
 10
36.27473160249118
 20
4.029778760140093
 30
0.0
1001
PE_URL
1000

  0
SPLINE
  5
A1
330
1F
100
AcDbEntity
  8
0
  6
Continuous
 62
     1
370
    15
100
AcDbSpline
210
0.0
220
0.0
230
1.0
 70
     8
 71
     3
 72
    14
 73
    10
 74
     0
 42
0.000000001
 43
0.00000001
 40
0.0
 40
0.0
 40
0.0
 40
0.0
 40
0.2190272887256434
 40
0.3909716703034511
 40
0.555536054544282
 40
0.7021464624913766
 40
0.827386122620261
 40
0.9680826626585637
 40
1.0
 40
1.0
 40
1.0
 40
1.0
 10
36.27473160249118
 20
-4.029778760140094
 30
0.0
 10
36.55658485481053
 20
-3.986471172274873
 30
0.0
 10
37.05970315336094
 20
-3.909165554043491
 30
0.0
 10
37.82224827835908
 20
-3.811355040430858
 30
0.0
 10
38.47370664580979
 20
-3.7374559574968
 30
0.0
 10
39.05666570400548
 20
-3.68030763734927
 30
0.0
 10
39.60397263639656
 20
-3.634848089372499
 30
0.0
 10
40.00207468052335
 20
-3.605084643159683
 30
0.0
 10
40.23283706249981
 20
-3.593225971869989
 30
0.0
 10
40.275506405794
 20
-3.591033232689803
 30
0.0
1001
PE_URL
1000

  0
SPLINE
  5
A2
330
1F
100
AcDbEntity
  8
0
  6
Continuous
 62
     1
370
    15
100
AcDbSpline
210
0.0
220
0.0
230
1.0
 70
     8
 71
     3
 72
    17
 73
    13
 74
     0
 42
0.000000001
 43
0.00000001
 40
0.0
 40
0.0
 40
0.0
 40
0.0
 40
0.1526348277408489
 40
0.2798714158452867
 40
0.3809667833810244
 40
0.4565045084675305
 40
0.5085661225293254
 40
0.5596725267424326
 40
0.6478042939747476
 40
0.7495974460890443
 40
0.864051536506706
 40
1.0
 40
1.0
 40
1.0
 40
1.0
 10
26.9875
 20
-4.23445683366189
 30
0.0
 10
27.24341173540089
 20
-4.224187108885412
 30
0.0
 10
27.71265182154737
 20
-4.205356528368008
 30
0.0
 10
28.3513004915923
 20
-4.191101834913166
 30
0.0
 10
28.86015968823003
 20
-4.184958314462695
 30
0.0
 10
29.24344525979603
 20
-4.183826031209955
 30
0.0
 10
29.54168974565255
 20
-4.184812629089121
 30
0.0
 10
29.86689782386085
 20
-4.187588546021288
 30
0.0
 10
30.27845344032755
 20
-4.193945705300915
 30
0.0
 10
30.79719765532522
 20
-4.202000616202514
 30
0.0
 10
31.39368545684935
 20
-4.225337445641202
 30
0.0
 10
31.7690653328359
 20
-4.246195620355713
 30
0.0
 10
31.97286643857392
 20
-4.257519932985213
 30
0.0
1001
PE_URL
1000

  0
LINE
  5
A3
330
1F
100
AcDbEntity
  8
외형선
  6
Continuous
370
    15
100
AcDbLine
 10
22.28460583936528
 20
6.349999999999996
 30
0.0
 11
22.28460583936528
 21
-6.349999999999998
 31
0.0
  0
SPLINE
  5
A5
330
1F
100
AcDbEntity
  8
외형선
  6
Continuous
370
    15
100
AcDbSpline
210
0.0
220
0.0
230
1.0
 70
     8
 71
     3
 72
     8
 73
     4
 74
     0
 42
0.000000001
 43
0.00000001
 40
0.0
 40
0.0
 40
0.0
 40
0.0
 40
1.0
 40
1.0
 40
1.0
 40
1.0
 10
25.98750000000001
 20
4.729937811485578
 30
0.0
 10
25.64279719435637
 20
4.886137150848868
 30
0.0
 10
25.29940306967196
 20
5.038859593989249
 30
0.0
 10
24.95730263338578
 20
5.187577233892402
 30
0.0
  0
LINE
  5
A6
330
1F
100
AcDbEntity
  8
외형선
  6
Continuous
370
    15
100
AcDbLine
 10
25.98750000000001
 20
4.729937811485543
 30
0.0
 11
25.98750000000001
 21
3.850902544103842
 31
0.0
  0
SPLINE
  5
A7
330
1F
100
AcDbEntity
  8
외형선
  6
Continuous
370
    15
100
AcDbSpline
210
0.0
220
0.0
230
1.0
 70
     8
 71
     3
 72
     8
 73
     4
 74
     0
 42
0.000000001
 43
0.00000001
 40
0.0
 40
0.0
 40
0.0
 40
0.0
 40
1.0
 40
1.0
 40
1.0
 40
1.0
 10
24.95740353945055
 20
4.3937396047887
 30
0.0
 10
25.30106012892822
 20
4.216208609626584
 30
0.0
 10
25.64440981418276
 20
4.035265710250528
 30
0.0
 10
25.98749999999924
 20
3.850902544103772
 30
0.0
  0
LINE
  5
A8
330
1F
100
AcDbEntity
  8
외형선
  6
Continuous
370
    15
100
AcDbLine
 10
24.95740353945055
 20
-5.633826014730385
 30
0.0
 11
24.95740353945055
 21
4.393802253700438
 31
0.0
  0
SPLINE
  5
A9
330
1F
100
AcDbEntity
  8
외형선
  6
Continuous
370
    15
100
AcDbSpline
210
0.0
220
0.0
230
1.0
 70
     8
 71
     3
 72
     8
 73
     4
 74
     0
 42
0.000000001
 43
0.00000001
 40
0.0
 40
0.0
 40
0.0
 40
0.0
 40
1.0
 40
1.0
 40
1.0
 40
1.0
 10
25.98750000000001
 20
-4.729937811485582
 30
0.0
 10
25.64279719435637
 20
-4.886137150848873
 30
0.0
 10
25.29940306967196
 20
-5.038859593989254
 30
0.0
 10
24.95730263338578
 20
-5.187577233892406
 30
0.0
  0
LINE
  5
AA
330
1F
100
AcDbEntity
  8
외형선
  6
Continuous
370
    15
100
AcDbLine
 10
24.95740353945055
 20
5.18759689637588
 30
0.0
 11
24.95740353945055
 21
5.633826014730383
 31
0.0
  0
SPLINE
  5
AC
330
1F
100
AcDbEntity
  8
외형선
  6
Continuous
370
    15
100
AcDbSpline
210
0.0
220
0.0
230
1.0
 70
    24
 71
     3
 72
    10
 73
     6
 74
     0
 42
0.000000001
 43
0.00000001
 40
0.0
 40
0.0
 40
0.0
 40
0.0
 40
0.5
 40
0.5
 40
1.0
 40
1.0
 40
1.0
 40
1.0
 10
26.98750000000001
 20
3.427463444722273
 30
0.0
 10
26.98750000000001
 20
3.318965932322377
 30
0.0
 10
26.98750000000001
 20
3.15651137327912
 30
0.0
 10
26.98750000000001
 20
2.756893377221902
 30
0.0
 10
26.98750000000001
 20
2.52108523897722
 30
0.0
 10
26.98750000000001
 20
2.278703618654089
 30
0.0
  0
SPLINE
  5
AD
330
1F
100
AcDbEntity
  8
외형선
  6
Continuous
370
    15
100
AcDbSpline
210
0.0
220
0.0
230
1.0
 70
     8
 71
     3
 72
    10
 73
     6
 74
     0
 42
0.000000001
 43
0.00000001
 40
0.0
 40
0.0
 40
0.0
 40
0.0
 40
0.5
 40
0.5
 40
1.0
 40
1.0
 40
1.0
 40
1.0
 10
26.98750000000001
 20
2.278703618654088
 30
0.0
 10
26.65025453988323
 20
2.387190043839997
 30
0.0
 10
26.313300990854
 20
2.491115599984557
 30
0.0
 10
25.63478028266725
 20
2.689077503912754
 30
0.0
 10
25.29488006120552
 20
2.782930804439398
 30
0.0
 10
24.95737921639739
 20
2.870844666822996
 30
0.0
  0
SPLINE
  5
AE
330
1F
100
AcDbEntity
  8
외형선
  6
Continuous
370
    15
100
AcDbSpline
210
0.0
220
0.0
230
1.0
 70
     8
 71
     3
 72
     8
 73
     4
 74
     0
 42
0.000000001
 43
0.00000001
 40
0.0
 40
0.0
 40
0.0
 40
0.0
 40
1.0
 40
1.0
 40
1.0
 40
1.0
 10
25.9874999999991
 20
3.850902544102744
 30
0.0
 10
26.322256483903
 20
3.716767270985441
 30
0.0
 10
26.65471446296576
 20
3.575456471500699
 30
0.0
 10
26.98749999999968
 20
3.427463444721631
 30
0.0
  0
SPLINE
  5
AF
330
1F
100
AcDbEntity
  8
외형선
  6
Continuous
370
    15
100
AcDbSpline
210
0.0
220
0.0
230
1.0
 70
     8
 71
     3
 72
     8
 73
     4
 74
     0
 42
0.000000001
 43
0.00000001
 40
0.0
 40
0.0
 40
0.0
 40
0.0
 40
1.0
 40
1.0
 40
1.0
 40
1.0
 10
26.98750000000001
 20
4.43149142346573
 30
0.0
 10
26.65471446296628
 20
4.539710121350475
 30
0.0
 10
26.32225648390371
 20
4.639315845521404
 30
0.0
 10
25.9875
 20
4.729937811485549
 30
0.0
  0
LINE
  5
B0
330
1F
100
AcDbEntity
  8
외형선
  6
Continuous
370
    15
100
AcDbLine
 10
26.98750000000001
 20
4.43149142346573
 30
0.0
 11
26.98750000000001
 21
3.427463444723266
 31
0.0
  0
SPLINE
  5
B1
330
1F
100
AcDbEntity
  8
외형선
  6
Continuous
370
    15
100
AcDbSpline
210
0.0
220
0.0
230
1.0
 70
     8
 71
     3
 72
    10
 73
     6
 74
     0
 42
0.000000001
 43
0.00000001
 40
0.0
 40
0.0
 40
0.0
 40
0.0
 40
0.5
 40
0.5
 40
1.0
 40
1.0
 40
1.0
 40
1.0
 10
26.9875
 20
-3.404395845097674
 30
0.0
 10
26.65025245151616
 20
-3.309551864684019
 30
0.0
 10
26.31329679712582
 20
-3.207966249141775
 30
0.0
 10
25.6347718713304
 20
-2.991928384218211
 30
0.0
 10
25.29486955217751
 20
-2.877632123408789
 30
0.0
 10
24.95736667670739
 20
-2.758111862656437
 30
0.0
  0
SPLINE
  5
B2
330
1F
100
AcDbEntity
  8
외형선
  6
Continuous
370
    15
100
AcDbSpline
210
0.0
220
0.0
230
1.0
 70
    24
 71
     3
 72
    14
 73
    10
 74
     0
 42
0.000000001
 43
0.00000001
 40
0.0
 40
0.0
 40
0.0
 40
0.0
 40
0.25
 40
0.25
 40
0.5
 40
0.5
 40
0.75
 40
0.75
 40
1.0
 40
1.0
 40
1.0
 40
1.0
 10
26.98749999999998
 20
2.278703618654097
 30
0.0
 10
26.98749999999998
 20
1.848982315227998
 30
0.0
 10
26.98749999999998
 20
1.38076252671051
 30
0.0
 10
26.98749999999998
 20
0.4030355687127928
 30
0.0
 10
26.98749999999998
 20
-0.106076575419277
 30
0.0
 10
26.98749999999998
 20
-1.116127200194233
 30
0.0
 10
26.98749999999998
 20
-1.61652748363582
 30
0.0
 10
26.98749999999998
 20
-2.561059437544311
 30
0.0
 10
26.98749999999998
 20
-3.00484270683742
 30
0.0
 10
26.98749999999998
 20
-3.404395845097664
 30
0.0
  0
SPLINE
  5
B3
330
1F
100
AcDbEntity
  8
외형선
  6
Continuous
370
    15
100
AcDbSpline
210
0.0
220
0.0
230
1.0
 70
    24
 71
     3
 72
    11
 73
     7
 74
     0
 42
0.000000001
 43
0.00000001
 40
0.0
 40
0.0
 40
0.0
 40
0.0
 40
0.2100192278949782
 40
0.4227813619948322
 40
0.731474914702877
 40
1.0
 40
1.0
 40
1.0
 40
1.0
 10
26.98750000000001
 20
-3.404395845097675
 30
0.0
 10
26.98750000000001
 20
-3.5119200217282
 30
0.0
 10
26.98750000000001
 20
-3.728372668939904
 30
0.0
 10
26.98750000000001
 20
-3.999917214649956
 30
0.0
 10
26.98750000000001
 20
-4.201759857295725
 30
0.0
 10
26.98750000000001
 20
-4.216386428543103
 30
0.0
 10
26.98750000000001
 20
-4.223190784870507
 30
0.0
  0
SPLINE
  5
B4
330
1F
100
AcDbEntity
  8
외형선
  6
Continuous
370
    15
100
AcDbSpline
210
0.0
220
0.0
230
1.0
 70
     8
 71
     3
 72
     8
 73
     4
 74
     0
 42
0.000000001
 43
0.00000001
 40
0.0
 40
0.0
 40
0.0
 40
0.0
 40
1.0
 40
1.0
 40
1.0
 40
1.0
 10
26.98750000000001
 20
-4.431491423465734
 30
0.0
 10
26.65471446296628
 20
-4.539710121350478
 30
0.0
 10
26.32225648390371
 20
-4.639315845521408
 30
0.0
 10
25.9875
 20
-4.729937811485553
 30
0.0
  0
SPLINE
  5
B5
330
1F
100
AcDbEntity
  8
외형선
  6
Continuous
370
    15
100
AcDbSpline
210
0.0
220
0.0
230
1.0
 70
    24
 71
     3
 72
     9
 73
     5
 74
     0
 42
0.000000001
 43
0.00000001
 40
0.0
 40
0.0
 40
0.0
 40
0.0
 40
0.4667556698487359
 40
0.9999999999999999
 40
0.9999999999999999
 40
0.9999999999999999
 40
0.9999999999999999
 10
26.98750000000001
 20
-4.298351600869024
 30
0.0
 10
26.98750000000001
 20
-4.320128269066854
 30
0.0
 10
26.98750000000001
 20
-4.366783659894534
 30
0.0
 10
26.98750000000001
 20
-4.408986824966023
 30
0.0
 10
26.98750000000001
 20
-4.431491423454833
 30
0.0
  0
SPLINE
  5
B6
330
1F
100
AcDbEntity
  8
0
  6
Continuous
 62
     1
370
    15
100
AcDbSpline
210
0.0
220
0.0
230
1.0
 70
     8
 71
     3
 72
    38
 73
    34
 74
     0
 42
0.000000001
 43
0.00000001
 40
0.0
 40
0.0
 40
0.0
 40
0.0
 40
0.0625
 40
0.0625
 40
0.125
 40
0.125
 40
0.1875
 40
0.1875
 40
0.25
 40
0.25
 40
0.3125
 40
0.3125
 40
0.375
 40
0.375
 40
0.4375
 40
0.4375
 40
0.5
 40
0.5
 40
0.5625
 40
0.5625
 40
0.625
 40
0.625
 40
0.6875
 40
0.6875
 40
0.75
 40
0.75
 40
0.8125
 40
0.8125
 40
0.875
 40
0.875
 40
0.9375
 40
0.9375
 40
1.0
 40
1.0
 40
1.0
 40
1.0
 10
47.62500000000001
 20
-5.08424725093154
 30
0.0
 10
47.19777374515286
 20
-5.006109459530467
 30
0.0
 10
46.76552514819498
 20
-4.911287429844043
 30
0.0
 10
45.90341919503548
 20
-4.690725460752872
 30
0.0
 10
45.4768418640342
 20
-4.565382396141911
 30
0.0
 10
44.6164960077876
 20
-4.285484917454598
 30
0.0
 10
44.18368828879906
 20
-4.130931218085627
 30
0.0
 10
43.32529234998934
 20
-3.797135283240703
 30
0.0
 10
42.89727011303915
 20
-3.617649263484582
 30
0.0
 10
42.03471572589466
 20
-3.235616298262155
 30
0.0
 10
41.60562250072208
 20
-3.0338624894093
 30
0.0
 10
40.74833948783478
 20
-2.612350081670125
 30
0.0
 10
40.31563735713507
 20
-2.391816771121055
 30
0.0
 10
39.45459088354625
 20
-1.937488783352537
 30
0.0
 10
39.02828641554454
 20
-1.704110661269554
 30
0.0
 10
38.16659753262348
 20
-1.226255722359475
 30
0.0
 10
37.73409947371529
 20
-0.9822815127027457
 30
0.0
 10
36.87825575231341
 20
-0.4913236410302002
 30
0.0
 10
36.44761996949971
 20
-0.2429552673442197
 30
0.0
 10
35.58522925417209
 20
0.2539712044468828
 30
0.0
 10
35.15812528092211
 20
0.5016288958966988
 30
0.0
 10
34.2986114503029
 20
0.9931495001232944
 30
0.0
 10
33.86576519304779
 20
1.237077144079141
 30
0.0
 10
33.0063867424017
 20
1.714228029779171
 30
0.0
 10
32.57918245139894
 20
1.947604695998854
 30
0.0
 10
31.71676060192959
 20
2.401762363115509
 30
0.0
 10
31.2863438920114
 20
2.621664870856087
 30
0.0
 10
30.4303036529251
 20
3.04245899537058
 30
0.0
 10
29.99777410576842
 20
3.244456970444823
 30
0.0
 10
29.13615878101813
 20
3.625698468694708
 30
0.0
 10
28.70987325750527
 20
3.804610524580797
 30
0.0
 10
27.84873353947783
 20
4.138017685362193
 30
0.0
 10
27.41605290806945
 20
4.292130085532133
 30
0.0
 10
26.98749999999654
 20
4.431491423466859
 30
0.0
1001
PE_URL
1000

  0
SPLINE
  5
B7
330
1F
100
AcDbEntity
  8
0
  6
Continuous
 62
     1
370
    15
100
AcDbSpline
210
0.0
220
0.0
230
1.0
 70
     8
 71
     3
 72
    15
 73
    11
 74
     0
 42
0.000000001
 43
0.00000001
 40
0.0
 40
0.0
 40
0.0
 40
0.0
 40
0.1359357539795727
 40
0.2718369290118675
 40
0.4077113476534068
 40
0.5435668883393092
 40
0.6794114690186415
 40
0.8152530306148728
 40
0.9510995203844347
 40
1.0
 40
1.0
 40
1.0
 40
1.0
 10
47.62500000000001
 20
-4.227165460185333
 30
0.0
 10
46.99506518804984
 20
-4.095271314649988
 30
0.0
 10
45.73535580516049
 20
-3.831516574433809
 30
0.0
 10
43.84609050320768
 20
-3.230873684813597
 30
0.0
 10
41.9572459276072
 20
-2.509330658051245
 30
0.0
 10
40.06870411594579
 20
-1.681158676998777
 30
0.0
 10
38.18033736483473
 20
-0.7834431805208354
 30
0.0
 10
36.29201666221297
 20
0.1428621760343021
 30
0.0
 10
34.80655391855397
 20
0.8785384470546087
 30
0.0
 10
33.95050187066958
 20
1.271654372222847
 30
0.0
 10
33.72391436097047
 20
1.375707810009801
 30
0.0
1001
PE_URL
1000

  0
LINE
  5
B8
330
1F
100
AcDbEntity
  8
0
  6
Continuous
 62
     1
370
    15
100
AcDbLine
 10
47.62500000000001
 20
-5.084247250931542
 30
0.0
 11
47.62500000000001
 21
-4.227165460185333
 31
0.0
1001
PE_URL
1000

  0
SPLINE
  5
B9
330
1F
100
AcDbEntity
  8
0
  6
Continuous
 62
     1
370
    15
100
AcDbSpline
210
0.0
220
0.0
230
1.0
 70
     8
 71
     3
 72
    38
 73
    34
 74
     0
 42
0.000000001
 43
0.00000001
 40
0.0
 40
0.0
 40
0.0
 40
0.0
 40
0.0624999999999999
 40
0.0624999999999999
 40
0.1249999999999999
 40
0.1249999999999999
 40
0.1874999999999999
 40
0.1874999999999999
 40
0.25
 40
0.25
 40
0.3125
 40
0.3125
 40
0.375
 40
0.375
 40
0.4375
 40
0.4375
 40
0.5
 40
0.5
 40
0.5625
 40
0.5625
 40
0.625
 40
0.625
 40
0.6875
 40
0.6875
 40
0.75
 40
0.75
 40
0.8125
 40
0.8125
 40
0.875
 40
0.875
 40
0.9375
 40
0.9375
 40
1.0
 40
1.0
 40
1.0
 40
1.0
 10
26.98749999999998
 20
3.4274634447223
 30
0.0
 10
27.41605290807284
 20
3.236881718827644
 30
0.0
 10
27.84873353948116
 20
3.034626457913728
 30
0.0
 10
28.70987325750843
 20
2.612510002629672
 30
0.0
 10
29.13615878102122
 20
2.393078253146863
 30
0.0
 10
29.99777410577137
 20
1.938700935783699
 30
0.0
 10
30.43030365292798
 20
1.704198582316417
 30
0.0
 10
31.2863438920141
 20
1.227405374667798
 30
0.0
 10
31.71676060193226
 20
0.9838475201877224
 30
0.0
 10
32.57918245140146
 20
0.4916483009333288
 30
0.0
 10
33.00638674240413
 20
0.2439372538488365
 30
0.0
 10
33.86576519305009
 20
-0.2524103268009476
 30
0.0
 10
34.29861145030514
 20
-0.5011738881744741
 30
0.0
 10
35.15812528092418
 20
-0.9927003904528594
 30
0.0
 10
35.5852292541741
 20
-1.235560309108538
 30
0.0
 10
36.44761996950159
 20
-1.713300264858479
 30
0.0
 10
36.87825575231518
 20
-1.947292794977556
 30
0.0
 10
37.73409947371695
 20
-2.400329677005357
 30
0.0
 10
38.16659753262509
 20
-2.620641669568948
 30
0.0
 10
39.02828641554598
 20
-3.042389953387878
 30
0.0
 10
39.45459088354761
 20
-3.243420948453225
 30
0.0
 10
40.3156373571363
 20
-3.624658905286058
 30
0.0
 10
40.74833948783593
 20
-3.804476027674192
 30
0.0
 10
41.60562250072307
 20
-4.137422433585241
 30
0.0
 10
42.03471572589559
 20
-4.291186709748957
 30
0.0
 10
42.89727011303995
 20
-4.570581226490456
 30
0.0
 10
43.32529234999004
 20
-4.695640041444101
 30
0.0
 10
44.18368828879963
 20
-4.915070526391762
 30
0.0
 10
44.61649600778811
 20
-5.009563448938343
 30
0.0
 10
45.47684186403455
 20
-5.165305642640494
 30
0.0
 10
45.90341919503578
 20
-5.226616935020743
 30
0.0
 10
46.76552514819514
 20
-5.31563494414291
 30
0.0
 10
47.19777374515294
 20
-5.343102368445072
 30
0.0
 10
47.62500000000001
 20
-5.353284158472605
 30
0.0
1001
PE_URL
1000

  0
SPLINE
  5
BA
330
1F
100
AcDbEntity
  8
0
  6
Continuous
 62
     1
370
    15
100
AcDbSpline
210
0.0
220
0.0
230
1.0
 70
     8
 71
     3
 72
    11
 73
     7
 74
     0
 42
0.000000001
 43
0.00000001
 40
0.0
 40
0.0
 40
0.0
 40
0.0
 40
0.2462382201469934
 40
0.5038173868992327
 40
0.7518758090119532
 40
1.0
 40
1.0
 40
1.0
 40
1.0
 10
34.32085652322938
 20
-0.5123171108872342
 30
0.0
 10
33.71895893891868
 20
-0.2694536357421744
 30
0.0
 10
32.4874422883867
 20
0.2274588311681529
 30
0.0
 10
30.64954207828456
 20
0.964555723621289
 30
0.0
 10
28.80699803065797
 20
1.669544840867227
 30
0.0
 10
27.59405293540416
 20
2.075632750443139
 30
0.0
 10
26.98750000000001
 20
2.278703618654088
 30
0.0
1001
PE_URL
1000

  0
SPLINE
  5
BB
330
1F
100
AcDbEntity
  8
외형선
  6
Continuous
370
    15
100
AcDbSpline
210
0.0
220
0.0
230
1.0
 70
    24
 71
     3
 72
    10
 73
     6
 74
     0
 42
0.000000001
 43
0.00000001
 40
0.0
 40
0.0
 40
0.0
 40
0.0
 40
0.5
 40
0.5
 40
1.0
 40
1.0
 40
1.0
 40
1.0
 10
26.98750000000001
 20
3.427463444722273
 30
0.0
 10
26.98750000000001
 20
3.318965932322377
 30
0.0
 10
26.98750000000001
 20
3.15651137327912
 30
0.0
 10
26.98750000000001
 20
2.756893377221902
 30
0.0
 10
26.98750000000001
 20
2.52108523897722
 30
0.0
 10
26.98750000000001
 20
2.278703618654089
 30
0.0
  0
LINE
  5
BC
330
1F
100
AcDbEntity
  8
0
  6
Continuous
 62
     1
370
    15
100
AcDbLine
 10
47.62500000000001
 20
-5.353284158472579
 30
0.0
 11
47.62500000000001
 21
-5.08424725093154
 31
0.0
1001
PE_URL
1000

  0
SPLINE
  5
BD
330
1F
100
AcDbEntity
  8
0
  6
Continuous
 62
     1
370
    15
100
AcDbSpline
210
0.0
220
0.0
230
1.0
 70
     8
 71
     3
 72
     8
 73
     4
 74
     0
 42
0.000000001
 43
0.00000001
 40
0.0
 40
0.0
 40
0.0
 40
0.0
 40
1.0
 40
1.0
 40
1.0
 40
1.0
 10
44.30984074223784
 20
1.498677437831464
 30
0.0
 10
44.11934783835947
 20
1.724351749968561
 30
0.0
 10
43.94943850911617
 20
1.941419550644014
 30
0.0
 10
43.80493142987542
 20
2.147866030209102
 30
0.0
1001
PE_URL
1000

  0
LINE
  5
BE
330
1F
100
AcDbEntity
  8
0
  6
Continuous
 62
     1
370
    15
100
AcDbLine
 10
43.87263713566688
 20
2.204677862967321
 30
0.0
 11
47.62500000000001
 21
0.0000000000000012
 31
0.0
1001
PE_URL
1000

  0
LINE
  5
BF
330
1F
100
AcDbEntity
  8
0
  6
Continuous
 62
     1
370
    15
100
AcDbLine
 10
47.62500000000001
 20
0.0000000000000012
 30
0.0
 11
47.62500000000001
 21
-1.431837596774456
 31
0.0
1001
PE_URL
1000

  0
SPLINE
  5
C0
330
1F
100
AcDbEntity
  8
0
  6
Continuous
 62
     1
370
    15
100
AcDbSpline
210
0.0
220
0.0
230
1.0
 70
     8
 71
     3
 72
    12
 73
     8
 74
     0
 42
0.000000001
 43
0.00000001
 40
0.0
 40
0.0
 40
0.0
 40
0.0
 40
0.4999999999999991
 40
0.4999999999999991
 40
0.7499999999999996
 40
0.7499999999999996
 40
1.0
 40
1.0
 40
1.0
 40
1.0
 10
47.62500000000001
 20
-1.431837596774455
 30
0.0
 10
47.05113582974213
 20
-0.98068351825082
 30
0.0
 10
46.48685683120023
 20
-0.5110308787847461
 30
0.0
 10
45.65518566066542
 20
0.2219091597225676
 30
0.0
 10
45.38046260990936
 20
0.4710485902578307
 30
0.0
 10
44.8366273064226
 20
0.9801558112454922
 30
0.0
 10
44.5689990771444
 20
1.238802475257057
 30
0.0
 10
44.30984074223784
 20
1.498677437831466
 30
0.0
1001
PE_URL
1000

  0
SPLINE
  5
C1
330
1F
100
AcDbEntity
  8
0
  6
Continuous
 62
     1
370
    15
100
AcDbSpline
210
0.0
220
0.0
230
1.0
 70
     8
 71
     3
 72
    15
 73
    11
 74
     0
 42
0.000000001
 43
0.00000001
 40
0.0
 40
0.0
 40
0.0
 40
0.0
 40
0.095201697020713
 40
0.1906987995236074
 40
0.3437542459433757
 40
0.4967971722204034
 40
0.6498366506240549
 40
0.802881760684912
 40
0.9559415700744089
 40
1.0
 40
1.0
 40
1.0
 40
1.0
 10
44.3098407422319
 20
1.498677437834027
 30
0.0
 10
43.91846273779069
 20
1.665992865560238
 30
0.0
 10
43.13449230509298
 20
2.001142891323176
 30
0.0
 10
41.7203521588808
 20
2.557085157039624
 30
0.0
 10
40.06875605489668
 20
3.138888578363436
 30
0.0
 10
38.18035611508657
 20
3.671828908117547
 30
0.0
 10
36.29205244666156
 20
4.057177962238839
 30
0.0
 10
34.40365404082553
 20
4.261779058550005
 30
0.0
 10
32.96347379859008
 20
4.321078202510538
 30
0.0
 10
32.15272573283892
 20
4.254327626171231
 30
0.0
 10
31.9715132434908
 20
4.239408024614538
 30
0.0
1001
PE_URL
1000

  0
SPLINE
  5
C2
330
1F
100
AcDbEntity
  8
0
  6
Continuous
 62
     1
370
    15
100
AcDbSpline
210
0.0
220
0.0
230
1.0
 70
    24
 71
     3
 72
    10
 73
     6
 74
     0
 42
0.000000001
 43
0.00000001
 40
0.0
 40
0.0
 40
0.0
 40
0.0
 40
0.5
 40
0.5
 40
1.0
 40
1.0
 40
1.0
 40
1.0
 10
47.62500000000001
 20
-4.227165460185333
 30
0.0
 10
47.62500000000001
 20
-3.903120270146949
 30
0.0
 10
47.62500000000001
 20
-3.493676747367626
 30
0.0
 10
47.62500000000001
 20
-2.541759961449503
 30
0.0
 10
47.62500000000001
 20
-2.000111284723346
 30
0.0
 10
47.62500000000001
 20
-1.431837596774628
 30
0.0
1001
PE_URL
1000

  0
SPLINE
  5
C3
330
1F
100
AcDbEntity
  8
0
  6
Continuous
 62
     1
370
    15
100
AcDbSpline
210
0.0
220
0.0
230
1.0
 70
    24
 71
     3
 72
     8
 73
     4
 74
     0
 42
0.000000001
 43
0.00000001
 40
0.0
 40
0.0
 40
0.0
 40
0.0
 40
1.0
 40
1.0
 40
1.0
 40
1.0
 10
44.36380891720994
 20
2.616819923704414
 30
0.0
 10
44.18696282267841
 20
2.468428431007868
 30
0.0
 10
44.00006835586963
 20
2.311605352839881
 30
0.0
 10
43.80493142987548
 20
2.147866030209124
 30
0.0
1001
PE_URL
1000

  0
SPLINE
  5
C4
330
1F
100
AcDbEntity
  8
0
  6
Continuous
 62
     1
370
    15
100
AcDbSpline
210
0.0
220
0.0
230
1.0
 70
     8
 71
     3
 72
     9
 73
     5
 74
     0
 42
0.000000001
 43
0.00000001
 40
0.0
 40
0.0
 40
0.0
 40
0.0
 40
0.9484736369457623
 40
1.0
 40
1.0
 40
1.0
 40
1.0
 10
47.62500000000001
 20
3.750468749999998
 30
0.0
 10
46.99506442288619
 20
3.748637862764256
 30
0.0
 10
46.3309072417311
 20
3.746707511551082
 30
0.0
 10
45.66677724559646
 20
3.664792124555264
 30
0.0
 10
45.63255704230043
 20
3.660571322585189
 30
0.0
1001
PE_URL
1000

  0
SPLINE
  5
C5
330
1F
100
AcDbEntity
  8
0
  6
Continuous
 62
     1
370
    15
100
AcDbSpline
210
0.0
220
0.0
230
1.0
 70
     8
 71
     3
 72
    10
 73
     6
 74
     0
 42
0.000000001
 43
0.00000001
 40
0.0
 40
0.0
 40
0.0
 40
0.0
 40
0.5
 40
0.5
 40
1.0
 40
1.0
 40
1.0
 40
1.0
 10
47.62500000000001
 20
3.75046875
 30
0.0
 10
47.07386344998447
 20
3.60096611758488
 30
0.0
 10
46.52608896463873
 20
3.43318183452011
 30
0.0
 10
45.43789426814112
 20
3.057623474975539
 30
0.0
 10
44.89741770015073
 20
2.850400054341384
 30
0.0
 10
44.36380891722026
 20
2.616819923709227
 30
0.0
1001
PE_URL
1000

  0
SPLINE
  5
C6
330
1F
100
AcDbEntity
  8
0
  6
Continuous
 62
     1
370
    15
100
AcDbSpline
210
0.0
220
0.0
230
1.0
 70
     8
 71
     3
 72
    12
 73
     8
 74
     0
 42
0.000000001
 43
0.00000001
 40
0.0
 40
0.0
 40
0.0
 40
0.0
 40
0.2014970393622087
 40
0.4048460431708608
 40
0.6082265817559521
 40
0.8040879994552965
 40
1.0
 40
1.0
 40
1.0
 40
1.0
 10
36.27505322658862
 20
-4.028973326616446
 30
0.0
 10
35.65127463865657
 20
-4.1116124565528
 30
0.0
 10
34.39798429782408
 20
-4.277650254784046
 30
0.0
 10
32.51505857263214
 20
-4.307202419822246
 30
0.0
 10
30.64953972998963
 20
-4.170305198718931
 30
0.0
 10
28.8070002165283
 20
-3.876732206001788
 30
0.0
 10
27.59405227442306
 20
-3.561854850266548
 30
0.0
 10
26.9875
 20
-3.404395845097672
 30
0.0
1001
PE_URL
1000

  0
SPLINE
  5
C7
330
1F
100
AcDbEntity
  8
외형선
  6
Continuous
370
    15
100
AcDbSpline
210
0.0
220
0.0
230
1.0
 70
    24
 71
     3
 72
    14
 73
    10
 74
     0
 42
0.000000001
 43
0.00000001
 40
0.0
 40
0.0
 40
0.0
 40
0.0
 40
0.25
 40
0.25
 40
0.5
 40
0.5
 40
0.75
 40
0.75
 40
1.0
 40
1.0
 40
1.0
 40
1.0
 10
26.98749999999998
 20
2.278703618654097
 30
0.0
 10
26.98749999999998
 20
1.848982315227998
 30
0.0
 10
26.98749999999998
 20
1.38076252671051
 30
0.0
 10
26.98749999999998
 20
0.4030355687127928
 30
0.0
 10
26.98749999999998
 20
-0.106076575419277
 30
0.0
 10
26.98749999999998
 20
-1.116127200194233
 30
0.0
 10
26.98749999999998
 20
-1.61652748363582
 30
0.0
 10
26.98749999999998
 20
-2.561059437544311
 30
0.0
 10
26.98749999999998
 20
-3.00484270683742
 30
0.0
 10
26.98749999999998
 20
-3.404395845097664
 30
0.0
  0
LINE
  5
C8
330
1F
100
AcDbEntity
  8
0
  6
Continuous
 62
     1
370
    15
100
AcDbLine
 10
47.62500000000001
 20
0.0000000000000012
 30
0.0
 11
47.62500000000001
 21
3.75046875
 31
0.0
1001
PE_URL
1000

  0
SPLINE
  5
C9
330
1F
100
AcDbEntity
  8
외형선
  6
Continuous
370
    15
100
AcDbSpline
210
0.0
220
0.0
230
1.0
 70
    24
 71
     3
 72
    11
 73
     7
 74
     0
 42
0.000000001
 43
0.00000001
 40
0.0
 40
0.0
 40
0.0
 40
0.0
 40
0.2103497383480975
 40
0.4234466994542823
 40
0.7326260479011417
 40
0.9999999999999999
 40
0.9999999999999999
 40
0.9999999999999999
 40
0.9999999999999999
 10
26.98750000000001
 20
-3.404395845097675
 30
0.0
 10
26.98750000000001
 20
-3.511921392726233
 30
0.0
 10
26.98750000000001
 20
-3.728376799839596
 30
0.0
 10
26.98750000000001
 20
-3.999897283248909
 30
0.0
 10
26.9875
 20
-4.201464889561146
 30
0.0
 10
26.9875
 20
-4.216111024302338
 30
0.0
 10
26.9875
 20
-4.222903102198726
 30
0.0
  0
SPLINE
  5
CA
330
1F
100
AcDbEntity
  8
0
  6
Continuous
 62
     1
370
    15
100
AcDbSpline
210
0.0
220
0.0
230
1.0
 70
    24
 71
     3
 72
    10
 73
     6
 74
     0
 42
0.000000001
 43
0.00000001
 40
0.0
 40
0.0
 40
0.0
 40
0.0
 40
0.5
 40
0.5
 40
1.0
 40
1.0
 40
1.0
 40
1.0
 10
47.62500000000001
 20
3.750468749999998
 30
0.0
 10
47.62500000000001
 20
3.977812825925434
 30
0.0
 10
47.62500000000001
 20
4.242007696477098
 30
0.0
 10
47.62500000000001
 20
4.796287823335583
 30
0.0
 10
47.62500000000001
 20
5.084957517755075
 30
0.0
 10
47.62500000000001
 20
5.353284158472577
 30
0.0
1001
PE_URL
1000

  0
SPLINE
  5
CB
330
1F
100
AcDbEntity
  8
0
  6
Continuous
 62
     1
370
    15
100
AcDbSpline
210
0.0
220
0.0
230
1.0
 70
     8
 71
     3
 72
    17
 73
    13
 74
     0
 42
0.000000001
 43
0.00000001
 40
0.0
 40
0.0
 40
0.0
 40
0.0
 40
0.0031130330160482
 40
0.1083798001289772
 40
0.2175914359316949
 40
0.3270091560731675
 40
0.4370508472066684
 40
0.5473032476906429
 40
0.6599095563605337
 40
0.7727418760287732
 40
0.8862553305249804
 40
1.0
 40
1.0
 40
1.0
 40
1.0
 10
40.25039966770949
 20
3.592257567874801
 30
0.0
 10
40.25805247939513
 20
3.595766857795848
 30
0.0
 10
40.52448402594116
 20
3.717942285514416
 30
0.0
 10
41.05986697667597
 20
3.925814033783698
 30
0.0
 10
41.85505670055565
 20
4.230217707237027
 30
0.0
 10
42.66382720388911
 20
4.499117897590945
 30
0.0
 10
43.47397008479068
 20
4.737532539667315
 30
0.0
 10
44.29205329219691
 20
4.940922367560992
 30
0.0
 10
45.1180411043273
 20
5.106974855977679
 30
0.0
 10
45.95022362612804
 20
5.233613622731053
 30
0.0
 10
46.78702918055387
 20
5.320680252362063
 30
0.0
 10
47.34548699975636
 20
5.342408820805526
 30
0.0
 10
47.62499999999994
 20
5.353284158472571
 30
0.0
1001
PE_URL
1000

  0
LINE
  5
CC
330
1F
100
AcDbEntity
  8
0
  6
Continuous
 62
     1
370
    15
100
AcDbLine
 10
27.58108042031194
 20
-4.212558084260942
 30
0.0
 11
26.98749999999654
 21
-4.431491423466862
 31
0.0
1001
PE_URL
1000

  0
SPLINE
  5
CD
330
1F
100
AcDbEntity
  8
외형선
  6
Continuous
370
    15
100
AcDbSpline
210
0.0
220
0.0
230
1.0
 70
    24
 71
     3
 72
     9
 73
     5
 74
     0
 42
0.000000001
 43
0.00000001
 40
0.0
 40
0.0
 40
0.0
 40
0.0
 40
0.4727530970956431
 40
1.0
 40
1.0
 40
1.0
 40
1.0
 10
26.98750000000001
 20
-4.298351600869022
 30
0.0
 10
26.98750000000001
 20
-4.320016820610887
 30
0.0
 10
26.98750000000001
 20
-4.365844589640778
 30
0.0
 10
26.98750000000001
 20
-4.408828362395017
 30
0.0
 10
26.98750000000001
 20
-4.431491423454835
 30
0.0
  0
LINE
  5
CE
330
1F
100
AcDbEntity
  8
중심선
 62
     1
100
AcDbLine
 10
-50.625
 20
-0.0000000000000062
 30
0.0
 11
50.625
 21
0.0000000000000062
 31
0.0
  0
LINE
  5
CF
330
1F
100
AcDbEntity
  8
참조1
100
AcDbLine
 10
0.0
 20
-0.0000000000000058
 30
0.0
 11
0.0000000000000071
 21
-40.00000000000001
 31
0.0
  0
LINE
  5
D0
330
1F
100
AcDbEntity
  8
참조1
100
AcDbLine
 10
0.0000000000000071
 20
-40.00000000000001
 30
0.0
 11
-12.87821559669922
 21
-40.0
 31
0.0
  0
CIRCLE
  5
D1
330
1F
100
AcDbEntity
  8
해칭선
100
AcDbCircle
 10
0.0
 20
0.0
 30
0.0
 40
3.000000000000001
  0
INSERT
  5
D2
330
1F
100
AcDbEntity
  8
0
  6
Continuous
 62
     7
100
AcDbBlockReference
 66
     1
  2
블럭10
 10
-13.94027293212521
 20
-52.04717430164393
 30
0.0
  0
ATTRIB
  5
D3
330
D2
100
AcDbEntity
  8
FORMAT
 62
     2
100
AcDbText
 10
-23.12156822086649
 20
-49.97180738881174
 30
0.0
 40
4.233333333333333
  1
E2050027 [ 2 FLUTE ]
 41
0.75
  7
SLDTEXTSTYLE0
 11
-23.12156822086649
 21
-52.08847405547841
 31
0.0
100
AcDbAttribute
  2
AUTOATTR0
 70
     0
 74
     1
  0
SEQEND
  5
D4
330
D2
100
AcDbEntity
  8
0
  6
Continuous
 62
     7
  0
HATCH
  5
D5
330
1F
100
AcDbEntity
  8
중심선
100
AcDbHatch
 10
0.0
 20
0.0
 30
0.0
210
0.0
220
0.0
230
1.0
  2
SOLID
 70
     1
 71
     0
 91
        1
 92
        0
 93
        4
 72
     1
 10
-8.225363627744372
 20
-35.8
 11
-11.67163887158165
 21
-35.8
 72
     1
 10
-11.67163887158165
 20
-35.8
 11
-13.79986873078568
 21
-38.33632558057257
 72
     1
 10
-13.79986873078568
 20
-38.33632558057257
 11
-10.35356040183525
 21
-38.33628615127008
 72
     1
 10
-10.35356040183525
 20
-38.33628615127008
 11
-8.225363627744372
 21
-35.8
 97
        0
 75
     0
 76
     1
 98
        1
 10
16.58171167873051
 20
-0.001074928723895
  0
HATCH
  5
D6
330
1F
100
AcDbEntity
  8
중심선
100
AcDbHatch
 10
0.0
 20
0.0
 30
0.0
210
0.0
220
0.0
230
1.0
  2
SOLID
 70
     1
 71
     0
 91
        1
 92
        0
 93
        4
 72
     1
 10
-3.212599636708394
 20
-35.8
 11
-6.658874880545646
 21
-35.8
 72
     1
 10
-6.658874880545646
 20
-35.8
 11
-11.19001288890309
 21
-41.20000000000002
 72
     1
 10
-11.19001288890309
 20
-41.20000000000002
 11
-7.743737645065806
 21
-41.20000000000002
 72
     1
 10
-7.743737645065806
 20
-41.20000000000002
 11
-3.212599636708394
 21
-35.8
 97
        0
 75
     0
 76
     1
 98
        1
 10
16.58171167873051
 20
-0.001074928723895
  0
HATCH
  5
D7
330
1F
100
AcDbEntity
  8
중심선
100
AcDbHatch
 10
0.0
 20
0.0
 30
0.0
210
0.0
220
0.0
230
1.0
  2
SOLID
 70
     1
 71
     0
 91
        1
 92
        0
 93
        4
 72
     1
 10
1.800164354327503
 20
-35.80000000000003
 11
-1.646110889509611
 21
-35.8
 72
     1
 10
-1.646110889509611
 20
-35.8
 11
-8.69454779139889
 21
-44.20000000000002
 72
     1
 10
-8.69454779139889
 20
-44.20000000000002
 11
-5.248272547561605
 21
-44.20000000000002
 72
     1
 10
-5.248272547561605
 20
-44.20000000000002
 11
1.800164354327503
 21
-35.80000000000003
 97
        0
 75
     0
 76
     1
 98
        1
 10
16.58171167873051
 20
-0.001074928723895
  0
HATCH
  5
D8
330
1F
100
AcDbEntity
  8
중심선
100
AcDbHatch
 10
0.0
 20
0.0
 30
0.0
210
0.0
220
0.0
230
1.0
  2
SOLID
 70
     1
 71
     0
 91
        1
 92
        0
 93
        6
 72
     3
 10
6.600054785339674
 20
-40.00000000005127
 11
3.960054785062283
 21
1.540882976769353E-10
 40
0.3939339440162628
 50
17.09539180608436
 51
320.0019657685077
 73
     0
 72
     1
 10
8.283054441040242
 20
-38.5878940046383
 11
10.58835631474131
 21
-36.65356729459035
 72
     3
 10
6.600054785286828
 20
-40.00000000000015
 11
6.600054785286829
 21
-1.278976924368180E-13
 40
0.636358354079598
 50
39.9987384933743
 51
368.4976242363725
 73
     1
 72
     1
 10
13.02538727718744
 20
-39.03999999993002
 11
5.280122092122751
 21
-39.03999999993
 72
     1
 10
5.280122092122751
 20
-39.03999999993
 11
5.280097047676817
 21
-40.95999999992991
 72
     1
 10
5.280097047676817
 20
-40.95999999992991
 11
9.721476817148854
 21
-40.95999999992988
 97
        0
 75
     0
 76
     1
 98
        1
 10
16.58171167873051
 20
-0.001074928723895
  0
DIMENSION
  5
D9
330
1F
100
AcDbEntity
  8
치수문자_일반주서
100
AcDbDimension
  2
_D
 10
-57.62499999999995
 20
-6.350000000000133
 30
0.0
 11
-57.62500000000006
 21
26.29774999999995
 31
0.0
 70
   160
  1
%%c<>
 71
     2
 42
12.69999999999999
 52
-270.0
  3
SLDDIMSTYLE0
100
AcDbAlignedDimension
 13
-22.2846058393653
 23
6.349999999999991
 33
0.0
 14
-22.28460583936532
 24
-6.350000000000001
 34
0.0
 50
90.0000000000002
100
AcDbRotatedDimension
1001
PE_URL
1000

1001
ACAD
1000
DSTYLE
1002
{
1070
   171
1070
     8
1070
   273
1070
     7
1002
}
  0
DIMENSION
  5
EE
330
1F
100
AcDbEntity
  8
치수문자_일반주서
100
AcDbDimension
  2
_D_1
 10
90.13899644385178
 20
5.353284158472736
 30
0.0
 11
90.1389964438517
 21
27.92603415847273
 31
0.0
 70
   160
  1
%%c<>
 71
     2
 42
10.70656831694515
 52
-270.0
  3
SLDDIMSTYLE0
100
AcDbAlignedDimension
 13
47.62500000000001
 23
-5.353284158472579
 33
0.0
 14
47.62500000000001
 24
5.353284158472575
 34
0.0
 50
90.0000000000002
100
AcDbRotatedDimension
1001
PE_URL
1000

1001
ACAD
1000
DSTYLE
1002
{
1070
   171
1070
     8
1070
   273
1070
     7
1002
}
  0
DIMENSION
  5
102
330
1F
100
AcDbEntity
  8
치수문자_일반주서
100
AcDbDimension
  2
_D_2
 10
26.98750000000001
 20
16.35000000000001
 30
0.0
 11
68.88525000000001
 21
16.35000000000001
 31
0.0
 70
   160
  1
<>
 71
     2
 42
20.6375
  3
SLDDIMSTYLE0
100
AcDbAlignedDimension
 13
47.62500000000001
 23
5.353284158472575
 33
0.0
 14
26.98750000000001
 24
4.43149142346573
 34
0.0
 50
0.0000000000000099
100
AcDbRotatedDimension
1001
PE_URL
1000

1001
ACAD
1000
DSTYLE
1002
{
1070
   171
1070
     8
1070
   273
1070
     7
1002
}
  0
DIMENSION
  5
116
330
1F
100
AcDbEntity
  8
치수문자_일반주서
100
AcDbDimension
  2
_D_3
 10
47.62500000000001
 20
26.35000000000001
 30
0.0
 11
0.0000000000000142
 21
26.35000000000001
 31
0.0
 70
   160
  1
<>
 71
     2
 42
95.25000000000006
  3
SLDDIMSTYLE0
100
AcDbAlignedDimension
 13
-47.62500000000004
 23
5.353284158472619
 33
0.0
 14
47.62500000000001
 24
5.353284158472575
 34
0.0
100
AcDbRotatedDimension
1001
PE_URL
1000

1001
ACAD
1000
DSTYLE
1002
{
1070
   171
1070
     8
1070
   273
1070
     7
1002
}
  0
LINE
  5
129
330
1F
100
AcDbEntity
  8
참조1
100
AcDbLine
 10
85.09412503295505
 20
7.44
 30
0.0
 11
85.09412503295505
 21
-7.440000000000004
 31
0.0
  0
LINE
  5
12A
330
1F
100
AcDbEntity
  8
참조1
100
AcDbLine
 10
97.79412503295505
 20
5.44
 30
0.0
 11
85.09412503295505
 21
5.44
 31
0.0
  0
SOLID
  5
12B
330
1F
100
AcDbEntity
  8
참조1
100
AcDbTrace
 10
85.09412503295505
 20
5.44
 30
0.0
 11
91.44412503295504
 21
4.424
 31
0.0
 12
91.44412503295504
 22
6.456
 32
0.0
 13
91.44412503295504
 23
6.456
 33
0.0
  0
LINE
  5
12C
330
1F
100
AcDbEntity
  8
참조1
100
AcDbLine
 10
97.79412503295505
 20
-5.440000000000004
 30
0.0
 11
85.09412503295505
 21
-5.440000000000004
 31
0.0
  0
SOLID
  5
12D
330
1F
100
AcDbEntity
  8
참조1
100
AcDbTrace
 10
85.09412503295505
 20
-5.440000000000004
 30
0.0
 11
91.44412503295504
 21
-6.456000000000004
 31
0.0
 12
91.44412503295504
 22
-4.424000000000004
 32
0.0
 13
91.44412503295504
 23
-4.424000000000004
 33
0.0
  0
MTEXT
  5
12E
330
1F
100
AcDbEntity
  8
참조1
100
AcDbMText
 10
94.47847516558105
 20
11.01029177718833
 30
0.0
 40
3.5
 41
0.0
 71
     1
 72
     1
  1
A
  7
SLDTEXTSTYLE0
 73
     1
 44
1.0
  0
MTEXT
  5
12F
330
1F
100
AcDbEntity
  8
참조1
100
AcDbMText
 10
94.47847516558105
 20
0.1302917771883242
 30
0.0
 40
3.5
 41
0.0
 71
     1
 72
     1
  1
A
  7
SLDTEXTSTYLE0
 73
     1
 44
1.0
  0
INSERT
  5
136
330
1F
100
AcDbEntity
  8
해칭선
100
AcDbBlockReference
  2
SW_DOWELSYMBOL_0
 10
0.0
 20
0.0
 30
0.0
  0
LINE
  5
22D
330
1F
100
AcDbEntity
  8
외형선
  6
Continuous
370
    15
100
AcDbLine
 10
-5.587999999999937
 20
4.825999999999996
 30
0.0
 11
5.587999999999937
 21
4.825999999999996
 31
0.0
1001
PE_URL
1000

  0
LINE
  5
22E
330
1F
100
AcDbEntity
  8
외형선
  6
Continuous
370
    15
100
AcDbLine
 10
-5.587999999999937
 20
4.825999999999996
 30
0.0
 11
-7.111999999999938
 21
6.349999999999993
 31
0.0
1001
PE_URL
1000

  0
LINE
  5
22F
330
1F
100
AcDbEntity
  8
외형선
  6
Continuous
370
    15
100
AcDbLine
 10
5.588000000000051
 20
4.825999999999996
 30
0.0
 11
7.112000000000052
 21
6.349999999999993
 31
0.0
1001
PE_URL
1000

  0
LINE
  5
277
330
1F
100
AcDbEntity
  8
외형선
  6
Continuous
370
    15
100
AcDbLine
 10
-22.2846058393653
 20
6.349999999999991
 30
0.0
 11
-24.95740353945057
 21
5.633826014730381
 31
0.0
  0
SPLINE
  5
278
330
1F
100
AcDbEntity
  8
외형선
  6
Continuous
370
    15
100
AcDbSpline
210
0.0
220
0.0
230
1.0
 70
     8
 71
     3
 72
     9
 73
     5
 74
     0
 42
0.000000001
 43
0.00000001
 40
0.0
 40
0.0
 40
0.0
 40
0.0
 40
0.561088885936145
 40
1.0
 40
1.0
 40
1.0
 40
1.0
 10
-24.95736667670742
 20
4.357690170101723
 30
0.0
 10
-25.33966792728278
 20
4.330684381084996
 30
0.0
 10
-26.02102387668377
 20
4.282553345711392
 30
0.0
 10
-26.69269574985924
 20
4.249127714635637
 30
0.0
 10
-26.98750000000004
 20
4.23445683366189
 30
0.0
  0
SPLINE
  5
279
330
1F
100
AcDbEntity
  8
0
  6
Continuous
 62
     1
370
    15
100
AcDbSpline
210
0.0
220
0.0
230
1.0
 70
     8
 71
     3
 72
     9
 73
     5
 74
     0
 42
0.000000001
 43
0.00000001
 40
0.0
 40
0.0
 40
0.0
 40
0.0
 40
0.4616366451055335
 40
0.9999999999999999
 40
0.9999999999999999
 40
0.9999999999999999
 40
0.9999999999999999
 10
-33.74329586470166
 20
-1.373007807262148
 30
0.0
 10
-33.51483839334934
 20
-1.4818843723898
 30
0.0
 10
-33.01995248302456
 20
-1.717733424413737
 30
0.0
 10
-32.52511122673371
 20
-1.976759722549989
 30
0.0
 10
-32.25870682785678
 20
-2.116209989420515
 30
0.0
1001
PE_URL
1000

  0
LINE
  5
27A
330
1F
100
AcDbEntity
  8
0
  6
Continuous
 62
     1
370
    15
100
AcDbLine
 10
-30.79004121073613
 20
-1.50409214379965
 30
0.0
 11
-30.72426394410619
 21
-1.540261812548021
 31
0.0
1001
PE_URL
1000

  0
SPLINE
  5
27B
330
1F
100
AcDbEntity
  8
0
  6
Continuous
 62
     1
370
    15
100
AcDbSpline
210
0.0
220
0.0
230
1.0
 70
     8
 71
     3
 72
    17
 73
    13
 74
     0
 42
0.000000001
 43
0.00000001
 40
0.0
 40
0.0
 40
0.0
 40
0.0
 40
0.1541389994668298
 40
0.2839075788868901
 40
0.3993211276413143
 40
0.4992453347516259
 40
0.5571900132668351
 40
0.6162177131459824
 40
0.7018627367648692
 40
0.8164851341225153
 40
0.9607465688018318
 40
1.0
 40
1.0
 40
1.0
 40
1.0
 10
-31.97286643857396
 20
-4.2575199329852
 30
0.0
 10
-31.76906533292945
 20
-4.246195608624372
 30
0.0
 10
-31.3936854571151
 20
-4.225337412301993
 30
0.0
 10
-30.79719765449476
 20
-4.202000720407089
 30
0.0
 10
-30.27845344292063
 20
-4.193945379943326
 30
0.0
 10
-29.86689781703021
 20
-4.187589403085163
 30
0.0
 10
-29.5416897597314
 20
-4.184810862580257
 30
0.0
 10
-29.24344519476483
 20
-4.183834190868964
 30
0.0
 10
-28.86016011022054
 20
-4.184905366087101
 30
0.0
 10
-28.35129810317902
 20
-4.191401516096672
 30
0.0
 10
-27.91049676825962
 20
-4.199963304403582
 30
0.0
 10
-27.63912603146698
 20
-4.210338790352978
 30
0.0
 10
-27.58108042031198
 20
-4.212558084260937
 30
0.0
1001
PE_URL
1000

  0
SPLINE
  5
27C
330
1F
100
AcDbEntity
  8
0
  6
Continuous
 62
     1
370
    15
100
AcDbSpline
210
0.0
220
0.0
230
1.0
 70
     8
 71
     3
 72
    26
 73
    22
 74
     0
 42
0.000000001
 43
0.00000001
 40
0.0
 40
0.0
 40
0.0
 40
0.0
 40
0.0656190450925585
 40
0.1161438939027648
 40
0.1523414177434773
 40
0.189560654155351
 40
0.2327337151769228
 40
0.2785421726970865
 40
0.3174900921818762
 40
0.3605043770728388
 40
0.4017163909617861
 40
0.4487049342810586
 40
0.5099610716706384
 40
0.584495216456123
 40
0.6437785864211499
 40
0.6962851448856647
 40
0.7567883516969915
 40
0.8108314249079074
 40
0.8653454411829553
 40
0.9256725789381727
 40
1.0
 40
1.0
 40
1.0
 40
1.0
 10
-45.63379517420559
 20
-3.664492491523195
 30
0.0
 10
-45.43138799561857
 20
-3.647917784205731
 30
0.0
 10
-45.07313289084205
 20
-3.618581010934591
 30
0.0
 10
-44.60038769816116
 20
-3.588707118018512
 30
0.0
 10
-44.2084286134252
 20
-3.568018178093634
 30
0.0
 10
-43.84077900291026
 20
-3.552038462241192
 30
0.0
 10
-43.44564401178003
 20
-3.538828724353003
 30
0.0
 10
-43.04672306832641
 20
-3.530085487377978
 30
0.0
 10
-42.64797411936384
 20
-3.525708094387188
 30
0.0
 10
-42.26341143854928
 20
-3.525530594897869
 30
0.0
 10
-41.85436102262904
 20
-3.529754382985065
 30
0.0
 10
-41.38845824171903
 20
-3.539856375007346
 30
0.0
 10
-40.81735554105479
 20
-3.560228464845075
 30
0.0
 10
-40.20771670327604
 20
-3.592335619608935
 30
0.0
 10
-39.62547775627379
 20
-3.632736926578882
 30
0.0
 10
-39.09114403069179
 20
-3.677392513782372
 30
0.0
 10
-38.56966188262919
 20
-3.727821951871022
 30
0.0
 10
-38.03820617980683
 20
-3.78639125868505
 30
0.0
 10
-37.49992847362584
 20
-3.852065663546568
 30
0.0
 10
-36.90116146874968
 20
-3.933074405337795
 30
0.0
 10
-36.49753031682096
 20
-3.995384477426956
 30
0.0
 10
-36.27473160249122
 20
-4.029778760140076
 30
0.0
1001
PE_URL
1000

  0
SPLINE
  5
27D
330
1F
100
AcDbEntity
  8
0
  6
Continuous
 62
     1
370
    15
100
AcDbSpline
210
0.0
220
0.0
230
1.0
 70
     8
 71
     3
 72
    14
 73
    10
 74
     0
 42
0.000000001
 43
0.00000001
 40
0.0
 40
0.0
 40
0.0
 40
0.0
 40
0.2190272887256434
 40
0.3909716703034511
 40
0.555536054544282
 40
0.7021464624913766
 40
0.827386122620261
 40
0.9680826626585637
 40
1.0
 40
1.0
 40
1.0
 40
1.0
 10
-36.2747316024912
 20
4.029778760140111
 30
0.0
 10
-36.55658485481055
 20
3.986471172274891
 30
0.0
 10
-37.05970315336096
 20
3.909165554043511
 30
0.0
 10
-37.8222482783591
 20
3.811355040430879
 30
0.0
 10
-38.47370664580981
 20
3.737455957496822
 30
0.0
 10
-39.0566657040055
 20
3.680307637349294
 30
0.0
 10
-39.60397263639658
 20
3.634848089372523
 30
0.0
 10
-40.00207468052337
 20
3.60508464315971
 30
0.0
 10
-40.23283706249983
 20
3.593225971870016
 30
0.0
 10
-40.27550640579402
 20
3.59103323268983
 30
0.0
1001
PE_URL
1000

  0
SPLINE
  5
27E
330
1F
100
AcDbEntity
  8
0
  6
Continuous
 62
     1
370
    15
100
AcDbSpline
210
0.0
220
0.0
230
1.0
 70
     8
 71
     3
 72
    17
 73
    13
 74
     0
 42
0.000000001
 43
0.00000001
 40
0.0
 40
0.0
 40
0.0
 40
0.0
 40
0.1526348277408489
 40
0.2798714158452867
 40
0.3809667833810244
 40
0.4565045084675305
 40
0.5085661225293254
 40
0.5596725267424326
 40
0.6478042939747476
 40
0.7495974460890443
 40
0.864051536506706
 40
1.0
 40
1.0
 40
1.0
 40
1.0
 10
-26.98750000000003
 20
4.234456833661891
 30
0.0
 10
-27.24341173540091
 20
4.224187108885413
 30
0.0
 10
-27.71265182154739
 20
4.205356528368009
 30
0.0
 10
-28.35130049159232
 20
4.191101834913168
 30
0.0
 10
-28.86015968823006
 20
4.184958314462699
 30
0.0
 10
-29.24344525979606
 20
4.183826031209961
 30
0.0
 10
-29.54168974565258
 20
4.184812629089127
 30
0.0
 10
-29.86689782386087
 20
4.187588546021294
 30
0.0
 10
-30.27845344032757
 20
4.193945705300921
 30
0.0
 10
-30.79719765532525
 20
4.20200061620252
 30
0.0
 10
-31.39368545684937
 20
4.225337445641211
 30
0.0
 10
-31.76906533283593
 20
4.246195620355721
 30
0.0
 10
-31.97286643857394
 20
4.257519932985222
 30
0.0
1001
PE_URL
1000

  0
SPLINE
  5
27F
330
1F
100
AcDbEntity
  8
외형선
  6
Continuous
370
    15
100
AcDbSpline
210
0.0
220
0.0
230
1.0
 70
     8
 71
     3
 72
     8
 73
     4
 74
     0
 42
0.000000001
 43
0.00000001
 40
0.0
 40
0.0
 40
0.0
 40
0.0
 40
1.0
 40
1.0
 40
1.0
 40
1.0
 10
-25.98750000000005
 20
-4.729937811485577
 30
0.0
 10
-25.64279719435641
 20
-4.886137150848874
 30
0.0
 10
-25.29940306967201
 20
-5.038859593989255
 30
0.0
 10
-24.95730263338583
 20
-5.187577233892405
 30
0.0
  0
LINE
  5
280
330
1F
100
AcDbEntity
  8
외형선
  6
Continuous
370
    15
100
AcDbLine
 10
-25.98750000000005
 20
-4.729937811485545
 30
0.0
 11
-25.98750000000005
 21
-3.850902544103842
 31
0.0
  0
SPLINE
  5
281
330
1F
100
AcDbEntity
  8
외형선
  6
Continuous
370
    15
100
AcDbSpline
210
0.0
220
0.0
230
1.0
 70
     8
 71
     3
 72
     8
 73
     4
 74
     0
 42
0.000000001
 43
0.00000001
 40
0.0
 40
0.0
 40
0.0
 40
0.0
 40
1.0
 40
1.0
 40
1.0
 40
1.0
 10
-24.95740353945059
 20
-4.393739604788706
 30
0.0
 10
-25.30106012892826
 20
-4.216208609626587
 30
0.0
 10
-25.6444098141828
 20
-4.035265710250531
 30
0.0
 10
-25.98749999999928
 20
-3.850902544103771
 30
0.0
  0
LINE
  5
282
330
1F
100
AcDbEntity
  8
외형선
  6
Continuous
370
    15
100
AcDbLine
 10
-24.95740353945057
 20
5.633826014730381
 30
0.0
 11
-24.95740353945059
 21
-4.393802253700443
 31
0.0
  0
SPLINE
  5
283
330
1F
100
AcDbEntity
  8
외형선
  6
Continuous
370
    15
100
AcDbSpline
210
0.0
220
0.0
230
1.0
 70
     8
 71
     3
 72
     8
 73
     4
 74
     0
 42
0.000000001
 43
0.00000001
 40
0.0
 40
0.0
 40
0.0
 40
0.0
 40
1.0
 40
1.0
 40
1.0
 40
1.0
 10
-25.98750000000003
 20
4.729937811485581
 30
0.0
 10
-25.64279719435639
 20
4.886137150848869
 30
0.0
 10
-25.29940306967198
 20
5.038859593989249
 30
0.0
 10
-24.9573026333858
 20
5.187577233892402
 30
0.0
  0
LINE
  5
284
330
1F
100
AcDbEntity
  8
외형선
  6
Continuous
370
    15
100
AcDbLine
 10
-24.9574035394506
 20
-5.187596896375887
 30
0.0
 11
-24.9574035394506
 21
-5.633826014730388
 31
0.0
  0
SPLINE
  5
285
330
1F
100
AcDbEntity
  8
외형선
  6
Continuous
370
    15
100
AcDbSpline
210
0.0
220
0.0
230
1.0
 70
    24
 71
     3
 72
    10
 73
     6
 74
     0
 42
0.000000001
 43
0.00000001
 40
0.0
 40
0.0
 40
0.0
 40
0.0
 40
0.5
 40
0.5
 40
1.0
 40
1.0
 40
1.0
 40
1.0
 10
-26.98750000000005
 20
-3.427463444722274
 30
0.0
 10
-26.98750000000005
 20
-3.318965932322378
 30
0.0
 10
-26.98750000000005
 20
-3.15651137327912
 30
0.0
 10
-26.98750000000005
 20
-2.756893377221903
 30
0.0
 10
-26.98750000000005
 20
-2.521085238977221
 30
0.0
 10
-26.98750000000005
 20
-2.278703618654088
 30
0.0
  0
SPLINE
  5
286
330
1F
100
AcDbEntity
  8
외형선
  6
Continuous
370
    15
100
AcDbSpline
210
0.0
220
0.0
230
1.0
 70
     8
 71
     3
 72
    10
 73
     6
 74
     0
 42
0.000000001
 43
0.00000001
 40
0.0
 40
0.0
 40
0.0
 40
0.0
 40
0.5
 40
0.5
 40
1.0
 40
1.0
 40
1.0
 40
1.0
 10
-26.98750000000005
 20
-2.278703618654088
 30
0.0
 10
-26.65025453988327
 20
-2.387190043839997
 30
0.0
 10
-26.31330099085403
 20
-2.491115599984557
 30
0.0
 10
-25.63478028266729
 20
-2.689077503912756
 30
0.0
 10
-25.29488006120556
 20
-2.782930804439403
 30
0.0
 10
-24.95737921639743
 20
-2.870844666823
 30
0.0
  0
SPLINE
  5
287
330
1F
100
AcDbEntity
  8
외형선
  6
Continuous
370
    15
100
AcDbSpline
210
0.0
220
0.0
230
1.0
 70
     8
 71
     3
 72
     8
 73
     4
 74
     0
 42
0.000000001
 43
0.00000001
 40
0.0
 40
0.0
 40
0.0
 40
0.0
 40
1.0
 40
1.0
 40
1.0
 40
1.0
 10
-25.98749999999914
 20
-3.850902544102745
 30
0.0
 10
-26.32225648390304
 20
-3.716767270985439
 30
0.0
 10
-26.6547144629658
 20
-3.575456471500697
 30
0.0
 10
-26.98749999999972
 20
-3.427463444721631
 30
0.0
  0
SPLINE
  5
288
330
1F
100
AcDbEntity
  8
외형선
  6
Continuous
370
    15
100
AcDbSpline
210
0.0
220
0.0
230
1.0
 70
     8
 71
     3
 72
     8
 73
     4
 74
     0
 42
0.000000001
 43
0.00000001
 40
0.0
 40
0.0
 40
0.0
 40
0.0
 40
1.0
 40
1.0
 40
1.0
 40
1.0
 10
-26.98750000000005
 20
-4.431491423465729
 30
0.0
 10
-26.65471446296632
 20
-4.539710121350474
 30
0.0
 10
-26.32225648390375
 20
-4.639315845521406
 30
0.0
 10
-25.98750000000005
 20
-4.729937811485549
 30
0.0
  0
LINE
  5
289
330
1F
100
AcDbEntity
  8
외형선
  6
Continuous
370
    15
100
AcDbLine
 10
-26.98750000000005
 20
-4.431491423465729
 30
0.0
 11
-26.98750000000005
 21
-3.427463444723266
 31
0.0
  0
SPLINE
  5
28A
330
1F
100
AcDbEntity
  8
외형선
  6
Continuous
370
    15
100
AcDbSpline
210
0.0
220
0.0
230
1.0
 70
     8
 71
     3
 72
    10
 73
     6
 74
     0
 42
0.000000001
 43
0.00000001
 40
0.0
 40
0.0
 40
0.0
 40
0.0
 40
0.5
 40
0.5
 40
1.0
 40
1.0
 40
1.0
 40
1.0
 10
-26.98750000000003
 20
3.404395845097675
 30
0.0
 10
-26.65025245151619
 20
3.309551864684019
 30
0.0
 10
-26.31329679712585
 20
3.207966249141773
 30
0.0
 10
-25.63477187133043
 20
2.991928384218209
 30
0.0
 10
-25.29486955217754
 20
2.877632123408784
 30
0.0
 10
-24.95736667670742
 20
2.758111862656431
 30
0.0
  0
SPLINE
  5
28B
330
1F
100
AcDbEntity
  8
외형선
  6
Continuous
370
    15
100
AcDbSpline
210
0.0
220
0.0
230
1.0
 70
    24
 71
     3
 72
    14
 73
    10
 74
     0
 42
0.000000001
 43
0.00000001
 40
0.0
 40
0.0
 40
0.0
 40
0.0
 40
0.25
 40
0.25
 40
0.5
 40
0.5
 40
0.75
 40
0.75
 40
1.0
 40
1.0
 40
1.0
 40
1.0
 10
-26.98750000000002
 20
-2.278703618654099
 30
0.0
 10
-26.98750000000002
 20
-1.848982315228
 30
0.0
 10
-26.98750000000002
 20
-1.380762526710509
 30
0.0
 10
-26.98750000000002
 20
-0.4030355687127916
 30
0.0
 10
-26.98750000000001
 20
0.1060765754192765
 30
0.0
 10
-26.98750000000001
 20
1.116127200194232
 30
0.0
 10
-26.98750000000001
 20
1.616527483635821
 30
0.0
 10
-26.98750000000001
 20
2.561059437544312
 30
0.0
 10
-26.98750000000001
 20
3.004842706837419
 30
0.0
 10
-26.98750000000001
 20
3.404395845097664
 30
0.0
  0
SPLINE
  5
28C
330
1F
100
AcDbEntity
  8
외형선
  6
Continuous
370
    15
100
AcDbSpline
210
0.0
220
0.0
230
1.0
 70
    24
 71
     3
 72
    11
 73
     7
 74
     0
 42
0.000000001
 43
0.00000001
 40
0.0
 40
0.0
 40
0.0
 40
0.0
 40
0.2100192278949782
 40
0.4227813619948322
 40
0.731474914702877
 40
1.0
 40
1.0
 40
1.0
 40
1.0
 10
-26.98750000000004
 20
3.404395845097675
 30
0.0
 10
-26.98750000000004
 20
3.5119200217282
 30
0.0
 10
-26.98750000000004
 20
3.728372668939905
 30
0.0
 10
-26.98750000000004
 20
3.999917214649956
 30
0.0
 10
-26.98750000000004
 20
4.201759857295725
 30
0.0
 10
-26.98750000000004
 20
4.216386428543103
 30
0.0
 10
-26.98750000000004
 20
4.223190784870507
 30
0.0
  0
SPLINE
  5
28D
330
1F
100
AcDbEntity
  8
외형선
  6
Continuous
370
    15
100
AcDbSpline
210
0.0
220
0.0
230
1.0
 70
     8
 71
     3
 72
     8
 73
     4
 74
     0
 42
0.000000001
 43
0.00000001
 40
0.0
 40
0.0
 40
0.0
 40
0.0
 40
1.0
 40
1.0
 40
1.0
 40
1.0
 10
-26.98750000000004
 20
4.431491423465733
 30
0.0
 10
-26.6547144629663
 20
4.539710121350478
 30
0.0
 10
-26.32225648390373
 20
4.639315845521407
 30
0.0
 10
-25.98750000000003
 20
4.72993781148555
 30
0.0
  0
SPLINE
  5
28E
330
1F
100
AcDbEntity
  8
외형선
  6
Continuous
370
    15
100
AcDbSpline
210
0.0
220
0.0
230
1.0
 70
    24
 71
     3
 72
     9
 73
     5
 74
     0
 42
0.000000001
 43
0.00000001
 40
0.0
 40
0.0
 40
0.0
 40
0.0
 40
0.4667556698487359
 40
0.9999999999999999
 40
0.9999999999999999
 40
0.9999999999999999
 40
0.9999999999999999
 10
-26.98750000000004
 20
4.298351600869024
 30
0.0
 10
-26.98750000000004
 20
4.320128269066853
 30
0.0
 10
-26.98750000000004
 20
4.366783659894534
 30
0.0
 10
-26.98750000000004
 20
4.408986824966023
 30
0.0
 10
-26.98750000000004
 20
4.431491423454833
 30
0.0
  0
SPLINE
  5
28F
330
1F
100
AcDbEntity
  8
0
  6
Continuous
 62
     1
370
    15
100
AcDbSpline
210
0.0
220
0.0
230
1.0
 70
     8
 71
     3
 72
    38
 73
    34
 74
     0
 42
0.000000001
 43
0.00000001
 40
0.0
 40
0.0
 40
0.0
 40
0.0
 40
0.0625
 40
0.0625
 40
0.125
 40
0.125
 40
0.1875
 40
0.1875
 40
0.25
 40
0.25
 40
0.3125
 40
0.3125
 40
0.375
 40
0.375
 40
0.4375
 40
0.4375
 40
0.5
 40
0.5
 40
0.5625
 40
0.5625
 40
0.625
 40
0.625
 40
0.6875
 40
0.6875
 40
0.75
 40
0.75
 40
0.8125
 40
0.8125
 40
0.875
 40
0.875
 40
0.9375
 40
0.9375
 40
1.0
 40
1.0
 40
1.0
 40
1.0
 10
-47.62500000000004
 20
5.084247250931579
 30
0.0
 10
-47.19777374515288
 20
5.006109459530506
 30
0.0
 10
-46.765525148195
 20
4.911287429844084
 30
0.0
 10
-45.9034191950355
 20
4.69072546075291
 30
0.0
 10
-45.47684186403422
 20
4.565382396141946
 30
0.0
 10
-44.61649600778762
 20
4.285484917454633
 30
0.0
 10
-44.18368828879908
 20
4.130931218085662
 30
0.0
 10
-43.32529234998936
 20
3.797135283240737
 30
0.0
 10
-42.89727011303917
 20
3.617649263484612
 30
0.0
 10
-42.03471572589469
 20
3.235616298262183
 30
0.0
 10
-41.6056225007221
 20
3.033862489409328
 30
0.0
 10
-40.74833948783481
 20
2.612350081670151
 30
0.0
 10
-40.3156373571351
 20
2.391816771121082
 30
0.0
 10
-39.45459088354627
 20
1.937488783352563
 30
0.0
 10
-39.02828641554457
 20
1.704110661269578
 30
0.0
 10
-38.16659753262351
 20
1.226255722359497
 30
0.0
 10
-37.73409947371532
 20
0.982281512702766
 30
0.0
 10
-36.87825575231344
 20
0.4913236410302169
 30
0.0
 10
-36.44761996949974
 20
0.2429552673442359
 30
0.0
 10
-35.58522925417212
 20
-0.2539712044468665
 30
0.0
 10
-35.15812528092214
 20
-0.5016288958966797
 30
0.0
 10
-34.29861145030293
 20
-0.9931495001232804
 30
0.0
 10
-33.86576519304781
 20
-1.237077144079127
 30
0.0
 10
-33.00638674240174
 20
-1.714228029779157
 30
0.0
 10
-32.57918245139897
 20
-1.947604695998844
 30
0.0
 10
-31.71676060192963
 20
-2.401762363115498
 30
0.0
 10
-31.28634389201144
 20
-2.621664870856076
 30
0.0
 10
-30.43030365292514
 20
-3.04245899537057
 30
0.0
 10
-29.99777410576846
 20
-3.244456970444819
 30
0.0
 10
-29.13615878101817
 20
-3.625698468694704
 30
0.0
 10
-28.70987325750531
 20
-3.804610524580795
 30
0.0
 10
-27.84873353947787
 20
-4.138017685362193
 30
0.0
 10
-27.41605290806949
 20
-4.292130085532133
 30
0.0
 10
-26.98749999999658
 20
-4.431491423466859
 30
0.0
1001
PE_URL
1000

  0
SPLINE
  5
290
330
1F
100
AcDbEntity
  8
0
  6
Continuous
 62
     1
370
    15
100
AcDbSpline
210
0.0
220
0.0
230
1.0
 70
     8
 71
     3
 72
    15
 73
    11
 74
     0
 42
0.000000001
 43
0.00000001
 40
0.0
 40
0.0
 40
0.0
 40
0.0
 40
0.1359357539795727
 40
0.2718369290118675
 40
0.4077113476534068
 40
0.5435668883393092
 40
0.6794114690186415
 40
0.8152530306148728
 40
0.9510995203844347
 40
1.0
 40
1.0
 40
1.0
 40
1.0
 10
-47.62500000000004
 20
4.227165460185372
 30
0.0
 10
-46.99506518804986
 20
4.095271314650027
 30
0.0
 10
-45.73535580516052
 20
3.831516574433847
 30
0.0
 10
-43.8460905032077
 20
3.230873684813631
 30
0.0
 10
-41.95724592760723
 20
2.509330658051276
 30
0.0
 10
-40.06870411594582
 20
1.681158676998802
 30
0.0
 10
-38.18033736483476
 20
0.7834431805208588
 30
0.0
 10
-36.292016662213
 20
-0.142862176034285
 30
0.0
 10
-34.806553918554
 20
-0.8785384470545949
 30
0.0
 10
-33.95050187066961
 20
-1.271654372222834
 30
0.0
 10
-33.7239143609705
 20
-1.375707810009786
 30
0.0
1001
PE_URL
1000

  0
LINE
  5
291
330
1F
100
AcDbEntity
  8
0
  6
Continuous
 62
     1
370
    15
100
AcDbLine
 10
-47.62500000000004
 20
5.084247250931583
 30
0.0
 11
-47.62500000000004
 21
4.227165460185372
 31
0.0
1001
PE_URL
1000

  0
SPLINE
  5
292
330
1F
100
AcDbEntity
  8
0
  6
Continuous
 62
     1
370
    15
100
AcDbSpline
210
0.0
220
0.0
230
1.0
 70
     8
 71
     3
 72
    38
 73
    34
 74
     0
 42
0.000000001
 43
0.00000001
 40
0.0
 40
0.0
 40
0.0
 40
0.0
 40
0.0624999999999999
 40
0.0624999999999999
 40
0.1249999999999999
 40
0.1249999999999999
 40
0.1874999999999999
 40
0.1874999999999999
 40
0.25
 40
0.25
 40
0.3125
 40
0.3125
 40
0.375
 40
0.375
 40
0.4375
 40
0.4375
 40
0.5
 40
0.5
 40
0.5625
 40
0.5625
 40
0.625
 40
0.625
 40
0.6875
 40
0.6875
 40
0.75
 40
0.75
 40
0.8125
 40
0.8125
 40
0.875
 40
0.875
 40
0.9375
 40
0.9375
 40
1.0
 40
1.0
 40
1.0
 40
1.0
 10
-26.98750000000002
 20
-3.427463444722299
 30
0.0
 10
-27.41605290807287
 20
-3.236881718827643
 30
0.0
 10
-27.8487335394812
 20
-3.034626457913728
 30
0.0
 10
-28.70987325750847
 20
-2.612510002629669
 30
0.0
 10
-29.13615878102125
 20
-2.393078253146857
 30
0.0
 10
-29.99777410577141
 20
-1.938700935783693
 30
0.0
 10
-30.43030365292802
 20
-1.704198582316408
 30
0.0
 10
-31.28634389201413
 20
-1.227405374667789
 30
0.0
 10
-31.7167606019323
 20
-0.9838475201877124
 30
0.0
 10
-32.57918245140149
 20
-0.4916483009333206
 30
0.0
 10
-33.00638674240416
 20
-0.2439372538488236
 30
0.0
 10
-33.86576519305012
 20
0.2524103268009625
 30
0.0
 10
-34.29861145030517
 20
0.5011738881744883
 30
0.0
 10
-35.15812528092421
 20
0.9927003904528782
 30
0.0
 10
-35.58522925417412
 20
1.235560309108557
 30
0.0
 10
-36.44761996950162
 20
1.713300264858496
 30
0.0
 10
-36.87825575231521
 20
1.947292794977574
 30
0.0
 10
-37.73409947371697
 20
2.400329677005381
 30
0.0
 10
-38.16659753262512
 20
2.620641669568972
 30
0.0
 10
-39.028286415546
 20
3.042389953387902
 30
0.0
 10
-39.45459088354763
 20
3.243420948453251
 30
0.0
 10
-40.31563735713632
 20
3.624658905286084
 30
0.0
 10
-40.74833948783596
 20
3.804476027674218
 30
0.0
 10
-41.60562250072309
 20
4.13742243358527
 30
0.0
 10
-42.03471572589562
 20
4.291186709748986
 30
0.0
 10
-42.89727011303997
 20
4.570581226490486
 30
0.0
 10
-43.32529234999006
 20
4.695640041444134
 30
0.0
 10
-44.18368828879965
 20
4.915070526391796
 30
0.0
 10
-44.61649600778814
 20
5.00956344893838
 30
0.0
 10
-45.47684186403457
 20
5.165305642640529
 30
0.0
 10
-45.9034191950358
 20
5.226616935020781
 30
0.0
 10
-46.76552514819516
 20
5.31563494414295
 30
0.0
 10
-47.19777374515296
 20
5.343102368445113
 30
0.0
 10
-47.62500000000004
 20
5.353284158472645
 30
0.0
1001
PE_URL
1000

  0
SPLINE
  5
293
330
1F
100
AcDbEntity
  8
0
  6
Continuous
 62
     1
370
    15
100
AcDbSpline
210
0.0
220
0.0
230
1.0
 70
     8
 71
     3
 72
    11
 73
     7
 74
     0
 42
0.000000001
 43
0.00000001
 40
0.0
 40
0.0
 40
0.0
 40
0.0
 40
0.2462382201469934
 40
0.5038173868992327
 40
0.7518758090119532
 40
1.0
 40
1.0
 40
1.0
 40
1.0
 10
-34.32085652322941
 20
0.5123171108872491
 30
0.0
 10
-33.7189589389187
 20
0.2694536357421882
 30
0.0
 10
-32.48744228838672
 20
-0.2274588311681427
 30
0.0
 10
-30.6495420782846
 20
-0.964555723621281
 30
0.0
 10
-28.806998030658
 20
-1.669544840867221
 30
0.0
 10
-27.59405293540419
 20
-2.075632750443138
 30
0.0
 10
-26.98750000000005
 20
-2.278703618654088
 30
0.0
1001
PE_URL
1000

  0
SPLINE
  5
294
330
1F
100
AcDbEntity
  8
외형선
  6
Continuous
370
    15
100
AcDbSpline
210
0.0
220
0.0
230
1.0
 70
    24
 71
     3
 72
    10
 73
     6
 74
     0
 42
0.000000001
 43
0.00000001
 40
0.0
 40
0.0
 40
0.0
 40
0.0
 40
0.5
 40
0.5
 40
1.0
 40
1.0
 40
1.0
 40
1.0
 10
-26.98750000000005
 20
-3.427463444722274
 30
0.0
 10
-26.98750000000005
 20
-3.318965932322378
 30
0.0
 10
-26.98750000000005
 20
-3.15651137327912
 30
0.0
 10
-26.98750000000005
 20
-2.756893377221903
 30
0.0
 10
-26.98750000000005
 20
-2.521085238977221
 30
0.0
 10
-26.98750000000005
 20
-2.278703618654088
 30
0.0
  0
LINE
  5
295
330
1F
100
AcDbEntity
  8
0
  6
Continuous
 62
     1
370
    15
100
AcDbLine
 10
-47.62500000000004
 20
5.353284158472619
 30
0.0
 11
-47.62500000000004
 21
5.084247250931579
 31
0.0
1001
PE_URL
1000

  0
SPLINE
  5
296
330
1F
100
AcDbEntity
  8
0
  6
Continuous
 62
     1
370
    15
100
AcDbSpline
210
0.0
220
0.0
230
1.0
 70
     8
 71
     3
 72
     8
 73
     4
 74
     0
 42
0.000000001
 43
0.00000001
 40
0.0
 40
0.0
 40
0.0
 40
0.0
 40
1.0
 40
1.0
 40
1.0
 40
1.0
 10
-44.30984074223787
 20
-1.498677437831429
 30
0.0
 10
-44.1193478383595
 20
-1.724351749968527
 30
0.0
 10
-43.94943850911621
 20
-1.941419550643978
 30
0.0
 10
-43.80493142987545
 20
-2.14786603020907
 30
0.0
1001
PE_URL
1000

  0
LINE
  5
297
330
1F
100
AcDbEntity
  8
0
  6
Continuous
 62
     1
370
    15
100
AcDbLine
 10
-43.87263713566692
 20
-2.204677862967291
 30
0.0
 11
-47.62500000000004
 21
0.0000000000000391
 31
0.0
1001
PE_URL
1000

  0
LINE
  5
298
330
1F
100
AcDbEntity
  8
0
  6
Continuous
 62
     1
370
    15
100
AcDbLine
 10
-47.62500000000004
 20
0.0000000000000391
 30
0.0
 11
-47.62500000000004
 21
1.431837596774496
 31
0.0
1001
PE_URL
1000

  0
SPLINE
  5
299
330
1F
100
AcDbEntity
  8
0
  6
Continuous
 62
     1
370
    15
100
AcDbSpline
210
0.0
220
0.0
230
1.0
 70
     8
 71
     3
 72
    12
 73
     8
 74
     0
 42
0.000000001
 43
0.00000001
 40
0.0
 40
0.0
 40
0.0
 40
0.0
 40
0.4999999999999991
 40
0.4999999999999991
 40
0.7499999999999996
 40
0.7499999999999996
 40
1.0
 40
1.0
 40
1.0
 40
1.0
 10
-47.62500000000004
 20
1.431837596774496
 30
0.0
 10
-47.05113582974216
 20
0.98068351825086
 30
0.0
 10
-46.48685683120026
 20
0.511030878784787
 30
0.0
 10
-45.65518566066545
 20
-0.2219091597225322
 30
0.0
 10
-45.38046260990939
 20
-0.4710485902577943
 30
0.0
 10
-44.83662730642263
 20
-0.9801558112454565
 30
0.0
 10
-44.56899907714443
 20
-1.238802475257021
 30
0.0
 10
-44.30984074223787
 20
-1.498677437831432
 30
0.0
1001
PE_URL
1000

  0
SPLINE
  5
29A
330
1F
100
AcDbEntity
  8
0
  6
Continuous
 62
     1
370
    15
100
AcDbSpline
210
0.0
220
0.0
230
1.0
 70
     8
 71
     3
 72
    15
 73
    11
 74
     0
 42
0.000000001
 43
0.00000001
 40
0.0
 40
0.0
 40
0.0
 40
0.0
 40
0.095201697020713
 40
0.1906987995236074
 40
0.3437542459433757
 40
0.4967971722204034
 40
0.6498366506240549
 40
0.802881760684912
 40
0.9559415700744089
 40
1.0
 40
1.0
 40
1.0
 40
1.0
 10
-44.30984074223193
 20
-1.49867743783399
 30
0.0
 10
-43.91846273779073
 20
-1.665992865560202
 30
0.0
 10
-43.13449230509301
 20
-2.001142891323145
 30
0.0
 10
-41.72035215888084
 20
-2.557085157039594
 30
0.0
 10
-40.06875605489672
 20
-3.13888857836341
 30
0.0
 10
-38.18035611508661
 20
-3.671828908117526
 30
0.0
 10
-36.2920524466616
 20
-4.057177962238821
 30
0.0
 10
-34.40365404082556
 20
-4.26177905854999
 30
0.0
 10
-32.96347379859012
 20
-4.321078202510524
 30
0.0
 10
-32.15272573283896
 20
-4.254327626171222
 30
0.0
 10
-31.97151324349084
 20
-4.23940802461453
 30
0.0
1001
PE_URL
1000

  0
SPLINE
  5
29B
330
1F
100
AcDbEntity
  8
0
  6
Continuous
 62
     1
370
    15
100
AcDbSpline
210
0.0
220
0.0
230
1.0
 70
    24
 71
     3
 72
    10
 73
     6
 74
     0
 42
0.000000001
 43
0.00000001
 40
0.0
 40
0.0
 40
0.0
 40
0.0
 40
0.5
 40
0.5
 40
1.0
 40
1.0
 40
1.0
 40
1.0
 10
-47.62500000000004
 20
4.227165460185372
 30
0.0
 10
-47.62500000000004
 20
3.903120270146989
 30
0.0
 10
-47.62500000000004
 20
3.493676747367665
 30
0.0
 10
-47.62500000000004
 20
2.541759961449543
 30
0.0
 10
-47.62500000000004
 20
2.000111284723385
 30
0.0
 10
-47.62500000000004
 20
1.431837596774667
 30
0.0
1001
PE_URL
1000

  0
SPLINE
  5
29C
330
1F
100
AcDbEntity
  8
0
  6
Continuous
 62
     1
370
    15
100
AcDbSpline
210
0.0
220
0.0
230
1.0
 70
    24
 71
     3
 72
     8
 73
     4
 74
     0
 42
0.000000001
 43
0.00000001
 40
0.0
 40
0.0
 40
0.0
 40
0.0
 40
1.0
 40
1.0
 40
1.0
 40
1.0
 10
-44.36380891720997
 20
-2.61681992370438
 30
0.0
 10
-44.18696282267845
 20
-2.468428431007833
 30
0.0
 10
-44.00006835586967
 20
-2.311605352839845
 30
0.0
 10
-43.80493142987552
 20
-2.147866030209094
 30
0.0
1001
PE_URL
1000

  0
SPLINE
  5
29D
330
1F
100
AcDbEntity
  8
0
  6
Continuous
 62
     1
370
    15
100
AcDbSpline
210
0.0
220
0.0
230
1.0
 70
     8
 71
     3
 72
     9
 73
     5
 74
     0
 42
0.000000001
 43
0.00000001
 40
0.0
 40
0.0
 40
0.0
 40
0.0
 40
0.9484736369457623
 40
1.0
 40
1.0
 40
1.0
 40
1.0
 10
-47.62500000000005
 20
-3.750468749999957
 30
0.0
 10
-46.99506442288623
 20
-3.748637862764216
 30
0.0
 10
-46.33090724173113
 20
-3.746707511551044
 30
0.0
 10
-45.6667772455965
 20
-3.664792124555227
 30
0.0
 10
-45.63255704230047
 20
-3.660571322585152
 30
0.0
1001
PE_URL
1000

  0
SPLINE
  5
29E
330
1F
100
AcDbEntity
  8
0
  6
Continuous
 62
     1
370
    15
100
AcDbSpline
210
0.0
220
0.0
230
1.0
 70
     8
 71
     3
 72
    10
 73
     6
 74
     0
 42
0.000000001
 43
0.00000001
 40
0.0
 40
0.0
 40
0.0
 40
0.0
 40
0.5
 40
0.5
 40
1.0
 40
1.0
 40
1.0
 40
1.0
 10
-47.62500000000005
 20
-3.75046874999996
 30
0.0
 10
-47.07386344998451
 20
-3.600966117584839
 30
0.0
 10
-46.52608896463877
 20
-3.43318183452007
 30
0.0
 10
-45.43789426814116
 20
-3.057623474975504
 30
0.0
 10
-44.89741770015076
 20
-2.85040005434135
 30
0.0
 10
-44.3638089172203
 20
-2.61681992370919
 30
0.0
1001
PE_URL
1000

  0
SPLINE
  5
29F
330
1F
100
AcDbEntity
  8
0
  6
Continuous
 62
     1
370
    15
100
AcDbSpline
210
0.0
220
0.0
230
1.0
 70
     8
 71
     3
 72
    12
 73
     8
 74
     0
 42
0.000000001
 43
0.00000001
 40
0.0
 40
0.0
 40
0.0
 40
0.0
 40
0.2014970393622087
 40
0.4048460431708608
 40
0.6082265817559521
 40
0.8040879994552965
 40
1.0
 40
1.0
 40
1.0
 40
1.0
 10
-36.27505322658865
 20
4.028973326616462
 30
0.0
 10
-35.65127463865659
 20
4.111612456552818
 30
0.0
 10
-34.3979842978241
 20
4.277650254784062
 30
0.0
 10
-32.51505857263216
 20
4.307202419822257
 30
0.0
 10
-30.64953972998965
 20
4.170305198718937
 30
0.0
 10
-28.80700021652833
 20
3.876732206001792
 30
0.0
 10
-27.59405227442308
 20
3.561854850266549
 30
0.0
 10
-26.98750000000003
 20
3.404395845097673
 30
0.0
1001
PE_URL
1000

  0
SPLINE
  5
2A0
330
1F
100
AcDbEntity
  8
외형선
  6
Continuous
370
    15
100
AcDbSpline
210
0.0
220
0.0
230
1.0
 70
    24
 71
     3
 72
    14
 73
    10
 74
     0
 42
0.000000001
 43
0.00000001
 40
0.0
 40
0.0
 40
0.0
 40
0.0
 40
0.25
 40
0.25
 40
0.5
 40
0.5
 40
0.75
 40
0.75
 40
1.0
 40
1.0
 40
1.0
 40
1.0
 10
-26.98750000000002
 20
-2.278703618654099
 30
0.0
 10
-26.98750000000002
 20
-1.848982315228
 30
0.0
 10
-26.98750000000002
 20
-1.380762526710509
 30
0.0
 10
-26.98750000000002
 20
-0.4030355687127916
 30
0.0
 10
-26.98750000000001
 20
0.1060765754192765
 30
0.0
 10
-26.98750000000001
 20
1.116127200194232
 30
0.0
 10
-26.98750000000001
 20
1.616527483635821
 30
0.0
 10
-26.98750000000001
 20
2.561059437544312
 30
0.0
 10
-26.98750000000001
 20
3.004842706837419
 30
0.0
 10
-26.98750000000001
 20
3.404395845097664
 30
0.0
  0
LINE
  5
2A1
330
1F
100
AcDbEntity
  8
0
  6
Continuous
 62
     1
370
    15
100
AcDbLine
 10
-47.62500000000004
 20
0.0000000000000391
 30
0.0
 11
-47.62500000000005
 21
-3.75046874999996
 31
0.0
1001
PE_URL
1000

  0
SPLINE
  5
2A2
330
1F
100
AcDbEntity
  8
외형선
  6
Continuous
370
    15
100
AcDbSpline
210
0.0
220
0.0
230
1.0
 70
    24
 71
     3
 72
    11
 73
     7
 74
     0
 42
0.000000001
 43
0.00000001
 40
0.0
 40
0.0
 40
0.0
 40
0.0
 40
0.2103497383480975
 40
0.4234466994542823
 40
0.7326260479011417
 40
0.9999999999999999
 40
0.9999999999999999
 40
0.9999999999999999
 40
0.9999999999999999
 10
-26.98750000000004
 20
3.404395845097675
 30
0.0
 10
-26.98750000000004
 20
3.511921392726233
 30
0.0
 10
-26.98750000000004
 20
3.728376799839596
 30
0.0
 10
-26.98750000000004
 20
3.999897283248909
 30
0.0
 10
-26.98750000000003
 20
4.201464889561146
 30
0.0
 10
-26.98750000000003
 20
4.216111024302338
 30
0.0
 10
-26.98750000000003
 20
4.222903102198725
 30
0.0
  0
SPLINE
  5
2A3
330
1F
100
AcDbEntity
  8
0
  6
Continuous
 62
     1
370
    15
100
AcDbSpline
210
0.0
220
0.0
230
1.0
 70
    24
 71
     3
 72
    10
 73
     6
 74
     0
 42
0.000000001
 43
0.00000001
 40
0.0
 40
0.0
 40
0.0
 40
0.0
 40
0.5
 40
0.5
 40
1.0
 40
1.0
 40
1.0
 40
1.0
 10
-47.62500000000005
 20
-3.750468749999957
 30
0.0
 10
-47.62500000000005
 20
-3.977812825925394
 30
0.0
 10
-47.62500000000005
 20
-4.24200769647706
 30
0.0
 10
-47.62500000000005
 20
-4.796287823335543
 30
0.0
 10
-47.62500000000005
 20
-5.084957517755036
 30
0.0
 10
-47.62500000000005
 20
-5.353284158472537
 30
0.0
1001
PE_URL
1000

  0
SPLINE
  5
2A4
330
1F
100
AcDbEntity
  8
0
  6
Continuous
 62
     1
370
    15
100
AcDbSpline
210
0.0
220
0.0
230
1.0
 70
     8
 71
     3
 72
    17
 73
    13
 74
     0
 42
0.000000001
 43
0.00000001
 40
0.0
 40
0.0
 40
0.0
 40
0.0
 40
0.0031130330160482
 40
0.1083798001289772
 40
0.2175914359316949
 40
0.3270091560731675
 40
0.4370508472066684
 40
0.5473032476906429
 40
0.6599095563605337
 40
0.7727418760287732
 40
0.8862553305249804
 40
1.0
 40
1.0
 40
1.0
 40
1.0
 10
-40.25039966770952
 20
-3.592257567874775
 30
0.0
 10
-40.25805247939517
 20
-3.595766857795823
 30
0.0
 10
-40.5244840259412
 20
-3.71794228551439
 30
0.0
 10
-41.05986697667601
 20
-3.92581403378367
 30
0.0
 10
-41.85505670055569
 20
-4.230217707236996
 30
0.0
 10
-42.66382720388915
 20
-4.499117897590914
 30
0.0
 10
-43.47397008479071
 20
-4.737532539667285
 30
0.0
 10
-44.29205329219695
 20
-4.940922367560955
 30
0.0
 10
-45.11804110432734
 20
-5.106974855977644
 30
0.0
 10
-45.95022362612807
 20
-5.233613622731017
 30
0.0
 10
-46.78702918055391
 20
-5.320680252362024
 30
0.0
 10
-47.3454869997564
 20
-5.342408820805485
 30
0.0
 10
-47.62499999999998
 20
-5.353284158472533
 30
0.0
1001
PE_URL
1000

  0
LINE
  5
2A5
330
1F
100
AcDbEntity
  8
0
  6
Continuous
 62
     1
370
    15
100
AcDbLine
 10
-27.58108042031196
 20
4.212558084260943
 30
0.0
 11
-26.98749999999656
 21
4.431491423466863
 31
0.0
1001
PE_URL
1000

  0
SPLINE
  5
2A6
330
1F
100
AcDbEntity
  8
외형선
  6
Continuous
370
    15
100
AcDbSpline
210
0.0
220
0.0
230
1.0
 70
    24
 71
     3
 72
     9
 73
     5
 74
     0
 42
0.000000001
 43
0.00000001
 40
0.0
 40
0.0
 40
0.0
 40
0.0
 40
0.4727530970956431
 40
1.0
 40
1.0
 40
1.0
 40
1.0
 10
-26.98750000000004
 20
4.298351600869022
 30
0.0
 10
-26.98750000000004
 20
4.320016820610887
 30
0.0
 10
-26.98750000000004
 20
4.365844589640778
 30
0.0
 10
-26.98750000000004
 20
4.408828362395017
 30
0.0
 10
-26.98750000000004
 20
4.431491423454835
 30
0.0
  0
LINE
  5
2A7
330
1F
100
AcDbEntity
  8
외형선
  6
Continuous
370
    15
100
AcDbLine
 10
-24.9574035394506
 20
-5.633826014730388
 30
0.0
 11
-22.28460583936532
 21
-6.350000000000005
 31
0.0
  0
LINE
  5
2A8
330
1F
100
AcDbEntity
  8
외형선
  6
Continuous
370
    15
100
AcDbLine
 10
-22.28460583936532
 20
-6.350000000000005
 30
0.0
 11
-22.2846058393653
 21
6.349999999999989
 31
0.0
  0
LINE
  5
2A9
330
1F
100
AcDbEntity
  8
외형선
  6
Continuous
370
    15
100
AcDbLine
 10
-7.111999999999941
 20
6.349999999999993
 30
0.0
 11
-22.2846058393653
 21
6.349999999999992
 31
0.0
  0
ENDSEC
  0
SECTION
  2
OBJECTS
  0
DICTIONARY
  5
C
330
0
100
AcDbDictionary
281
     1
  3
ACAD_DETAILVIEWSTYLE
350
1DC
  3
ACAD_GROUP
350
D
  3
ACAD_IMAGE_VARS
350
2CE
  3
ACAD_LAYOUT
350
1A
  3
ACAD_MLINESTYLE
350
17
  3
ACAD_PLOTSETTINGS
350
19
  3
ACAD_PLOTSTYLENAME
350
E
  3
ACAD_SCALELIST
350
47
  3
ACAD_SECTIONVIEWSTYLE
350
1DD
  3
AcDbVariableDictionary
350
1D7
  3
APPDATA
350
158
  3
DWGPROPS
350
2CF
  0
DICTIONARY
  5
18D
330
2
100
AcDbDictionary
280
     1
281
     1
  3
ACAD_LAYERSTATES
360
18E
  0
DICTIONARY
  5
1DC
102
{ACAD_REACTORS
330
C
102
}
330
C
100
AcDbDictionary
281
     1
  0
DICTIONARY
  5
D
102
{ACAD_REACTORS
330
C
102
}
330
C
100
AcDbDictionary
281
     1
  0
RASTERVARIABLES
  5
2CE
102
{ACAD_REACTORS
330
C
102
}
330
C
100
AcDbRasterVariables
 90
        0
 70
     1
 71
     1
 72
     1
  0
DICTIONARY
  5
1A
102
{ACAD_REACTORS
330
C
102
}
330
C
100
AcDbDictionary
281
     1
  3
Layout1
350
1E
  3
Layout2
350
26
  3
Model
350
22
  0
DICTIONARY
  5
17
102
{ACAD_REACTORS
330
C
102
}
330
C
100
AcDbDictionary
281
     1
  3
Standard
350
18
  0
DICTIONARY
  5
19
102
{ACAD_REACTORS
330
C
102
}
330
C
100
AcDbDictionary
281
     1
  0
ACDBDICTIONARYWDFLT
  5
E
102
{ACAD_REACTORS
330
C
102
}
330
C
100
AcDbDictionary
281
     1
  3
Normal
350
F
100
AcDbDictionaryWithDefault
340
F
  0
DICTIONARY
  5
47
102
{ACAD_REACTORS
330
C
102
}
330
C
100
AcDbDictionary
281
     1
  3
A0
350
48
  3
A1
350
49
  3
A2
350
4A
  3
A3
350
4B
  3
A4
350
4C
  3
A5
350
4D
  3
A6
350
4E
  3
A7
350
4F
  3
A8
350
50
  3
A9
350
51
  3
B0
350
52
  3
B1
350
53
  3
B2
350
54
  3
B3
350
55
  3
B4
350
56
  3
B5
350
57
  3
B6
350
58
  3
B7
350
59
  3
B8
350
5A
  3
B9
350
5B
  3
C0
350
5C
  3
C1
350
5D
  3
C2
350
5E
  3
C3
350
5F
  3
C4
350
60
  3
C5
350
61
  3
C6
350
62
  3
C7
350
63
  3
C8
350
64
  3
C9
350
65
  3
D0
350
66
  3
D1
350
67
  3
D2
350
68
  0
DICTIONARY
  5
1DD
102
{ACAD_REACTORS
330
C
102
}
330
C
100
AcDbDictionary
281
     1
  0
DICTIONARY
  5
1D7
102
{ACAD_REACTORS
330
C
102
}
330
C
100
AcDbDictionary
281
     1
  0
DICTIONARY
  5
158
102
{ACAD_REACTORS
330
C
102
}
330
C
100
AcDbDictionary
281
     1
  0
XRECORD
  5
2CF
102
{ACAD_REACTORS
330
C
102
}
330
C
100
AcDbXrecord
280
     1
  1
DWGPROPS COOKIE
  2

  3

  4

  6

  7

  8
12016016
  9

300
=
301
=
302
=
303
=
304
=
305
=
306
=
307
=
308
=
309
=
 40
0.0
 41
2458313.022794352
 42
2458330.401231435
  1

 90
        0
  0
DICTIONARY
  5
18E
102
{ACAD_REACTORS
330
18D
102
}
330
18D
100
AcDbDictionary
281
     1
  0
LAYOUT
  5
1E
102
{ACAD_REACTORS
330
1A
102
}
330
1A
100
AcDbPlotSettings
  1

  2
none_device
  4

  6

 40
0.0
 41
0.0
 42
0.0
 43
0.0
 44
0.0
 45
0.0
 46
0.0
 47
0.0
 48
0.0
 49
0.0
140
0.0
141
0.0
142
1.0
143
1.0
 70
   688
 72
     1
 73
     0
 74
     5
  7

 75
    16
147
1.0
148
0.0
149
0.0
100
AcDbLayout
  1
Layout1
 70
     1
 71
     1
 10
0.0
 20
0.0
 11
420.0
 21
297.0
 12
0.0
 22
0.0
 32
0.0
 14
1.000000000000000E+20
 24
1.000000000000000E+20
 34
1.000000000000000E+20
 15
-1.000000000000000E+20
 25
-1.000000000000000E+20
 35
-1.000000000000000E+20
146
0.0
 13
0.0
 23
0.0
 33
0.0
 16
1.0
 26
0.0
 36
0.0
 17
0.0
 27
1.0
 37
0.0
 76
     0
330
1B
  0
LAYOUT
  5
26
102
{ACAD_REACTORS
330
1A
102
}
330
1A
100
AcDbPlotSettings
  1

  2
none_device
  4

  6

 40
0.0
 41
0.0
 42
0.0
 43
0.0
 44
0.0
 45
0.0
 46
0.0
 47
0.0
 48
0.0
 49
0.0
140
0.0
141
0.0
142
1.0
143
1.0
 70
   688
 72
     1
 73
     0
 74
     5
  7

 75
    16
147
1.0
148
0.0
149
0.0
100
AcDbLayout
  1
Layout2
 70
     1
 71
     2
 10
0.0
 20
0.0
 11
0.0
 21
0.0
 12
0.0
 22
0.0
 32
0.0
 14
0.0
 24
0.0
 34
0.0
 15
0.0
 25
0.0
 35
0.0
146
0.0
 13
0.0
 23
0.0
 33
0.0
 16
1.0
 26
0.0
 36
0.0
 17
0.0
 27
1.0
 37
0.0
 76
     0
330
23
  0
LAYOUT
  5
22
102
{ACAD_REACTORS
330
1A
102
}
330
1A
100
AcDbPlotSettings
  1

  2
none_device
  4
ANSI_A_(11.00_x_8.50_Inches)
  6

 40
6.35
 41
19.05
 42
6.35000508
 43
19.05000254
 44
279.4
 45
215.9
 46
69.6453324306941
 47
48.7922472876367
 48
0.0
 49
0.0
140
0.0
141
0.0
142
0.0335920848724483
143
1.0
 70
  1696
 72
     0
 73
     0
 74
     0
  7

 75
     0
147
0.0235690232323232
148
0.0
149
0.0
100
AcDbLayout
  1
Model
 70
     1
 71
     0
 10
0.0
 20
0.0
 11
420.0
 21
297.0
 12
0.0
 22
0.0
 32
0.0
 14
-62.00000000000009
 24
-49.97180738881174
 34
0.0
 15
97.79412503295505
 25
43.89478415847273
 35
0.0
146
0.0
 13
0.0
 23
0.0
 33
0.0
 16
1.0
 26
0.0
 36
0.0
 17
0.0
 27
1.0
 37
0.0
 76
     0
330
1F
331
29
  0
MLINESTYLE
  5
18
102
{ACAD_REACTORS
330
17
102
}
330
17
100
AcDbMlineStyle
  2
Standard
 70
     0
  3

 62
   256
 51
90.0
 52
90.0
 71
     2
 49
0.5
 62
   256
  6
BYLAYER
 49
-0.5
 62
   256
  6
BYLAYER
  0
ACDBPLACEHOLDER
  5
F
102
{ACAD_REACTORS
330
E
102
}
330
E
  0
SCALE
  5
48
102
{ACAD_REACTORS
330
47
102
}
330
47
100
AcDbScale
 70
     0
300
1:1
140
1.0
141
1.0
290
     1
  0
SCALE
  5
49
102
{ACAD_REACTORS
330
47
102
}
330
47
100
AcDbScale
 70
     0
300
1:2
140
1.0
141
2.0
290
     0
  0
SCALE
  5
4A
102
{ACAD_REACTORS
330
47
102
}
330
47
100
AcDbScale
 70
     0
300
1:4
140
1.0
141
4.0
290
     0
  0
SCALE
  5
4B
102
{ACAD_REACTORS
330
47
102
}
330
47
100
AcDbScale
 70
     0
300
1:5
140
1.0
141
5.0
290
     0
  0
SCALE
  5
4C
102
{ACAD_REACTORS
330
47
102
}
330
47
100
AcDbScale
 70
     0
300
1:8
140
1.0
141
8.0
290
     0
  0
SCALE
  5
4D
102
{ACAD_REACTORS
330
47
102
}
330
47
100
AcDbScale
 70
     0
300
1:10
140
1.0
141
10.0
290
     0
  0
SCALE
  5
4E
102
{ACAD_REACTORS
330
47
102
}
330
47
100
AcDbScale
 70
     0
300
1:16
140
1.0
141
16.0
290
     0
  0
SCALE
  5
4F
102
{ACAD_REACTORS
330
47
102
}
330
47
100
AcDbScale
 70
     0
300
1:20
140
1.0
141
20.0
290
     0
  0
SCALE
  5
50
102
{ACAD_REACTORS
330
47
102
}
330
47
100
AcDbScale
 70
     0
300
1:30
140
1.0
141
30.0
290
     0
  0
SCALE
  5
51
102
{ACAD_REACTORS
330
47
102
}
330
47
100
AcDbScale
 70
     0
300
1:40
140
1.0
141
40.0
290
     0
  0
SCALE
  5
52
102
{ACAD_REACTORS
330
47
102
}
330
47
100
AcDbScale
 70
     0
300
1:50
140
1.0
141
50.0
290
     0
  0
SCALE
  5
53
102
{ACAD_REACTORS
330
47
102
}
330
47
100
AcDbScale
 70
     0
300
1:100
140
1.0
141
100.0
290
     0
  0
SCALE
  5
54
102
{ACAD_REACTORS
330
47
102
}
330
47
100
AcDbScale
 70
     0
300
2:1
140
2.0
141
1.0
290
     0
  0
SCALE
  5
55
102
{ACAD_REACTORS
330
47
102
}
330
47
100
AcDbScale
 70
     0
300
4:1
140
4.0
141
1.0
290
     0
  0
SCALE
  5
56
102
{ACAD_REACTORS
330
47
102
}
330
47
100
AcDbScale
 70
     0
300
8:1
140
8.0
141
1.0
290
     0
  0
SCALE
  5
57
102
{ACAD_REACTORS
330
47
102
}
330
47
100
AcDbScale
 70
     0
300
10:1
140
10.0
141
1.0
290
     0
  0
SCALE
  5
58
102
{ACAD_REACTORS
330
47
102
}
330
47
100
AcDbScale
 70
     0
300
100:1
140
100.0
141
1.0
290
     0
  0
SCALE
  5
59
102
{ACAD_REACTORS
330
47
102
}
330
47
100
AcDbScale
 70
     0
300
1/128" = 1'-0"
140
0.0078125
141
12.0
290
     0
  0
SCALE
  5
5A
102
{ACAD_REACTORS
330
47
102
}
330
47
100
AcDbScale
 70
     0
300
1/64" = 1'-0"
140
0.015625
141
12.0
290
     0
  0
SCALE
  5
5B
102
{ACAD_REACTORS
330
47
102
}
330
47
100
AcDbScale
 70
     0
300
1/32" = 1'-0"
140
0.03125
141
12.0
290
     0
  0
SCALE
  5
5C
102
{ACAD_REACTORS
330
47
102
}
330
47
100
AcDbScale
 70
     0
300
1/16" = 1'-0"
140
0.0625
141
12.0
290
     0
  0
SCALE
  5
5D
102
{ACAD_REACTORS
330
47
102
}
330
47
100
AcDbScale
 70
     0
300
3/32" = 1'-0"
140
0.09375
141
12.0
290
     0
  0
SCALE
  5
5E
102
{ACAD_REACTORS
330
47
102
}
330
47
100
AcDbScale
 70
     0
300
1/8" = 1'-0"
140
0.125
141
12.0
290
     0
  0
SCALE
  5
5F
102
{ACAD_REACTORS
330
47
102
}
330
47
100
AcDbScale
 70
     0
300
3/16" = 1'-0"
140
0.1875
141
12.0
290
     0
  0
SCALE
  5
60
102
{ACAD_REACTORS
330
47
102
}
330
47
100
AcDbScale
 70
     0
300
1/4" = 1'-0"
140
0.25
141
12.0
290
     0
  0
SCALE
  5
61
102
{ACAD_REACTORS
330
47
102
}
330
47
100
AcDbScale
 70
     0
300
3/8" = 1'-0"
140
0.375
141
12.0
290
     0
  0
SCALE
  5
62
102
{ACAD_REACTORS
330
47
102
}
330
47
100
AcDbScale
 70
     0
300
1/2" = 1'-0"
140
0.5
141
12.0
290
     0
  0
SCALE
  5
63
102
{ACAD_REACTORS
330
47
102
}
330
47
100
AcDbScale
 70
     0
300
3/4" = 1'-0"
140
0.75
141
12.0
290
     0
  0
SCALE
  5
64
102
{ACAD_REACTORS
330
47
102
}
330
47
100
AcDbScale
 70
     0
300
1" = 1'-0"
140
1.0
141
12.0
290
     0
  0
SCALE
  5
65
102
{ACAD_REACTORS
330
47
102
}
330
47
100
AcDbScale
 70
     0
300
1-1/2" = 1'-0"
140
1.5
141
12.0
290
     0
  0
SCALE
  5
66
102
{ACAD_REACTORS
330
47
102
}
330
47
100
AcDbScale
 70
     0
300
3" = 1'-0"
140
3.0
141
12.0
290
     0
  0
SCALE
  5
67
102
{ACAD_REACTORS
330
47
102
}
330
47
100
AcDbScale
 70
     0
300
6" = 1'-0"
140
6.0
141
12.0
290
     0
  0
SCALE
  5
68
102
{ACAD_REACTORS
330
47
102
}
330
47
100
AcDbScale
 70
     0
300
1'-0" = 1'-0"
140
12.0
141
12.0
290
     0
  0
ENDSEC
  0
EOF
