  0
SECTION
  2
HEADER
  9
$ACADVER
  1
AC1015
  9
$ACADMAINTVER
 70
     6
  9
$DWGCODEPAGE
  3
ANSI_949
  9
$INSBASE
 10
0.0
 20
0.0
 30
0.0
  9
$EXTMIN
 10
-62.00000000000009
 20
-49.97180738881174
 30
0.0
  9
$EXTMAX
 10
97.79412503295504
 20
39.71805394211978
 30
0.0
  9
$LIMMIN
 10
0.0
 20
0.0
  9
$LIMMAX
 10
420.0
 20
297.0
  9
$ORTHOMODE
 70
     1
  9
$REGENMODE
 70
     1
  9
$FILLMODE
 70
     1
  9
$QTEXTMODE
 70
     0
  9
$MIRRTEXT
 70
     1
  9
$LTSCALE
 40
1.0
  9
$ATTMODE
 70
     1
  9
$TEXTSIZE
 40
3.5
  9
$TRACEWID
 40
1.0
  9
$TEXTSTYLE
  7
Standard
  9
$CLAYER
  8
0
  9
$CELTYPE
  6
ByLayer
  9
$CECOLOR
 62
   256
  9
$CELTSCALE
 40
1.0
  9
$DISPSILH
 70
     0
  9
$DIMSCALE
 40
1.0
  9
$DIMASZ
 40
3.302
  9
$DIMEXO
 40
1.0
  9
$DIMDLI
 40
3.75
  9
$DIMRND
 40
0.0
  9
$DIMDLE
 40
0.0
  9
$DIMEXE
 40
1.0
  9
$DIMTP
 40
0.0
  9
$DIMTM
 40
0.0
  9
$DIMTXT
 40
3.5
  9
$DIMCEN
 40
2.5
  9
$DIMTSZ
 40
0.0
  9
$DIMTOL
 70
     0
  9
$DIMLIM
 70
     0
  9
$DIMTIH
 70
     1
  9
$DIMTOH
 70
     1
  9
$DIMSE1
 70
     0
  9
$DIMSE2
 70
     0
  9
$DIMTAD
 70
     1
  9
$DIMZIN
 70
     0
  9
$DIMBLK
  1

  9
$DIMASO
 70
     1
  9
$DIMSHO
 70
     1
  9
$DIMPOST
  1

  9
$DIMAPOST
  1

  9
$DIMALT
 70
     0
  9
$DIMALTD
 70
     3
  9
$DIMALTF
 40
0.0393700787401575
  9
$DIMLFAC
 40
1.0
  9
$DIMTOFL
 70
     1
  9
$DIMTVP
 40
0.0
  9
$DIMTIX
 70
     0
  9
$DIMSOXD
 70
     0
  9
$DIMSAH
 70
     0
  9
$DIMBLK1
  1

  9
$DIMBLK2
  1

  9
$DIMSTYLE
  2
ISO-25
  9
$DIMCLRD
 70
     0
  9
$DIMCLRE
 70
     0
  9
$DIMCLRT
 70
     0
  9
$DIMTFAC
 40
1.0
  9
$DIMGAP
 40
1.524
  9
$DIMJUST
 70
     0
  9
$DIMSD1
 70
     0
  9
$DIMSD2
 70
     0
  9
$DIMTOLJ
 70
     0
  9
$DIMTZIN
 70
     0
  9
$DIMALTZ
 70
     0
  9
$DIMALTTZ
 70
     0
  9
$DIMUPT
 70
     0
  9
$DIMDEC
 70
     2
  9
$DIMTDEC
 70
     2
  9
$DIMALTU
 70
     2
  9
$DIMALTTD
 70
     3
  9
$DIMTXSTY
  7
Standard
  9
$DIMAUNIT
 70
     0
  9
$DIMADEC
 70
     2
  9
$DIMALTRND
 40
0.0
  9
$DIMAZIN
 70
     0
  9
$DIMDSEP
 70
    44
  9
$DIMATFIT
 70
     3
  9
$DIMFRAC
 70
     0
  9
$DIMLDRBLK
  1

  9
$DIMLUNIT
 70
     2
  9
$DIMLWD
 70
    -2
  9
$DIMLWE
 70
    -2
  9
$DIMTMOVE
 70
     0
  9
$LUNITS
 70
     2
  9
$LUPREC
 70
     2
  9
$SKETCHINC
 40
1.0
  9
$FILLETRAD
 40
10.0
  9
$AUNITS
 70
     0
  9
$AUPREC
 70
     2
  9
$MENU
  1
.
  9
$ELEVATION
 40
0.0
  9
$PELEVATION
 40
0.0
  9
$THICKNESS
 40
0.0
  9
$LIMCHECK
 70
     0
  9
$CHAMFERA
 40
0.0
  9
$CHAMFERB
 40
0.0
  9
$CHAMFERC
 40
0.0
  9
$CHAMFERD
 40
0.0
  9
$SKPOLY
 70
     0
  9
$TDCREATE
 40
2458313.398006146
  9
$TDUCREATE
 40
2458313.023006146
  9
$TDUPDATE
 40
2458330.776184421
  9
$TDUUPDATE
 40
2458330.401184421
  9
$TDINDWG
 40
0.0024478704
  9
$TDUSRTIMER
 40
2458330.40112566
  9
$USRTIMER
 70
     1
  9
$ANGBASE
 50
0.0
  9
$ANGDIR
 70
     0
  9
$PDMODE
 70
     0
  9
$PDSIZE
 40
-1.0
  9
$PLINEWID
 40
0.0
  9
$SPLFRAME
 70
     0
  9
$SPLINETYPE
 70
     6
  9
$SPLINESEGS
 70
     8
  9
$HANDSEED
  5
2CB
  9
$SURFTAB1
 70
     6
  9
$SURFTAB2
 70
     6
  9
$SURFTYPE
 70
     6
  9
$SURFU
 70
     6
  9
$SURFV
 70
     6
  9
$UCSBASE
  2

  9
$UCSNAME
  2

  9
$UCSORG
 10
0.0
 20
0.0
 30
0.0
  9
$UCSXDIR
 10
1.0
 20
0.0
 30
0.0
  9
$UCSYDIR
 10
0.0
 20
1.0
 30
0.0
  9
$UCSORTHOREF
  2

  9
$UCSORTHOVIEW
 70
     0
  9
$UCSORGTOP
 10
0.0
 20
0.0
 30
0.0
  9
$UCSORGBOTTOM
 10
0.0
 20
0.0
 30
0.0
  9
$UCSORGLEFT
 10
0.0
 20
0.0
 30
0.0
  9
$UCSORGRIGHT
 10
0.0
 20
0.0
 30
0.0
  9
$UCSORGFRONT
 10
0.0
 20
0.0
 30
0.0
  9
$UCSORGBACK
 10
0.0
 20
0.0
 30
0.0
  9
$PUCSBASE
  2

  9
$PUCSNAME
  2

  9
$PUCSORG
 10
0.0
 20
0.0
 30
0.0
  9
$PUCSXDIR
 10
1.0
 20
0.0
 30
0.0
  9
$PUCSYDIR
 10
0.0
 20
1.0
 30
0.0
  9
$PUCSORTHOREF
  2

  9
$PUCSORTHOVIEW
 70
     0
  9
$PUCSORGTOP
 10
0.0
 20
0.0
 30
0.0
  9
$PUCSORGBOTTOM
 10
0.0
 20
0.0
 30
0.0
  9
$PUCSORGLEFT
 10
0.0
 20
0.0
 30
0.0
  9
$PUCSORGRIGHT
 10
0.0
 20
0.0
 30
0.0
  9
$PUCSORGFRONT
 10
0.0
 20
0.0
 30
0.0
  9
$PUCSORGBACK
 10
0.0
 20
0.0
 30
0.0
  9
$USERI1
 70
     0
  9
$USERI2
 70
     0
  9
$USERI3
 70
     0
  9
$USERI4
 70
     0
  9
$USERI5
 70
     0
  9
$USERR1
 40
0.0
  9
$USERR2
 40
0.0
  9
$USERR3
 40
0.0
  9
$USERR4
 40
0.0
  9
$USERR5
 40
0.0
  9
$WORLDVIEW
 70
     1
  9
$SHADEDGE
 70
     3
  9
$SHADEDIF
 70
    70
  9
$TILEMODE
 70
     1
  9
$MAXACTVP
 70
    64
  9
$PINSBASE
 10
0.0
 20
0.0
 30
0.0
  9
$PLIMCHECK
 70
     0
  9
$PEXTMIN
 10
1.000000000000000E+20
 20
1.000000000000000E+20
 30
1.000000000000000E+20
  9
$PEXTMAX
 10
-1.000000000000000E+20
 20
-1.000000000000000E+20
 30
-1.000000000000000E+20
  9
$PLIMMIN
 10
0.0
 20
0.0
  9
$PLIMMAX
 10
0.0
 20
0.0
  9
$UNITMODE
 70
     0
  9
$VISRETAIN
 70
     1
  9
$PLINEGEN
 70
     0
  9
$PSLTSCALE
 70
     1
  9
$TREEDEPTH
 70
  3020
  9
$CMLSTYLE
  2
Standard
  9
$CMLJUST
 70
     0
  9
$CMLSCALE
 40
20.0
  9
$PROXYGRAPHICS
 70
     1
  9
$MEASUREMENT
 70
     1
  9
$CELWEIGHT
370
    -1
  9
$ENDCAPS
280
     0
  9
$JOINSTYLE
280
     0
  9
$LWDISPLAY
290
     1
  9
$INSUNITS
 70
     4
  9
$HYPERLINKBASE
  1

  9
$STYLESHEET
  1

  9
$XEDIT
290
     1
  9
$CEPSNTYPE
380
     0
  9
$PSTYLEMODE
290
     1
  9
$FINGERPRINTGUID
  2
{02E34308-D349-47AA-8509-26A27ADCE508}
  9
$VERSIONGUID
  2
{FAEB1C32-E019-11D5-929B-00C0DF256EC4}
  9
$EXTNAMES
290
     1
  9
$PSVPSCALE
 40
0.0
  9
$OLESTARTUP
290
     0
  0
ENDSEC
  0
SECTION
  2
CLASSES
  0
CLASS
  1
ACDBDICTIONARYWDFLT
  2
AcDbDictionaryWithDefault
  3
ObjectDBX Classes
 90
        0
280
     0
281
     0
  0
CLASS
  1
VISUALSTYLE
  2
AcDbVisualStyle
  3
ObjectDBX Classes
 90
     4095
280
     0
281
     0
  0
CLASS
  1
MATERIAL
  2
AcDbMaterial
  3
ObjectDBX Classes
 90
     1153
280
     0
281
     0
  0
CLASS
  1
SCALE
  2
AcDbScale
  3
ObjectDBX Classes
 90
     1153
280
     0
281
     0
  0
CLASS
  1
SUN
  2
AcDbSun
  3
SCENEOE
 90
     1153
280
     0
281
     0
  0
CLASS
  1
ACDBPLACEHOLDER
  2
AcDbPlaceHolder
  3
ObjectDBX Classes
 90
        0
280
     0
281
     0
  0
CLASS
  1
LAYOUT
  2
AcDbLayout
  3
ObjectDBX Classes
 90
        0
280
     0
281
     0
  0
CLASS
  1
TABLESTYLE
  2
AcDbTableStyle
  3
ObjectDBX Classes
 90
     4095
280
     0
281
     0
  0
CLASS
  1
MLEADERSTYLE
  2
AcDbMLeaderStyle
  3
ACDB_MLEADERSTYLE_CLASS
 90
     4095
280
     0
281
     0
  0
CLASS
  1
DICTIONARYVAR
  2
AcDbDictionaryVar
  3
ObjectDBX Classes
 90
        0
280
     0
281
     0
  0
CLASS
  1
RASTERVARIABLES
  2
AcDbRasterVariables
  3
ISM
 90
        0
280
     0
281
     0
  0
ENDSEC
  0
SECTION
  2
TABLES
  0
TABLE
  2
VPORT
  5
8
330
0
100
AcDbSymbolTable
 70
     1
  0
VPORT
  5
29
330
8
100
AcDbSymbolTableRecord
100
AcDbViewportTableRecord
  2
*Active
 70
     0
 10
0.0
 20
0.0
 11
1.0
 21
1.0
 12
17.89706251647748
 22
-5.126876723345937
 13
0.0
 23
0.0
 14
10.0
 24
10.0
 15
10.0
 25
10.0
 16
0.0
 26
0.0
 36
1.0
 17
0.0
 27
0.0
 37
0.0
 40
91.48365855755024
 41
1.782762691853601
 42
50.0
 43
0.0
 44
0.0
 50
0.0
 51
0.0
 71
    16
 72
  2000
 73
     1
 74
     3
 75
     0
 76
     0
 77
     0
 78
     0
281
     0
 65
     1
110
0.0
120
0.0
130
0.0
111
1.0
121
0.0
131
0.0
112
0.0
122
1.0
132
0.0
 79
     0
146
0.0
  0
ENDTAB
  0
TABLE
  2
LTYPE
  5
5
330
0
100
AcDbSymbolTable
 70
     6
  0
LTYPE
  5
14
330
5
100
AcDbSymbolTableRecord
100
AcDbLinetypeTableRecord
  2
ByBlock
 70
     0
  3

 72
    65
 73
     0
 40
0.0
  0
LTYPE
  5
15
330
5
100
AcDbSymbolTableRecord
100
AcDbLinetypeTableRecord
  2
ByLayer
 70
     0
  3

 72
    65
 73
     0
 40
0.0
  0
LTYPE
  5
16
330
5
100
AcDbSymbolTableRecord
100
AcDbLinetypeTableRecord
  2
Continuous
 70
     0
  3
Solid line
 72
    65
 73
     0
 40
0.0
  0
LTYPE
  5
6A
330
5
100
AcDbSymbolTableRecord
100
AcDbLinetypeTableRecord
  2
HIDDEN
 70
     0
  3
Hidden __ __ __ __ __ __ __ __ __ __ __ __ __ __
 72
    65
 73
     2
 40
1.905
 49
1.27
 74
     0
 49
-0.635
 74
     0
  0
LTYPE
  5
6B
330
5
100
AcDbSymbolTableRecord
100
AcDbLinetypeTableRecord
  2
PHANTOM
 70
     0
  3
Phantom ______  __  __  ______  __  __  ______
 72
    65
 73
     6
 40
12.7
 49
6.35
 74
     0
 49
-1.27
 74
     0
 49
1.27
 74
     0
 49
-1.27
 74
     0
 49
1.27
 74
     0
 49
-1.27
 74
     0
  0
LTYPE
  5
6C
330
5
100
AcDbSymbolTableRecord
100
AcDbLinetypeTableRecord
  2
CENTER
 70
     0
  3
Center ____ _ ____ _ ____ _ ____ _ ____ _ ____
 72
    65
 73
     4
 40
10.16
 49
6.35
 74
     0
 49
-1.27
 74
     0
 49
1.27
 74
     0
 49
-1.27
 74
     0
  0
LTYPE
  5
6D
330
5
100
AcDbSymbolTableRecord
100
AcDbLinetypeTableRecord
  2
CENTERX2
 70
     0
  3
Center (2x) ________  __  ________  __  _____
 72
    65
 73
     4
 40
20.32
 49
12.7
 74
     0
 49
-2.54
 74
     0
 49
2.54
 74
     0
 49
-2.54
 74
     0
  0
LTYPE
  5
6E
330
5
100
AcDbSymbolTableRecord
100
AcDbLinetypeTableRecord
  2
DOT2
 70
     0
  3
Dot (.5x) ........................................
 72
    65
 73
     2
 40
0.635
 49
0.0
 74
     0
 49
-0.635
 74
     0
  0
ENDTAB
  0
TABLE
  2
LAYER
  5
2
102
{ACAD_XDICTIONARY
360
18C
102
}
330
0
100
AcDbSymbolTable
 70
    18
  0
LAYER
  5
10
330
2
100
AcDbSymbolTableRecord
100
AcDbLayerTableRecord
  2
0
 70
     0
 62
     7
  6
Continuous
370
    -3
390
F
  0
LAYER
  5
6F
330
2
100
AcDbSymbolTableRecord
100
AcDbLayerTableRecord
  2
FORMAT
 70
     0
 62
     2
  6
Continuous
370
    -3
390
F
  0
LAYER
  5
70
330
2
100
AcDbSymbolTableRecord
100
AcDbLayerTableRecord
  2
외형선
 70
     0
 62
     4
  6
Continuous
370
    30
390
F
  0
LAYER
  5
71
330
2
100
AcDbSymbolTableRecord
100
AcDbLayerTableRecord
  2
숨은선
 70
     0
 62
     2
  6
HIDDEN
370
    15
390
F
  0
LAYER
  5
72
330
2
100
AcDbSymbolTableRecord
100
AcDbLayerTableRecord
  2
중심선
 70
     0
 62
     1
  6
CENTERX2
370
    -3
390
F
  0
LAYER
  5
73
330
2
100
AcDbSymbolTableRecord
100
AcDbLayerTableRecord
  2
파단선
 70
     0
 62
     4
  6
Continuous
370
    -3
390
F
  0
LAYER
  5
74
330
2
100
AcDbSymbolTableRecord
100
AcDbLayerTableRecord
  2
해칭선
 70
     0
 62
   100
  6
Continuous
370
    -3
390
F
  0
LAYER
  5
75
330
2
100
AcDbSymbolTableRecord
100
AcDbLayerTableRecord
  2
가는실선
 70
     0
 62
     4
  6
Continuous
370
    -3
390
F
  0
LAYER
  5
76
330
2
100
AcDbSymbolTableRecord
100
AcDbLayerTableRecord
  2
치수_보조선
 70
     0
 62
     4
  6
Continuous
370
    -3
390
F
  0
LAYER
  5
77
330
2
100
AcDbSymbolTableRecord
100
AcDbLayerTableRecord
  2
치수문자_일반주서
 70
     0
 62
     7
  6
Continuous
370
    15
390
F
  0
LAYER
  5
78
330
2
100
AcDbSymbolTableRecord
100
AcDbLayerTableRecord
  2
개별주서
 70
     0
 62
   100
  6
Continuous
370
    30
390
F
  0
LAYER
  5
79
330
2
100
AcDbSymbolTableRecord
100
AcDbLayerTableRecord
  2
중간선
 70
     0
 62
     2
  6
Continuous
370
    15
390
F
  0
LAYER
  5
7A
330
2
100
AcDbSymbolTableRecord
100
AcDbLayerTableRecord
  2
윤곽선
 70
     0
 62
     3
  6
Continuous
370
    40
390
F
  0
LAYER
  5
7B
330
2
100
AcDbSymbolTableRecord
100
AcDbLayerTableRecord
  2
중심마크
 70
     0
 62
   100
  6
Continuous
370
    30
390
F
  0
LAYER
  5
7C
330
2
100
AcDbSymbolTableRecord
100
AcDbLayerTableRecord
  2
가상선
 70
     0
 62
     4
  6
PHANTOM
370
    -3
390
F
  0
LAYER
  5
7D
330
2
100
AcDbSymbolTableRecord
100
AcDbLayerTableRecord
  2
특수지정선
 70
     0
 62
     5
  6
CENTERX2
370
    60
390
F
  0
LAYER
  5
7E
330
2
100
AcDbSymbolTableRecord
100
AcDbLayerTableRecord
  2
참조1
 70
     0
 62
    -4
  6
Continuous
370
    -3
390
F
  0
LAYER
  5
159
330
2
100
AcDbSymbolTableRecord
100
AcDbLayerTableRecord
  2
Defpoints
 70
     0
 62
     7
  6
Continuous
290
     0
370
    -3
390
F
  0
ENDTAB
  0
TABLE
  2
STYLE
  5
3
330
0
100
AcDbSymbolTable
 70
     2
  0
STYLE
  5
11
330
3
100
AcDbSymbolTableRecord
100
AcDbTextStyleTableRecord
  2
Standard
 70
     0
 40
0.0
 41
1.0
 50
0.0
 71
     0
 42
3.5
  3
txt
  4

  0
STYLE
  5
94
330
3
100
AcDbSymbolTableRecord
100
AcDbTextStyleTableRecord
  2
SLDTEXTSTYLE0
 70
     0
 40
0.0
 41
0.75
 50
0.0
 71
     0
 42
3.5
  3
TXT
  4

  0
ENDTAB
  0
TABLE
  2
VIEW
  5
6
330
0
100
AcDbSymbolTable
 70
     0
  0
ENDTAB
  0
TABLE
  2
UCS
  5
7
330
0
100
AcDbSymbolTable
 70
     0
  0
ENDTAB
  0
TABLE
  2
APPID
  5
9
330
0
100
AcDbSymbolTable
 70
     2
  0
APPID
  5
12
330
9
100
AcDbSymbolTableRecord
100
AcDbRegAppTableRecord
  2
ACAD
 70
     0
  0
APPID
  5
1E5
330
9
100
AcDbSymbolTableRecord
100
AcDbRegAppTableRecord
  2
PE_URL
 70
     0
  0
ENDTAB
  0
TABLE
  2
DIMSTYLE
  5
A
330
0
100
AcDbSymbolTable
 70
     4
100
AcDbDimStyleTable
  0
DIMSTYLE
105
27
330
A
100
AcDbSymbolTableRecord
100
AcDbDimStyleTableRecord
  2
ISO-25
 70
     0
 41
2.5
 42
0.625
 43
3.75
 44
1.25
 73
     0
 74
     0
 77
     1
 78
     8
140
2.5
141
2.5
143
0.03937007874016
147
0.625
171
     3
172
     1
178
     0
271
     2
272
     2
274
     3
278
    44
283
     0
284
     8
340
11
  0
DIMSTYLE
105
D8
102
{ACAD_REACTORS
330
D7
330
EC
330
100
330
115
102
}
330
A
100
AcDbSymbolTableRecord
100
AcDbDimStyleTableRecord
  2
SLDDIMSTYLE0
 70
     0
 41
3.302
 44
0.0
 45
0.000000001
 73
     0
 74
     0
 77
     1
 78
     4
 79
     1
140
3.5
143
0.0393700787401575
147
0.875
148
0.000000001
170
     1
172
     1
173
     1
178
     0
271
     2
272
     2
276
     2
284
    12
289
     0
340
94
  0
DIMSTYLE
105
ED
330
A
100
AcDbSymbolTableRecord
100
AcDbDimStyleTableRecord
  2
SLDDIMSTYLE1
 70
     0
 41
3.302
 44
0.0
 45
0.000000001
 73
     0
 74
     0
 77
     1
 78
     4
 79
     1
140
3.5
143
0.0393700787401575
147
0.875
148
0.000000001
170
     1
173
     1
178
     0
271
     2
272
     2
276
     2
284
    12
340
94
  0
DIMSTYLE
105
101
330
A
100
AcDbSymbolTableRecord
100
AcDbDimStyleTableRecord
  2
SLDDIMSTYLE2
 70
     0
 41
3.302
 44
0.0
 45
0.000000001
 73
     0
 74
     0
 77
     1
 78
    12
 79
     3
140
3.5
143
0.0393700787401575
147
0.875
148
0.000000001
170
     1
173
     1
178
     0
271
     2
272
     2
276
     2
284
    12
340
94
  0
ENDTAB
  0
TABLE
  2
BLOCK_RECORD
  5
1
330
0
100
AcDbSymbolTable
 70
    11
  0
BLOCK_RECORD
  5
1F
330
1
100
AcDbSymbolTableRecord
100
AcDbBlockTableRecord
  2
*Model_Space
340
22
  0
BLOCK_RECORD
  5
1B
330
1
100
AcDbSymbolTableRecord
100
AcDbBlockTableRecord
  2
*Paper_Space
340
1E
  0
BLOCK_RECORD
  5
23
330
1
100
AcDbSymbolTableRecord
100
AcDbBlockTableRecord
  2
*Paper_Space0
340
26
  0
BLOCK_RECORD
  5
7F
330
1
100
AcDbSymbolTableRecord
100
AcDbBlockTableRecord
  2
블럭10
340
0
102
{BLKREFS
331
D0
102
}
  0
BLOCK_RECORD
  5
D9
330
1
100
AcDbSymbolTableRecord
100
AcDbBlockTableRecord
  2
_D
340
0
  0
BLOCK_RECORD
  5
EE
330
1
100
AcDbSymbolTableRecord
100
AcDbBlockTableRecord
  2
_D_1
340
0
  0
BLOCK_RECORD
  5
102
330
1
100
AcDbSymbolTableRecord
100
AcDbBlockTableRecord
  2
_D_2
340
0
  0
BLOCK_RECORD
  5
116
330
1
100
AcDbSymbolTableRecord
100
AcDbBlockTableRecord
  2
_D_3
340
0
  0
BLOCK_RECORD
  5
12F
330
1
100
AcDbSymbolTableRecord
100
AcDbBlockTableRecord
  2
SW_DOWELSYMBOL_0
340
0
102
{BLKREFS
331
135
102
}
  0
BLOCK_RECORD
  5
190
330
1
100
AcDbSymbolTableRecord
100
AcDbBlockTableRecord
  2
*D7
340
0
  0
BLOCK_RECORD
  5
19F
330
1
100
AcDbSymbolTableRecord
100
AcDbBlockTableRecord
  2
*D8
340
0
  0
BLOCK_RECORD
  5
21A
330
1
100
AcDbSymbolTableRecord
100
AcDbBlockTableRecord
  2
*D9
340
0
  0
BLOCK_RECORD
  5
22F
330
1
100
AcDbSymbolTableRecord
100
AcDbBlockTableRecord
  2
*D10
340
0
  0
ENDTAB
  0
ENDSEC
  0
SECTION
  2
BLOCKS
  0
BLOCK
  5
20
330
1F
100
AcDbEntity
  8
0
100
AcDbBlockBegin
  2
*Model_Space
 70
     0
 10
0.0
 20
0.0
 30
0.0
  3
*Model_Space
  1
*Model_Space
  0
ENDBLK
  5
21
330
1F
100
AcDbEntity
  8
0
100
AcDbBlockEnd
  0
BLOCK
  5
1C
330
1B
100
AcDbEntity
 67
     1
  8
0
100
AcDbBlockBegin
  2
*Paper_Space
 70
     0
 10
0.0
 20
0.0
 30
0.0
  3
*Paper_Space
  1
*Paper_Space
  0
ENDBLK
  5
1D
330
1B
100
AcDbEntity
 67
     1
  8
0
100
AcDbBlockEnd
  0
BLOCK
  5
24
330
23
100
AcDbEntity
  8
0
100
AcDbBlockBegin
  2
*Paper_Space0
 70
     0
 10
0.0
 20
0.0
 30
0.0
  3
*Paper_Space0
  1
*Paper_Space0
  0
ENDBLK
  5
25
330
23
100
AcDbEntity
  8
0
100
AcDbBlockEnd
  0
BLOCK
  5
80
330
7F
100
AcDbEntity
  8
0
100
AcDbBlockBegin
  2
블럭10
 70
     2
 10
0.0
 20
0.0
 30
0.0
  3
블럭10
  1
블럭10
  0
ELLIPSE
  5
82
330
7F
100
AcDbEntity
  8
중심선
100
AcDbEllipse
 10
20.54032771741204
 20
12.0471743016438
 30
0.0
 11
6.600054785286829
 21
-1.261213355974178E-13
 31
0.0
210
0.0
220
0.0
230
1.0
 40
0.636358354079598
 41
0.9219305317359503
 42
6.513795318482858
  0
ELLIPSE
  5
83
330
7F
100
AcDbEntity
  8
중심선
100
AcDbEllipse
 10
20.54032771746488
 20
12.04717430159265
 30
0.0
 11
3.960054785062283
 21
1.540847449632565E-10
 31
0.0
210
0.0
220
0.0
230
1.0
 40
0.3939339440162632
 41
1.131841032648279
 42
5.62031148352944
  0
LINE
  5
84
330
7F
100
AcDbEntity
  8
중심선
100
AcDbLine
 10
2.268634060543552
 20
16.24717430164393
 30
0.0
 11
5.714909304380834
 21
16.24717430164393
 31
0.0
  0
LINE
  5
85
330
7F
100
AcDbEntity
  8
중심선
100
AcDbLine
 10
5.245725140726316
 20
7.84717430164391
 30
0.0
 11
8.692000384563599
 21
7.84717430164391
 31
0.0
  0
LINE
  5
86
330
7F
100
AcDbEntity
  8
중심선
100
AcDbLine
 10
15.74043728645272
 20
16.24717430164393
 30
0.0
 11
8.692000384563599
 21
7.84717430164391
 31
0.0
  0
LINE
  5
87
330
7F
100
AcDbEntity
  8
중심선
100
AcDbLine
 10
0.1404042013395286
 20
13.71084872107135
 30
0.0
 11
3.58671253028996
 21
13.71088815037384
 31
0.0
  0
LINE
  5
88
330
7F
100
AcDbEntity
  8
중심선
100
AcDbLine
 10
2.750260043222114
 20
10.84717430164391
 30
0.0
 11
6.196535287059397
 21
10.84717430164391
 31
0.0
  0
LINE
  5
89
330
7F
100
AcDbEntity
  8
중심선
100
AcDbLine
 10
12.29416204261559
 20
16.24717430164393
 30
0.0
 11
5.245725140726316
 21
7.84717430164391
 31
0.0
  0
LINE
  5
8A
330
7F
100
AcDbEntity
  8
중심선
100
AcDbLine
 10
10.72767329541681
 20
16.24717430164393
 30
0.0
 11
6.196535287059397
 21
10.84717430164391
 31
0.0
  0
LINE
  5
8B
330
7F
100
AcDbEntity
  8
중심선
100
AcDbLine
 10
7.28139805157953
 20
16.24717430164393
 30
0.0
 11
2.750260043222114
 21
10.84717430164391
 31
0.0
  0
LINE
  5
8C
330
7F
100
AcDbEntity
  8
중심선
100
AcDbLine
 10
5.714909304380834
 20
16.24717430164393
 30
0.0
 11
3.58671253028996
 21
13.71088815037384
 31
0.0
  0
LINE
  5
8D
330
7F
100
AcDbEntity
  8
중심선
100
AcDbLine
 10
2.268634060543552
 20
16.24717430164393
 30
0.0
 11
0.1404042013395286
 21
13.71084872107135
 31
0.0
  0
LINE
  5
8E
330
7F
100
AcDbEntity
  8
중심선
100
AcDbLine
 10
7.28139805157953
 20
16.24717430164393
 30
0.0
 11
10.72767329541681
 21
16.24717430164393
 31
0.0
  0
LINE
  5
8F
330
7F
100
AcDbEntity
  8
중심선
100
AcDbLine
 10
12.29416204261559
 20
16.24717430164393
 30
0.0
 11
15.74043728645272
 21
16.24717430164393
 31
0.0
  0
LINE
  5
90
330
7F
100
AcDbEntity
  8
중심선
100
AcDbLine
 10
19.22036997980202
 20
11.08717430171403
 30
0.0
 11
23.66174974927406
 21
11.08717430171406
 31
0.0
  0
LINE
  5
91
330
7F
100
AcDbEntity
  8
중심선
100
AcDbLine
 10
19.22039502424796
 20
13.00717430171391
 30
0.0
 11
19.22036997980202
 21
11.08717430171403
 31
0.0
  0
LINE
  5
92
330
7F
100
AcDbEntity
  8
중심선
100
AcDbLine
 10
19.22039502424796
 20
13.00717430171391
 30
0.0
 11
26.96566020931264
 21
13.00717430171391
 31
0.0
  0
LINE
  5
93
330
7F
100
AcDbEntity
  8
중심선
100
AcDbLine
 10
22.22332737316547
 20
13.45928029700563
 30
0.0
 11
24.52862924686651
 21
15.39360700705356
 31
0.0
  0
ATTDEF
  5
95
330
7F
100
AcDbEntity
  8
FORMAT
 62
     2
100
AcDbText
 10
4.408487351596664
 20
2.075366912832191
 30
0.0
 40
4.233333333333333
  1
E1050028
 41
0.75
  7
SLDTEXTSTYLE0
 11
4.408487351596664
 21
-0.0412997538344756
 31
0.0
100
AcDbAttributeDefinition
  3

  2
AUTOATTR0
 70
     0
 74
     1
  0
ENDBLK
  5
81
330
7F
100
AcDbEntity
  8
0
100
AcDbBlockEnd
  0
BLOCK
  5
DA
330
D9
100
AcDbEntity
  8
0
100
AcDbBlockBegin
  2
_D
 70
     0
 10
0.0
 20
0.0
 30
0.0
  3
_D
  1
_D
  0
LINE
  5
DC
330
D9
100
AcDbEntity
  8
치수문자_일반주서
 62
     0
370
    -2
100
AcDbLine
 10
-23.08768467149224
 20
6.349999999999991
 30
0.0
 11
-57.62499999999998
 21
6.349999999999859
 31
0.0
  0
LINE
  5
DD
330
D9
100
AcDbEntity
  8
치수문자_일반주서
 62
     0
370
    -2
100
AcDbLine
 10
-23.10898890408583
 20
-6.349999999999994
 30
0.0
 11
-57.62499999999994
 21
-6.350000000000119
 31
0.0
  0
LINE
  5
DE
330
D9
100
AcDbEntity
  8
치수문자_일반주서
 62
     0
370
    -2
100
AcDbLine
 10
-57.62499999999998
 20
6.349999999999859
 30
0.0
 11
-57.62500000000009
 21
39.64149999999995
 31
0.0
  0
LINE
  5
DF
330
D9
100
AcDbEntity
  8
치수문자_일반주서
 62
     0
370
    -2
100
AcDbLine
 10
-57.62499999999998
 20
6.349999999999859
 30
0.0
 11
-57.62499999999994
 21
-6.350000000000119
 31
0.0
  0
LINE
  5
E0
330
D9
100
AcDbEntity
  8
치수문자_일반주서
 62
     0
370
    -2
100
AcDbLine
 10
-57.62499999999999
 20
9.651999999999859
 30
0.0
 11
-57.62500000000001
 21
12.95399999999986
 31
0.0
  0
LINE
  5
E1
330
D9
100
AcDbEntity
  8
치수문자_일반주서
 62
     0
370
    -2
100
AcDbLine
 10
-57.62499999999992
 20
-9.652000000000118
 30
0.0
 11
-57.62499999999991
 21
-12.95400000000012
 31
0.0
  0
SOLID
  5
E2
330
D9
100
AcDbEntity
  8
치수문자_일반주서
 62
     0
100
AcDbTrace
 10
-58.17533333333333
 20
9.651999999999857
 30
0.0
 11
-57.07466666666666
 21
9.65199999999986
 31
0.0
 12
-57.62499999999998
 22
6.349999999999859
 32
0.0
 13
-57.62499999999998
 23
6.349999999999859
 33
0.0
  0
SOLID
  5
E3
330
D9
100
AcDbEntity
  8
치수문자_일반주서
 62
     0
100
AcDbTrace
 10
-57.07466666666659
 20
-9.652000000000116
 30
0.0
 11
-58.17533333333326
 21
-9.65200000000012
 31
0.0
 12
-57.62499999999994
 22
-6.350000000000119
 32
0.0
 13
-57.62499999999994
 23
-6.350000000000119
 33
0.0
  0
MTEXT
  5
E4
330
D9
100
AcDbEntity
  8
치수문자_일반주서
 62
     0
100
AcDbMText
 10
-62.00000000000004
 20
26.29774999999994
 30
0.0
 40
3.5
 41
0.0
 71
     2
 72
     1
  1
\A1;%%c12.70 [1/2]
  7
SLDTEXTSTYLE0
 11
-3.356894814614651E-15
 21
1.0
 31
0.0
 73
     1
 44
1.0
  0
POINT
  5
241
330
D9
100
AcDbEntity
  8
Defpoints
 62
     0
100
AcDbPoint
 10
-23.02518467149224
 20
6.349999999999991
 30
0.0
  0
POINT
  5
242
330
D9
100
AcDbEntity
  8
Defpoints
 62
     0
100
AcDbPoint
 10
-23.04648890408583
 20
-6.349999999999994
 30
0.0
  0
POINT
  5
243
330
D9
100
AcDbEntity
  8
Defpoints
 62
     0
100
AcDbPoint
 10
-57.62499999999994
 20
-6.350000000000123
 30
0.0
  0
ENDBLK
  5
DB
330
D9
100
AcDbEntity
  8
0
100
AcDbBlockEnd
  0
BLOCK
  5
EF
330
EE
100
AcDbEntity
  8
0
100
AcDbBlockBegin
  2
_D_1
 70
     0
 10
0.0
 20
0.0
 30
0.0
  3
_D_1
  1
_D_1
  0
LINE
  5
F1
330
EE
100
AcDbEntity
  8
치수문자_일반주서
 62
     0
370
    -2
100
AcDbLine
 10
47.68750000000001
 20
-5.551553942119708
 30
0.0
 11
90.22912064560799
 21
-5.551553942119547
 31
0.0
  0
LINE
  5
F2
330
EE
100
AcDbEntity
  8
치수문자_일반주서
 62
     0
370
    -2
100
AcDbLine
 10
47.68750000000001
 20
5.551553942119706
 30
0.0
 11
90.22912064560795
 21
5.551553942119867
 31
0.0
  0
LINE
  5
F3
330
EE
100
AcDbEntity
  8
치수문자_일반주서
 62
     0
370
    -2
100
AcDbLine
 10
90.22912064560795
 20
5.551553942119867
 30
0.0
 11
90.22912064560781
 21
39.71805394211987
 31
0.0
  0
LINE
  5
F4
330
EE
100
AcDbEntity
  8
치수문자_일반주서
 62
     0
370
    -2
100
AcDbLine
 10
90.22912064560799
 20
-5.551553942119547
 30
0.0
 11
90.22912064560795
 21
5.551553942119867
 31
0.0
  0
LINE
  5
F5
330
EE
100
AcDbEntity
  8
치수문자_일반주서
 62
     0
370
    -2
100
AcDbLine
 10
90.229120645608
 20
-8.853553942119547
 30
0.0
 11
90.22912064560802
 21
-12.15555394211955
 31
0.0
  0
LINE
  5
F6
330
EE
100
AcDbEntity
  8
치수문자_일반주서
 62
     0
370
    -2
100
AcDbLine
 10
90.22912064560794
 20
8.853553942119866
 30
0.0
 11
90.22912064560792
 21
12.15555394211987
 31
0.0
  0
SOLID
  5
F7
330
EE
100
AcDbEntity
  8
치수문자_일반주서
 62
     0
100
AcDbTrace
 10
90.77945397894133
 20
-8.853553942119545
 30
0.0
 11
89.67878731227468
 21
-8.853553942119548
 31
0.0
 12
90.22912064560799
 22
-5.551553942119547
 32
0.0
 13
90.22912064560799
 23
-5.551553942119547
 33
0.0
  0
SOLID
  5
F8
330
EE
100
AcDbEntity
  8
치수문자_일반주서
 62
     0
100
AcDbTrace
 10
89.67878731227461
 20
8.853553942119865
 30
0.0
 11
90.77945397894126
 21
8.853553942119868
 31
0.0
 12
90.22912064560795
 22
5.551553942119867
 32
0.0
 13
90.22912064560795
 23
5.551553942119867
 33
0.0
  0
MTEXT
  5
F9
330
EE
100
AcDbEntity
  8
치수문자_일반주서
 62
     0
100
AcDbMText
 10
85.85412064560786
 20
25.93680394211985
 30
0.0
 40
3.5
 41
0.0
 71
     2
 72
     1
  1
\A1;%%c11.10 [7/16]
  7
SLDTEXTSTYLE0
 11
-3.839696469681420E-15
 21
1.0
 31
0.0
 73
     1
 44
1.0
  0
POINT
  5
FA
330
EE
100
AcDbEntity
  8
Defpoints
 62
     0
100
AcDbPoint
 10
47.62500000000001
 20
-5.551553942119708
 30
0.0
  0
POINT
  5
FB
330
EE
100
AcDbEntity
  8
Defpoints
 62
     0
100
AcDbPoint
 10
47.62500000000001
 20
5.551553942119706
 30
0.0
  0
POINT
  5
FC
330
EE
100
AcDbEntity
  8
Defpoints
 62
     0
100
AcDbPoint
 10
90.22912064560795
 20
5.551553942119865
 30
0.0
  0
ENDBLK
  5
F0
330
EE
100
AcDbEntity
  8
0
100
AcDbBlockEnd
  0
BLOCK
  5
103
330
102
100
AcDbEntity
  8
0
100
AcDbBlockBegin
  2
_D_2
 70
     0
 10
0.0
 20
0.0
 30
0.0
  3
_D_2
  1
_D_2
  0
LINE
  5
105
330
102
100
AcDbEntity
  8
치수문자_일반주서
 62
     0
370
    -2
100
AcDbLine
 10
47.62500000000001
 20
5.614053942119706
 30
0.0
 11
47.62500000000001
 21
16.35000000000001
 31
0.0
  0
LINE
  5
106
330
102
100
AcDbEntity
  8
치수문자_일반주서
 62
     0
370
    -2
100
AcDbLine
 10
26.98750000000001
 20
4.425360043095576
 30
0.0
 11
26.98750000000001
 21
16.35000000000001
 31
0.0
  0
LINE
  5
107
330
102
100
AcDbEntity
  8
치수문자_일반주서
 62
     0
370
    -2
100
AcDbLine
 10
47.62500000000001
 20
16.35000000000001
 30
0.0
 11
83.54150000000001
 21
16.35000000000001
 31
0.0
  0
LINE
  5
108
330
102
100
AcDbEntity
  8
치수문자_일반주서
 62
     0
370
    -2
100
AcDbLine
 10
47.62500000000001
 20
16.35000000000001
 30
0.0
 11
26.98750000000001
 21
16.35000000000001
 31
0.0
  0
LINE
  5
109
330
102
100
AcDbEntity
  8
치수문자_일반주서
 62
     0
370
    -2
100
AcDbLine
 10
50.92700000000001
 20
16.35000000000001
 30
0.0
 11
54.22900000000001
 21
16.35000000000001
 31
0.0
  0
LINE
  5
10A
330
102
100
AcDbEntity
  8
치수문자_일반주서
 62
     0
370
    -2
100
AcDbLine
 10
23.68550000000001
 20
16.35000000000001
 30
0.0
 11
20.38350000000001
 21
16.35000000000001
 31
0.0
  0
SOLID
  5
10B
330
102
100
AcDbEntity
  8
치수문자_일반주서
 62
     0
100
AcDbTrace
 10
50.92700000000001
 20
16.90033333333334
 30
0.0
 11
50.92700000000001
 21
15.79966666666668
 31
0.0
 12
47.62500000000001
 22
16.35000000000001
 32
0.0
 13
47.62500000000001
 23
16.35000000000001
 33
0.0
  0
SOLID
  5
10C
330
102
100
AcDbEntity
  8
치수문자_일반주서
 62
     0
100
AcDbTrace
 10
23.68550000000001
 20
15.79966666666668
 30
0.0
 11
23.68550000000001
 21
16.90033333333334
 31
0.0
 12
26.98750000000001
 22
16.35000000000001
 32
0.0
 13
26.98750000000001
 23
16.35000000000001
 33
0.0
  0
MTEXT
  5
10D
330
102
100
AcDbEntity
  8
치수문자_일반주서
 62
     0
100
AcDbMText
 10
68.88525000000001
 20
20.72500000000001
 30
0.0
 40
3.5
 41
0.0
 71
     2
 72
     1
  1
\A1;20.64 [13/16]
  7
SLDTEXTSTYLE0
 73
     1
 44
1.0
  0
POINT
  5
10E
330
102
100
AcDbEntity
  8
Defpoints
 62
     0
100
AcDbPoint
 10
47.62500000000001
 20
5.551553942119706
 30
0.0
  0
POINT
  5
10F
330
102
100
AcDbEntity
  8
Defpoints
 62
     0
100
AcDbPoint
 10
26.98750000000001
 20
4.362860043095576
 30
0.0
  0
POINT
  5
110
330
102
100
AcDbEntity
  8
Defpoints
 62
     0
100
AcDbPoint
 10
26.98750000000001
 20
16.35000000000001
 30
0.0
  0
ENDBLK
  5
104
330
102
100
AcDbEntity
  8
0
100
AcDbBlockEnd
  0
BLOCK
  5
117
330
116
100
AcDbEntity
  8
0
100
AcDbBlockBegin
  2
_D_3
 70
     0
 10
0.0
 20
0.0
 30
0.0
  3
_D_3
  1
_D_3
  0
LINE
  5
119
330
116
100
AcDbEntity
  8
치수문자_일반주서
 62
     0
370
    -2
100
AcDbLine
 10
-47.62500000000001
 20
5.614053942119698
 30
0.0
 11
-47.62500000000001
 21
26.35
 31
0.0
  0
LINE
  5
11A
330
116
100
AcDbEntity
  8
치수문자_일반주서
 62
     0
370
    -2
100
AcDbLine
 10
47.62500000000001
 20
5.614053942119706
 30
0.0
 11
47.62500000000001
 21
26.35
 31
0.0
  0
LINE
  5
11B
330
116
100
AcDbEntity
  8
치수문자_일반주서
 62
     0
370
    -2
100
AcDbLine
 10
-44.32300000000001
 20
26.35
 30
0.0
 11
44.32300000000001
 21
26.35
 31
0.0
  0
SOLID
  5
11C
330
116
100
AcDbEntity
  8
치수문자_일반주서
 62
     0
100
AcDbTrace
 10
-44.32300000000001
 20
26.90033333333334
 30
0.0
 11
-44.32300000000001
 21
25.79966666666667
 31
0.0
 12
-47.62500000000001
 22
26.35
 32
0.0
 13
-47.62500000000001
 23
26.35
 33
0.0
  0
SOLID
  5
11D
330
116
100
AcDbEntity
  8
치수문자_일반주서
 62
     0
100
AcDbTrace
 10
44.32300000000001
 20
25.79966666666667
 30
0.0
 11
44.32300000000001
 21
26.90033333333334
 31
0.0
 12
47.62500000000001
 22
26.35
 32
0.0
 13
47.62500000000001
 23
26.35
 33
0.0
  0
MTEXT
  5
11E
330
116
100
AcDbEntity
  8
치수문자_일반주서
 62
     0
100
AcDbMText
 10
0.0000000000000213
 20
30.725
 30
0.0
 40
3.5
 41
0.0
 71
     2
 72
     1
  1
\A1;95.25 [3 3/4]
  7
SLDTEXTSTYLE0
 73
     1
 44
1.0
  0
POINT
  5
11F
330
116
100
AcDbEntity
  8
Defpoints
 62
     0
100
AcDbPoint
 10
-47.62500000000001
 20
5.551553942119698
 30
0.0
  0
POINT
  5
120
330
116
100
AcDbEntity
  8
Defpoints
 62
     0
100
AcDbPoint
 10
47.62500000000001
 20
5.551553942119706
 30
0.0
  0
POINT
  5
121
330
116
100
AcDbEntity
  8
Defpoints
 62
     0
100
AcDbPoint
 10
47.62500000000001
 20
26.35
 30
0.0
  0
ENDBLK
  5
118
330
116
100
AcDbEntity
  8
0
100
AcDbBlockEnd
  0
BLOCK
  5
130
330
12F
100
AcDbEntity
  8
0
100
AcDbBlockBegin
  2
SW_DOWELSYMBOL_0
 70
     0
 10
0.0
 20
0.0
 30
0.0
  3
SW_DOWELSYMBOL_0
  1
SW_DOWELSYMBOL_0
  0
CIRCLE
  5
132
330
12F
100
AcDbEntity
  8
해칭선
 62
     0
100
AcDbCircle
 10
0.0
 20
0.0
 30
0.0
 40
3.000000000000001
  0
HATCH
  5
133
330
12F
100
AcDbEntity
  8
0
  6
Continuous
 62
     0
370
     0
100
AcDbHatch
 10
0.0
 20
0.0
 30
0.0
210
0.0
220
0.0
230
1.0
  2
SOLID
 70
     1
 71
     0
 91
        1
 92
        0
 93
        3
 72
     2
 10
0.0
 20
0.0
 40
3.000000000000001
 50
0.0
 51
90.0
 73
     1
 72
     1
 10
0.0
 20
3.000000000000001
 11
0.0
 21
0.0
 72
     1
 10
0.0
 20
0.0
 11
3.000000000000001
 21
0.0
 97
        0
 75
     0
 76
     1
 98
        1
 10
0.0
 20
0.0
  0
HATCH
  5
134
330
12F
100
AcDbEntity
  8
0
  6
Continuous
 62
     0
370
     0
100
AcDbHatch
 10
0.0
 20
0.0
 30
0.0
210
0.0
220
0.0
230
1.0
  2
SOLID
 70
     1
 71
     0
 91
        1
 92
        0
 93
        3
 72
     2
 10
0.0
 20
0.0
 40
3.000000000000001
 50
180.0
 51
270.0000000000007
 73
     1
 72
     1
 10
0.0
 20
-3.000000000000001
 11
0.0
 21
0.0
 72
     1
 10
0.0
 20
0.0
 11
-3.000000000000001
 21
0.0
 97
        0
 75
     0
 76
     1
 98
        1
 10
0.0
 20
0.0
  0
ENDBLK
  5
131
330
12F
100
AcDbEntity
  8
0
100
AcDbBlockEnd
  0
BLOCK
  5
191
330
190
100
AcDbEntity
  8
0
100
AcDbBlockBegin
  2
*D7
 70
     1
 10
0.0
 20
0.0
 30
0.0
  3
*D7
  1
*D7
  0
LINE
  5
193
330
190
100
AcDbEntity
  8
치수문자_일반주서
 62
     0
370
    -2
100
AcDbLine
 10
0.0
 20
0.5121961990748796
 30
0.0
 11
0.0
 21
33.79272327212171
 31
0.0
  0
LINE
  5
194
330
190
100
AcDbEntity
  8
치수문자_일반주서
 62
     0
370
    -2
100
AcDbLine
 10
25.99995813577124
 20
8.175743682859753
 30
0.0
 11
25.99995813577124
 21
33.79272327212171
 31
0.0
  0
LINE
  5
195
330
190
100
AcDbEntity
  8
치수문자_일반주서
 62
     0
370
    -2
100
AcDbLine
 10
3.302
 20
33.79272327212171
 30
0.0
 11
22.69795813577124
 21
33.79272327212171
 31
0.0
  0
SOLID
  5
196
330
190
100
AcDbEntity
  8
치수문자_일반주서
 62
     0
100
AcDbTrace
 10
3.302
 20
34.34305660545504
 30
0.0
 11
3.302
 21
33.24238993878837
 31
0.0
 12
0.0
 22
33.79272327212171
 32
0.0
 13
0.0
 23
33.79272327212171
 33
0.0
  0
SOLID
  5
197
330
190
100
AcDbEntity
  8
치수문자_일반주서
 62
     0
100
AcDbTrace
 10
22.69795813577124
 20
33.24238993878837
 30
0.0
 11
22.69795813577124
 21
34.34305660545504
 31
0.0
 12
25.99995813577124
 22
33.79272327212171
 32
0.0
 13
25.99995813577124
 23
33.79272327212171
 33
0.0
  0
MTEXT
  5
198
330
190
100
AcDbEntity
  8
치수문자_일반주서
 62
     0
100
AcDbMText
 10
13.04655386270326
 20
38.16772327212171
 30
0.0
 40
3.5
 41
0.0
 71
     2
 72
     1
  1
\A1;26.00 [1.02]
  7
SLDTEXTSTYLE0
 73
     1
 44
1.0
  0
POINT
  5
199
330
190
100
AcDbEntity
  8
Defpoints
 62
     0
100
AcDbPoint
 10
0.0
 20
0.4496961990748796
 30
0.0
  0
POINT
  5
19A
330
190
100
AcDbEntity
  8
Defpoints
 62
     0
100
AcDbPoint
 10
25.99995813577124
 20
8.113243682859753
 30
0.0
  0
POINT
  5
19B
330
190
100
AcDbEntity
  8
Defpoints
 62
     0
100
AcDbPoint
 10
25.99995813577124
 20
33.79272327212171
 30
0.0
  0
ENDBLK
  5
192
330
190
100
AcDbEntity
  8
0
100
AcDbBlockEnd
  0
BLOCK
  5
1A0
330
19F
100
AcDbEntity
  8
0
100
AcDbBlockBegin
  2
*D8
 70
     1
 10
0.0
 20
0.0
 30
0.0
  3
*D8
  1
*D8
  0
LINE
  5
1A2
330
19F
100
AcDbEntity
  8
치수문자_일반주서
 62
     0
370
    -2
100
AcDbLine
 10
69.80031386808406
 20
-26.12438193781082
 30
0.0
 11
69.80031386808406
 21
7.156145135236002
 31
0.0
  0
LINE
  5
1A3
330
19F
100
AcDbEntity
  8
치수문자_일반주서
 62
     0
370
    -2
100
AcDbLine
 10
95.8002720038553
 20
-18.46083445402595
 30
0.0
 11
95.8002720038553
 21
7.156145135236002
 31
0.0
  0
LINE
  5
1A4
330
19F
100
AcDbEntity
  8
치수문자_일반주서
 62
     0
370
    -2
100
AcDbLine
 10
73.10231386808405
 20
7.156145135236002
 30
0.0
 11
92.4982720038553
 21
7.156145135236002
 31
0.0
  0
SOLID
  5
1A5
330
19F
100
AcDbEntity
  8
치수문자_일반주서
 62
     0
100
AcDbTrace
 10
73.10231386808405
 20
7.706478468569336
 30
0.0
 11
73.10231386808405
 21
6.605811801902669
 31
0.0
 12
69.80031386808406
 22
7.156145135236002
 32
0.0
 13
69.80031386808406
 23
7.156145135236002
 33
0.0
  0
SOLID
  5
1A6
330
19F
100
AcDbEntity
  8
치수문자_일반주서
 62
     0
100
AcDbTrace
 10
92.4982720038553
 20
6.605811801902669
 30
0.0
 11
92.4982720038553
 21
7.706478468569336
 31
0.0
 12
95.8002720038553
 22
7.156145135236002
 32
0.0
 13
95.8002720038553
 23
7.156145135236002
 33
0.0
  0
MTEXT
  5
1A7
330
19F
100
AcDbEntity
  8
치수문자_일반주서
 62
     0
100
AcDbMText
 10
82.84686773078732
 20
11.531145135236
 30
0.0
 40
3.5
 41
0.0
 71
     2
 72
     1
  1
\A1;26.00 [1.02]
  7
SLDTEXTSTYLE0
 73
     1
 44
1.0
  0
POINT
  5
1A8
330
19F
100
AcDbEntity
  8
Defpoints
 62
     0
100
AcDbPoint
 10
69.80031386808406
 20
-26.18688193781082
 30
0.0
  0
POINT
  5
1A9
330
19F
100
AcDbEntity
  8
Defpoints
 62
     0
100
AcDbPoint
 10
95.8002720038553
 20
-18.52333445402595
 30
0.0
  0
POINT
  5
1AA
330
19F
100
AcDbEntity
  8
Defpoints
 62
     0
100
AcDbPoint
 10
95.8002720038553
 20
7.156145135236002
 30
0.0
  0
ENDBLK
  5
1A1
330
19F
100
AcDbEntity
  8
0
100
AcDbBlockEnd
  0
BLOCK
  5
21B
330
21A
100
AcDbEntity
  8
0
100
AcDbBlockBegin
  2
*D9
 70
     1
 10
0.0
 20
0.0
 30
0.0
  3
*D9
  1
*D9
  0
LINE
  5
21D
330
21A
100
AcDbEntity
  8
치수문자_일반주서
 62
     0
370
    -2
100
AcDbLine
 10
54.73699999999996
 20
3.631580296889929
 30
0.0
 11
54.73699999999996
 21
14.96233570571162
 31
0.0
  0
LINE
  5
21E
330
21A
100
AcDbEntity
  8
치수문자_일반주서
 62
     0
370
    -2
100
AcDbLine
 10
34.09949999999996
 20
3.20671347064068
 30
0.0
 11
34.09949999999996
 21
14.96233570571162
 31
0.0
  0
LINE
  5
21F
330
21A
100
AcDbEntity
  8
치수문자_일반주서
 62
     0
370
    -2
100
AcDbLine
 10
54.73699999999996
 20
14.96233570571162
 30
0.0
 11
90.65349999999997
 21
14.96233570571162
 31
0.0
  0
LINE
  5
220
330
21A
100
AcDbEntity
  8
치수문자_일반주서
 62
     0
370
    -2
100
AcDbLine
 10
54.73699999999996
 20
14.96233570571162
 30
0.0
 11
34.09949999999996
 21
14.96233570571162
 31
0.0
  0
LINE
  5
221
330
21A
100
AcDbEntity
  8
치수문자_일반주서
 62
     0
370
    -2
100
AcDbLine
 10
58.03899999999996
 20
14.96233570571162
 30
0.0
 11
61.34099999999996
 21
14.96233570571162
 31
0.0
  0
LINE
  5
222
330
21A
100
AcDbEntity
  8
치수문자_일반주서
 62
     0
370
    -2
100
AcDbLine
 10
30.79749999999996
 20
14.96233570571162
 30
0.0
 11
27.49549999999996
 21
14.96233570571162
 31
0.0
  0
SOLID
  5
223
330
21A
100
AcDbEntity
  8
치수문자_일반주서
 62
     0
100
AcDbTrace
 10
58.03899999999996
 20
15.51266903904495
 30
0.0
 11
58.03899999999996
 21
14.41200237237829
 31
0.0
 12
54.73699999999996
 22
14.96233570571162
 32
0.0
 13
54.73699999999996
 23
14.96233570571162
 33
0.0
  0
SOLID
  5
224
330
21A
100
AcDbEntity
  8
치수문자_일반주서
 62
     0
100
AcDbTrace
 10
30.79749999999996
 20
14.41200237237829
 30
0.0
 11
30.79749999999996
 21
15.51266903904495
 31
0.0
 12
34.09949999999996
 22
14.96233570571162
 32
0.0
 13
34.09949999999996
 23
14.96233570571162
 33
0.0
  0
MTEXT
  5
225
330
21A
100
AcDbEntity
  8
치수문자_일반주서
 62
     0
100
AcDbMText
 10
75.99724999999997
 20
19.33733570571162
 30
0.0
 40
3.5
 41
0.0
 71
     2
 72
     1
  1
\A1;20.64 [13/16]
  7
SLDTEXTSTYLE0
 73
     1
 44
1.0
  0
POINT
  5
226
330
21A
100
AcDbEntity
  8
Defpoints
 62
     0
100
AcDbPoint
 10
54.73699999999996
 20
3.569080296889929
 30
0.0
  0
POINT
  5
227
330
21A
100
AcDbEntity
  8
Defpoints
 62
     0
100
AcDbPoint
 10
34.09949999999996
 20
3.14421347064068
 30
0.0
  0
POINT
  5
228
330
21A
100
AcDbEntity
  8
Defpoints
 62
     0
100
AcDbPoint
 10
34.09949999999996
 20
14.96233570571162
 30
0.0
  0
ENDBLK
  5
21C
330
21A
100
AcDbEntity
  8
0
100
AcDbBlockEnd
  0
BLOCK
  5
230
330
22F
100
AcDbEntity
  8
0
100
AcDbBlockBegin
  2
*D10
 70
     1
 10
0.0
 20
0.0
 30
0.0
  3
*D10
  1
*D10
  0
LINE
  5
232
330
22F
100
AcDbEntity
  8
치수문자_일반주서
 62
     0
370
    -2
100
AcDbLine
 10
69.84152383929026
 20
-67.24781466328676
 30
0.0
 11
69.84152383929026
 21
-55.91705925446507
 31
0.0
  0
LINE
  5
233
330
22F
100
AcDbEntity
  8
치수문자_일반주서
 62
     0
370
    -2
100
AcDbLine
 10
49.20402383929026
 20
-67.67268148953602
 30
0.0
 11
49.20402383929026
 21
-55.91705925446507
 31
0.0
  0
LINE
  5
234
330
22F
100
AcDbEntity
  8
치수문자_일반주서
 62
     0
370
    -2
100
AcDbLine
 10
69.84152383929026
 20
-55.91705925446507
 30
0.0
 11
105.7580238392903
 21
-55.91705925446507
 31
0.0
  0
LINE
  5
235
330
22F
100
AcDbEntity
  8
치수문자_일반주서
 62
     0
370
    -2
100
AcDbLine
 10
69.84152383929026
 20
-55.91705925446507
 30
0.0
 11
49.20402383929026
 21
-55.91705925446507
 31
0.0
  0
LINE
  5
236
330
22F
100
AcDbEntity
  8
치수문자_일반주서
 62
     0
370
    -2
100
AcDbLine
 10
73.14352383929025
 20
-55.91705925446507
 30
0.0
 11
76.44552383929025
 21
-55.91705925446507
 31
0.0
  0
LINE
  5
237
330
22F
100
AcDbEntity
  8
치수문자_일반주서
 62
     0
370
    -2
100
AcDbLine
 10
45.90202383929026
 20
-55.91705925446507
 30
0.0
 11
42.60002383929026
 21
-55.91705925446507
 31
0.0
  0
SOLID
  5
238
330
22F
100
AcDbEntity
  8
치수문자_일반주서
 62
     0
100
AcDbTrace
 10
73.14352383929025
 20
-55.36672592113174
 30
0.0
 11
73.14352383929025
 21
-56.46739258779841
 31
0.0
 12
69.84152383929026
 22
-55.91705925446507
 32
0.0
 13
69.84152383929026
 23
-55.91705925446507
 33
0.0
  0
SOLID
  5
239
330
22F
100
AcDbEntity
  8
치수문자_일반주서
 62
     0
100
AcDbTrace
 10
45.90202383929026
 20
-56.46739258779841
 30
0.0
 11
45.90202383929026
 21
-55.36672592113174
 31
0.0
 12
49.20402383929026
 22
-55.91705925446507
 32
0.0
 13
49.20402383929026
 23
-55.91705925446507
 33
0.0
  0
MTEXT
  5
23A
330
22F
100
AcDbEntity
  8
치수문자_일반주서
 62
     0
100
AcDbMText
 10
91.10177383929026
 20
-51.54205925446507
 30
0.0
 40
3.5
 41
0.0
 71
     2
 72
     1
  1
\A1;20.64 [13/16]
  7
SLDTEXTSTYLE0
 73
     1
 44
1.0
  0
POINT
  5
23B
330
22F
100
AcDbEntity
  8
Defpoints
 62
     0
100
AcDbPoint
 10
69.84152383929026
 20
-67.31031466328676
 30
0.0
  0
POINT
  5
23C
330
22F
100
AcDbEntity
  8
Defpoints
 62
     0
100
AcDbPoint
 10
49.20402383929026
 20
-67.73518148953602
 30
0.0
  0
POINT
  5
23D
330
22F
100
AcDbEntity
  8
Defpoints
 62
     0
100
AcDbPoint
 10
49.20402383929026
 20
-55.91705925446507
 30
0.0
  0
ENDBLK
  5
231
330
22F
100
AcDbEntity
  8
0
100
AcDbBlockEnd
  0
ENDSEC
  0
SECTION
  2
ENTITIES
  0
LINE
  5
96
330
1F
100
AcDbEntity
  8
외형선
  6
Continuous
370
    15
100
AcDbLine
 10
23.02518467149223
 20
6.349999999999994
 30
0.0
 11
7.112000000000048
 21
6.349999999999993
 31
0.0
  0
LINE
  5
97
330
1F
100
AcDbEntity
  8
외형선
  6
Continuous
370
    15
100
AcDbLine
 10
-23.02518467149224
 20
-6.350000000000001
 30
0.0
 11
23.02518467149223
 21
-6.349999999999998
 31
0.0
  0
LINE
  5
98
330
1F
100
AcDbEntity
  8
외형선
  6
Continuous
370
    15
100
AcDbLine
 10
23.02518467149223
 20
-6.35
 30
0.0
 11
24.95750230037402
 21
-5.832237051820702
 31
0.0
  0
LINE
  5
99
330
1F
100
AcDbEntity
  8
외형선
  6
Continuous
370
    15
100
AcDbLine
 10
24.95750230037402
 20
5.832237051820699
 30
0.0
 11
23.02518467149223
 21
6.349999999999996
 31
0.0
  0
SPLINE
  5
9C
330
1F
100
AcDbEntity
  8
외형선
  6
Continuous
370
    15
100
AcDbSpline
210
0.0
220
0.0
230
1.0
 70
     8
 71
     3
 72
     9
 73
     5
 74
     0
 42
0.000000001
 43
0.00000001
 40
0.0
 40
0.0
 40
0.0
 40
0.0
 40
0.5452161555795045
 40
1.0
 40
1.0
 40
1.0
 40
1.0
 10
24.95750318074064
 20
-4.462079864401423
 30
0.0
 10
25.32712576059573
 20
-4.439006027047504
 30
0.0
 10
26.00506344837794
 20
-4.396685495790691
 30
0.0
 10
26.68037789828058
 20
-4.37343425671234
 30
0.0
 10
26.9875
 20
-4.362859968816748
 30
0.0
  0
LINE
  5
9D
330
1F
100
AcDbEntity
  8
외형선
  6
Continuous
370
    15
100
AcDbLine
 10
26.98750000000001
 20
4.362859968816742
 30
0.0
 11
26.89277839892526
 21
4.366424301351161
 31
0.0
  0
SPLINE
  5
9E
330
1F
100
AcDbEntity
  8
0
  6
Continuous
 62
     1
370
    15
100
AcDbSpline
210
0.0
220
0.0
230
1.0
 70
     8
 71
     3
 72
    10
 73
     6
 74
     0
 42
0.000000001
 43
0.00000001
 40
0.0
 40
0.0
 40
0.0
 40
0.0
 40
0.4991143966717512
 40
0.6867264562585965
 40
1.0
 40
1.0
 40
1.0
 40
1.0
 10
33.22903737017076
 20
1.423916628332372
 30
0.0
 10
32.97292160939129
 20
1.546255685748122
 30
0.0
 10
32.62053452145135
 20
1.714580758960522
 30
0.0
 10
32.10770255569365
 20
1.975318573642221
 30
0.0
 10
31.85043569783889
 20
2.110234800244324
 30
0.0
 10
31.68953089300553
 20
2.194616711273539
 30
0.0
1001
PE_URL
1000

  0
LINE
  5
9F
330
1F
100
AcDbEntity
  8
0
  6
Continuous
 62
     1
370
    15
100
AcDbLine
 10
30.17905777340347
 20
1.552869812494993
 30
0.0
 11
30.09824923780106
 21
1.597342619965351
 31
0.0
1001
PE_URL
1000

  0
SPLINE
  5
A0
330
1F
100
AcDbEntity
  8
0
  6
Continuous
 62
     1
370
    15
100
AcDbSpline
210
0.0
220
0.0
230
1.0
 70
     8
 71
     3
 72
    13
 73
     9
 74
     0
 42
0.000000001
 43
0.00000001
 40
0.0
 40
0.0
 40
0.0
 40
0.0
 40
0.1805989367394509
 40
0.3332552295010635
 40
0.4619695290018776
 40
0.6038200536708602
 40
0.7822993404155969
 40
1.0
 40
1.0
 40
1.0
 40
1.0
 10
31.39322400351811
 20
4.415209384052626
 30
0.0
 10
31.1383672168635
 20
4.402268242439956
 30
0.0
 10
30.66808561687259
 20
4.378388239622676
 30
0.0
 10
29.99257993871117
 20
4.354950573581862
 30
0.0
 10
29.35640279270663
 20
4.343763878176486
 30
0.0
 10
28.68369342727624
 20
4.337825308665924
 30
0.0
 10
27.88619140640239
 20
4.34037671649492
 30
0.0
 10
27.30620319741652
 20
4.354886726442066
 30
0.0
 10
26.9875
 20
4.362859968816744
 30
0.0
1001
PE_URL
1000

  0
SPLINE
  5
A1
330
1F
100
AcDbEntity
  8
0
  6
Continuous
 62
     1
370
    15
100
AcDbSpline
210
0.0
220
0.0
230
1.0
 70
     8
 71
     3
 72
    27
 73
    23
 74
     0
 42
0.000000001
 43
0.00000001
 40
0.0
 40
0.0
 40
0.0
 40
0.0
 40
0.0692330727861391
 40
0.1236310150792464
 40
0.1673255073041213
 40
0.2124472694430784
 40
0.2586540104298972
 40
0.2988949237732065
 40
0.3525057776424034
 40
0.4131218106012601
 40
0.4877392276686758
 40
0.5464527053494181
 40
0.5905479636734896
 40
0.6305785854930475
 40
0.6741279526008062
 40
0.7329442431334126
 40
0.7787050415759567
 40
0.817090159232264
 40
0.8464230692316105
 40
0.878768140293922
 40
0.929821254927323
 40
1.0
 40
1.0
 40
1.0
 40
1.0
 10
45.56005061123523
 20
3.800214760517211
 30
0.0
 10
45.34109883602773
 20
3.782270345733289
 30
0.0
 10
44.95011185346344
 20
3.750226611063412
 30
0.0
 10
44.40947142038176
 20
3.716721883536536
 30
0.0
 10
43.93629671591295
 20
3.693195786932808
 30
0.0
 10
43.49577454879994
 20
3.676083460331716
 30
0.0
 10
43.0705522756989
 20
3.664502277669129
 30
0.0
 10
42.61755116689457
 20
3.657247391114294
 30
0.0
 10
42.11751108759847
 20
3.655266740873418
 30
0.0
 10
41.50622202347812
 20
3.661778110771878
 30
0.0
 10
40.87912081516862
 20
3.679470146908405
 30
0.0
 10
40.30495993008267
 20
3.705326586430258
 30
0.0
 10
39.84248840386385
 20
3.732092039897814
 30
0.0
 10
39.42927438471086
 20
3.760342464349742
 30
0.0
 10
38.96887263700035
 20
3.796697345828702
 30
0.0
 10
38.49008099993025
 20
3.840505927488812
 30
0.0
 10
38.02737702176573
 20
3.888368428456785
 30
0.0
 10
37.65970013782666
 20
3.929989814280808
 30
0.0
 10
37.33464792117608
 20
3.969316751795392
 30
0.0
 10
36.96935896769552
 20
4.016191810706724
 30
0.0
 10
36.47353845709387
 20
4.084258240509397
 30
0.0
 10
36.08125968302751
 20
4.144300107669807
 30
0.0
 10
35.85417719704265
 20
4.179057166576216
 30
0.0
1001
PE_URL
1000

  0
SPLINE
  5
A2
330
1F
100
AcDbEntity
  8
0
  6
Continuous
 62
     1
370
    15
100
AcDbSpline
210
0.0
220
0.0
230
1.0
 70
     8
 71
     3
 72
    17
 73
    13
 74
     0
 42
0.000000001
 43
0.00000001
 40
0.0
 40
0.0
 40
0.0
 40
0.0
 40
0.1741673143468006
 40
0.2971845628600666
 40
0.3724154048296074
 40
0.4513905037985832
 40
0.5601146213688971
 40
0.6772307965519125
 40
0.7719082750672769
 40
0.8708970321022484
 40
0.9628099536185194
 40
1.0
 40
1.0
 40
1.0
 40
1.0
 10
35.85417719704265
 20
-4.17905716657622
 30
0.0
 10
36.09466141938106
 20
-4.142299876485253
 30
0.0
 10
36.50500361681588
 20
-4.07958030577491
 30
0.0
 10
37.01792310374969
 20
-4.00971366242725
 30
0.0
 10
37.401708520961
 20
-3.960961307659212
 30
0.0
 10
37.76589935362519
 20
-3.917534449622158
 30
0.0
 10
38.18714357190867
 20
-3.871177161459474
 30
0.0
 10
38.62959748847339
 20
-3.82745637212431
 30
0.0
 10
39.05818986560759
 20
-3.789464403523192
 30
0.0
 10
39.4522441878554
 20
-3.758875024482702
 30
0.0
 10
39.76724915193908
 20
-3.736835379521644
 30
0.0
 10
39.94559133196668
 20
-3.726800269403618
 30
0.0
 10
39.99696547196517
 20
-3.723909505412597
 30
0.0
1001
PE_URL
1000

  0
SPLINE
  5
A3
330
1F
100
AcDbEntity
  8
0
  6
Continuous
 62
     1
370
    15
100
AcDbSpline
210
0.0
220
0.0
230
1.0
 70
     8
 71
     3
 72
     9
 73
     5
 74
     0
 42
0.000000001
 43
0.00000001
 40
0.0
 40
0.0
 40
0.0
 40
0.0
 40
0.4298314037068123
 40
1.0
 40
1.0
 40
1.0
 40
1.0
 10
26.9875
 20
-4.362859968816748
 30
0.0
 10
27.61773555698123
 20
-4.349579375501669
 30
0.0
 10
29.08397453241707
 20
-4.318682160452819
 30
0.0
 10
30.554676135132
 20
-4.380157866837272
 30
0.0
 10
31.39322400351811
 20
-4.415209384052629
 30
0.0
1001
PE_URL
1000

  0
LINE
  5
A4
330
1F
100
AcDbEntity
  8
외형선
  6
Continuous
370
    15
100
AcDbLine
 10
23.02518467149223
 20
6.349999999999996
 30
0.0
 11
23.02518467149223
 21
-6.349999999999998
 31
0.0
  0
SPLINE
  5
A6
330
1F
100
AcDbEntity
  8
외형선
  6
Continuous
370
    15
100
AcDbSpline
210
0.0
220
0.0
230
1.0
 70
     8
 71
     3
 72
     8
 73
     4
 74
     0
 42
0.000000001
 43
0.00000001
 40
0.0
 40
0.0
 40
0.0
 40
0.0
 40
1.0
 40
1.0
 40
1.0
 40
1.0
 10
25.98750000000001
 20
4.670944773303665
 30
0.0
 10
25.64324932870814
 20
4.835048319758454
 30
0.0
 10
25.29991719828916
 20
4.996177491592173
 30
0.0
 10
24.95750471191371
 20
5.154025032936651
 30
0.0
  0
LINE
  5
A7
330
1F
100
AcDbEntity
  8
외형선
  6
Continuous
370
    15
100
AcDbLine
 10
25.98750000000001
 20
4.670944773303663
 30
0.0
 11
25.98750000000001
 21
3.658238769427577
 31
0.0
  0
SPLINE
  5
A8
330
1F
100
AcDbEntity
  8
외형선
  6
Continuous
370
    15
100
AcDbSpline
210
0.0
220
0.0
230
1.0
 70
     8
 71
     3
 72
     8
 73
     4
 74
     0
 42
0.000000001
 43
0.00000001
 40
0.0
 40
0.0
 40
0.0
 40
0.0
 40
1.0
 40
1.0
 40
1.0
 40
1.0
 10
24.95750230037402
 20
4.216450766198289
 30
0.0
 10
25.30145831011713
 20
4.033497272059453
 30
0.0
 10
25.64477561324243
 20
3.847441373331973
 30
0.0
 10
25.9874999999997
 20
3.658238769427749
 30
0.0
  0
LINE
  5
A9
330
1F
100
AcDbEntity
  8
외형선
  6
Continuous
370
    15
100
AcDbLine
 10
24.95750230037402
 20
-5.832237051820702
 30
0.0
 11
24.95750230037402
 21
4.216521580975744
 31
0.0
  0
SPLINE
  5
AA
330
1F
100
AcDbEntity
  8
외형선
  6
Continuous
370
    15
100
AcDbSpline
210
0.0
220
0.0
230
1.0
 70
     8
 71
     3
 72
     8
 73
     4
 74
     0
 42
0.000000001
 43
0.00000001
 40
0.0
 40
0.0
 40
0.0
 40
0.0
 40
1.0
 40
1.0
 40
1.0
 40
1.0
 10
25.98750000000001
 20
-4.67094477330367
 30
0.0
 10
25.64324932870814
 20
-4.835048319758456
 30
0.0
 10
25.29991719828916
 20
-4.996177491592174
 30
0.0
 10
24.95750471191371
 20
-5.154025032936655
 30
0.0
  0
LINE
  5
AB
330
1F
100
AcDbEntity
  8
외형선
  6
Continuous
370
    15
100
AcDbLine
 10
24.95750230037402
 20
5.154077506755518
 30
0.0
 11
24.95750230037402
 21
5.832237051820699
 31
0.0
  0
SPLINE
  5
AD
330
1F
100
AcDbEntity
  8
외형선
  6
Continuous
370
    15
100
AcDbSpline
210
0.0
220
0.0
230
1.0
 70
    24
 71
     3
 72
    10
 73
     6
 74
     0
 42
0.000000001
 43
0.00000001
 40
0.0
 40
0.0
 40
0.0
 40
0.0
 40
0.4999999999999997
 40
0.4999999999999997
 40
1.0
 40
1.0
 40
1.0
 40
1.0
 10
26.98750000000001
 20
3.204538230355081
 30
0.0
 10
26.98750000000001
 20
3.113334500696871
 30
0.0
 10
26.98750000000001
 20
2.965063454336573
 30
0.0
 10
26.98750000000001
 20
2.584201855752069
 30
0.0
 10
26.98750000000001
 20
2.35295106258082
 30
0.0
 10
26.98750000000001
 20
2.110675585998547
 30
0.0
  0
SPLINE
  5
AE
330
1F
100
AcDbEntity
  8
외형선
  6
Continuous
370
    15
100
AcDbSpline
210
0.0
220
0.0
230
1.0
 70
     8
 71
     3
 72
     8
 73
     4
 74
     0
 42
0.000000001
 43
0.00000001
 40
0.0
 40
0.0
 40
0.0
 40
0.0
 40
1.0
 40
1.0
 40
1.0
 40
1.0
 10
26.98750000000001
 20
2.110675585998546
 30
0.0
 10
26.30864676345617
 20
2.340653025544175
 30
0.0
 10
25.6364369106012
 20
2.554197989191338
 30
0.0
 10
24.9575028811844
 20
2.747969900230752
 30
0.0
  0
SPLINE
  5
AF
330
1F
100
AcDbEntity
  8
외형선
  6
Continuous
370
    15
100
AcDbSpline
210
0.0
220
0.0
230
1.0
 70
     8
 71
     3
 72
     8
 73
     4
 74
     0
 42
0.000000001
 43
0.00000001
 40
0.0
 40
0.0
 40
0.0
 40
0.0
 40
1.0
 40
1.0
 40
1.0
 40
1.0
 10
26.9875
 20
3.204538230355082
 30
0.0
 10
26.65294540885591
 20
3.362013092317182
 30
0.0
 10
26.3191855798192
 20
3.513565919592035
 30
0.0
 10
25.98750000000001
 20
3.658238769427577
 30
0.0
  0
SPLINE
  5
B0
330
1F
100
AcDbEntity
  8
외형선
  6
Continuous
370
    15
100
AcDbSpline
210
0.0
220
0.0
230
1.0
 70
     8
 71
     3
 72
     8
 73
     4
 74
     0
 42
0.000000001
 43
0.00000001
 40
0.0
 40
0.0
 40
0.0
 40
0.0
 40
1.0
 40
1.0
 40
1.0
 40
1.0
 10
26.98750000000001
 20
4.333494491033931
 30
0.0
 10
26.65294540885591
 20
4.454139663479236
 30
0.0
 10
26.31918557981919
 20
4.566850508388913
 30
0.0
 10
25.9875
 20
4.670944773303669
 30
0.0
  0
LINE
  5
B1
330
1F
100
AcDbEntity
  8
외형선
  6
Continuous
370
    15
100
AcDbLine
 10
26.9875
 20
4.333494491033931
 30
0.0
 11
26.98750000000001
 21
3.204538230355083
 31
0.0
  0
SPLINE
  5
B2
330
1F
100
AcDbEntity
  8
외형선
  6
Continuous
370
    15
100
AcDbSpline
210
0.0
220
0.0
230
1.0
 70
     8
 71
     3
 72
     8
 73
     4
 74
     0
 42
0.000000001
 43
0.00000001
 40
0.0
 40
0.0
 40
0.0
 40
0.0
 40
1.0
 40
1.0
 40
1.0
 40
1.0
 10
26.98750000000001
 20
-3.733538928287471
 30
0.0
 10
26.30864686329637
 20
-3.563726345562416
 30
0.0
 10
25.63643711027968
 20
-3.366734592253479
 30
0.0
 10
24.95750318074064
 20
-3.145640282077935
 30
0.0
  0
SPLINE
  5
B3
330
1F
100
AcDbEntity
  8
외형선
  6
Continuous
370
    15
100
AcDbSpline
210
0.0
220
0.0
230
1.0
 70
    24
 71
     3
 72
    14
 73
    10
 74
     0
 42
0.000000001
 43
0.00000001
 40
0.0
 40
0.0
 40
0.0
 40
0.0
 40
0.25
 40
0.25
 40
0.5
 40
0.5
 40
0.75
 40
0.75
 40
1.0
 40
1.0
 40
1.0
 40
1.0
 10
26.98750000000001
 20
2.110675585998546
 30
0.0
 10
26.98750000000001
 20
1.649870541323935
 30
0.0
 10
26.98750000000001
 20
1.153066622495046
 30
0.0
 10
26.98750000000001
 20
0.1268236421967686
 30
0.0
 10
26.98750000000001
 20
-0.4021799836557984
 30
0.0
 10
26.98750000000001
 20
-1.44086539803645
 30
0.0
 10
26.98750000000001
 20
-1.949993731550164
 30
0.0
 10
26.98750000000001
 20
-2.900505426202024
 30
0.0
 10
26.98750000000001
 20
-3.341559720400309
 30
0.0
 10
26.98750000000001
 20
-3.73353892828747
 30
0.0
  0
SPLINE
  5
B4
330
1F
100
AcDbEntity
  8
외형선
  6
Continuous
370
    15
100
AcDbSpline
210
0.0
220
0.0
230
1.0
 70
    24
 71
     3
 72
    11
 73
     7
 74
     0
 42
0.000000001
 43
0.00000001
 40
0.0
 40
0.0
 40
0.0
 40
0.0
 40
0.2466825287057312
 40
0.4965867959418006
 40
0.8591693410755036
 40
1.0
 40
1.0
 40
1.0
 40
1.0
 10
26.98750000000001
 20
-3.733538928287472
 30
0.0
 10
26.98750000000001
 20
-3.828882815018049
 30
0.0
 10
26.98750000000001
 20
-4.020815804648843
 30
0.0
 10
26.98750000000001
 20
-4.238568299858761
 30
0.0
 10
26.98750000000001
 20
-4.367519089062175
 30
0.0
 10
26.98750000000001
 20
-4.347462237507704
 30
0.0
 10
26.98750000000001
 20
-4.34185130081078
 30
0.0
  0
SPLINE
  5
B5
330
1F
100
AcDbEntity
  8
외형선
  6
Continuous
370
    15
100
AcDbSpline
210
0.0
220
0.0
230
1.0
 70
     8
 71
     3
 72
     9
 73
     5
 74
     0
 42
0.000000001
 43
0.00000001
 40
0.0
 40
0.0
 40
0.0
 40
0.0
 40
0.5149679436676268
 40
1.0
 40
1.0
 40
1.0
 40
1.0
 10
26.89245386048563
 20
-4.366537126611047
 30
0.0
 10
26.73701269445296
 20
-4.421505298092153
 30
0.0
 10
26.43516639907853
 20
-4.528246255771227
 30
0.0
 10
26.13371405185841
 20
-4.62433745927351
 30
0.0
 10
25.9875
 20
-4.670944773303671
 30
0.0
  0
SPLINE
  5
B6
330
1F
100
AcDbEntity
  8
0
  6
Continuous
 62
     1
370
    15
100
AcDbSpline
210
0.0
220
0.0
230
1.0
 70
     8
 71
     3
 72
    38
 73
    34
 74
     0
 42
0.000000001
 43
0.00000001
 40
0.0
 40
0.0
 40
0.0
 40
0.0
 40
0.0625
 40
0.0625
 40
0.125
 40
0.125
 40
0.1875
 40
0.1875
 40
0.25
 40
0.25
 40
0.3125
 40
0.3125
 40
0.375
 40
0.375
 40
0.4375
 40
0.4375
 40
0.5
 40
0.5
 40
0.5625
 40
0.5625
 40
0.625
 40
0.625
 40
0.6875
 40
0.6875
 40
0.75
 40
0.75
 40
0.8125
 40
0.8125
 40
0.875
 40
0.875
 40
0.9375
 40
0.9375
 40
1.0
 40
1.0
 40
1.0
 40
1.0
 10
47.62500000000001
 20
-5.272552704669745
 30
0.0
 10
47.19776332835634
 20
-5.194413008082684
 30
0.0
 10
46.76568418750034
 20
-5.100189434525555
 30
0.0
 10
45.90340096109732
 20
-4.881822246299014
 30
0.0
 10
45.47643797048693
 20
-4.758053894243539
 30
0.0
 10
44.61688634092335
 20
-4.48231949281816
 30
0.0
 10
44.18413926790364
 20
-4.330246078674046
 30
0.0
 10
43.32432171499044
 20
-4.001761840742229
 30
0.0
 10
42.89753292720279
 20
-3.825473337613139
 30
0.0
 10
42.03534271113564
 20
-3.449874759563661
 30
0.0
 10
41.60317580441522
 20
-3.250965272253441
 30
0.0
 10
40.74826614891097
 20
-2.836428405260452
 30
0.0
 10
40.31670796307915
 20
-2.619386655428102
 30
0.0
 10
39.45434394794482
 20
-2.171000413987507
 30
0.0
 10
39.02718225883521
 20
-1.940334674792984
 30
0.0
 10
38.16790864537034
 20
-1.467920051747085
 30
0.0
 10
37.73516775886618
 20
-1.226024984360392
 30
0.0
 10
36.87509638787465
 20
-0.7373466225223586
 30
0.0
 10
36.44845729903057
 20
-0.4907170240699105
 30
0.0
 10
35.58637231050812
 20
0.0056855401272603
 30
0.0
 10
35.15412379669769
 20
0.2548435338997915
 30
0.0
 10
34.2987897039001
 20
0.7483967895890606
 30
0.0
 10
33.86772819342754
 20
0.9943238026605792
 30
0.0
 10
33.00529561498507
 20
1.478803550062431
 30
0.0
 10
32.57791074105465
 20
1.71662029475916
 30
0.0
 10
31.71892722335092
 20
2.181366396314125
 30
0.0
 10
31.28619870958181
 20
2.408462797933505
 30
0.0
 10
30.42588563773987
 20
2.845983964114303
 30
0.0
 10
29.99937173691049
 20
3.056281605175823
 30
0.0
 10
29.13740418816918
 20
3.45878586247605
 30
0.0
 10
28.7050802299425
 20
3.650430554530302
 30
0.0
 10
27.84933359463194
 20
4.009517495618403
 30
0.0
 10
27.41874445653961
 20
4.177981569667779
 30
0.0
 10
26.98749999999643
 20
4.333494491035223
 30
0.0
1001
PE_URL
1000

  0
SPLINE
  5
B7
330
1F
100
AcDbEntity
  8
0
  6
Continuous
 62
     1
370
    15
100
AcDbSpline
210
0.0
220
0.0
230
1.0
 70
     8
 71
     3
 72
    15
 73
    11
 74
     0
 42
0.000000001
 43
0.00000001
 40
0.0
 40
0.0
 40
0.0
 40
0.0
 40
0.1336407671743619
 40
0.2672364954139636
 40
0.4007995100634623
 40
0.5343422288043197
 40
0.6678771267330567
 40
0.8014167010966707
 40
0.9273440257260034
 40
1.0
 40
1.0
 40
1.0
 40
1.0
 10
47.62500000000001
 20
-4.383727143895903
 30
0.0
 10
46.98260659527003
 20
-4.249522366500785
 30
0.0
 10
45.69803628198303
 20
-3.981158040725181
 30
0.0
 10
43.77157517637355
 20
-3.37269484253468
 30
0.0
 10
41.8456477452752
 20
-2.642151761338233
 30
0.0
 10
39.92005453108382
 20
-1.802991512320882
 30
0.0
 10
37.99460518401641
 20
-0.8921068692806758
 30
0.0
 10
36.1056922004927
 20
0.0341446743251177
 30
0.0
 10
34.50952521446672
 20
0.8226890987814183
 30
0.0
 10
33.55499354169743
 20
1.266820633636848
 30
0.0
 10
33.20575758357086
 20
1.429315715292407
 30
0.0
1001
PE_URL
1000

  0
LINE
  5
B8
330
1F
100
AcDbEntity
  8
0
  6
Continuous
 62
     1
370
    15
100
AcDbLine
 10
47.62500000000001
 20
-5.272552704669746
 30
0.0
 11
47.62500000000001
 21
-4.383727143895903
 31
0.0
1001
PE_URL
1000

  0
SPLINE
  5
B9
330
1F
100
AcDbEntity
  8
0
  6
Continuous
 62
     1
370
    15
100
AcDbSpline
210
0.0
220
0.0
230
1.0
 70
     8
 71
     3
 72
    38
 73
    34
 74
     0
 42
0.000000001
 43
0.00000001
 40
0.0
 40
0.0
 40
0.0
 40
0.0
 40
0.0625
 40
0.0625
 40
0.1249999999999999
 40
0.1249999999999999
 40
0.1874999999999999
 40
0.1874999999999999
 40
0.2499999999999999
 40
0.2499999999999999
 40
0.3124999999999999
 40
0.3124999999999999
 40
0.3749999999999998
 40
0.3749999999999998
 40
0.4374999999999998
 40
0.4374999999999998
 40
0.4999999999999998
 40
0.4999999999999998
 40
0.5624999999999998
 40
0.5624999999999998
 40
0.6249999999999998
 40
0.6249999999999998
 40
0.6874999999999997
 40
0.6874999999999997
 40
0.7499999999999997
 40
0.7499999999999997
 40
0.8124999999999998
 40
0.8124999999999998
 40
0.8749999999999998
 40
0.8749999999999998
 40
0.9374999999999999
 40
0.9374999999999999
 40
1.0
 40
1.0
 40
1.0
 40
1.0
 10
47.62500000000001
 20
-5.551553942119706
 30
0.0
 10
47.19776332835642
 20
-5.541371903835813
 30
0.0
 10
46.76568418750048
 20
-5.514526382039867
 30
0.0
 10
45.90340096109762
 20
-5.427929165842392
 30
0.0
 10
45.4764379704873
 20
-5.36839519243892
 30
0.0
 10
44.61688634092388
 20
-5.217382291391484
 30
0.0
 10
44.18413926790424
 20
-5.125789929334315
 30
0.0
 10
43.32432171499119
 20
-4.912883091401838
 30
0.0
 10
42.89753292720362
 20
-4.79169531988578
 30
0.0
 10
42.03534271113662
 20
-4.520551892920571
 30
0.0
 10
41.60317580441626
 20
-4.370843986136641
 30
0.0
 10
40.74826614891215
 20
-4.047394191542039
 30
0.0
 10
40.31670796308043
 20
-3.87255241413343
 30
0.0
 10
39.45434394794624
 20
-3.500768433872774
 30
0.0
 10
39.0271822588367
 20
-3.304417860873809
 30
0.0
 10
38.16790864537198
 20
-2.892420033066346
 30
0.0
 10
37.73516775886789
 20
-2.67661464127072
 30
0.0
 10
36.87509638787651
 20
-2.231169757384823
 30
0.0
 10
36.4484572990325
 20
-2.001703142814972
 30
0.0
 10
35.58637231051021
 20
-1.53059743141758
 30
0.0
 10
35.15412379669985
 20
-1.28950972270747
 30
0.0
 10
34.29878970390237
 20
-0.8027963061815873
 30
0.0
 10
33.86772819342993
 20
-0.5556661423113777
 30
0.0
 10
33.0052956149876
 20
-0.0594852812374746
 30
0.0
 10
32.57791074105724
 20
0.1887893339782824
 30
0.0
 10
31.71892722335369
 20
0.6835377136650953
 30
0.0
 10
31.28619870958465
 20
0.9302190463602801
 30
0.0
 10
30.42588563774285
 20
1.415565526314376
 30
0.0
 10
29.99937173691355
 20
1.654052199959831
 30
0.0
 10
29.1374041881724
 20
2.121351878848337
 30
0.0
 10
28.70508022994579
 20
2.349553189890522
 30
0.0
 10
27.84933359463532
 20
2.789033780945188
 30
0.0
 10
27.41874445654313
 20
3.001551444151341
 30
0.0
 10
26.98750000000001
 20
3.204538230355082
 30
0.0
1001
PE_URL
1000

  0
SPLINE
  5
BA
330
1F
100
AcDbEntity
  8
0
  6
Continuous
 62
     1
370
    15
100
AcDbSpline
210
0.0
220
0.0
230
1.0
 70
     8
 71
     3
 72
    11
 73
     7
 74
     0
 42
0.000000001
 43
0.00000001
 40
0.0
 40
0.0
 40
0.0
 40
0.0
 40
0.0048789670388975
 40
0.3365843223523353
 40
0.6682923037064588
 40
0.9999999999999999
 40
0.9999999999999999
 40
0.9999999999999999
 40
0.9999999999999999
 10
33.83216080151939
 20
-0.5329160989928787
 30
0.0
 10
33.82102920161863
 20
-0.5285711028440263
 30
0.0
 10
33.05309574779019
 20
-0.2288237233832574
 30
0.0
 10
31.52835050459172
 20
0.4009681615994301
 30
0.0
 10
29.25792777677115
 20
1.305155720907506
 30
0.0
 10
27.74430904213001
 20
1.842169041217276
 30
0.0
 10
26.98750000000001
 20
2.110675585998546
 30
0.0
1001
PE_URL
1000

  0
SPLINE
  5
BB
330
1F
100
AcDbEntity
  8
외형선
  6
Continuous
370
    15
100
AcDbSpline
210
0.0
220
0.0
230
1.0
 70
    24
 71
     3
 72
    10
 73
     6
 74
     0
 42
0.000000001
 43
0.00000001
 40
0.0
 40
0.0
 40
0.0
 40
0.0
 40
0.4999999999999997
 40
0.4999999999999997
 40
1.0
 40
1.0
 40
1.0
 40
1.0
 10
26.98750000000001
 20
3.204538230355081
 30
0.0
 10
26.98750000000001
 20
3.113334500696871
 30
0.0
 10
26.98750000000001
 20
2.965063454336572
 30
0.0
 10
26.98750000000001
 20
2.58420185575207
 30
0.0
 10
26.98750000000001
 20
2.352951062580821
 30
0.0
 10
26.98750000000001
 20
2.110675585998547
 30
0.0
  0
LINE
  5
BC
330
1F
100
AcDbEntity
  8
0
  6
Continuous
 62
     1
370
    15
100
AcDbLine
 10
47.62500000000001
 20
-5.551553942119708
 30
0.0
 11
47.62500000000001
 21
-5.272552704669746
 31
0.0
1001
PE_URL
1000

  0
SPLINE
  5
BD
330
1F
100
AcDbEntity
  8
0
  6
Continuous
 62
     1
370
    15
100
AcDbSpline
210
0.0
220
0.0
230
1.0
 70
     8
 71
     3
 72
     8
 73
     4
 74
     0
 42
0.000000001
 43
0.00000001
 40
0.0
 40
0.0
 40
0.0
 40
0.0
 40
1.0
 40
1.0
 40
1.0
 40
1.0
 10
44.18705706602444
 20
1.554184009602994
 30
0.0
 10
43.98965030753582
 20
1.788049069802693
 30
0.0
 10
43.81342183394386
 20
2.013159355233475
 30
0.0
 10
43.66344740875952
 20
2.227416623920794
 30
0.0
1001
PE_URL
1000

  0
LINE
  5
BE
330
1F
100
AcDbEntity
  8
0
  6
Continuous
 62
     1
370
    15
100
AcDbLine
 10
43.73366073328418
 20
2.286332598632776
 30
0.0
 11
47.62500000000001
 21
0.0000000000000012
 31
0.0
1001
PE_URL
1000

  0
LINE
  5
BF
330
1F
100
AcDbEntity
  8
0
  6
Continuous
 62
     1
370
    15
100
AcDbLine
 10
47.62500000000001
 20
0.0000000000000012
 30
0.0
 11
47.62500000000001
 21
-1.484868618877213
 31
0.0
1001
PE_URL
1000

  0
SPLINE
  5
C0
330
1F
100
AcDbEntity
  8
0
  6
Continuous
 62
     1
370
    15
100
AcDbSpline
210
0.0
220
0.0
230
1.0
 70
     8
 71
     3
 72
    12
 73
     8
 74
     0
 42
0.000000001
 43
0.00000001
 40
0.0
 40
0.0
 40
0.0
 40
0.0
 40
0.5
 40
0.5
 40
0.75
 40
0.75
 40
1.0
 40
1.0
 40
1.0
 40
1.0
 10
47.62500000000001
 20
-1.484868618877213
 30
0.0
 10
47.02988160121406
 20
-1.017005130037888
 30
0.0
 10
46.44470338050394
 20
-0.5299579483693692
 30
0.0
 10
45.5822295740234
 20
0.2301280174900656
 30
0.0
 10
45.29733159546156
 20
0.488494834341449
 30
0.0
 10
44.73335424369752
 20
1.016457878328652
 30
0.0
 10
44.4558138577794
 20
1.28468404841472
 30
0.0
 10
44.18705706602444
 20
1.554184009602997
 30
0.0
1001
PE_URL
1000

  0
SPLINE
  5
C1
330
1F
100
AcDbEntity
  8
0
  6
Continuous
 62
     1
370
    15
100
AcDbSpline
210
0.0
220
0.0
230
1.0
 70
     8
 71
     3
 72
    14
 73
    10
 74
     0
 42
0.000000001
 43
0.00000001
 40
0.0
 40
0.0
 40
0.0
 40
0.0
 40
0.1504914760035665
 40
0.3009850994054634
 40
0.4514950966873102
 40
0.6020356478874569
 40
0.7526208465307128
 40
0.9005698733057955
 40
1.0
 40
1.0
 40
1.0
 40
1.0
 10
44.18705706602444
 20
1.554184009602993
 30
0.0
 10
43.54516983123423
 20
1.825994476998476
 30
0.0
 10
42.26138620241361
 20
2.369619290317047
 30
0.0
 10
40.3356379806204
 20
3.073972301752577
 30
0.0
 10
38.40965197233449
 20
3.65958178570248
 30
0.0
 10
36.48322060649454
 20
4.099698749670466
 30
0.0
 10
34.56764941345764
 20
4.368083043104326
 30
0.0
 10
32.8699687133938
 20
4.475374717146466
 30
0.0
 10
31.81477374556592
 20
4.418956005993959
 30
0.0
 10
31.39065486623908
 20
4.396279399985952
 30
0.0
1001
PE_URL
1000

  0
LINE
  5
C2
330
1F
100
AcDbEntity
  8
0
  6
Continuous
 62
     1
370
    15
100
AcDbLine
 10
47.62500000000001
 20
-4.383727143895901
 30
0.0
 11
47.62500000000001
 21
-1.484868618877213
 31
0.0
1001
PE_URL
1000

  0
SPLINE
  5
C3
330
1F
100
AcDbEntity
  8
0
  6
Continuous
 62
     1
370
    15
100
AcDbSpline
210
0.0
220
0.0
230
1.0
 70
    24
 71
     3
 72
     8
 73
     4
 74
     0
 42
0.000000001
 43
0.00000001
 40
0.0
 40
0.0
 40
0.0
 40
0.0
 40
1.0
 40
1.0
 40
1.0
 40
1.0
 10
44.24302406229179
 20
2.713739180137911
 30
0.0
 10
44.05962811240724
 20
2.55985170623038
 30
0.0
 10
43.86581162830925
 20
2.397220365908023
 30
0.0
 10
43.66344740875975
 20
2.22741662392057
 30
0.0
1001
PE_URL
1000

  0
LINE
  5
C4
330
1F
100
AcDbEntity
  8
0
  6
Continuous
 62
     1
370
    15
100
AcDbLine
 10
47.62500000000001
 20
3.889374999999997
 30
0.0
 11
45.55794337853907
 21
3.789525892565474
 31
0.0
1001
PE_URL
1000

  0
SPLINE
  5
C5
330
1F
100
AcDbEntity
  8
0
  6
Continuous
 62
     1
370
    15
100
AcDbSpline
210
0.0
220
0.0
230
1.0
 70
     8
 71
     3
 72
    10
 73
     6
 74
     0
 42
0.000000001
 43
0.00000001
 40
0.0
 40
0.0
 40
0.0
 40
0.0
 40
0.5
 40
0.5
 40
1.0
 40
1.0
 40
1.0
 40
1.0
 10
47.62500000000001
 20
3.889374999999999
 30
0.0
 10
47.05345098516719
 20
3.734335233050471
 30
0.0
 10
46.48538855591791
 20
3.56033671727896
 30
0.0
 10
45.3568903521389
 20
3.1708687888608
 30
0.0
 10
44.79639613348039
 20
2.95597042672075
 30
0.0
 10
44.2430240622915
 20
2.713739180138081
 30
0.0
1001
PE_URL
1000

  0
SPLINE
  5
C6
330
1F
100
AcDbEntity
  8
0
  6
Continuous
 62
     1
370
    15
100
AcDbSpline
210
0.0
220
0.0
230
1.0
 70
     8
 71
     3
 72
    12
 73
     8
 74
     0
 42
0.000000001
 43
0.00000001
 40
0.0
 40
0.0
 40
0.0
 40
0.0
 40
0.1472683773904262
 40
0.3605639220493302
 40
0.5737748235908527
 40
0.7869099205503023
 40
1.0
 40
1.0
 40
1.0
 40
1.0
 10
35.86358564626709
 20
-4.159246382917703
 30
0.0
 10
35.42785513494611
 20
-4.227830824525964
 30
0.0
 10
34.36103614160622
 20
-4.39574925817773
 30
0.0
 10
32.66324967748013
 20
-4.469719852142349
 30
0.0
 10
30.77073816653569
 20
-4.400407284429684
 30
0.0
 10
28.87890998650932
 20
-4.165702039783545
 30
0.0
 10
27.61792560083411
 20
-3.87758315516927
 30
0.0
 10
26.98750000000001
 20
-3.733538928287471
 30
0.0
1001
PE_URL
1000

  0
SPLINE
  5
C7
330
1F
100
AcDbEntity
  8
외형선
  6
Continuous
370
    15
100
AcDbSpline
210
0.0
220
0.0
230
1.0
 70
    24
 71
     3
 72
    14
 73
    10
 74
     0
 42
0.000000001
 43
0.00000001
 40
0.0
 40
0.0
 40
0.0
 40
0.0
 40
0.25
 40
0.25
 40
0.5
 40
0.5
 40
0.75
 40
0.75
 40
1.0
 40
1.0
 40
1.0
 40
1.0
 10
26.98750000000001
 20
2.110675585998546
 30
0.0
 10
26.98750000000001
 20
1.649870541323935
 30
0.0
 10
26.98750000000001
 20
1.153066622495046
 30
0.0
 10
26.98750000000001
 20
0.1268236421967686
 30
0.0
 10
26.98750000000001
 20
-0.4021799836557984
 30
0.0
 10
26.98750000000001
 20
-1.44086539803645
 30
0.0
 10
26.98750000000001
 20
-1.949993731550164
 30
0.0
 10
26.98750000000001
 20
-2.900505426202024
 30
0.0
 10
26.98750000000001
 20
-3.341559720400309
 30
0.0
 10
26.98750000000001
 20
-3.73353892828747
 30
0.0
  0
LINE
  5
C8
330
1F
100
AcDbEntity
  8
0
  6
Continuous
 62
     1
370
    15
100
AcDbLine
 10
47.62500000000001
 20
0.0000000000000012
 30
0.0
 11
47.62500000000001
 21
3.889375
 31
0.0
1001
PE_URL
1000

  0
SPLINE
  5
C9
330
1F
100
AcDbEntity
  8
외형선
  6
Continuous
370
    15
100
AcDbSpline
210
0.0
220
0.0
230
1.0
 70
    24
 71
     3
 72
    11
 73
     7
 74
     0
 42
0.000000001
 43
0.00000001
 40
0.0
 40
0.0
 40
0.0
 40
0.0
 40
0.2485756870221034
 40
0.4971513740442065
 40
0.8601499099642788
 40
1.0
 40
1.0
 40
1.0
 40
1.0
 10
26.98750000000001
 20
-3.733538928287471
 30
0.0
 10
26.98750000000001
 20
-3.829406496463414
 30
0.0
 10
26.98750000000001
 20
-4.021141632815298
 30
0.0
 10
26.98750000000001
 20
-4.238879326013148
 30
0.0
 10
26.98750000000001
 20
-4.367421246811793
 30
0.0
 10
26.98750000000001
 20
-4.347469270177729
 30
0.0
 10
26.98750000000001
 20
-4.341920312529966
 30
0.0
  0
SPLINE
  5
CA
330
1F
100
AcDbEntity
  8
0
  6
Continuous
 62
     1
370
    15
100
AcDbSpline
210
0.0
220
0.0
230
1.0
 70
     8
 71
     3
 72
    12
 73
     8
 74
     0
 42
0.000000001
 43
0.00000001
 40
0.0
 40
0.0
 40
0.0
 40
0.0
 40
0.0477950079050871
 40
0.2857589384794255
 40
0.5237332107425225
 40
0.7617897530521093
 40
1.0
 40
1.0
 40
1.0
 40
1.0
 10
39.9970198180893
 20
3.723933860461377
 30
0.0
 10
40.1185443742981
 20
3.779049269853604
 30
0.0
 10
40.84512084543021
 20
4.108575753310999
 30
0.0
 10
42.1766596673716
 20
4.583823095534983
 30
0.0
 10
43.99198635039848
 20
5.106338418992702
 30
0.0
 10
45.80802870859499
 20
5.450773089255997
 30
0.0
 10
47.01921260853736
 20
5.517953097541429
 30
0.0
 10
47.62500000000001
 20
5.551553942119704
 30
0.0
1001
PE_URL
1000

  0
LINE
  5
CB
330
1F
100
AcDbEntity
  8
0
  6
Continuous
 62
     1
370
    15
100
AcDbLine
 10
47.62500000000001
 20
3.889375
 30
0.0
 11
47.62500000000001
 21
5.551553942119706
 31
0.0
1001
PE_URL
1000

  0
LINE
  5
CC
330
1F
100
AcDbEntity
  8
중심선
 62
     1
100
AcDbLine
 10
-50.625
 20
-0.0000000000000062
 30
0.0
 11
50.625
 21
0.0000000000000062
 31
0.0
  0
LINE
  5
CD
330
1F
100
AcDbEntity
  8
참조1
100
AcDbLine
 10
0.0
 20
-0.0000000000000058
 30
0.0
 11
0.0000000000000071
 21
-40.00000000000001
 31
0.0
  0
LINE
  5
CE
330
1F
100
AcDbEntity
  8
참조1
100
AcDbLine
 10
0.0000000000000071
 20
-40.00000000000001
 30
0.0
 11
-12.87821559669922
 21
-40.0
 31
0.0
  0
CIRCLE
  5
CF
330
1F
100
AcDbEntity
  8
해칭선
100
AcDbCircle
 10
0.0
 20
0.0
 30
0.0
 40
3.000000000000002
  0
INSERT
  5
D0
330
1F
100
AcDbEntity
  8
0
  6
Continuous
 62
     7
100
AcDbBlockReference
 66
     1
  2
블럭10
 10
-13.94027293212521
 20
-52.04717430164393
 30
0.0
  0
ATTRIB
  5
D1
330
D0
100
AcDbEntity
  8
FORMAT
 62
     2
100
AcDbText
 10
-23.12156822086649
 20
-49.97180738881174
 30
0.0
 40
4.233333333333333
  1
E2050028 [ 2 FLUTE ]
 41
0.75
  7
SLDTEXTSTYLE0
 11
-23.12156822086649
 21
-52.08847405547841
 31
0.0
100
AcDbAttribute
  2
AUTOATTR0
 70
     0
 74
     1
  0
SEQEND
  5
D2
330
D0
100
AcDbEntity
  8
0
  6
Continuous
 62
     7
  0
HATCH
  5
D3
330
1F
100
AcDbEntity
  8
중심선
100
AcDbHatch
 10
0.0
 20
0.0
 30
0.0
210
0.0
220
0.0
230
1.0
  2
SOLID
 70
     1
 71
     0
 91
        1
 92
        0
 93
        4
 72
     1
 10
-8.225363627744372
 20
-35.8
 11
-11.67163887158165
 21
-35.8
 72
     1
 10
-11.67163887158165
 20
-35.8
 11
-13.79986873078568
 21
-38.33632558057257
 72
     1
 10
-13.79986873078568
 20
-38.33632558057257
 11
-10.35356040183525
 21
-38.33628615127008
 72
     1
 10
-10.35356040183525
 20
-38.33628615127008
 11
-8.225363627744372
 21
-35.8
 97
        0
 75
     0
 76
     1
 98
        1
 10
16.58171167873051
 20
-0.001074928723895
  0
HATCH
  5
D4
330
1F
100
AcDbEntity
  8
중심선
100
AcDbHatch
 10
0.0
 20
0.0
 30
0.0
210
0.0
220
0.0
230
1.0
  2
SOLID
 70
     1
 71
     0
 91
        1
 92
        0
 93
        4
 72
     1
 10
-3.212599636708394
 20
-35.8
 11
-6.658874880545646
 21
-35.8
 72
     1
 10
-6.658874880545646
 20
-35.8
 11
-11.19001288890309
 21
-41.20000000000002
 72
     1
 10
-11.19001288890309
 20
-41.20000000000002
 11
-7.743737645065806
 21
-41.20000000000002
 72
     1
 10
-7.743737645065806
 20
-41.20000000000002
 11
-3.212599636708394
 21
-35.8
 97
        0
 75
     0
 76
     1
 98
        1
 10
16.58171167873051
 20
-0.001074928723895
  0
HATCH
  5
D5
330
1F
100
AcDbEntity
  8
중심선
100
AcDbHatch
 10
0.0
 20
0.0
 30
0.0
210
0.0
220
0.0
230
1.0
  2
SOLID
 70
     1
 71
     0
 91
        1
 92
        0
 93
        4
 72
     1
 10
1.800164354327503
 20
-35.80000000000003
 11
-1.646110889509611
 21
-35.8
 72
     1
 10
-1.646110889509611
 20
-35.8
 11
-8.69454779139889
 21
-44.20000000000002
 72
     1
 10
-8.69454779139889
 20
-44.20000000000002
 11
-5.248272547561605
 21
-44.20000000000002
 72
     1
 10
-5.248272547561605
 20
-44.20000000000002
 11
1.800164354327503
 21
-35.80000000000003
 97
        0
 75
     0
 76
     1
 98
        1
 10
16.58171167873051
 20
-0.001074928723895
  0
HATCH
  5
D6
330
1F
100
AcDbEntity
  8
중심선
100
AcDbHatch
 10
0.0
 20
0.0
 30
0.0
210
0.0
220
0.0
230
1.0
  2
SOLID
 70
     1
 71
     0
 91
        1
 92
        0
 93
        6
 72
     3
 10
6.600054785339674
 20
-40.00000000005127
 11
3.960054785062283
 21
1.540882976769353E-10
 40
0.3939339440162628
 50
17.09539180608436
 51
320.0019657685077
 73
     0
 72
     1
 10
8.283054441040242
 20
-38.5878940046383
 11
10.58835631474131
 21
-36.65356729459035
 72
     3
 10
6.600054785286828
 20
-40.00000000000015
 11
6.600054785286829
 21
-1.278976924368180E-13
 40
0.636358354079598
 50
39.9987384933743
 51
368.4976242363725
 73
     1
 72
     1
 10
13.02538727718744
 20
-39.03999999993002
 11
5.280122092122751
 21
-39.03999999993
 72
     1
 10
5.280122092122751
 20
-39.03999999993
 11
5.280097047676817
 21
-40.95999999992991
 72
     1
 10
5.280097047676817
 20
-40.95999999992991
 11
9.721476817148854
 21
-40.95999999992988
 97
        0
 75
     0
 76
     1
 98
        1
 10
16.58171167873051
 20
-0.001074928723895
  0
DIMENSION
  5
D7
330
1F
100
AcDbEntity
  8
치수문자_일반주서
100
AcDbDimension
  2
_D
 10
-57.62499999999994
 20
-6.350000000000119
 30
0.0
 11
-57.62500000000004
 21
26.29774999999995
 31
0.0
 70
   160
  1
%%c<>
 71
     2
 42
12.69999999999999
 52
-270.0
  3
SLDDIMSTYLE0
100
AcDbAlignedDimension
 13
-23.02518467149224
 23
6.349999999999991
 33
0.0
 14
-23.04648890408583
 24
-6.349999999999994
 34
0.0
 50
90.0000000000002
100
AcDbRotatedDimension
1001
PE_URL
1000

1001
ACAD
1000
DSTYLE
1002
{
1070
   171
1070
     8
1070
   273
1070
     7
1002
}
  0
DIMENSION
  5
EC
330
1F
100
AcDbEntity
  8
치수문자_일반주서
100
AcDbDimension
  2
_D_1
 10
90.22912064560795
 20
5.551553942119867
 30
0.0
 11
90.22912064560786
 21
25.93680394211987
 31
0.0
 70
   160
  1
%%c<>
 71
     2
 42
11.10310788423941
 52
-270.0
  3
SLDDIMSTYLE0
100
AcDbAlignedDimension
 13
47.62500000000001
 23
-5.551553942119708
 33
0.0
 14
47.62500000000001
 24
5.551553942119706
 34
0.0
 50
90.0000000000002
100
AcDbRotatedDimension
1001
PE_URL
1000

1001
ACAD
1000
DSTYLE
1002
{
1070
   171
1070
     8
1070
   273
1070
     7
1002
}
  0
DIMENSION
  5
100
330
1F
100
AcDbEntity
  8
치수문자_일반주서
100
AcDbDimension
  2
_D_2
 10
26.98750000000001
 20
16.35000000000001
 30
0.0
 11
68.88525000000001
 21
16.35000000000001
 31
0.0
 70
   160
  1
<>
 71
     2
 42
20.6375
  3
SLDDIMSTYLE0
100
AcDbAlignedDimension
 13
47.62500000000001
 23
5.551553942119706
 33
0.0
 14
26.98750000000001
 24
4.362860043095576
 34
0.0
 50
0.0000000000000099
100
AcDbRotatedDimension
1001
PE_URL
1000

1001
ACAD
1000
DSTYLE
1002
{
1070
   171
1070
     8
1070
   273
1070
     7
1002
}
  0
DIMENSION
  5
115
330
1F
100
AcDbEntity
  8
치수문자_일반주서
100
AcDbDimension
  2
_D_3
 10
47.62500000000001
 20
26.35
 30
0.0
 11
0.0000000000000213
 21
26.35
 31
0.0
 70
   160
  1
<>
 71
     2
 42
95.25000000000003
  3
SLDDIMSTYLE0
100
AcDbAlignedDimension
 13
-47.62500000000001
 23
5.551553942119698
 33
0.0
 14
47.62500000000001
 24
5.551553942119706
 34
0.0
100
AcDbRotatedDimension
1001
PE_URL
1000

1001
ACAD
1000
DSTYLE
1002
{
1070
   171
1070
     8
1070
   273
1070
     7
1002
}
  0
LINE
  5
128
330
1F
100
AcDbEntity
  8
참조1
100
AcDbLine
 10
85.09412503295505
 20
7.44
 30
0.0
 11
85.09412503295505
 21
-7.440000000000004
 31
0.0
  0
LINE
  5
129
330
1F
100
AcDbEntity
  8
참조1
100
AcDbLine
 10
97.79412503295505
 20
5.44
 30
0.0
 11
85.09412503295505
 21
5.44
 31
0.0
  0
SOLID
  5
12A
330
1F
100
AcDbEntity
  8
참조1
100
AcDbTrace
 10
85.09412503295505
 20
5.44
 30
0.0
 11
91.44412503295504
 21
4.424
 31
0.0
 12
91.44412503295504
 22
6.456
 32
0.0
 13
91.44412503295504
 23
6.456
 33
0.0
  0
LINE
  5
12B
330
1F
100
AcDbEntity
  8
참조1
100
AcDbLine
 10
97.79412503295505
 20
-5.440000000000004
 30
0.0
 11
85.09412503295505
 21
-5.440000000000004
 31
0.0
  0
SOLID
  5
12C
330
1F
100
AcDbEntity
  8
참조1
100
AcDbTrace
 10
85.09412503295505
 20
-5.440000000000004
 30
0.0
 11
91.44412503295504
 21
-6.456000000000004
 31
0.0
 12
91.44412503295504
 22
-4.424000000000004
 32
0.0
 13
91.44412503295504
 23
-4.424000000000004
 33
0.0
  0
MTEXT
  5
12D
330
1F
100
AcDbEntity
  8
참조1
100
AcDbMText
 10
94.47847516558105
 20
11.01029177718833
 30
0.0
 40
3.5
 41
0.0
 71
     1
 72
     1
  1
A
  7
SLDTEXTSTYLE0
 73
     1
 44
1.0
  0
MTEXT
  5
12E
330
1F
100
AcDbEntity
  8
참조1
100
AcDbMText
 10
94.47847516558105
 20
0.1302917771883242
 30
0.0
 40
3.5
 41
0.0
 71
     1
 72
     1
  1
A
  7
SLDTEXTSTYLE0
 73
     1
 44
1.0
  0
INSERT
  5
135
330
1F
100
AcDbEntity
  8
해칭선
100
AcDbBlockReference
  2
SW_DOWELSYMBOL_0
 10
0.0
 20
0.0
 30
0.0
  0
LINE
  5
22C
330
1F
100
AcDbEntity
  8
외형선
  6
Continuous
370
    15
100
AcDbLine
 10
-5.587999999999939
 20
4.825999999999993
 30
0.0
 11
5.587999999999935
 21
4.825999999999993
 31
0.0
1001
PE_URL
1000

  0
LINE
  5
22D
330
1F
100
AcDbEntity
  8
외형선
  6
Continuous
370
    15
100
AcDbLine
 10
-5.587999999999939
 20
4.825999999999993
 30
0.0
 11
-7.11199999999994
 21
6.349999999999993
 31
0.0
1001
PE_URL
1000

  0
LINE
  5
22E
330
1F
100
AcDbEntity
  8
외형선
  6
Continuous
370
    15
100
AcDbLine
 10
5.588000000000049
 20
4.825999999999993
 30
0.0
 11
7.11200000000005
 21
6.349999999999993
 31
0.0
1001
PE_URL
1000

  0
LINE
  5
274
330
1F
100
AcDbEntity
  8
외형선
  6
Continuous
370
    15
100
AcDbLine
 10
-23.02518467149224
 20
6.349999999999993
 30
0.0
 11
-24.95750230037402
 21
5.832237051820696
 31
0.0
  0
LINE
  5
275
330
1F
100
AcDbEntity
  8
외형선
  6
Continuous
370
    15
100
AcDbLine
 10
-24.95750230037402
 20
-5.832237051820705
 30
0.0
 11
-23.02518467149223
 21
-6.350000000000001
 31
0.0
  0
SPLINE
  5
276
330
1F
100
AcDbEntity
  8
외형선
  6
Continuous
370
    15
100
AcDbSpline
210
0.0
220
0.0
230
1.0
 70
     8
 71
     3
 72
     9
 73
     5
 74
     0
 42
0.000000001
 43
0.00000001
 40
0.0
 40
0.0
 40
0.0
 40
0.0
 40
0.5452161555795045
 40
1.0
 40
1.0
 40
1.0
 40
1.0
 10
-24.95750318074065
 20
4.462079864401415
 30
0.0
 10
-25.32712576059573
 20
4.439006027047496
 30
0.0
 10
-26.00506344837795
 20
4.396685495790683
 30
0.0
 10
-26.68037789828058
 20
4.373434256712333
 30
0.0
 10
-26.98750000000001
 20
4.362859968816741
 30
0.0
  0
LINE
  5
277
330
1F
100
AcDbEntity
  8
외형선
  6
Continuous
370
    15
100
AcDbLine
 10
-26.98750000000001
 20
-4.362859968816746
 30
0.0
 11
-26.89277839892527
 21
-4.366424301351167
 31
0.0
  0
SPLINE
  5
278
330
1F
100
AcDbEntity
  8
0
  6
Continuous
 62
     1
370
    15
100
AcDbSpline
210
0.0
220
0.0
230
1.0
 70
     8
 71
     3
 72
    10
 73
     6
 74
     0
 42
0.000000001
 43
0.00000001
 40
0.0
 40
0.0
 40
0.0
 40
0.0
 40
0.4991143966717512
 40
0.6867264562585965
 40
1.0
 40
1.0
 40
1.0
 40
1.0
 10
-33.22903737017076
 20
-1.423916628332382
 30
0.0
 10
-32.97292160939129
 20
-1.546255685748132
 30
0.0
 10
-32.62053452145136
 20
-1.71458075896053
 30
0.0
 10
-32.10770255569365
 20
-1.97531857364223
 30
0.0
 10
-31.8504356978389
 20
-2.110234800244331
 30
0.0
 10
-31.68953089300553
 20
-2.194616711273547
 30
0.0
1001
PE_URL
1000

  0
LINE
  5
279
330
1F
100
AcDbEntity
  8
0
  6
Continuous
 62
     1
370
    15
100
AcDbLine
 10
-30.17905777340348
 20
-1.552869812495
 30
0.0
 11
-30.09824923780107
 21
-1.597342619965357
 31
0.0
1001
PE_URL
1000

  0
SPLINE
  5
27A
330
1F
100
AcDbEntity
  8
0
  6
Continuous
 62
     1
370
    15
100
AcDbSpline
210
0.0
220
0.0
230
1.0
 70
     8
 71
     3
 72
    13
 73
     9
 74
     0
 42
0.000000001
 43
0.00000001
 40
0.0
 40
0.0
 40
0.0
 40
0.0
 40
0.1805989367394509
 40
0.3332552295010635
 40
0.4619695290018776
 40
0.6038200536708602
 40
0.7822993404155969
 40
1.0
 40
1.0
 40
1.0
 40
1.0
 10
-31.39322400351812
 20
-4.415209384052634
 30
0.0
 10
-31.1383672168635
 20
-4.402268242439963
 30
0.0
 10
-30.66808561687259
 20
-4.378388239622684
 30
0.0
 10
-29.99257993871118
 20
-4.354950573581871
 30
0.0
 10
-29.35640279270663
 20
-4.343763878176492
 30
0.0
 10
-28.68369342727624
 20
-4.337825308665931
 30
0.0
 10
-27.88619140640239
 20
-4.340376716494927
 30
0.0
 10
-27.30620319741653
 20
-4.354886726442071
 30
0.0
 10
-26.98750000000001
 20
-4.36285996881675
 30
0.0
1001
PE_URL
1000

  0
SPLINE
  5
27B
330
1F
100
AcDbEntity
  8
0
  6
Continuous
 62
     1
370
    15
100
AcDbSpline
210
0.0
220
0.0
230
1.0
 70
     8
 71
     3
 72
    27
 73
    23
 74
     0
 42
0.000000001
 43
0.00000001
 40
0.0
 40
0.0
 40
0.0
 40
0.0
 40
0.0692330727861391
 40
0.1236310150792464
 40
0.1673255073041213
 40
0.2124472694430784
 40
0.2586540104298972
 40
0.2988949237732065
 40
0.3525057776424034
 40
0.4131218106012601
 40
0.4877392276686758
 40
0.5464527053494181
 40
0.5905479636734896
 40
0.6305785854930475
 40
0.6741279526008062
 40
0.7329442431334126
 40
0.7787050415759567
 40
0.817090159232264
 40
0.8464230692316105
 40
0.878768140293922
 40
0.929821254927323
 40
1.0
 40
1.0
 40
1.0
 40
1.0
 10
-45.56005061123524
 20
-3.800214760517218
 30
0.0
 10
-45.34109883602773
 20
-3.782270345733295
 30
0.0
 10
-44.95011185346344
 20
-3.750226611063418
 30
0.0
 10
-44.40947142038176
 20
-3.716721883536543
 30
0.0
 10
-43.93629671591296
 20
-3.693195786932815
 30
0.0
 10
-43.49577454879994
 20
-3.676083460331721
 30
0.0
 10
-43.0705522756989
 20
-3.664502277669136
 30
0.0
 10
-42.61755116689457
 20
-3.6572473911143
 30
0.0
 10
-42.11751108759847
 20
-3.655266740873422
 30
0.0
 10
-41.50622202347813
 20
-3.661778110771884
 30
0.0
 10
-40.87912081516862
 20
-3.679470146908415
 30
0.0
 10
-40.30495993008267
 20
-3.705326586430267
 30
0.0
 10
-39.84248840386385
 20
-3.732092039897822
 30
0.0
 10
-39.42927438471087
 20
-3.760342464349751
 30
0.0
 10
-38.96887263700035
 20
-3.796697345828711
 30
0.0
 10
-38.49008099993026
 20
-3.84050592748882
 30
0.0
 10
-38.02737702176574
 20
-3.888368428456793
 30
0.0
 10
-37.65970013782668
 20
-3.929989814280816
 30
0.0
 10
-37.33464792117609
 20
-3.9693167517954
 30
0.0
 10
-36.96935896769553
 20
-4.016191810706729
 30
0.0
 10
-36.47353845709388
 20
-4.084258240509406
 30
0.0
 10
-36.08125968302753
 20
-4.144300107669814
 30
0.0
 10
-35.85417719704266
 20
-4.179057166576222
 30
0.0
1001
PE_URL
1000

  0
SPLINE
  5
27C
330
1F
100
AcDbEntity
  8
0
  6
Continuous
 62
     1
370
    15
100
AcDbSpline
210
0.0
220
0.0
230
1.0
 70
     8
 71
     3
 72
    17
 73
    13
 74
     0
 42
0.000000001
 43
0.00000001
 40
0.0
 40
0.0
 40
0.0
 40
0.0
 40
0.1741673143468006
 40
0.2971845628600666
 40
0.3724154048296074
 40
0.4513905037985832
 40
0.5601146213688971
 40
0.6772307965519125
 40
0.7719082750672769
 40
0.8708970321022484
 40
0.9628099536185194
 40
1.0
 40
1.0
 40
1.0
 40
1.0
 10
-35.85417719704265
 20
4.179057166576214
 30
0.0
 10
-36.09466141938107
 20
4.142299876485247
 30
0.0
 10
-36.50500361681588
 20
4.079580305774904
 30
0.0
 10
-37.01792310374969
 20
4.009713662427243
 30
0.0
 10
-37.40170852096101
 20
3.960961307659204
 30
0.0
 10
-37.7658993536252
 20
3.917534449622149
 30
0.0
 10
-38.18714357190868
 20
3.871177161459467
 30
0.0
 10
-38.62959748847339
 20
3.827456372124303
 30
0.0
 10
-39.05818986560759
 20
3.789464403523183
 30
0.0
 10
-39.4522441878554
 20
3.758875024482697
 30
0.0
 10
-39.76724915193908
 20
3.736835379521638
 30
0.0
 10
-39.94559133196668
 20
3.726800269403611
 30
0.0
 10
-39.99696547196517
 20
3.723909505412591
 30
0.0
1001
PE_URL
1000

  0
SPLINE
  5
27D
330
1F
100
AcDbEntity
  8
0
  6
Continuous
 62
     1
370
    15
100
AcDbSpline
210
0.0
220
0.0
230
1.0
 70
     8
 71
     3
 72
     9
 73
     5
 74
     0
 42
0.000000001
 43
0.00000001
 40
0.0
 40
0.0
 40
0.0
 40
0.0
 40
0.4298314037068123
 40
1.0
 40
1.0
 40
1.0
 40
1.0
 10
-26.98750000000001
 20
4.362859968816741
 30
0.0
 10
-27.61773555698124
 20
4.34957937550166
 30
0.0
 10
-29.08397453241708
 20
4.318682160452813
 30
0.0
 10
-30.55467613513201
 20
4.380157866837266
 30
0.0
 10
-31.39322400351812
 20
4.41520938405262
 30
0.0
1001
PE_URL
1000

  0
LINE
  5
27E
330
1F
100
AcDbEntity
  8
외형선
  6
Continuous
370
    15
100
AcDbLine
 10
-23.02518467149223
 20
-6.350000000000001
 30
0.0
 11
-23.02518467149224
 21
6.349999999999991
 31
0.0
  0
SPLINE
  5
27F
330
1F
100
AcDbEntity
  8
외형선
  6
Continuous
370
    15
100
AcDbSpline
210
0.0
220
0.0
230
1.0
 70
     8
 71
     3
 72
     8
 73
     4
 74
     0
 42
0.000000001
 43
0.00000001
 40
0.0
 40
0.0
 40
0.0
 40
0.0
 40
1.0
 40
1.0
 40
1.0
 40
1.0
 10
-25.98750000000001
 20
-4.670944773303674
 30
0.0
 10
-25.64324932870815
 20
-4.835048319758464
 30
0.0
 10
-25.29991719828916
 20
-4.996177491592181
 30
0.0
 10
-24.95750471191372
 20
-5.154025032936659
 30
0.0
  0
LINE
  5
280
330
1F
100
AcDbEntity
  8
외형선
  6
Continuous
370
    15
100
AcDbLine
 10
-25.98750000000001
 20
-4.670944773303674
 30
0.0
 11
-25.98750000000002
 21
-3.658238769427584
 31
0.0
  0
SPLINE
  5
281
330
1F
100
AcDbEntity
  8
외형선
  6
Continuous
370
    15
100
AcDbSpline
210
0.0
220
0.0
230
1.0
 70
     8
 71
     3
 72
     8
 73
     4
 74
     0
 42
0.000000001
 43
0.00000001
 40
0.0
 40
0.0
 40
0.0
 40
0.0
 40
1.0
 40
1.0
 40
1.0
 40
1.0
 10
-24.95750230037402
 20
-4.216450766198296
 30
0.0
 10
-25.30145831011714
 20
-4.033497272059464
 30
0.0
 10
-25.64477561324243
 20
-3.847441373331982
 30
0.0
 10
-25.98749999999971
 20
-3.658238769427758
 30
0.0
  0
LINE
  5
282
330
1F
100
AcDbEntity
  8
외형선
  6
Continuous
370
    15
100
AcDbLine
 10
-24.95750230037402
 20
5.832237051820696
 30
0.0
 11
-24.95750230037402
 21
-4.216521580975751
 31
0.0
  0
SPLINE
  5
283
330
1F
100
AcDbEntity
  8
외형선
  6
Continuous
370
    15
100
AcDbSpline
210
0.0
220
0.0
230
1.0
 70
     8
 71
     3
 72
     8
 73
     4
 74
     0
 42
0.000000001
 43
0.00000001
 40
0.0
 40
0.0
 40
0.0
 40
0.0
 40
1.0
 40
1.0
 40
1.0
 40
1.0
 10
-25.98750000000002
 20
4.670944773303662
 30
0.0
 10
-25.64324932870815
 20
4.835048319758448
 30
0.0
 10
-25.29991719828917
 20
4.996177491592167
 30
0.0
 10
-24.95750471191372
 20
5.15402503293665
 30
0.0
  0
LINE
  5
284
330
1F
100
AcDbEntity
  8
외형선
  6
Continuous
370
    15
100
AcDbLine
 10
-24.95750230037402
 20
-5.154077506755527
 30
0.0
 11
-24.95750230037402
 21
-5.832237051820705
 31
0.0
  0
SPLINE
  5
285
330
1F
100
AcDbEntity
  8
외형선
  6
Continuous
370
    15
100
AcDbSpline
210
0.0
220
0.0
230
1.0
 70
    24
 71
     3
 72
    10
 73
     6
 74
     0
 42
0.000000001
 43
0.00000001
 40
0.0
 40
0.0
 40
0.0
 40
0.0
 40
0.4999999999999997
 40
0.4999999999999997
 40
1.0
 40
1.0
 40
1.0
 40
1.0
 10
-26.98750000000002
 20
-3.204538230355087
 30
0.0
 10
-26.98750000000002
 20
-3.113334500696876
 30
0.0
 10
-26.98750000000002
 20
-2.96506345433658
 30
0.0
 10
-26.98750000000002
 20
-2.584201855752074
 30
0.0
 10
-26.98750000000002
 20
-2.352951062580825
 30
0.0
 10
-26.98750000000002
 20
-2.110675585998553
 30
0.0
  0
SPLINE
  5
286
330
1F
100
AcDbEntity
  8
외형선
  6
Continuous
370
    15
100
AcDbSpline
210
0.0
220
0.0
230
1.0
 70
     8
 71
     3
 72
     8
 73
     4
 74
     0
 42
0.000000001
 43
0.00000001
 40
0.0
 40
0.0
 40
0.0
 40
0.0
 40
1.0
 40
1.0
 40
1.0
 40
1.0
 10
-26.98750000000002
 20
-2.110675585998553
 30
0.0
 10
-26.30864676345617
 20
-2.340653025544182
 30
0.0
 10
-25.6364369106012
 20
-2.554197989191348
 30
0.0
 10
-24.95750288118441
 20
-2.74796990023076
 30
0.0
  0
SPLINE
  5
287
330
1F
100
AcDbEntity
  8
외형선
  6
Continuous
370
    15
100
AcDbSpline
210
0.0
220
0.0
230
1.0
 70
     8
 71
     3
 72
     8
 73
     4
 74
     0
 42
0.000000001
 43
0.00000001
 40
0.0
 40
0.0
 40
0.0
 40
0.0
 40
1.0
 40
1.0
 40
1.0
 40
1.0
 10
-26.98750000000001
 20
-3.204538230355087
 30
0.0
 10
-26.65294540885591
 20
-3.362013092317188
 30
0.0
 10
-26.31918557981921
 20
-3.51356591959204
 30
0.0
 10
-25.98750000000002
 20
-3.658238769427584
 30
0.0
  0
SPLINE
  5
288
330
1F
100
AcDbEntity
  8
외형선
  6
Continuous
370
    15
100
AcDbSpline
210
0.0
220
0.0
230
1.0
 70
     8
 71
     3
 72
     8
 73
     4
 74
     0
 42
0.000000001
 43
0.00000001
 40
0.0
 40
0.0
 40
0.0
 40
0.0
 40
1.0
 40
1.0
 40
1.0
 40
1.0
 10
-26.98750000000001
 20
-4.333494491033935
 30
0.0
 10
-26.65294540885591
 20
-4.454139663479243
 30
0.0
 10
-26.31918557981919
 20
-4.566850508388917
 30
0.0
 10
-25.98750000000001
 20
-4.670944773303678
 30
0.0
  0
LINE
  5
289
330
1F
100
AcDbEntity
  8
외형선
  6
Continuous
370
    15
100
AcDbLine
 10
-26.98750000000001
 20
-4.333494491033935
 30
0.0
 11
-26.98750000000002
 21
-3.204538230355087
 31
0.0
  0
SPLINE
  5
28A
330
1F
100
AcDbEntity
  8
외형선
  6
Continuous
370
    15
100
AcDbSpline
210
0.0
220
0.0
230
1.0
 70
     8
 71
     3
 72
     8
 73
     4
 74
     0
 42
0.000000001
 43
0.00000001
 40
0.0
 40
0.0
 40
0.0
 40
0.0
 40
1.0
 40
1.0
 40
1.0
 40
1.0
 10
-26.98750000000002
 20
3.733538928287464
 30
0.0
 10
-26.30864686329637
 20
3.56372634556241
 30
0.0
 10
-25.63643711027968
 20
3.366734592253472
 30
0.0
 10
-24.95750318074065
 20
3.145640282077929
 30
0.0
  0
SPLINE
  5
28B
330
1F
100
AcDbEntity
  8
외형선
  6
Continuous
370
    15
100
AcDbSpline
210
0.0
220
0.0
230
1.0
 70
    24
 71
     3
 72
    14
 73
    10
 74
     0
 42
0.000000001
 43
0.00000001
 40
0.0
 40
0.0
 40
0.0
 40
0.0
 40
0.25
 40
0.25
 40
0.5
 40
0.5
 40
0.75
 40
0.75
 40
1.0
 40
1.0
 40
1.0
 40
1.0
 10
-26.98750000000002
 20
-2.110675585998553
 30
0.0
 10
-26.98750000000002
 20
-1.649870541323942
 30
0.0
 10
-26.98750000000002
 20
-1.153066622495054
 30
0.0
 10
-26.98750000000002
 20
-0.1268236421967757
 30
0.0
 10
-26.98750000000001
 20
0.4021799836557918
 30
0.0
 10
-26.98750000000001
 20
1.440865398036443
 30
0.0
 10
-26.98750000000001
 20
1.949993731550158
 30
0.0
 10
-26.98750000000001
 20
2.900505426202017
 30
0.0
 10
-26.98750000000001
 20
3.341559720400301
 30
0.0
 10
-26.98750000000002
 20
3.733538928287462
 30
0.0
  0
SPLINE
  5
28C
330
1F
100
AcDbEntity
  8
외형선
  6
Continuous
370
    15
100
AcDbSpline
210
0.0
220
0.0
230
1.0
 70
    24
 71
     3
 72
    11
 73
     7
 74
     0
 42
0.000000001
 43
0.00000001
 40
0.0
 40
0.0
 40
0.0
 40
0.0
 40
0.2466825287057312
 40
0.4965867959418006
 40
0.8591693410755036
 40
1.0
 40
1.0
 40
1.0
 40
1.0
 10
-26.98750000000002
 20
3.733538928287464
 30
0.0
 10
-26.98750000000002
 20
3.828882815018041
 30
0.0
 10
-26.98750000000002
 20
4.020815804648835
 30
0.0
 10
-26.98750000000002
 20
4.238568299858754
 30
0.0
 10
-26.98750000000002
 20
4.367519089062169
 30
0.0
 10
-26.98750000000002
 20
4.347462237507697
 30
0.0
 10
-26.98750000000002
 20
4.341851300810772
 30
0.0
  0
SPLINE
  5
28D
330
1F
100
AcDbEntity
  8
외형선
  6
Continuous
370
    15
100
AcDbSpline
210
0.0
220
0.0
230
1.0
 70
     8
 71
     3
 72
     9
 73
     5
 74
     0
 42
0.000000001
 43
0.00000001
 40
0.0
 40
0.0
 40
0.0
 40
0.0
 40
0.5149679436676268
 40
1.0
 40
1.0
 40
1.0
 40
1.0
 10
-26.89245386048564
 20
4.366537126611041
 30
0.0
 10
-26.73701269445297
 20
4.421505298092145
 30
0.0
 10
-26.43516639907853
 20
4.52824625577122
 30
0.0
 10
-26.13371405185841
 20
4.624337459273503
 30
0.0
 10
-25.98750000000001
 20
4.670944773303665
 30
0.0
  0
SPLINE
  5
28E
330
1F
100
AcDbEntity
  8
0
  6
Continuous
 62
     1
370
    15
100
AcDbSpline
210
0.0
220
0.0
230
1.0
 70
     8
 71
     3
 72
    38
 73
    34
 74
     0
 42
0.000000001
 43
0.00000001
 40
0.0
 40
0.0
 40
0.0
 40
0.0
 40
0.0625
 40
0.0625
 40
0.125
 40
0.125
 40
0.1875
 40
0.1875
 40
0.25
 40
0.25
 40
0.3125
 40
0.3125
 40
0.375
 40
0.375
 40
0.4375
 40
0.4375
 40
0.5
 40
0.5
 40
0.5625
 40
0.5625
 40
0.625
 40
0.625
 40
0.6875
 40
0.6875
 40
0.75
 40
0.75
 40
0.8125
 40
0.8125
 40
0.875
 40
0.875
 40
0.9375
 40
0.9375
 40
1.0
 40
1.0
 40
1.0
 40
1.0
 10
-47.62500000000001
 20
5.272552704669737
 30
0.0
 10
-47.19776332835634
 20
5.194413008082678
 30
0.0
 10
-46.76568418750034
 20
5.100189434525548
 30
0.0
 10
-45.90340096109732
 20
4.881822246299006
 30
0.0
 10
-45.47643797048694
 20
4.758053894243531
 30
0.0
 10
-44.61688634092336
 20
4.482319492818153
 30
0.0
 10
-44.18413926790365
 20
4.330246078674039
 30
0.0
 10
-43.32432171499045
 20
4.001761840742223
 30
0.0
 10
-42.89753292720279
 20
3.825473337613131
 30
0.0
 10
-42.03534271113564
 20
3.449874759563654
 30
0.0
 10
-41.60317580441522
 20
3.250965272253433
 30
0.0
 10
-40.74826614891097
 20
2.836428405260444
 30
0.0
 10
-40.31670796307915
 20
2.619386655428094
 30
0.0
 10
-39.45434394794482
 20
2.1710004139875
 30
0.0
 10
-39.02718225883521
 20
1.940334674792975
 30
0.0
 10
-38.16790864537035
 20
1.467920051747079
 30
0.0
 10
-37.73516775886618
 20
1.226024984360386
 30
0.0
 10
-36.87509638787465
 20
0.7373466225223524
 30
0.0
 10
-36.44845729903057
 20
0.4907170240699052
 30
0.0
 10
-35.58637231050812
 20
-0.0056855401272671
 30
0.0
 10
-35.15412379669769
 20
-0.2548435338997983
 30
0.0
 10
-34.2987897039001
 20
-0.7483967895890657
 30
0.0
 10
-33.86772819342754
 20
-0.9943238026605847
 30
0.0
 10
-33.00529561498507
 20
-1.478803550062441
 30
0.0
 10
-32.57791074105465
 20
-1.716620294759167
 30
0.0
 10
-31.71892722335093
 20
-2.181366396314132
 30
0.0
 10
-31.28619870958182
 20
-2.408462797933513
 30
0.0
 10
-30.42588563773988
 20
-2.845983964114311
 30
0.0
 10
-29.9993717369105
 20
-3.05628160517583
 30
0.0
 10
-29.13740418816919
 20
-3.458785862476056
 30
0.0
 10
-28.70508022994251
 20
-3.65043055453031
 30
0.0
 10
-27.84933359463194
 20
-4.009517495618407
 30
0.0
 10
-27.41874445653962
 20
-4.177981569667786
 30
0.0
 10
-26.98749999999643
 20
-4.333494491035228
 30
0.0
1001
PE_URL
1000

  0
SPLINE
  5
28F
330
1F
100
AcDbEntity
  8
0
  6
Continuous
 62
     1
370
    15
100
AcDbSpline
210
0.0
220
0.0
230
1.0
 70
     8
 71
     3
 72
    15
 73
    11
 74
     0
 42
0.000000001
 43
0.00000001
 40
0.0
 40
0.0
 40
0.0
 40
0.0
 40
0.1336407671743619
 40
0.2672364954139636
 40
0.4007995100634623
 40
0.5343422288043197
 40
0.6678771267330567
 40
0.8014167010966707
 40
0.9273440257260034
 40
1.0
 40
1.0
 40
1.0
 40
1.0
 10
-47.62500000000001
 20
4.383727143895895
 30
0.0
 10
-46.98260659527003
 20
4.249522366500779
 30
0.0
 10
-45.69803628198304
 20
3.981158040725173
 30
0.0
 10
-43.77157517637356
 20
3.372694842534674
 30
0.0
 10
-41.8456477452752
 20
2.642151761338225
 30
0.0
 10
-39.92005453108382
 20
1.802991512320872
 30
0.0
 10
-37.99460518401641
 20
0.8921068692806671
 30
0.0
 10
-36.1056922004927
 20
-0.0341446743251232
 30
0.0
 10
-34.50952521446672
 20
-0.8226890987814244
 30
0.0
 10
-33.55499354169744
 20
-1.266820633636858
 30
0.0
 10
-33.20575758357086
 20
-1.429315715292415
 30
0.0
1001
PE_URL
1000

  0
LINE
  5
290
330
1F
100
AcDbEntity
  8
0
  6
Continuous
 62
     1
370
    15
100
AcDbLine
 10
-47.62500000000001
 20
5.272552704669739
 30
0.0
 11
-47.62500000000001
 21
4.383727143895895
 31
0.0
1001
PE_URL
1000

  0
SPLINE
  5
291
330
1F
100
AcDbEntity
  8
0
  6
Continuous
 62
     1
370
    15
100
AcDbSpline
210
0.0
220
0.0
230
1.0
 70
     8
 71
     3
 72
    38
 73
    34
 74
     0
 42
0.000000001
 43
0.00000001
 40
0.0
 40
0.0
 40
0.0
 40
0.0
 40
0.0625
 40
0.0625
 40
0.1249999999999999
 40
0.1249999999999999
 40
0.1874999999999999
 40
0.1874999999999999
 40
0.2499999999999999
 40
0.2499999999999999
 40
0.3124999999999999
 40
0.3124999999999999
 40
0.3749999999999998
 40
0.3749999999999998
 40
0.4374999999999998
 40
0.4374999999999998
 40
0.4999999999999998
 40
0.4999999999999998
 40
0.5624999999999998
 40
0.5624999999999998
 40
0.6249999999999998
 40
0.6249999999999998
 40
0.6874999999999997
 40
0.6874999999999997
 40
0.7499999999999997
 40
0.7499999999999997
 40
0.8124999999999998
 40
0.8124999999999998
 40
0.8749999999999998
 40
0.8749999999999998
 40
0.9374999999999999
 40
0.9374999999999999
 40
1.0
 40
1.0
 40
1.0
 40
1.0
 10
-47.62500000000001
 20
5.551553942119698
 30
0.0
 10
-47.19776332835642
 20
5.541371903835808
 30
0.0
 10
-46.76568418750048
 20
5.514526382039861
 30
0.0
 10
-45.90340096109762
 20
5.427929165842384
 30
0.0
 10
-45.4764379704873
 20
5.368395192438914
 30
0.0
 10
-44.61688634092388
 20
5.217382291391477
 30
0.0
 10
-44.18413926790424
 20
5.125789929334308
 30
0.0
 10
-43.32432171499119
 20
4.912883091401831
 30
0.0
 10
-42.89753292720363
 20
4.791695319885772
 30
0.0
 10
-42.03534271113662
 20
4.520551892920563
 30
0.0
 10
-41.60317580441627
 20
4.370843986136633
 30
0.0
 10
-40.74826614891215
 20
4.047394191542031
 30
0.0
 10
-40.31670796308043
 20
3.872552414133423
 30
0.0
 10
-39.45434394794624
 20
3.500768433872768
 30
0.0
 10
-39.0271822588367
 20
3.304417860873802
 30
0.0
 10
-38.16790864537198
 20
2.892420033066339
 30
0.0
 10
-37.73516775886789
 20
2.676614641270714
 30
0.0
 10
-36.87509638787651
 20
2.231169757384816
 30
0.0
 10
-36.4484572990325
 20
2.001703142814964
 30
0.0
 10
-35.58637231051021
 20
1.530597431417572
 30
0.0
 10
-35.15412379669985
 20
1.289509722707464
 30
0.0
 10
-34.29878970390237
 20
0.8027963061815804
 30
0.0
 10
-33.86772819342993
 20
0.5556661423113738
 30
0.0
 10
-33.0052956149876
 20
0.0594852812374675
 30
0.0
 10
-32.57791074105724
 20
-0.188789333978292
 30
0.0
 10
-31.7189272233537
 20
-0.6835377136651033
 30
0.0
 10
-31.28619870958466
 20
-0.9302190463602891
 30
0.0
 10
-30.42588563774286
 20
-1.415565526314385
 30
0.0
 10
-29.99937173691355
 20
-1.654052199959839
 30
0.0
 10
-29.1374041881724
 20
-2.121351878848344
 30
0.0
 10
-28.70508022994579
 20
-2.349553189890528
 30
0.0
 10
-27.84933359463533
 20
-2.789033780945193
 30
0.0
 10
-27.41874445654313
 20
-3.001551444151346
 30
0.0
 10
-26.98750000000002
 20
-3.204538230355087
 30
0.0
1001
PE_URL
1000

  0
SPLINE
  5
292
330
1F
100
AcDbEntity
  8
0
  6
Continuous
 62
     1
370
    15
100
AcDbSpline
210
0.0
220
0.0
230
1.0
 70
     8
 71
     3
 72
    11
 73
     7
 74
     0
 42
0.000000001
 43
0.00000001
 40
0.0
 40
0.0
 40
0.0
 40
0.0
 40
0.0048789670388975
 40
0.3365843223523353
 40
0.6682923037064588
 40
0.9999999999999999
 40
0.9999999999999999
 40
0.9999999999999999
 40
0.9999999999999999
 10
-33.83216080151939
 20
0.5329160989928745
 30
0.0
 10
-33.82102920161863
 20
0.5285711028440225
 30
0.0
 10
-33.05309574779019
 20
0.2288237233832504
 30
0.0
 10
-31.52835050459172
 20
-0.4009681615994367
 30
0.0
 10
-29.25792777677115
 20
-1.305155720907511
 30
0.0
 10
-27.74430904213002
 20
-1.842169041217282
 30
0.0
 10
-26.98750000000002
 20
-2.110675585998553
 30
0.0
1001
PE_URL
1000

  0
SPLINE
  5
293
330
1F
100
AcDbEntity
  8
외형선
  6
Continuous
370
    15
100
AcDbSpline
210
0.0
220
0.0
230
1.0
 70
    24
 71
     3
 72
    10
 73
     6
 74
     0
 42
0.000000001
 43
0.00000001
 40
0.0
 40
0.0
 40
0.0
 40
0.0
 40
0.4999999999999997
 40
0.4999999999999997
 40
1.0
 40
1.0
 40
1.0
 40
1.0
 10
-26.98750000000002
 20
-3.204538230355087
 30
0.0
 10
-26.98750000000002
 20
-3.113334500696876
 30
0.0
 10
-26.98750000000002
 20
-2.965063454336576
 30
0.0
 10
-26.98750000000002
 20
-2.584201855752074
 30
0.0
 10
-26.98750000000002
 20
-2.352951062580825
 30
0.0
 10
-26.98750000000002
 20
-2.110675585998553
 30
0.0
  0
LINE
  5
294
330
1F
100
AcDbEntity
  8
0
  6
Continuous
 62
     1
370
    15
100
AcDbLine
 10
-47.62500000000001
 20
5.551553942119702
 30
0.0
 11
-47.62500000000001
 21
5.272552704669739
 31
0.0
1001
PE_URL
1000

  0
SPLINE
  5
295
330
1F
100
AcDbEntity
  8
0
  6
Continuous
 62
     1
370
    15
100
AcDbSpline
210
0.0
220
0.0
230
1.0
 70
     8
 71
     3
 72
     8
 73
     4
 74
     0
 42
0.000000001
 43
0.00000001
 40
0.0
 40
0.0
 40
0.0
 40
0.0
 40
1.0
 40
1.0
 40
1.0
 40
1.0
 10
-44.18705706602444
 20
-1.554184009603002
 30
0.0
 10
-43.98965030753583
 20
-1.7880490698027
 30
0.0
 10
-43.81342183394386
 20
-2.013159355233483
 30
0.0
 10
-43.66344740875952
 20
-2.227416623920799
 30
0.0
1001
PE_URL
1000

  0
LINE
  5
296
330
1F
100
AcDbEntity
  8
0
  6
Continuous
 62
     1
370
    15
100
AcDbLine
 10
-43.73366073328418
 20
-2.286332598632782
 30
0.0
 11
-47.62500000000001
 21
-0.0000000000000107
 31
0.0
1001
PE_URL
1000

  0
LINE
  5
297
330
1F
100
AcDbEntity
  8
0
  6
Continuous
 62
     1
370
    15
100
AcDbLine
 10
-47.62500000000001
 20
-0.0000000000000107
 30
0.0
 11
-47.62500000000001
 21
1.484868618877204
 31
0.0
1001
PE_URL
1000

  0
SPLINE
  5
298
330
1F
100
AcDbEntity
  8
0
  6
Continuous
 62
     1
370
    15
100
AcDbSpline
210
0.0
220
0.0
230
1.0
 70
     8
 71
     3
 72
    12
 73
     8
 74
     0
 42
0.000000001
 43
0.00000001
 40
0.0
 40
0.0
 40
0.0
 40
0.0
 40
0.5
 40
0.5
 40
0.75
 40
0.75
 40
1.0
 40
1.0
 40
1.0
 40
1.0
 10
-47.62500000000001
 20
1.484868618877204
 30
0.0
 10
-47.02988160121406
 20
1.01700513003788
 30
0.0
 10
-46.44470338050394
 20
0.5299579483693613
 30
0.0
 10
-45.5822295740234
 20
-0.2301280174900739
 30
0.0
 10
-45.29733159546156
 20
-0.4884948343414557
 30
0.0
 10
-44.73335424369752
 20
-1.016457878328659
 30
0.0
 10
-44.4558138577794
 20
-1.284684048414729
 30
0.0
 10
-44.18705706602444
 20
-1.554184009603002
 30
0.0
1001
PE_URL
1000

  0
SPLINE
  5
299
330
1F
100
AcDbEntity
  8
0
  6
Continuous
 62
     1
370
    15
100
AcDbSpline
210
0.0
220
0.0
230
1.0
 70
     8
 71
     3
 72
    14
 73
    10
 74
     0
 42
0.000000001
 43
0.00000001
 40
0.0
 40
0.0
 40
0.0
 40
0.0
 40
0.1504914760035665
 40
0.3009850994054634
 40
0.4514950966873102
 40
0.6020356478874569
 40
0.7526208465307128
 40
0.9005698733057955
 40
1.0
 40
1.0
 40
1.0
 40
1.0
 10
-44.18705706602444
 20
-1.554184009602999
 30
0.0
 10
-43.54516983123423
 20
-1.825994476998485
 30
0.0
 10
-42.26138620241362
 20
-2.369619290317054
 30
0.0
 10
-40.3356379806204
 20
-3.073972301752587
 30
0.0
 10
-38.40965197233449
 20
-3.659581785702485
 30
0.0
 10
-36.48322060649456
 20
-4.099698749670473
 30
0.0
 10
-34.56764941345766
 20
-4.368083043104331
 30
0.0
 10
-32.8699687133938
 20
-4.475374717146476
 30
0.0
 10
-31.81477374556592
 20
-4.418956005993966
 30
0.0
 10
-31.39065486623909
 20
-4.396279399985961
 30
0.0
1001
PE_URL
1000

  0
LINE
  5
29A
330
1F
100
AcDbEntity
  8
0
  6
Continuous
 62
     1
370
    15
100
AcDbLine
 10
-47.62500000000001
 20
4.383727143895895
 30
0.0
 11
-47.62500000000001
 21
1.484868618877204
 31
0.0
1001
PE_URL
1000

  0
SPLINE
  5
29B
330
1F
100
AcDbEntity
  8
0
  6
Continuous
 62
     1
370
    15
100
AcDbSpline
210
0.0
220
0.0
230
1.0
 70
    24
 71
     3
 72
     8
 73
     4
 74
     0
 42
0.000000001
 43
0.00000001
 40
0.0
 40
0.0
 40
0.0
 40
0.0
 40
1.0
 40
1.0
 40
1.0
 40
1.0
 10
-44.24302406229179
 20
-2.713739180137917
 30
0.0
 10
-44.05962811240724
 20
-2.559851706230386
 30
0.0
 10
-43.86581162830925
 20
-2.39722036590803
 30
0.0
 10
-43.66344740875975
 20
-2.227416623920575
 30
0.0
1001
PE_URL
1000

  0
LINE
  5
29C
330
1F
100
AcDbEntity
  8
0
  6
Continuous
 62
     1
370
    15
100
AcDbLine
 10
-47.62500000000003
 20
-3.889375000000005
 30
0.0
 11
-45.55794337853908
 21
-3.789525892565482
 31
0.0
1001
PE_URL
1000

  0
SPLINE
  5
29D
330
1F
100
AcDbEntity
  8
0
  6
Continuous
 62
     1
370
    15
100
AcDbSpline
210
0.0
220
0.0
230
1.0
 70
     8
 71
     3
 72
    10
 73
     6
 74
     0
 42
0.000000001
 43
0.00000001
 40
0.0
 40
0.0
 40
0.0
 40
0.0
 40
0.5
 40
0.5
 40
1.0
 40
1.0
 40
1.0
 40
1.0
 10
-47.62500000000003
 20
-3.889375000000008
 30
0.0
 10
-47.05345098516719
 20
-3.73433523305048
 30
0.0
 10
-46.48538855591791
 20
-3.560336717278968
 30
0.0
 10
-45.3568903521389
 20
-3.170868788860808
 30
0.0
 10
-44.79639613348039
 20
-2.955970426720757
 30
0.0
 10
-44.2430240622915
 20
-2.713739180138088
 30
0.0
1001
PE_URL
1000

  0
SPLINE
  5
29E
330
1F
100
AcDbEntity
  8
0
  6
Continuous
 62
     1
370
    15
100
AcDbSpline
210
0.0
220
0.0
230
1.0
 70
     8
 71
     3
 72
    12
 73
     8
 74
     0
 42
0.000000001
 43
0.00000001
 40
0.0
 40
0.0
 40
0.0
 40
0.0
 40
0.1472683773904262
 40
0.3605639220493302
 40
0.5737748235908527
 40
0.7869099205503023
 40
1.0
 40
1.0
 40
1.0
 40
1.0
 10
-35.8635856462671
 20
4.159246382917697
 30
0.0
 10
-35.42785513494611
 20
4.227830824525956
 30
0.0
 10
-34.36103614160622
 20
4.395749258177723
 30
0.0
 10
-32.66324967748014
 20
4.469719852142342
 30
0.0
 10
-30.7707381665357
 20
4.400407284429676
 30
0.0
 10
-28.87890998650933
 20
4.165702039783538
 30
0.0
 10
-27.61792560083412
 20
3.877583155169262
 30
0.0
 10
-26.98750000000002
 20
3.733538928287464
 30
0.0
1001
PE_URL
1000

  0
SPLINE
  5
29F
330
1F
100
AcDbEntity
  8
외형선
  6
Continuous
370
    15
100
AcDbSpline
210
0.0
220
0.0
230
1.0
 70
    24
 71
     3
 72
    14
 73
    10
 74
     0
 42
0.000000001
 43
0.00000001
 40
0.0
 40
0.0
 40
0.0
 40
0.0
 40
0.25
 40
0.25
 40
0.5
 40
0.5
 40
0.75
 40
0.75
 40
1.0
 40
1.0
 40
1.0
 40
1.0
 10
-26.98750000000002
 20
-2.110675585998553
 30
0.0
 10
-26.98750000000002
 20
-1.649870541323942
 30
0.0
 10
-26.98750000000002
 20
-1.153066622495054
 30
0.0
 10
-26.98750000000002
 20
-0.1268236421967757
 30
0.0
 10
-26.98750000000001
 20
0.4021799836557918
 30
0.0
 10
-26.98750000000001
 20
1.440865398036443
 30
0.0
 10
-26.98750000000001
 20
1.949993731550158
 30
0.0
 10
-26.98750000000001
 20
2.900505426202017
 30
0.0
 10
-26.98750000000001
 20
3.341559720400301
 30
0.0
 10
-26.98750000000002
 20
3.733538928287462
 30
0.0
  0
LINE
  5
2A0
330
1F
100
AcDbEntity
  8
0
  6
Continuous
 62
     1
370
    15
100
AcDbLine
 10
-47.62500000000001
 20
-0.0000000000000107
 30
0.0
 11
-47.62500000000003
 21
-3.889375000000008
 31
0.0
1001
PE_URL
1000

  0
SPLINE
  5
2A1
330
1F
100
AcDbEntity
  8
외형선
  6
Continuous
370
    15
100
AcDbSpline
210
0.0
220
0.0
230
1.0
 70
    24
 71
     3
 72
    11
 73
     7
 74
     0
 42
0.000000001
 43
0.00000001
 40
0.0
 40
0.0
 40
0.0
 40
0.0
 40
0.2485756870221034
 40
0.4971513740442065
 40
0.8601499099642788
 40
1.0
 40
1.0
 40
1.0
 40
1.0
 10
-26.98750000000002
 20
3.733538928287464
 30
0.0
 10
-26.98750000000002
 20
3.829406496463406
 30
0.0
 10
-26.98750000000002
 20
4.021141632815292
 30
0.0
 10
-26.98750000000002
 20
4.238879326013141
 30
0.0
 10
-26.98750000000002
 20
4.367421246811785
 30
0.0
 10
-26.98750000000002
 20
4.347469270177722
 30
0.0
 10
-26.98750000000002
 20
4.341920312529959
 30
0.0
  0
SPLINE
  5
2A2
330
1F
100
AcDbEntity
  8
0
  6
Continuous
 62
     1
370
    15
100
AcDbSpline
210
0.0
220
0.0
230
1.0
 70
     8
 71
     3
 72
    12
 73
     8
 74
     0
 42
0.000000001
 43
0.00000001
 40
0.0
 40
0.0
 40
0.0
 40
0.0
 40
0.0477950079050871
 40
0.2857589384794255
 40
0.5237332107425225
 40
0.7617897530521093
 40
1.0
 40
1.0
 40
1.0
 40
1.0
 10
-39.9970198180893
 20
-3.723933860461386
 30
0.0
 10
-40.1185443742981
 20
-3.779049269853612
 30
0.0
 10
-40.84512084543022
 20
-4.108575753311008
 30
0.0
 10
-42.17665966737161
 20
-4.583823095534989
 30
0.0
 10
-43.99198635039849
 20
-5.10633841899271
 30
0.0
 10
-45.808028708595
 20
-5.450773089256007
 30
0.0
 10
-47.01921260853737
 20
-5.517953097541437
 30
0.0
 10
-47.62500000000003
 20
-5.551553942119714
 30
0.0
1001
PE_URL
1000

  0
LINE
  5
2A3
330
1F
100
AcDbEntity
  8
0
  6
Continuous
 62
     1
370
    15
100
AcDbLine
 10
-47.62500000000003
 20
-3.889375000000008
 30
0.0
 11
-47.62500000000003
 21
-5.551553942119714
 31
0.0
1001
PE_URL
1000

  0
LINE
  5
2A5
330
1F
100
AcDbEntity
  8
외형선
  6
Continuous
370
    15
100
AcDbLine
 10
-7.111999999999949
 20
6.349999999999993
 30
0.0
 11
-23.02518467149224
 21
6.349999999999992
 31
0.0
  0
ENDSEC
  0
SECTION
  2
OBJECTS
  0
DICTIONARY
  5
C
330
0
100
AcDbDictionary
281
     1
  3
ACAD_DETAILVIEWSTYLE
350
1DB
  3
ACAD_GROUP
350
D
  3
ACAD_IMAGE_VARS
350
2C9
  3
ACAD_LAYOUT
350
1A
  3
ACAD_MLINESTYLE
350
17
  3
ACAD_PLOTSETTINGS
350
19
  3
ACAD_PLOTSTYLENAME
350
E
  3
ACAD_SCALELIST
350
47
  3
ACAD_SECTIONVIEWSTYLE
350
1DC
  3
AcDbVariableDictionary
350
1D6
  3
APPDATA
350
157
  3
DWGPROPS
350
2CA
  0
DICTIONARY
  5
18C
330
2
100
AcDbDictionary
280
     1
281
     1
  3
ACAD_LAYERSTATES
360
18D
  0
DICTIONARY
  5
1DB
102
{ACAD_REACTORS
330
C
102
}
330
C
100
AcDbDictionary
281
     1
  0
DICTIONARY
  5
D
102
{ACAD_REACTORS
330
C
102
}
330
C
100
AcDbDictionary
281
     1
  0
RASTERVARIABLES
  5
2C9
102
{ACAD_REACTORS
330
C
102
}
330
C
100
AcDbRasterVariables
 90
        0
 70
     1
 71
     1
 72
     1
  0
DICTIONARY
  5
1A
102
{ACAD_REACTORS
330
C
102
}
330
C
100
AcDbDictionary
281
     1
  3
Layout1
350
1E
  3
Layout2
350
26
  3
Model
350
22
  0
DICTIONARY
  5
17
102
{ACAD_REACTORS
330
C
102
}
330
C
100
AcDbDictionary
281
     1
  3
Standard
350
18
  0
DICTIONARY
  5
19
102
{ACAD_REACTORS
330
C
102
}
330
C
100
AcDbDictionary
281
     1
  0
ACDBDICTIONARYWDFLT
  5
E
102
{ACAD_REACTORS
330
C
102
}
330
C
100
AcDbDictionary
281
     1
  3
Normal
350
F
100
AcDbDictionaryWithDefault
340
F
  0
DICTIONARY
  5
47
102
{ACAD_REACTORS
330
C
102
}
330
C
100
AcDbDictionary
281
     1
  3
A0
350
48
  3
A1
350
49
  3
A2
350
4A
  3
A3
350
4B
  3
A4
350
4C
  3
A5
350
4D
  3
A6
350
4E
  3
A7
350
4F
  3
A8
350
50
  3
A9
350
51
  3
B0
350
52
  3
B1
350
53
  3
B2
350
54
  3
B3
350
55
  3
B4
350
56
  3
B5
350
57
  3
B6
350
58
  3
B7
350
59
  3
B8
350
5A
  3
B9
350
5B
  3
C0
350
5C
  3
C1
350
5D
  3
C2
350
5E
  3
C3
350
5F
  3
C4
350
60
  3
C5
350
61
  3
C6
350
62
  3
C7
350
63
  3
C8
350
64
  3
C9
350
65
  3
D0
350
66
  3
D1
350
67
  3
D2
350
68
  0
DICTIONARY
  5
1DC
102
{ACAD_REACTORS
330
C
102
}
330
C
100
AcDbDictionary
281
     1
  0
DICTIONARY
  5
1D6
102
{ACAD_REACTORS
330
C
102
}
330
C
100
AcDbDictionary
281
     1
  0
DICTIONARY
  5
157
102
{ACAD_REACTORS
330
C
102
}
330
C
100
AcDbDictionary
281
     1
  0
XRECORD
  5
2CA
102
{ACAD_REACTORS
330
C
102
}
330
C
100
AcDbXrecord
280
     1
  1
DWGPROPS COOKIE
  2

  3

  4

  6

  7

  8
12016016
  9

300
=
301
=
302
=
303
=
304
=
305
=
306
=
307
=
308
=
309
=
 40
0.0
 41
2458313.023006146
 42
2458330.401184421
  1

 90
        0
  0
DICTIONARY
  5
18D
102
{ACAD_REACTORS
330
18C
102
}
330
18C
100
AcDbDictionary
281
     1
  0
LAYOUT
  5
1E
102
{ACAD_REACTORS
330
1A
102
}
330
1A
100
AcDbPlotSettings
  1

  2
none_device
  4

  6

 40
0.0
 41
0.0
 42
0.0
 43
0.0
 44
0.0
 45
0.0
 46
0.0
 47
0.0
 48
0.0
 49
0.0
140
0.0
141
0.0
142
1.0
143
1.0
 70
   688
 72
     1
 73
     0
 74
     5
  7

 75
    16
147
1.0
148
0.0
149
0.0
100
AcDbLayout
  1
Layout1
 70
     1
 71
     1
 10
0.0
 20
0.0
 11
420.0
 21
297.0
 12
0.0
 22
0.0
 32
0.0
 14
1.000000000000000E+20
 24
1.000000000000000E+20
 34
1.000000000000000E+20
 15
-1.000000000000000E+20
 25
-1.000000000000000E+20
 35
-1.000000000000000E+20
146
0.0
 13
0.0
 23
0.0
 33
0.0
 16
1.0
 26
0.0
 36
0.0
 17
0.0
 27
1.0
 37
0.0
 76
     0
330
1B
  0
LAYOUT
  5
26
102
{ACAD_REACTORS
330
1A
102
}
330
1A
100
AcDbPlotSettings
  1

  2
none_device
  4

  6

 40
0.0
 41
0.0
 42
0.0
 43
0.0
 44
0.0
 45
0.0
 46
0.0
 47
0.0
 48
0.0
 49
0.0
140
0.0
141
0.0
142
1.0
143
1.0
 70
   688
 72
     1
 73
     0
 74
     5
  7

 75
    16
147
1.0
148
0.0
149
0.0
100
AcDbLayout
  1
Layout2
 70
     1
 71
     2
 10
0.0
 20
0.0
 11
0.0
 21
0.0
 12
0.0
 22
0.0
 32
0.0
 14
0.0
 24
0.0
 34
0.0
 15
0.0
 25
0.0
 35
0.0
146
0.0
 13
0.0
 23
0.0
 33
0.0
 16
1.0
 26
0.0
 36
0.0
 17
0.0
 27
1.0
 37
0.0
 76
     0
330
23
  0
LAYOUT
  5
22
102
{ACAD_REACTORS
330
1A
102
}
330
1A
100
AcDbPlotSettings
  1

  2
none_device
  4
ANSI_A_(11.00_x_8.50_Inches)
  6

 40
6.35
 41
19.05
 42
6.35000508
 43
19.05000254
 44
279.4
 45
215.9
 46
69.6453324306941
 47
46.63910519028187
 48
0.0
 49
0.0
140
0.0
141
0.0
142
0.0335920848724483
143
1.0
 70
  1696
 72
     0
 73
     0
 74
     0
  7

 75
     0
147
0.0235690232323232
148
0.0
149
0.0
100
AcDbLayout
  1
Model
 70
     1
 71
     0
 10
0.0
 20
0.0
 11
420.0
 21
297.0
 12
0.0
 22
0.0
 32
0.0
 14
-62.00000000000009
 24
-49.97180738881174
 34
0.0
 15
97.79412503295504
 25
39.71805394211978
 35
0.0
146
0.0
 13
0.0
 23
0.0
 33
0.0
 16
1.0
 26
0.0
 36
0.0
 17
0.0
 27
1.0
 37
0.0
 76
     0
330
1F
331
29
  0
MLINESTYLE
  5
18
102
{ACAD_REACTORS
330
17
102
}
330
17
100
AcDbMlineStyle
  2
Standard
 70
     0
  3

 62
   256
 51
90.0
 52
90.0
 71
     2
 49
0.5
 62
   256
  6
BYLAYER
 49
-0.5
 62
   256
  6
BYLAYER
  0
ACDBPLACEHOLDER
  5
F
102
{ACAD_REACTORS
330
E
102
}
330
E
  0
SCALE
  5
48
102
{ACAD_REACTORS
330
47
102
}
330
47
100
AcDbScale
 70
     0
300
1:1
140
1.0
141
1.0
290
     1
  0
SCALE
  5
49
102
{ACAD_REACTORS
330
47
102
}
330
47
100
AcDbScale
 70
     0
300
1:2
140
1.0
141
2.0
290
     0
  0
SCALE
  5
4A
102
{ACAD_REACTORS
330
47
102
}
330
47
100
AcDbScale
 70
     0
300
1:4
140
1.0
141
4.0
290
     0
  0
SCALE
  5
4B
102
{ACAD_REACTORS
330
47
102
}
330
47
100
AcDbScale
 70
     0
300
1:5
140
1.0
141
5.0
290
     0
  0
SCALE
  5
4C
102
{ACAD_REACTORS
330
47
102
}
330
47
100
AcDbScale
 70
     0
300
1:8
140
1.0
141
8.0
290
     0
  0
SCALE
  5
4D
102
{ACAD_REACTORS
330
47
102
}
330
47
100
AcDbScale
 70
     0
300
1:10
140
1.0
141
10.0
290
     0
  0
SCALE
  5
4E
102
{ACAD_REACTORS
330
47
102
}
330
47
100
AcDbScale
 70
     0
300
1:16
140
1.0
141
16.0
290
     0
  0
SCALE
  5
4F
102
{ACAD_REACTORS
330
47
102
}
330
47
100
AcDbScale
 70
     0
300
1:20
140
1.0
141
20.0
290
     0
  0
SCALE
  5
50
102
{ACAD_REACTORS
330
47
102
}
330
47
100
AcDbScale
 70
     0
300
1:30
140
1.0
141
30.0
290
     0
  0
SCALE
  5
51
102
{ACAD_REACTORS
330
47
102
}
330
47
100
AcDbScale
 70
     0
300
1:40
140
1.0
141
40.0
290
     0
  0
SCALE
  5
52
102
{ACAD_REACTORS
330
47
102
}
330
47
100
AcDbScale
 70
     0
300
1:50
140
1.0
141
50.0
290
     0
  0
SCALE
  5
53
102
{ACAD_REACTORS
330
47
102
}
330
47
100
AcDbScale
 70
     0
300
1:100
140
1.0
141
100.0
290
     0
  0
SCALE
  5
54
102
{ACAD_REACTORS
330
47
102
}
330
47
100
AcDbScale
 70
     0
300
2:1
140
2.0
141
1.0
290
     0
  0
SCALE
  5
55
102
{ACAD_REACTORS
330
47
102
}
330
47
100
AcDbScale
 70
     0
300
4:1
140
4.0
141
1.0
290
     0
  0
SCALE
  5
56
102
{ACAD_REACTORS
330
47
102
}
330
47
100
AcDbScale
 70
     0
300
8:1
140
8.0
141
1.0
290
     0
  0
SCALE
  5
57
102
{ACAD_REACTORS
330
47
102
}
330
47
100
AcDbScale
 70
     0
300
10:1
140
10.0
141
1.0
290
     0
  0
SCALE
  5
58
102
{ACAD_REACTORS
330
47
102
}
330
47
100
AcDbScale
 70
     0
300
100:1
140
100.0
141
1.0
290
     0
  0
SCALE
  5
59
102
{ACAD_REACTORS
330
47
102
}
330
47
100
AcDbScale
 70
     0
300
1/128" = 1'-0"
140
0.0078125
141
12.0
290
     0
  0
SCALE
  5
5A
102
{ACAD_REACTORS
330
47
102
}
330
47
100
AcDbScale
 70
     0
300
1/64" = 1'-0"
140
0.015625
141
12.0
290
     0
  0
SCALE
  5
5B
102
{ACAD_REACTORS
330
47
102
}
330
47
100
AcDbScale
 70
     0
300
1/32" = 1'-0"
140
0.03125
141
12.0
290
     0
  0
SCALE
  5
5C
102
{ACAD_REACTORS
330
47
102
}
330
47
100
AcDbScale
 70
     0
300
1/16" = 1'-0"
140
0.0625
141
12.0
290
     0
  0
SCALE
  5
5D
102
{ACAD_REACTORS
330
47
102
}
330
47
100
AcDbScale
 70
     0
300
3/32" = 1'-0"
140
0.09375
141
12.0
290
     0
  0
SCALE
  5
5E
102
{ACAD_REACTORS
330
47
102
}
330
47
100
AcDbScale
 70
     0
300
1/8" = 1'-0"
140
0.125
141
12.0
290
     0
  0
SCALE
  5
5F
102
{ACAD_REACTORS
330
47
102
}
330
47
100
AcDbScale
 70
     0
300
3/16" = 1'-0"
140
0.1875
141
12.0
290
     0
  0
SCALE
  5
60
102
{ACAD_REACTORS
330
47
102
}
330
47
100
AcDbScale
 70
     0
300
1/4" = 1'-0"
140
0.25
141
12.0
290
     0
  0
SCALE
  5
61
102
{ACAD_REACTORS
330
47
102
}
330
47
100
AcDbScale
 70
     0
300
3/8" = 1'-0"
140
0.375
141
12.0
290
     0
  0
SCALE
  5
62
102
{ACAD_REACTORS
330
47
102
}
330
47
100
AcDbScale
 70
     0
300
1/2" = 1'-0"
140
0.5
141
12.0
290
     0
  0
SCALE
  5
63
102
{ACAD_REACTORS
330
47
102
}
330
47
100
AcDbScale
 70
     0
300
3/4" = 1'-0"
140
0.75
141
12.0
290
     0
  0
SCALE
  5
64
102
{ACAD_REACTORS
330
47
102
}
330
47
100
AcDbScale
 70
     0
300
1" = 1'-0"
140
1.0
141
12.0
290
     0
  0
SCALE
  5
65
102
{ACAD_REACTORS
330
47
102
}
330
47
100
AcDbScale
 70
     0
300
1-1/2" = 1'-0"
140
1.5
141
12.0
290
     0
  0
SCALE
  5
66
102
{ACAD_REACTORS
330
47
102
}
330
47
100
AcDbScale
 70
     0
300
3" = 1'-0"
140
3.0
141
12.0
290
     0
  0
SCALE
  5
67
102
{ACAD_REACTORS
330
47
102
}
330
47
100
AcDbScale
 70
     0
300
6" = 1'-0"
140
6.0
141
12.0
290
     0
  0
SCALE
  5
68
102
{ACAD_REACTORS
330
47
102
}
330
47
100
AcDbScale
 70
     0
300
1'-0" = 1'-0"
140
12.0
141
12.0
290
     0
  0
ENDSEC
  0
EOF
