  0
SECTION
  2
HEADER
  9
$ACADVER
  1
AC1015
  9
$ACADMAINTVER
 70
     6
  9
$DWGCODEPAGE
  3
ANSI_949
  9
$INSBASE
 10
0.0
 20
0.0
 30
0.0
  9
$EXTMIN
 10
-62.00000000000011
 20
-49.97180738881175
 30
0.0
  9
$EXTMAX
 10
97.79412503295505
 20
44.29132372576691
 30
0.0
  9
$LIMMIN
 10
0.0
 20
0.0
  9
$LIMMAX
 10
420.0
 20
297.0
  9
$ORTHOMODE
 70
     1
  9
$REGENMODE
 70
     1
  9
$FILLMODE
 70
     1
  9
$QTEXTMODE
 70
     0
  9
$MIRRTEXT
 70
     1
  9
$LTSCALE
 40
1.0
  9
$ATTMODE
 70
     1
  9
$TEXTSIZE
 40
3.5
  9
$TRACEWID
 40
1.0
  9
$TEXTSTYLE
  7
Standard
  9
$CLAYER
  8
0
  9
$CELTYPE
  6
ByLayer
  9
$CECOLOR
 62
   256
  9
$CELTSCALE
 40
1.0
  9
$DISPSILH
 70
     0
  9
$DIMSCALE
 40
1.0
  9
$DIMASZ
 40
3.302
  9
$DIMEXO
 40
1.0
  9
$DIMDLI
 40
3.75
  9
$DIMRND
 40
0.0
  9
$DIMDLE
 40
0.0
  9
$DIMEXE
 40
1.0
  9
$DIMTP
 40
0.0
  9
$DIMTM
 40
0.0
  9
$DIMTXT
 40
3.5
  9
$DIMCEN
 40
2.5
  9
$DIMTSZ
 40
0.0
  9
$DIMTOL
 70
     0
  9
$DIMLIM
 70
     0
  9
$DIMTIH
 70
     1
  9
$DIMTOH
 70
     1
  9
$DIMSE1
 70
     0
  9
$DIMSE2
 70
     0
  9
$DIMTAD
 70
     1
  9
$DIMZIN
 70
     0
  9
$DIMBLK
  1

  9
$DIMASO
 70
     1
  9
$DIMSHO
 70
     1
  9
$DIMPOST
  1

  9
$DIMAPOST
  1

  9
$DIMALT
 70
     0
  9
$DIMALTD
 70
     3
  9
$DIMALTF
 40
0.0393700787401575
  9
$DIMLFAC
 40
1.0
  9
$DIMTOFL
 70
     1
  9
$DIMTVP
 40
0.0
  9
$DIMTIX
 70
     0
  9
$DIMSOXD
 70
     0
  9
$DIMSAH
 70
     0
  9
$DIMBLK1
  1

  9
$DIMBLK2
  1

  9
$DIMSTYLE
  2
ISO-25
  9
$DIMCLRD
 70
     0
  9
$DIMCLRE
 70
     0
  9
$DIMCLRT
 70
     0
  9
$DIMTFAC
 40
1.0
  9
$DIMGAP
 40
1.524
  9
$DIMJUST
 70
     0
  9
$DIMSD1
 70
     0
  9
$DIMSD2
 70
     0
  9
$DIMTOLJ
 70
     0
  9
$DIMTZIN
 70
     0
  9
$DIMALTZ
 70
     0
  9
$DIMALTTZ
 70
     0
  9
$DIMUPT
 70
     0
  9
$DIMDEC
 70
     2
  9
$DIMTDEC
 70
     2
  9
$DIMALTU
 70
     2
  9
$DIMALTTD
 70
     3
  9
$DIMTXSTY
  7
Standard
  9
$DIMAUNIT
 70
     0
  9
$DIMADEC
 70
     2
  9
$DIMALTRND
 40
0.0
  9
$DIMAZIN
 70
     0
  9
$DIMDSEP
 70
    44
  9
$DIMATFIT
 70
     3
  9
$DIMFRAC
 70
     0
  9
$DIMLDRBLK
  1

  9
$DIMLUNIT
 70
     2
  9
$DIMLWD
 70
    -2
  9
$DIMLWE
 70
    -2
  9
$DIMTMOVE
 70
     0
  9
$LUNITS
 70
     2
  9
$LUPREC
 70
     2
  9
$SKETCHINC
 40
1.0
  9
$FILLETRAD
 40
10.0
  9
$AUNITS
 70
     0
  9
$AUPREC
 70
     2
  9
$MENU
  1
.
  9
$ELEVATION
 40
0.0
  9
$PELEVATION
 40
0.0
  9
$THICKNESS
 40
0.0
  9
$LIMCHECK
 70
     0
  9
$CHAMFERA
 40
0.0
  9
$CHAMFERB
 40
0.0
  9
$CHAMFERC
 40
0.0
  9
$CHAMFERD
 40
0.0
  9
$SKPOLY
 70
     0
  9
$TDCREATE
 40
2458313.398217743
  9
$TDUCREATE
 40
2458313.023217743
  9
$TDUPDATE
 40
2458330.776113218
  9
$TDUUPDATE
 40
2458330.401113218
  9
$TDINDWG
 40
0.0016306713
  9
$TDUSRTIMER
 40
2458330.401073889
  9
$USRTIMER
 70
     1
  9
$ANGBASE
 50
0.0
  9
$ANGDIR
 70
     0
  9
$PDMODE
 70
     0
  9
$PDSIZE
 40
-1.0
  9
$PLINEWID
 40
0.0
  9
$SPLFRAME
 70
     0
  9
$SPLINETYPE
 70
     6
  9
$SPLINESEGS
 70
     8
  9
$HANDSEED
  5
24F
  9
$SURFTAB1
 70
     6
  9
$SURFTAB2
 70
     6
  9
$SURFTYPE
 70
     6
  9
$SURFU
 70
     6
  9
$SURFV
 70
     6
  9
$UCSBASE
  2

  9
$UCSNAME
  2

  9
$UCSORG
 10
0.0
 20
0.0
 30
0.0
  9
$UCSXDIR
 10
1.0
 20
0.0
 30
0.0
  9
$UCSYDIR
 10
0.0
 20
1.0
 30
0.0
  9
$UCSORTHOREF
  2

  9
$UCSORTHOVIEW
 70
     0
  9
$UCSORGTOP
 10
0.0
 20
0.0
 30
0.0
  9
$UCSORGBOTTOM
 10
0.0
 20
0.0
 30
0.0
  9
$UCSORGLEFT
 10
0.0
 20
0.0
 30
0.0
  9
$UCSORGRIGHT
 10
0.0
 20
0.0
 30
0.0
  9
$UCSORGFRONT
 10
0.0
 20
0.0
 30
0.0
  9
$UCSORGBACK
 10
0.0
 20
0.0
 30
0.0
  9
$PUCSBASE
  2

  9
$PUCSNAME
  2

  9
$PUCSORG
 10
0.0
 20
0.0
 30
0.0
  9
$PUCSXDIR
 10
1.0
 20
0.0
 30
0.0
  9
$PUCSYDIR
 10
0.0
 20
1.0
 30
0.0
  9
$PUCSORTHOREF
  2

  9
$PUCSORTHOVIEW
 70
     0
  9
$PUCSORGTOP
 10
0.0
 20
0.0
 30
0.0
  9
$PUCSORGBOTTOM
 10
0.0
 20
0.0
 30
0.0
  9
$PUCSORGLEFT
 10
0.0
 20
0.0
 30
0.0
  9
$PUCSORGRIGHT
 10
0.0
 20
0.0
 30
0.0
  9
$PUCSORGFRONT
 10
0.0
 20
0.0
 30
0.0
  9
$PUCSORGBACK
 10
0.0
 20
0.0
 30
0.0
  9
$USERI1
 70
     0
  9
$USERI2
 70
     0
  9
$USERI3
 70
     0
  9
$USERI4
 70
     0
  9
$USERI5
 70
     0
  9
$USERR1
 40
0.0
  9
$USERR2
 40
0.0
  9
$USERR3
 40
0.0
  9
$USERR4
 40
0.0
  9
$USERR5
 40
0.0
  9
$WORLDVIEW
 70
     1
  9
$SHADEDGE
 70
     3
  9
$SHADEDIF
 70
    70
  9
$TILEMODE
 70
     1
  9
$MAXACTVP
 70
    64
  9
$PINSBASE
 10
0.0
 20
0.0
 30
0.0
  9
$PLIMCHECK
 70
     0
  9
$PEXTMIN
 10
1.000000000000000E+20
 20
1.000000000000000E+20
 30
1.000000000000000E+20
  9
$PEXTMAX
 10
-1.000000000000000E+20
 20
-1.000000000000000E+20
 30
-1.000000000000000E+20
  9
$PLIMMIN
 10
0.0
 20
0.0
  9
$PLIMMAX
 10
0.0
 20
0.0
  9
$UNITMODE
 70
     0
  9
$VISRETAIN
 70
     1
  9
$PLINEGEN
 70
     0
  9
$PSLTSCALE
 70
     1
  9
$TREEDEPTH
 70
  3020
  9
$CMLSTYLE
  2
Standard
  9
$CMLJUST
 70
     0
  9
$CMLSCALE
 40
20.0
  9
$PROXYGRAPHICS
 70
     1
  9
$MEASUREMENT
 70
     1
  9
$CELWEIGHT
370
    -1
  9
$ENDCAPS
280
     0
  9
$JOINSTYLE
280
     0
  9
$LWDISPLAY
290
     1
  9
$INSUNITS
 70
     4
  9
$HYPERLINKBASE
  1

  9
$STYLESHEET
  1

  9
$XEDIT
290
     1
  9
$CEPSNTYPE
380
     0
  9
$PSTYLEMODE
290
     1
  9
$FINGERPRINTGUID
  2
{624DDB96-F136-4343-A4AA-972A765A65B6}
  9
$VERSIONGUID
  2
{FAEB1C32-E019-11D5-929B-00C0DF256EC4}
  9
$EXTNAMES
290
     1
  9
$PSVPSCALE
 40
0.0
  9
$OLESTARTUP
290
     0
  0
ENDSEC
  0
SECTION
  2
CLASSES
  0
CLASS
  1
ACDBDICTIONARYWDFLT
  2
AcDbDictionaryWithDefault
  3
ObjectDBX Classes
 90
        0
280
     0
281
     0
  0
CLASS
  1
VISUALSTYLE
  2
AcDbVisualStyle
  3
ObjectDBX Classes
 90
     4095
280
     0
281
     0
  0
CLASS
  1
MATERIAL
  2
AcDbMaterial
  3
ObjectDBX Classes
 90
     1153
280
     0
281
     0
  0
CLASS
  1
SCALE
  2
AcDbScale
  3
ObjectDBX Classes
 90
     1153
280
     0
281
     0
  0
CLASS
  1
SUN
  2
AcDbSun
  3
SCENEOE
 90
     1153
280
     0
281
     0
  0
CLASS
  1
ACDBPLACEHOLDER
  2
AcDbPlaceHolder
  3
ObjectDBX Classes
 90
        0
280
     0
281
     0
  0
CLASS
  1
LAYOUT
  2
AcDbLayout
  3
ObjectDBX Classes
 90
        0
280
     0
281
     0
  0
CLASS
  1
TABLESTYLE
  2
AcDbTableStyle
  3
ObjectDBX Classes
 90
     4095
280
     0
281
     0
  0
CLASS
  1
MLEADERSTYLE
  2
AcDbMLeaderStyle
  3
ACDB_MLEADERSTYLE_CLASS
 90
     4095
280
     0
281
     0
  0
CLASS
  1
RASTERVARIABLES
  2
AcDbRasterVariables
  3
ISM
 90
        0
280
     0
281
     0
  0
ENDSEC
  0
SECTION
  2
TABLES
  0
TABLE
  2
VPORT
  5
8
330
0
100
AcDbSymbolTable
 70
     1
  0
VPORT
  5
29
330
8
100
AcDbSymbolTableRecord
100
AcDbViewportTableRecord
  2
*Active
 70
     0
 10
0.0
 20
0.0
 11
1.0
 21
1.0
 12
17.89706251647746
 22
-2.840241831522377
 13
0.0
 23
0.0
 14
10.0
 24
10.0
 15
10.0
 25
10.0
 16
0.0
 26
0.0
 36
1.0
 17
0.0
 27
0.0
 37
0.0
 40
96.14839373687033
 41
1.782762691853601
 42
50.0
 43
0.0
 44
0.0
 50
0.0
 51
0.0
 71
    16
 72
  2000
 73
     1
 74
     3
 75
     0
 76
     0
 77
     0
 78
     0
281
     0
 65
     1
110
0.0
120
0.0
130
0.0
111
1.0
121
0.0
131
0.0
112
0.0
122
1.0
132
0.0
 79
     0
146
0.0
  0
ENDTAB
  0
TABLE
  2
LTYPE
  5
5
330
0
100
AcDbSymbolTable
 70
     6
  0
LTYPE
  5
14
330
5
100
AcDbSymbolTableRecord
100
AcDbLinetypeTableRecord
  2
ByBlock
 70
     0
  3

 72
    65
 73
     0
 40
0.0
  0
LTYPE
  5
15
330
5
100
AcDbSymbolTableRecord
100
AcDbLinetypeTableRecord
  2
ByLayer
 70
     0
  3

 72
    65
 73
     0
 40
0.0
  0
LTYPE
  5
16
330
5
100
AcDbSymbolTableRecord
100
AcDbLinetypeTableRecord
  2
Continuous
 70
     0
  3
Solid line
 72
    65
 73
     0
 40
0.0
  0
LTYPE
  5
6A
330
5
100
AcDbSymbolTableRecord
100
AcDbLinetypeTableRecord
  2
HIDDEN
 70
     0
  3
Hidden __ __ __ __ __ __ __ __ __ __ __ __ __ __
 72
    65
 73
     2
 40
1.905
 49
1.27
 74
     0
 49
-0.635
 74
     0
  0
LTYPE
  5
6B
330
5
100
AcDbSymbolTableRecord
100
AcDbLinetypeTableRecord
  2
PHANTOM
 70
     0
  3
Phantom ______  __  __  ______  __  __  ______
 72
    65
 73
     6
 40
12.7
 49
6.35
 74
     0
 49
-1.27
 74
     0
 49
1.27
 74
     0
 49
-1.27
 74
     0
 49
1.27
 74
     0
 49
-1.27
 74
     0
  0
LTYPE
  5
6C
330
5
100
AcDbSymbolTableRecord
100
AcDbLinetypeTableRecord
  2
CENTER
 70
     0
  3
Center ____ _ ____ _ ____ _ ____ _ ____ _ ____
 72
    65
 73
     4
 40
10.16
 49
6.35
 74
     0
 49
-1.27
 74
     0
 49
1.27
 74
     0
 49
-1.27
 74
     0
  0
LTYPE
  5
6D
330
5
100
AcDbSymbolTableRecord
100
AcDbLinetypeTableRecord
  2
CENTERX2
 70
     0
  3
Center (2x) ________  __  ________  __  _____
 72
    65
 73
     4
 40
20.32
 49
12.7
 74
     0
 49
-2.54
 74
     0
 49
2.54
 74
     0
 49
-2.54
 74
     0
  0
LTYPE
  5
6E
330
5
100
AcDbSymbolTableRecord
100
AcDbLinetypeTableRecord
  2
DOT2
 70
     0
  3
Dot (.5x) ........................................
 72
    65
 73
     2
 40
0.635
 49
0.0
 74
     0
 49
-0.635
 74
     0
  0
ENDTAB
  0
TABLE
  2
LAYER
  5
2
102
{ACAD_XDICTIONARY
360
196
102
}
330
0
100
AcDbSymbolTable
 70
    18
  0
LAYER
  5
10
330
2
100
AcDbSymbolTableRecord
100
AcDbLayerTableRecord
  2
0
 70
     0
 62
     7
  6
Continuous
370
    -3
390
F
  0
LAYER
  5
6F
330
2
100
AcDbSymbolTableRecord
100
AcDbLayerTableRecord
  2
FORMAT
 70
     0
 62
     2
  6
Continuous
370
    -3
390
F
  0
LAYER
  5
70
330
2
100
AcDbSymbolTableRecord
100
AcDbLayerTableRecord
  2
외형선
 70
     0
 62
     4
  6
Continuous
370
    30
390
F
  0
LAYER
  5
71
330
2
100
AcDbSymbolTableRecord
100
AcDbLayerTableRecord
  2
숨은선
 70
     0
 62
     2
  6
HIDDEN
370
    15
390
F
  0
LAYER
  5
72
330
2
100
AcDbSymbolTableRecord
100
AcDbLayerTableRecord
  2
중심선
 70
     0
 62
     1
  6
CENTERX2
370
    -3
390
F
  0
LAYER
  5
73
330
2
100
AcDbSymbolTableRecord
100
AcDbLayerTableRecord
  2
파단선
 70
     0
 62
     4
  6
Continuous
370
    -3
390
F
  0
LAYER
  5
74
330
2
100
AcDbSymbolTableRecord
100
AcDbLayerTableRecord
  2
해칭선
 70
     0
 62
   100
  6
Continuous
370
    -3
390
F
  0
LAYER
  5
75
330
2
100
AcDbSymbolTableRecord
100
AcDbLayerTableRecord
  2
가는실선
 70
     0
 62
     4
  6
Continuous
370
    -3
390
F
  0
LAYER
  5
76
330
2
100
AcDbSymbolTableRecord
100
AcDbLayerTableRecord
  2
치수_보조선
 70
     0
 62
     4
  6
Continuous
370
    -3
390
F
  0
LAYER
  5
77
330
2
100
AcDbSymbolTableRecord
100
AcDbLayerTableRecord
  2
치수문자_일반주서
 70
     0
 62
     7
  6
Continuous
370
    15
390
F
  0
LAYER
  5
78
330
2
100
AcDbSymbolTableRecord
100
AcDbLayerTableRecord
  2
개별주서
 70
     0
 62
   100
  6
Continuous
370
    30
390
F
  0
LAYER
  5
79
330
2
100
AcDbSymbolTableRecord
100
AcDbLayerTableRecord
  2
중간선
 70
     0
 62
     2
  6
Continuous
370
    15
390
F
  0
LAYER
  5
7A
330
2
100
AcDbSymbolTableRecord
100
AcDbLayerTableRecord
  2
윤곽선
 70
     0
 62
     3
  6
Continuous
370
    40
390
F
  0
LAYER
  5
7B
330
2
100
AcDbSymbolTableRecord
100
AcDbLayerTableRecord
  2
중심마크
 70
     0
 62
   100
  6
Continuous
370
    30
390
F
  0
LAYER
  5
7C
330
2
100
AcDbSymbolTableRecord
100
AcDbLayerTableRecord
  2
가상선
 70
     0
 62
     4
  6
PHANTOM
370
    -3
390
F
  0
LAYER
  5
7D
330
2
100
AcDbSymbolTableRecord
100
AcDbLayerTableRecord
  2
특수지정선
 70
     0
 62
     5
  6
CENTERX2
370
    60
390
F
  0
LAYER
  5
7E
330
2
100
AcDbSymbolTableRecord
100
AcDbLayerTableRecord
  2
참조1
 70
     0
 62
    -4
  6
Continuous
370
    -3
390
F
  0
LAYER
  5
15B
330
2
100
AcDbSymbolTableRecord
100
AcDbLayerTableRecord
  2
Defpoints
 70
     0
 62
     7
  6
Continuous
290
     0
370
    -3
390
F
  0
ENDTAB
  0
TABLE
  2
STYLE
  5
3
330
0
100
AcDbSymbolTable
 70
     2
  0
STYLE
  5
11
330
3
100
AcDbSymbolTableRecord
100
AcDbTextStyleTableRecord
  2
Standard
 70
     0
 40
0.0
 41
1.0
 50
0.0
 71
     0
 42
3.5
  3
txt
  4

  0
STYLE
  5
94
330
3
100
AcDbSymbolTableRecord
100
AcDbTextStyleTableRecord
  2
SLDTEXTSTYLE0
 70
     0
 40
0.0
 41
0.75
 50
0.0
 71
     0
 42
3.5
  3
TXT
  4

  0
ENDTAB
  0
TABLE
  2
VIEW
  5
6
330
0
100
AcDbSymbolTable
 70
     0
  0
ENDTAB
  0
TABLE
  2
UCS
  5
7
330
0
100
AcDbSymbolTable
 70
     0
  0
ENDTAB
  0
TABLE
  2
APPID
  5
9
330
0
100
AcDbSymbolTable
 70
     2
  0
APPID
  5
12
330
9
100
AcDbSymbolTableRecord
100
AcDbRegAppTableRecord
  2
ACAD
 70
     0
  0
APPID
  5
163
330
9
100
AcDbSymbolTableRecord
100
AcDbRegAppTableRecord
  2
PE_URL
 70
     0
  0
ENDTAB
  0
TABLE
  2
DIMSTYLE
  5
A
330
0
100
AcDbSymbolTable
 70
     4
100
AcDbDimStyleTable
  0
DIMSTYLE
105
27
330
A
100
AcDbSymbolTableRecord
100
AcDbDimStyleTableRecord
  2
ISO-25
 70
     0
 41
2.5
 42
0.625
 43
3.75
 44
1.25
 73
     0
 74
     0
 77
     1
 78
     8
140
2.5
141
2.5
143
0.03937007874016
147
0.625
171
     3
172
     1
178
     0
271
     2
272
     2
274
     3
278
    44
283
     0
284
     8
340
11
  0
DIMSTYLE
105
DA
102
{ACAD_REACTORS
330
D9
330
EE
330
102
330
117
102
}
330
A
100
AcDbSymbolTableRecord
100
AcDbDimStyleTableRecord
  2
SLDDIMSTYLE0
 70
     0
 41
3.302
 44
0.0
 45
0.000000001
 73
     0
 74
     0
 77
     1
 78
     4
 79
     1
140
3.5
143
0.0393700787401575
147
0.875
148
0.000000001
170
     1
172
     1
173
     1
178
     0
271
     2
272
     2
276
     2
284
    12
289
     0
340
94
  0
DIMSTYLE
105
EF
330
A
100
AcDbSymbolTableRecord
100
AcDbDimStyleTableRecord
  2
SLDDIMSTYLE1
 70
     0
 41
3.302
 44
0.0
 45
0.000000001
 73
     0
 74
     0
 77
     1
 78
     4
 79
     1
140
3.5
143
0.0393700787401575
147
0.875
148
0.000000001
170
     1
173
     1
178
     0
271
     2
272
     2
276
     2
284
    12
340
94
  0
DIMSTYLE
105
103
330
A
100
AcDbSymbolTableRecord
100
AcDbDimStyleTableRecord
  2
SLDDIMSTYLE2
 70
     0
 41
3.302
 44
0.0
 45
0.000000001
 73
     0
 74
     0
 77
     1
 78
    12
 79
     3
140
3.5
143
0.0393700787401575
147
0.875
148
0.000000001
170
     1
173
     1
178
     0
271
     2
272
     2
276
     2
284
    12
340
94
  0
ENDTAB
  0
TABLE
  2
BLOCK_RECORD
  5
1
330
0
100
AcDbSymbolTable
 70
     9
  0
BLOCK_RECORD
  5
1F
330
1
100
AcDbSymbolTableRecord
100
AcDbBlockTableRecord
  2
*Model_Space
340
22
  0
BLOCK_RECORD
  5
1B
330
1
100
AcDbSymbolTableRecord
100
AcDbBlockTableRecord
  2
*Paper_Space
340
1E
  0
BLOCK_RECORD
  5
23
330
1
100
AcDbSymbolTableRecord
100
AcDbBlockTableRecord
  2
*Paper_Space0
340
26
  0
BLOCK_RECORD
  5
7F
330
1
100
AcDbSymbolTableRecord
100
AcDbBlockTableRecord
  2
블럭10
340
0
102
{BLKREFS
331
D2
102
}
  0
BLOCK_RECORD
  5
DB
330
1
100
AcDbSymbolTableRecord
100
AcDbBlockTableRecord
  2
_D
340
0
  0
BLOCK_RECORD
  5
F0
330
1
100
AcDbSymbolTableRecord
100
AcDbBlockTableRecord
  2
_D_1
340
0
  0
BLOCK_RECORD
  5
104
330
1
100
AcDbSymbolTableRecord
100
AcDbBlockTableRecord
  2
_D_2
340
0
  0
BLOCK_RECORD
  5
118
330
1
100
AcDbSymbolTableRecord
100
AcDbBlockTableRecord
  2
_D_3
340
0
  0
BLOCK_RECORD
  5
131
330
1
100
AcDbSymbolTableRecord
100
AcDbBlockTableRecord
  2
SW_DOWELSYMBOL_0
340
0
102
{BLKREFS
331
137
102
}
  0
BLOCK_RECORD
  5
19A
330
1
100
AcDbSymbolTableRecord
100
AcDbBlockTableRecord
  2
*D7
340
0
  0
BLOCK_RECORD
  5
1AF
330
1
100
AcDbSymbolTableRecord
100
AcDbBlockTableRecord
  2
*D8
340
0
  0
ENDTAB
  0
ENDSEC
  0
SECTION
  2
BLOCKS
  0
BLOCK
  5
20
330
1F
100
AcDbEntity
  8
0
100
AcDbBlockBegin
  2
*Model_Space
 70
     0
 10
0.0
 20
0.0
 30
0.0
  3
*Model_Space
  1
*Model_Space
  0
ENDBLK
  5
21
330
1F
100
AcDbEntity
  8
0
100
AcDbBlockEnd
  0
BLOCK
  5
1C
330
1B
100
AcDbEntity
 67
     1
  8
0
100
AcDbBlockBegin
  2
*Paper_Space
 70
     0
 10
0.0
 20
0.0
 30
0.0
  3
*Paper_Space
  1
*Paper_Space
  0
ENDBLK
  5
1D
330
1B
100
AcDbEntity
 67
     1
  8
0
100
AcDbBlockEnd
  0
BLOCK
  5
24
330
23
100
AcDbEntity
  8
0
100
AcDbBlockBegin
  2
*Paper_Space0
 70
     0
 10
0.0
 20
0.0
 30
0.0
  3
*Paper_Space0
  1
*Paper_Space0
  0
ENDBLK
  5
25
330
23
100
AcDbEntity
  8
0
100
AcDbBlockEnd
  0
BLOCK
  5
80
330
7F
100
AcDbEntity
  8
0
100
AcDbBlockBegin
  2
블럭10
 70
     2
 10
0.0
 20
0.0
 30
0.0
  3
블럭10
  1
블럭10
  0
ELLIPSE
  5
82
330
7F
100
AcDbEntity
  8
중심선
100
AcDbEllipse
 10
20.54032771741204
 20
12.0471743016438
 30
0.0
 11
6.600054785286829
 21
-1.261213355974178E-13
 31
0.0
210
0.0
220
0.0
230
1.0
 40
0.636358354079598
 41
0.9219305317359503
 42
6.513795318482858
  0
ELLIPSE
  5
83
330
7F
100
AcDbEntity
  8
중심선
100
AcDbEllipse
 10
20.54032771746488
 20
12.04717430159265
 30
0.0
 11
3.960054785062283
 21
1.540847449632565E-10
 31
0.0
210
0.0
220
0.0
230
1.0
 40
0.3939339440162632
 41
1.131841032648279
 42
5.62031148352944
  0
LINE
  5
84
330
7F
100
AcDbEntity
  8
중심선
100
AcDbLine
 10
2.268634060543552
 20
16.24717430164393
 30
0.0
 11
5.714909304380834
 21
16.24717430164393
 31
0.0
  0
LINE
  5
85
330
7F
100
AcDbEntity
  8
중심선
100
AcDbLine
 10
5.245725140726316
 20
7.84717430164391
 30
0.0
 11
8.692000384563599
 21
7.84717430164391
 31
0.0
  0
LINE
  5
86
330
7F
100
AcDbEntity
  8
중심선
100
AcDbLine
 10
15.74043728645272
 20
16.24717430164393
 30
0.0
 11
8.692000384563599
 21
7.84717430164391
 31
0.0
  0
LINE
  5
87
330
7F
100
AcDbEntity
  8
중심선
100
AcDbLine
 10
0.1404042013395286
 20
13.71084872107135
 30
0.0
 11
3.58671253028996
 21
13.71088815037384
 31
0.0
  0
LINE
  5
88
330
7F
100
AcDbEntity
  8
중심선
100
AcDbLine
 10
2.750260043222114
 20
10.84717430164391
 30
0.0
 11
6.196535287059397
 21
10.84717430164391
 31
0.0
  0
LINE
  5
89
330
7F
100
AcDbEntity
  8
중심선
100
AcDbLine
 10
12.29416204261559
 20
16.24717430164393
 30
0.0
 11
5.245725140726316
 21
7.84717430164391
 31
0.0
  0
LINE
  5
8A
330
7F
100
AcDbEntity
  8
중심선
100
AcDbLine
 10
10.72767329541681
 20
16.24717430164393
 30
0.0
 11
6.196535287059397
 21
10.84717430164391
 31
0.0
  0
LINE
  5
8B
330
7F
100
AcDbEntity
  8
중심선
100
AcDbLine
 10
7.28139805157953
 20
16.24717430164393
 30
0.0
 11
2.750260043222114
 21
10.84717430164391
 31
0.0
  0
LINE
  5
8C
330
7F
100
AcDbEntity
  8
중심선
100
AcDbLine
 10
5.714909304380834
 20
16.24717430164393
 30
0.0
 11
3.58671253028996
 21
13.71088815037384
 31
0.0
  0
LINE
  5
8D
330
7F
100
AcDbEntity
  8
중심선
100
AcDbLine
 10
2.268634060543552
 20
16.24717430164393
 30
0.0
 11
0.1404042013395286
 21
13.71084872107135
 31
0.0
  0
LINE
  5
8E
330
7F
100
AcDbEntity
  8
중심선
100
AcDbLine
 10
7.28139805157953
 20
16.24717430164393
 30
0.0
 11
10.72767329541681
 21
16.24717430164393
 31
0.0
  0
LINE
  5
8F
330
7F
100
AcDbEntity
  8
중심선
100
AcDbLine
 10
12.29416204261559
 20
16.24717430164393
 30
0.0
 11
15.74043728645272
 21
16.24717430164393
 31
0.0
  0
LINE
  5
90
330
7F
100
AcDbEntity
  8
중심선
100
AcDbLine
 10
19.22036997980202
 20
11.08717430171403
 30
0.0
 11
23.66174974927406
 21
11.08717430171406
 31
0.0
  0
LINE
  5
91
330
7F
100
AcDbEntity
  8
중심선
100
AcDbLine
 10
19.22039502424796
 20
13.00717430171391
 30
0.0
 11
19.22036997980202
 21
11.08717430171403
 31
0.0
  0
LINE
  5
92
330
7F
100
AcDbEntity
  8
중심선
100
AcDbLine
 10
19.22039502424796
 20
13.00717430171391
 30
0.0
 11
26.96566020931264
 21
13.00717430171391
 31
0.0
  0
LINE
  5
93
330
7F
100
AcDbEntity
  8
중심선
100
AcDbLine
 10
22.22332737316547
 20
13.45928029700563
 30
0.0
 11
24.52862924686651
 21
15.39360700705356
 31
0.0
  0
ATTDEF
  5
95
330
7F
100
AcDbEntity
  8
FORMAT
 62
     2
100
AcDbText
 10
4.408487351596664
 20
2.075366912832191
 30
0.0
 40
4.233333333333333
  1
E1050029
 41
0.75
  7
SLDTEXTSTYLE0
 11
4.408487351596664
 21
-0.0412997538344756
 31
0.0
100
AcDbAttributeDefinition
  3

  2
AUTOATTR0
 70
     0
 74
     1
  0
ENDBLK
  5
81
330
7F
100
AcDbEntity
  8
0
100
AcDbBlockEnd
  0
BLOCK
  5
DC
330
DB
100
AcDbEntity
  8
0
100
AcDbBlockBegin
  2
_D
 70
     0
 10
0.0
 20
0.0
 30
0.0
  3
_D
  1
_D
  0
LINE
  5
DE
330
DB
100
AcDbEntity
  8
치수문자_일반주서
 62
     0
370
    -2
100
AcDbLine
 10
-23.82826350361918
 20
6.349999999999994
 30
0.0
 11
-57.62499999999999
 21
6.349999999999866
 31
0.0
  0
LINE
  5
DF
330
DB
100
AcDbEntity
  8
치수문자_일반주서
 62
     0
370
    -2
100
AcDbLine
 10
-23.8282635036192
 20
-6.350000000000001
 30
0.0
 11
-57.62499999999995
 21
-6.350000000000129
 31
0.0
  0
LINE
  5
E0
330
DB
100
AcDbEntity
  8
치수문자_일반주서
 62
     0
370
    -2
100
AcDbLine
 10
-57.62499999999999
 20
6.349999999999866
 30
0.0
 11
-57.6250000000001
 21
39.64149999999995
 31
0.0
  0
LINE
  5
E1
330
DB
100
AcDbEntity
  8
치수문자_일반주서
 62
     0
370
    -2
100
AcDbLine
 10
-57.62499999999999
 20
6.349999999999866
 30
0.0
 11
-57.62499999999995
 21
-6.350000000000129
 31
0.0
  0
LINE
  5
E2
330
DB
100
AcDbEntity
  8
치수문자_일반주서
 62
     0
370
    -2
100
AcDbLine
 10
-57.62500000000001
 20
9.651999999999866
 30
0.0
 11
-57.62500000000002
 21
12.95399999999987
 31
0.0
  0
LINE
  5
E3
330
DB
100
AcDbEntity
  8
치수문자_일반주서
 62
     0
370
    -2
100
AcDbLine
 10
-57.62499999999994
 20
-9.652000000000129
 30
0.0
 11
-57.62499999999992
 21
-12.95400000000013
 31
0.0
  0
SOLID
  5
E4
330
DB
100
AcDbEntity
  8
치수문자_일반주서
 62
     0
100
AcDbTrace
 10
-58.17533333333334
 20
9.651999999999864
 30
0.0
 11
-57.07466666666667
 21
9.651999999999868
 31
0.0
 12
-57.62499999999999
 22
6.349999999999866
 32
0.0
 13
-57.62499999999999
 23
6.349999999999866
 33
0.0
  0
SOLID
  5
E5
330
DB
100
AcDbEntity
  8
치수문자_일반주서
 62
     0
100
AcDbTrace
 10
-57.0746666666666
 20
-9.652000000000127
 30
0.0
 11
-58.17533333333327
 21
-9.65200000000013
 31
0.0
 12
-57.62499999999995
 22
-6.350000000000129
 32
0.0
 13
-57.62499999999995
 23
-6.350000000000129
 33
0.0
  0
MTEXT
  5
E6
330
DB
100
AcDbEntity
  8
치수문자_일반주서
 62
     0
100
AcDbMText
 10
-62.00000000000006
 20
26.29774999999994
 30
0.0
 40
3.5
 41
0.0
 71
     2
 72
     1
  1
\A1;%%c12.70 [1/2]
  7
SLDTEXTSTYLE0
 11
-3.356894814614648E-15
 21
1.0
 31
0.0
 73
     1
 44
1.0
  0
POINT
  5
1C1
330
DB
100
AcDbEntity
  8
Defpoints
 62
     0
100
AcDbPoint
 10
-23.76576350361918
 20
6.349999999999994
 30
0.0
  0
POINT
  5
1C2
330
DB
100
AcDbEntity
  8
Defpoints
 62
     0
100
AcDbPoint
 10
-23.7657635036192
 20
-6.350000000000001
 30
0.0
  0
POINT
  5
1C3
330
DB
100
AcDbEntity
  8
Defpoints
 62
     0
100
AcDbPoint
 10
-57.62499999999995
 20
-6.350000000000127
 30
0.0
  0
ENDBLK
  5
DD
330
DB
100
AcDbEntity
  8
0
100
AcDbBlockEnd
  0
BLOCK
  5
F1
330
F0
100
AcDbEntity
  8
0
100
AcDbBlockBegin
  2
_D_1
 70
     0
 10
0.0
 20
0.0
 30
0.0
  3
_D_1
  1
_D_1
  0
LINE
  5
F3
330
F0
100
AcDbEntity
  8
치수문자_일반주서
 62
     0
370
    -2
100
AcDbLine
 10
47.68750000000001
 20
-5.749823725766842
 30
0.0
 11
91.40055049182162
 21
-5.749823725766678
 31
0.0
  0
LINE
  5
F4
330
F0
100
AcDbEntity
  8
치수문자_일반주서
 62
     0
370
    -2
100
AcDbLine
 10
47.68750000000001
 20
5.749823725766838
 30
0.0
 11
91.40055049182158
 21
5.749823725767001
 31
0.0
  0
LINE
  5
F5
330
F0
100
AcDbEntity
  8
치수문자_일반주서
 62
     0
370
    -2
100
AcDbLine
 10
91.40055049182158
 20
5.749823725767001
 30
0.0
 11
91.40055049182143
 21
44.291323725767
 31
0.0
  0
LINE
  5
F6
330
F0
100
AcDbEntity
  8
치수문자_일반주서
 62
     0
370
    -2
100
AcDbLine
 10
91.40055049182162
 20
-5.749823725766678
 30
0.0
 11
91.40055049182158
 21
5.749823725767001
 31
0.0
  0
LINE
  5
F7
330
F0
100
AcDbEntity
  8
치수문자_일반주서
 62
     0
370
    -2
100
AcDbLine
 10
91.40055049182163
 20
-9.051823725766678
 30
0.0
 11
91.40055049182165
 21
-12.35382372576668
 31
0.0
  0
LINE
  5
F8
330
F0
100
AcDbEntity
  8
치수문자_일반주서
 62
     0
370
    -2
100
AcDbLine
 10
91.40055049182156
 20
9.051823725767001
 30
0.0
 11
91.40055049182155
 21
12.353823725767
 31
0.0
  0
SOLID
  5
F9
330
F0
100
AcDbEntity
  8
치수문자_일반주서
 62
     0
100
AcDbTrace
 10
91.95088382515496
 20
-9.051823725766676
 30
0.0
 11
90.8502171584883
 21
-9.05182372576668
 31
0.0
 12
91.40055049182162
 22
-5.749823725766678
 32
0.0
 13
91.40055049182162
 23
-5.749823725766678
 33
0.0
  0
SOLID
  5
FA
330
F0
100
AcDbEntity
  8
치수문자_일반주서
 62
     0
100
AcDbTrace
 10
90.85021715848823
 20
9.051823725767
 30
0.0
 11
91.95088382515489
 21
9.051823725767003
 31
0.0
 12
91.40055049182158
 22
5.749823725767001
 32
0.0
 13
91.40055049182158
 23
5.749823725767001
 33
0.0
  0
MTEXT
  5
FB
330
F0
100
AcDbEntity
  8
치수문자_일반주서
 62
     0
100
AcDbMText
 10
87.02555049182149
 20
28.32257372576699
 30
0.0
 40
3.5
 41
0.0
 71
     2
 72
     1
  1
\A1;%%c11.50 [29/64]
  7
SLDTEXTSTYLE0
 11
-3.707293143140681E-15
 21
1.0
 31
0.0
 73
     1
 44
1.0
  0
POINT
  5
FC
330
F0
100
AcDbEntity
  8
Defpoints
 62
     0
100
AcDbPoint
 10
47.62500000000001
 20
-5.749823725766842
 30
0.0
  0
POINT
  5
FD
330
F0
100
AcDbEntity
  8
Defpoints
 62
     0
100
AcDbPoint
 10
47.62500000000001
 20
5.749823725766838
 30
0.0
  0
POINT
  5
FE
330
F0
100
AcDbEntity
  8
Defpoints
 62
     0
100
AcDbPoint
 10
91.40055049182158
 20
5.749823725767001
 30
0.0
  0
ENDBLK
  5
F2
330
F0
100
AcDbEntity
  8
0
100
AcDbBlockEnd
  0
BLOCK
  5
105
330
104
100
AcDbEntity
  8
0
100
AcDbBlockBegin
  2
_D_2
 70
     0
 10
0.0
 20
0.0
 30
0.0
  3
_D_2
  1
_D_2
  0
LINE
  5
107
330
104
100
AcDbEntity
  8
치수문자_일반주서
 62
     0
370
    -2
100
AcDbLine
 10
47.62500000000001
 20
5.812323725766838
 30
0.0
 11
47.62500000000001
 21
16.34999999999999
 31
0.0
  0
LINE
  5
108
330
104
100
AcDbEntity
  8
치수문자_일반주서
 62
     0
370
    -2
100
AcDbLine
 10
26.98750000000001
 20
4.564030604822824
 30
0.0
 11
26.98750000000001
 21
16.34999999999999
 31
0.0
  0
LINE
  5
109
330
104
100
AcDbEntity
  8
치수문자_일반주서
 62
     0
370
    -2
100
AcDbLine
 10
47.62500000000001
 20
16.34999999999999
 30
0.0
 11
83.54150000000001
 21
16.34999999999999
 31
0.0
  0
LINE
  5
10A
330
104
100
AcDbEntity
  8
치수문자_일반주서
 62
     0
370
    -2
100
AcDbLine
 10
47.62500000000001
 20
16.34999999999999
 30
0.0
 11
26.98750000000001
 21
16.34999999999999
 31
0.0
  0
LINE
  5
10B
330
104
100
AcDbEntity
  8
치수문자_일반주서
 62
     0
370
    -2
100
AcDbLine
 10
50.92700000000001
 20
16.34999999999999
 30
0.0
 11
54.22900000000001
 21
16.34999999999999
 31
0.0
  0
LINE
  5
10C
330
104
100
AcDbEntity
  8
치수문자_일반주서
 62
     0
370
    -2
100
AcDbLine
 10
23.68550000000001
 20
16.34999999999999
 30
0.0
 11
20.38350000000001
 21
16.34999999999999
 31
0.0
  0
SOLID
  5
10D
330
104
100
AcDbEntity
  8
치수문자_일반주서
 62
     0
100
AcDbTrace
 10
50.92700000000001
 20
16.90033333333333
 30
0.0
 11
50.92700000000001
 21
15.79966666666666
 31
0.0
 12
47.62500000000001
 22
16.34999999999999
 32
0.0
 13
47.62500000000001
 23
16.34999999999999
 33
0.0
  0
SOLID
  5
10E
330
104
100
AcDbEntity
  8
치수문자_일반주서
 62
     0
100
AcDbTrace
 10
23.68550000000001
 20
15.79966666666666
 30
0.0
 11
23.68550000000001
 21
16.90033333333333
 31
0.0
 12
26.98750000000001
 22
16.34999999999999
 32
0.0
 13
26.98750000000001
 23
16.34999999999999
 33
0.0
  0
MTEXT
  5
10F
330
104
100
AcDbEntity
  8
치수문자_일반주서
 62
     0
100
AcDbMText
 10
68.88525000000001
 20
20.72499999999999
 30
0.0
 40
3.5
 41
0.0
 71
     2
 72
     1
  1
\A1;20.64 [13/16]
  7
SLDTEXTSTYLE0
 73
     1
 44
1.0
  0
POINT
  5
110
330
104
100
AcDbEntity
  8
Defpoints
 62
     0
100
AcDbPoint
 10
47.62500000000001
 20
5.749823725766838
 30
0.0
  0
POINT
  5
111
330
104
100
AcDbEntity
  8
Defpoints
 62
     0
100
AcDbPoint
 10
26.98750000000001
 20
4.501530604822824
 30
0.0
  0
POINT
  5
112
330
104
100
AcDbEntity
  8
Defpoints
 62
     0
100
AcDbPoint
 10
26.98750000000001
 20
16.34999999999999
 30
0.0
  0
ENDBLK
  5
106
330
104
100
AcDbEntity
  8
0
100
AcDbBlockEnd
  0
BLOCK
  5
119
330
118
100
AcDbEntity
  8
0
100
AcDbBlockBegin
  2
_D_3
 70
     0
 10
0.0
 20
0.0
 30
0.0
  3
_D_3
  1
_D_3
  0
LINE
  5
11B
330
118
100
AcDbEntity
  8
치수문자_일반주서
 62
     0
370
    -2
100
AcDbLine
 10
-47.62500000000002
 20
5.812323725766854
 30
0.0
 11
-47.62500000000001
 21
26.34999999999999
 31
0.0
  0
LINE
  5
11C
330
118
100
AcDbEntity
  8
치수문자_일반주서
 62
     0
370
    -2
100
AcDbLine
 10
47.62500000000001
 20
5.812323725766838
 30
0.0
 11
47.62500000000002
 21
26.34999999999999
 31
0.0
  0
LINE
  5
11D
330
118
100
AcDbEntity
  8
치수문자_일반주서
 62
     0
370
    -2
100
AcDbLine
 10
-44.32300000000001
 20
26.34999999999999
 30
0.0
 11
44.32300000000002
 21
26.34999999999999
 31
0.0
  0
SOLID
  5
11E
330
118
100
AcDbEntity
  8
치수문자_일반주서
 62
     0
100
AcDbTrace
 10
-44.32300000000001
 20
26.90033333333333
 30
0.0
 11
-44.32300000000001
 21
25.79966666666666
 31
0.0
 12
-47.62500000000001
 22
26.34999999999999
 32
0.0
 13
-47.62500000000001
 23
26.34999999999999
 33
0.0
  0
SOLID
  5
11F
330
118
100
AcDbEntity
  8
치수문자_일반주서
 62
     0
100
AcDbTrace
 10
44.32300000000002
 20
25.79966666666666
 30
0.0
 11
44.32300000000002
 21
26.90033333333333
 31
0.0
 12
47.62500000000002
 22
26.34999999999999
 32
0.0
 13
47.62500000000002
 23
26.34999999999999
 33
0.0
  0
MTEXT
  5
120
330
118
100
AcDbEntity
  8
치수문자_일반주서
 62
     0
100
AcDbMText
 10
0.0000000000000142
 20
30.72499999999999
 30
0.0
 40
3.5
 41
0.0
 71
     2
 72
     1
  1
\A1;95.25 [3 3/4]
  7
SLDTEXTSTYLE0
 73
     1
 44
1.0
  0
POINT
  5
121
330
118
100
AcDbEntity
  8
Defpoints
 62
     0
100
AcDbPoint
 10
-47.62500000000002
 20
5.749823725766854
 30
0.0
  0
POINT
  5
122
330
118
100
AcDbEntity
  8
Defpoints
 62
     0
100
AcDbPoint
 10
47.62500000000001
 20
5.749823725766838
 30
0.0
  0
POINT
  5
123
330
118
100
AcDbEntity
  8
Defpoints
 62
     0
100
AcDbPoint
 10
47.62500000000001
 20
26.34999999999999
 30
0.0
  0
ENDBLK
  5
11A
330
118
100
AcDbEntity
  8
0
100
AcDbBlockEnd
  0
BLOCK
  5
132
330
131
100
AcDbEntity
  8
0
100
AcDbBlockBegin
  2
SW_DOWELSYMBOL_0
 70
     0
 10
0.0
 20
0.0
 30
0.0
  3
SW_DOWELSYMBOL_0
  1
SW_DOWELSYMBOL_0
  0
CIRCLE
  5
134
330
131
100
AcDbEntity
  8
해칭선
 62
     0
100
AcDbCircle
 10
0.0
 20
0.0
 30
0.0
 40
3.000000000000001
  0
HATCH
  5
135
330
131
100
AcDbEntity
  8
0
  6
Continuous
 62
     0
370
     0
100
AcDbHatch
 10
0.0
 20
0.0
 30
0.0
210
0.0
220
0.0
230
1.0
  2
SOLID
 70
     1
 71
     0
 91
        1
 92
        0
 93
        3
 72
     2
 10
0.0
 20
0.0
 40
3.000000000000001
 50
0.0
 51
90.0
 73
     1
 72
     1
 10
0.0
 20
3.000000000000001
 11
0.0
 21
0.0
 72
     1
 10
0.0
 20
0.0
 11
3.000000000000001
 21
0.0
 97
        0
 75
     0
 76
     1
 98
        1
 10
0.0
 20
0.0
  0
HATCH
  5
136
330
131
100
AcDbEntity
  8
0
  6
Continuous
 62
     0
370
     0
100
AcDbHatch
 10
0.0
 20
0.0
 30
0.0
210
0.0
220
0.0
230
1.0
  2
SOLID
 70
     1
 71
     0
 91
        1
 92
        0
 93
        3
 72
     2
 10
0.0
 20
0.0
 40
3.000000000000001
 50
180.0
 51
270.0000000000007
 73
     1
 72
     1
 10
0.0
 20
-3.000000000000001
 11
0.0
 21
0.0
 72
     1
 10
0.0
 20
0.0
 11
-3.000000000000001
 21
0.0
 97
        0
 75
     0
 76
     1
 98
        1
 10
0.0
 20
0.0
  0
ENDBLK
  5
133
330
131
100
AcDbEntity
  8
0
100
AcDbBlockEnd
  0
BLOCK
  5
19B
330
19A
100
AcDbEntity
  8
0
100
AcDbBlockBegin
  2
*D7
 70
     1
 10
0.0
 20
0.0
 30
0.0
  3
*D7
  1
*D7
  0
LINE
  5
19D
330
19A
100
AcDbEntity
  8
치수문자_일반주서
 62
     0
370
    -2
100
AcDbLine
 10
54.73699999999996
 20
3.631580296889929
 30
0.0
 11
54.73699999999996
 21
14.96233570571162
 31
0.0
  0
LINE
  5
19E
330
19A
100
AcDbEntity
  8
치수문자_일반주서
 62
     0
370
    -2
100
AcDbLine
 10
34.09949999999996
 20
3.20671347064068
 30
0.0
 11
34.09949999999996
 21
14.96233570571162
 31
0.0
  0
LINE
  5
19F
330
19A
100
AcDbEntity
  8
치수문자_일반주서
 62
     0
370
    -2
100
AcDbLine
 10
54.73699999999996
 20
14.96233570571162
 30
0.0
 11
90.65349999999997
 21
14.96233570571162
 31
0.0
  0
LINE
  5
1A0
330
19A
100
AcDbEntity
  8
치수문자_일반주서
 62
     0
370
    -2
100
AcDbLine
 10
54.73699999999996
 20
14.96233570571162
 30
0.0
 11
34.09949999999996
 21
14.96233570571162
 31
0.0
  0
LINE
  5
1A1
330
19A
100
AcDbEntity
  8
치수문자_일반주서
 62
     0
370
    -2
100
AcDbLine
 10
58.03899999999996
 20
14.96233570571162
 30
0.0
 11
61.34099999999996
 21
14.96233570571162
 31
0.0
  0
LINE
  5
1A2
330
19A
100
AcDbEntity
  8
치수문자_일반주서
 62
     0
370
    -2
100
AcDbLine
 10
30.79749999999996
 20
14.96233570571162
 30
0.0
 11
27.49549999999996
 21
14.96233570571162
 31
0.0
  0
SOLID
  5
1A3
330
19A
100
AcDbEntity
  8
치수문자_일반주서
 62
     0
100
AcDbTrace
 10
58.03899999999996
 20
15.51266903904495
 30
0.0
 11
58.03899999999996
 21
14.41200237237829
 31
0.0
 12
54.73699999999996
 22
14.96233570571162
 32
0.0
 13
54.73699999999996
 23
14.96233570571162
 33
0.0
  0
SOLID
  5
1A4
330
19A
100
AcDbEntity
  8
치수문자_일반주서
 62
     0
100
AcDbTrace
 10
30.79749999999996
 20
14.41200237237829
 30
0.0
 11
30.79749999999996
 21
15.51266903904495
 31
0.0
 12
34.09949999999996
 22
14.96233570571162
 32
0.0
 13
34.09949999999996
 23
14.96233570571162
 33
0.0
  0
MTEXT
  5
1A5
330
19A
100
AcDbEntity
  8
치수문자_일반주서
 62
     0
100
AcDbMText
 10
75.99724999999997
 20
19.33733570571162
 30
0.0
 40
3.5
 41
0.0
 71
     2
 72
     1
  1
\A1;20.64 [13/16]
  7
SLDTEXTSTYLE0
 73
     1
 44
1.0
  0
POINT
  5
1A6
330
19A
100
AcDbEntity
  8
Defpoints
 62
     0
100
AcDbPoint
 10
54.73699999999996
 20
3.569080296889929
 30
0.0
  0
POINT
  5
1A7
330
19A
100
AcDbEntity
  8
Defpoints
 62
     0
100
AcDbPoint
 10
34.09949999999996
 20
3.14421347064068
 30
0.0
  0
POINT
  5
1A8
330
19A
100
AcDbEntity
  8
Defpoints
 62
     0
100
AcDbPoint
 10
34.09949999999996
 20
14.96233570571162
 30
0.0
  0
ENDBLK
  5
19C
330
19A
100
AcDbEntity
  8
0
100
AcDbBlockEnd
  0
BLOCK
  5
1B0
330
1AF
100
AcDbEntity
  8
0
100
AcDbBlockBegin
  2
*D8
 70
     1
 10
0.0
 20
0.0
 30
0.0
  3
*D8
  1
*D8
  0
LINE
  5
1B2
330
1AF
100
AcDbEntity
  8
치수문자_일반주서
 62
     0
370
    -2
100
AcDbLine
 10
90.27943524557327
 20
-25.35871534291328
 30
0.0
 11
90.27943524557327
 21
-14.02795993409159
 31
0.0
  0
LINE
  5
1B3
330
1AF
100
AcDbEntity
  8
치수문자_일반주서
 62
     0
370
    -2
100
AcDbLine
 10
69.64193524557326
 20
-25.78358216916253
 30
0.0
 11
69.64193524557326
 21
-14.02795993409159
 31
0.0
  0
LINE
  5
1B4
330
1AF
100
AcDbEntity
  8
치수문자_일반주서
 62
     0
370
    -2
100
AcDbLine
 10
90.27943524557327
 20
-14.02795993409159
 30
0.0
 11
126.1959352455733
 21
-14.02795993409159
 31
0.0
  0
LINE
  5
1B5
330
1AF
100
AcDbEntity
  8
치수문자_일반주서
 62
     0
370
    -2
100
AcDbLine
 10
90.27943524557327
 20
-14.02795993409159
 30
0.0
 11
69.64193524557326
 21
-14.02795993409159
 31
0.0
  0
LINE
  5
1B6
330
1AF
100
AcDbEntity
  8
치수문자_일반주서
 62
     0
370
    -2
100
AcDbLine
 10
93.58143524557326
 20
-14.02795993409159
 30
0.0
 11
96.88343524557325
 21
-14.02795993409159
 31
0.0
  0
LINE
  5
1B7
330
1AF
100
AcDbEntity
  8
치수문자_일반주서
 62
     0
370
    -2
100
AcDbLine
 10
66.33993524557326
 20
-14.02795993409159
 30
0.0
 11
63.03793524557326
 21
-14.02795993409159
 31
0.0
  0
SOLID
  5
1B8
330
1AF
100
AcDbEntity
  8
치수문자_일반주서
 62
     0
100
AcDbTrace
 10
93.58143524557326
 20
-13.47762660075825
 30
0.0
 11
93.58143524557326
 21
-14.57829326742492
 31
0.0
 12
90.27943524557327
 22
-14.02795993409159
 32
0.0
 13
90.27943524557327
 23
-14.02795993409159
 33
0.0
  0
SOLID
  5
1B9
330
1AF
100
AcDbEntity
  8
치수문자_일반주서
 62
     0
100
AcDbTrace
 10
66.33993524557326
 20
-14.57829326742492
 30
0.0
 11
66.33993524557326
 21
-13.47762660075825
 31
0.0
 12
69.64193524557326
 22
-14.02795993409159
 32
0.0
 13
69.64193524557326
 23
-14.02795993409159
 33
0.0
  0
MTEXT
  5
1BA
330
1AF
100
AcDbEntity
  8
치수문자_일반주서
 62
     0
100
AcDbMText
 10
111.5396852455733
 20
-9.652959934091585
 30
0.0
 40
3.5
 41
0.0
 71
     2
 72
     1
  1
\A1;20.64 [13/16]
  7
SLDTEXTSTYLE0
 73
     1
 44
1.0
  0
POINT
  5
1BB
330
1AF
100
AcDbEntity
  8
Defpoints
 62
     0
100
AcDbPoint
 10
90.27943524557327
 20
-25.42121534291328
 30
0.0
  0
POINT
  5
1BC
330
1AF
100
AcDbEntity
  8
Defpoints
 62
     0
100
AcDbPoint
 10
69.64193524557326
 20
-25.84608216916253
 30
0.0
  0
POINT
  5
1BD
330
1AF
100
AcDbEntity
  8
Defpoints
 62
     0
100
AcDbPoint
 10
69.64193524557326
 20
-14.02795993409159
 30
0.0
  0
ENDBLK
  5
1B1
330
1AF
100
AcDbEntity
  8
0
100
AcDbBlockEnd
  0
ENDSEC
  0
SECTION
  2
ENTITIES
  0
LINE
  5
96
330
1F
100
AcDbEntity
  8
외형선
  6
Continuous
370
    15
100
AcDbLine
 10
23.76576350361918
 20
6.349999999999994
 30
0.0
 11
7.112000000000048
 21
6.349999999999993
 31
0.0
  0
LINE
  5
97
330
1F
100
AcDbEntity
  8
외형선
  6
Continuous
370
    15
100
AcDbLine
 10
-23.7657635036192
 20
-6.350000000000001
 30
0.0
 11
23.76576350361917
 21
-6.349999999999998
 31
0.0
  0
LINE
  5
98
330
1F
100
AcDbEntity
  8
외형선
  6
Continuous
370
    15
100
AcDbLine
 10
23.76576350361918
 20
-6.35
 30
0.0
 11
24.95761248016942
 21
-6.030645029233499
 31
0.0
  0
LINE
  5
99
330
1F
100
AcDbEntity
  8
외형선
  6
Continuous
370
    15
100
AcDbLine
 10
24.95761248016942
 20
6.030645029233496
 30
0.0
 11
23.76576350361918
 21
6.349999999999996
 31
0.0
  0
SPLINE
  5
9C
330
1F
100
AcDbEntity
  8
외형선
  6
Continuous
370
    15
100
AcDbSpline
210
0.0
220
0.0
230
1.0
 70
     8
 71
     3
 72
     9
 73
     5
 74
     0
 42
0.000000001
 43
0.00000001
 40
0.0
 40
0.0
 40
0.0
 40
0.0
 40
0.9545083329945424
 40
1.0
 40
1.0
 40
1.0
 40
1.0
 10
26.9875
 20
4.501530342467247
 30
0.0
 10
26.72221551965409
 20
4.506008724185909
 30
0.0
 10
26.44428763660076
 20
4.510700544638238
 30
0.0
 10
26.16635651792954
 20
4.521434452854817
 30
0.0
 10
26.15371296802849
 20
4.521922756233072
 30
0.0
  0
SPLINE
  5
9D
330
1F
100
AcDbEntity
  8
외형선
  6
Continuous
370
    15
100
AcDbSpline
210
0.0
220
0.0
230
1.0
 70
     8
 71
     3
 72
     9
 73
     5
 74
     0
 42
0.000000001
 43
0.00000001
 40
0.0
 40
0.0
 40
0.0
 40
0.0
 40
0.4417022912251675
 40
1.0
 40
1.0
 40
1.0
 40
1.0
 10
24.95765547106214
 20
-4.57213992795996
 30
0.0
 10
25.25135737939161
 20
-4.55776185570614
 30
0.0
 10
25.91628919922623
 20
-4.525210355432191
 30
0.0
 10
26.60371291469584
 20
-4.510014277794652
 30
0.0
 10
26.9875
 20
-4.501530342467251
 30
0.0
  0
SPLINE
  5
9E
330
1F
100
AcDbEntity
  8
0
  6
Continuous
 62
     1
370
    15
100
AcDbSpline
210
0.0
220
0.0
230
1.0
 70
     8
 71
     3
 72
    11
 73
     7
 74
     0
 42
0.000000001
 43
0.00000001
 40
0.0
 40
0.0
 40
0.0
 40
0.0
 40
0.3123646501545679
 40
0.4991688485258426
 40
0.6867578867431771
 40
1.0
 40
1.0
 40
1.0
 40
1.0
 10
32.71509923070025
 20
1.474675761786039
 30
0.0
 10
32.54894935992927
 20
1.55331562497115
 30
0.0
 10
32.28343647415802
 20
1.67898467854337
 30
0.0
 10
31.91889253885458
 20
1.860485483405958
 30
0.0
 10
31.55352506561201
 20
2.045683435865994
 30
0.0
 10
31.28707650611896
 20
2.185523012529967
 30
0.0
 10
31.12042770720903
 20
2.27298491337665
 30
0.0
1001
PE_URL
1000

  0
LINE
  5
9F
330
1F
100
AcDbEntity
  8
0
  6
Continuous
 62
     1
370
    15
100
AcDbLine
 10
29.57061722849632
 20
1.600194314770973
 30
0.0
 11
29.47227395632287
 21
1.654401591095435
 31
0.0
1001
PE_URL
1000

  0
SPLINE
  5
A0
330
1F
100
AcDbEntity
  8
0
  6
Continuous
 62
     1
370
    15
100
AcDbSpline
210
0.0
220
0.0
230
1.0
 70
     8
 71
     3
 72
    14
 73
    10
 74
     0
 42
0.000000001
 43
0.00000001
 40
0.0
 40
0.0
 40
0.0
 40
0.0
 40
0.1346979973396847
 40
0.2500698052673014
 40
0.3478908883741709
 40
0.4339104629531445
 40
0.5758024879103217
 40
0.7644532889374408
 40
1.0
 40
1.0
 40
1.0
 40
1.0
 10
30.81353601489025
 20
4.572896408217168
 30
0.0
 10
30.65697157888155
 20
4.564454719004006
 30
0.0
 10
30.36630624756453
 20
4.548782536645281
 30
0.0
 10
29.93823082483338
 20
4.528139045689589
 30
0.0
 10
29.55095511394119
 20
4.514429420560655
 30
0.0
 10
29.12299297718978
 20
4.506611932330514
 30
0.0
 10
28.57652985302321
 20
4.497272123316118
 30
0.0
 10
27.83816956039625
 20
4.491496729243753
 30
0.0
 10
27.29121227230304
 20
4.49794806844054
 30
0.0
 10
26.9875
 20
4.501530342467247
 30
0.0
1001
PE_URL
1000

  0
SPLINE
  5
A1
330
1F
100
AcDbEntity
  8
0
  6
Continuous
 62
     1
370
    15
100
AcDbSpline
210
0.0
220
0.0
230
1.0
 70
     8
 71
     3
 72
    25
 73
    21
 74
     0
 42
0.000000001
 43
0.00000001
 40
0.0
 40
0.0
 40
0.0
 40
0.0
 40
0.0856577153900968
 40
0.153982050754826
 40
0.2133528950179263
 40
0.2658704778615346
 40
0.3113473268068378
 40
0.3660157221755586
 40
0.4306826458736125
 40
0.4899062507816337
 40
0.5465061453839404
 40
0.6004355163921484
 40
0.670058993091755
 40
0.7382599600098838
 40
0.7702082107652135
 40
0.7971376722621665
 40
0.8217071387513272
 40
0.8620345015118157
 40
0.9213072625165343
 40
1.0
 40
1.0
 40
1.0
 40
1.0
 10
45.48626125073623
 20
3.935933163001231
 30
0.0
 10
45.20903724687679
 20
3.913304880663191
 30
0.0
 10
44.71068726826323
 20
3.872627291918238
 30
0.0
 10
43.97879684062039
 20
3.832382340677231
 30
0.0
 10
43.36612132101552
 20
3.807492250113922
 30
0.0
 10
42.84052170799367
 20
3.793746797380708
 30
0.0
 10
42.32823339803961
 20
3.786815312193043
 30
0.0
 10
41.7754685530839
 20
3.786459836523394
 30
0.0
 10
41.17686563164261
 20
3.795219371123487
 30
0.0
 10
40.57223298101593
 20
3.813801461982611
 30
0.0
 10
40.00296674770489
 20
3.839590252375561
 30
0.0
 10
39.39881214452595
 20
3.875295226842355
 30
0.0
 10
38.75640192088957
 20
3.923242013918236
 30
0.0
 10
38.18711209014965
 20
3.975461995046579
 30
0.0
 10
37.76137330294513
 20
4.019353919145423
 30
0.0
 10
37.48336238275682
 20
4.049915151388444
 30
0.0
 10
37.18053068780701
 20
4.084892305716639
 30
0.0
 10
36.76399434482095
 20
4.136228754758497
 30
0.0
 10
36.16520927706138
 20
4.216666993484202
 30
0.0
 10
35.6995186645153
 20
4.287748738033177
 30
0.0
 10
35.43389813240277
 20
4.32829233135871
 30
0.0
1001
PE_URL
1000

  0
SPLINE
  5
A2
330
1F
100
AcDbEntity
  8
0
  6
Continuous
 62
     1
370
    15
100
AcDbSpline
210
0.0
220
0.0
230
1.0
 70
     8
 71
     3
 72
    16
 73
    12
 74
     0
 42
0.000000001
 43
0.00000001
 40
0.0
 40
0.0
 40
0.0
 40
0.0
 40
0.1714922289853629
 40
0.300219258354798
 40
0.4017641559450925
 40
0.5078818042367733
 40
0.6150666143897757
 40
0.7056399010604314
 40
0.8329956010603744
 40
0.9894528640113591
 40
1.0
 40
1.0
 40
1.0
 40
1.0
 10
35.43389813240277
 20
-4.328292331358712
 30
0.0
 10
35.67577246170072
 20
-4.291234701100905
 30
0.0
 10
36.09920466143666
 20
-4.22636054127332
 30
0.0
 10
36.67416041336941
 20
-4.147843408755688
 30
0.0
 10
37.16445015412305
 20
-4.086543599906215
 30
0.0
 10
37.6182924076838
 20
-4.034335908445128
 30
0.0
 10
38.05331017911542
 20
-3.988942095443345
 30
0.0
 10
38.51900154383797
 20
-3.944691763604977
 30
0.0
 10
39.05536777446223
 20
-3.900577721103986
 30
0.0
 10
39.47739094124429
 20
-3.869077620364949
 30
0.0
 10
39.71671732114106
 20
-3.857079159354018
 30
0.0
 10
39.73183194021976
 20
-3.856321398476218
 30
0.0
1001
PE_URL
1000

  0
SPLINE
  5
A3
330
1F
100
AcDbEntity
  8
0
  6
Continuous
 62
     1
370
    15
100
AcDbSpline
210
0.0
220
0.0
230
1.0
 70
     8
 71
     3
 72
    14
 73
    10
 74
     0
 42
0.000000001
 43
0.00000001
 40
0.0
 40
0.0
 40
0.0
 40
0.0
 40
0.2355467110625589
 40
0.4241975120896779
 40
0.5660895370468553
 40
0.65210911162583
 40
0.7499301947326992
 40
0.8653020026603152
 40
1.0
 40
1.0
 40
1.0
 40
1.0
 10
26.9875
 20
-4.501530342467249
 30
0.0
 10
27.29121227230304
 20
-4.497948068440543
 30
0.0
 10
27.83816956039625
 20
-4.491496729243757
 30
0.0
 10
28.57652985302321
 20
-4.49727212331612
 30
0.0
 10
29.12299297718978
 20
-4.506611932330517
 30
0.0
 10
29.55095511394119
 20
-4.514429420560658
 30
0.0
 10
29.93823082483339
 20
-4.528139045689592
 30
0.0
 10
30.36630624756453
 20
-4.548782536645284
 30
0.0
 10
30.65697157888155
 20
-4.564454719004009
 30
0.0
 10
30.81353601489025
 20
-4.57289640821717
 30
0.0
1001
PE_URL
1000

  0
LINE
  5
A4
330
1F
100
AcDbEntity
  8
외형선
  6
Continuous
370
    15
100
AcDbLine
 10
23.76576350361918
 20
6.349999999999996
 30
0.0
 11
23.76576350361918
 21
-6.349999999999998
 31
0.0
  0
SPLINE
  5
A6
330
1F
100
AcDbEntity
  8
외형선
  6
Continuous
370
    15
100
AcDbSpline
210
0.0
220
0.0
230
1.0
 70
     8
 71
     3
 72
     8
 73
     4
 74
     0
 42
0.000000001
 43
0.00000001
 40
0.0
 40
0.0
 40
0.0
 40
0.0
 40
1.0
 40
1.0
 40
1.0
 40
1.0
 10
25.98750000000001
 20
4.581543894725228
 30
0.0
 10
25.64286707668706
 20
4.751277175597243
 30
0.0
 10
25.29997048174334
 20
4.919746036570081
 30
0.0
 10
24.95773016929565
 20
5.085452230629251
 30
0.0
  0
LINE
  5
A7
330
1F
100
AcDbEntity
  8
외형선
  6
Continuous
370
    15
100
AcDbLine
 10
25.98750000000001
 20
4.581543894725224
 30
0.0
 11
25.98750000000001
 21
3.44162466836152
 31
0.0
  0
SPLINE
  5
A8
330
1F
100
AcDbEntity
  8
외형선
  6
Continuous
370
    15
100
AcDbSpline
210
0.0
220
0.0
230
1.0
 70
     8
 71
     3
 72
     8
 73
     4
 74
     0
 42
0.000000001
 43
0.00000001
 40
0.0
 40
0.0
 40
0.0
 40
0.0
 40
1.0
 40
1.0
 40
1.0
 40
1.0
 10
24.95761248016943
 20
4.010945041399657
 30
0.0
 10
25.3013740680051
 20
3.823432992671494
 30
0.0
 10
25.64428963453825
 20
3.633097267312925
 30
0.0
 10
25.98749999999922
 20
3.441624668361959
 30
0.0
  0
LINE
  5
A9
330
1F
100
AcDbEntity
  8
외형선
  6
Continuous
370
    15
100
AcDbLine
 10
24.95761248016942
 20
-6.030645029233499
 30
0.0
 11
24.95761248016943
 21
4.011022957684669
 31
0.0
  0
SPLINE
  5
AA
330
1F
100
AcDbEntity
  8
외형선
  6
Continuous
370
    15
100
AcDbSpline
210
0.0
220
0.0
230
1.0
 70
     8
 71
     3
 72
     8
 73
     4
 74
     0
 42
0.000000001
 43
0.00000001
 40
0.0
 40
0.0
 40
0.0
 40
0.0
 40
1.0
 40
1.0
 40
1.0
 40
1.0
 10
25.98750000000001
 20
-4.581543894725232
 30
0.0
 10
25.64286707668706
 20
-4.751277175597247
 30
0.0
 10
25.29997048174334
 20
-4.919746036570085
 30
0.0
 10
24.95773016929565
 20
-5.085452230629254
 30
0.0
  0
LINE
  5
AB
330
1F
100
AcDbEntity
  8
외형선
  6
Continuous
370
    15
100
AcDbLine
 10
24.95761248016943
 20
5.085535872180139
 30
0.0
 11
24.95761248016942
 21
6.030645029233496
 31
0.0
  0
SPLINE
  5
AD
330
1F
100
AcDbEntity
  8
외형선
  6
Continuous
370
    15
100
AcDbSpline
210
0.0
220
0.0
230
1.0
 70
    24
 71
     3
 72
    10
 73
     6
 74
     0
 42
0.000000001
 43
0.00000001
 40
0.0
 40
0.0
 40
0.0
 40
0.0
 40
0.5
 40
0.5
 40
1.0
 40
1.0
 40
1.0
 40
1.0
 10
26.9875
 20
2.963175007462552
 30
0.0
 10
26.9875
 20
2.889779232407142
 30
0.0
 10
26.9875
 20
2.756541066898478
 30
0.0
 10
26.9875
 20
2.396634719566693
 30
0.0
 10
26.9875
 20
2.171282973380447
 30
0.0
 10
26.9875
 20
1.930523821701849
 30
0.0
  0
SPLINE
  5
AE
330
1F
100
AcDbEntity
  8
외형선
  6
Continuous
370
    15
100
AcDbSpline
210
0.0
220
0.0
230
1.0
 70
     8
 71
     3
 72
    10
 73
     6
 74
     0
 42
0.000000001
 43
0.00000001
 40
0.0
 40
0.0
 40
0.0
 40
0.0
 40
0.5
 40
0.5
 40
1.0
 40
1.0
 40
1.0
 40
1.0
 10
26.98749999999641
 20
1.930523821703126
 30
0.0
 10
26.64910082200477
 20
2.050530819879086
 30
0.0
 10
26.30911602608882
 20
2.16737974178541
 30
0.0
 10
25.63125500747091
 20
2.392935229357121
 30
0.0
 10
25.29528551318729
 20
2.501448007660497
 30
0.0
 10
24.95764084619085
 20
2.6056458321868
 30
0.0
  0
SPLINE
  5
AF
330
1F
100
AcDbEntity
  8
외형선
  6
Continuous
370
    15
100
AcDbSpline
210
0.0
220
0.0
230
1.0
 70
     8
 71
     3
 72
     8
 73
     4
 74
     0
 42
0.000000001
 43
0.00000001
 40
0.0
 40
0.0
 40
0.0
 40
0.0
 40
1.0
 40
1.0
 40
1.0
 40
1.0
 10
26.9875
 20
2.963175007462554
 30
0.0
 10
26.65486296773585
 20
3.127769554384143
 30
0.0
 10
26.32069385867846
 20
3.287655686240352
 30
0.0
 10
25.98750000000001
 20
3.441624668361519
 30
0.0
  0
SPLINE
  5
B0
330
1F
100
AcDbEntity
  8
외형선
  6
Continuous
370
    15
100
AcDbSpline
210
0.0
220
0.0
230
1.0
 70
     8
 71
     3
 72
     8
 73
     4
 74
     0
 42
0.000000001
 43
0.00000001
 40
0.0
 40
0.0
 40
0.0
 40
0.0
 40
1.0
 40
1.0
 40
1.0
 40
1.0
 10
26.98749999999863
 20
4.210367088687231
 30
0.0
 10
26.65486296773493
 20
4.341254896542235
 30
0.0
 10
26.320693858678
 20
4.46529485566029
 30
0.0
 10
25.98750000000001
 20
4.581543894725226
 30
0.0
  0
LINE
  5
B1
330
1F
100
AcDbEntity
  8
외형선
  6
Continuous
370
    15
100
AcDbLine
 10
26.9875
 20
4.210367088686686
 30
0.0
 11
26.98750000000001
 21
2.963175007462553
 31
0.0
  0
SPLINE
  5
B2
330
1F
100
AcDbEntity
  8
외형선
  6
Continuous
370
    15
100
AcDbSpline
210
0.0
220
0.0
230
1.0
 70
     8
 71
     3
 72
    10
 73
     6
 74
     0
 42
0.000000001
 43
0.00000001
 40
0.0
 40
0.0
 40
0.0
 40
0.0
 40
0.5
 40
0.5
 40
1.0
 40
1.0
 40
1.0
 40
1.0
 10
26.98749999999732
 20
-4.040630801905667
 30
0.0
 10
26.64910326493117
 20
-3.965742613282478
 30
0.0
 10
26.30912093483408
 20
-3.883736813380932
 30
0.0
 10
25.63126477929498
 20
-3.706742398936518
 30
0.0
 10
25.29529763948846
 20
-3.611951975062112
 30
0.0
 10
24.95765547106214
 20
-3.51094998877303
 30
0.0
  0
SPLINE
  5
B3
330
1F
100
AcDbEntity
  8
외형선
  6
Continuous
370
    15
100
AcDbSpline
210
0.0
220
0.0
230
1.0
 70
    24
 71
     3
 72
    14
 73
    10
 74
     0
 42
0.000000001
 43
0.00000001
 40
0.0
 40
0.0
 40
0.0
 40
0.0
 40
0.25
 40
0.25
 40
0.5
 40
0.5
 40
0.75
 40
0.75
 40
1.0
 40
1.0
 40
1.0
 40
1.0
 10
26.9875
 20
1.930523821701849
 30
0.0
 10
26.9875
 20
1.441347438966878
 30
0.0
 10
26.9875
 20
0.918878924890315
 30
0.0
 10
26.9875
 20
-0.1498594060182921
 30
0.0
 10
26.9875
 20
-0.6956559507122411
 30
0.0
 10
26.9875
 20
-1.756902282343695
 30
0.0
 10
26.9875
 20
-2.271786592866885
 30
0.0
 10
26.9875
 20
-3.222739323642293
 30
0.0
 10
26.9875
 20
-3.658499907987214
 30
0.0
 10
26.9875
 20
-4.040630801906261
 30
0.0
  0
SPLINE
  5
B4
330
1F
100
AcDbEntity
  8
외형선
  6
Continuous
370
    15
100
AcDbSpline
210
0.0
220
0.0
230
1.0
 70
    24
 71
     3
 72
    10
 73
     6
 74
     0
 42
0.000000001
 43
0.00000001
 40
0.0
 40
0.0
 40
0.0
 40
0.0
 40
0.0375276580345532
 40
0.7040688225899924
 40
1.0
 40
1.0
 40
1.0
 40
1.0
 10
26.9875
 20
4.496763998418409
 30
0.0
 10
26.9875
 20
4.498323332554973
 30
0.0
 10
26.9875
 20
4.527578516785847
 30
0.0
 10
26.9875
 20
4.458675268616702
 30
0.0
 10
26.9875
 20
4.319367304213261
 30
0.0
 10
26.9875
 20
4.276534312415998
 30
0.0
  0
SPLINE
  5
B5
330
1F
100
AcDbEntity
  8
외형선
  6
Continuous
370
    15
100
AcDbSpline
210
0.0
220
0.0
230
1.0
 70
    24
 71
     3
 72
    10
 73
     6
 74
     0
 42
0.000000001
 43
0.00000001
 40
0.0
 40
0.0
 40
0.0
 40
0.0
 40
0.2959182561854839
 40
0.5918365123709679
 40
1.0
 40
1.0
 40
1.0
 40
1.0
 10
26.9875
 20
-4.040630801906262
 30
0.0
 10
26.9875
 20
-4.12275445975822
 30
0.0
 10
26.9875
 20
-4.287001775462142
 30
0.0
 10
26.9875
 20
-4.461674148749607
 30
0.0
 10
26.9875
 20
-4.484007068716125
 30
0.0
 10
26.9875
 20
-4.496953693994445
 30
0.0
  0
LINE
  5
B6
330
1F
100
AcDbEntity
  8
외형선
  6
Continuous
370
    15
100
AcDbLine
 10
26.14740196977439
 20
-4.524186532070755
 30
0.0
 11
25.98750000000001
 21
-4.581543894725231
 31
0.0
  0
SPLINE
  5
B7
330
1F
100
AcDbEntity
  8
0
  6
Continuous
 62
     1
370
    15
100
AcDbSpline
210
0.0
220
0.0
230
1.0
 70
     8
 71
     3
 72
    36
 73
    32
 74
     0
 42
0.000000001
 43
0.00000001
 40
0.0
 40
0.0
 40
0.0
 40
0.0
 40
0.0625
 40
0.0625
 40
0.125
 40
0.125
 40
0.1875000000000001
 40
0.1875000000000001
 40
0.2500000000000001
 40
0.2500000000000001
 40
0.3125000000000001
 40
0.3125000000000001
 40
0.3750000000000001
 40
0.3750000000000001
 40
0.4375000000000001
 40
0.4375000000000001
 40
0.5000000000000001
 40
0.5000000000000001
 40
0.5625000000000001
 40
0.5625000000000001
 40
0.6250000000000001
 40
0.6250000000000001
 40
0.6875000000000001
 40
0.6875000000000001
 40
0.7500000000000002
 40
0.7500000000000002
 40
0.8750000000000001
 40
0.8750000000000001
 40
0.9375000000000001
 40
0.9375000000000001
 40
1.0
 40
1.0
 40
1.0
 40
1.0
 10
47.62500000000001
 20
-5.460858158407949
 30
0.0
 10
47.19772755614236
 20
-5.382711919241258
 30
0.0
 10
46.76577954322568
 20
-5.289038404748215
 30
0.0
 10
45.90330744876304
 20
-5.072705688787338
 30
0.0
 10
45.47578834829278
 20
-4.950382731912089
 30
0.0
 10
44.61703564561147
 20
-4.678534167032426
 30
0.0
 10
44.18440539868681
 20
-4.528785425730481
 30
0.0
 10
43.32346853193104
 20
-4.205323888523514
 30
0.0
 10
42.89716971797816
 20
-4.031952479113216
 30
0.0
 10
42.03572242386777
 20
-3.66250736914148
 30
0.0
 10
41.60318580362677
 20
-3.466732216241119
 30
0.0
 10
40.74531029570036
 20
-3.058060169349637
 30
0.0
 10
40.31701593431345
 20
-2.84473738351355
 30
0.0
 10
39.45440320210277
 20
-2.402387367904766
 30
0.0
 10
39.02381591747955
 20
-2.173983013359795
 30
0.0
 10
38.16811886601133
 20
-1.707344168382609
 30
0.0
 10
37.73593545096576
 20
-1.467817365391354
 30
0.0
 10
36.87369334266253
 20
-0.9822736728080278
 30
0.0
 10
36.44676276542606
 20
-0.7368718973586348
 30
0.0
 10
35.58722093513268
 20
-0.2422565551430627
 30
0.0
 10
35.15454221593046
 20
0.0069775803303236
 30
0.0
 10
34.29420459525964
 20
0.5030577578249305
 30
0.0
 10
33.86771862391288
 20
0.7496814539440139
 30
0.0
 10
33.00584989715676
 20
1.239069918649656
 30
0.0
 10
32.57345202530337
 20
1.48124554368945
 30
0.0
 10
31.28808620447212
 20
2.191190432332845
 30
0.0
 10
30.42359026916449
 20
2.646510710335672
 30
0.0
 10
29.13844697571587
 20
3.275958050955236
 30
0.0
 10
28.70607315695574
 20
3.477850014360184
 30
0.0
 10
27.84415030380046
 20
3.860621274627205
 30
0.0
 10
27.41762130973852
 20
4.041120643213517
 30
0.0
 10
26.98749999999491
 20
4.210367088688691
 30
0.0
1001
PE_URL
1000

  0
SPLINE
  5
B8
330
1F
100
AcDbEntity
  8
0
  6
Continuous
 62
     1
370
    15
100
AcDbSpline
210
0.0
220
0.0
230
1.0
 70
     8
 71
     3
 72
    15
 73
    11
 74
     0
 42
0.000000001
 43
0.00000001
 40
0.0
 40
0.0
 40
0.0
 40
0.0
 40
0.1265440228786648
 40
0.253006084115047
 40
0.3794230042814609
 40
0.5058318664867322
 40
0.6322698007757221
 40
0.7587737679562246
 40
0.8853424132237596
 40
1.0
 40
1.0
 40
1.0
 40
1.0
 10
47.62500000000001
 20
-4.540288827606472
 30
0.0
 10
46.99488147422555
 20
-4.409558908555579
 30
0.0
 10
45.73505254585803
 20
-4.148183743270553
 30
0.0
 10
43.84599006371512
 20
-3.563856720932357
 30
0.0
 10
41.95768194503675
 20
-2.863640898461959
 30
0.0
 10
40.06951760213409
 20
-2.057866004047544
 30
0.0
 10
38.1808512514049
 20
-1.178840492721627
 30
0.0
 10
36.29125269953273
 20
-0.2584886846621522
 30
0.0
 10
34.46005341999657
 20
0.6461407010876459
 30
0.0
 10
33.25901187338771
 20
1.214947311221821
 30
0.0
 10
32.68814309106065
 20
1.485307597944382
 30
0.0
1001
PE_URL
1000

  0
LINE
  5
B9
330
1F
100
AcDbEntity
  8
0
  6
Continuous
 62
     1
370
    15
100
AcDbLine
 10
47.62500000000001
 20
-5.460858158407951
 30
0.0
 11
47.62500000000001
 21
-4.540288827606472
 31
0.0
1001
PE_URL
1000

  0
SPLINE
  5
BA
330
1F
100
AcDbEntity
  8
0
  6
Continuous
 62
     1
370
    15
100
AcDbSpline
210
0.0
220
0.0
230
1.0
 70
     8
 71
     3
 72
    36
 73
    32
 74
     0
 42
0.000000001
 43
0.00000001
 40
0.0
 40
0.0
 40
0.0
 40
0.0
 40
0.0625
 40
0.0625
 40
0.1250000000000001
 40
0.1250000000000001
 40
0.1875000000000001
 40
0.1875000000000001
 40
0.2500000000000001
 40
0.2500000000000001
 40
0.3125000000000001
 40
0.3125000000000001
 40
0.3750000000000002
 40
0.3750000000000002
 40
0.4375000000000002
 40
0.4375000000000002
 40
0.5000000000000002
 40
0.5000000000000002
 40
0.5625000000000002
 40
0.5625000000000002
 40
0.6250000000000002
 40
0.6250000000000002
 40
0.6875000000000003
 40
0.6875000000000003
 40
0.7500000000000003
 40
0.7500000000000003
 40
0.8750000000000002
 40
0.8750000000000002
 40
0.9375000000000002
 40
0.9375000000000002
 40
1.0
 40
1.0
 40
1.0
 40
1.0
 10
47.62500000000001
 20
-5.749823725766841
 30
0.0
 10
47.19772755614245
 20
-5.739640834948332
 30
0.0
 10
46.76577954322584
 20
-5.713371239309174
 30
0.0
 10
45.90330744876336
 20
-5.629022301904322
 30
0.0
 10
45.47578834829318
 20
-5.571131734693567
 30
0.0
 10
44.61703564561201
 20
-5.424521600475959
 30
0.0
 10
44.18440539868742
 20
-5.335635759546768
 30
0.0
 10
43.32346853193181
 20
-5.128852409908414
 30
0.0
 10
42.89716971797901
 20
-5.011222400833245
 30
0.0
 10
42.03572242386878
 20
-4.747871039980455
 30
0.0
 10
41.60318580362787
 20
-4.602319376998582
 30
0.0
 10
40.74531029570158
 20
-4.287215796195468
 30
0.0
 10
40.31701593431477
 20
-4.117360701562561
 30
0.0
 10
39.45440320210425
 20
-3.754793914409756
 30
0.0
 10
39.02381591748109
 20
-3.562578153162446
 30
0.0
 10
38.16811886601305
 20
-3.16025451554955
 30
0.0
 10
37.73593545096755
 20
-2.949024224286453
 30
0.0
 10
36.87369334266448
 20
-2.511581537441142
 30
0.0
 10
36.44676276542806
 20
-2.285952447582225
 30
0.0
 10
35.58722093513485
 20
-1.822238247998385
 30
0.0
 10
35.15454221593272
 20
-1.58410524856204
 30
0.0
 10
34.29420459526203
 20
-1.101242318735282
 30
0.0
 10
33.86771862391537
 20
-0.856759862394691
 30
0.0
 10
33.00584989715941
 20
-0.3626943602191363
 30
0.0
 10
32.5734520253061
 20
-0.1136746159327507
 30
0.0
 10
31.28808620447503
 20
0.6299857504532766
 30
0.0
 10
30.42359026916754
 20
1.125655029464119
 30
0.0
 10
29.13844697571921
 20
1.840074490384984
 30
0.0
 10
28.70607315695917
 20
2.07447232863581
 30
0.0
 10
27.84415030380403
 20
2.529852821213396
 30
0.0
 10
27.41762130974215
 20
2.750343556867772
 30
0.0
 10
26.98749999999864
 20
2.963175007463232
 30
0.0
1001
PE_URL
1000

  0
SPLINE
  5
BB
330
1F
100
AcDbEntity
  8
0
  6
Continuous
 62
     1
370
    15
100
AcDbSpline
210
0.0
220
0.0
230
1.0
 70
     8
 71
     3
 72
    11
 73
     7
 74
     0
 42
0.000000001
 43
0.00000001
 40
0.0
 40
0.0
 40
0.0
 40
0.0
 40
0.129014592397902
 40
0.4267680939758839
 40
0.7133477719630182
 40
0.9999999999999999
 40
0.9999999999999999
 40
0.9999999999999999
 40
0.9999999999999999
 10
33.32956785156091
 20
-0.546212703683799
 30
0.0
 10
33.05680849136128
 20
-0.4376304958569676
 30
0.0
 10
32.15454627355368
 20
-0.0784508014311477
 30
0.0
 10
30.6464970112097
 20
0.5354199619582548
 30
0.0
 10
28.80531523091388
 20
1.266813273262913
 30
0.0
 10
27.59348953447373
 20
1.709268306051004
 30
0.0
 10
26.9875
 20
1.930523821701849
 30
0.0
1001
PE_URL
1000

  0
SPLINE
  5
BC
330
1F
100
AcDbEntity
  8
외형선
  6
Continuous
370
    15
100
AcDbSpline
210
0.0
220
0.0
230
1.0
 70
    24
 71
     3
 72
    10
 73
     6
 74
     0
 42
0.000000001
 43
0.00000001
 40
0.0
 40
0.0
 40
0.0
 40
0.0
 40
0.5
 40
0.5
 40
1.0
 40
1.0
 40
1.0
 40
1.0
 10
26.98750000000001
 20
2.963175007462549
 30
0.0
 10
26.98750000000001
 20
2.88977923240714
 30
0.0
 10
26.98750000000001
 20
2.756541066898475
 30
0.0
 10
26.98750000000001
 20
2.39663471956669
 30
0.0
 10
26.98750000000001
 20
2.171282973380445
 30
0.0
 10
26.98750000000001
 20
1.930523821701848
 30
0.0
  0
LINE
  5
BD
330
1F
100
AcDbEntity
  8
0
  6
Continuous
 62
     1
370
    15
100
AcDbLine
 10
47.62500000000001
 20
-5.749823725766842
 30
0.0
 11
47.62500000000001
 21
-5.460858158407951
 31
0.0
1001
PE_URL
1000

  0
SPLINE
  5
BE
330
1F
100
AcDbEntity
  8
0
  6
Continuous
 62
     1
370
    15
100
AcDbSpline
210
0.0
220
0.0
230
1.0
 70
     8
 71
     3
 72
     8
 73
     4
 74
     0
 42
0.000000001
 43
0.00000001
 40
0.0
 40
0.0
 40
0.0
 40
0.0
 40
1.0
 40
1.0
 40
1.0
 40
1.0
 10
44.06427338981102
 20
1.609690581374535
 30
0.0
 10
43.85994984387757
 20
1.851749864125477
 30
0.0
 10
43.67740307851542
 20
2.084902131729625
 30
0.0
 10
43.52196338764395
 20
2.306967217632004
 30
0.0
1001
PE_URL
1000

  0
LINE
  5
BF
330
1F
100
AcDbEntity
  8
0
  6
Continuous
 62
     1
370
    15
100
AcDbLine
 10
43.59468433090147
 20
2.367987334298232
 30
0.0
 11
47.62500000000001
 21
0.0000000000000012
 31
0.0
1001
PE_URL
1000

  0
LINE
  5
C0
330
1F
100
AcDbEntity
  8
0
  6
Continuous
 62
     1
370
    15
100
AcDbLine
 10
47.62500000000001
 20
0.0000000000000012
 30
0.0
 11
47.62500000000001
 21
-1.537899640979972
 31
0.0
1001
PE_URL
1000

  0
SPLINE
  5
C1
330
1F
100
AcDbEntity
  8
0
  6
Continuous
 62
     1
370
    15
100
AcDbSpline
210
0.0
220
0.0
230
1.0
 70
     8
 71
     3
 72
    12
 73
     8
 74
     0
 42
0.000000001
 43
0.00000001
 40
0.0
 40
0.0
 40
0.0
 40
0.0
 40
0.5000000000000009
 40
0.5000000000000009
 40
0.7500000000000004
 40
0.7500000000000004
 40
1.0
 40
1.0
 40
1.0
 40
1.0
 10
47.62500000000001
 20
-1.537899640979971
 30
0.0
 10
47.00862737268599
 20
-1.053326741824955
 30
0.0
 10
46.40254992980766
 20
-0.5488850179539884
 30
0.0
 10
45.50927348738137
 20
0.2383468752575706
 30
0.0
 10
45.21420058101376
 20
0.5059410784250773
 30
0.0
 10
44.63008118097243
 20
1.052759945411824
 30
0.0
 10
44.34262863841435
 20
1.330565621572392
 30
0.0
 10
44.06427338981102
 20
1.609690581374536
 30
0.0
1001
PE_URL
1000

  0
SPLINE
  5
C2
330
1F
100
AcDbEntity
  8
0
  6
Continuous
 62
     1
370
    15
100
AcDbSpline
210
0.0
220
0.0
230
1.0
 70
     8
 71
     3
 72
    14
 73
    10
 74
     0
 42
0.000000001
 43
0.00000001
 40
0.0
 40
0.0
 40
0.0
 40
0.0
 40
0.1589680337197731
 40
0.3014523345655372
 40
0.4439698591081258
 40
0.5865628486014232
 40
0.7292297705569244
 40
0.8718103862575611
 40
0.9999999999999999
 40
0.9999999999999999
 40
0.9999999999999999
 40
0.9999999999999999
 10
44.06427338981104
 20
1.609690581374528
 30
0.0
 10
43.36203574517141
 20
1.906681467682146
 30
0.0
 10
42.03037696797611
 20
2.469867624843399
 30
0.0
 10
40.06950272959521
 20
3.183538790354269
 30
0.0
 10
38.18081034569926
 20
3.760814470564731
 30
0.0
 10
36.29120550296572
 20
4.203343336217586
 30
0.0
 10
34.40109047108513
 20
4.491531860727968
 30
0.0
 10
32.57485141849796
 20
4.62905866292023
 30
0.0
 10
31.37887893939249
 20
4.585870285339833
 30
0.0
 10
30.81267470616326
 20
4.565423792933409
 30
0.0
1001
PE_URL
1000

  0
SPLINE
  5
C3
330
1F
100
AcDbEntity
  8
0
  6
Continuous
 62
     1
370
    15
100
AcDbSpline
210
0.0
220
0.0
230
1.0
 70
    24
 71
     3
 72
    10
 73
     6
 74
     0
 42
0.000000001
 43
0.00000001
 40
0.0
 40
0.0
 40
0.0
 40
0.0
 40
0.5
 40
0.5
 40
1.0
 40
1.0
 40
1.0
 40
1.0
 10
47.62500000000001
 20
-4.540288827606468
 30
0.0
 10
47.62500000000001
 20
-4.192240290157834
 30
0.0
 10
47.62500000000001
 20
-3.752467617543006
 30
0.0
 10
47.62500000000001
 20
-2.73003847711243
 30
0.0
 10
47.62500000000001
 20
-2.148267676184335
 30
0.0
 10
47.62500000000001
 20
-1.537899640980155
 30
0.0
1001
PE_URL
1000

  0
SPLINE
  5
C4
330
1F
100
AcDbEntity
  8
외형선
  6
Continuous
370
    15
100
AcDbSpline
210
0.0
220
0.0
230
1.0
 70
    24
 71
     3
 72
    10
 73
     6
 74
     0
 42
0.000000001
 43
0.00000001
 40
0.0
 40
0.0
 40
0.0
 40
0.0
 40
0.0428553620424914
 40
0.7057069306697974
 40
0.9999999999999999
 40
0.9999999999999999
 40
0.9999999999999999
 40
0.9999999999999999
 10
26.98750000000001
 20
4.496102909528985
 30
0.0
 10
26.98750000000001
 20
4.497905164204447
 30
0.0
 10
26.98750000000001
 20
4.52758321508742
 30
0.0
 10
26.98750000000001
 20
4.45873843296082
 30
0.0
 10
26.98750000000001
 20
4.319382158191686
 30
0.0
 10
26.98750000000001
 20
4.276534312415998
 30
0.0
  0
SPLINE
  5
C5
330
1F
100
AcDbEntity
  8
0
  6
Continuous
 62
     1
370
    15
100
AcDbSpline
210
0.0
220
0.0
230
1.0
 70
    24
 71
     3
 72
     8
 73
     4
 74
     0
 42
0.000000001
 43
0.00000001
 40
0.0
 40
0.0
 40
0.0
 40
0.0
 40
1.0
 40
1.0
 40
1.0
 40
1.0
 10
44.12223920737364
 20
2.81065843657141
 30
0.0
 10
43.93229340213607
 20
2.651274981452896
 30
0.0
 10
43.73155490074885
 20
2.482835378976167
 30
0.0
 10
43.52196338764402
 20
2.306967217632017
 30
0.0
1001
PE_URL
1000

  0
SPLINE
  5
C6
330
1F
100
AcDbEntity
  8
0
  6
Continuous
 62
     1
370
    15
100
AcDbSpline
210
0.0
220
0.0
230
1.0
 70
     8
 71
     3
 72
     9
 73
     5
 74
     0
 42
0.000000001
 43
0.00000001
 40
0.0
 40
0.0
 40
0.0
 40
0.0
 40
0.882889920112595
 40
1.0
 40
1.0
 40
1.0
 40
1.0
 10
47.62500000000001
 20
4.028281249999997
 30
0.0
 10
46.99487366803729
 20
4.025094793083485
 30
0.0
 10
46.2811648379689
 20
4.021485671669904
 30
0.0
 10
45.56753044016887
 20
3.937565549284708
 30
0.0
 10
45.4839566588321
 20
3.927737657048017
 30
0.0
1001
PE_URL
1000

  0
SPLINE
  5
C7
330
1F
100
AcDbEntity
  8
0
  6
Continuous
 62
     1
370
    15
100
AcDbSpline
210
0.0
220
0.0
230
1.0
 70
     8
 71
     3
 72
    10
 73
     6
 74
     0
 42
0.000000001
 43
0.00000001
 40
0.0
 40
0.0
 40
0.0
 40
0.0
 40
0.5
 40
0.5
 40
1.0
 40
1.0
 40
1.0
 40
1.0
 10
47.62500000000001
 20
4.028281250000001
 30
0.0
 10
47.03303852035368
 20
3.867704348517091
 30
0.0
 10
46.44468814720457
 20
3.687491600040115
 30
0.0
 10
45.27588643615155
 20
3.284114102751496
 30
0.0
 10
44.69537456682852
 20
3.0615407991074
 30
0.0
 10
44.12223920738468
 20
2.81065843657656
 30
0.0
1001
PE_URL
1000

  0
SPLINE
  5
C8
330
1F
100
AcDbEntity
  8
0
  6
Continuous
 62
     1
370
    15
100
AcDbSpline
210
0.0
220
0.0
230
1.0
 70
     8
 71
     3
 72
    12
 73
     8
 74
     0
 42
0.000000001
 43
0.00000001
 40
0.0
 40
0.0
 40
0.0
 40
0.0
 40
0.123177525880975
 40
0.3466412655541595
 40
0.5699954423551827
 40
0.7849712195627664
 40
1.0
 40
1.0
 40
1.0
 40
1.0
 10
35.4423344655185
 20
-4.307659780733556
 30
0.0
 10
35.09513554348354
 20
-4.365316001513047
 30
0.0
 10
34.11806222696368
 20
-4.527569831464013
 30
0.0
 10
32.51160202702241
 20
-4.620304811066532
 30
0.0
 10
30.64648731235184
 20
-4.589250893804039
 30
0.0
 10
28.80533037408612
 20
-4.40388123537404
 30
0.0
 10
27.593493249192
 20
-4.161724229315958
 30
0.0
 10
26.9875
 20
-4.040630801906262
 30
0.0
1001
PE_URL
1000

  0
SPLINE
  5
C9
330
1F
100
AcDbEntity
  8
외형선
  6
Continuous
370
    15
100
AcDbSpline
210
0.0
220
0.0
230
1.0
 70
    24
 71
     3
 72
    14
 73
    10
 74
     0
 42
0.000000001
 43
0.00000001
 40
0.0
 40
0.0
 40
0.0
 40
0.0
 40
0.2500000000000001
 40
0.2500000000000001
 40
0.5000000000000001
 40
0.5000000000000001
 40
0.75
 40
0.75
 40
1.0
 40
1.0
 40
1.0
 40
1.0
 10
26.98750000000001
 20
1.930523821701847
 30
0.0
 10
26.98750000000001
 20
1.441347438966876
 30
0.0
 10
26.98750000000001
 20
0.9188789248903136
 30
0.0
 10
26.98750000000001
 20
-0.1498594060182935
 30
0.0
 10
26.98750000000001
 20
-0.6956559507122424
 30
0.0
 10
26.98750000000001
 20
-1.756902282343696
 30
0.0
 10
26.98750000000001
 20
-2.271786592866887
 30
0.0
 10
26.98750000000001
 20
-3.222739323642294
 30
0.0
 10
26.98750000000001
 20
-3.658499907987217
 30
0.0
 10
26.98750000000001
 20
-4.040630801906261
 30
0.0
  0
LINE
  5
CA
330
1F
100
AcDbEntity
  8
0
  6
Continuous
 62
     1
370
    15
100
AcDbLine
 10
47.62500000000001
 20
0.0000000000000012
 30
0.0
 11
47.62500000000001
 21
4.028281250000001
 31
0.0
1001
PE_URL
1000

  0
SPLINE
  5
CB
330
1F
100
AcDbEntity
  8
외형선
  6
Continuous
370
    15
100
AcDbSpline
210
0.0
220
0.0
230
1.0
 70
    24
 71
     3
 72
    10
 73
     6
 74
     0
 42
0.000000001
 43
0.00000001
 40
0.0
 40
0.0
 40
0.0
 40
0.0
 40
0.2973392127735903
 40
0.5946784255471806
 40
1.0
 40
1.0
 40
1.0
 40
1.0
 10
26.98750000000001
 20
-4.040630801906262
 30
0.0
 10
26.98750000000001
 20
-4.122743769252464
 30
0.0
 10
26.98750000000001
 20
-4.28696970394487
 30
0.0
 10
26.98750000000001
 20
-4.460987103645174
 30
0.0
 10
26.98750000000001
 20
-4.483256862316253
 30
0.0
 10
26.98750000000001
 20
-4.496102909528987
 30
0.0
  0
SPLINE
  5
CC
330
1F
100
AcDbEntity
  8
0
  6
Continuous
 62
     1
370
    15
100
AcDbSpline
210
0.0
220
0.0
230
1.0
 70
     8
 71
     3
 72
    12
 73
     8
 74
     0
 42
0.000000001
 43
0.00000001
 40
0.0
 40
0.0
 40
0.0
 40
0.0
 40
0.0796402706522669
 40
0.3096721277828157
 40
0.539663497462368
 40
0.769733349920099
 40
1.0
 40
1.0
 40
1.0
 40
1.0
 10
39.73286732719131
 20
3.856774101861526
 30
0.0
 10
39.94239858327616
 20
3.950086456599326
 30
0.0
 10
40.75713702373312
 20
4.312920927193343
 30
0.0
 10
42.17667581422327
 20
4.81081723061905
 30
0.0
 10
43.9919368617375
 20
5.316372724972651
 30
0.0
 10
45.80788189663204
 20
5.65113521224848
 30
0.0
 10
47.0191213606162
 20
5.716918180341645
 30
0.0
 10
47.62500000000001
 20
5.749823725766838
 30
0.0
1001
PE_URL
1000

  0
SPLINE
  5
CD
330
1F
100
AcDbEntity
  8
0
  6
Continuous
 62
     1
370
    15
100
AcDbSpline
210
0.0
220
0.0
230
1.0
 70
    24
 71
     3
 72
    10
 73
     6
 74
     0
 42
0.000000001
 43
0.00000001
 40
0.0
 40
0.0
 40
0.0
 40
0.0
 40
0.5
 40
0.5
 40
1.0
 40
1.0
 40
1.0
 40
1.0
 10
47.62500000000001
 20
4.028281249999997
 30
0.0
 10
47.62500000000001
 20
4.272465627845835
 30
0.0
 10
47.62500000000001
 20
4.556230488808734
 30
0.0
 10
47.62500000000001
 20
5.151568402841918
 30
0.0
 10
47.62500000000001
 20
5.461621037588781
 30
0.0
 10
47.62500000000001
 20
5.749823725766838
 30
0.0
1001
PE_URL
1000

  0
LINE
  5
CE
330
1F
100
AcDbEntity
  8
중심선
 62
     1
100
AcDbLine
 10
-50.625
 20
-0.0000000000000062
 30
0.0
 11
50.625
 21
0.0000000000000062
 31
0.0
  0
LINE
  5
CF
330
1F
100
AcDbEntity
  8
참조1
100
AcDbLine
 10
0.0
 20
-0.0000000000000058
 30
0.0
 11
0.0000000000000071
 21
-40.00000000000001
 31
0.0
  0
LINE
  5
D0
330
1F
100
AcDbEntity
  8
참조1
100
AcDbLine
 10
0.0000000000000071
 20
-40.00000000000001
 30
0.0
 11
-12.87821559669922
 21
-40.0
 31
0.0
  0
CIRCLE
  5
D1
330
1F
100
AcDbEntity
  8
해칭선
100
AcDbCircle
 10
0.0
 20
0.0
 30
0.0
 40
3.000000000000002
  0
INSERT
  5
D2
330
1F
100
AcDbEntity
  8
0
  6
Continuous
 62
     7
100
AcDbBlockReference
 66
     1
  2
블럭10
 10
-13.94027293212521
 20
-52.04717430164393
 30
0.0
  0
ATTRIB
  5
D3
330
D2
100
AcDbEntity
  8
FORMAT
 62
     2
100
AcDbText
 10
-23.12156822086649
 20
-49.97180738881174
 30
0.0
 40
4.233333333333333
  1
E2050029 [ 2 FLUTE ]
 41
0.75
  7
SLDTEXTSTYLE0
 11
-23.12156822086649
 21
-52.08847405547841
 31
0.0
100
AcDbAttribute
  2
AUTOATTR0
 70
     0
 74
     1
  0
SEQEND
  5
D4
330
D2
100
AcDbEntity
  8
0
  6
Continuous
 62
     7
  0
HATCH
  5
D5
330
1F
100
AcDbEntity
  8
중심선
100
AcDbHatch
 10
0.0
 20
0.0
 30
0.0
210
0.0
220
0.0
230
1.0
  2
SOLID
 70
     1
 71
     0
 91
        1
 92
        0
 93
        4
 72
     1
 10
-8.225363627744372
 20
-35.8
 11
-11.67163887158165
 21
-35.8
 72
     1
 10
-11.67163887158165
 20
-35.8
 11
-13.79986873078568
 21
-38.33632558057257
 72
     1
 10
-13.79986873078568
 20
-38.33632558057257
 11
-10.35356040183525
 21
-38.33628615127008
 72
     1
 10
-10.35356040183525
 20
-38.33628615127008
 11
-8.225363627744372
 21
-35.8
 97
        0
 75
     0
 76
     1
 98
        1
 10
16.58171167873051
 20
-0.001074928723895
  0
HATCH
  5
D6
330
1F
100
AcDbEntity
  8
중심선
100
AcDbHatch
 10
0.0
 20
0.0
 30
0.0
210
0.0
220
0.0
230
1.0
  2
SOLID
 70
     1
 71
     0
 91
        1
 92
        0
 93
        4
 72
     1
 10
-3.212599636708394
 20
-35.8
 11
-6.658874880545646
 21
-35.8
 72
     1
 10
-6.658874880545646
 20
-35.8
 11
-11.19001288890309
 21
-41.20000000000002
 72
     1
 10
-11.19001288890309
 20
-41.20000000000002
 11
-7.743737645065806
 21
-41.20000000000002
 72
     1
 10
-7.743737645065806
 20
-41.20000000000002
 11
-3.212599636708394
 21
-35.8
 97
        0
 75
     0
 76
     1
 98
        1
 10
16.58171167873051
 20
-0.001074928723895
  0
HATCH
  5
D7
330
1F
100
AcDbEntity
  8
중심선
100
AcDbHatch
 10
0.0
 20
0.0
 30
0.0
210
0.0
220
0.0
230
1.0
  2
SOLID
 70
     1
 71
     0
 91
        1
 92
        0
 93
        4
 72
     1
 10
1.800164354327503
 20
-35.80000000000003
 11
-1.646110889509611
 21
-35.8
 72
     1
 10
-1.646110889509611
 20
-35.8
 11
-8.69454779139889
 21
-44.20000000000002
 72
     1
 10
-8.69454779139889
 20
-44.20000000000002
 11
-5.248272547561605
 21
-44.20000000000002
 72
     1
 10
-5.248272547561605
 20
-44.20000000000002
 11
1.800164354327503
 21
-35.80000000000003
 97
        0
 75
     0
 76
     1
 98
        1
 10
16.58171167873051
 20
-0.001074928723895
  0
HATCH
  5
D8
330
1F
100
AcDbEntity
  8
중심선
100
AcDbHatch
 10
0.0
 20
0.0
 30
0.0
210
0.0
220
0.0
230
1.0
  2
SOLID
 70
     1
 71
     0
 91
        1
 92
        0
 93
        6
 72
     3
 10
6.600054785339674
 20
-40.00000000005127
 11
3.960054785062283
 21
1.540882976769353E-10
 40
0.3939339440162628
 50
17.09539180608436
 51
320.0019657685077
 73
     0
 72
     1
 10
8.283054441040242
 20
-38.5878940046383
 11
10.58835631474131
 21
-36.65356729459035
 72
     3
 10
6.600054785286828
 20
-40.00000000000015
 11
6.600054785286829
 21
-1.278976924368180E-13
 40
0.636358354079598
 50
39.9987384933743
 51
368.4976242363725
 73
     1
 72
     1
 10
13.02538727718744
 20
-39.03999999993002
 11
5.280122092122751
 21
-39.03999999993
 72
     1
 10
5.280122092122751
 20
-39.03999999993
 11
5.280097047676817
 21
-40.95999999992991
 72
     1
 10
5.280097047676817
 20
-40.95999999992991
 11
9.721476817148854
 21
-40.95999999992988
 97
        0
 75
     0
 76
     1
 98
        1
 10
16.58171167873051
 20
-0.001074928723895
  0
DIMENSION
  5
D9
330
1F
100
AcDbEntity
  8
치수문자_일반주서
100
AcDbDimension
  2
_D
 10
-57.62499999999995
 20
-6.350000000000129
 30
0.0
 11
-57.62500000000006
 21
26.29774999999995
 31
0.0
 70
   160
  1
%%c<>
 71
     2
 42
12.7
 52
-270.0
  3
SLDDIMSTYLE0
100
AcDbAlignedDimension
 13
-23.76576350361918
 23
6.349999999999994
 33
0.0
 14
-23.7657635036192
 24
-6.350000000000001
 34
0.0
 50
90.0000000000002
100
AcDbRotatedDimension
1001
PE_URL
1000

1001
ACAD
1000
DSTYLE
1002
{
1070
   171
1070
     8
1070
   273
1070
     7
1002
}
  0
DIMENSION
  5
EE
330
1F
100
AcDbEntity
  8
치수문자_일반주서
100
AcDbDimension
  2
_D_1
 10
91.40055049182158
 20
5.749823725767001
 30
0.0
 11
91.40055049182149
 21
28.322573725767
 31
0.0
 70
   160
  1
%%c<>
 71
     2
 42
11.49964745153368
 52
-270.0
  3
SLDDIMSTYLE0
100
AcDbAlignedDimension
 13
47.62500000000001
 23
-5.749823725766842
 33
0.0
 14
47.62500000000001
 24
5.749823725766838
 34
0.0
 50
90.0000000000002
100
AcDbRotatedDimension
1001
PE_URL
1000

1001
ACAD
1000
DSTYLE
1002
{
1070
   171
1070
     8
1070
   273
1070
     7
1002
}
  0
DIMENSION
  5
102
330
1F
100
AcDbEntity
  8
치수문자_일반주서
100
AcDbDimension
  2
_D_2
 10
26.98750000000001
 20
16.34999999999999
 30
0.0
 11
68.88525000000001
 21
16.34999999999999
 31
0.0
 70
   160
  1
<>
 71
     2
 42
20.6375
  3
SLDDIMSTYLE0
100
AcDbAlignedDimension
 13
47.62500000000001
 23
5.749823725766838
 33
0.0
 14
26.98750000000001
 24
4.501530604822824
 34
0.0
100
AcDbRotatedDimension
1001
PE_URL
1000

1001
ACAD
1000
DSTYLE
1002
{
1070
   171
1070
     8
1070
   273
1070
     7
1002
}
  0
DIMENSION
  5
117
330
1F
100
AcDbEntity
  8
치수문자_일반주서
100
AcDbDimension
  2
_D_3
 10
47.62500000000002
 20
26.34999999999999
 30
0.0
 11
0.0000000000000142
 21
26.34999999999999
 31
0.0
 70
   160
  1
<>
 71
     2
 42
95.25000000000003
  3
SLDDIMSTYLE0
100
AcDbAlignedDimension
 13
-47.62500000000002
 23
5.749823725766854
 33
0.0
 14
47.62500000000001
 24
5.749823725766838
 34
0.0
100
AcDbRotatedDimension
1001
PE_URL
1000

1001
ACAD
1000
DSTYLE
1002
{
1070
   171
1070
     8
1070
   273
1070
     7
1002
}
  0
LINE
  5
12A
330
1F
100
AcDbEntity
  8
참조1
100
AcDbLine
 10
85.09412503295505
 20
7.44
 30
0.0
 11
85.09412503295505
 21
-7.440000000000004
 31
0.0
  0
LINE
  5
12B
330
1F
100
AcDbEntity
  8
참조1
100
AcDbLine
 10
97.79412503295505
 20
5.44
 30
0.0
 11
85.09412503295505
 21
5.44
 31
0.0
  0
SOLID
  5
12C
330
1F
100
AcDbEntity
  8
참조1
100
AcDbTrace
 10
85.09412503295505
 20
5.44
 30
0.0
 11
91.44412503295504
 21
4.424
 31
0.0
 12
91.44412503295504
 22
6.456
 32
0.0
 13
91.44412503295504
 23
6.456
 33
0.0
  0
LINE
  5
12D
330
1F
100
AcDbEntity
  8
참조1
100
AcDbLine
 10
97.79412503295505
 20
-5.440000000000004
 30
0.0
 11
85.09412503295505
 21
-5.440000000000004
 31
0.0
  0
SOLID
  5
12E
330
1F
100
AcDbEntity
  8
참조1
100
AcDbTrace
 10
85.09412503295505
 20
-5.440000000000004
 30
0.0
 11
91.44412503295504
 21
-6.456000000000004
 31
0.0
 12
91.44412503295504
 22
-4.424000000000004
 32
0.0
 13
91.44412503295504
 23
-4.424000000000004
 33
0.0
  0
MTEXT
  5
12F
330
1F
100
AcDbEntity
  8
참조1
100
AcDbMText
 10
94.47847516558105
 20
11.01029177718833
 30
0.0
 40
3.5
 41
0.0
 71
     1
 72
     1
  1
A
  7
SLDTEXTSTYLE0
 73
     1
 44
1.0
  0
MTEXT
  5
130
330
1F
100
AcDbEntity
  8
참조1
100
AcDbMText
 10
94.47847516558105
 20
0.1302917771883242
 30
0.0
 40
3.5
 41
0.0
 71
     1
 72
     1
  1
A
  7
SLDTEXTSTYLE0
 73
     1
 44
1.0
  0
INSERT
  5
137
330
1F
100
AcDbEntity
  8
해칭선
100
AcDbBlockReference
  2
SW_DOWELSYMBOL_0
 10
0.0
 20
0.0
 30
0.0
  0
LINE
  5
1AA
330
1F
100
AcDbEntity
  8
외형선
  6
Continuous
370
    15
100
AcDbLine
 10
-5.587999999999937
 20
4.825999999999996
 30
0.0
 11
5.587999999999937
 21
4.825999999999996
 31
0.0
1001
PE_URL
1000

  0
LINE
  5
1AB
330
1F
100
AcDbEntity
  8
외형선
  6
Continuous
370
    15
100
AcDbLine
 10
-5.587999999999937
 20
4.825999999999996
 30
0.0
 11
-7.111999999999938
 21
6.349999999999993
 31
0.0
1001
PE_URL
1000

  0
LINE
  5
1AC
330
1F
100
AcDbEntity
  8
외형선
  6
Continuous
370
    15
100
AcDbLine
 10
5.588000000000051
 20
4.825999999999996
 30
0.0
 11
7.112000000000052
 21
6.349999999999993
 31
0.0
1001
PE_URL
1000

  0
LINE
  5
1F6
330
1F
100
AcDbEntity
  8
외형선
  6
Continuous
370
    15
100
AcDbLine
 10
-23.76576350361918
 20
6.349999999999994
 30
0.0
 11
-24.95761248016943
 21
6.030645029233495
 31
0.0
  0
LINE
  5
1F7
330
1F
100
AcDbEntity
  8
외형선
  6
Continuous
370
    15
100
AcDbLine
 10
-24.95761248016944
 20
-6.030645029233501
 30
0.0
 11
-23.76576350361919
 21
-6.349999999999998
 31
0.0
  0
SPLINE
  5
1F8
330
1F
100
AcDbEntity
  8
외형선
  6
Continuous
370
    15
100
AcDbSpline
210
0.0
220
0.0
230
1.0
 70
     8
 71
     3
 72
     9
 73
     5
 74
     0
 42
0.000000001
 43
0.00000001
 40
0.0
 40
0.0
 40
0.0
 40
0.0
 40
0.9545083329945424
 40
1.0
 40
1.0
 40
1.0
 40
1.0
 10
-26.98750000000002
 20
-4.501530342467252
 30
0.0
 10
-26.7222155196541
 20
-4.506008724185914
 30
0.0
 10
-26.44428763660078
 20
-4.510700544638244
 30
0.0
 10
-26.16635651792955
 20
-4.52143445285482
 30
0.0
 10
-26.1537129680285
 20
-4.521922756233074
 30
0.0
  0
SPLINE
  5
1F9
330
1F
100
AcDbEntity
  8
외형선
  6
Continuous
370
    15
100
AcDbSpline
210
0.0
220
0.0
230
1.0
 70
     8
 71
     3
 72
     9
 73
     5
 74
     0
 42
0.000000001
 43
0.00000001
 40
0.0
 40
0.0
 40
0.0
 40
0.0
 40
0.4417022912251675
 40
1.0
 40
1.0
 40
1.0
 40
1.0
 10
-24.95765547106215
 20
4.572139927959956
 30
0.0
 10
-25.25135737939162
 20
4.557761855706136
 30
0.0
 10
-25.91628919922625
 20
4.525210355432186
 30
0.0
 10
-26.60371291469585
 20
4.510014277794651
 30
0.0
 10
-26.98750000000001
 20
4.50153034246725
 30
0.0
  0
SPLINE
  5
1FA
330
1F
100
AcDbEntity
  8
0
  6
Continuous
 62
     1
370
    15
100
AcDbSpline
210
0.0
220
0.0
230
1.0
 70
     8
 71
     3
 72
    11
 73
     7
 74
     0
 42
0.000000001
 43
0.00000001
 40
0.0
 40
0.0
 40
0.0
 40
0.0
 40
0.3123646501545679
 40
0.4991688485258426
 40
0.6867578867431771
 40
1.0
 40
1.0
 40
1.0
 40
1.0
 10
-32.71509923070026
 20
-1.474675761786035
 30
0.0
 10
-32.54894935992928
 20
-1.553315624971152
 30
0.0
 10
-32.28343647415804
 20
-1.678984678543369
 30
0.0
 10
-31.9188925388546
 20
-1.860485483405959
 30
0.0
 10
-31.55352506561203
 20
-2.045683435865996
 30
0.0
 10
-31.28707650611897
 20
-2.185523012529966
 30
0.0
 10
-31.12042770720904
 20
-2.27298491337665
 30
0.0
1001
PE_URL
1000

  0
LINE
  5
1FB
330
1F
100
AcDbEntity
  8
0
  6
Continuous
 62
     1
370
    15
100
AcDbLine
 10
-29.57061722849633
 20
-1.600194314770974
 30
0.0
 11
-29.47227395632288
 21
-1.654401591095436
 31
0.0
1001
PE_URL
1000

  0
SPLINE
  5
1FC
330
1F
100
AcDbEntity
  8
0
  6
Continuous
 62
     1
370
    15
100
AcDbSpline
210
0.0
220
0.0
230
1.0
 70
     8
 71
     3
 72
    14
 73
    10
 74
     0
 42
0.000000001
 43
0.00000001
 40
0.0
 40
0.0
 40
0.0
 40
0.0
 40
0.1346979973396847
 40
0.2500698052673014
 40
0.3478908883741709
 40
0.4339104629531445
 40
0.5758024879103217
 40
0.7644532889374408
 40
1.0
 40
1.0
 40
1.0
 40
1.0
 10
-30.81353601489027
 20
-4.572896408217169
 30
0.0
 10
-30.65697157888157
 20
-4.564454719004004
 30
0.0
 10
-30.36630624756455
 20
-4.54878253664528
 30
0.0
 10
-29.9382308248334
 20
-4.528139045689588
 30
0.0
 10
-29.5509551139412
 20
-4.514429420560653
 30
0.0
 10
-29.1229929771898
 20
-4.506611932330514
 30
0.0
 10
-28.57652985302323
 20
-4.497272123316119
 30
0.0
 10
-27.83816956039627
 20
-4.491496729243753
 30
0.0
 10
-27.29121227230306
 20
-4.497948068440543
 30
0.0
 10
-26.98750000000001
 20
-4.501530342467252
 30
0.0
1001
PE_URL
1000

  0
SPLINE
  5
1FD
330
1F
100
AcDbEntity
  8
0
  6
Continuous
 62
     1
370
    15
100
AcDbSpline
210
0.0
220
0.0
230
1.0
 70
     8
 71
     3
 72
    25
 73
    21
 74
     0
 42
0.000000001
 43
0.00000001
 40
0.0
 40
0.0
 40
0.0
 40
0.0
 40
0.0856577153900968
 40
0.153982050754826
 40
0.2133528950179263
 40
0.2658704778615346
 40
0.3113473268068378
 40
0.3660157221755586
 40
0.4306826458736125
 40
0.4899062507816337
 40
0.5465061453839404
 40
0.6004355163921484
 40
0.670058993091755
 40
0.7382599600098838
 40
0.7702082107652135
 40
0.7971376722621665
 40
0.8217071387513272
 40
0.8620345015118157
 40
0.9213072625165343
 40
1.0
 40
1.0
 40
1.0
 40
1.0
 10
-45.48626125073625
 20
-3.93593316300122
 30
0.0
 10
-45.2090372468768
 20
-3.91330488066318
 30
0.0
 10
-44.71068726826324
 20
-3.872627291918228
 30
0.0
 10
-43.9787968406204
 20
-3.832382340677221
 30
0.0
 10
-43.36612132101553
 20
-3.807492250113913
 30
0.0
 10
-42.84052170799369
 20
-3.793746797380695
 30
0.0
 10
-42.32823339803962
 20
-3.786815312193035
 30
0.0
 10
-41.77546855308391
 20
-3.786459836523388
 30
0.0
 10
-41.17686563164262
 20
-3.79521937112348
 30
0.0
 10
-40.57223298101594
 20
-3.813801461982603
 30
0.0
 10
-40.0029667477049
 20
-3.839590252375555
 30
0.0
 10
-39.39881214452596
 20
-3.875295226842347
 30
0.0
 10
-38.75640192088959
 20
-3.92324201391823
 30
0.0
 10
-38.18711209014967
 20
-3.975461995046572
 30
0.0
 10
-37.76137330294515
 20
-4.019353919145416
 30
0.0
 10
-37.48336238275684
 20
-4.04991515138844
 30
0.0
 10
-37.18053068780702
 20
-4.084892305716636
 30
0.0
 10
-36.76399434482096
 20
-4.136228754758495
 30
0.0
 10
-36.16520927706139
 20
-4.2166669934842
 30
0.0
 10
-35.69951866451532
 20
-4.287748738033173
 30
0.0
 10
-35.43389813240278
 20
-4.328292331358707
 30
0.0
1001
PE_URL
1000

  0
SPLINE
  5
1FE
330
1F
100
AcDbEntity
  8
0
  6
Continuous
 62
     1
370
    15
100
AcDbSpline
210
0.0
220
0.0
230
1.0
 70
     8
 71
     3
 72
    16
 73
    12
 74
     0
 42
0.000000001
 43
0.00000001
 40
0.0
 40
0.0
 40
0.0
 40
0.0
 40
0.1714922289853629
 40
0.300219258354798
 40
0.4017641559450925
 40
0.5078818042367733
 40
0.6150666143897757
 40
0.7056399010604314
 40
0.8329956010603744
 40
0.9894528640113591
 40
1.0
 40
1.0
 40
1.0
 40
1.0
 10
-35.43389813240277
 20
4.328292331358716
 30
0.0
 10
-35.67577246170072
 20
4.291234701100908
 30
0.0
 10
-36.09920466143667
 20
4.226360541273323
 30
0.0
 10
-36.67416041336941
 20
4.147843408755692
 30
0.0
 10
-37.16445015412305
 20
4.08654359990622
 30
0.0
 10
-37.6182924076838
 20
4.034335908445135
 30
0.0
 10
-38.05331017911543
 20
3.988942095443351
 30
0.0
 10
-38.51900154383798
 20
3.944691763604983
 30
0.0
 10
-39.05536777446223
 20
3.900577721103993
 30
0.0
 10
-39.4773909412443
 20
3.869077620364957
 30
0.0
 10
-39.71671732114107
 20
3.857079159354026
 30
0.0
 10
-39.73183194021977
 20
3.856321398476226
 30
0.0
1001
PE_URL
1000

  0
SPLINE
  5
1FF
330
1F
100
AcDbEntity
  8
0
  6
Continuous
 62
     1
370
    15
100
AcDbSpline
210
0.0
220
0.0
230
1.0
 70
     8
 71
     3
 72
    14
 73
    10
 74
     0
 42
0.000000001
 43
0.00000001
 40
0.0
 40
0.0
 40
0.0
 40
0.0
 40
0.2355467110625589
 40
0.4241975120896779
 40
0.5660895370468553
 40
0.65210911162583
 40
0.7499301947326992
 40
0.8653020026603152
 40
1.0
 40
1.0
 40
1.0
 40
1.0
 10
-26.98750000000001
 20
4.501530342467246
 30
0.0
 10
-27.29121227230305
 20
4.497948068440541
 30
0.0
 10
-27.83816956039626
 20
4.491496729243755
 30
0.0
 10
-28.57652985302322
 20
4.497272123316117
 30
0.0
 10
-29.12299297718979
 20
4.506611932330518
 30
0.0
 10
-29.5509551139412
 20
4.514429420560658
 30
0.0
 10
-29.9382308248334
 20
4.528139045689592
 30
0.0
 10
-30.36630624756454
 20
4.548782536645284
 30
0.0
 10
-30.65697157888156
 20
4.564454719004008
 30
0.0
 10
-30.81353601489026
 20
4.57289640821717
 30
0.0
1001
PE_URL
1000

  0
LINE
  5
200
330
1F
100
AcDbEntity
  8
외형선
  6
Continuous
370
    15
100
AcDbLine
 10
-23.76576350361919
 20
-6.349999999999998
 30
0.0
 11
-23.76576350361918
 21
6.349999999999993
 31
0.0
  0
SPLINE
  5
201
330
1F
100
AcDbEntity
  8
외형선
  6
Continuous
370
    15
100
AcDbSpline
210
0.0
220
0.0
230
1.0
 70
     8
 71
     3
 72
     8
 73
     4
 74
     0
 42
0.000000001
 43
0.00000001
 40
0.0
 40
0.0
 40
0.0
 40
0.0
 40
1.0
 40
1.0
 40
1.0
 40
1.0
 10
-25.98750000000003
 20
-4.581543894725232
 30
0.0
 10
-25.64286707668708
 20
-4.751277175597249
 30
0.0
 10
-25.29997048174336
 20
-4.919746036570086
 30
0.0
 10
-24.95773016929567
 20
-5.085452230629254
 30
0.0
  0
LINE
  5
202
330
1F
100
AcDbEntity
  8
외형선
  6
Continuous
370
    15
100
AcDbLine
 10
-25.98750000000003
 20
-4.581543894725229
 30
0.0
 11
-25.98750000000003
 21
-3.441624668361523
 31
0.0
  0
SPLINE
  5
203
330
1F
100
AcDbEntity
  8
외형선
  6
Continuous
370
    15
100
AcDbSpline
210
0.0
220
0.0
230
1.0
 70
     8
 71
     3
 72
     8
 73
     4
 74
     0
 42
0.000000001
 43
0.00000001
 40
0.0
 40
0.0
 40
0.0
 40
0.0
 40
1.0
 40
1.0
 40
1.0
 40
1.0
 10
-24.95761248016944
 20
-4.010945041399662
 30
0.0
 10
-25.30137406800511
 20
-3.823432992671496
 30
0.0
 10
-25.64428963453827
 20
-3.63309726731293
 30
0.0
 10
-25.98749999999924
 20
-3.441624668361964
 30
0.0
  0
LINE
  5
204
330
1F
100
AcDbEntity
  8
외형선
  6
Continuous
370
    15
100
AcDbLine
 10
-24.95761248016943
 20
6.030645029233495
 30
0.0
 11
-24.95761248016944
 21
-4.011022957684673
 31
0.0
  0
SPLINE
  5
205
330
1F
100
AcDbEntity
  8
외형선
  6
Continuous
370
    15
100
AcDbSpline
210
0.0
220
0.0
230
1.0
 70
     8
 71
     3
 72
     8
 73
     4
 74
     0
 42
0.000000001
 43
0.00000001
 40
0.0
 40
0.0
 40
0.0
 40
0.0
 40
1.0
 40
1.0
 40
1.0
 40
1.0
 10
-25.98750000000002
 20
4.581543894725229
 30
0.0
 10
-25.64286707668708
 20
4.751277175597243
 30
0.0
 10
-25.29997048174335
 20
4.919746036570082
 30
0.0
 10
-24.95773016929566
 20
5.085452230629251
 30
0.0
  0
LINE
  5
206
330
1F
100
AcDbEntity
  8
외형선
  6
Continuous
370
    15
100
AcDbLine
 10
-24.95761248016944
 20
-5.085535872180142
 30
0.0
 11
-24.95761248016944
 21
-6.030645029233501
 31
0.0
  0
SPLINE
  5
207
330
1F
100
AcDbEntity
  8
외형선
  6
Continuous
370
    15
100
AcDbSpline
210
0.0
220
0.0
230
1.0
 70
    24
 71
     3
 72
    10
 73
     6
 74
     0
 42
0.000000001
 43
0.00000001
 40
0.0
 40
0.0
 40
0.0
 40
0.0
 40
0.5
 40
0.5
 40
1.0
 40
1.0
 40
1.0
 40
1.0
 10
-26.98750000000002
 20
-2.963175007462556
 30
0.0
 10
-26.98750000000002
 20
-2.889779232407147
 30
0.0
 10
-26.98750000000002
 20
-2.756541066898482
 30
0.0
 10
-26.98750000000002
 20
-2.396634719566695
 30
0.0
 10
-26.98750000000002
 20
-2.17128297338045
 30
0.0
 10
-26.98750000000002
 20
-1.930523821701854
 30
0.0
  0
SPLINE
  5
208
330
1F
100
AcDbEntity
  8
외형선
  6
Continuous
370
    15
100
AcDbSpline
210
0.0
220
0.0
230
1.0
 70
     8
 71
     3
 72
    10
 73
     6
 74
     0
 42
0.000000001
 43
0.00000001
 40
0.0
 40
0.0
 40
0.0
 40
0.0
 40
0.5
 40
0.5
 40
1.0
 40
1.0
 40
1.0
 40
1.0
 10
-26.98749999999642
 20
-1.93052382170313
 30
0.0
 10
-26.64910082200478
 20
-2.050530819879089
 30
0.0
 10
-26.30911602608883
 20
-2.167379741785414
 30
0.0
 10
-25.63125500747093
 20
-2.392935229357125
 30
0.0
 10
-25.2952855131873
 20
-2.5014480076605
 30
0.0
 10
-24.95764084619086
 20
-2.605645832186806
 30
0.0
  0
SPLINE
  5
209
330
1F
100
AcDbEntity
  8
외형선
  6
Continuous
370
    15
100
AcDbSpline
210
0.0
220
0.0
230
1.0
 70
     8
 71
     3
 72
     8
 73
     4
 74
     0
 42
0.000000001
 43
0.00000001
 40
0.0
 40
0.0
 40
0.0
 40
0.0
 40
1.0
 40
1.0
 40
1.0
 40
1.0
 10
-26.98750000000002
 20
-2.963175007462556
 30
0.0
 10
-26.65486296773587
 20
-3.127769554384148
 30
0.0
 10
-26.32069385867847
 20
-3.287655686240356
 30
0.0
 10
-25.98750000000003
 20
-3.441624668361523
 30
0.0
  0
SPLINE
  5
20A
330
1F
100
AcDbEntity
  8
외형선
  6
Continuous
370
    15
100
AcDbSpline
210
0.0
220
0.0
230
1.0
 70
     8
 71
     3
 72
     8
 73
     4
 74
     0
 42
0.000000001
 43
0.00000001
 40
0.0
 40
0.0
 40
0.0
 40
0.0
 40
1.0
 40
1.0
 40
1.0
 40
1.0
 10
-26.98749999999864
 20
-4.210367088687235
 30
0.0
 10
-26.65486296773495
 20
-4.341254896542239
 30
0.0
 10
-26.32069385867802
 20
-4.465294855660293
 30
0.0
 10
-25.98750000000003
 20
-4.581543894725229
 30
0.0
  0
LINE
  5
20B
330
1F
100
AcDbEntity
  8
외형선
  6
Continuous
370
    15
100
AcDbLine
 10
-26.98750000000002
 20
-4.210367088686692
 30
0.0
 11
-26.98750000000003
 21
-2.963175007462556
 31
0.0
  0
SPLINE
  5
20C
330
1F
100
AcDbEntity
  8
외형선
  6
Continuous
370
    15
100
AcDbSpline
210
0.0
220
0.0
230
1.0
 70
     8
 71
     3
 72
    10
 73
     6
 74
     0
 42
0.000000001
 43
0.00000001
 40
0.0
 40
0.0
 40
0.0
 40
0.0
 40
0.5
 40
0.5
 40
1.0
 40
1.0
 40
1.0
 40
1.0
 10
-26.98749999999733
 20
4.040630801905666
 30
0.0
 10
-26.64910326493118
 20
3.965742613282476
 30
0.0
 10
-26.30912093483409
 20
3.883736813380928
 30
0.0
 10
-25.63126477929499
 20
3.706742398936514
 30
0.0
 10
-25.29529763948847
 20
3.611951975062109
 30
0.0
 10
-24.95765547106215
 20
3.510949988773026
 30
0.0
  0
SPLINE
  5
20D
330
1F
100
AcDbEntity
  8
외형선
  6
Continuous
370
    15
100
AcDbSpline
210
0.0
220
0.0
230
1.0
 70
    24
 71
     3
 72
    14
 73
    10
 74
     0
 42
0.000000001
 43
0.00000001
 40
0.0
 40
0.0
 40
0.0
 40
0.0
 40
0.25
 40
0.25
 40
0.5
 40
0.5
 40
0.75
 40
0.75
 40
1.0
 40
1.0
 40
1.0
 40
1.0
 10
-26.98750000000002
 20
-1.930523821701851
 30
0.0
 10
-26.98750000000002
 20
-1.441347438966883
 30
0.0
 10
-26.98750000000002
 20
-0.9188789248903184
 30
0.0
 10
-26.98750000000002
 20
0.1498594060182903
 30
0.0
 10
-26.98750000000002
 20
0.6956559507122364
 30
0.0
 10
-26.98750000000001
 20
1.756902282343692
 30
0.0
 10
-26.98750000000001
 20
2.271786592866881
 30
0.0
 10
-26.98750000000001
 20
3.222739323642291
 30
0.0
 10
-26.98750000000001
 20
3.658499907987212
 30
0.0
 10
-26.98750000000001
 20
4.040630801906259
 30
0.0
  0
SPLINE
  5
20E
330
1F
100
AcDbEntity
  8
외형선
  6
Continuous
370
    15
100
AcDbSpline
210
0.0
220
0.0
230
1.0
 70
    24
 71
     3
 72
    10
 73
     6
 74
     0
 42
0.000000001
 43
0.00000001
 40
0.0
 40
0.0
 40
0.0
 40
0.0
 40
0.0375276580345532
 40
0.7040688225899924
 40
1.0
 40
1.0
 40
1.0
 40
1.0
 10
-26.98750000000002
 20
-4.496763998418412
 30
0.0
 10
-26.98750000000002
 20
-4.498323332554978
 30
0.0
 10
-26.98750000000002
 20
-4.527578516785852
 30
0.0
 10
-26.98750000000002
 20
-4.458675268616705
 30
0.0
 10
-26.98750000000002
 20
-4.319367304213266
 30
0.0
 10
-26.98750000000002
 20
-4.276534312416
 30
0.0
  0
SPLINE
  5
20F
330
1F
100
AcDbEntity
  8
외형선
  6
Continuous
370
    15
100
AcDbSpline
210
0.0
220
0.0
230
1.0
 70
    24
 71
     3
 72
    10
 73
     6
 74
     0
 42
0.000000001
 43
0.00000001
 40
0.0
 40
0.0
 40
0.0
 40
0.0
 40
0.2959182561854839
 40
0.5918365123709679
 40
1.0
 40
1.0
 40
1.0
 40
1.0
 10
-26.98750000000001
 20
4.040630801906261
 30
0.0
 10
-26.98750000000001
 20
4.122754459758218
 30
0.0
 10
-26.98750000000001
 20
4.287001775462139
 30
0.0
 10
-26.98750000000001
 20
4.461674148749605
 30
0.0
 10
-26.98750000000001
 20
4.484007068716123
 30
0.0
 10
-26.98750000000001
 20
4.496953693994444
 30
0.0
  0
LINE
  5
210
330
1F
100
AcDbEntity
  8
외형선
  6
Continuous
370
    15
100
AcDbLine
 10
-26.1474019697744
 20
4.52418653207075
 30
0.0
 11
-25.98750000000002
 21
4.581543894725227
 31
0.0
  0
SPLINE
  5
211
330
1F
100
AcDbEntity
  8
0
  6
Continuous
 62
     1
370
    15
100
AcDbSpline
210
0.0
220
0.0
230
1.0
 70
     8
 71
     3
 72
    36
 73
    32
 74
     0
 42
0.000000001
 43
0.00000001
 40
0.0
 40
0.0
 40
0.0
 40
0.0
 40
0.0625
 40
0.0625
 40
0.125
 40
0.125
 40
0.1875000000000001
 40
0.1875000000000001
 40
0.2500000000000001
 40
0.2500000000000001
 40
0.3125000000000001
 40
0.3125000000000001
 40
0.3750000000000001
 40
0.3750000000000001
 40
0.4375000000000001
 40
0.4375000000000001
 40
0.5000000000000001
 40
0.5000000000000001
 40
0.5625000000000001
 40
0.5625000000000001
 40
0.6250000000000001
 40
0.6250000000000001
 40
0.6875000000000001
 40
0.6875000000000001
 40
0.7500000000000002
 40
0.7500000000000002
 40
0.8750000000000001
 40
0.8750000000000001
 40
0.9375000000000001
 40
0.9375000000000001
 40
1.0
 40
1.0
 40
1.0
 40
1.0
 10
-47.62500000000002
 20
5.460858158407961
 30
0.0
 10
-47.19772755614237
 20
5.38271191924127
 30
0.0
 10
-46.76577954322568
 20
5.289038404748228
 30
0.0
 10
-45.90330744876305
 20
5.072705688787348
 30
0.0
 10
-45.47578834829279
 20
4.9503827319121
 30
0.0
 10
-44.61703564561147
 20
4.678534167032437
 30
0.0
 10
-44.18440539868682
 20
4.528785425730492
 30
0.0
 10
-43.32346853193105
 20
4.205323888523523
 30
0.0
 10
-42.89716971797817
 20
4.031952479113224
 30
0.0
 10
-42.03572242386778
 20
3.662507369141489
 30
0.0
 10
-41.60318580362679
 20
3.466732216241128
 30
0.0
 10
-40.74531029570038
 20
3.058060169349645
 30
0.0
 10
-40.31701593431346
 20
2.844737383513557
 30
0.0
 10
-39.45440320210278
 20
2.402387367904772
 30
0.0
 10
-39.02381591747957
 20
2.173983013359802
 30
0.0
 10
-38.16811886601134
 20
1.707344168382615
 30
0.0
 10
-37.73593545096578
 20
1.467817365391362
 30
0.0
 10
-36.87369334266255
 20
0.9822736728080308
 30
0.0
 10
-36.44676276542607
 20
0.7368718973586397
 30
0.0
 10
-35.58722093513269
 20
0.2422565551430651
 30
0.0
 10
-35.15454221593048
 20
-0.0069775803303216
 30
0.0
 10
-34.29420459525966
 20
-0.5030577578249265
 30
0.0
 10
-33.86771862391289
 20
-0.7496814539440102
 30
0.0
 10
-33.00584989715678
 20
-1.239069918649651
 30
0.0
 10
-32.57345202530338
 20
-1.48124554368945
 30
0.0
 10
-31.28808620447213
 20
-2.191190432332846
 30
0.0
 10
-30.4235902691645
 20
-2.646510710335672
 30
0.0
 10
-29.13844697571589
 20
-3.275958050955236
 30
0.0
 10
-28.70607315695575
 20
-3.477850014360186
 30
0.0
 10
-27.84415030380048
 20
-3.860621274627206
 30
0.0
 10
-27.41762130973854
 20
-4.041120643213521
 30
0.0
 10
-26.98749999999493
 20
-4.210367088688695
 30
0.0
1001
PE_URL
1000

  0
SPLINE
  5
212
330
1F
100
AcDbEntity
  8
0
  6
Continuous
 62
     1
370
    15
100
AcDbSpline
210
0.0
220
0.0
230
1.0
 70
     8
 71
     3
 72
    15
 73
    11
 74
     0
 42
0.000000001
 43
0.00000001
 40
0.0
 40
0.0
 40
0.0
 40
0.0
 40
0.1265440228786648
 40
0.253006084115047
 40
0.3794230042814609
 40
0.5058318664867322
 40
0.6322698007757221
 40
0.7587737679562246
 40
0.8853424132237596
 40
1.0
 40
1.0
 40
1.0
 40
1.0
 10
-47.62500000000002
 20
4.540288827606483
 30
0.0
 10
-46.99488147422556
 20
4.40955890855559
 30
0.0
 10
-45.73505254585803
 20
4.148183743270565
 30
0.0
 10
-43.84599006371513
 20
3.563856720932366
 30
0.0
 10
-41.95768194503677
 20
2.863640898461968
 30
0.0
 10
-40.06951760213411
 20
2.05786600404755
 30
0.0
 10
-38.18085125140492
 20
1.178840492721633
 30
0.0
 10
-36.29125269953275
 20
0.2584886846621544
 30
0.0
 10
-34.46005341999658
 20
-0.6461407010876421
 30
0.0
 10
-33.25901187338773
 20
-1.214947311221817
 30
0.0
 10
-32.68814309106067
 20
-1.485307597944377
 30
0.0
1001
PE_URL
1000

  0
LINE
  5
213
330
1F
100
AcDbEntity
  8
0
  6
Continuous
 62
     1
370
    15
100
AcDbLine
 10
-47.62500000000002
 20
5.460858158407964
 30
0.0
 11
-47.62500000000002
 21
4.540288827606483
 31
0.0
1001
PE_URL
1000

  0
SPLINE
  5
214
330
1F
100
AcDbEntity
  8
0
  6
Continuous
 62
     1
370
    15
100
AcDbSpline
210
0.0
220
0.0
230
1.0
 70
     8
 71
     3
 72
    36
 73
    32
 74
     0
 42
0.000000001
 43
0.00000001
 40
0.0
 40
0.0
 40
0.0
 40
0.0
 40
0.0625
 40
0.0625
 40
0.1250000000000001
 40
0.1250000000000001
 40
0.1875000000000001
 40
0.1875000000000001
 40
0.2500000000000001
 40
0.2500000000000001
 40
0.3125000000000001
 40
0.3125000000000001
 40
0.3750000000000002
 40
0.3750000000000002
 40
0.4375000000000002
 40
0.4375000000000002
 40
0.5000000000000002
 40
0.5000000000000002
 40
0.5625000000000002
 40
0.5625000000000002
 40
0.6250000000000002
 40
0.6250000000000002
 40
0.6875000000000003
 40
0.6875000000000003
 40
0.7500000000000003
 40
0.7500000000000003
 40
0.8750000000000002
 40
0.8750000000000002
 40
0.9375000000000002
 40
0.9375000000000002
 40
1.0
 40
1.0
 40
1.0
 40
1.0
 10
-47.62500000000002
 20
5.749823725766854
 30
0.0
 10
-47.19772755614245
 20
5.739640834948345
 30
0.0
 10
-46.76577954322585
 20
5.713371239309186
 30
0.0
 10
-45.90330744876337
 20
5.629022301904332
 30
0.0
 10
-45.47578834829319
 20
5.571131734693576
 30
0.0
 10
-44.61703564561201
 20
5.42452160047597
 30
0.0
 10
-44.18440539868743
 20
5.335635759546779
 30
0.0
 10
-43.32346853193182
 20
5.128852409908424
 30
0.0
 10
-42.89716971797902
 20
5.011222400833253
 30
0.0
 10
-42.03572242386878
 20
4.747871039980465
 30
0.0
 10
-41.60318580362787
 20
4.602319376998592
 30
0.0
 10
-40.74531029570159
 20
4.287215796195476
 30
0.0
 10
-40.31701593431478
 20
4.117360701562568
 30
0.0
 10
-39.45440320210426
 20
3.754793914409763
 30
0.0
 10
-39.0238159174811
 20
3.562578153162452
 30
0.0
 10
-38.16811886601306
 20
3.160254515549555
 30
0.0
 10
-37.73593545096757
 20
2.949024224286457
 30
0.0
 10
-36.8736933426645
 20
2.511581537441145
 30
0.0
 10
-36.44676276542808
 20
2.285952447582229
 30
0.0
 10
-35.58722093513487
 20
1.822238247998389
 30
0.0
 10
-35.15454221593274
 20
1.584105248562043
 30
0.0
 10
-34.29420459526204
 20
1.101242318735284
 30
0.0
 10
-33.86771862391538
 20
0.8567598623946928
 30
0.0
 10
-33.00584989715942
 20
0.362694360219141
 30
0.0
 10
-32.57345202530611
 20
0.1136746159327515
 30
0.0
 10
-31.28808620447504
 20
-0.629985750453276
 30
0.0
 10
-30.42359026916755
 20
-1.12565502946412
 30
0.0
 10
-29.13844697571923
 20
-1.840074490384985
 30
0.0
 10
-28.70607315695919
 20
-2.07447232863581
 30
0.0
 10
-27.84415030380404
 20
-2.529852821213396
 30
0.0
 10
-27.41762130974217
 20
-2.750343556867776
 30
0.0
 10
-26.98749999999865
 20
-2.963175007463235
 30
0.0
1001
PE_URL
1000

  0
SPLINE
  5
215
330
1F
100
AcDbEntity
  8
0
  6
Continuous
 62
     1
370
    15
100
AcDbSpline
210
0.0
220
0.0
230
1.0
 70
     8
 71
     3
 72
    11
 73
     7
 74
     0
 42
0.000000001
 43
0.00000001
 40
0.0
 40
0.0
 40
0.0
 40
0.0
 40
0.129014592397902
 40
0.4267680939758839
 40
0.7133477719630182
 40
0.9999999999999999
 40
0.9999999999999999
 40
0.9999999999999999
 40
0.9999999999999999
 10
-33.32956785156092
 20
0.5462127036838034
 30
0.0
 10
-33.05680849136129
 20
0.4376304958569719
 30
0.0
 10
-32.15454627355369
 20
0.0784508014311491
 30
0.0
 10
-30.64649701120971
 20
-0.5354199619582545
 30
0.0
 10
-28.8053152309139
 20
-1.266813273262912
 30
0.0
 10
-27.59348953447374
 20
-1.709268306051008
 30
0.0
 10
-26.98750000000002
 20
-1.930523821701851
 30
0.0
1001
PE_URL
1000

  0
SPLINE
  5
216
330
1F
100
AcDbEntity
  8
외형선
  6
Continuous
370
    15
100
AcDbSpline
210
0.0
220
0.0
230
1.0
 70
    24
 71
     3
 72
    10
 73
     6
 74
     0
 42
0.000000001
 43
0.00000001
 40
0.0
 40
0.0
 40
0.0
 40
0.0
 40
0.5
 40
0.5
 40
1.0
 40
1.0
 40
1.0
 40
1.0
 10
-26.98750000000003
 20
-2.963175007462553
 30
0.0
 10
-26.98750000000003
 20
-2.889779232407143
 30
0.0
 10
-26.98750000000003
 20
-2.756541066898478
 30
0.0
 10
-26.98750000000003
 20
-2.396634719566695
 30
0.0
 10
-26.98750000000003
 20
-2.17128297338045
 30
0.0
 10
-26.98750000000003
 20
-1.930523821701851
 30
0.0
  0
LINE
  5
217
330
1F
100
AcDbEntity
  8
0
  6
Continuous
 62
     1
370
    15
100
AcDbLine
 10
-47.62500000000002
 20
5.749823725766854
 30
0.0
 11
-47.62500000000002
 21
5.460858158407964
 31
0.0
1001
PE_URL
1000

  0
SPLINE
  5
218
330
1F
100
AcDbEntity
  8
0
  6
Continuous
 62
     1
370
    15
100
AcDbSpline
210
0.0
220
0.0
230
1.0
 70
     8
 71
     3
 72
     8
 73
     4
 74
     0
 42
0.000000001
 43
0.00000001
 40
0.0
 40
0.0
 40
0.0
 40
0.0
 40
1.0
 40
1.0
 40
1.0
 40
1.0
 10
-44.06427338981104
 20
-1.609690581374522
 30
0.0
 10
-43.85994984387758
 20
-1.851749864125466
 30
0.0
 10
-43.67740307851543
 20
-2.084902131729613
 30
0.0
 10
-43.52196338764396
 20
-2.306967217631993
 30
0.0
1001
PE_URL
1000

  0
LINE
  5
219
330
1F
100
AcDbEntity
  8
0
  6
Continuous
 62
     1
370
    15
100
AcDbLine
 10
-43.59468433090149
 20
-2.367987334298221
 30
0.0
 11
-47.62500000000003
 21
0.0000000000000107
 31
0.0
1001
PE_URL
1000

  0
LINE
  5
21A
330
1F
100
AcDbEntity
  8
0
  6
Continuous
 62
     1
370
    15
100
AcDbLine
 10
-47.62500000000003
 20
0.0000000000000107
 30
0.0
 11
-47.62500000000003
 21
1.537899640979983
 31
0.0
1001
PE_URL
1000

  0
SPLINE
  5
21B
330
1F
100
AcDbEntity
  8
0
  6
Continuous
 62
     1
370
    15
100
AcDbSpline
210
0.0
220
0.0
230
1.0
 70
     8
 71
     3
 72
    12
 73
     8
 74
     0
 42
0.000000001
 43
0.00000001
 40
0.0
 40
0.0
 40
0.0
 40
0.0
 40
0.5000000000000009
 40
0.5000000000000009
 40
0.7500000000000004
 40
0.7500000000000004
 40
1.0
 40
1.0
 40
1.0
 40
1.0
 10
-47.62500000000003
 20
1.53789964097998
 30
0.0
 10
-47.00862737268601
 20
1.053326741824964
 30
0.0
 10
-46.40254992980767
 20
0.5488850179539995
 30
0.0
 10
-45.50927348738139
 20
-0.2383468752575588
 30
0.0
 10
-45.21420058101377
 20
-0.5059410784250673
 30
0.0
 10
-44.63008118097244
 20
-1.052759945411815
 30
0.0
 10
-44.34262863841437
 20
-1.330565621572383
 30
0.0
 10
-44.06427338981104
 20
-1.609690581374526
 30
0.0
1001
PE_URL
1000

  0
SPLINE
  5
21C
330
1F
100
AcDbEntity
  8
0
  6
Continuous
 62
     1
370
    15
100
AcDbSpline
210
0.0
220
0.0
230
1.0
 70
     8
 71
     3
 72
    14
 73
    10
 74
     0
 42
0.000000001
 43
0.00000001
 40
0.0
 40
0.0
 40
0.0
 40
0.0
 40
0.1589680337197731
 40
0.3014523345655372
 40
0.4439698591081258
 40
0.5865628486014232
 40
0.7292297705569244
 40
0.8718103862575611
 40
0.9999999999999999
 40
0.9999999999999999
 40
0.9999999999999999
 40
0.9999999999999999
 10
-44.06427338981105
 20
-1.609690581374519
 30
0.0
 10
-43.36203574517143
 20
-1.906681467682137
 30
0.0
 10
-42.03037696797612
 20
-2.469867624843392
 30
0.0
 10
-40.06950272959523
 20
-3.183538790354262
 30
0.0
 10
-38.18081034569927
 20
-3.760814470564725
 30
0.0
 10
-36.29120550296573
 20
-4.203343336217582
 30
0.0
 10
-34.40109047108514
 20
-4.491531860727964
 30
0.0
 10
-32.57485141849797
 20
-4.629058662920229
 30
0.0
 10
-31.3788789393925
 20
-4.585870285339833
 30
0.0
 10
-30.81267470616327
 20
-4.565423792933409
 30
0.0
1001
PE_URL
1000

  0
SPLINE
  5
21D
330
1F
100
AcDbEntity
  8
0
  6
Continuous
 62
     1
370
    15
100
AcDbSpline
210
0.0
220
0.0
230
1.0
 70
    24
 71
     3
 72
    10
 73
     6
 74
     0
 42
0.000000001
 43
0.00000001
 40
0.0
 40
0.0
 40
0.0
 40
0.0
 40
0.5
 40
0.5
 40
1.0
 40
1.0
 40
1.0
 40
1.0
 10
-47.62500000000002
 20
4.54028882760648
 30
0.0
 10
-47.62500000000002
 20
4.192240290157846
 30
0.0
 10
-47.62500000000003
 20
3.752467617543019
 30
0.0
 10
-47.62500000000003
 20
2.730038477112441
 30
0.0
 10
-47.62500000000003
 20
2.148267676184346
 30
0.0
 10
-47.62500000000003
 20
1.537899640980164
 30
0.0
1001
PE_URL
1000

  0
SPLINE
  5
21E
330
1F
100
AcDbEntity
  8
외형선
  6
Continuous
370
    15
100
AcDbSpline
210
0.0
220
0.0
230
1.0
 70
    24
 71
     3
 72
    10
 73
     6
 74
     0
 42
0.000000001
 43
0.00000001
 40
0.0
 40
0.0
 40
0.0
 40
0.0
 40
0.0428553620424914
 40
0.7057069306697974
 40
0.9999999999999999
 40
0.9999999999999999
 40
0.9999999999999999
 40
0.9999999999999999
 10
-26.98750000000003
 20
-4.496102909528989
 30
0.0
 10
-26.98750000000003
 20
-4.49790516420445
 30
0.0
 10
-26.98750000000003
 20
-4.527583215087422
 30
0.0
 10
-26.98750000000003
 20
-4.458738432960825
 30
0.0
 10
-26.98750000000003
 20
-4.31938215819169
 30
0.0
 10
-26.98750000000003
 20
-4.276534312416
 30
0.0
  0
SPLINE
  5
21F
330
1F
100
AcDbEntity
  8
0
  6
Continuous
 62
     1
370
    15
100
AcDbSpline
210
0.0
220
0.0
230
1.0
 70
    24
 71
     3
 72
     8
 73
     4
 74
     0
 42
0.000000001
 43
0.00000001
 40
0.0
 40
0.0
 40
0.0
 40
0.0
 40
1.0
 40
1.0
 40
1.0
 40
1.0
 10
-44.12223920737365
 20
-2.810658436571398
 30
0.0
 10
-43.93229340213608
 20
-2.651274981452886
 30
0.0
 10
-43.73155490074887
 20
-2.482835378976155
 30
0.0
 10
-43.52196338764404
 20
-2.306967217632007
 30
0.0
1001
PE_URL
1000

  0
SPLINE
  5
220
330
1F
100
AcDbEntity
  8
0
  6
Continuous
 62
     1
370
    15
100
AcDbSpline
210
0.0
220
0.0
230
1.0
 70
     8
 71
     3
 72
     9
 73
     5
 74
     0
 42
0.000000001
 43
0.00000001
 40
0.0
 40
0.0
 40
0.0
 40
0.0
 40
0.882889920112595
 40
1.0
 40
1.0
 40
1.0
 40
1.0
 10
-47.62500000000003
 20
-4.028281249999988
 30
0.0
 10
-46.9948736680373
 20
-4.025094793083476
 30
0.0
 10
-46.28116483796892
 20
-4.021485671669893
 30
0.0
 10
-45.56753044016888
 20
-3.937565549284699
 30
0.0
 10
-45.48395665883211
 20
-3.927737657048006
 30
0.0
1001
PE_URL
1000

  0
SPLINE
  5
221
330
1F
100
AcDbEntity
  8
0
  6
Continuous
 62
     1
370
    15
100
AcDbSpline
210
0.0
220
0.0
230
1.0
 70
     8
 71
     3
 72
    10
 73
     6
 74
     0
 42
0.000000001
 43
0.00000001
 40
0.0
 40
0.0
 40
0.0
 40
0.0
 40
0.5
 40
0.5
 40
1.0
 40
1.0
 40
1.0
 40
1.0
 10
-47.62500000000003
 20
-4.028281249999988
 30
0.0
 10
-47.0330385203537
 20
-3.86770434851708
 30
0.0
 10
-46.44468814720458
 20
-3.687491600040104
 30
0.0
 10
-45.27588643615157
 20
-3.284114102751484
 30
0.0
 10
-44.69537456682853
 20
-3.061540799107391
 30
0.0
 10
-44.12223920738469
 20
-2.810658436576549
 30
0.0
1001
PE_URL
1000

  0
SPLINE
  5
222
330
1F
100
AcDbEntity
  8
0
  6
Continuous
 62
     1
370
    15
100
AcDbSpline
210
0.0
220
0.0
230
1.0
 70
     8
 71
     3
 72
    12
 73
     8
 74
     0
 42
0.000000001
 43
0.00000001
 40
0.0
 40
0.0
 40
0.0
 40
0.0
 40
0.123177525880975
 40
0.3466412655541595
 40
0.5699954423551827
 40
0.7849712195627664
 40
1.0
 40
1.0
 40
1.0
 40
1.0
 10
-35.44233446551851
 20
4.307659780733559
 30
0.0
 10
-35.09513554348354
 20
4.365316001513051
 30
0.0
 10
-34.11806222696369
 20
4.527569831464017
 30
0.0
 10
-32.51160202702241
 20
4.620304811066534
 30
0.0
 10
-30.64648731235185
 20
4.589250893804039
 30
0.0
 10
-28.80533037408613
 20
4.403881235374039
 30
0.0
 10
-27.59349324919201
 20
4.161724229315956
 30
0.0
 10
-26.98750000000001
 20
4.040630801906261
 30
0.0
1001
PE_URL
1000

  0
SPLINE
  5
223
330
1F
100
AcDbEntity
  8
외형선
  6
Continuous
370
    15
100
AcDbSpline
210
0.0
220
0.0
230
1.0
 70
    24
 71
     3
 72
    14
 73
    10
 74
     0
 42
0.000000001
 43
0.00000001
 40
0.0
 40
0.0
 40
0.0
 40
0.0
 40
0.2500000000000001
 40
0.2500000000000001
 40
0.5000000000000001
 40
0.5000000000000001
 40
0.75
 40
0.75
 40
1.0
 40
1.0
 40
1.0
 40
1.0
 10
-26.98750000000003
 20
-1.930523821701851
 30
0.0
 10
-26.98750000000003
 20
-1.441347438966879
 30
0.0
 10
-26.98750000000003
 20
-0.9188789248903184
 30
0.0
 10
-26.98750000000003
 20
0.1498594060182903
 30
0.0
 10
-26.98750000000003
 20
0.69565595071224
 30
0.0
 10
-26.98750000000002
 20
1.756902282343692
 30
0.0
 10
-26.98750000000002
 20
2.271786592866885
 30
0.0
 10
-26.98750000000002
 20
3.222739323642292
 30
0.0
 10
-26.98750000000002
 20
3.658499907987215
 30
0.0
 10
-26.98750000000002
 20
4.040630801906259
 30
0.0
  0
LINE
  5
224
330
1F
100
AcDbEntity
  8
0
  6
Continuous
 62
     1
370
    15
100
AcDbLine
 10
-47.62500000000003
 20
0.0000000000000107
 30
0.0
 11
-47.62500000000003
 21
-4.028281249999988
 31
0.0
1001
PE_URL
1000

  0
SPLINE
  5
225
330
1F
100
AcDbEntity
  8
외형선
  6
Continuous
370
    15
100
AcDbSpline
210
0.0
220
0.0
230
1.0
 70
    24
 71
     3
 72
    10
 73
     6
 74
     0
 42
0.000000001
 43
0.00000001
 40
0.0
 40
0.0
 40
0.0
 40
0.0
 40
0.2973392127735903
 40
0.5946784255471806
 40
1.0
 40
1.0
 40
1.0
 40
1.0
 10
-26.98750000000002
 20
4.040630801906261
 30
0.0
 10
-26.98750000000002
 20
4.122743769252462
 30
0.0
 10
-26.98750000000002
 20
4.286969703944868
 30
0.0
 10
-26.98750000000002
 20
4.460987103645172
 30
0.0
 10
-26.98750000000002
 20
4.483256862316251
 30
0.0
 10
-26.98750000000002
 20
4.496102909528984
 30
0.0
  0
SPLINE
  5
226
330
1F
100
AcDbEntity
  8
0
  6
Continuous
 62
     1
370
    15
100
AcDbSpline
210
0.0
220
0.0
230
1.0
 70
     8
 71
     3
 72
    12
 73
     8
 74
     0
 42
0.000000001
 43
0.00000001
 40
0.0
 40
0.0
 40
0.0
 40
0.0
 40
0.0796402706522669
 40
0.3096721277828157
 40
0.539663497462368
 40
0.769733349920099
 40
1.0
 40
1.0
 40
1.0
 40
1.0
 10
-39.73286732719133
 20
-3.856774101861518
 30
0.0
 10
-39.94239858327617
 20
-3.950086456599319
 30
0.0
 10
-40.75713702373314
 20
-4.312920927193336
 30
0.0
 10
-42.17667581422329
 20
-4.810817230619044
 30
0.0
 10
-43.99193686173751
 20
-5.316372724972641
 30
0.0
 10
-45.80788189663205
 20
-5.651135212248469
 30
0.0
 10
-47.01912136061621
 20
-5.716918180341633
 30
0.0
 10
-47.62500000000003
 20
-5.749823725766827
 30
0.0
1001
PE_URL
1000

  0
SPLINE
  5
227
330
1F
100
AcDbEntity
  8
0
  6
Continuous
 62
     1
370
    15
100
AcDbSpline
210
0.0
220
0.0
230
1.0
 70
    24
 71
     3
 72
    10
 73
     6
 74
     0
 42
0.000000001
 43
0.00000001
 40
0.0
 40
0.0
 40
0.0
 40
0.0
 40
0.5
 40
0.5
 40
1.0
 40
1.0
 40
1.0
 40
1.0
 10
-47.62500000000003
 20
-4.028281249999988
 30
0.0
 10
-47.62500000000003
 20
-4.272465627845826
 30
0.0
 10
-47.62500000000003
 20
-4.556230488808723
 30
0.0
 10
-47.62500000000003
 20
-5.151568402841907
 30
0.0
 10
-47.62500000000003
 20
-5.46162103758877
 30
0.0
 10
-47.62500000000003
 20
-5.749823725766827
 30
0.0
1001
PE_URL
1000

  0
LINE
  5
229
330
1F
100
AcDbEntity
  8
외형선
  6
Continuous
370
    15
100
AcDbLine
 10
-7.111999999999941
 20
6.349999999999993
 30
0.0
 11
-23.76576350361918
 21
6.349999999999992
 31
0.0
  0
ENDSEC
  0
SECTION
  2
OBJECTS
  0
DICTIONARY
  5
C
330
0
100
AcDbDictionary
281
     1
  3
ACAD_GROUP
350
D
  3
ACAD_IMAGE_VARS
350
24D
  3
ACAD_LAYOUT
350
1A
  3
ACAD_MLINESTYLE
350
17
  3
ACAD_PLOTSETTINGS
350
19
  3
ACAD_PLOTSTYLENAME
350
E
  3
ACAD_SCALELIST
350
47
  3
APPDATA
350
159
  3
DWGPROPS
350
24E
  0
DICTIONARY
  5
196
330
2
100
AcDbDictionary
280
     1
281
     1
  3
ACAD_LAYERSTATES
360
197
  0
DICTIONARY
  5
D
102
{ACAD_REACTORS
330
C
102
}
330
C
100
AcDbDictionary
281
     1
  0
RASTERVARIABLES
  5
24D
102
{ACAD_REACTORS
330
C
102
}
330
C
100
AcDbRasterVariables
 90
        0
 70
     1
 71
     1
 72
     1
  0
DICTIONARY
  5
1A
102
{ACAD_REACTORS
330
C
102
}
330
C
100
AcDbDictionary
281
     1
  3
Layout1
350
1E
  3
Layout2
350
26
  3
Model
350
22
  0
DICTIONARY
  5
17
102
{ACAD_REACTORS
330
C
102
}
330
C
100
AcDbDictionary
281
     1
  3
Standard
350
18
  0
DICTIONARY
  5
19
102
{ACAD_REACTORS
330
C
102
}
330
C
100
AcDbDictionary
281
     1
  0
ACDBDICTIONARYWDFLT
  5
E
102
{ACAD_REACTORS
330
C
102
}
330
C
100
AcDbDictionary
281
     1
  3
Normal
350
F
100
AcDbDictionaryWithDefault
340
F
  0
DICTIONARY
  5
47
102
{ACAD_REACTORS
330
C
102
}
330
C
100
AcDbDictionary
281
     1
  3
A0
350
48
  3
A1
350
49
  3
A2
350
4A
  3
A3
350
4B
  3
A4
350
4C
  3
A5
350
4D
  3
A6
350
4E
  3
A7
350
4F
  3
A8
350
50
  3
A9
350
51
  3
B0
350
52
  3
B1
350
53
  3
B2
350
54
  3
B3
350
55
  3
B4
350
56
  3
B5
350
57
  3
B6
350
58
  3
B7
350
59
  3
B8
350
5A
  3
B9
350
5B
  3
C0
350
5C
  3
C1
350
5D
  3
C2
350
5E
  3
C3
350
5F
  3
C4
350
60
  3
C5
350
61
  3
C6
350
62
  3
C7
350
63
  3
C8
350
64
  3
C9
350
65
  3
D0
350
66
  3
D1
350
67
  3
D2
350
68
  0
DICTIONARY
  5
159
102
{ACAD_REACTORS
330
C
102
}
330
C
100
AcDbDictionary
281
     1
  0
XRECORD
  5
24E
102
{ACAD_REACTORS
330
C
102
}
330
C
100
AcDbXrecord
280
     1
  1
DWGPROPS COOKIE
  2

  3

  4

  6

  7

  8
12016016
  9

300
=
301
=
302
=
303
=
304
=
305
=
306
=
307
=
308
=
309
=
 40
0.0
 41
2458313.023217743
 42
2458330.401113218
  1

 90
        0
  0
DICTIONARY
  5
197
102
{ACAD_REACTORS
330
196
102
}
330
196
100
AcDbDictionary
281
     1
  0
LAYOUT
  5
1E
102
{ACAD_REACTORS
330
1A
102
}
330
1A
100
AcDbPlotSettings
  1

  2
none_device
  4

  6

 40
0.0
 41
0.0
 42
0.0
 43
0.0
 44
0.0
 45
0.0
 46
0.0
 47
0.0
 48
0.0
 49
0.0
140
0.0
141
0.0
142
1.0
143
1.0
 70
   688
 72
     1
 73
     0
 74
     5
  7

 75
    16
147
1.0
148
0.0
149
0.0
100
AcDbLayout
  1
Layout1
 70
     1
 71
     1
 10
0.0
 20
0.0
 11
420.0
 21
297.0
 12
0.0
 22
0.0
 32
0.0
 14
1.000000000000000E+20
 24
1.000000000000000E+20
 34
1.000000000000000E+20
 15
-1.000000000000000E+20
 25
-1.000000000000000E+20
 35
-1.000000000000000E+20
146
0.0
 13
0.0
 23
0.0
 33
0.0
 16
1.0
 26
0.0
 36
0.0
 17
0.0
 27
1.0
 37
0.0
 76
     0
330
1B
  0
LAYOUT
  5
26
102
{ACAD_REACTORS
330
1A
102
}
330
1A
100
AcDbPlotSettings
  1

  2
none_device
  4

  6

 40
0.0
 41
0.0
 42
0.0
 43
0.0
 44
0.0
 45
0.0
 46
0.0
 47
0.0
 48
0.0
 49
0.0
140
0.0
141
0.0
142
1.0
143
1.0
 70
   688
 72
     1
 73
     0
 74
     5
  7

 75
    16
147
1.0
148
0.0
149
0.0
100
AcDbLayout
  1
Layout2
 70
     1
 71
     2
 10
0.0
 20
0.0
 11
0.0
 21
0.0
 12
0.0
 22
0.0
 32
0.0
 14
0.0
 24
0.0
 34
0.0
 15
0.0
 25
0.0
 35
0.0
146
0.0
 13
0.0
 23
0.0
 33
0.0
 16
1.0
 26
0.0
 36
0.0
 17
0.0
 27
1.0
 37
0.0
 76
     0
330
23
  0
LAYOUT
  5
22
102
{ACAD_REACTORS
330
1A
102
}
330
1A
100
AcDbPlotSettings
  1

  2
none_device
  4
ANSI_A_(11.00_x_8.50_Inches)
  6

 40
6.35
 41
19.05
 42
6.35000508
 43
19.05000254
 44
279.4
 45
215.9
 46
69.6453324306941
 47
44.48596309292701
 48
0.0
 49
0.0
140
0.0
141
0.0
142
0.0335920848724483
143
1.0
 70
  1696
 72
     0
 73
     0
 74
     0
  7

 75
     0
147
0.0235690232323232
148
0.0
149
0.0
100
AcDbLayout
  1
Model
 70
     1
 71
     0
 10
0.0
 20
0.0
 11
420.0
 21
297.0
 12
0.0
 22
0.0
 32
0.0
 14
-62.00000000000011
 24
-49.97180738881175
 34
0.0
 15
97.79412503295505
 25
44.29132372576691
 35
0.0
146
0.0
 13
0.0
 23
0.0
 33
0.0
 16
1.0
 26
0.0
 36
0.0
 17
0.0
 27
1.0
 37
0.0
 76
     0
330
1F
331
29
  0
MLINESTYLE
  5
18
102
{ACAD_REACTORS
330
17
102
}
330
17
100
AcDbMlineStyle
  2
Standard
 70
     0
  3

 62
   256
 51
90.0
 52
90.0
 71
     2
 49
0.5
 62
   256
  6
BYLAYER
 49
-0.5
 62
   256
  6
BYLAYER
  0
ACDBPLACEHOLDER
  5
F
102
{ACAD_REACTORS
330
E
102
}
330
E
  0
SCALE
  5
48
102
{ACAD_REACTORS
330
47
102
}
330
47
100
AcDbScale
 70
     0
300
1:1
140
1.0
141
1.0
290
     1
  0
SCALE
  5
49
102
{ACAD_REACTORS
330
47
102
}
330
47
100
AcDbScale
 70
     0
300
1:2
140
1.0
141
2.0
290
     0
  0
SCALE
  5
4A
102
{ACAD_REACTORS
330
47
102
}
330
47
100
AcDbScale
 70
     0
300
1:4
140
1.0
141
4.0
290
     0
  0
SCALE
  5
4B
102
{ACAD_REACTORS
330
47
102
}
330
47
100
AcDbScale
 70
     0
300
1:5
140
1.0
141
5.0
290
     0
  0
SCALE
  5
4C
102
{ACAD_REACTORS
330
47
102
}
330
47
100
AcDbScale
 70
     0
300
1:8
140
1.0
141
8.0
290
     0
  0
SCALE
  5
4D
102
{ACAD_REACTORS
330
47
102
}
330
47
100
AcDbScale
 70
     0
300
1:10
140
1.0
141
10.0
290
     0
  0
SCALE
  5
4E
102
{ACAD_REACTORS
330
47
102
}
330
47
100
AcDbScale
 70
     0
300
1:16
140
1.0
141
16.0
290
     0
  0
SCALE
  5
4F
102
{ACAD_REACTORS
330
47
102
}
330
47
100
AcDbScale
 70
     0
300
1:20
140
1.0
141
20.0
290
     0
  0
SCALE
  5
50
102
{ACAD_REACTORS
330
47
102
}
330
47
100
AcDbScale
 70
     0
300
1:30
140
1.0
141
30.0
290
     0
  0
SCALE
  5
51
102
{ACAD_REACTORS
330
47
102
}
330
47
100
AcDbScale
 70
     0
300
1:40
140
1.0
141
40.0
290
     0
  0
SCALE
  5
52
102
{ACAD_REACTORS
330
47
102
}
330
47
100
AcDbScale
 70
     0
300
1:50
140
1.0
141
50.0
290
     0
  0
SCALE
  5
53
102
{ACAD_REACTORS
330
47
102
}
330
47
100
AcDbScale
 70
     0
300
1:100
140
1.0
141
100.0
290
     0
  0
SCALE
  5
54
102
{ACAD_REACTORS
330
47
102
}
330
47
100
AcDbScale
 70
     0
300
2:1
140
2.0
141
1.0
290
     0
  0
SCALE
  5
55
102
{ACAD_REACTORS
330
47
102
}
330
47
100
AcDbScale
 70
     0
300
4:1
140
4.0
141
1.0
290
     0
  0
SCALE
  5
56
102
{ACAD_REACTORS
330
47
102
}
330
47
100
AcDbScale
 70
     0
300
8:1
140
8.0
141
1.0
290
     0
  0
SCALE
  5
57
102
{ACAD_REACTORS
330
47
102
}
330
47
100
AcDbScale
 70
     0
300
10:1
140
10.0
141
1.0
290
     0
  0
SCALE
  5
58
102
{ACAD_REACTORS
330
47
102
}
330
47
100
AcDbScale
 70
     0
300
100:1
140
100.0
141
1.0
290
     0
  0
SCALE
  5
59
102
{ACAD_REACTORS
330
47
102
}
330
47
100
AcDbScale
 70
     0
300
1/128" = 1'-0"
140
0.0078125
141
12.0
290
     0
  0
SCALE
  5
5A
102
{ACAD_REACTORS
330
47
102
}
330
47
100
AcDbScale
 70
     0
300
1/64" = 1'-0"
140
0.015625
141
12.0
290
     0
  0
SCALE
  5
5B
102
{ACAD_REACTORS
330
47
102
}
330
47
100
AcDbScale
 70
     0
300
1/32" = 1'-0"
140
0.03125
141
12.0
290
     0
  0
SCALE
  5
5C
102
{ACAD_REACTORS
330
47
102
}
330
47
100
AcDbScale
 70
     0
300
1/16" = 1'-0"
140
0.0625
141
12.0
290
     0
  0
SCALE
  5
5D
102
{ACAD_REACTORS
330
47
102
}
330
47
100
AcDbScale
 70
     0
300
3/32" = 1'-0"
140
0.09375
141
12.0
290
     0
  0
SCALE
  5
5E
102
{ACAD_REACTORS
330
47
102
}
330
47
100
AcDbScale
 70
     0
300
1/8" = 1'-0"
140
0.125
141
12.0
290
     0
  0
SCALE
  5
5F
102
{ACAD_REACTORS
330
47
102
}
330
47
100
AcDbScale
 70
     0
300
3/16" = 1'-0"
140
0.1875
141
12.0
290
     0
  0
SCALE
  5
60
102
{ACAD_REACTORS
330
47
102
}
330
47
100
AcDbScale
 70
     0
300
1/4" = 1'-0"
140
0.25
141
12.0
290
     0
  0
SCALE
  5
61
102
{ACAD_REACTORS
330
47
102
}
330
47
100
AcDbScale
 70
     0
300
3/8" = 1'-0"
140
0.375
141
12.0
290
     0
  0
SCALE
  5
62
102
{ACAD_REACTORS
330
47
102
}
330
47
100
AcDbScale
 70
     0
300
1/2" = 1'-0"
140
0.5
141
12.0
290
     0
  0
SCALE
  5
63
102
{ACAD_REACTORS
330
47
102
}
330
47
100
AcDbScale
 70
     0
300
3/4" = 1'-0"
140
0.75
141
12.0
290
     0
  0
SCALE
  5
64
102
{ACAD_REACTORS
330
47
102
}
330
47
100
AcDbScale
 70
     0
300
1" = 1'-0"
140
1.0
141
12.0
290
     0
  0
SCALE
  5
65
102
{ACAD_REACTORS
330
47
102
}
330
47
100
AcDbScale
 70
     0
300
1-1/2" = 1'-0"
140
1.5
141
12.0
290
     0
  0
SCALE
  5
66
102
{ACAD_REACTORS
330
47
102
}
330
47
100
AcDbScale
 70
     0
300
3" = 1'-0"
140
3.0
141
12.0
290
     0
  0
SCALE
  5
67
102
{ACAD_REACTORS
330
47
102
}
330
47
100
AcDbScale
 70
     0
300
6" = 1'-0"
140
6.0
141
12.0
290
     0
  0
SCALE
  5
68
102
{ACAD_REACTORS
330
47
102
}
330
47
100
AcDbScale
 70
     0
300
1'-0" = 1'-0"
140
12.0
141
12.0
290
     0
  0
ENDSEC
  0
EOF
