  0
SECTION
  2
HEADER
  9
$ACADVER
  1
AC1015
  9
$ACADMAINTVER
 70
     6
  9
$DWGCODEPAGE
  3
ANSI_949
  9
$INSBASE
 10
0.0
 20
0.0
 30
0.0
  9
$EXTMIN
 10
-76.52500000000009
 20
-49.97180738881174
 30
0.0
  9
$EXTMAX
 10
99.38162503295504
 20
43.49171221129683
 30
0.0
  9
$LIMMIN
 10
0.0
 20
0.0
  9
$LIMMAX
 10
420.0
 20
297.0
  9
$ORTHOMODE
 70
     1
  9
$REGENMODE
 70
     1
  9
$FILLMODE
 70
     1
  9
$QTEXTMODE
 70
     0
  9
$MIRRTEXT
 70
     1
  9
$LTSCALE
 40
1.0
  9
$ATTMODE
 70
     1
  9
$TEXTSIZE
 40
3.5
  9
$TRACEWID
 40
1.0
  9
$TEXTSTYLE
  7
Standard
  9
$CLAYER
  8
0
  9
$CELTYPE
  6
ByLayer
  9
$CECOLOR
 62
   256
  9
$CELTSCALE
 40
1.0
  9
$DISPSILH
 70
     0
  9
$DIMSCALE
 40
1.0
  9
$DIMASZ
 40
3.302
  9
$DIMEXO
 40
1.0
  9
$DIMDLI
 40
3.75
  9
$DIMRND
 40
0.0
  9
$DIMDLE
 40
0.0
  9
$DIMEXE
 40
1.0
  9
$DIMTP
 40
0.0
  9
$DIMTM
 40
0.0
  9
$DIMTXT
 40
3.5
  9
$DIMCEN
 40
2.5
  9
$DIMTSZ
 40
0.0
  9
$DIMTOL
 70
     0
  9
$DIMLIM
 70
     0
  9
$DIMTIH
 70
     1
  9
$DIMTOH
 70
     1
  9
$DIMSE1
 70
     0
  9
$DIMSE2
 70
     0
  9
$DIMTAD
 70
     1
  9
$DIMZIN
 70
     0
  9
$DIMBLK
  1

  9
$DIMASO
 70
     1
  9
$DIMSHO
 70
     1
  9
$DIMPOST
  1

  9
$DIMAPOST
  1

  9
$DIMALT
 70
     0
  9
$DIMALTD
 70
     3
  9
$DIMALTF
 40
0.0393700787401575
  9
$DIMLFAC
 40
1.0
  9
$DIMTOFL
 70
     1
  9
$DIMTVP
 40
0.0
  9
$DIMTIX
 70
     0
  9
$DIMSOXD
 70
     0
  9
$DIMSAH
 70
     0
  9
$DIMBLK1
  1

  9
$DIMBLK2
  1

  9
$DIMSTYLE
  2
ISO-25
  9
$DIMCLRD
 70
     0
  9
$DIMCLRE
 70
     0
  9
$DIMCLRT
 70
     0
  9
$DIMTFAC
 40
1.0
  9
$DIMGAP
 40
1.524
  9
$DIMJUST
 70
     0
  9
$DIMSD1
 70
     0
  9
$DIMSD2
 70
     0
  9
$DIMTOLJ
 70
     0
  9
$DIMTZIN
 70
     0
  9
$DIMALTZ
 70
     0
  9
$DIMALTTZ
 70
     0
  9
$DIMUPT
 70
     0
  9
$DIMDEC
 70
     2
  9
$DIMTDEC
 70
     2
  9
$DIMALTU
 70
     2
  9
$DIMALTTD
 70
     3
  9
$DIMTXSTY
  7
Standard
  9
$DIMAUNIT
 70
     0
  9
$DIMADEC
 70
     2
  9
$DIMALTRND
 40
0.0
  9
$DIMAZIN
 70
     0
  9
$DIMDSEP
 70
    44
  9
$DIMATFIT
 70
     3
  9
$DIMFRAC
 70
     0
  9
$DIMLDRBLK
  1

  9
$DIMLUNIT
 70
     2
  9
$DIMLWD
 70
    -2
  9
$DIMLWE
 70
    -2
  9
$DIMTMOVE
 70
     0
  9
$LUNITS
 70
     2
  9
$LUPREC
 70
     2
  9
$SKETCHINC
 40
1.0
  9
$FILLETRAD
 40
10.0
  9
$AUNITS
 70
     0
  9
$AUPREC
 70
     2
  9
$MENU
  1
.
  9
$ELEVATION
 40
0.0
  9
$PELEVATION
 40
0.0
  9
$THICKNESS
 40
0.0
  9
$LIMCHECK
 70
     0
  9
$CHAMFERA
 40
0.0
  9
$CHAMFERB
 40
0.0
  9
$CHAMFERC
 40
0.0
  9
$CHAMFERD
 40
0.0
  9
$SKPOLY
 70
     0
  9
$TDCREATE
 40
2458313.399277245
  9
$TDUCREATE
 40
2458313.024277245
  9
$TDUPDATE
 40
2458330.775865185
  9
$TDUUPDATE
 40
2458330.400865185
  9
$TDINDWG
 40
0.0017815625
  9
$TDUSRTIMER
 40
2458330.400826111
  9
$USRTIMER
 70
     1
  9
$ANGBASE
 50
0.0
  9
$ANGDIR
 70
     0
  9
$PDMODE
 70
     0
  9
$PDSIZE
 40
-1.0
  9
$PLINEWID
 40
0.0
  9
$SPLFRAME
 70
     0
  9
$SPLINETYPE
 70
     6
  9
$SPLINESEGS
 70
     8
  9
$HANDSEED
  5
251
  9
$SURFTAB1
 70
     6
  9
$SURFTAB2
 70
     6
  9
$SURFTYPE
 70
     6
  9
$SURFU
 70
     6
  9
$SURFV
 70
     6
  9
$UCSBASE
  2

  9
$UCSNAME
  2

  9
$UCSORG
 10
0.0
 20
0.0
 30
0.0
  9
$UCSXDIR
 10
1.0
 20
0.0
 30
0.0
  9
$UCSYDIR
 10
0.0
 20
1.0
 30
0.0
  9
$UCSORTHOREF
  2

  9
$UCSORTHOVIEW
 70
     0
  9
$UCSORGTOP
 10
0.0
 20
0.0
 30
0.0
  9
$UCSORGBOTTOM
 10
0.0
 20
0.0
 30
0.0
  9
$UCSORGLEFT
 10
0.0
 20
0.0
 30
0.0
  9
$UCSORGRIGHT
 10
0.0
 20
0.0
 30
0.0
  9
$UCSORGFRONT
 10
0.0
 20
0.0
 30
0.0
  9
$UCSORGBACK
 10
0.0
 20
0.0
 30
0.0
  9
$PUCSBASE
  2

  9
$PUCSNAME
  2

  9
$PUCSORG
 10
0.0
 20
0.0
 30
0.0
  9
$PUCSXDIR
 10
1.0
 20
0.0
 30
0.0
  9
$PUCSYDIR
 10
0.0
 20
1.0
 30
0.0
  9
$PUCSORTHOREF
  2

  9
$PUCSORTHOVIEW
 70
     0
  9
$PUCSORGTOP
 10
0.0
 20
0.0
 30
0.0
  9
$PUCSORGBOTTOM
 10
0.0
 20
0.0
 30
0.0
  9
$PUCSORGLEFT
 10
0.0
 20
0.0
 30
0.0
  9
$PUCSORGRIGHT
 10
0.0
 20
0.0
 30
0.0
  9
$PUCSORGFRONT
 10
0.0
 20
0.0
 30
0.0
  9
$PUCSORGBACK
 10
0.0
 20
0.0
 30
0.0
  9
$USERI1
 70
     0
  9
$USERI2
 70
     0
  9
$USERI3
 70
     0
  9
$USERI4
 70
     0
  9
$USERI5
 70
     0
  9
$USERR1
 40
0.0
  9
$USERR2
 40
0.0
  9
$USERR3
 40
0.0
  9
$USERR4
 40
0.0
  9
$USERR5
 40
0.0
  9
$WORLDVIEW
 70
     1
  9
$SHADEDGE
 70
     3
  9
$SHADEDIF
 70
    70
  9
$TILEMODE
 70
     1
  9
$MAXACTVP
 70
    64
  9
$PINSBASE
 10
0.0
 20
0.0
 30
0.0
  9
$PLIMCHECK
 70
     0
  9
$PEXTMIN
 10
1.000000000000000E+20
 20
1.000000000000000E+20
 30
1.000000000000000E+20
  9
$PEXTMAX
 10
-1.000000000000000E+20
 20
-1.000000000000000E+20
 30
-1.000000000000000E+20
  9
$PLIMMIN
 10
0.0
 20
0.0
  9
$PLIMMAX
 10
0.0
 20
0.0
  9
$UNITMODE
 70
     0
  9
$VISRETAIN
 70
     1
  9
$PLINEGEN
 70
     0
  9
$PSLTSCALE
 70
     1
  9
$TREEDEPTH
 70
  3020
  9
$CMLSTYLE
  2
Standard
  9
$CMLJUST
 70
     0
  9
$CMLSCALE
 40
20.0
  9
$PROXYGRAPHICS
 70
     1
  9
$MEASUREMENT
 70
     1
  9
$CELWEIGHT
370
    -1
  9
$ENDCAPS
280
     0
  9
$JOINSTYLE
280
     0
  9
$LWDISPLAY
290
     1
  9
$INSUNITS
 70
     4
  9
$HYPERLINKBASE
  1

  9
$STYLESHEET
  1

  9
$XEDIT
290
     1
  9
$CEPSNTYPE
380
     0
  9
$PSTYLEMODE
290
     1
  9
$FINGERPRINTGUID
  2
{5D39B906-C307-4C81-8AFC-2644F37840D4}
  9
$VERSIONGUID
  2
{FAEB1C32-E019-11D5-929B-00C0DF256EC4}
  9
$EXTNAMES
290
     1
  9
$PSVPSCALE
 40
0.0
  9
$OLESTARTUP
290
     0
  0
ENDSEC
  0
SECTION
  2
CLASSES
  0
CLASS
  1
ACDBDICTIONARYWDFLT
  2
AcDbDictionaryWithDefault
  3
ObjectDBX Classes
 90
        0
280
     0
281
     0
  0
CLASS
  1
VISUALSTYLE
  2
AcDbVisualStyle
  3
ObjectDBX Classes
 90
     4095
280
     0
281
     0
  0
CLASS
  1
MATERIAL
  2
AcDbMaterial
  3
ObjectDBX Classes
 90
     1153
280
     0
281
     0
  0
CLASS
  1
SCALE
  2
AcDbScale
  3
ObjectDBX Classes
 90
     1153
280
     0
281
     0
  0
CLASS
  1
SUN
  2
AcDbSun
  3
SCENEOE
 90
     1153
280
     0
281
     0
  0
CLASS
  1
ACDBPLACEHOLDER
  2
AcDbPlaceHolder
  3
ObjectDBX Classes
 90
        0
280
     0
281
     0
  0
CLASS
  1
LAYOUT
  2
AcDbLayout
  3
ObjectDBX Classes
 90
        0
280
     0
281
     0
  0
CLASS
  1
TABLESTYLE
  2
AcDbTableStyle
  3
ObjectDBX Classes
 90
     4095
280
     0
281
     0
  0
CLASS
  1
MLEADERSTYLE
  2
AcDbMLeaderStyle
  3
ACDB_MLEADERSTYLE_CLASS
 90
     4095
280
     0
281
     0
  0
CLASS
  1
RASTERVARIABLES
  2
AcDbRasterVariables
  3
ISM
 90
        0
280
     0
281
     0
  0
ENDSEC
  0
SECTION
  2
TABLES
  0
TABLE
  2
VPORT
  5
8
330
0
100
AcDbSymbolTable
 70
     1
  0
VPORT
  5
29
330
8
100
AcDbSymbolTableRecord
100
AcDbViewportTableRecord
  2
*Active
 70
     0
 10
0.0
 20
0.0
 11
1.0
 21
1.0
 12
11.42831251647748
 22
-3.240047588757463
 13
0.0
 23
0.0
 14
10.0
 24
10.0
 15
10.0
 25
10.0
 16
0.0
 26
0.0
 36
1.0
 17
0.0
 27
0.0
 37
0.0
 40
100.6442182986565
 41
1.782762691853601
 42
50.0
 43
0.0
 44
0.0
 50
0.0
 51
0.0
 71
    16
 72
  2000
 73
     1
 74
     3
 75
     0
 76
     0
 77
     0
 78
     0
281
     0
 65
     1
110
0.0
120
0.0
130
0.0
111
1.0
121
0.0
131
0.0
112
0.0
122
1.0
132
0.0
 79
     0
146
0.0
  0
ENDTAB
  0
TABLE
  2
LTYPE
  5
5
330
0
100
AcDbSymbolTable
 70
     6
  0
LTYPE
  5
14
330
5
100
AcDbSymbolTableRecord
100
AcDbLinetypeTableRecord
  2
ByBlock
 70
     0
  3

 72
    65
 73
     0
 40
0.0
  0
LTYPE
  5
15
330
5
100
AcDbSymbolTableRecord
100
AcDbLinetypeTableRecord
  2
ByLayer
 70
     0
  3

 72
    65
 73
     0
 40
0.0
  0
LTYPE
  5
16
330
5
100
AcDbSymbolTableRecord
100
AcDbLinetypeTableRecord
  2
Continuous
 70
     0
  3
Solid line
 72
    65
 73
     0
 40
0.0
  0
LTYPE
  5
6A
330
5
100
AcDbSymbolTableRecord
100
AcDbLinetypeTableRecord
  2
HIDDEN
 70
     0
  3
Hidden __ __ __ __ __ __ __ __ __ __ __ __ __ __
 72
    65
 73
     2
 40
1.905
 49
1.27
 74
     0
 49
-0.635
 74
     0
  0
LTYPE
  5
6B
330
5
100
AcDbSymbolTableRecord
100
AcDbLinetypeTableRecord
  2
PHANTOM
 70
     0
  3
Phantom ______  __  __  ______  __  __  ______
 72
    65
 73
     6
 40
12.7
 49
6.35
 74
     0
 49
-1.27
 74
     0
 49
1.27
 74
     0
 49
-1.27
 74
     0
 49
1.27
 74
     0
 49
-1.27
 74
     0
  0
LTYPE
  5
6C
330
5
100
AcDbSymbolTableRecord
100
AcDbLinetypeTableRecord
  2
CENTER
 70
     0
  3
Center ____ _ ____ _ ____ _ ____ _ ____ _ ____
 72
    65
 73
     4
 40
10.16
 49
6.35
 74
     0
 49
-1.27
 74
     0
 49
1.27
 74
     0
 49
-1.27
 74
     0
  0
LTYPE
  5
6D
330
5
100
AcDbSymbolTableRecord
100
AcDbLinetypeTableRecord
  2
CENTERX2
 70
     0
  3
Center (2x) ________  __  ________  __  _____
 72
    65
 73
     4
 40
20.32
 49
12.7
 74
     0
 49
-2.54
 74
     0
 49
2.54
 74
     0
 49
-2.54
 74
     0
  0
LTYPE
  5
6E
330
5
100
AcDbSymbolTableRecord
100
AcDbLinetypeTableRecord
  2
DOT2
 70
     0
  3
Dot (.5x) ........................................
 72
    65
 73
     2
 40
0.635
 49
0.0
 74
     0
 49
-0.635
 74
     0
  0
ENDTAB
  0
TABLE
  2
LAYER
  5
2
102
{ACAD_XDICTIONARY
360
195
102
}
330
0
100
AcDbSymbolTable
 70
    18
  0
LAYER
  5
10
330
2
100
AcDbSymbolTableRecord
100
AcDbLayerTableRecord
  2
0
 70
     0
 62
     7
  6
Continuous
370
    -3
390
F
  0
LAYER
  5
6F
330
2
100
AcDbSymbolTableRecord
100
AcDbLayerTableRecord
  2
FORMAT
 70
     0
 62
     2
  6
Continuous
370
    -3
390
F
  0
LAYER
  5
70
330
2
100
AcDbSymbolTableRecord
100
AcDbLayerTableRecord
  2
외형선
 70
     0
 62
     4
  6
Continuous
370
    30
390
F
  0
LAYER
  5
71
330
2
100
AcDbSymbolTableRecord
100
AcDbLayerTableRecord
  2
숨은선
 70
     0
 62
     2
  6
HIDDEN
370
    15
390
F
  0
LAYER
  5
72
330
2
100
AcDbSymbolTableRecord
100
AcDbLayerTableRecord
  2
중심선
 70
     0
 62
     1
  6
CENTERX2
370
    -3
390
F
  0
LAYER
  5
73
330
2
100
AcDbSymbolTableRecord
100
AcDbLayerTableRecord
  2
파단선
 70
     0
 62
     4
  6
Continuous
370
    -3
390
F
  0
LAYER
  5
74
330
2
100
AcDbSymbolTableRecord
100
AcDbLayerTableRecord
  2
해칭선
 70
     0
 62
   100
  6
Continuous
370
    -3
390
F
  0
LAYER
  5
75
330
2
100
AcDbSymbolTableRecord
100
AcDbLayerTableRecord
  2
가는실선
 70
     0
 62
     4
  6
Continuous
370
    -3
390
F
  0
LAYER
  5
76
330
2
100
AcDbSymbolTableRecord
100
AcDbLayerTableRecord
  2
치수_보조선
 70
     0
 62
     4
  6
Continuous
370
    -3
390
F
  0
LAYER
  5
77
330
2
100
AcDbSymbolTableRecord
100
AcDbLayerTableRecord
  2
치수문자_일반주서
 70
     0
 62
     7
  6
Continuous
370
    15
390
F
  0
LAYER
  5
78
330
2
100
AcDbSymbolTableRecord
100
AcDbLayerTableRecord
  2
개별주서
 70
     0
 62
   100
  6
Continuous
370
    30
390
F
  0
LAYER
  5
79
330
2
100
AcDbSymbolTableRecord
100
AcDbLayerTableRecord
  2
중간선
 70
     0
 62
     2
  6
Continuous
370
    15
390
F
  0
LAYER
  5
7A
330
2
100
AcDbSymbolTableRecord
100
AcDbLayerTableRecord
  2
윤곽선
 70
     0
 62
     3
  6
Continuous
370
    40
390
F
  0
LAYER
  5
7B
330
2
100
AcDbSymbolTableRecord
100
AcDbLayerTableRecord
  2
중심마크
 70
     0
 62
   100
  6
Continuous
370
    30
390
F
  0
LAYER
  5
7C
330
2
100
AcDbSymbolTableRecord
100
AcDbLayerTableRecord
  2
가상선
 70
     0
 62
     4
  6
PHANTOM
370
    -3
390
F
  0
LAYER
  5
7D
330
2
100
AcDbSymbolTableRecord
100
AcDbLayerTableRecord
  2
특수지정선
 70
     0
 62
     5
  6
CENTERX2
370
    60
390
F
  0
LAYER
  5
7E
330
2
100
AcDbSymbolTableRecord
100
AcDbLayerTableRecord
  2
참조1
 70
     0
 62
    -4
  6
Continuous
370
    -3
390
F
  0
LAYER
  5
15D
330
2
100
AcDbSymbolTableRecord
100
AcDbLayerTableRecord
  2
Defpoints
 70
     0
 62
     7
  6
Continuous
290
     0
370
    -3
390
F
  0
ENDTAB
  0
TABLE
  2
STYLE
  5
3
330
0
100
AcDbSymbolTable
 70
     2
  0
STYLE
  5
11
330
3
100
AcDbSymbolTableRecord
100
AcDbTextStyleTableRecord
  2
Standard
 70
     0
 40
0.0
 41
1.0
 50
0.0
 71
     0
 42
3.5
  3
txt
  4

  0
STYLE
  5
94
330
3
100
AcDbSymbolTableRecord
100
AcDbTextStyleTableRecord
  2
SLDTEXTSTYLE0
 70
     0
 40
0.0
 41
0.75
 50
0.0
 71
     0
 42
3.5
  3
TXT
  4

  0
ENDTAB
  0
TABLE
  2
VIEW
  5
6
330
0
100
AcDbSymbolTable
 70
     0
  0
ENDTAB
  0
TABLE
  2
UCS
  5
7
330
0
100
AcDbSymbolTable
 70
     0
  0
ENDTAB
  0
TABLE
  2
APPID
  5
9
330
0
100
AcDbSymbolTable
 70
     2
  0
APPID
  5
12
330
9
100
AcDbSymbolTableRecord
100
AcDbRegAppTableRecord
  2
ACAD
 70
     0
  0
APPID
  5
165
330
9
100
AcDbSymbolTableRecord
100
AcDbRegAppTableRecord
  2
PE_URL
 70
     0
  0
ENDTAB
  0
TABLE
  2
DIMSTYLE
  5
A
330
0
100
AcDbSymbolTable
 70
     4
100
AcDbDimStyleTable
  0
DIMSTYLE
105
27
330
A
100
AcDbSymbolTableRecord
100
AcDbDimStyleTableRecord
  2
ISO-25
 70
     0
 41
2.5
 42
0.625
 43
3.75
 44
1.25
 73
     0
 74
     0
 77
     1
 78
     8
140
2.5
141
2.5
143
0.03937007874016
147
0.625
171
     3
172
     1
178
     0
271
     2
272
     2
274
     3
278
    44
283
     0
284
     8
340
11
  0
DIMSTYLE
105
DC
102
{ACAD_REACTORS
330
DB
330
F0
330
104
330
118
102
}
330
A
100
AcDbSymbolTableRecord
100
AcDbDimStyleTableRecord
  2
SLDDIMSTYLE0
 70
     0
 41
3.302
 44
0.0
 45
0.000000001
 73
     0
 74
     0
 77
     1
 78
    12
 79
     3
140
3.5
143
0.0393700787401575
147
0.875
148
0.000000001
170
     1
172
     1
173
     1
178
     0
271
     2
272
     2
276
     2
284
    12
289
     0
340
94
  0
DIMSTYLE
105
F1
330
A
100
AcDbSymbolTableRecord
100
AcDbDimStyleTableRecord
  2
SLDDIMSTYLE1
 70
     0
 41
3.302
 44
0.0
 45
0.000000001
 73
     0
 74
     0
 77
     1
 78
    12
 79
     3
140
3.5
143
0.0393700787401575
147
0.875
148
0.000000001
170
     1
173
     1
178
     0
271
     2
272
     2
276
     2
284
    12
340
94
  0
DIMSTYLE
105
119
330
A
100
AcDbSymbolTableRecord
100
AcDbDimStyleTableRecord
  2
SLDDIMSTYLE2
 70
     0
 41
3.302
 44
0.0
 45
0.000000001
 73
     0
 74
     0
 77
     1
 78
     4
 79
     1
140
3.5
143
0.0393700787401575
147
0.875
148
0.000000001
170
     1
173
     1
178
     0
271
     2
272
     2
276
     2
284
    12
340
94
  0
ENDTAB
  0
TABLE
  2
BLOCK_RECORD
  5
1
330
0
100
AcDbSymbolTable
 70
     9
  0
BLOCK_RECORD
  5
1F
330
1
100
AcDbSymbolTableRecord
100
AcDbBlockTableRecord
  2
*Model_Space
340
22
  0
BLOCK_RECORD
  5
1B
330
1
100
AcDbSymbolTableRecord
100
AcDbBlockTableRecord
  2
*Paper_Space
340
1E
  0
BLOCK_RECORD
  5
23
330
1
100
AcDbSymbolTableRecord
100
AcDbBlockTableRecord
  2
*Paper_Space0
340
26
  0
BLOCK_RECORD
  5
7F
330
1
100
AcDbSymbolTableRecord
100
AcDbBlockTableRecord
  2
블럭10
340
0
102
{BLKREFS
331
D4
102
}
  0
BLOCK_RECORD
  5
DD
330
1
100
AcDbSymbolTableRecord
100
AcDbBlockTableRecord
  2
_D
340
0
  0
BLOCK_RECORD
  5
F2
330
1
100
AcDbSymbolTableRecord
100
AcDbBlockTableRecord
  2
_D_1
340
0
  0
BLOCK_RECORD
  5
105
330
1
100
AcDbSymbolTableRecord
100
AcDbBlockTableRecord
  2
_D_2
340
0
  0
BLOCK_RECORD
  5
11A
330
1
100
AcDbSymbolTableRecord
100
AcDbBlockTableRecord
  2
_D_3
340
0
  0
BLOCK_RECORD
  5
133
330
1
100
AcDbSymbolTableRecord
100
AcDbBlockTableRecord
  2
SW_DOWELSYMBOL_0
340
0
102
{BLKREFS
331
139
102
}
  0
BLOCK_RECORD
  5
199
330
1
100
AcDbSymbolTableRecord
100
AcDbBlockTableRecord
  2
*D7
340
0
  0
BLOCK_RECORD
  5
1AB
330
1
100
AcDbSymbolTableRecord
100
AcDbBlockTableRecord
  2
*D8
340
0
  0
ENDTAB
  0
ENDSEC
  0
SECTION
  2
BLOCKS
  0
BLOCK
  5
20
330
1F
100
AcDbEntity
  8
0
100
AcDbBlockBegin
  2
*Model_Space
 70
     0
 10
0.0
 20
0.0
 30
0.0
  3
*Model_Space
  1
*Model_Space
  0
ENDBLK
  5
21
330
1F
100
AcDbEntity
  8
0
100
AcDbBlockEnd
  0
BLOCK
  5
1C
330
1B
100
AcDbEntity
 67
     1
  8
0
100
AcDbBlockBegin
  2
*Paper_Space
 70
     0
 10
0.0
 20
0.0
 30
0.0
  3
*Paper_Space
  1
*Paper_Space
  0
ENDBLK
  5
1D
330
1B
100
AcDbEntity
 67
     1
  8
0
100
AcDbBlockEnd
  0
BLOCK
  5
24
330
23
100
AcDbEntity
  8
0
100
AcDbBlockBegin
  2
*Paper_Space0
 70
     0
 10
0.0
 20
0.0
 30
0.0
  3
*Paper_Space0
  1
*Paper_Space0
  0
ENDBLK
  5
25
330
23
100
AcDbEntity
  8
0
100
AcDbBlockEnd
  0
BLOCK
  5
80
330
7F
100
AcDbEntity
  8
0
100
AcDbBlockBegin
  2
블럭10
 70
     2
 10
0.0
 20
0.0
 30
0.0
  3
블럭10
  1
블럭10
  0
ELLIPSE
  5
82
330
7F
100
AcDbEntity
  8
중심선
100
AcDbEllipse
 10
20.54032771741204
 20
12.0471743016438
 30
0.0
 11
6.600054785286829
 21
-1.261213355974178E-13
 31
0.0
210
0.0
220
0.0
230
1.0
 40
0.636358354079598
 41
0.9219305317359503
 42
6.513795318482858
  0
ELLIPSE
  5
83
330
7F
100
AcDbEntity
  8
중심선
100
AcDbEllipse
 10
20.54032771746488
 20
12.04717430159265
 30
0.0
 11
3.960054785062283
 21
1.540847449632565E-10
 31
0.0
210
0.0
220
0.0
230
1.0
 40
0.3939339440162632
 41
1.131841032648279
 42
5.62031148352944
  0
LINE
  5
84
330
7F
100
AcDbEntity
  8
중심선
100
AcDbLine
 10
2.268634060543552
 20
16.24717430164393
 30
0.0
 11
5.714909304380834
 21
16.24717430164393
 31
0.0
  0
LINE
  5
85
330
7F
100
AcDbEntity
  8
중심선
100
AcDbLine
 10
5.245725140726316
 20
7.84717430164391
 30
0.0
 11
8.692000384563599
 21
7.84717430164391
 31
0.0
  0
LINE
  5
86
330
7F
100
AcDbEntity
  8
중심선
100
AcDbLine
 10
15.74043728645272
 20
16.24717430164393
 30
0.0
 11
8.692000384563599
 21
7.84717430164391
 31
0.0
  0
LINE
  5
87
330
7F
100
AcDbEntity
  8
중심선
100
AcDbLine
 10
0.1404042013395286
 20
13.71084872107135
 30
0.0
 11
3.58671253028996
 21
13.71088815037384
 31
0.0
  0
LINE
  5
88
330
7F
100
AcDbEntity
  8
중심선
100
AcDbLine
 10
2.750260043222114
 20
10.84717430164391
 30
0.0
 11
6.196535287059397
 21
10.84717430164391
 31
0.0
  0
LINE
  5
89
330
7F
100
AcDbEntity
  8
중심선
100
AcDbLine
 10
12.29416204261559
 20
16.24717430164393
 30
0.0
 11
5.245725140726316
 21
7.84717430164391
 31
0.0
  0
LINE
  5
8A
330
7F
100
AcDbEntity
  8
중심선
100
AcDbLine
 10
10.72767329541681
 20
16.24717430164393
 30
0.0
 11
6.196535287059397
 21
10.84717430164391
 31
0.0
  0
LINE
  5
8B
330
7F
100
AcDbEntity
  8
중심선
100
AcDbLine
 10
7.28139805157953
 20
16.24717430164393
 30
0.0
 11
2.750260043222114
 21
10.84717430164391
 31
0.0
  0
LINE
  5
8C
330
7F
100
AcDbEntity
  8
중심선
100
AcDbLine
 10
5.714909304380834
 20
16.24717430164393
 30
0.0
 11
3.58671253028996
 21
13.71088815037384
 31
0.0
  0
LINE
  5
8D
330
7F
100
AcDbEntity
  8
중심선
100
AcDbLine
 10
2.268634060543552
 20
16.24717430164393
 30
0.0
 11
0.1404042013395286
 21
13.71084872107135
 31
0.0
  0
LINE
  5
8E
330
7F
100
AcDbEntity
  8
중심선
100
AcDbLine
 10
7.28139805157953
 20
16.24717430164393
 30
0.0
 11
10.72767329541681
 21
16.24717430164393
 31
0.0
  0
LINE
  5
8F
330
7F
100
AcDbEntity
  8
중심선
100
AcDbLine
 10
12.29416204261559
 20
16.24717430164393
 30
0.0
 11
15.74043728645272
 21
16.24717430164393
 31
0.0
  0
LINE
  5
90
330
7F
100
AcDbEntity
  8
중심선
100
AcDbLine
 10
19.22036997980202
 20
11.08717430171403
 30
0.0
 11
23.66174974927406
 21
11.08717430171406
 31
0.0
  0
LINE
  5
91
330
7F
100
AcDbEntity
  8
중심선
100
AcDbLine
 10
19.22039502424796
 20
13.00717430171391
 30
0.0
 11
19.22036997980202
 21
11.08717430171403
 31
0.0
  0
LINE
  5
92
330
7F
100
AcDbEntity
  8
중심선
100
AcDbLine
 10
19.22039502424796
 20
13.00717430171391
 30
0.0
 11
26.96566020931264
 21
13.00717430171391
 31
0.0
  0
LINE
  5
93
330
7F
100
AcDbEntity
  8
중심선
100
AcDbLine
 10
22.22332737316547
 20
13.45928029700563
 30
0.0
 11
24.52862924686651
 21
15.39360700705356
 31
0.0
  0
ATTDEF
  5
95
330
7F
100
AcDbEntity
  8
FORMAT
 62
     2
100
AcDbText
 10
4.408487351596664
 20
2.075366912832191
 30
0.0
 40
4.233333333333333
  1
E1050036
 41
0.75
  7
SLDTEXTSTYLE0
 11
4.408487351596664
 21
-0.0412997538344756
 31
0.0
100
AcDbAttributeDefinition
  3

  2
AUTOATTR0
 70
     0
 74
     1
  0
ENDBLK
  5
81
330
7F
100
AcDbEntity
  8
0
100
AcDbBlockEnd
  0
BLOCK
  5
DE
330
DD
100
AcDbEntity
  8
0
100
AcDbBlockBegin
  2
_D
 70
     0
 10
0.0
 20
0.0
 30
0.0
  3
_D
  1
_D
  0
LINE
  5
E0
330
DD
100
AcDbEntity
  8
치수문자_일반주서
 62
     0
370
    -2
100
AcDbLine
 10
-24.67518467149224
 20
7.93749999999999
 30
0.0
 11
-72.14999999999998
 21
7.937499999999812
 31
0.0
  0
LINE
  5
E1
330
DD
100
AcDbEntity
  8
치수문자_일반주서
 62
     0
370
    -2
100
AcDbLine
 10
-24.67518467149227
 20
-7.937500000000003
 30
0.0
 11
-72.14999999999992
 21
-7.937500000000178
 31
0.0
  0
LINE
  5
E2
330
DD
100
AcDbEntity
  8
치수문자_일반주서
 62
     0
370
    -2
100
AcDbLine
 10
-72.14999999999998
 20
7.937499999999812
 30
0.0
 11
-72.1500000000001
 21
42.54149999999992
 31
0.0
  0
LINE
  5
E3
330
DD
100
AcDbEntity
  8
치수문자_일반주서
 62
     0
370
    -2
100
AcDbLine
 10
-72.14999999999998
 20
7.937499999999812
 30
0.0
 11
-72.14999999999992
 21
-7.937500000000178
 31
0.0
  0
LINE
  5
E4
330
DD
100
AcDbEntity
  8
치수문자_일반주서
 62
     0
370
    -2
100
AcDbLine
 10
-72.14999999999999
 20
11.23949999999981
 30
0.0
 11
-72.15
 21
14.54149999999981
 31
0.0
  0
LINE
  5
E5
330
DD
100
AcDbEntity
  8
치수문자_일반주서
 62
     0
370
    -2
100
AcDbLine
 10
-72.1499999999999
 20
-11.23950000000018
 30
0.0
 11
-72.14999999999989
 21
-14.54150000000018
 31
0.0
  0
SOLID
  5
E6
330
DD
100
AcDbEntity
  8
치수문자_일반주서
 62
     0
100
AcDbTrace
 10
-72.70033333333332
 20
11.23949999999981
 30
0.0
 11
-71.59966666666666
 21
11.23949999999981
 31
0.0
 12
-72.14999999999998
 22
7.937499999999812
 32
0.0
 13
-72.14999999999998
 23
7.937499999999812
 33
0.0
  0
SOLID
  5
E7
330
DD
100
AcDbEntity
  8
치수문자_일반주서
 62
     0
100
AcDbTrace
 10
-71.59966666666658
 20
-11.23950000000018
 30
0.0
 11
-72.70033333333323
 21
-11.23950000000018
 31
0.0
 12
-72.14999999999992
 22
-7.937500000000178
 32
0.0
 13
-72.14999999999992
 23
-7.937500000000178
 33
0.0
  0
MTEXT
  5
E8
330
DD
100
AcDbEntity
  8
치수문자_일반주서
 62
     0
100
AcDbMText
 10
-76.52500000000005
 20
28.5414999999999
 30
0.0
 40
3.5
 41
0.0
 71
     2
 72
     1
  1
\A1;%%c15.88 [5/8]
  7
SLDTEXTSTYLE0
 11
-3.580687802255625E-15
 21
1.0
 31
0.0
 73
     1
 44
1.0
  0
POINT
  5
1BF
330
DD
100
AcDbEntity
  8
Defpoints
 62
     0
100
AcDbPoint
 10
-24.61268467149224
 20
7.93749999999999
 30
0.0
  0
POINT
  5
1C0
330
DD
100
AcDbEntity
  8
Defpoints
 62
     0
100
AcDbPoint
 10
-24.61268467149227
 20
-7.937500000000003
 30
0.0
  0
POINT
  5
1C1
330
DD
100
AcDbEntity
  8
Defpoints
 62
     0
100
AcDbPoint
 10
-72.14999999999992
 20
-7.93750000000018
 30
0.0
  0
ENDBLK
  5
DF
330
DD
100
AcDbEntity
  8
0
100
AcDbBlockEnd
  0
BLOCK
  5
F3
330
F2
100
AcDbEntity
  8
0
100
AcDbBlockBegin
  2
_D_1
 70
     0
 10
0.0
 20
0.0
 30
0.0
  3
_D_1
  1
_D_1
  0
LINE
  5
F5
330
F2
100
AcDbEntity
  8
치수문자_일반주서
 62
     0
370
    -2
100
AcDbLine
 10
57.21250000000001
 20
-7.13771221129677
 30
0.0
 11
72.15000000000006
 21
-7.137712211296716
 31
0.0
  0
LINE
  5
F6
330
F2
100
AcDbEntity
  8
치수문자_일반주서
 62
     0
370
    -2
100
AcDbLine
 10
57.21250000000001
 20
7.137712211296765
 30
0.0
 11
72.15
 21
7.137712211296822
 31
0.0
  0
LINE
  5
F7
330
F2
100
AcDbEntity
  8
치수문자_일반주서
 62
     0
370
    -2
100
AcDbLine
 10
72.15
 20
7.137712211296822
 30
0.0
 11
72.14999999999986
 21
43.49171221129682
 31
0.0
  0
LINE
  5
F8
330
F2
100
AcDbEntity
  8
치수문자_일반주서
 62
     0
370
    -2
100
AcDbLine
 10
72.15000000000006
 20
-7.137712211296716
 30
0.0
 11
72.15
 21
7.137712211296822
 31
0.0
  0
LINE
  5
F9
330
F2
100
AcDbEntity
  8
치수문자_일반주서
 62
     0
370
    -2
100
AcDbLine
 10
72.15000000000008
 20
-10.43971221129672
 30
0.0
 11
72.15000000000009
 21
-13.74171221129671
 31
0.0
  0
LINE
  5
FA
330
F2
100
AcDbEntity
  8
치수문자_일반주서
 62
     0
370
    -2
100
AcDbLine
 10
72.14999999999999
 20
10.43971221129682
 30
0.0
 11
72.14999999999998
 21
13.74171221129682
 31
0.0
  0
SOLID
  5
FB
330
F2
100
AcDbEntity
  8
치수문자_일반주서
 62
     0
100
AcDbTrace
 10
72.7003333333334
 20
-10.43971221129671
 30
0.0
 11
71.59966666666675
 21
-10.43971221129672
 31
0.0
 12
72.15000000000006
 22
-7.137712211296716
 32
0.0
 13
72.15000000000006
 23
-7.137712211296716
 33
0.0
  0
SOLID
  5
FC
330
F2
100
AcDbEntity
  8
치수문자_일반주서
 62
     0
100
AcDbTrace
 10
71.59966666666666
 20
10.43971221129682
 30
0.0
 11
72.70033333333332
 21
10.43971221129682
 31
0.0
 12
72.15
 22
7.137712211296822
 32
0.0
 13
72.15
 23
7.137712211296822
 33
0.0
  0
MTEXT
  5
FD
330
F2
100
AcDbEntity
  8
치수문자_일반주서
 62
     0
100
AcDbMText
 10
67.77499999999992
 20
28.6167122112968
 30
0.0
 40
3.5
 41
0.0
 71
     2
 72
     1
  1
\A1;%%c14.28 [9/16]
  7
SLDTEXTSTYLE0
 11
-3.981907450039989E-15
 21
1.0
 31
0.0
 73
     1
 44
1.0
  0
POINT
  5
FE
330
F2
100
AcDbEntity
  8
Defpoints
 62
     0
100
AcDbPoint
 10
57.15000000000001
 20
-7.13771221129677
 30
0.0
  0
POINT
  5
1B7
330
F2
100
AcDbEntity
  8
Defpoints
 62
     0
100
AcDbPoint
 10
57.15000000000001
 20
7.137712211296765
 30
0.0
  0
POINT
  5
1B8
330
F2
100
AcDbEntity
  8
Defpoints
 62
     0
100
AcDbPoint
 10
72.15
 20
7.137712211296821
 30
0.0
  0
ENDBLK
  5
F4
330
F2
100
AcDbEntity
  8
0
100
AcDbBlockEnd
  0
BLOCK
  5
106
330
105
100
AcDbEntity
  8
0
100
AcDbBlockBegin
  2
_D_2
 70
     0
 10
0.0
 20
0.0
 30
0.0
  3
_D_2
  1
_D_2
  0
LINE
  5
108
330
105
100
AcDbEntity
  8
치수문자_일반주서
 62
     0
370
    -2
100
AcDbLine
 10
57.15000000000001
 20
7.200212211296765
 30
0.0
 11
57.15000000000001
 21
22.93749999999999
 31
0.0
  0
LINE
  5
109
330
105
100
AcDbEntity
  8
치수문자_일반주서
 62
     0
370
    -2
100
AcDbLine
 10
28.57500000000001
 20
6.292571978112364
 30
0.0
 11
28.57500000000001
 21
22.93749999999999
 31
0.0
  0
LINE
  5
10A
330
105
100
AcDbEntity
  8
치수문자_일반주서
 62
     0
370
    -2
100
AcDbLine
 10
53.84800000000001
 20
22.93749999999999
 30
0.0
 11
31.87700000000001
 21
22.93749999999999
 31
0.0
  0
SOLID
  5
10B
330
105
100
AcDbEntity
  8
치수문자_일반주서
 62
     0
100
AcDbTrace
 10
53.84800000000001
 20
22.38716666666666
 30
0.0
 11
53.84800000000001
 21
23.48783333333333
 31
0.0
 12
57.15000000000001
 22
22.93749999999999
 32
0.0
 13
57.15000000000001
 23
22.93749999999999
 33
0.0
  0
SOLID
  5
10C
330
105
100
AcDbEntity
  8
치수문자_일반주서
 62
     0
100
AcDbTrace
 10
31.87700000000001
 20
23.48783333333333
 30
0.0
 11
31.87700000000001
 21
22.38716666666666
 31
0.0
 12
28.57500000000001
 22
22.93749999999999
 32
0.0
 13
28.57500000000001
 23
22.93749999999999
 33
0.0
  0
MTEXT
  5
10D
330
105
100
AcDbEntity
  8
치수문자_일반주서
 62
     0
100
AcDbMText
 10
42.86250000000001
 20
27.31249999999999
 30
0.0
 40
3.5
 41
0.0
 71
     2
 72
     1
  1
\A1;28.58 [1 1/8]
  7
SLDTEXTSTYLE0
 73
     1
 44
1.0
  0
POINT
  5
10E
330
105
100
AcDbEntity
  8
Defpoints
 62
     0
100
AcDbPoint
 10
57.15000000000001
 20
7.137712211296765
 30
0.0
  0
POINT
  5
10F
330
105
100
AcDbEntity
  8
Defpoints
 62
     0
100
AcDbPoint
 10
28.57500000000001
 20
6.230071978112364
 30
0.0
  0
POINT
  5
110
330
105
100
AcDbEntity
  8
Defpoints
 62
     0
100
AcDbPoint
 10
28.57500000000001
 20
22.93749999999999
 30
0.0
  0
ENDBLK
  5
107
330
105
100
AcDbEntity
  8
0
100
AcDbBlockEnd
  0
BLOCK
  5
11B
330
11A
100
AcDbEntity
  8
0
100
AcDbBlockBegin
  2
_D_3
 70
     0
 10
0.0
 20
0.0
 30
0.0
  3
_D_3
  1
_D_3
  0
LINE
  5
11D
330
11A
100
AcDbEntity
  8
치수문자_일반주서
 62
     0
370
    -2
100
AcDbLine
 10
-57.15000000000003
 20
7.200212211296828
 30
0.0
 11
-57.15000000000003
 21
37.93749999999999
 31
0.0
  0
LINE
  5
11E
330
11A
100
AcDbEntity
  8
치수문자_일반주서
 62
     0
370
    -2
100
AcDbLine
 10
57.15000000000001
 20
7.200212211296765
 30
0.0
 11
57.15000000000002
 21
37.93749999999999
 31
0.0
  0
LINE
  5
11F
330
11A
100
AcDbEntity
  8
치수문자_일반주서
 62
     0
370
    -2
100
AcDbLine
 10
-53.84800000000003
 20
37.93749999999999
 30
0.0
 11
53.84800000000002
 21
37.93749999999999
 31
0.0
  0
SOLID
  5
120
330
11A
100
AcDbEntity
  8
치수문자_일반주서
 62
     0
100
AcDbTrace
 10
-53.84800000000003
 20
38.48783333333333
 30
0.0
 11
-53.84800000000003
 21
37.38716666666666
 31
0.0
 12
-57.15000000000003
 22
37.93749999999999
 32
0.0
 13
-57.15000000000003
 23
37.93749999999999
 33
0.0
  0
SOLID
  5
121
330
11A
100
AcDbEntity
  8
치수문자_일반주서
 62
     0
100
AcDbTrace
 10
53.84800000000002
 20
37.38716666666666
 30
0.0
 11
53.84800000000002
 21
38.48783333333333
 31
0.0
 12
57.15000000000002
 22
37.93749999999999
 32
0.0
 13
57.15000000000002
 23
37.93749999999999
 33
0.0
  0
MTEXT
  5
122
330
11A
100
AcDbEntity
  8
치수문자_일반주서
 62
     0
100
AcDbMText
 10
0.0000000000000142
 20
42.31249999999999
 30
0.0
 40
3.5
 41
0.0
 71
     2
 72
     1
  1
\A1;114.3 [4 1/2]
  7
SLDTEXTSTYLE0
 73
     1
 44
1.0
  0
POINT
  5
123
330
11A
100
AcDbEntity
  8
Defpoints
 62
     0
100
AcDbPoint
 10
-57.15000000000003
 20
7.137712211296828
 30
0.0
  0
POINT
  5
124
330
11A
100
AcDbEntity
  8
Defpoints
 62
     0
100
AcDbPoint
 10
57.15000000000001
 20
7.137712211296765
 30
0.0
  0
POINT
  5
125
330
11A
100
AcDbEntity
  8
Defpoints
 62
     0
100
AcDbPoint
 10
57.15000000000001
 20
37.93749999999999
 30
0.0
  0
ENDBLK
  5
11C
330
11A
100
AcDbEntity
  8
0
100
AcDbBlockEnd
  0
BLOCK
  5
134
330
133
100
AcDbEntity
  8
0
100
AcDbBlockBegin
  2
SW_DOWELSYMBOL_0
 70
     0
 10
0.0
 20
0.0
 30
0.0
  3
SW_DOWELSYMBOL_0
  1
SW_DOWELSYMBOL_0
  0
CIRCLE
  5
136
330
133
100
AcDbEntity
  8
해칭선
 62
     0
100
AcDbCircle
 10
0.0
 20
0.0
 30
0.0
 40
3.000000000000001
  0
HATCH
  5
137
330
133
100
AcDbEntity
  8
0
  6
Continuous
 62
     0
370
     0
100
AcDbHatch
 10
0.0
 20
0.0
 30
0.0
210
0.0
220
0.0
230
1.0
  2
SOLID
 70
     1
 71
     0
 91
        1
 92
        0
 93
        3
 72
     2
 10
0.0
 20
0.0
 40
3.000000000000001
 50
0.0
 51
90.0
 73
     1
 72
     1
 10
0.0
 20
3.000000000000001
 11
0.0
 21
0.0
 72
     1
 10
0.0
 20
0.0
 11
3.000000000000001
 21
0.0
 97
        0
 75
     0
 76
     1
 98
        1
 10
0.0
 20
0.0
  0
HATCH
  5
138
330
133
100
AcDbEntity
  8
0
  6
Continuous
 62
     0
370
     0
100
AcDbHatch
 10
0.0
 20
0.0
 30
0.0
210
0.0
220
0.0
230
1.0
  2
SOLID
 70
     1
 71
     0
 91
        1
 92
        0
 93
        3
 72
     2
 10
0.0
 20
0.0
 40
3.000000000000001
 50
180.0
 51
270.0000000000007
 73
     1
 72
     1
 10
0.0
 20
-3.000000000000001
 11
0.0
 21
0.0
 72
     1
 10
0.0
 20
0.0
 11
-3.000000000000001
 21
0.0
 97
        0
 75
     0
 76
     1
 98
        1
 10
0.0
 20
0.0
  0
ENDBLK
  5
135
330
133
100
AcDbEntity
  8
0
100
AcDbBlockEnd
  0
BLOCK
  5
19A
330
199
100
AcDbEntity
  8
0
100
AcDbBlockBegin
  2
*D7
 70
     1
 10
0.0
 20
0.0
 30
0.0
  3
*D7
  1
*D7
  0
LINE
  5
19C
330
199
100
AcDbEntity
  8
치수문자_일반주서
 62
     0
370
    -2
100
AcDbLine
 10
63.89369999999997
 20
4.916654502396817
 30
0.0
 11
63.89369999999997
 21
21.05048185839431
 31
0.0
  0
LINE
  5
19D
330
199
100
AcDbEntity
  8
치수문자_일반주서
 62
     0
370
    -2
100
AcDbLine
 10
35.31869999999997
 20
4.452342659504531
 30
0.0
 11
35.31869999999997
 21
21.05048185839431
 31
0.0
  0
LINE
  5
19E
330
199
100
AcDbEntity
  8
치수문자_일반주서
 62
     0
370
    -2
100
AcDbLine
 10
60.59169999999997
 20
21.05048185839431
 30
0.0
 11
38.62069999999997
 21
21.05048185839431
 31
0.0
  0
SOLID
  5
19F
330
199
100
AcDbEntity
  8
치수문자_일반주서
 62
     0
100
AcDbTrace
 10
60.59169999999997
 20
20.50014852506097
 30
0.0
 11
60.59169999999997
 21
21.60081519172764
 31
0.0
 12
63.89369999999997
 22
21.05048185839431
 32
0.0
 13
63.89369999999997
 23
21.05048185839431
 33
0.0
  0
SOLID
  5
1A0
330
199
100
AcDbEntity
  8
치수문자_일반주서
 62
     0
100
AcDbTrace
 10
38.62069999999997
 20
21.60081519172764
 30
0.0
 11
38.62069999999997
 21
20.50014852506097
 31
0.0
 12
35.31869999999997
 22
21.05048185839431
 32
0.0
 13
35.31869999999997
 23
21.05048185839431
 33
0.0
  0
MTEXT
  5
1A1
330
199
100
AcDbEntity
  8
치수문자_일반주서
 62
     0
100
AcDbMText
 10
49.60619999999997
 20
25.42548185839431
 30
0.0
 40
3.5
 41
0.0
 71
     2
 72
     1
  1
\A1;28.58 [1 1/8]
  7
SLDTEXTSTYLE0
 73
     1
 44
1.0
  0
POINT
  5
1A2
330
199
100
AcDbEntity
  8
Defpoints
 62
     0
100
AcDbPoint
 10
63.89369999999997
 20
4.854154502396817
 30
0.0
  0
POINT
  5
1A3
330
199
100
AcDbEntity
  8
Defpoints
 62
     0
100
AcDbPoint
 10
35.31869999999997
 20
4.389842659504531
 30
0.0
  0
POINT
  5
1A4
330
199
100
AcDbEntity
  8
Defpoints
 62
     0
100
AcDbPoint
 10
35.31869999999997
 20
21.05048185839431
 30
0.0
  0
ENDBLK
  5
19B
330
199
100
AcDbEntity
  8
0
100
AcDbBlockEnd
  0
BLOCK
  5
1AC
330
1AB
100
AcDbEntity
  8
0
100
AcDbBlockBegin
  2
*D8
 70
     1
 10
0.0
 20
0.0
 30
0.0
  3
*D8
  1
*D8
  0
LINE
  5
1AE
330
1AB
100
AcDbEntity
  8
치수문자_일반주서
 62
     0
370
    -2
100
AcDbLine
 10
108.7796317519906
 20
-26.83934855012462
 30
0.0
 11
108.7796317519906
 21
-10.70552119412713
 31
0.0
  0
LINE
  5
1AF
330
1AB
100
AcDbEntity
  8
치수문자_일반주서
 62
     0
370
    -2
100
AcDbLine
 10
80.2046317519906
 20
-27.30366039301691
 30
0.0
 11
80.2046317519906
 21
-10.70552119412713
 31
0.0
  0
LINE
  5
1B0
330
1AB
100
AcDbEntity
  8
치수문자_일반주서
 62
     0
370
    -2
100
AcDbLine
 10
105.4776317519906
 20
-10.70552119412713
 30
0.0
 11
83.5066317519906
 21
-10.70552119412713
 31
0.0
  0
SOLID
  5
1B1
330
1AB
100
AcDbEntity
  8
치수문자_일반주서
 62
     0
100
AcDbTrace
 10
105.4776317519906
 20
-11.25585452746046
 30
0.0
 11
105.4776317519906
 21
-10.1551878607938
 31
0.0
 12
108.7796317519906
 22
-10.70552119412713
 32
0.0
 13
108.7796317519906
 23
-10.70552119412713
 33
0.0
  0
SOLID
  5
1B2
330
1AB
100
AcDbEntity
  8
치수문자_일반주서
 62
     0
100
AcDbTrace
 10
83.5066317519906
 20
-10.1551878607938
 30
0.0
 11
83.5066317519906
 21
-11.25585452746046
 31
0.0
 12
80.2046317519906
 22
-10.70552119412713
 32
0.0
 13
80.2046317519906
 23
-10.70552119412713
 33
0.0
  0
MTEXT
  5
1B3
330
1AB
100
AcDbEntity
  8
치수문자_일반주서
 62
     0
100
AcDbMText
 10
94.4921317519906
 20
-6.33052119412713
 30
0.0
 40
3.5
 41
0.0
 71
     2
 72
     1
  1
\A1;28.58 [1 1/8]
  7
SLDTEXTSTYLE0
 73
     1
 44
1.0
  0
POINT
  5
1B4
330
1AB
100
AcDbEntity
  8
Defpoints
 62
     0
100
AcDbPoint
 10
108.7796317519906
 20
-26.90184855012462
 30
0.0
  0
POINT
  5
1B5
330
1AB
100
AcDbEntity
  8
Defpoints
 62
     0
100
AcDbPoint
 10
80.2046317519906
 20
-27.36616039301691
 30
0.0
  0
POINT
  5
1B6
330
1AB
100
AcDbEntity
  8
Defpoints
 62
     0
100
AcDbPoint
 10
80.2046317519906
 20
-10.70552119412713
 30
0.0
  0
ENDBLK
  5
1AD
330
1AB
100
AcDbEntity
  8
0
100
AcDbBlockEnd
  0
ENDSEC
  0
SECTION
  2
ENTITIES
  0
LINE
  5
96
330
1F
100
AcDbEntity
  8
외형선
  6
Continuous
370
    15
100
AcDbLine
 10
24.61268467149222
 20
7.937499999999994
 30
0.0
 11
6.743699999999887
 21
7.937499999999993
 31
0.0
  0
LINE
  5
97
330
1F
100
AcDbEntity
  8
외형선
  6
Continuous
370
    15
100
AcDbLine
 10
-24.61268467149227
 20
-7.937500000000003
 30
0.0
 11
24.61268467149223
 21
-7.937499999999999
 31
0.0
  0
LINE
  5
98
330
1F
100
AcDbEntity
  8
외형선
  6
Continuous
370
    15
100
AcDbLine
 10
24.61268467149223
 20
-7.937500000000003
 30
0.0
 11
25.52501787603526
 21
-7.693041054614596
 31
0.0
  0
LINE
  5
99
330
1F
100
AcDbEntity
  8
외형선
  6
Continuous
370
    15
100
AcDbLine
 10
25.52501787603526
 20
7.69304105461459
 30
0.0
 11
24.61268467149222
 21
7.937499999999997
 31
0.0
  0
SPLINE
  5
9C
330
1F
100
AcDbEntity
  8
외형선
  6
Continuous
370
    15
100
AcDbSpline
210
0.0
220
0.0
230
1.0
 70
     8
 71
     3
 72
     9
 73
     5
 74
     0
 42
0.000000001
 43
0.00000001
 40
0.0
 40
0.0
 40
0.0
 40
0.0
 40
0.5384085975934892
 40
1.0
 40
1.0
 40
1.0
 40
1.0
 10
25.90979841506388
 20
-5.904433962494388
 30
0.0
 10
26.38493835658479
 20
-5.862569725310599
 30
0.0
 10
27.26742787039388
 20
-5.784814211429678
 30
0.0
 10
28.16205007975637
 20
-5.727410436573924
 30
0.0
 10
28.57500000000001
 20
-5.70091334763483
 30
0.0
  0
SPLINE
  5
9D
330
1F
100
AcDbEntity
  8
0
  6
Continuous
 62
     1
370
    15
100
AcDbSpline
210
0.0
220
0.0
230
1.0
 70
     8
 71
     3
 72
     9
 73
     5
 74
     0
 42
0.000000001
 43
0.00000001
 40
0.0
 40
0.0
 40
0.0
 40
0.0
 40
0.4618479333448766
 40
1.0
 40
1.0
 40
1.0
 40
1.0
 10
38.64163738790334
 20
1.830606569689188
 30
0.0
 10
38.33709620824865
 20
1.975665503970815
 30
0.0
 10
37.67769912607682
 20
2.289749261434135
 30
0.0
 10
37.01665573132058
 20
2.635629400112602
 30
0.0
 10
36.66091386228378
 20
2.821765511557381
 30
0.0
1001
PE_URL
1000

  0
LINE
  5
9E
330
1F
100
AcDbEntity
  8
0
  6
Continuous
 62
     1
370
    15
100
AcDbLine
 10
34.70403212451809
 20
2.004832627212902
 30
0.0
 11
34.6152789173816
 21
2.053785638955162
 31
0.0
1001
PE_URL
1000

  0
SPLINE
  5
9F
330
1F
100
AcDbEntity
  8
0
  6
Continuous
 62
     1
370
    15
100
AcDbSpline
210
0.0
220
0.0
230
1.0
 70
     8
 71
     3
 72
    17
 73
    13
 74
     0
 42
0.000000001
 43
0.00000001
 40
0.0
 40
0.0
 40
0.0
 40
0.0
 40
0.1351167658786378
 40
0.2373095902791898
 40
0.3201398479556368
 40
0.4200032147300194
 40
0.5328108998696957
 40
0.6409535473700562
 40
0.7547010763612694
 40
0.8572892620088068
 40
0.9532161240982899
 40
0.9999999999999999
 40
0.9999999999999999
 40
0.9999999999999999
 40
0.9999999999999999
 10
36.28026228930077
 20
5.676694269017381
 30
0.0
 10
36.01918937608454
 20
5.663548614831611
 30
0.0
 10
35.56065926203499
 20
5.640460511823141
 30
0.0
 10
34.93505640487319
 20
5.617017405854573
 30
0.0
 10
34.37066178211397
 20
5.600363237704019
 30
0.0
 10
33.79095233581757
 20
5.587748682760753
 30
0.0
 10
33.16257603920396
 20
5.579844933184049
 30
0.0
 10
32.49890011428371
 20
5.577899017998045
 30
0.0
 10
31.84879691114465
 20
5.580291348662932
 30
0.0
 10
31.24972931944342
 20
5.592036803727616
 30
0.0
 10
30.7989819291815
 20
5.603575886390638
 30
0.0
 10
30.52036497822153
 20
5.612453926894206
 30
0.0
 10
30.42902790687495
 20
5.615364353614827
 30
0.0
1001
PE_URL
1000

  0
SPLINE
  5
A0
330
1F
100
AcDbEntity
  8
0
  6
Continuous
 62
     1
370
    15
100
AcDbSpline
210
0.0
220
0.0
230
1.0
 70
     8
 71
     3
 72
    27
 73
    23
 74
     0
 42
0.000000001
 43
0.00000001
 40
0.0
 40
0.0
 40
0.0
 40
0.0
 40
0.0660649185158597
 40
0.1161607285526873
 40
0.150051210377667
 40
0.1806724625223691
 40
0.2193863119978746
 40
0.2652009600995991
 40
0.3078257245667231
 40
0.3716582029716755
 40
0.4256186365996252
 40
0.4793761179438289
 40
0.5329424826368027
 40
0.5927696782637072
 40
0.6566950123830867
 40
0.710537269738166
 40
0.7403873230998884
 40
0.7678494102513398
 40
0.795674539347871
 40
0.8419700286826806
 40
0.910224685180662
 40
1.0
 40
1.0
 40
1.0
 40
1.0
 10
54.49598727455986
 20
4.885985256302626
 30
0.0
 10
54.22220922876995
 20
4.86366141649899
 30
0.0
 10
53.74083033699014
 20
4.824409820433508
 30
0.0
 10
53.11873797055415
 20
4.785300284302911
 30
0.0
 10
52.64009476497795
 20
4.759762119064171
 30
0.0
 10
52.20738131170662
 20
4.740255388662288
 30
0.0
 10
51.72737412026775
 20
4.722878563365652
 30
0.0
 10
51.19831520132085
 20
4.709497361997884
 30
0.0
 10
50.56503520858709
 20
4.700635138544469
 30
0.0
 10
49.89811880234907
 20
4.70040275971096
 30
0.0
 10
49.1846838431851
 20
4.711010414861716
 30
0.0
 10
48.51328520417417
 20
4.730218090465741
 30
0.0
 10
47.81832700833336
 20
4.759554755388571
 30
0.0
 10
47.07790729421723
 20
4.80164834430485
 30
0.0
 10
46.33222410852485
 20
4.85529921681617
 30
0.0
 10
45.71832917406313
 20
4.908465556880671
 30
0.0
 10
45.26329151402494
 20
4.952499700587369
 30
0.0
 10
44.91370100639747
 20
4.988711708247978
 30
0.0
 10
44.49573813636997
 20
5.034544438108739
 30
0.0
 10
43.9037845792194
 20
5.104509467525712
 30
0.0
 10
43.05253241724514
 20
5.215061506396404
 30
0.0
 10
42.39193649575286
 20
5.315817539464254
 30
0.0
 10
42.01665827272986
 20
5.373056077908655
 30
0.0
1001
PE_URL
1000

  0
SPLINE
  5
A1
330
1F
100
AcDbEntity
  8
0
  6
Continuous
 62
     1
370
    15
100
AcDbSpline
210
0.0
220
0.0
230
1.0
 70
     8
 71
     3
 72
    17
 73
    13
 74
     0
 42
0.000000001
 43
0.00000001
 40
0.0
 40
0.0
 40
0.0
 40
0.0
 40
0.1480578940337717
 40
0.2633457521444992
 40
0.3455627769784039
 40
0.4212339981006367
 40
0.5139968422232436
 40
0.6212462732659018
 40
0.7195596268116587
 40
0.8625119795340388
 40
0.9857939557634864
 40
1.0
 40
1.0
 40
1.0
 40
1.0
 10
42.01665827272986
 20
-5.373056077908661
 30
0.0
 10
42.27752189444276
 20
-5.332858256596292
 30
0.0
 10
42.7415115190112
 20
-5.261359701540107
 30
0.0
 10
43.35152738467453
 20
-5.176801753527728
 30
0.0
 10
43.83846870346494
 20
-5.113629535859308
 30
0.0
 10
44.28712289256166
 20
-5.058873772638059
 30
0.0
 10
44.77741324934249
 20
-5.002916318905999
 30
0.0
 10
45.30620021399847
 20
-4.947677471112438
 30
0.0
 10
45.92372060715813
 20
-4.889660919127998
 30
0.0
 10
46.57059691546701
 20
-4.837935889534985
 30
0.0
 10
47.0653533820774
 20
-4.802568778344628
 30
0.0
 10
47.30851828086678
 20
-4.789551985104143
 30
0.0
 10
47.33364346120803
 20
-4.788207015993632
 30
0.0
1001
PE_URL
1000

  0
SPLINE
  5
A2
330
1F
100
AcDbEntity
  8
0
  6
Continuous
 62
     1
370
    15
100
AcDbSpline
210
0.0
220
0.0
230
1.0
 70
     8
 71
     3
 72
    19
 73
    15
 74
     0
 42
0.000000001
 43
0.00000001
 40
0.0
 40
0.0
 40
0.0
 40
0.0
 40
0.1258407222974049
 40
0.212725443717646
 40
0.2680467333710977
 40
0.3220510126301405
 40
0.4120443681986885
 40
0.5129008617407816
 40
0.5950849617003423
 40
0.6808143042494513
 40
0.7567064809899627
 40
0.8196541740038094
 40
0.8973166456541066
 40
1.0
 40
1.0
 40
1.0
 40
1.0
 10
28.57500000000001
 20
-5.700913347634832
 30
0.0
 10
28.89916321105347
 20
-5.682911497963956
 30
0.0
 10
29.44713974559143
 20
-5.652480558049882
 30
0.0
 10
30.13640577607622
 20
-5.624828573860218
 30
0.0
 10
30.64294321196942
 20
-5.608141563274483
 30
0.0
 10
31.13820691591059
 20
-5.594954690312675
 30
0.0
 10
31.73724260932934
 20
-5.581133215476936
 30
0.0
 10
32.46209793377454
 20
-5.577723812309832
 30
0.0
 10
33.16236896795916
 20
-5.579861650699426
 30
0.0
 10
33.79100195546108
 20
-5.587744676810273
 30
0.0
 10
34.37065164777196
 20
-5.600364055881451
 30
0.0
 10
34.93505952921307
 20
-5.617017153616753
 30
0.0
 10
35.56065809171582
 20
-5.640460606306711
 30
0.0
 10
36.01918895149123
 20
-5.663548649110377
 30
0.0
 10
36.28026228930077
 20
-5.676694269017387
 30
0.0
1001
PE_URL
1000

  0
LINE
  5
A3
330
1F
100
AcDbEntity
  8
외형선
  6
Continuous
370
    15
100
AcDbLine
 10
24.61268467149222
 20
7.937499999999997
 30
0.0
 11
24.61268467149223
 21
-7.937500000000012
 31
0.0
  0
SPLINE
  5
A5
330
1F
100
AcDbEntity
  8
외형선
  6
Continuous
370
    15
100
AcDbSpline
210
0.0
220
0.0
230
1.0
 70
     8
 71
     3
 72
     8
 73
     4
 74
     0
 42
0.000000001
 43
0.00000001
 40
0.0
 40
0.0
 40
0.0
 40
0.0
 40
1.0
 40
1.0
 40
1.0
 40
1.0
 10
27.57500000000001
 20
6.492296534440822
 30
0.0
 10
26.8879415310159
 20
6.792152694514631
 30
0.0
 10
26.20472711458817
 20
7.079615087608717
 30
0.0
 10
25.52503656243739
 20
7.352097475592036
 30
0.0
  0
LINE
  5
A6
330
1F
100
AcDbEntity
  8
외형선
  6
Continuous
370
    15
100
AcDbLine
 10
27.57500000000001
 20
6.49229653444082
 30
0.0
 11
27.57500000000001
 21
5.416632494133756
 31
0.0
  0
SPLINE
  5
A7
330
1F
100
AcDbEntity
  8
외형선
  6
Continuous
370
    15
100
AcDbSpline
210
0.0
220
0.0
230
1.0
 70
     8
 71
     3
 72
     8
 73
     4
 74
     0
 42
0.000000001
 43
0.00000001
 40
0.0
 40
0.0
 40
0.0
 40
0.0
 40
1.0
 40
1.0
 40
1.0
 40
1.0
 10
25.52501787603527
 20
6.459356475856183
 30
0.0
 10
26.20965476747031
 20
6.123991735471636
 30
0.0
 10
26.8927874385857
 20
5.776376563886908
 30
0.0
 10
27.57499999999982
 20
5.416632494133859
 30
0.0
  0
LINE
  5
A8
330
1F
100
AcDbEntity
  8
외형선
  6
Continuous
370
    15
100
AcDbLine
 10
25.52501787603526
 20
-7.693041054614596
 30
0.0
 11
25.52501787603527
 21
6.459395184567572
 31
0.0
  0
SPLINE
  5
A9
330
1F
100
AcDbEntity
  8
외형선
  6
Continuous
370
    15
100
AcDbSpline
210
0.0
220
0.0
230
1.0
 70
     8
 71
     3
 72
     8
 73
     4
 74
     0
 42
0.000000001
 43
0.00000001
 40
0.0
 40
0.0
 40
0.0
 40
0.0
 40
1.0
 40
1.0
 40
1.0
 40
1.0
 10
27.57500000000001
 20
-6.492296534440827
 30
0.0
 10
26.8879415310159
 20
-6.792152694514638
 30
0.0
 10
26.20472711458817
 20
-7.079615087608722
 30
0.0
 10
25.52503656243739
 20
-7.352097475592039
 30
0.0
  0
LINE
  5
AA
330
1F
100
AcDbEntity
  8
외형선
  6
Continuous
370
    15
100
AcDbLine
 10
25.52501787603527
 20
7.352113240354123
 30
0.0
 11
25.52501787603526
 21
7.69304105461459
 31
0.0
  0
SPLINE
  5
AC
330
1F
100
AcDbEntity
  8
외형선
  6
Continuous
370
    15
100
AcDbSpline
210
0.0
220
0.0
230
1.0
 70
    24
 71
     3
 72
    10
 73
     6
 74
     0
 42
0.000000001
 43
0.00000001
 40
0.0
 40
0.0
 40
0.0
 40
0.0
 40
0.5
 40
0.5
 40
1.0
 40
1.0
 40
1.0
 40
1.0
 10
28.57500000000001
 20
5.022334373446451
 30
0.0
 10
28.57500000000001
 20
4.849171584610412
 30
0.0
 10
28.575
 20
4.60611320380951
 30
0.0
 10
28.57500000000001
 20
4.030565752963565
 30
0.0
 10
28.575
 20
3.699962059803914
 30
0.0
 10
28.57500000000001
 20
3.366483569005434
 30
0.0
  0
SPLINE
  5
AD
330
1F
100
AcDbEntity
  8
외형선
  6
Continuous
370
    15
100
AcDbSpline
210
0.0
220
0.0
230
1.0
 70
     8
 71
     3
 72
    10
 73
     6
 74
     0
 42
0.000000001
 43
0.00000001
 40
0.0
 40
0.0
 40
0.0
 40
0.0
 40
0.5
 40
0.5
 40
1.0
 40
1.0
 40
1.0
 40
1.0
 10
28.57500000000001
 20
3.366483569005432
 30
0.0
 10
28.0662321670169
 20
3.518482179554512
 30
0.0
 10
27.56068305495569
 20
3.661644476729152
 30
0.0
 10
26.54149717743759
 20
3.92945381564175
 30
0.0
 10
26.03136742560143
 20
4.05374281202154
 30
0.0
 10
25.52502238124244
 20
4.16718798061937
 30
0.0
  0
SPLINE
  5
AE
330
1F
100
AcDbEntity
  8
외형선
  6
Continuous
370
    15
100
AcDbSpline
210
0.0
220
0.0
230
1.0
 70
     8
 71
     3
 72
     8
 73
     4
 74
     0
 42
0.000000001
 43
0.00000001
 40
0.0
 40
0.0
 40
0.0
 40
0.0
 40
1.0
 40
1.0
 40
1.0
 40
1.0
 10
28.57500000000001
 20
5.02233437344645
 30
0.0
 10
28.24078474481551
 20
5.159517915907629
 30
0.0
 10
27.90884575855605
 20
5.290909113716682
 30
0.0
 10
27.57499999999955
 20
5.41663249413393
 30
0.0
  0
SPLINE
  5
AF
330
1F
100
AcDbEntity
  8
외형선
  6
Continuous
370
    15
100
AcDbSpline
210
0.0
220
0.0
230
1.0
 70
    24
 71
     3
 72
    14
 73
    10
 74
     0
 42
0.000000001
 43
0.00000001
 40
0.0
 40
0.0
 40
0.0
 40
0.0
 40
0.2499999999999999
 40
0.2499999999999999
 40
0.4999999999999999
 40
0.4999999999999999
 40
0.7499999999999999
 40
0.7499999999999999
 40
1.0
 40
1.0
 40
1.0
 40
1.0
 10
28.57500000000001
 20
3.366483569005432
 30
0.0
 10
28.575
 20
2.818569705538211
 30
0.0
 10
28.57500000000001
 20
2.214249245718016
 30
0.0
 10
28.57500000000001
 20
0.9368444510906481
 30
0.0
 10
28.57500000000001
 20
0.2642473970797016
 30
0.0
 10
28.57500000000001
 20
-1.085147145791303
 30
0.0
 10
28.57500000000001
 20
-1.761225620823135
 30
0.0
 10
28.57500000000001
 20
-3.05189575440971
 30
0.0
 10
28.575
 20
-3.665981500283891
 30
0.0
 10
28.57500000000001
 20
-4.225951121768994
 30
0.0
  0
SPLINE
  5
B0
330
1F
100
AcDbEntity
  8
외형선
  6
Continuous
370
    15
100
AcDbSpline
210
0.0
220
0.0
230
1.0
 70
     8
 71
     3
 72
    10
 73
     6
 74
     0
 42
0.000000001
 43
0.00000001
 40
0.0
 40
0.0
 40
0.0
 40
0.0
 40
0.5
 40
0.5
 40
1.0
 40
1.0
 40
1.0
 40
1.0
 10
28.57500000000001
 20
-4.225951121768996
 30
0.0
 10
28.06623255601112
 20
-4.067798932040584
 30
0.0
 10
27.56068383263553
 20
-3.899289032059635
 30
0.0
 10
26.54149873750828
 20
-3.54247837743441
 30
0.0
 10
26.03136934772205
 20
-3.354542252834924
 30
0.0
 10
25.52502470409327
 20
-3.15908518140103
 30
0.0
  0
SPLINE
  5
B1
330
1F
100
AcDbEntity
  8
외형선
  6
Continuous
370
    15
100
AcDbSpline
210
0.0
220
0.0
230
1.0
 70
     8
 71
     3
 72
     8
 73
     4
 74
     0
 42
0.000000001
 43
0.00000001
 40
0.0
 40
0.0
 40
0.0
 40
0.0
 40
1.0
 40
1.0
 40
1.0
 40
1.0
 10
28.57500000000869
 20
6.230071978109914
 30
0.0
 10
28.24078474482143
 20
6.324464606139518
 30
0.0
 10
27.90884575855925
 20
6.411844022058241
 30
0.0
 10
27.575
 20
6.492296534440822
 30
0.0
  0
LINE
  5
B2
330
1F
100
AcDbEntity
  8
외형선
  6
Continuous
370
    15
100
AcDbLine
 10
28.57500000000001
 20
6.230071978112364
 30
0.0
 11
28.575
 21
5.022334373446448
 31
0.0
  0
LINE
  5
B3
330
1F
100
AcDbEntity
  8
외형선
  6
Continuous
370
    15
100
AcDbLine
 10
25.91233406786215
 20
-5.895789070069966
 30
0.0
 11
25.52503656243739
 21
-5.945729479638925
 31
0.0
  0
SPLINE
  5
B4
330
1F
100
AcDbEntity
  8
외형선
  6
Continuous
370
    15
100
AcDbSpline
210
0.0
220
0.0
230
1.0
 70
    24
 71
     3
 72
    12
 73
     8
 74
     0
 42
0.000000001
 43
0.00000001
 40
0.0
 40
0.0
 40
0.0
 40
0.0
 40
0.1822866803394803
 40
0.3645733606789607
 40
0.631170094381591
 40
0.9054981514221435
 40
1.0
 40
1.0
 40
1.0
 40
1.0
 10
28.57500000000001
 20
-4.225951121768996
 30
0.0
 10
28.57500000000001
 20
-4.391403447294892
 30
0.0
 10
28.57500000000001
 20
-4.722308098346683
 30
0.0
 10
28.57500000000001
 20
-5.170214825999875
 30
0.0
 10
28.57500000000001
 20
-5.527031975842586
 30
0.0
 10
28.575
 20
-5.706008981584164
 30
0.0
 10
28.575
 20
-5.685153756219852
 30
0.0
 10
28.57500000000001
 20
-5.67981021623187
 30
0.0
  0
SPLINE
  5
B5
330
1F
100
AcDbEntity
  8
외형선
  6
Continuous
370
    15
100
AcDbSpline
210
0.0
220
0.0
230
1.0
 70
     8
 71
     3
 72
     8
 73
     4
 74
     0
 42
0.000000001
 43
0.00000001
 40
0.0
 40
0.0
 40
0.0
 40
0.0
 40
1.0
 40
1.0
 40
1.0
 40
1.0
 10
28.57500000000869
 20
-6.230071978109919
 30
0.0
 10
28.24078474482143
 20
-6.324464606139523
 30
0.0
 10
27.90884575855925
 20
-6.411844022058247
 30
0.0
 10
27.575
 20
-6.492296534440827
 30
0.0
  0
SPLINE
  5
B6
330
1F
100
AcDbEntity
  8
외형선
  6
Continuous
370
    15
100
AcDbSpline
210
0.0
220
0.0
230
1.0
 70
    24
 71
     3
 72
    10
 73
     6
 74
     0
 42
0.000000001
 43
0.00000001
 40
0.0
 40
0.0
 40
0.0
 40
0.0
 40
0.1878847306465266
 40
0.791029668141389
 40
0.9999999999999999
 40
0.9999999999999999
 40
0.9999999999999999
 40
0.9999999999999999
 10
28.57500000000001
 20
-5.700913347634832
 30
0.0
 10
28.57500000000001
 20
-5.736749142499439
 30
0.0
 10
28.575
 20
-5.88762450539769
 30
0.0
 10
28.57500000000001
 20
-6.060954526227357
 30
0.0
 10
28.57500000000001
 20
-6.19546123635347
 30
0.0
 10
28.57500000000001
 20
-6.230071978095391
 30
0.0
  0
SPLINE
  5
B7
330
1F
100
AcDbEntity
  8
0
  6
Continuous
 62
     1
370
    15
100
AcDbSpline
210
0.0
220
0.0
230
1.0
 70
     8
 71
     3
 72
    46
 73
    42
 74
     0
 42
0.000000001
 43
0.00000001
 40
0.0
 40
0.0
 40
0.0
 40
0.0
 40
0.0625000000000003
 40
0.0625000000000003
 40
0.1250000000000006
 40
0.1250000000000006
 40
0.1562500000000006
 40
0.1562500000000006
 40
0.1875000000000006
 40
0.1875000000000006
 40
0.2500000000000004
 40
0.2500000000000004
 40
0.3125000000000002
 40
0.3125000000000002
 40
0.3750000000000001
 40
0.3750000000000001
 40
0.4062500000000001
 40
0.4062500000000001
 40
0.4375000000000001
 40
0.4375000000000001
 40
0.5000000000000001
 40
0.5000000000000001
 40
0.5312500000000001
 40
0.5312500000000001
 40
0.5625000000000001
 40
0.5625000000000001
 40
0.6249999999999999
 40
0.6249999999999999
 40
0.6874999999999998
 40
0.6874999999999998
 40
0.7499999999999997
 40
0.7499999999999997
 40
0.7812499999999997
 40
0.7812499999999997
 40
0.8124999999999998
 40
0.8124999999999998
 40
0.8749999999999998
 40
0.8749999999999998
 40
0.9374999999999999
 40
0.9374999999999999
 40
1.0
 40
1.0
 40
1.0
 40
1.0
 10
57.15000000000001
 20
-6.778996334575386
 30
0.0
 10
56.55757716559619
 20
-6.670751885732569
 30
0.0
 10
55.95883078454218
 20
-6.538540887974054
 30
0.0
 10
54.76728709946082
 20
-6.230038464580851
 30
0.0
 10
54.17514910947919
 20
-6.053951836342365
 30
0.0
 10
53.28008318038934
 20
-5.758554947388449
 30
0.0
 10
52.98163388986495
 20
-5.654980650688145
 30
0.0
 10
52.38687502645277
 20
-5.438455675280321
 30
0.0
 10
52.09113612671188
 20
-5.325590956537387
 30
0.0
 10
51.19829639717634
 20
-4.972725496711545
 30
0.0
 10
50.59933563203626
 20
-4.718820696543002
 30
0.0
 10
49.41256366504366
 20
-4.181686136542229
 30
0.0
 10
48.81595341153319
 20
-3.897168349199745
 30
0.0
 10
47.62356401525486
 20
-3.303157919990441
 30
0.0
 10
47.03188794251149
 20
-2.99441258782365
 30
0.0
 10
46.13700673203202
 20
-2.516051742305248
 30
0.0
 10
45.8384290928077
 20
-2.354219106404601
 30
0.0
 10
45.24303701904898
 20
-2.027068131175594
 30
0.0
 10
44.94723646509562
 20
-1.861942128154472
 30
0.0
 10
44.05539795939133
 20
-1.361334128987668
 30
0.0
 10
43.4563474975768
 20
-1.020850984140594
 30
0.0
 10
42.56500509850395
 20
-0.507953446728491
 30
0.0
 10
42.26903932419066
 20
-0.336619808679242
 30
0.0
 10
41.67340835503482
 20
0.0070449947852918
 30
0.0
 10
41.37479393100877
 20
0.1791741423614223
 30
0.0
 10
40.4800517869478
 20
0.6944348035843501
 30
0.0
 10
39.88845872062442
 20
1.035782969302647
 30
0.0
 10
38.69577618687924
 20
1.710740991920212
 30
0.0
 10
38.09998345060619
 20
2.04332653949707
 30
0.0
 10
36.91244374595858
 20
2.691316156217407
 30
0.0
 10
36.31342833743909
 20
3.008010844538154
 30
0.0
 10
35.42100467827744
 20
3.464688211163333
 30
0.0
 10
35.1252927864022
 20
3.613745905007482
 30
0.0
 10
34.53024152966976
 20
3.905944033714514
 30
0.0
 10
34.23172842427851
 20
4.048937690622208
 30
0.0
 10
33.33672067929622
 20
4.466899553960343
 30
0.0
 10
32.74483165155709
 20
4.730254247927777
 30
0.0
 10
31.55288731489709
 20
5.223557685706253
 30
0.0
 10
30.9551227835553
 20
5.45308541273021
 30
0.0
 10
29.76940363967736
 20
5.871613442762134
 30
0.0
 10
29.17054800997351
 20
6.061870973201132
 30
0.0
 10
28.57500000000391
 20
6.230071978111265
 30
0.0
1001
PE_URL
1000

  0
SPLINE
  5
B8
330
1F
100
AcDbEntity
  8
0
  6
Continuous
 62
     1
370
    15
100
AcDbSpline
210
0.0
220
0.0
230
1.0
 70
     8
 71
     3
 72
    15
 73
    11
 74
     0
 42
0.000000001
 43
0.00000001
 40
0.0
 40
0.0
 40
0.0
 40
0.0
 40
0.1421393728639725
 40
0.284298403770837
 40
0.4264731109759536
 40
0.5686594915982969
 40
0.7108535269898921
 40
0.8530511881508716
 40
0.99524844117453
 40
1.0
 40
1.0
 40
1.0
 40
1.0
 10
57.15000000000001
 20
-5.636220613580448
 30
0.0
 10
56.27177889745037
 20
-5.451131451593421
 30
0.0
 10
54.51521523333693
 20
-5.080927529569989
 30
0.0
 10
51.88014065106345
 20
-4.227852928799785
 30
0.0
 10
49.24473709903605
 20
-3.201738223307673
 30
0.0
 10
46.6090840057917
 20
-2.026822416647118
 30
0.0
 10
43.97326783796252
 20
-0.7584603441493126
 30
0.0
 10
41.33737629001672
 20
0.5328767006004309
 30
0.0
 10
39.55073733627461
 20
1.421294275692176
 30
0.0
 10
38.64274597688397
 20
1.829044579577881
 30
0.0
 10
38.61338626786099
 20
1.842229099620175
 30
0.0
1001
PE_URL
1000

  0
LINE
  5
B9
330
1F
100
AcDbEntity
  8
0
  6
Continuous
 62
     1
370
    15
100
AcDbLine
 10
57.15000000000001
 20
-6.778996334575388
 30
0.0
 11
57.15000000000001
 21
-5.636220613580448
 31
0.0
1001
PE_URL
1000

  0
SPLINE
  5
BA
330
1F
100
AcDbEntity
  8
0
  6
Continuous
 62
     1
370
    15
100
AcDbSpline
210
0.0
220
0.0
230
1.0
 70
     8
 71
     3
 72
    46
 73
    42
 74
     0
 42
0.000000001
 43
0.00000001
 40
0.0
 40
0.0
 40
0.0
 40
0.0
 40
0.0625
 40
0.0625
 40
0.1249999999999999
 40
0.1249999999999999
 40
0.1562499999999999
 40
0.1562499999999999
 40
0.1874999999999999
 40
0.1874999999999999
 40
0.2499999999999999
 40
0.2499999999999999
 40
0.3124999999999999
 40
0.3124999999999999
 40
0.3749999999999999
 40
0.3749999999999999
 40
0.4062499999999998
 40
0.4062499999999998
 40
0.4374999999999997
 40
0.4374999999999997
 40
0.4999999999999998
 40
0.4999999999999998
 40
0.5312499999999999
 40
0.5312499999999999
 40
0.5625
 40
0.5625
 40
0.625
 40
0.625
 40
0.6875000000000001
 40
0.6875000000000001
 40
0.7500000000000002
 40
0.7500000000000002
 40
0.7812500000000002
 40
0.7812500000000002
 40
0.8125000000000002
 40
0.8125000000000002
 40
0.8750000000000001
 40
0.8750000000000001
 40
0.9375000000000001
 40
0.9375000000000001
 40
1.0
 40
1.0
 40
1.0
 40
1.0
 10
57.15000000000001
 20
-7.137712211296767
 30
0.0
 10
56.55757716559628
 20
-7.123607355886835
 30
0.0
 10
55.95883078454239
 20
-7.084621342131979
 30
0.0
 10
54.76728709946124
 20
-6.957822898906605
 30
0.0
 10
54.17514910947968
 20
-6.870194142422394
 30
0.0
 10
53.28008318038997
 20
-6.703114777287744
 30
0.0
 10
52.98163388986566
 20
-6.641532385305674
 30
0.0
 10
52.38687502645355
 20
-6.507107692044267
 30
0.0
 10
52.09113612671271
 20
-6.434328248978453
 30
0.0
 10
51.19829639717734
 20
-6.198982902018446
 30
0.0
 10
50.59933563203735
 20
-6.019580960454809
 30
0.0
 10
49.41256366504495
 20
-5.621474983310198
 30
0.0
 10
48.81595341153459
 20
-5.401834801442658
 30
0.0
 10
47.62356401525646
 20
-4.926648917930924
 30
0.0
 10
47.03188794251318
 20
-4.67173961132505
 30
0.0
 10
46.13700673203387
 20
-4.265348121634483
 30
0.0
 10
45.83842909280958
 20
-4.126011165935472
 30
0.0
 10
45.24303701905096
 20
-3.840693779865896
 30
0.0
 10
44.94723646509765
 20
-3.694887191040956
 30
0.0
 10
44.05539795939352
 20
-3.24752043477628
 30
0.0
 10
43.4563474975791
 20
-2.936166389525357
 30
0.0
 10
42.56500509850636
 20
-2.456741047154134
 30
0.0
 10
42.26903932419314
 20
-2.29487365638362
 30
0.0
 10
41.67340835503742
 20
-1.966765441143166
 30
0.0
 10
41.37479393101141
 20
-1.800712162234724
 30
0.0
 10
40.48005178695058
 20
-1.298493192634735
 30
0.0
 10
39.8884587206273
 20
-0.9589300465234929
 30
0.0
 10
38.69577618688233
 20
-0.2737088375250845
 30
0.0
 10
38.09998345060934
 20
0.0709382341255018
 30
0.0
 10
36.91244374596197
 20
0.75658156286669
 30
0.0
 10
36.31342833744259
 20
1.098964633256875
 30
0.0
 10
35.42100467828107
 20
1.603887513519739
 30
0.0
 10
35.12529278640586
 20
1.77062015565643
 30
0.0
 10
34.53024152967355
 20
2.101404753688508
 30
0.0
 10
34.23172842428235
 20
2.265297678062275
 30
0.0
 10
33.3367206793002
 20
2.75054335927758
 30
0.0
 10
32.74483165156116
 20
3.064748609465929
 30
0.0
 10
31.55288731490137
 20
3.671174585916849
 30
0.0
 10
30.95512278355962
 20
3.962933067654962
 30
0.0
 10
29.76940363968193
 20
4.51545194461462
 30
0.0
 10
29.17054800997819
 20
4.777882977385951
 30
0.0
 10
28.57500000000869
 20
5.022334373442888
 30
0.0
1001
PE_URL
1000

  0
SPLINE
  5
BB
330
1F
100
AcDbEntity
  8
0
  6
Continuous
 62
     1
370
    15
100
AcDbSpline
210
0.0
220
0.0
230
1.0
 70
     8
 71
     3
 72
    12
 73
     8
 74
     0
 42
0.000000001
 43
0.00000001
 40
0.0
 40
0.0
 40
0.0
 40
0.0
 40
0.070317482845161
 40
0.3027420050865093
 40
0.53516426840232
 40
0.7675837680682309
 40
1.0
 40
1.0
 40
1.0
 40
1.0
 10
39.39423513781118
 20
-0.6736120213999397
 30
0.0
 10
39.14064073428846
 20
-0.5731378708040877
 30
0.0
 10
38.04882579588627
 20
-0.1405605858956961
 30
0.0
 10
36.11880031405389
 20
0.6490850820994088
 30
0.0
 10
33.60416950625483
 20
1.639540947907228
 30
0.0
 10
31.08957150513513
 20
2.57486099992374
 30
0.0
 10
29.41318657345642
 20
3.102610615981698
 30
0.0
 10
28.57500000000001
 20
3.366483569005432
 30
0.0
1001
PE_URL
1000

  0
SPLINE
  5
BC
330
1F
100
AcDbEntity
  8
외형선
  6
Continuous
370
    15
100
AcDbSpline
210
0.0
220
0.0
230
1.0
 70
    24
 71
     3
 72
    10
 73
     6
 74
     0
 42
0.000000001
 43
0.00000001
 40
0.0
 40
0.0
 40
0.0
 40
0.0
 40
0.5
 40
0.5
 40
1.0
 40
1.0
 40
1.0
 40
1.0
 10
28.57500000000001
 20
5.02233437344645
 30
0.0
 10
28.57500000000001
 20
4.84917158461041
 30
0.0
 10
28.575
 20
4.60611320380951
 30
0.0
 10
28.57500000000001
 20
4.030565752963565
 30
0.0
 10
28.575
 20
3.699962059803914
 30
0.0
 10
28.57500000000001
 20
3.366483569005434
 30
0.0
  0
LINE
  5
BD
330
1F
100
AcDbEntity
  8
0
  6
Continuous
 62
     1
370
    15
100
AcDbLine
 10
57.15000000000001
 20
-7.13771221129677
 30
0.0
 11
57.15000000000029
 21
-6.778996334575388
 31
0.0
1001
PE_URL
1000

  0
SPLINE
  5
BE
330
1F
100
AcDbEntity
  8
0
  6
Continuous
 62
     1
370
    15
100
AcDbSpline
210
0.0
220
0.0
230
1.0
 70
     8
 71
     3
 72
     8
 73
     4
 74
     0
 42
0.000000001
 43
0.00000001
 40
0.0
 40
0.0
 40
0.0
 40
0.0
 40
1.0
 40
1.0
 40
1.0
 40
1.0
 10
52.72994722123349
 20
1.998071704796523
 30
0.0
 10
52.51658074499862
 20
2.250785469221452
 30
0.0
 10
52.32191400926202
 20
2.496189156928944
 30
0.0
 10
52.15000000000654
 20
2.732698380238769
 30
0.0
1001
PE_URL
1000

  0
LINE
  5
BF
330
1F
100
AcDbEntity
  8
0
  6
Continuous
 62
     1
370
    15
100
AcDbLine
 10
52.15000000000001
 20
2.937719435296589
 30
0.0
 11
57.15000000000001
 21
0.000000000000001
 31
0.0
1001
PE_URL
1000

  0
LINE
  5
C0
330
1F
100
AcDbEntity
  8
0
  6
Continuous
 62
     1
370
    15
100
AcDbLine
 10
57.15000000000001
 20
0.000000000000001
 30
0.0
 11
57.15000000000001
 21
-1.909116795699275
 31
0.0
1001
PE_URL
1000

  0
SPLINE
  5
C1
330
1F
100
AcDbEntity
  8
0
  6
Continuous
 62
     1
370
    15
100
AcDbSpline
210
0.0
220
0.0
230
1.0
 70
     8
 71
     3
 72
    12
 73
     8
 74
     0
 42
0.000000001
 43
0.00000001
 40
0.0
 40
0.0
 40
0.0
 40
0.0
 40
0.4999999999999993
 40
0.4999999999999993
 40
0.7499999999999997
 40
0.7499999999999997
 40
1.0
 40
1.0
 40
1.0
 40
1.0
 10
57.15000000000001
 20
-1.909116795699274
 30
0.0
 10
56.38487137535719
 20
-1.307598644175224
 30
0.0
 10
55.63252478396961
 20
-0.6814219771372244
 30
0.0
 10
54.5236816627713
 20
0.2958025426214764
 30
0.0
 10
54.15739414976733
 20
0.6279620771736307
 30
0.0
 10
53.43230620664086
 20
1.306724885055623
 30
0.0
 10
53.07546970155861
 20
1.651581341364636
 30
0.0
 10
52.72994722123349
 20
1.998071704796523
 30
0.0
1001
PE_URL
1000

  0
SPLINE
  5
C2
330
1F
100
AcDbEntity
  8
0
  6
Continuous
 62
     1
370
    15
100
AcDbSpline
210
0.0
220
0.0
230
1.0
 70
     8
 71
     3
 72
    14
 73
    10
 74
     0
 42
0.000000001
 43
0.00000001
 40
0.0
 40
0.0
 40
0.0
 40
0.0
 40
0.1644216432332381
 40
0.3288092727343584
 40
0.4932237662249834
 40
0.657671362978944
 40
0.8221410691240384
 40
0.9836810353319612
 40
1.0
 40
1.0
 40
1.0
 40
1.0
 10
52.72994722123349
 20
1.998071704796521
 30
0.0
 10
51.82831177489147
 20
2.379008387679894
 30
0.0
 10
50.02522740258237
 20
3.140802949476367
 30
0.0
 10
47.32068468092866
 20
4.109236555830686
 30
0.0
 10
44.61589324110319
 20
4.886766628343308
 30
0.0
 10
41.91058782779404
 20
5.437192710992016
 30
0.0
 10
39.22097467480707
 20
5.700219022174375
 30
0.0
 10
37.34372359343504
 20
5.767442862177057
 30
0.0
 10
36.36837947836397
 20
5.673449133776423
 30
0.0
 10
36.27888941972798
 20
5.664824993705229
 30
0.0
1001
PE_URL
1000

  0
SPLINE
  5
C3
330
1F
100
AcDbEntity
  8
0
  6
Continuous
 62
     1
370
    15
100
AcDbSpline
210
0.0
220
0.0
230
1.0
 70
    24
 71
     3
 72
    10
 73
     6
 74
     0
 42
0.000000001
 43
0.00000001
 40
0.0
 40
0.0
 40
0.0
 40
0.0
 40
0.5
 40
0.5
 40
1.0
 40
1.0
 40
1.0
 40
1.0
 10
57.15000000000001
 20
-5.636220613580446
 30
0.0
 10
57.15000000000001
 20
-5.204160360195933
 30
0.0
 10
57.15000000000002
 20
-4.65823566315684
 30
0.0
 10
57.15000000000001
 20
-3.389013281932671
 30
0.0
 10
57.15000000000001
 20
-2.666815046297794
 30
0.0
 10
57.15000000000001
 20
-1.909116795699503
 30
0.0
1001
PE_URL
1000

  0
LINE
  5
C4
330
1F
100
AcDbEntity
  8
0
  6
Continuous
 62
     1
370
    15
100
AcDbLine
 10
57.15000000000001
 20
5.000624999999997
 30
0.0
 11
54.4958565177977
 21
4.885461579496594
 31
0.0
1001
PE_URL
1000

  0
SPLINE
  5
C5
330
1F
100
AcDbEntity
  8
0
  6
Continuous
 62
     1
370
    15
100
AcDbSpline
210
0.0
220
0.0
230
1.0
 70
     8
 71
     3
 72
    10
 73
     6
 74
     0
 42
0.000000001
 43
0.00000001
 40
0.0
 40
0.0
 40
0.0
 40
0.0
 40
0.5
 40
0.5
 40
1.0
 40
1.0
 40
1.0
 40
1.0
 10
57.15000000000001
 20
5.000625
 30
0.0
 10
56.41512267565432
 20
4.80134461578613
 30
0.0
 10
55.68475016547593
 20
4.577544975173036
 30
0.0
 10
54.23376542536682
 20
4.076821457289408
 30
0.0
 10
53.51317135123202
 20
3.800330358944735
 30
0.0
 10
52.80164218450271
 20
3.48900677208623
 30
0.0
1001
PE_URL
1000

  0
SPLINE
  5
C6
330
1F
100
AcDbEntity
  8
0
  6
Continuous
 62
     1
370
    15
100
AcDbSpline
210
0.0
220
0.0
230
1.0
 70
    24
 71
     3
 72
     8
 73
     4
 74
     0
 42
0.000000001
 43
0.00000001
 40
0.0
 40
0.0
 40
0.0
 40
0.0
 40
1.0
 40
1.0
 40
1.0
 40
1.0
 10
52.80164218450297
 20
3.489006772086107
 30
0.0
 10
52.59457716609317
 20
3.315258591508735
 30
0.0
 10
52.37683816416395
 20
3.132553875297245
 30
0.0
 10
52.15000000000001
 20
2.942214055410353
 30
0.0
1001
PE_URL
1000

  0
SPLINE
  5
C7
330
1F
100
AcDbEntity
  8
0
  6
Continuous
 62
     1
370
    15
100
AcDbSpline
210
0.0
220
0.0
230
1.0
 70
    24
 71
     3
 72
     8
 73
     4
 74
     0
 42
0.000000001
 43
0.00000001
 40
0.0
 40
0.0
 40
0.0
 40
0.0
 40
1.0
 40
1.0
 40
1.0
 40
1.0
 10
52.15000000000001
 20
2.732698380236908
 30
0.0
 10
52.15000000000001
 20
2.803890664909714
 30
0.0
 10
52.15000000000001
 20
2.8737708599169
 30
0.0
 10
52.15000000000001
 20
2.942214055410365
 30
0.0
1001
PE_URL
1000

  0
SPLINE
  5
C8
330
1F
100
AcDbEntity
  8
0
  6
Continuous
 62
     1
370
    15
100
AcDbSpline
210
0.0
220
0.0
230
1.0
 70
     8
 71
     3
 72
    13
 73
     9
 74
     0
 42
0.000000001
 43
0.00000001
 40
0.0
 40
0.0
 40
0.0
 40
0.0
 40
0.0080547462051689
 40
0.2093160504304358
 40
0.4069922367965157
 40
0.6046700279758707
 40
0.8023418152869859
 40
0.9999999999999999
 40
0.9999999999999999
 40
0.9999999999999999
 40
0.9999999999999999
 10
42.0189841376456
 20
-5.367885732312284
 30
0.0
 10
41.98288850202865
 20
-5.375158482243789
 30
0.0
 10
41.04488304628017
 20
-5.564153051737949
 30
0.0
 10
39.22097044095795
 20
-5.699442103506621
 30
0.0
 10
36.54735714828745
 20
-5.738832653867478
 30
0.0
 10
33.88980075243438
 20
-5.482663721520886
 30
0.0
 10
31.23234013987963
 20
-4.996017824175384
 30
0.0
 10
29.46075972765416
 20
-4.482634134365915
 30
0.0
 10
28.57500000000001
 20
-4.225951121768996
 30
0.0
1001
PE_URL
1000

  0
SPLINE
  5
C9
330
1F
100
AcDbEntity
  8
외형선
  6
Continuous
370
    15
100
AcDbSpline
210
0.0
220
0.0
230
1.0
 70
    24
 71
     3
 72
    14
 73
    10
 74
     0
 42
0.000000001
 43
0.00000001
 40
0.0
 40
0.0
 40
0.0
 40
0.0
 40
0.2499999999999999
 40
0.2499999999999999
 40
0.4999999999999999
 40
0.4999999999999999
 40
0.7499999999999999
 40
0.7499999999999999
 40
1.0
 40
1.0
 40
1.0
 40
1.0
 10
28.57500000000001
 20
3.366483569005432
 30
0.0
 10
28.575
 20
2.818569705538211
 30
0.0
 10
28.57500000000001
 20
2.214249245718016
 30
0.0
 10
28.57500000000001
 20
0.9368444510906481
 30
0.0
 10
28.57500000000001
 20
0.2642473970797016
 30
0.0
 10
28.57500000000001
 20
-1.085147145791303
 30
0.0
 10
28.57500000000001
 20
-1.761225620823135
 30
0.0
 10
28.57500000000001
 20
-3.05189575440971
 30
0.0
 10
28.575
 20
-3.665981500283891
 30
0.0
 10
28.57500000000001
 20
-4.225951121768994
 30
0.0
  0
LINE
  5
CA
330
1F
100
AcDbEntity
  8
0
  6
Continuous
 62
     1
370
    15
100
AcDbLine
 10
57.15000000000001
 20
0.000000000000001
 30
0.0
 11
57.15000000000001
 21
5.000625
 31
0.0
1001
PE_URL
1000

  0
SPLINE
  5
CB
330
1F
100
AcDbEntity
  8
외형선
  6
Continuous
370
    15
100
AcDbSpline
210
0.0
220
0.0
230
1.0
 70
    24
 71
     3
 72
    12
 73
     8
 74
     0
 42
0.000000001
 43
0.00000001
 40
0.0
 40
0.0
 40
0.0
 40
0.0
 40
0.1825317956752352
 40
0.3650635913504704
 40
0.632018809544513
 40
0.9067157471510138
 40
1.0
 40
1.0
 40
1.0
 40
1.0
 10
28.57500000000001
 20
-4.225951121768998
 30
0.0
 10
28.57500000000001
 20
-4.391402558650834
 30
0.0
 10
28.57500000000001
 20
-4.722305432414511
 30
0.0
 10
28.575
 20
-5.170227544778001
 30
0.0
 10
28.575
 20
-5.526958139537825
 30
0.0
 10
28.575
 20
-5.705832877976799
 30
0.0
 10
28.575
 20
-5.685161814712557
 30
0.0
 10
28.575
 20
-5.679921642817324
 30
0.0
  0
SPLINE
  5
CC
330
1F
100
AcDbEntity
  8
0
  6
Continuous
 62
     1
370
    15
100
AcDbSpline
210
0.0
220
0.0
230
1.0
 70
     8
 71
     3
 72
    11
 73
     7
 74
     0
 42
0.000000001
 43
0.00000001
 40
0.0
 40
0.0
 40
0.0
 40
0.0
 40
0.2314911883652783
 40
0.4876672289323575
 40
0.7438370006385323
 40
1.0
 40
1.0
 40
1.0
 40
1.0
 10
47.33533869305415
 20
4.788874728286142
 30
0.0
 10
48.09268078439652
 20
5.101183682758675
 30
0.0
 10
49.68812345176921
 20
5.759104372845845
 30
0.0
 10
52.12163227799201
 20
6.478125438773077
 30
0.0
 10
54.63584613554364
 20
6.993410443468778
 30
0.0
 10
56.3119560971484
 20
7.089612045905693
 30
0.0
 10
57.15000000000001
 20
7.137712211296761
 30
0.0
1001
PE_URL
1000

  0
SPLINE
  5
CD
330
1F
100
AcDbEntity
  8
0
  6
Continuous
 62
     1
370
    15
100
AcDbSpline
210
0.0
220
0.0
230
1.0
 70
    24
 71
     3
 72
    10
 73
     6
 74
     0
 42
0.000000001
 43
0.00000001
 40
0.0
 40
0.0
 40
0.0
 40
0.0
 40
0.5
 40
0.5
 40
1.0
 40
1.0
 40
1.0
 40
1.0
 10
57.15000000000001
 20
5.000624999999999
 30
0.0
 10
57.15000000000001
 20
5.303750434567245
 30
0.0
 10
57.15000000000002
 20
5.656010261969465
 30
0.0
 10
57.15000000000001
 20
6.395050431114108
 30
0.0
 10
57.15000000000002
 20
6.779943357006765
 30
0.0
 10
57.15000000000001
 20
7.137712211296765
 30
0.0
1001
PE_URL
1000

  0
LINE
  5
CE
330
1F
100
AcDbEntity
  8
0
  6
Continuous
 62
     1
370
    15
100
AcDbLine
 10
30.42821661820909
 20
-5.615633338416369
 30
0.0
 11
28.57500000000392
 21
-6.230071978111269
 31
0.0
1001
PE_URL
1000

  0
SPLINE
  5
CF
330
1F
100
AcDbEntity
  8
외형선
  6
Continuous
370
    15
100
AcDbSpline
210
0.0
220
0.0
230
1.0
 70
    24
 71
     3
 72
    11
 73
     7
 74
     0
 42
0.000000001
 43
0.00000001
 40
0.0
 40
0.0
 40
0.0
 40
0.0
 40
0.1905613617420567
 40
0.4909760904096065
 40
0.7917409254944251
 40
1.0
 40
1.0
 40
1.0
 40
1.0
 10
28.575
 20
-5.700913347634832
 30
0.0
 10
28.575
 20
-5.73670702407133
 30
0.0
 10
28.575
 20
-5.828928443762726
 30
0.0
 10
28.57500000000001
 20
-5.970682451169117
 30
0.0
 10
28.575
 20
-6.111147079489673
 30
0.0
 10
28.575
 20
-6.195542803601586
 30
0.0
 10
28.57500000000001
 20
-6.230071978095408
 30
0.0
  0
LINE
  5
D0
330
1F
100
AcDbEntity
  8
중심선
 62
     1
100
AcDbLine
 10
-64.15
 20
-0.0000000000000079
 30
0.0
 11
64.15
 21
0.0000000000000068
 31
0.0
  0
LINE
  5
D1
330
1F
100
AcDbEntity
  8
참조1
100
AcDbLine
 10
0.0
 20
-0.000000000000007
 30
0.0
 11
0.0000000000000071
 21
-40.00000000000001
 31
0.0
  0
LINE
  5
D2
330
1F
100
AcDbEntity
  8
참조1
100
AcDbLine
 10
0.0000000000000071
 20
-40.00000000000001
 30
0.0
 11
-11.29071559669922
 21
-40.0
 31
0.0
  0
CIRCLE
  5
D3
330
1F
100
AcDbEntity
  8
해칭선
100
AcDbCircle
 10
0.0
 20
0.0
 30
0.0
 40
3.000000000000002
  0
INSERT
  5
D4
330
1F
100
AcDbEntity
  8
0
  6
Continuous
 62
     7
100
AcDbBlockReference
 66
     1
  2
블럭10
 10
-13.94027293212521
 20
-52.04717430164393
 30
0.0
  0
ATTRIB
  5
D5
330
D4
100
AcDbEntity
  8
FORMAT
 62
     2
100
AcDbText
 10
-23.12156822086649
 20
-49.97180738881174
 30
0.0
 40
4.233333333333333
  1
E2050036 [ 2 FLUTE ]
 41
0.75
  7
SLDTEXTSTYLE0
 11
-23.12156822086649
 21
-52.08847405547841
 31
0.0
100
AcDbAttribute
  2
AUTOATTR0
 70
     0
 74
     1
  0
SEQEND
  5
D6
330
D4
100
AcDbEntity
  8
0
  6
Continuous
 62
     7
  0
HATCH
  5
D7
330
1F
100
AcDbEntity
  8
중심선
100
AcDbHatch
 10
0.0
 20
0.0
 30
0.0
210
0.0
220
0.0
230
1.0
  2
SOLID
 70
     1
 71
     0
 91
        1
 92
        0
 93
        4
 72
     1
 10
-8.225363627744365
 20
-35.8
 11
-11.67163887158165
 21
-35.8
 72
     1
 10
-11.67163887158165
 20
-35.8
 11
-13.79986873078567
 21
-38.3363255805726
 72
     1
 10
-13.79986873078567
 20
-38.3363255805726
 11
-10.35356040183524
 21
-38.33628615127011
 72
     1
 10
-10.35356040183524
 20
-38.33628615127011
 11
-8.225363627744365
 21
-35.8
 97
        0
 75
     0
 76
     1
 98
        1
 10
18.16921167873051
 20
-0.0010749287238962
  0
HATCH
  5
D8
330
1F
100
AcDbEntity
  8
중심선
100
AcDbHatch
 10
0.0
 20
0.0
 30
0.0
210
0.0
220
0.0
230
1.0
  2
SOLID
 70
     1
 71
     0
 91
        1
 92
        0
 93
        4
 72
     1
 10
-3.212599636708411
 20
-35.80000000000003
 11
-6.658874880545696
 21
-35.8
 72
     1
 10
-6.658874880545696
 20
-35.8
 11
-11.19001288890308
 21
-41.20000000000002
 72
     1
 10
-11.19001288890308
 20
-41.20000000000002
 11
-7.743737645065803
 21
-41.20000000000002
 72
     1
 10
-7.743737645065803
 20
-41.20000000000002
 11
-3.212599636708411
 21
-35.80000000000003
 97
        0
 75
     0
 76
     1
 98
        1
 10
18.16921167873051
 20
-0.0010749287238962
  0
HATCH
  5
D9
330
1F
100
AcDbEntity
  8
중심선
100
AcDbHatch
 10
0.0
 20
0.0
 30
0.0
210
0.0
220
0.0
230
1.0
  2
SOLID
 70
     1
 71
     0
 91
        1
 92
        0
 93
        4
 72
     1
 10
1.800164354327482
 20
-35.8
 11
-1.646110889509632
 21
-35.79999999999998
 72
     1
 10
-1.646110889509632
 20
-35.79999999999998
 11
-8.694547791398882
 21
-44.20000000000002
 72
     1
 10
-8.694547791398882
 20
-44.20000000000002
 11
-5.248272547561601
 21
-44.20000000000002
 72
     1
 10
-5.248272547561601
 20
-44.20000000000002
 11
1.800164354327482
 21
-35.8
 97
        0
 75
     0
 76
     1
 98
        1
 10
18.16921167873051
 20
-0.0010749287238962
  0
HATCH
  5
DA
330
1F
100
AcDbEntity
  8
중심선
100
AcDbHatch
 10
0.0
 20
0.0
 30
0.0
210
0.0
220
0.0
230
1.0
  2
SOLID
 70
     1
 71
     0
 91
        1
 92
        0
 93
        6
 72
     3
 10
6.600054785339681
 20
-40.00000000005127
 11
3.960054785062283
 21
1.540882976769353E-10
 40
0.3939339440162628
 50
17.09539180608436
 51
320.0019657685077
 73
     0
 72
     1
 10
8.28305444104025
 20
-38.5878940046383
 11
10.58835631474134
 21
-36.65356729459038
 72
     3
 10
6.600054785286835
 20
-40.00000000000015
 11
6.600054785286829
 21
-1.278976924368180E-13
 40
0.636358354079598
 50
39.99873849337385
 51
368.4976242363724
 73
     1
 72
     1
 10
13.02538727718744
 20
-39.03999999993002
 11
5.280122092122758
 21
-39.03999999993002
 72
     1
 10
5.280122092122758
 20
-39.03999999993002
 11
5.280097047676824
 21
-40.95999999992991
 72
     1
 10
5.280097047676824
 20
-40.95999999992991
 11
9.721476817148861
 21
-40.95999999992988
 97
        0
 75
     0
 76
     1
 98
        1
 10
18.16921167873051
 20
-0.0010749287238962
  0
DIMENSION
  5
DB
330
1F
100
AcDbEntity
  8
치수문자_일반주서
100
AcDbDimension
  2
_D
 10
-72.14999999999992
 20
-7.937500000000178
 30
0.0
 11
-72.15000000000005
 21
28.54149999999992
 31
0.0
 70
   160
  1
%%c<>
 71
     2
 42
15.87499999999999
 52
-270.0
  3
SLDDIMSTYLE0
100
AcDbAlignedDimension
 13
-24.61268467149224
 23
7.93749999999999
 33
0.0
 14
-24.61268467149227
 24
-7.937500000000003
 34
0.0
 50
90.0000000000002
100
AcDbRotatedDimension
1001
PE_URL
1000

1001
ACAD
1000
DSTYLE
1002
{
1070
   171
1070
     8
1070
   273
1070
     7
1002
}
  0
DIMENSION
  5
F0
330
1F
100
AcDbEntity
  8
치수문자_일반주서
100
AcDbDimension
  2
_D_1
 10
72.15
 20
7.137712211296822
 30
0.0
 11
72.14999999999992
 21
28.61671221129682
 31
0.0
 70
   160
  1
%%c<>
 71
     2
 42
14.27542442259353
 52
-270.0
  3
SLDDIMSTYLE0
100
AcDbAlignedDimension
 13
57.15000000000001
 23
-7.13771221129677
 33
0.0
 14
57.15000000000001
 24
7.137712211296765
 34
0.0
 50
90.0000000000002
100
AcDbRotatedDimension
1001
PE_URL
1000

1001
ACAD
1000
DSTYLE
1002
{
1070
   171
1070
     8
1070
   273
1070
     7
1002
}
  0
DIMENSION
  5
104
330
1F
100
AcDbEntity
  8
치수문자_일반주서
100
AcDbDimension
  2
_D_2
 10
28.57500000000001
 20
22.93749999999999
 30
0.0
 11
42.86250000000001
 21
22.93749999999999
 31
0.0
 70
   160
  1
<>
 71
     2
 42
28.575
  3
SLDDIMSTYLE0
100
AcDbAlignedDimension
 13
57.15000000000001
 23
7.137712211296765
 33
0.0
 14
28.57500000000001
 24
6.230071978112364
 34
0.0
100
AcDbRotatedDimension
1001
PE_URL
1000

1001
ACAD
1000
DSTYLE
1002
{
1070
   171
1070
     8
1070
   273
1070
     7
1002
}
  0
DIMENSION
  5
118
330
1F
100
AcDbEntity
  8
치수문자_일반주서
100
AcDbDimension
  2
_D_3
 10
57.15000000000002
 20
37.93749999999999
 30
0.0
 11
0.0000000000000142
 21
37.93749999999999
 31
0.0
 70
   160
  1
<>
 71
     2
 42
114.3
  3
SLDDIMSTYLE0
100
AcDbAlignedDimension
 13
-57.15000000000003
 23
7.137712211296828
 33
0.0
 14
57.15000000000001
 24
7.137712211296765
 34
0.0
100
AcDbRotatedDimension
1001
PE_URL
1000

1001
ACAD
1000
DSTYLE
1002
{
1070
   171
1070
     8
1070
   273
1070
     7
1002
}
  0
LINE
  5
12C
330
1F
100
AcDbEntity
  8
참조1
100
AcDbLine
 10
86.68162503295505
 20
7.44
 30
0.0
 11
86.68162503295505
 21
-7.440000000000005
 31
0.0
  0
LINE
  5
12D
330
1F
100
AcDbEntity
  8
참조1
100
AcDbLine
 10
99.38162503295504
 20
5.44
 30
0.0
 11
86.68162503295505
 21
5.44
 31
0.0
  0
SOLID
  5
12E
330
1F
100
AcDbEntity
  8
참조1
100
AcDbTrace
 10
86.68162503295505
 20
5.44
 30
0.0
 11
93.03162503295505
 21
4.423999999999999
 31
0.0
 12
93.03162503295505
 22
6.456
 32
0.0
 13
93.03162503295505
 23
6.456
 33
0.0
  0
LINE
  5
12F
330
1F
100
AcDbEntity
  8
참조1
100
AcDbLine
 10
99.38162503295504
 20
-5.440000000000005
 30
0.0
 11
86.68162503295505
 21
-5.440000000000005
 31
0.0
  0
SOLID
  5
130
330
1F
100
AcDbEntity
  8
참조1
100
AcDbTrace
 10
86.68162503295505
 20
-5.440000000000005
 30
0.0
 11
93.03162503295505
 21
-6.456000000000005
 31
0.0
 12
93.03162503295505
 22
-4.424000000000005
 32
0.0
 13
93.03162503295505
 23
-4.424000000000005
 33
0.0
  0
MTEXT
  5
131
330
1F
100
AcDbEntity
  8
참조1
100
AcDbMText
 10
96.06597516558105
 20
11.01029177718832
 30
0.0
 40
3.5
 41
0.0
 71
     1
 72
     1
  1
A
  7
SLDTEXTSTYLE0
 73
     1
 44
1.0
  0
MTEXT
  5
132
330
1F
100
AcDbEntity
  8
참조1
100
AcDbMText
 10
96.06597516558105
 20
0.1302917771883231
 30
0.0
 40
3.5
 41
0.0
 71
     1
 72
     1
  1
A
  7
SLDTEXTSTYLE0
 73
     1
 44
1.0
  0
INSERT
  5
139
330
1F
100
AcDbEntity
  8
해칭선
100
AcDbBlockReference
  2
SW_DOWELSYMBOL_0
 10
0.0
 20
0.0
 30
0.0
  0
LINE
  5
1A6
330
1F
100
AcDbEntity
  8
외형선
  6
Continuous
370
    15
100
AcDbLine
 10
-5.092700000000026
 20
6.286499999999982
 30
0.0
 11
5.09269999999999
 21
6.286499999999982
 31
0.0
1001
PE_URL
1000

  0
LINE
  5
1A7
330
1F
100
AcDbEntity
  8
외형선
  6
Continuous
370
    15
100
AcDbLine
 10
-5.092700000000026
 20
6.286500000000082
 30
0.0
 11
-6.743699999999972
 21
7.937499999999993
 31
0.0
1001
PE_URL
1000

  0
LINE
  5
1A8
330
1F
100
AcDbEntity
  8
외형선
  6
Continuous
370
    15
100
AcDbLine
 10
5.092699999999876
 20
6.286500000000082
 30
0.0
 11
6.743699999999887
 21
7.937499999999993
 31
0.0
1001
PE_URL
1000

  0
LINE
  5
1F6
330
1F
100
AcDbEntity
  8
외형선
  6
Continuous
370
    15
100
AcDbLine
 10
-24.61268467149224
 20
7.937499999999991
 30
0.0
 11
-25.52501787603528
 21
7.693041054614586
 31
0.0
  0
LINE
  5
1F7
330
1F
100
AcDbEntity
  8
외형선
  6
Continuous
370
    15
100
AcDbLine
 10
-25.52501787603531
 20
-7.6930410546146
 30
0.0
 11
-24.61268467149227
 21
-7.937500000000011
 31
0.0
  0
SPLINE
  5
1F8
330
1F
100
AcDbEntity
  8
외형선
  6
Continuous
370
    15
100
AcDbSpline
210
0.0
220
0.0
230
1.0
 70
     8
 71
     3
 72
     9
 73
     5
 74
     0
 42
0.000000001
 43
0.00000001
 40
0.0
 40
0.0
 40
0.0
 40
0.0
 40
0.5384085975934892
 40
1.0
 40
1.0
 40
1.0
 40
1.0
 10
-25.9097984150639
 20
5.904433962494378
 30
0.0
 10
-26.38493835658481
 20
5.862569725310591
 30
0.0
 10
-27.26742787039391
 20
5.784814211429671
 30
0.0
 10
-28.16205007975639
 20
5.727410436573919
 30
0.0
 10
-28.57500000000003
 20
5.700913347634827
 30
0.0
  0
SPLINE
  5
1F9
330
1F
100
AcDbEntity
  8
0
  6
Continuous
 62
     1
370
    15
100
AcDbSpline
210
0.0
220
0.0
230
1.0
 70
     8
 71
     3
 72
     9
 73
     5
 74
     0
 42
0.000000001
 43
0.00000001
 40
0.0
 40
0.0
 40
0.0
 40
0.0
 40
0.4618479333448766
 40
1.0
 40
1.0
 40
1.0
 40
1.0
 10
-38.64163738790339
 20
-1.83060656968917
 30
0.0
 10
-38.33709620824868
 20
-1.975665503970799
 30
0.0
 10
-37.67769912607686
 20
-2.289749261434117
 30
0.0
 10
-37.01665573132061
 20
-2.635629400112588
 30
0.0
 10
-36.66091386228382
 20
-2.821765511557366
 30
0.0
1001
PE_URL
1000

  0
LINE
  5
1FA
330
1F
100
AcDbEntity
  8
0
  6
Continuous
 62
     1
370
    15
100
AcDbLine
 10
-34.70403212451814
 20
-2.004832627212892
 30
0.0
 11
-34.61527891738164
 21
-2.053785638955151
 31
0.0
1001
PE_URL
1000

  0
SPLINE
  5
1FB
330
1F
100
AcDbEntity
  8
0
  6
Continuous
 62
     1
370
    15
100
AcDbSpline
210
0.0
220
0.0
230
1.0
 70
     8
 71
     3
 72
    17
 73
    13
 74
     0
 42
0.000000001
 43
0.00000001
 40
0.0
 40
0.0
 40
0.0
 40
0.0
 40
0.1351167658786378
 40
0.2373095902791898
 40
0.3201398479556368
 40
0.4200032147300194
 40
0.5328108998696957
 40
0.6409535473700562
 40
0.7547010763612694
 40
0.8572892620088068
 40
0.9532161240982899
 40
0.9999999999999999
 40
0.9999999999999999
 40
0.9999999999999999
 40
0.9999999999999999
 10
-36.28026228930081
 20
-5.676694269017368
 30
0.0
 10
-36.01918937608458
 20
-5.663548614831598
 30
0.0
 10
-35.56065926203503
 20
-5.640460511823132
 30
0.0
 10
-34.93505640487324
 20
-5.617017405854561
 30
0.0
 10
-34.37066178211401
 20
-5.600363237704009
 30
0.0
 10
-33.79095233581762
 20
-5.587748682760747
 30
0.0
 10
-33.162576039204
 20
-5.579844933184042
 30
0.0
 10
-32.49890011428376
 20
-5.577899017998043
 30
0.0
 10
-31.84879691114469
 20
-5.580291348662929
 30
0.0
 10
-31.24972931944346
 20
-5.592036803727613
 30
0.0
 10
-30.79898192918154
 20
-5.603575886390637
 30
0.0
 10
-30.52036497822158
 20
-5.612453926894204
 30
0.0
 10
-30.429027906875
 20
-5.615364353614826
 30
0.0
1001
PE_URL
1000

  0
SPLINE
  5
1FC
330
1F
100
AcDbEntity
  8
0
  6
Continuous
 62
     1
370
    15
100
AcDbSpline
210
0.0
220
0.0
230
1.0
 70
     8
 71
     3
 72
    27
 73
    23
 74
     0
 42
0.000000001
 43
0.00000001
 40
0.0
 40
0.0
 40
0.0
 40
0.0
 40
0.0660649185158597
 40
0.1161607285526873
 40
0.150051210377667
 40
0.1806724625223691
 40
0.2193863119978746
 40
0.2652009600995991
 40
0.3078257245667231
 40
0.3716582029716755
 40
0.4256186365996252
 40
0.4793761179438289
 40
0.5329424826368027
 40
0.5927696782637072
 40
0.6566950123830867
 40
0.710537269738166
 40
0.7403873230998884
 40
0.7678494102513398
 40
0.795674539347871
 40
0.8419700286826806
 40
0.910224685180662
 40
1.0
 40
1.0
 40
1.0
 40
1.0
 10
-54.49598727455991
 20
-4.885985256302572
 30
0.0
 10
-54.22220922877
 20
-4.863661416498939
 30
0.0
 10
-53.74083033699019
 20
-4.824409820433456
 30
0.0
 10
-53.11873797055419
 20
-4.785300284302863
 30
0.0
 10
-52.64009476497799
 20
-4.759762119064121
 30
0.0
 10
-52.20738131170667
 20
-4.740255388662238
 30
0.0
 10
-51.7273741202678
 20
-4.722878563365601
 30
0.0
 10
-51.1983152013209
 20
-4.709497361997837
 30
0.0
 10
-50.56503520858713
 20
-4.700635138544424
 30
0.0
 10
-49.89811880234912
 20
-4.700402759710919
 30
0.0
 10
-49.18468384318514
 20
-4.711010414861676
 30
0.0
 10
-48.51328520417421
 20
-4.730218090465698
 30
0.0
 10
-47.8183270083334
 20
-4.759554755388532
 30
0.0
 10
-47.07790729421728
 20
-4.801648344304812
 30
0.0
 10
-46.3322241085249
 20
-4.855299216816135
 30
0.0
 10
-45.71832917406317
 20
-4.908465556880635
 30
0.0
 10
-45.26329151402498
 20
-4.952499700587335
 30
0.0
 10
-44.91370100639752
 20
-4.988711708247944
 30
0.0
 10
-44.49573813637001
 20
-5.034544438108707
 30
0.0
 10
-43.90378457921945
 20
-5.104509467525681
 30
0.0
 10
-43.05253241724519
 20
-5.215061506396374
 30
0.0
 10
-42.3919364957529
 20
-5.315817539464227
 30
0.0
 10
-42.0166582727299
 20
-5.373056077908629
 30
0.0
1001
PE_URL
1000

  0
SPLINE
  5
1FD
330
1F
100
AcDbEntity
  8
0
  6
Continuous
 62
     1
370
    15
100
AcDbSpline
210
0.0
220
0.0
230
1.0
 70
     8
 71
     3
 72
    17
 73
    13
 74
     0
 42
0.000000001
 43
0.00000001
 40
0.0
 40
0.0
 40
0.0
 40
0.0
 40
0.1480578940337717
 40
0.2633457521444992
 40
0.3455627769784039
 40
0.4212339981006367
 40
0.5139968422232436
 40
0.6212462732659018
 40
0.7195596268116587
 40
0.8625119795340388
 40
0.9857939557634864
 40
1.0
 40
1.0
 40
1.0
 40
1.0
 10
-42.01665827272988
 20
5.373056077908688
 30
0.0
 10
-42.27752189444278
 20
5.332858256596319
 30
0.0
 10
-42.74151151901123
 20
5.261359701540135
 30
0.0
 10
-43.35152738467455
 20
5.176801753527757
 30
0.0
 10
-43.83846870346497
 20
5.113629535859337
 30
0.0
 10
-44.28712289256168
 20
5.058873772638091
 30
0.0
 10
-44.77741324934252
 20
5.002916318906031
 30
0.0
 10
-45.30620021399849
 20
4.947677471112472
 30
0.0
 10
-45.92372060715816
 20
4.889660919128033
 30
0.0
 10
-46.57059691546704
 20
4.837935889535023
 30
0.0
 10
-47.06535338207743
 20
4.802568778344666
 30
0.0
 10
-47.30851828086681
 20
4.789551985104183
 30
0.0
 10
-47.33364346120806
 20
4.78820701599367
 30
0.0
1001
PE_URL
1000

  0
SPLINE
  5
1FE
330
1F
100
AcDbEntity
  8
0
  6
Continuous
 62
     1
370
    15
100
AcDbSpline
210
0.0
220
0.0
230
1.0
 70
     8
 71
     3
 72
    19
 73
    15
 74
     0
 42
0.000000001
 43
0.00000001
 40
0.0
 40
0.0
 40
0.0
 40
0.0
 40
0.1258407222974049
 40
0.212725443717646
 40
0.2680467333710977
 40
0.3220510126301405
 40
0.4120443681986885
 40
0.5129008617407816
 40
0.5950849617003423
 40
0.6808143042494513
 40
0.7567064809899627
 40
0.8196541740038094
 40
0.8973166456541066
 40
1.0
 40
1.0
 40
1.0
 40
1.0
 10
-28.57500000000003
 20
5.700913347634827
 30
0.0
 10
-28.89916321105349
 20
5.682911497963953
 30
0.0
 10
-29.44713974559145
 20
5.652480558049879
 30
0.0
 10
-30.13640577607624
 20
5.624828573860217
 30
0.0
 10
-30.64294321196945
 20
5.608141563274485
 30
0.0
 10
-31.13820691591061
 20
5.594954690312678
 30
0.0
 10
-31.73724260932936
 20
5.581133215476939
 30
0.0
 10
-32.46209793377457
 20
5.577723812309836
 30
0.0
 10
-33.16236896795918
 20
5.579861650699433
 30
0.0
 10
-33.79100195546111
 20
5.587744676810281
 30
0.0
 10
-34.37065164777199
 20
5.60036405588146
 30
0.0
 10
-34.93505952921309
 20
5.617017153616764
 30
0.0
 10
-35.56065809171585
 20
5.640460606306723
 30
0.0
 10
-36.01918895149126
 20
5.663548649110389
 30
0.0
 10
-36.28026228930079
 20
5.676694269017402
 30
0.0
1001
PE_URL
1000

  0
LINE
  5
1FF
330
1F
100
AcDbEntity
  8
외형선
  6
Continuous
370
    15
100
AcDbLine
 10
-24.61268467149227
 20
-7.937500000000011
 30
0.0
 11
-24.61268467149224
 21
7.937499999999998
 31
0.0
  0
SPLINE
  5
200
330
1F
100
AcDbEntity
  8
외형선
  6
Continuous
370
    15
100
AcDbSpline
210
0.0
220
0.0
230
1.0
 70
     8
 71
     3
 72
     8
 73
     4
 74
     0
 42
0.000000001
 43
0.00000001
 40
0.0
 40
0.0
 40
0.0
 40
0.0
 40
1.0
 40
1.0
 40
1.0
 40
1.0
 10
-27.57500000000006
 20
-6.492296534440829
 30
0.0
 10
-26.88794153101595
 20
-6.792152694514638
 30
0.0
 10
-26.20472711458822
 20
-7.079615087608726
 30
0.0
 10
-25.52503656243744
 20
-7.352097475592046
 30
0.0
  0
LINE
  5
201
330
1F
100
AcDbEntity
  8
외형선
  6
Continuous
370
    15
100
AcDbLine
 10
-27.57500000000006
 20
-6.492296534440825
 30
0.0
 11
-27.57500000000006
 21
-5.416632494133765
 31
0.0
  0
SPLINE
  5
202
330
1F
100
AcDbEntity
  8
외형선
  6
Continuous
370
    15
100
AcDbSpline
210
0.0
220
0.0
230
1.0
 70
     8
 71
     3
 72
     8
 73
     4
 74
     0
 42
0.000000001
 43
0.00000001
 40
0.0
 40
0.0
 40
0.0
 40
0.0
 40
1.0
 40
1.0
 40
1.0
 40
1.0
 10
-25.52501787603532
 20
-6.459356475856193
 30
0.0
 10
-26.20965476747036
 20
-6.123991735471645
 30
0.0
 10
-26.89278743858574
 20
-5.776376563886913
 30
0.0
 10
-27.57499999999986
 20
-5.416632494133864
 30
0.0
  0
LINE
  5
203
330
1F
100
AcDbEntity
  8
외형선
  6
Continuous
370
    15
100
AcDbLine
 10
-25.52501787603528
 20
7.693041054614586
 30
0.0
 11
-25.52501787603532
 21
-6.459395184567583
 31
0.0
  0
SPLINE
  5
204
330
1F
100
AcDbEntity
  8
외형선
  6
Continuous
370
    15
100
AcDbSpline
210
0.0
220
0.0
230
1.0
 70
     8
 71
     3
 72
     8
 73
     4
 74
     0
 42
0.000000001
 43
0.00000001
 40
0.0
 40
0.0
 40
0.0
 40
0.0
 40
1.0
 40
1.0
 40
1.0
 40
1.0
 10
-27.57500000000003
 20
6.492296534440822
 30
0.0
 10
-26.88794153101592
 20
6.79215269451463
 30
0.0
 10
-26.20472711458819
 20
7.079615087608714
 30
0.0
 10
-25.52503656243741
 20
7.352097475592029
 30
0.0
  0
LINE
  5
205
330
1F
100
AcDbEntity
  8
외형선
  6
Continuous
370
    15
100
AcDbLine
 10
-25.52501787603532
 20
-7.352113240354132
 30
0.0
 11
-25.52501787603531
 21
-7.6930410546146
 31
0.0
  0
SPLINE
  5
206
330
1F
100
AcDbEntity
  8
외형선
  6
Continuous
370
    15
100
AcDbSpline
210
0.0
220
0.0
230
1.0
 70
    24
 71
     3
 72
    10
 73
     6
 74
     0
 42
0.000000001
 43
0.00000001
 40
0.0
 40
0.0
 40
0.0
 40
0.0
 40
0.5
 40
0.5
 40
1.0
 40
1.0
 40
1.0
 40
1.0
 10
-28.57500000000006
 20
-5.022334373446455
 30
0.0
 10
-28.57500000000006
 20
-4.849171584610414
 30
0.0
 10
-28.57500000000005
 20
-4.606113203809514
 30
0.0
 10
-28.57500000000005
 20
-4.030565752963568
 30
0.0
 10
-28.57500000000005
 20
-3.699962059803919
 30
0.0
 10
-28.57500000000005
 20
-3.366483569005435
 30
0.0
  0
SPLINE
  5
207
330
1F
100
AcDbEntity
  8
외형선
  6
Continuous
370
    15
100
AcDbSpline
210
0.0
220
0.0
230
1.0
 70
     8
 71
     3
 72
    10
 73
     6
 74
     0
 42
0.000000001
 43
0.00000001
 40
0.0
 40
0.0
 40
0.0
 40
0.0
 40
0.5
 40
0.5
 40
1.0
 40
1.0
 40
1.0
 40
1.0
 10
-28.57500000000005
 20
-3.366483569005435
 30
0.0
 10
-28.06623216701694
 20
-3.518482179554514
 30
0.0
 10
-27.56068305495573
 20
-3.661644476729158
 30
0.0
 10
-26.54149717743763
 20
-3.929453815641757
 30
0.0
 10
-26.03136742560148
 20
-4.05374281202155
 30
0.0
 10
-25.52502238124248
 20
-4.167187980619381
 30
0.0
  0
SPLINE
  5
208
330
1F
100
AcDbEntity
  8
외형선
  6
Continuous
370
    15
100
AcDbSpline
210
0.0
220
0.0
230
1.0
 70
     8
 71
     3
 72
     8
 73
     4
 74
     0
 42
0.000000001
 43
0.00000001
 40
0.0
 40
0.0
 40
0.0
 40
0.0
 40
1.0
 40
1.0
 40
1.0
 40
1.0
 10
-28.57500000000006
 20
-5.022334373446451
 30
0.0
 10
-28.24078474481555
 20
-5.159517915907632
 30
0.0
 10
-27.9088457585561
 20
-5.290909113716687
 30
0.0
 10
-27.57499999999959
 20
-5.416632494133935
 30
0.0
  0
SPLINE
  5
209
330
1F
100
AcDbEntity
  8
외형선
  6
Continuous
370
    15
100
AcDbSpline
210
0.0
220
0.0
230
1.0
 70
    24
 71
     3
 72
    14
 73
    10
 74
     0
 42
0.000000001
 43
0.00000001
 40
0.0
 40
0.0
 40
0.0
 40
0.0
 40
0.2499999999999999
 40
0.2499999999999999
 40
0.4999999999999999
 40
0.4999999999999999
 40
0.7499999999999999
 40
0.7499999999999999
 40
1.0
 40
1.0
 40
1.0
 40
1.0
 10
-28.57500000000005
 20
-3.366483569005435
 30
0.0
 10
-28.57500000000004
 20
-2.818569705538213
 30
0.0
 10
-28.57500000000005
 20
-2.214249245718019
 30
0.0
 10
-28.57500000000005
 20
-0.93684445109065
 30
0.0
 10
-28.57500000000005
 20
-0.2642473970797035
 30
0.0
 10
-28.57500000000004
 20
1.0851471457913
 30
0.0
 10
-28.57500000000004
 20
1.761225620823133
 30
0.0
 10
-28.57500000000004
 20
3.051895754409706
 30
0.0
 10
-28.57500000000003
 20
3.665981500283888
 30
0.0
 10
-28.57500000000003
 20
4.22595112176899
 30
0.0
  0
SPLINE
  5
20A
330
1F
100
AcDbEntity
  8
외형선
  6
Continuous
370
    15
100
AcDbSpline
210
0.0
220
0.0
230
1.0
 70
     8
 71
     3
 72
    10
 73
     6
 74
     0
 42
0.000000001
 43
0.00000001
 40
0.0
 40
0.0
 40
0.0
 40
0.0
 40
0.5
 40
0.5
 40
1.0
 40
1.0
 40
1.0
 40
1.0
 10
-28.57500000000003
 20
4.225951121768993
 30
0.0
 10
-28.06623255601115
 20
4.06779893204058
 30
0.0
 10
-27.56068383263555
 20
3.899289032059627
 30
0.0
 10
-26.5414987375083
 20
3.542478377434403
 30
0.0
 10
-26.03136934772207
 20
3.354542252834914
 30
0.0
 10
-25.52502470409329
 20
3.159085181401018
 30
0.0
  0
SPLINE
  5
20B
330
1F
100
AcDbEntity
  8
외형선
  6
Continuous
370
    15
100
AcDbSpline
210
0.0
220
0.0
230
1.0
 70
     8
 71
     3
 72
     8
 73
     4
 74
     0
 42
0.000000001
 43
0.00000001
 40
0.0
 40
0.0
 40
0.0
 40
0.0
 40
1.0
 40
1.0
 40
1.0
 40
1.0
 10
-28.57500000000874
 20
-6.230071978109915
 30
0.0
 10
-28.24078474482148
 20
-6.324464606139522
 30
0.0
 10
-27.90884575855929
 20
-6.411844022058244
 30
0.0
 10
-27.57500000000005
 20
-6.492296534440829
 30
0.0
  0
LINE
  5
20C
330
1F
100
AcDbEntity
  8
외형선
  6
Continuous
370
    15
100
AcDbLine
 10
-28.57500000000006
 20
-6.230071978112367
 30
0.0
 11
-28.57500000000005
 21
-5.022334373446451
 31
0.0
  0
LINE
  5
20D
330
1F
100
AcDbEntity
  8
외형선
  6
Continuous
370
    15
100
AcDbLine
 10
-25.91233406786217
 20
5.895789070069958
 30
0.0
 11
-25.52503656243741
 21
5.945729479638914
 31
0.0
  0
SPLINE
  5
20E
330
1F
100
AcDbEntity
  8
외형선
  6
Continuous
370
    15
100
AcDbSpline
210
0.0
220
0.0
230
1.0
 70
    24
 71
     3
 72
    12
 73
     8
 74
     0
 42
0.000000001
 43
0.00000001
 40
0.0
 40
0.0
 40
0.0
 40
0.0
 40
0.1822866803394803
 40
0.3645733606789607
 40
0.631170094381591
 40
0.9054981514221435
 40
1.0
 40
1.0
 40
1.0
 40
1.0
 10
-28.57500000000003
 20
4.225951121768993
 30
0.0
 10
-28.57500000000003
 20
4.391403447294888
 30
0.0
 10
-28.57500000000003
 20
4.72230809834668
 30
0.0
 10
-28.57500000000003
 20
5.170214825999871
 30
0.0
 10
-28.57500000000003
 20
5.527031975842583
 30
0.0
 10
-28.57500000000002
 20
5.70600898158416
 30
0.0
 10
-28.57500000000002
 20
5.685153756219847
 30
0.0
 10
-28.57500000000003
 20
5.679810216231868
 30
0.0
  0
SPLINE
  5
20F
330
1F
100
AcDbEntity
  8
외형선
  6
Continuous
370
    15
100
AcDbSpline
210
0.0
220
0.0
230
1.0
 70
     8
 71
     3
 72
     8
 73
     4
 74
     0
 42
0.000000001
 43
0.00000001
 40
0.0
 40
0.0
 40
0.0
 40
0.0
 40
1.0
 40
1.0
 40
1.0
 40
1.0
 10
-28.57500000000871
 20
6.230071978109915
 30
0.0
 10
-28.24078474482145
 20
6.32446460613952
 30
0.0
 10
-27.90884575855927
 20
6.411844022058242
 30
0.0
 10
-27.57500000000002
 20
6.492296534440822
 30
0.0
  0
SPLINE
  5
210
330
1F
100
AcDbEntity
  8
외형선
  6
Continuous
370
    15
100
AcDbSpline
210
0.0
220
0.0
230
1.0
 70
    24
 71
     3
 72
    10
 73
     6
 74
     0
 42
0.000000001
 43
0.00000001
 40
0.0
 40
0.0
 40
0.0
 40
0.0
 40
0.1878847306465266
 40
0.791029668141389
 40
0.9999999999999999
 40
0.9999999999999999
 40
0.9999999999999999
 40
0.9999999999999999
 10
-28.57500000000003
 20
5.700913347634827
 30
0.0
 10
-28.57500000000003
 20
5.736749142499436
 30
0.0
 10
-28.57500000000002
 20
5.887624505397685
 30
0.0
 10
-28.57500000000003
 20
6.060954526227352
 30
0.0
 10
-28.57500000000003
 20
6.195461236353466
 30
0.0
 10
-28.57500000000003
 20
6.230071978095388
 30
0.0
  0
SPLINE
  5
211
330
1F
100
AcDbEntity
  8
0
  6
Continuous
 62
     1
370
    15
100
AcDbSpline
210
0.0
220
0.0
230
1.0
 70
     8
 71
     3
 72
    46
 73
    42
 74
     0
 42
0.000000001
 43
0.00000001
 40
0.0
 40
0.0
 40
0.0
 40
0.0
 40
0.0625000000000003
 40
0.0625000000000003
 40
0.1250000000000006
 40
0.1250000000000006
 40
0.1562500000000006
 40
0.1562500000000006
 40
0.1875000000000006
 40
0.1875000000000006
 40
0.2500000000000004
 40
0.2500000000000004
 40
0.3125000000000002
 40
0.3125000000000002
 40
0.3750000000000001
 40
0.3750000000000001
 40
0.4062500000000001
 40
0.4062500000000001
 40
0.4375000000000001
 40
0.4375000000000001
 40
0.5000000000000001
 40
0.5000000000000001
 40
0.5312500000000001
 40
0.5312500000000001
 40
0.5625000000000001
 40
0.5625000000000001
 40
0.6249999999999999
 40
0.6249999999999999
 40
0.6874999999999998
 40
0.6874999999999998
 40
0.7499999999999997
 40
0.7499999999999997
 40
0.7812499999999997
 40
0.7812499999999997
 40
0.8124999999999998
 40
0.8124999999999998
 40
0.8749999999999998
 40
0.8749999999999998
 40
0.9374999999999999
 40
0.9374999999999999
 40
1.0
 40
1.0
 40
1.0
 40
1.0
 10
-57.15000000000003
 20
6.778996334575446
 30
0.0
 10
-56.5575771655962
 20
6.670751885732628
 30
0.0
 10
-55.9588307845422
 20
6.538540887974111
 30
0.0
 10
-54.76728709946083
 20
6.230038464580906
 30
0.0
 10
-54.17514910947921
 20
6.053951836342417
 30
0.0
 10
-53.28008318038935
 20
5.7585549473885
 30
0.0
 10
-52.98163388986498
 20
5.654980650688197
 30
0.0
 10
-52.3868750264528
 20
5.43845567528037
 30
0.0
 10
-52.0911361267119
 20
5.325590956537436
 30
0.0
 10
-51.19829639717636
 20
4.972725496711591
 30
0.0
 10
-50.59933563203629
 20
4.718820696543048
 30
0.0
 10
-49.41256366504369
 20
4.181686136542272
 30
0.0
 10
-48.81595341153321
 20
3.897168349199788
 30
0.0
 10
-47.62356401525489
 20
3.303157919990479
 30
0.0
 10
-47.03188794251152
 20
2.994412587823689
 30
0.0
 10
-46.13700673203205
 20
2.516051742305283
 30
0.0
 10
-45.83842909280773
 20
2.354219106404635
 30
0.0
 10
-45.24303701904901
 20
2.027068131175625
 30
0.0
 10
-44.94723646509566
 20
1.861942128154503
 30
0.0
 10
-44.05539795939136
 20
1.3613341289877
 30
0.0
 10
-43.45634749757683
 20
1.020850984140623
 30
0.0
 10
-42.56500509850397
 20
0.5079534467285178
 30
0.0
 10
-42.26903932419069
 20
0.33661980867927
 30
0.0
 10
-41.67340835503485
 20
-0.007044994785268
 30
0.0
 10
-41.3747939310088
 20
-0.1791741423613971
 30
0.0
 10
-40.48005178694784
 20
-0.6944348035843291
 30
0.0
 10
-39.88845872062446
 20
-1.035782969302627
 30
0.0
 10
-38.69577618687929
 20
-1.710740991920193
 30
0.0
 10
-38.09998345060623
 20
-2.043326539497052
 30
0.0
 10
-36.91244374595863
 20
-2.691316156217393
 30
0.0
 10
-36.31342833743913
 20
-3.008010844538141
 30
0.0
 10
-35.42100467827748
 20
-3.464688211163324
 30
0.0
 10
-35.12529278640224
 20
-3.613745905007473
 30
0.0
 10
-34.53024152966981
 20
-3.905944033714505
 30
0.0
 10
-34.23172842427856
 20
-4.048937690622196
 30
0.0
 10
-33.33672067929626
 20
-4.466899553960335
 30
0.0
 10
-32.74483165155713
 20
-4.730254247927771
 30
0.0
 10
-31.55288731489713
 20
-5.22355768570625
 30
0.0
 10
-30.95512278355534
 20
-5.453085412730211
 30
0.0
 10
-29.7694036396774
 20
-5.871613442762133
 30
0.0
 10
-29.17054800997355
 20
-6.061870973201135
 30
0.0
 10
-28.57500000000396
 20
-6.230071978111269
 30
0.0
1001
PE_URL
1000

  0
SPLINE
  5
212
330
1F
100
AcDbEntity
  8
0
  6
Continuous
 62
     1
370
    15
100
AcDbSpline
210
0.0
220
0.0
230
1.0
 70
     8
 71
     3
 72
    15
 73
    11
 74
     0
 42
0.000000001
 43
0.00000001
 40
0.0
 40
0.0
 40
0.0
 40
0.0
 40
0.1421393728639725
 40
0.284298403770837
 40
0.4264731109759536
 40
0.5686594915982969
 40
0.7108535269898921
 40
0.8530511881508716
 40
0.99524844117453
 40
1.0
 40
1.0
 40
1.0
 40
1.0
 10
-57.15000000000003
 20
5.636220613580509
 30
0.0
 10
-56.27177889745039
 20
5.451131451593481
 30
0.0
 10
-54.51521523333696
 20
5.080927529570044
 30
0.0
 10
-51.88014065106347
 20
4.227852928799832
 30
0.0
 10
-49.24473709903607
 20
3.201738223307714
 30
0.0
 10
-46.60908400579173
 20
2.026822416647153
 30
0.0
 10
-43.97326783796255
 20
0.7584603441493449
 30
0.0
 10
-41.33737629001675
 20
-0.5328767006004078
 30
0.0
 10
-39.55073733627465
 20
-1.421294275692155
 30
0.0
 10
-38.64274597688402
 20
-1.829044579577864
 30
0.0
 10
-38.61338626786103
 20
-1.842229099620159
 30
0.0
1001
PE_URL
1000

  0
LINE
  5
213
330
1F
100
AcDbEntity
  8
0
  6
Continuous
 62
     1
370
    15
100
AcDbLine
 10
-57.15000000000003
 20
6.778996334575449
 30
0.0
 11
-57.15000000000003
 21
5.636220613580509
 31
0.0
1001
PE_URL
1000

  0
SPLINE
  5
214
330
1F
100
AcDbEntity
  8
0
  6
Continuous
 62
     1
370
    15
100
AcDbSpline
210
0.0
220
0.0
230
1.0
 70
     8
 71
     3
 72
    46
 73
    42
 74
     0
 42
0.000000001
 43
0.00000001
 40
0.0
 40
0.0
 40
0.0
 40
0.0
 40
0.0625
 40
0.0625
 40
0.1249999999999999
 40
0.1249999999999999
 40
0.1562499999999999
 40
0.1562499999999999
 40
0.1874999999999999
 40
0.1874999999999999
 40
0.2499999999999999
 40
0.2499999999999999
 40
0.3124999999999999
 40
0.3124999999999999
 40
0.3749999999999999
 40
0.3749999999999999
 40
0.4062499999999998
 40
0.4062499999999998
 40
0.4374999999999997
 40
0.4374999999999997
 40
0.4999999999999998
 40
0.4999999999999998
 40
0.5312499999999999
 40
0.5312499999999999
 40
0.5625
 40
0.5625
 40
0.625
 40
0.625
 40
0.6875000000000001
 40
0.6875000000000001
 40
0.7500000000000002
 40
0.7500000000000002
 40
0.7812500000000002
 40
0.7812500000000002
 40
0.8125000000000002
 40
0.8125000000000002
 40
0.8750000000000001
 40
0.8750000000000001
 40
0.9375000000000001
 40
0.9375000000000001
 40
1.0
 40
1.0
 40
1.0
 40
1.0
 10
-57.15000000000003
 20
7.137712211296828
 30
0.0
 10
-56.5575771655963
 20
7.123607355886895
 30
0.0
 10
-55.9588307845424
 20
7.084621342132035
 30
0.0
 10
-54.76728709946126
 20
6.957822898906661
 30
0.0
 10
-54.17514910947969
 20
6.870194142422449
 30
0.0
 10
-53.28008318038999
 20
6.703114777287796
 30
0.0
 10
-52.98163388986568
 20
6.641532385305725
 30
0.0
 10
-52.38687502645357
 20
6.507107692044316
 30
0.0
 10
-52.09113612671273
 20
6.434328248978503
 30
0.0
 10
-51.19829639717736
 20
6.198982902018493
 30
0.0
 10
-50.59933563203737
 20
6.019580960454855
 30
0.0
 10
-49.41256366504497
 20
5.62147498331024
 30
0.0
 10
-48.81595341153461
 20
5.401834801442698
 30
0.0
 10
-47.62356401525649
 20
4.926648917930963
 30
0.0
 10
-47.03188794251321
 20
4.671739611325087
 30
0.0
 10
-46.1370067320339
 20
4.265348121634519
 30
0.0
 10
-45.8384290928096
 20
4.126011165935507
 30
0.0
 10
-45.24303701905099
 20
3.840693779865926
 30
0.0
 10
-44.94723646509767
 20
3.694887191040987
 30
0.0
 10
-44.05539795939355
 20
3.247520434776312
 30
0.0
 10
-43.45634749757913
 20
2.936166389525386
 30
0.0
 10
-42.56500509850639
 20
2.456741047154164
 30
0.0
 10
-42.26903932419317
 20
2.29487365638365
 30
0.0
 10
-41.67340835503745
 20
1.966765441143192
 30
0.0
 10
-41.37479393101144
 20
1.800712162234749
 30
0.0
 10
-40.48005178695061
 20
1.298493192634755
 30
0.0
 10
-39.88845872062733
 20
0.9589300465235127
 30
0.0
 10
-38.69577618688237
 20
0.2737088375251027
 30
0.0
 10
-38.09998345060937
 20
-0.0709382341254852
 30
0.0
 10
-36.91244374596201
 20
-0.7565815628666748
 30
0.0
 10
-36.31342833744263
 20
-1.098964633256863
 30
0.0
 10
-35.42100467828111
 20
-1.60388751351973
 30
0.0
 10
-35.12529278640591
 20
-1.77062015565642
 30
0.0
 10
-34.53024152967359
 20
-2.101404753688495
 30
0.0
 10
-34.23172842428239
 20
-2.265297678062264
 30
0.0
 10
-33.33672067930024
 20
-2.750543359277572
 30
0.0
 10
-32.7448316515612
 20
-3.064748609465923
 30
0.0
 10
-31.55288731490142
 20
-3.671174585916845
 30
0.0
 10
-30.95512278355966
 20
-3.962933067654962
 30
0.0
 10
-29.76940363968198
 20
-4.515451944614618
 30
0.0
 10
-29.17054800997824
 20
-4.777882977385953
 30
0.0
 10
-28.57500000000873
 20
-5.022334373442892
 30
0.0
1001
PE_URL
1000

  0
SPLINE
  5
215
330
1F
100
AcDbEntity
  8
0
  6
Continuous
 62
     1
370
    15
100
AcDbSpline
210
0.0
220
0.0
230
1.0
 70
     8
 71
     3
 72
    12
 73
     8
 74
     0
 42
0.000000001
 43
0.00000001
 40
0.0
 40
0.0
 40
0.0
 40
0.0
 40
0.070317482845161
 40
0.3027420050865093
 40
0.53516426840232
 40
0.7675837680682309
 40
1.0
 40
1.0
 40
1.0
 40
1.0
 10
-39.39423513781121
 20
0.6736120213999612
 30
0.0
 10
-39.1406407342885
 20
0.5731378708041106
 30
0.0
 10
-38.0488257958863
 20
0.1405605858957131
 30
0.0
 10
-36.11880031405393
 20
-0.6490850820993934
 30
0.0
 10
-33.60416950625488
 20
-1.639540947907221
 30
0.0
 10
-31.08957150513517
 20
-2.574860999923736
 30
0.0
 10
-29.41318657345646
 20
-3.102610615981696
 30
0.0
 10
-28.57500000000005
 20
-3.366483569005435
 30
0.0
1001
PE_URL
1000

  0
SPLINE
  5
216
330
1F
100
AcDbEntity
  8
외형선
  6
Continuous
370
    15
100
AcDbSpline
210
0.0
220
0.0
230
1.0
 70
    24
 71
     3
 72
    10
 73
     6
 74
     0
 42
0.000000001
 43
0.00000001
 40
0.0
 40
0.0
 40
0.0
 40
0.0
 40
0.5
 40
0.5
 40
1.0
 40
1.0
 40
1.0
 40
1.0
 10
-28.57500000000006
 20
-5.022334373446451
 30
0.0
 10
-28.57500000000006
 20
-4.849171584610414
 30
0.0
 10
-28.57500000000005
 20
-4.606113203809514
 30
0.0
 10
-28.57500000000005
 20
-4.030565752963568
 30
0.0
 10
-28.57500000000005
 20
-3.699962059803916
 30
0.0
 10
-28.57500000000005
 20
-3.366483569005435
 30
0.0
  0
LINE
  5
217
330
1F
100
AcDbEntity
  8
0
  6
Continuous
 62
     1
370
    15
100
AcDbLine
 10
-57.15000000000003
 20
7.137712211296829
 30
0.0
 11
-57.1500000000003
 21
6.778996334575449
 31
0.0
1001
PE_URL
1000

  0
SPLINE
  5
218
330
1F
100
AcDbEntity
  8
0
  6
Continuous
 62
     1
370
    15
100
AcDbSpline
210
0.0
220
0.0
230
1.0
 70
     8
 71
     3
 72
     8
 73
     4
 74
     0
 42
0.000000001
 43
0.00000001
 40
0.0
 40
0.0
 40
0.0
 40
0.0
 40
1.0
 40
1.0
 40
1.0
 40
1.0
 10
-52.72994722123353
 20
-1.998071704796473
 30
0.0
 10
-52.51658074499866
 20
-2.250785469221402
 30
0.0
 10
-52.32191400926206
 20
-2.496189156928892
 30
0.0
 10
-52.15000000000657
 20
-2.73269838023872
 30
0.0
1001
PE_URL
1000

  0
LINE
  5
219
330
1F
100
AcDbEntity
  8
0
  6
Continuous
 62
     1
370
    15
100
AcDbLine
 10
-52.15000000000005
 20
-2.93771943529654
 30
0.0
 11
-57.15000000000005
 21
0.0000000000000604
 31
0.0
1001
PE_URL
1000

  0
LINE
  5
21A
330
1F
100
AcDbEntity
  8
0
  6
Continuous
 62
     1
370
    15
100
AcDbLine
 10
-57.15000000000005
 20
0.0000000000000604
 30
0.0
 11
-57.15000000000005
 21
1.909116795699337
 31
0.0
1001
PE_URL
1000

  0
SPLINE
  5
21B
330
1F
100
AcDbEntity
  8
0
  6
Continuous
 62
     1
370
    15
100
AcDbSpline
210
0.0
220
0.0
230
1.0
 70
     8
 71
     3
 72
    12
 73
     8
 74
     0
 42
0.000000001
 43
0.00000001
 40
0.0
 40
0.0
 40
0.0
 40
0.0
 40
0.4999999999999993
 40
0.4999999999999993
 40
0.7499999999999997
 40
0.7499999999999997
 40
1.0
 40
1.0
 40
1.0
 40
1.0
 10
-57.15000000000005
 20
1.909116795699333
 30
0.0
 10
-56.38487137535722
 20
1.307598644175282
 30
0.0
 10
-55.63252478396964
 20
0.6814219771372798
 30
0.0
 10
-54.52368166277134
 20
-0.2958025426214235
 30
0.0
 10
-54.15739414976737
 20
-0.6279620771735779
 30
0.0
 10
-53.4323062066409
 20
-1.306724885055569
 30
0.0
 10
-53.07546970155865
 20
-1.651581341364587
 30
0.0
 10
-52.72994722123353
 20
-1.998071704796473
 30
0.0
1001
PE_URL
1000

  0
SPLINE
  5
21C
330
1F
100
AcDbEntity
  8
0
  6
Continuous
 62
     1
370
    15
100
AcDbSpline
210
0.0
220
0.0
230
1.0
 70
     8
 71
     3
 72
    14
 73
    10
 74
     0
 42
0.000000001
 43
0.00000001
 40
0.0
 40
0.0
 40
0.0
 40
0.0
 40
0.1644216432332381
 40
0.3288092727343584
 40
0.4932237662249834
 40
0.657671362978944
 40
0.8221410691240384
 40
0.9836810353319612
 40
1.0
 40
1.0
 40
1.0
 40
1.0
 10
-52.72994722123353
 20
-1.998071704796473
 30
0.0
 10
-51.82831177489152
 20
-2.379008387679843
 30
0.0
 10
-50.0252274025824
 20
-3.140802949476324
 30
0.0
 10
-47.32068468092871
 20
-4.109236555830648
 30
0.0
 10
-44.61589324110324
 20
-4.886766628343278
 30
0.0
 10
-41.91058782779409
 20
-5.43719271099199
 30
0.0
 10
-39.22097467480711
 20
-5.700219022174352
 30
0.0
 10
-37.34372359343509
 20
-5.767442862177038
 30
0.0
 10
-36.36837947836402
 20
-5.673449133776408
 30
0.0
 10
-36.27888941972803
 20
-5.664824993705214
 30
0.0
1001
PE_URL
1000

  0
SPLINE
  5
21D
330
1F
100
AcDbEntity
  8
0
  6
Continuous
 62
     1
370
    15
100
AcDbSpline
210
0.0
220
0.0
230
1.0
 70
    24
 71
     3
 72
    10
 73
     6
 74
     0
 42
0.000000001
 43
0.00000001
 40
0.0
 40
0.0
 40
0.0
 40
0.0
 40
0.5
 40
0.5
 40
1.0
 40
1.0
 40
1.0
 40
1.0
 10
-57.15000000000003
 20
5.636220613580505
 30
0.0
 10
-57.15000000000003
 20
5.204160360195992
 30
0.0
 10
-57.15000000000005
 20
4.658235663156901
 30
0.0
 10
-57.15000000000003
 20
3.38901328193273
 30
0.0
 10
-57.15000000000003
 20
2.666815046297856
 30
0.0
 10
-57.15000000000005
 20
1.909116795699564
 30
0.0
1001
PE_URL
1000

  0
LINE
  5
21E
330
1F
100
AcDbEntity
  8
0
  6
Continuous
 62
     1
370
    15
100
AcDbLine
 10
-57.15000000000006
 20
-5.000624999999935
 30
0.0
 11
-54.49585651779775
 21
-4.885461579496539
 31
0.0
1001
PE_URL
1000

  0
SPLINE
  5
21F
330
1F
100
AcDbEntity
  8
0
  6
Continuous
 62
     1
370
    15
100
AcDbSpline
210
0.0
220
0.0
230
1.0
 70
     8
 71
     3
 72
    10
 73
     6
 74
     0
 42
0.000000001
 43
0.00000001
 40
0.0
 40
0.0
 40
0.0
 40
0.0
 40
0.5
 40
0.5
 40
1.0
 40
1.0
 40
1.0
 40
1.0
 10
-57.15000000000006
 20
-5.000624999999939
 30
0.0
 10
-56.41512267565436
 20
-4.801344615786068
 30
0.0
 10
-55.68475016547598
 20
-4.57754497517298
 30
0.0
 10
-54.23376542536687
 20
-4.076821457289356
 30
0.0
 10
-53.51317135123206
 20
-3.800330358944681
 30
0.0
 10
-52.80164218450275
 20
-3.489006772086181
 30
0.0
1001
PE_URL
1000

  0
SPLINE
  5
220
330
1F
100
AcDbEntity
  8
0
  6
Continuous
 62
     1
370
    15
100
AcDbSpline
210
0.0
220
0.0
230
1.0
 70
    24
 71
     3
 72
     8
 73
     4
 74
     0
 42
0.000000001
 43
0.00000001
 40
0.0
 40
0.0
 40
0.0
 40
0.0
 40
1.0
 40
1.0
 40
1.0
 40
1.0
 10
-52.80164218450301
 20
-3.489006772086057
 30
0.0
 10
-52.59457716609322
 20
-3.315258591508687
 30
0.0
 10
-52.37683816416398
 20
-3.132553875297194
 30
0.0
 10
-52.15000000000005
 20
-2.942214055410304
 30
0.0
1001
PE_URL
1000

  0
SPLINE
  5
221
330
1F
100
AcDbEntity
  8
0
  6
Continuous
 62
     1
370
    15
100
AcDbSpline
210
0.0
220
0.0
230
1.0
 70
    24
 71
     3
 72
     8
 73
     4
 74
     0
 42
0.000000001
 43
0.00000001
 40
0.0
 40
0.0
 40
0.0
 40
0.0
 40
1.0
 40
1.0
 40
1.0
 40
1.0
 10
-52.15000000000005
 20
-2.732698380236858
 30
0.0
 10
-52.15000000000005
 20
-2.803890664909666
 30
0.0
 10
-52.15000000000005
 20
-2.873770859916849
 30
0.0
 10
-52.15000000000005
 20
-2.942214055410314
 30
0.0
1001
PE_URL
1000

  0
SPLINE
  5
222
330
1F
100
AcDbEntity
  8
0
  6
Continuous
 62
     1
370
    15
100
AcDbSpline
210
0.0
220
0.0
230
1.0
 70
     8
 71
     3
 72
    13
 73
     9
 74
     0
 42
0.000000001
 43
0.00000001
 40
0.0
 40
0.0
 40
0.0
 40
0.0
 40
0.0080547462051689
 40
0.2093160504304358
 40
0.4069922367965157
 40
0.6046700279758707
 40
0.8023418152869859
 40
0.9999999999999999
 40
0.9999999999999999
 40
0.9999999999999999
 40
0.9999999999999999
 10
-42.01898413764563
 20
5.367885732312311
 30
0.0
 10
-41.98288850202867
 20
5.375158482243815
 30
0.0
 10
-41.04488304628019
 20
5.564153051737975
 30
0.0
 10
-39.22097044095797
 20
5.699442103506639
 30
0.0
 10
-36.54735714828746
 20
5.738832653867492
 30
0.0
 10
-33.88980075243441
 20
5.482663721520895
 30
0.0
 10
-31.23234013987965
 20
4.996017824175386
 30
0.0
 10
-29.46075972765419
 20
4.482634134365913
 30
0.0
 10
-28.57500000000003
 20
4.225951121768993
 30
0.0
1001
PE_URL
1000

  0
SPLINE
  5
223
330
1F
100
AcDbEntity
  8
외형선
  6
Continuous
370
    15
100
AcDbSpline
210
0.0
220
0.0
230
1.0
 70
    24
 71
     3
 72
    14
 73
    10
 74
     0
 42
0.000000001
 43
0.00000001
 40
0.0
 40
0.0
 40
0.0
 40
0.0
 40
0.2499999999999999
 40
0.2499999999999999
 40
0.4999999999999999
 40
0.4999999999999999
 40
0.7499999999999999
 40
0.7499999999999999
 40
1.0
 40
1.0
 40
1.0
 40
1.0
 10
-28.57500000000005
 20
-3.366483569005435
 30
0.0
 10
-28.57500000000004
 20
-2.818569705538213
 30
0.0
 10
-28.57500000000005
 20
-2.214249245718019
 30
0.0
 10
-28.57500000000005
 20
-0.93684445109065
 30
0.0
 10
-28.57500000000005
 20
-0.2642473970797035
 30
0.0
 10
-28.57500000000004
 20
1.0851471457913
 30
0.0
 10
-28.57500000000004
 20
1.761225620823133
 30
0.0
 10
-28.57500000000004
 20
3.051895754409706
 30
0.0
 10
-28.57500000000003
 20
3.665981500283888
 30
0.0
 10
-28.57500000000003
 20
4.22595112176899
 30
0.0
  0
LINE
  5
224
330
1F
100
AcDbEntity
  8
0
  6
Continuous
 62
     1
370
    15
100
AcDbLine
 10
-57.15000000000005
 20
0.0000000000000604
 30
0.0
 11
-57.15000000000006
 21
-5.000624999999939
 31
0.0
1001
PE_URL
1000

  0
SPLINE
  5
225
330
1F
100
AcDbEntity
  8
외형선
  6
Continuous
370
    15
100
AcDbSpline
210
0.0
220
0.0
230
1.0
 70
    24
 71
     3
 72
    12
 73
     8
 74
     0
 42
0.000000001
 43
0.00000001
 40
0.0
 40
0.0
 40
0.0
 40
0.0
 40
0.1825317956752352
 40
0.3650635913504704
 40
0.632018809544513
 40
0.9067157471510138
 40
1.0
 40
1.0
 40
1.0
 40
1.0
 10
-28.57500000000003
 20
4.225951121768993
 30
0.0
 10
-28.57500000000003
 20
4.391402558650832
 30
0.0
 10
-28.57500000000003
 20
4.722305432414508
 30
0.0
 10
-28.57500000000002
 20
5.170227544777998
 30
0.0
 10
-28.57500000000002
 20
5.526958139537822
 30
0.0
 10
-28.57500000000002
 20
5.705832877976796
 30
0.0
 10
-28.57500000000002
 20
5.685161814712554
 30
0.0
 10
-28.57500000000002
 20
5.67992164281732
 30
0.0
  0
SPLINE
  5
226
330
1F
100
AcDbEntity
  8
0
  6
Continuous
 62
     1
370
    15
100
AcDbSpline
210
0.0
220
0.0
230
1.0
 70
     8
 71
     3
 72
    11
 73
     7
 74
     0
 42
0.000000001
 43
0.00000001
 40
0.0
 40
0.0
 40
0.0
 40
0.0
 40
0.2314911883652783
 40
0.4876672289323575
 40
0.7438370006385323
 40
1.0
 40
1.0
 40
1.0
 40
1.0
 10
-47.3353386930542
 20
-4.788874728286103
 30
0.0
 10
-48.09268078439656
 20
-5.101183682758634
 30
0.0
 10
-49.68812345176926
 20
-5.759104372845801
 30
0.0
 10
-52.12163227799206
 20
-6.478125438773027
 30
0.0
 10
-54.63584613554369
 20
-6.993410443468726
 30
0.0
 10
-56.31195609714845
 20
-7.089612045905636
 30
0.0
 10
-57.15000000000006
 20
-7.137712211296702
 30
0.0
1001
PE_URL
1000

  0
SPLINE
  5
227
330
1F
100
AcDbEntity
  8
0
  6
Continuous
 62
     1
370
    15
100
AcDbSpline
210
0.0
220
0.0
230
1.0
 70
    24
 71
     3
 72
    10
 73
     6
 74
     0
 42
0.000000001
 43
0.00000001
 40
0.0
 40
0.0
 40
0.0
 40
0.0
 40
0.5
 40
0.5
 40
1.0
 40
1.0
 40
1.0
 40
1.0
 10
-57.15000000000006
 20
-5.000624999999939
 30
0.0
 10
-57.15000000000006
 20
-5.303750434567185
 30
0.0
 10
-57.15000000000006
 20
-5.656010261969403
 30
0.0
 10
-57.15000000000006
 20
-6.395050431114047
 30
0.0
 10
-57.15000000000006
 20
-6.779943357006704
 30
0.0
 10
-57.15000000000006
 20
-7.137712211296705
 30
0.0
1001
PE_URL
1000

  0
LINE
  5
228
330
1F
100
AcDbEntity
  8
0
  6
Continuous
 62
     1
370
    15
100
AcDbLine
 10
-30.42821661820911
 20
5.615633338416369
 30
0.0
 11
-28.57500000000394
 21
6.230071978111265
 31
0.0
1001
PE_URL
1000

  0
SPLINE
  5
229
330
1F
100
AcDbEntity
  8
외형선
  6
Continuous
370
    15
100
AcDbSpline
210
0.0
220
0.0
230
1.0
 70
    24
 71
     3
 72
    11
 73
     7
 74
     0
 42
0.000000001
 43
0.00000001
 40
0.0
 40
0.0
 40
0.0
 40
0.0
 40
0.1905613617420567
 40
0.4909760904096065
 40
0.7917409254944251
 40
1.0
 40
1.0
 40
1.0
 40
1.0
 10
-28.57500000000002
 20
5.700913347634827
 30
0.0
 10
-28.57500000000002
 20
5.736707024071325
 30
0.0
 10
-28.57500000000002
 20
5.828928443762724
 30
0.0
 10
-28.57500000000003
 20
5.970682451169115
 30
0.0
 10
-28.57500000000002
 20
6.111147079489669
 30
0.0
 10
-28.57500000000002
 20
6.195542803601583
 30
0.0
 10
-28.57500000000003
 20
6.230071978095404
 30
0.0
  0
LINE
  5
22A
330
1F
100
AcDbEntity
  8
외형선
  6
Continuous
370
    15
100
AcDbLine
 10
-6.743699999999983
 20
7.937499999999991
 30
0.0
 11
-24.61268467149224
 21
7.93749999999999
 31
0.0
  0
ENDSEC
  0
SECTION
  2
OBJECTS
  0
DICTIONARY
  5
C
330
0
100
AcDbDictionary
281
     1
  3
ACAD_GROUP
350
D
  3
ACAD_IMAGE_VARS
350
24F
  3
ACAD_LAYOUT
350
1A
  3
ACAD_MLINESTYLE
350
17
  3
ACAD_PLOTSETTINGS
350
19
  3
ACAD_PLOTSTYLENAME
350
E
  3
ACAD_SCALELIST
350
47
  3
APPDATA
350
15B
  3
DWGPROPS
350
250
  0
DICTIONARY
  5
195
330
2
100
AcDbDictionary
280
     1
281
     1
  3
ACAD_LAYERSTATES
360
196
  0
DICTIONARY
  5
D
102
{ACAD_REACTORS
330
C
102
}
330
C
100
AcDbDictionary
281
     1
  0
RASTERVARIABLES
  5
24F
102
{ACAD_REACTORS
330
C
102
}
330
C
100
AcDbRasterVariables
 90
        0
 70
     1
 71
     1
 72
     1
  0
DICTIONARY
  5
1A
102
{ACAD_REACTORS
330
C
102
}
330
C
100
AcDbDictionary
281
     1
  3
Layout1
350
1E
  3
Layout2
350
26
  3
Model
350
22
  0
DICTIONARY
  5
17
102
{ACAD_REACTORS
330
C
102
}
330
C
100
AcDbDictionary
281
     1
  3
Standard
350
18
  0
DICTIONARY
  5
19
102
{ACAD_REACTORS
330
C
102
}
330
C
100
AcDbDictionary
281
     1
  0
ACDBDICTIONARYWDFLT
  5
E
102
{ACAD_REACTORS
330
C
102
}
330
C
100
AcDbDictionary
281
     1
  3
Normal
350
F
100
AcDbDictionaryWithDefault
340
F
  0
DICTIONARY
  5
47
102
{ACAD_REACTORS
330
C
102
}
330
C
100
AcDbDictionary
281
     1
  3
A0
350
48
  3
A1
350
49
  3
A2
350
4A
  3
A3
350
4B
  3
A4
350
4C
  3
A5
350
4D
  3
A6
350
4E
  3
A7
350
4F
  3
A8
350
50
  3
A9
350
51
  3
B0
350
52
  3
B1
350
53
  3
B2
350
54
  3
B3
350
55
  3
B4
350
56
  3
B5
350
57
  3
B6
350
58
  3
B7
350
59
  3
B8
350
5A
  3
B9
350
5B
  3
C0
350
5C
  3
C1
350
5D
  3
C2
350
5E
  3
C3
350
5F
  3
C4
350
60
  3
C5
350
61
  3
C6
350
62
  3
C7
350
63
  3
C8
350
64
  3
C9
350
65
  3
D0
350
66
  3
D1
350
67
  3
D2
350
68
  0
DICTIONARY
  5
15B
102
{ACAD_REACTORS
330
C
102
}
330
C
100
AcDbDictionary
281
     1
  0
XRECORD
  5
250
102
{ACAD_REACTORS
330
C
102
}
330
C
100
AcDbXrecord
280
     1
  1
DWGPROPS COOKIE
  2

  3

  4

  6

  7

  8
12016016
  9

300
=
301
=
302
=
303
=
304
=
305
=
306
=
307
=
308
=
309
=
 40
0.0
 41
2458313.024277245
 42
2458330.400865185
  1

 90
        0
  0
DICTIONARY
  5
196
102
{ACAD_REACTORS
330
195
102
}
330
195
100
AcDbDictionary
281
     1
  0
LAYOUT
  5
1E
102
{ACAD_REACTORS
330
1A
102
}
330
1A
100
AcDbPlotSettings
  1

  2
none_device
  4

  6

 40
0.0
 41
0.0
 42
0.0
 43
0.0
 44
0.0
 45
0.0
 46
0.0
 47
0.0
 48
0.0
 49
0.0
140
0.0
141
0.0
142
1.0
143
1.0
 70
   688
 72
     1
 73
     0
 74
     5
  7

 75
    16
147
1.0
148
0.0
149
0.0
100
AcDbLayout
  1
Layout1
 70
     1
 71
     1
 10
0.0
 20
0.0
 11
420.0
 21
297.0
 12
0.0
 22
0.0
 32
0.0
 14
1.000000000000000E+20
 24
1.000000000000000E+20
 34
1.000000000000000E+20
 15
-1.000000000000000E+20
 25
-1.000000000000000E+20
 35
-1.000000000000000E+20
146
0.0
 13
0.0
 23
0.0
 33
0.0
 16
1.0
 26
0.0
 36
0.0
 17
0.0
 27
1.0
 37
0.0
 76
     0
330
1B
  0
LAYOUT
  5
26
102
{ACAD_REACTORS
330
1A
102
}
330
1A
100
AcDbPlotSettings
  1

  2
none_device
  4

  6

 40
0.0
 41
0.0
 42
0.0
 43
0.0
 44
0.0
 45
0.0
 46
0.0
 47
0.0
 48
0.0
 49
0.0
140
0.0
141
0.0
142
1.0
143
1.0
 70
   688
 72
     1
 73
     0
 74
     5
  7

 75
    16
147
1.0
148
0.0
149
0.0
100
AcDbLayout
  1
Layout2
 70
     1
 71
     2
 10
0.0
 20
0.0
 11
0.0
 21
0.0
 12
0.0
 22
0.0
 32
0.0
 14
0.0
 24
0.0
 34
0.0
 15
0.0
 25
0.0
 35
0.0
146
0.0
 13
0.0
 23
0.0
 33
0.0
 16
1.0
 26
0.0
 36
0.0
 17
0.0
 27
1.0
 37
0.0
 76
     0
330
23
  0
LAYOUT
  5
22
102
{ACAD_REACTORS
330
1A
102
}
330
1A
100
AcDbPlotSettings
  1

  2
none_device
  4
ANSI_A_(11.00_x_8.50_Inches)
  6

 40
6.35
 41
19.05
 42
6.35000508
 43
19.05000254
 44
279.4
 45
215.9
 46
60.05458028439219
 47
42.90754855624398
 48
0.0
 49
0.0
140
0.0
141
0.0
142
0.0259721867714998
143
1.0
 70
  1696
 72
     0
 73
     0
 74
     0
  7

 75
     0
147
0.0235690232323232
148
0.0
149
0.0
100
AcDbLayout
  1
Model
 70
     1
 71
     0
 10
0.0
 20
0.0
 11
420.0
 21
297.0
 12
0.0
 22
0.0
 32
0.0
 14
-76.52500000000009
 24
-49.97180738881174
 34
0.0
 15
99.38162503295504
 25
43.49171221129683
 35
0.0
146
0.0
 13
0.0
 23
0.0
 33
0.0
 16
1.0
 26
0.0
 36
0.0
 17
0.0
 27
1.0
 37
0.0
 76
     0
330
1F
331
29
  0
MLINESTYLE
  5
18
102
{ACAD_REACTORS
330
17
102
}
330
17
100
AcDbMlineStyle
  2
Standard
 70
     0
  3

 62
   256
 51
90.0
 52
90.0
 71
     2
 49
0.5
 62
   256
  6
BYLAYER
 49
-0.5
 62
   256
  6
BYLAYER
  0
ACDBPLACEHOLDER
  5
F
102
{ACAD_REACTORS
330
E
102
}
330
E
  0
SCALE
  5
48
102
{ACAD_REACTORS
330
47
102
}
330
47
100
AcDbScale
 70
     0
300
1:1
140
1.0
141
1.0
290
     1
  0
SCALE
  5
49
102
{ACAD_REACTORS
330
47
102
}
330
47
100
AcDbScale
 70
     0
300
1:2
140
1.0
141
2.0
290
     0
  0
SCALE
  5
4A
102
{ACAD_REACTORS
330
47
102
}
330
47
100
AcDbScale
 70
     0
300
1:4
140
1.0
141
4.0
290
     0
  0
SCALE
  5
4B
102
{ACAD_REACTORS
330
47
102
}
330
47
100
AcDbScale
 70
     0
300
1:5
140
1.0
141
5.0
290
     0
  0
SCALE
  5
4C
102
{ACAD_REACTORS
330
47
102
}
330
47
100
AcDbScale
 70
     0
300
1:8
140
1.0
141
8.0
290
     0
  0
SCALE
  5
4D
102
{ACAD_REACTORS
330
47
102
}
330
47
100
AcDbScale
 70
     0
300
1:10
140
1.0
141
10.0
290
     0
  0
SCALE
  5
4E
102
{ACAD_REACTORS
330
47
102
}
330
47
100
AcDbScale
 70
     0
300
1:16
140
1.0
141
16.0
290
     0
  0
SCALE
  5
4F
102
{ACAD_REACTORS
330
47
102
}
330
47
100
AcDbScale
 70
     0
300
1:20
140
1.0
141
20.0
290
     0
  0
SCALE
  5
50
102
{ACAD_REACTORS
330
47
102
}
330
47
100
AcDbScale
 70
     0
300
1:30
140
1.0
141
30.0
290
     0
  0
SCALE
  5
51
102
{ACAD_REACTORS
330
47
102
}
330
47
100
AcDbScale
 70
     0
300
1:40
140
1.0
141
40.0
290
     0
  0
SCALE
  5
52
102
{ACAD_REACTORS
330
47
102
}
330
47
100
AcDbScale
 70
     0
300
1:50
140
1.0
141
50.0
290
     0
  0
SCALE
  5
53
102
{ACAD_REACTORS
330
47
102
}
330
47
100
AcDbScale
 70
     0
300
1:100
140
1.0
141
100.0
290
     0
  0
SCALE
  5
54
102
{ACAD_REACTORS
330
47
102
}
330
47
100
AcDbScale
 70
     0
300
2:1
140
2.0
141
1.0
290
     0
  0
SCALE
  5
55
102
{ACAD_REACTORS
330
47
102
}
330
47
100
AcDbScale
 70
     0
300
4:1
140
4.0
141
1.0
290
     0
  0
SCALE
  5
56
102
{ACAD_REACTORS
330
47
102
}
330
47
100
AcDbScale
 70
     0
300
8:1
140
8.0
141
1.0
290
     0
  0
SCALE
  5
57
102
{ACAD_REACTORS
330
47
102
}
330
47
100
AcDbScale
 70
     0
300
10:1
140
10.0
141
1.0
290
     0
  0
SCALE
  5
58
102
{ACAD_REACTORS
330
47
102
}
330
47
100
AcDbScale
 70
     0
300
100:1
140
100.0
141
1.0
290
     0
  0
SCALE
  5
59
102
{ACAD_REACTORS
330
47
102
}
330
47
100
AcDbScale
 70
     0
300
1/128" = 1'-0"
140
0.0078125
141
12.0
290
     0
  0
SCALE
  5
5A
102
{ACAD_REACTORS
330
47
102
}
330
47
100
AcDbScale
 70
     0
300
1/64" = 1'-0"
140
0.015625
141
12.0
290
     0
  0
SCALE
  5
5B
102
{ACAD_REACTORS
330
47
102
}
330
47
100
AcDbScale
 70
     0
300
1/32" = 1'-0"
140
0.03125
141
12.0
290
     0
  0
SCALE
  5
5C
102
{ACAD_REACTORS
330
47
102
}
330
47
100
AcDbScale
 70
     0
300
1/16" = 1'-0"
140
0.0625
141
12.0
290
     0
  0
SCALE
  5
5D
102
{ACAD_REACTORS
330
47
102
}
330
47
100
AcDbScale
 70
     0
300
3/32" = 1'-0"
140
0.09375
141
12.0
290
     0
  0
SCALE
  5
5E
102
{ACAD_REACTORS
330
47
102
}
330
47
100
AcDbScale
 70
     0
300
1/8" = 1'-0"
140
0.125
141
12.0
290
     0
  0
SCALE
  5
5F
102
{ACAD_REACTORS
330
47
102
}
330
47
100
AcDbScale
 70
     0
300
3/16" = 1'-0"
140
0.1875
141
12.0
290
     0
  0
SCALE
  5
60
102
{ACAD_REACTORS
330
47
102
}
330
47
100
AcDbScale
 70
     0
300
1/4" = 1'-0"
140
0.25
141
12.0
290
     0
  0
SCALE
  5
61
102
{ACAD_REACTORS
330
47
102
}
330
47
100
AcDbScale
 70
     0
300
3/8" = 1'-0"
140
0.375
141
12.0
290
     0
  0
SCALE
  5
62
102
{ACAD_REACTORS
330
47
102
}
330
47
100
AcDbScale
 70
     0
300
1/2" = 1'-0"
140
0.5
141
12.0
290
     0
  0
SCALE
  5
63
102
{ACAD_REACTORS
330
47
102
}
330
47
100
AcDbScale
 70
     0
300
3/4" = 1'-0"
140
0.75
141
12.0
290
     0
  0
SCALE
  5
64
102
{ACAD_REACTORS
330
47
102
}
330
47
100
AcDbScale
 70
     0
300
1" = 1'-0"
140
1.0
141
12.0
290
     0
  0
SCALE
  5
65
102
{ACAD_REACTORS
330
47
102
}
330
47
100
AcDbScale
 70
     0
300
1-1/2" = 1'-0"
140
1.5
141
12.0
290
     0
  0
SCALE
  5
66
102
{ACAD_REACTORS
330
47
102
}
330
47
100
AcDbScale
 70
     0
300
3" = 1'-0"
140
3.0
141
12.0
290
     0
  0
SCALE
  5
67
102
{ACAD_REACTORS
330
47
102
}
330
47
100
AcDbScale
 70
     0
300
6" = 1'-0"
140
6.0
141
12.0
290
     0
  0
SCALE
  5
68
102
{ACAD_REACTORS
330
47
102
}
330
47
100
AcDbScale
 70
     0
300
1'-0" = 1'-0"
140
12.0
141
12.0
290
     0
  0
ENDSEC
  0
EOF
