  0
SECTION
  2
HEADER
  9
$ACADVER
  1
AC1015
  9
$ACADMAINTVER
 70
     6
  9
$DWGCODEPAGE
  3
ANSI_949
  9
$INSBASE
 10
0.0
 20
0.0
 30
0.0
  9
$EXTMIN
 10
-76.52500000000009
 20
-49.97180738881175
 30
0.0
  9
$EXTMAX
 10
99.38162503295504
 20
42.54149999999992
 30
0.0
  9
$LIMMIN
 10
0.0
 20
0.0
  9
$LIMMAX
 10
420.0
 20
297.0
  9
$ORTHOMODE
 70
     1
  9
$REGENMODE
 70
     1
  9
$FILLMODE
 70
     1
  9
$QTEXTMODE
 70
     0
  9
$MIRRTEXT
 70
     1
  9
$LTSCALE
 40
1.0
  9
$ATTMODE
 70
     1
  9
$TEXTSIZE
 40
3.5
  9
$TRACEWID
 40
1.0
  9
$TEXTSTYLE
  7
Standard
  9
$CLAYER
  8
0
  9
$CELTYPE
  6
ByLayer
  9
$CECOLOR
 62
   256
  9
$CELTSCALE
 40
1.0
  9
$DISPSILH
 70
     0
  9
$DIMSCALE
 40
1.0
  9
$DIMASZ
 40
3.302
  9
$DIMEXO
 40
1.0
  9
$DIMDLI
 40
3.75
  9
$DIMRND
 40
0.0
  9
$DIMDLE
 40
0.0
  9
$DIMEXE
 40
1.0
  9
$DIMTP
 40
0.0
  9
$DIMTM
 40
0.0
  9
$DIMTXT
 40
3.5
  9
$DIMCEN
 40
2.5
  9
$DIMTSZ
 40
0.0
  9
$DIMTOL
 70
     0
  9
$DIMLIM
 70
     0
  9
$DIMTIH
 70
     1
  9
$DIMTOH
 70
     1
  9
$DIMSE1
 70
     0
  9
$DIMSE2
 70
     0
  9
$DIMTAD
 70
     1
  9
$DIMZIN
 70
     0
  9
$DIMBLK
  1

  9
$DIMASO
 70
     1
  9
$DIMSHO
 70
     1
  9
$DIMPOST
  1

  9
$DIMAPOST
  1

  9
$DIMALT
 70
     0
  9
$DIMALTD
 70
     3
  9
$DIMALTF
 40
0.0393700787401575
  9
$DIMLFAC
 40
1.0
  9
$DIMTOFL
 70
     1
  9
$DIMTVP
 40
0.0
  9
$DIMTIX
 70
     0
  9
$DIMSOXD
 70
     0
  9
$DIMSAH
 70
     0
  9
$DIMBLK1
  1

  9
$DIMBLK2
  1

  9
$DIMSTYLE
  2
ISO-25
  9
$DIMCLRD
 70
     0
  9
$DIMCLRE
 70
     0
  9
$DIMCLRT
 70
     0
  9
$DIMTFAC
 40
1.0
  9
$DIMGAP
 40
1.524
  9
$DIMJUST
 70
     0
  9
$DIMSD1
 70
     0
  9
$DIMSD2
 70
     0
  9
$DIMTOLJ
 70
     0
  9
$DIMTZIN
 70
     0
  9
$DIMALTZ
 70
     0
  9
$DIMALTTZ
 70
     0
  9
$DIMUPT
 70
     0
  9
$DIMDEC
 70
     2
  9
$DIMTDEC
 70
     2
  9
$DIMALTU
 70
     2
  9
$DIMALTTD
 70
     3
  9
$DIMTXSTY
  7
Standard
  9
$DIMAUNIT
 70
     0
  9
$DIMADEC
 70
     2
  9
$DIMALTRND
 40
0.0
  9
$DIMAZIN
 70
     0
  9
$DIMDSEP
 70
    44
  9
$DIMATFIT
 70
     3
  9
$DIMFRAC
 70
     0
  9
$DIMLDRBLK
  1

  9
$DIMLUNIT
 70
     2
  9
$DIMLWD
 70
    -2
  9
$DIMLWE
 70
    -2
  9
$DIMTMOVE
 70
     0
  9
$LUNITS
 70
     2
  9
$LUPREC
 70
     2
  9
$SKETCHINC
 40
1.0
  9
$FILLETRAD
 40
10.0
  9
$AUNITS
 70
     0
  9
$AUPREC
 70
     2
  9
$MENU
  1
.
  9
$ELEVATION
 40
0.0
  9
$PELEVATION
 40
0.0
  9
$THICKNESS
 40
0.0
  9
$LIMCHECK
 70
     0
  9
$CHAMFERA
 40
0.0
  9
$CHAMFERB
 40
0.0
  9
$CHAMFERC
 40
0.0
  9
$CHAMFERD
 40
0.0
  9
$SKPOLY
 70
     0
  9
$TDCREATE
 40
2458313.399700116
  9
$TDUCREATE
 40
2458313.024700116
  9
$TDUPDATE
 40
2458330.775768113
  9
$TDUUPDATE
 40
2458330.400768113
  9
$TDINDWG
 40
0.0025225
  9
$TDUSRTIMER
 40
2458330.400727951
  9
$USRTIMER
 70
     1
  9
$ANGBASE
 50
0.0
  9
$ANGDIR
 70
     0
  9
$PDMODE
 70
     0
  9
$PDSIZE
 40
-1.0
  9
$PLINEWID
 40
0.0
  9
$SPLFRAME
 70
     0
  9
$SPLINETYPE
 70
     6
  9
$SPLINESEGS
 70
     8
  9
$HANDSEED
  5
2B4
  9
$SURFTAB1
 70
     6
  9
$SURFTAB2
 70
     6
  9
$SURFTYPE
 70
     6
  9
$SURFU
 70
     6
  9
$SURFV
 70
     6
  9
$UCSBASE
  2

  9
$UCSNAME
  2

  9
$UCSORG
 10
0.0
 20
0.0
 30
0.0
  9
$UCSXDIR
 10
1.0
 20
0.0
 30
0.0
  9
$UCSYDIR
 10
0.0
 20
1.0
 30
0.0
  9
$UCSORTHOREF
  2

  9
$UCSORTHOVIEW
 70
     0
  9
$UCSORGTOP
 10
0.0
 20
0.0
 30
0.0
  9
$UCSORGBOTTOM
 10
0.0
 20
0.0
 30
0.0
  9
$UCSORGLEFT
 10
0.0
 20
0.0
 30
0.0
  9
$UCSORGRIGHT
 10
0.0
 20
0.0
 30
0.0
  9
$UCSORGFRONT
 10
0.0
 20
0.0
 30
0.0
  9
$UCSORGBACK
 10
0.0
 20
0.0
 30
0.0
  9
$PUCSBASE
  2

  9
$PUCSNAME
  2

  9
$PUCSORG
 10
0.0
 20
0.0
 30
0.0
  9
$PUCSXDIR
 10
1.0
 20
0.0
 30
0.0
  9
$PUCSYDIR
 10
0.0
 20
1.0
 30
0.0
  9
$PUCSORTHOREF
  2

  9
$PUCSORTHOVIEW
 70
     0
  9
$PUCSORGTOP
 10
0.0
 20
0.0
 30
0.0
  9
$PUCSORGBOTTOM
 10
0.0
 20
0.0
 30
0.0
  9
$PUCSORGLEFT
 10
0.0
 20
0.0
 30
0.0
  9
$PUCSORGRIGHT
 10
0.0
 20
0.0
 30
0.0
  9
$PUCSORGFRONT
 10
0.0
 20
0.0
 30
0.0
  9
$PUCSORGBACK
 10
0.0
 20
0.0
 30
0.0
  9
$USERI1
 70
     0
  9
$USERI2
 70
     0
  9
$USERI3
 70
     0
  9
$USERI4
 70
     0
  9
$USERI5
 70
     0
  9
$USERR1
 40
0.0
  9
$USERR2
 40
0.0
  9
$USERR3
 40
0.0
  9
$USERR4
 40
0.0
  9
$USERR5
 40
0.0
  9
$WORLDVIEW
 70
     1
  9
$SHADEDGE
 70
     3
  9
$SHADEDIF
 70
    70
  9
$TILEMODE
 70
     1
  9
$MAXACTVP
 70
    64
  9
$PINSBASE
 10
0.0
 20
0.0
 30
0.0
  9
$PLIMCHECK
 70
     0
  9
$PEXTMIN
 10
1.000000000000000E+20
 20
1.000000000000000E+20
 30
1.000000000000000E+20
  9
$PEXTMAX
 10
-1.000000000000000E+20
 20
-1.000000000000000E+20
 30
-1.000000000000000E+20
  9
$PLIMMIN
 10
0.0
 20
0.0
  9
$PLIMMAX
 10
0.0
 20
0.0
  9
$UNITMODE
 70
     0
  9
$VISRETAIN
 70
     1
  9
$PLINEGEN
 70
     0
  9
$PSLTSCALE
 70
     1
  9
$TREEDEPTH
 70
  3020
  9
$CMLSTYLE
  2
Standard
  9
$CMLJUST
 70
     0
  9
$CMLSCALE
 40
20.0
  9
$PROXYGRAPHICS
 70
     1
  9
$MEASUREMENT
 70
     1
  9
$CELWEIGHT
370
    -1
  9
$ENDCAPS
280
     0
  9
$JOINSTYLE
280
     0
  9
$LWDISPLAY
290
     1
  9
$INSUNITS
 70
     4
  9
$HYPERLINKBASE
  1

  9
$STYLESHEET
  1

  9
$XEDIT
290
     1
  9
$CEPSNTYPE
380
     0
  9
$PSTYLEMODE
290
     1
  9
$FINGERPRINTGUID
  2
{A515E5A1-0E04-4168-A33C-52AF8DD22275}
  9
$VERSIONGUID
  2
{FAEB1C32-E019-11D5-929B-00C0DF256EC4}
  9
$EXTNAMES
290
     1
  9
$PSVPSCALE
 40
0.0
  9
$OLESTARTUP
290
     0
  0
ENDSEC
  0
SECTION
  2
CLASSES
  0
CLASS
  1
ACDBDICTIONARYWDFLT
  2
AcDbDictionaryWithDefault
  3
ObjectDBX Classes
 90
        0
280
     0
281
     0
  0
CLASS
  1
VISUALSTYLE
  2
AcDbVisualStyle
  3
ObjectDBX Classes
 90
     4095
280
     0
281
     0
  0
CLASS
  1
MATERIAL
  2
AcDbMaterial
  3
ObjectDBX Classes
 90
     1153
280
     0
281
     0
  0
CLASS
  1
SCALE
  2
AcDbScale
  3
ObjectDBX Classes
 90
     1153
280
     0
281
     0
  0
CLASS
  1
SUN
  2
AcDbSun
  3
SCENEOE
 90
     1153
280
     0
281
     0
  0
CLASS
  1
ACDBPLACEHOLDER
  2
AcDbPlaceHolder
  3
ObjectDBX Classes
 90
        0
280
     0
281
     0
  0
CLASS
  1
LAYOUT
  2
AcDbLayout
  3
ObjectDBX Classes
 90
        0
280
     0
281
     0
  0
CLASS
  1
TABLESTYLE
  2
AcDbTableStyle
  3
ObjectDBX Classes
 90
     4095
280
     0
281
     0
  0
CLASS
  1
MLEADERSTYLE
  2
AcDbMLeaderStyle
  3
ACDB_MLEADERSTYLE_CLASS
 90
     4095
280
     0
281
     0
  0
CLASS
  1
RASTERVARIABLES
  2
AcDbRasterVariables
  3
ISM
 90
        0
280
     0
281
     0
  0
ENDSEC
  0
SECTION
  2
TABLES
  0
TABLE
  2
VPORT
  5
8
330
0
100
AcDbSymbolTable
 70
     1
  0
VPORT
  5
29
330
8
100
AcDbSymbolTableRecord
100
AcDbViewportTableRecord
  2
*Active
 70
     0
 10
0.0
 20
0.0
 11
1.0
 21
1.0
 12
11.42831251647748
 22
-3.715153694405913
 13
0.0
 23
0.0
 14
10.0
 24
10.0
 15
10.0
 25
10.0
 16
0.0
 26
0.0
 36
1.0
 17
0.0
 27
0.0
 37
0.0
 40
100.6442182986565
 41
1.782762691853601
 42
50.0
 43
0.0
 44
0.0
 50
0.0
 51
0.0
 71
    16
 72
  2000
 73
     1
 74
     3
 75
     0
 76
     0
 77
     0
 78
     0
281
     0
 65
     1
110
0.0
120
0.0
130
0.0
111
1.0
121
0.0
131
0.0
112
0.0
122
1.0
132
0.0
 79
     0
146
0.0
  0
ENDTAB
  0
TABLE
  2
LTYPE
  5
5
330
0
100
AcDbSymbolTable
 70
     6
  0
LTYPE
  5
14
330
5
100
AcDbSymbolTableRecord
100
AcDbLinetypeTableRecord
  2
ByBlock
 70
     0
  3

 72
    65
 73
     0
 40
0.0
  0
LTYPE
  5
15
330
5
100
AcDbSymbolTableRecord
100
AcDbLinetypeTableRecord
  2
ByLayer
 70
     0
  3

 72
    65
 73
     0
 40
0.0
  0
LTYPE
  5
16
330
5
100
AcDbSymbolTableRecord
100
AcDbLinetypeTableRecord
  2
Continuous
 70
     0
  3
Solid line
 72
    65
 73
     0
 40
0.0
  0
LTYPE
  5
6A
330
5
100
AcDbSymbolTableRecord
100
AcDbLinetypeTableRecord
  2
HIDDEN
 70
     0
  3
Hidden __ __ __ __ __ __ __ __ __ __ __ __ __ __
 72
    65
 73
     2
 40
1.905
 49
1.27
 74
     0
 49
-0.635
 74
     0
  0
LTYPE
  5
6B
330
5
100
AcDbSymbolTableRecord
100
AcDbLinetypeTableRecord
  2
PHANTOM
 70
     0
  3
Phantom ______  __  __  ______  __  __  ______
 72
    65
 73
     6
 40
12.7
 49
6.35
 74
     0
 49
-1.27
 74
     0
 49
1.27
 74
     0
 49
-1.27
 74
     0
 49
1.27
 74
     0
 49
-1.27
 74
     0
  0
LTYPE
  5
6C
330
5
100
AcDbSymbolTableRecord
100
AcDbLinetypeTableRecord
  2
CENTER
 70
     0
  3
Center ____ _ ____ _ ____ _ ____ _ ____ _ ____
 72
    65
 73
     4
 40
10.16
 49
6.35
 74
     0
 49
-1.27
 74
     0
 49
1.27
 74
     0
 49
-1.27
 74
     0
  0
LTYPE
  5
6D
330
5
100
AcDbSymbolTableRecord
100
AcDbLinetypeTableRecord
  2
CENTERX2
 70
     0
  3
Center (2x) ________  __  ________  __  _____
 72
    65
 73
     4
 40
20.32
 49
12.7
 74
     0
 49
-2.54
 74
     0
 49
2.54
 74
     0
 49
-2.54
 74
     0
  0
LTYPE
  5
6E
330
5
100
AcDbSymbolTableRecord
100
AcDbLinetypeTableRecord
  2
DOT2
 70
     0
  3
Dot (.5x) ........................................
 72
    65
 73
     2
 40
0.635
 49
0.0
 74
     0
 49
-0.635
 74
     0
  0
ENDTAB
  0
TABLE
  2
LAYER
  5
2
102
{ACAD_XDICTIONARY
360
18D
102
}
330
0
100
AcDbSymbolTable
 70
    18
  0
LAYER
  5
10
330
2
100
AcDbSymbolTableRecord
100
AcDbLayerTableRecord
  2
0
 70
     0
 62
     7
  6
Continuous
370
    -3
390
F
  0
LAYER
  5
6F
330
2
100
AcDbSymbolTableRecord
100
AcDbLayerTableRecord
  2
FORMAT
 70
     0
 62
     2
  6
Continuous
370
    -3
390
F
  0
LAYER
  5
70
330
2
100
AcDbSymbolTableRecord
100
AcDbLayerTableRecord
  2
외형선
 70
     0
 62
     4
  6
Continuous
370
    30
390
F
  0
LAYER
  5
71
330
2
100
AcDbSymbolTableRecord
100
AcDbLayerTableRecord
  2
숨은선
 70
     0
 62
     2
  6
HIDDEN
370
    15
390
F
  0
LAYER
  5
72
330
2
100
AcDbSymbolTableRecord
100
AcDbLayerTableRecord
  2
중심선
 70
     0
 62
     1
  6
CENTERX2
370
    -3
390
F
  0
LAYER
  5
73
330
2
100
AcDbSymbolTableRecord
100
AcDbLayerTableRecord
  2
파단선
 70
     0
 62
     4
  6
Continuous
370
    -3
390
F
  0
LAYER
  5
74
330
2
100
AcDbSymbolTableRecord
100
AcDbLayerTableRecord
  2
해칭선
 70
     0
 62
   100
  6
Continuous
370
    -3
390
F
  0
LAYER
  5
75
330
2
100
AcDbSymbolTableRecord
100
AcDbLayerTableRecord
  2
가는실선
 70
     0
 62
     4
  6
Continuous
370
    -3
390
F
  0
LAYER
  5
76
330
2
100
AcDbSymbolTableRecord
100
AcDbLayerTableRecord
  2
치수_보조선
 70
     0
 62
     4
  6
Continuous
370
    -3
390
F
  0
LAYER
  5
77
330
2
100
AcDbSymbolTableRecord
100
AcDbLayerTableRecord
  2
치수문자_일반주서
 70
     0
 62
     7
  6
Continuous
370
    15
390
F
  0
LAYER
  5
78
330
2
100
AcDbSymbolTableRecord
100
AcDbLayerTableRecord
  2
개별주서
 70
     0
 62
   100
  6
Continuous
370
    30
390
F
  0
LAYER
  5
79
330
2
100
AcDbSymbolTableRecord
100
AcDbLayerTableRecord
  2
중간선
 70
     0
 62
     2
  6
Continuous
370
    15
390
F
  0
LAYER
  5
7A
330
2
100
AcDbSymbolTableRecord
100
AcDbLayerTableRecord
  2
윤곽선
 70
     0
 62
     3
  6
Continuous
370
    40
390
F
  0
LAYER
  5
7B
330
2
100
AcDbSymbolTableRecord
100
AcDbLayerTableRecord
  2
중심마크
 70
     0
 62
   100
  6
Continuous
370
    30
390
F
  0
LAYER
  5
7C
330
2
100
AcDbSymbolTableRecord
100
AcDbLayerTableRecord
  2
가상선
 70
     0
 62
     4
  6
PHANTOM
370
    -3
390
F
  0
LAYER
  5
7D
330
2
100
AcDbSymbolTableRecord
100
AcDbLayerTableRecord
  2
특수지정선
 70
     0
 62
     5
  6
CENTERX2
370
    60
390
F
  0
LAYER
  5
7E
330
2
100
AcDbSymbolTableRecord
100
AcDbLayerTableRecord
  2
참조1
 70
     0
 62
    -4
  6
Continuous
370
    -3
390
F
  0
LAYER
  5
155
330
2
100
AcDbSymbolTableRecord
100
AcDbLayerTableRecord
  2
Defpoints
 70
     0
 62
     7
  6
Continuous
290
     0
370
    -3
390
F
  0
ENDTAB
  0
TABLE
  2
STYLE
  5
3
330
0
100
AcDbSymbolTable
 70
     2
  0
STYLE
  5
11
330
3
100
AcDbSymbolTableRecord
100
AcDbTextStyleTableRecord
  2
Standard
 70
     0
 40
0.0
 41
1.0
 50
0.0
 71
     0
 42
3.5
  3
txt
  4

  0
STYLE
  5
94
330
3
100
AcDbSymbolTableRecord
100
AcDbTextStyleTableRecord
  2
SLDTEXTSTYLE0
 70
     0
 40
0.0
 41
0.75
 50
0.0
 71
     0
 42
3.5
  3
TXT
  4

  0
ENDTAB
  0
TABLE
  2
VIEW
  5
6
330
0
100
AcDbSymbolTable
 70
     0
  0
ENDTAB
  0
TABLE
  2
UCS
  5
7
330
0
100
AcDbSymbolTable
 70
     0
  0
ENDTAB
  0
TABLE
  2
APPID
  5
9
330
0
100
AcDbSymbolTable
 70
     2
  0
APPID
  5
12
330
9
100
AcDbSymbolTableRecord
100
AcDbRegAppTableRecord
  2
ACAD
 70
     0
  0
APPID
  5
15D
330
9
100
AcDbSymbolTableRecord
100
AcDbRegAppTableRecord
  2
PE_URL
 70
     0
  0
ENDTAB
  0
TABLE
  2
DIMSTYLE
  5
A
330
0
100
AcDbSymbolTable
 70
     4
100
AcDbDimStyleTable
  0
DIMSTYLE
105
27
330
A
100
AcDbSymbolTableRecord
100
AcDbDimStyleTableRecord
  2
ISO-25
 70
     0
 41
2.5
 42
0.625
 43
3.75
 44
1.25
 73
     0
 74
     0
 77
     1
 78
     8
140
2.5
141
2.5
143
0.03937007874016
147
0.625
171
     3
172
     1
178
     0
271
     2
272
     2
274
     3
278
    44
283
     0
284
     8
340
11
  0
DIMSTYLE
105
D4
102
{ACAD_REACTORS
330
D3
330
E8
330
FC
330
110
102
}
330
A
100
AcDbSymbolTableRecord
100
AcDbDimStyleTableRecord
  2
SLDDIMSTYLE0
 70
     0
 41
3.302
 44
0.0
 45
0.000000001
 73
     0
 74
     0
 77
     1
 78
    12
 79
     3
140
3.5
143
0.0393700787401575
147
0.875
148
0.000000001
170
     1
172
     1
173
     1
178
     0
271
     2
272
     2
276
     2
284
    12
289
     0
340
94
  0
DIMSTYLE
105
E9
330
A
100
AcDbSymbolTableRecord
100
AcDbDimStyleTableRecord
  2
SLDDIMSTYLE1
 70
     0
 41
3.302
 44
0.0
 45
0.000000001
 73
     0
 74
     0
 77
     1
 78
    12
 79
     3
140
3.5
143
0.0393700787401575
147
0.875
148
0.000000001
170
     1
173
     1
178
     0
271
     2
272
     2
276
     2
284
    12
340
94
  0
DIMSTYLE
105
111
330
A
100
AcDbSymbolTableRecord
100
AcDbDimStyleTableRecord
  2
SLDDIMSTYLE2
 70
     0
 41
3.302
 44
0.0
 45
0.000000001
 73
     0
 74
     0
 77
     1
 78
     4
 79
     1
140
3.5
143
0.0393700787401575
147
0.875
148
0.000000001
170
     1
173
     1
178
     0
271
     2
272
     2
276
     2
284
    12
340
94
  0
ENDTAB
  0
TABLE
  2
BLOCK_RECORD
  5
1
330
0
100
AcDbSymbolTable
 70
     9
  0
BLOCK_RECORD
  5
1F
330
1
100
AcDbSymbolTableRecord
100
AcDbBlockTableRecord
  2
*Model_Space
340
22
  0
BLOCK_RECORD
  5
1B
330
1
100
AcDbSymbolTableRecord
100
AcDbBlockTableRecord
  2
*Paper_Space
340
1E
  0
BLOCK_RECORD
  5
23
330
1
100
AcDbSymbolTableRecord
100
AcDbBlockTableRecord
  2
*Paper_Space0
340
26
  0
BLOCK_RECORD
  5
7F
330
1
100
AcDbSymbolTableRecord
100
AcDbBlockTableRecord
  2
블럭10
340
0
102
{BLKREFS
331
CC
102
}
  0
BLOCK_RECORD
  5
D5
330
1
100
AcDbSymbolTableRecord
100
AcDbBlockTableRecord
  2
_D
340
0
  0
BLOCK_RECORD
  5
EA
330
1
100
AcDbSymbolTableRecord
100
AcDbBlockTableRecord
  2
_D_1
340
0
  0
BLOCK_RECORD
  5
FD
330
1
100
AcDbSymbolTableRecord
100
AcDbBlockTableRecord
  2
_D_2
340
0
  0
BLOCK_RECORD
  5
112
330
1
100
AcDbSymbolTableRecord
100
AcDbBlockTableRecord
  2
_D_3
340
0
  0
BLOCK_RECORD
  5
12B
330
1
100
AcDbSymbolTableRecord
100
AcDbBlockTableRecord
  2
SW_DOWELSYMBOL_0
340
0
102
{BLKREFS
331
131
102
}
  0
BLOCK_RECORD
  5
191
330
1
100
AcDbSymbolTableRecord
100
AcDbBlockTableRecord
  2
*D7
340
0
  0
BLOCK_RECORD
  5
1A3
330
1
100
AcDbSymbolTableRecord
100
AcDbBlockTableRecord
  2
*D8
340
0
  0
ENDTAB
  0
ENDSEC
  0
SECTION
  2
BLOCKS
  0
BLOCK
  5
20
330
1F
100
AcDbEntity
  8
0
100
AcDbBlockBegin
  2
*Model_Space
 70
     0
 10
0.0
 20
0.0
 30
0.0
  3
*Model_Space
  1
*Model_Space
  0
ENDBLK
  5
21
330
1F
100
AcDbEntity
  8
0
100
AcDbBlockEnd
  0
BLOCK
  5
1C
330
1B
100
AcDbEntity
 67
     1
  8
0
100
AcDbBlockBegin
  2
*Paper_Space
 70
     0
 10
0.0
 20
0.0
 30
0.0
  3
*Paper_Space
  1
*Paper_Space
  0
ENDBLK
  5
1D
330
1B
100
AcDbEntity
 67
     1
  8
0
100
AcDbBlockEnd
  0
BLOCK
  5
24
330
23
100
AcDbEntity
  8
0
100
AcDbBlockBegin
  2
*Paper_Space0
 70
     0
 10
0.0
 20
0.0
 30
0.0
  3
*Paper_Space0
  1
*Paper_Space0
  0
ENDBLK
  5
25
330
23
100
AcDbEntity
  8
0
100
AcDbBlockEnd
  0
BLOCK
  5
80
330
7F
100
AcDbEntity
  8
0
100
AcDbBlockBegin
  2
블럭10
 70
     2
 10
0.0
 20
0.0
 30
0.0
  3
블럭10
  1
블럭10
  0
ELLIPSE
  5
82
330
7F
100
AcDbEntity
  8
중심선
100
AcDbEllipse
 10
20.54032771741204
 20
12.0471743016438
 30
0.0
 11
6.600054785286829
 21
-1.261213355974178E-13
 31
0.0
210
0.0
220
0.0
230
1.0
 40
0.636358354079598
 41
0.9219305317359503
 42
6.513795318482858
  0
ELLIPSE
  5
83
330
7F
100
AcDbEntity
  8
중심선
100
AcDbEllipse
 10
20.54032771746488
 20
12.04717430159265
 30
0.0
 11
3.960054785062283
 21
1.540847449632565E-10
 31
0.0
210
0.0
220
0.0
230
1.0
 40
0.3939339440162632
 41
1.131841032648279
 42
5.62031148352944
  0
LINE
  5
84
330
7F
100
AcDbEntity
  8
중심선
100
AcDbLine
 10
2.268634060543552
 20
16.24717430164393
 30
0.0
 11
5.714909304380834
 21
16.24717430164393
 31
0.0
  0
LINE
  5
85
330
7F
100
AcDbEntity
  8
중심선
100
AcDbLine
 10
5.245725140726316
 20
7.84717430164391
 30
0.0
 11
8.692000384563599
 21
7.84717430164391
 31
0.0
  0
LINE
  5
86
330
7F
100
AcDbEntity
  8
중심선
100
AcDbLine
 10
15.74043728645272
 20
16.24717430164393
 30
0.0
 11
8.692000384563599
 21
7.84717430164391
 31
0.0
  0
LINE
  5
87
330
7F
100
AcDbEntity
  8
중심선
100
AcDbLine
 10
0.1404042013395286
 20
13.71084872107135
 30
0.0
 11
3.58671253028996
 21
13.71088815037384
 31
0.0
  0
LINE
  5
88
330
7F
100
AcDbEntity
  8
중심선
100
AcDbLine
 10
2.750260043222114
 20
10.84717430164391
 30
0.0
 11
6.196535287059397
 21
10.84717430164391
 31
0.0
  0
LINE
  5
89
330
7F
100
AcDbEntity
  8
중심선
100
AcDbLine
 10
12.29416204261559
 20
16.24717430164393
 30
0.0
 11
5.245725140726316
 21
7.84717430164391
 31
0.0
  0
LINE
  5
8A
330
7F
100
AcDbEntity
  8
중심선
100
AcDbLine
 10
10.72767329541681
 20
16.24717430164393
 30
0.0
 11
6.196535287059397
 21
10.84717430164391
 31
0.0
  0
LINE
  5
8B
330
7F
100
AcDbEntity
  8
중심선
100
AcDbLine
 10
7.28139805157953
 20
16.24717430164393
 30
0.0
 11
2.750260043222114
 21
10.84717430164391
 31
0.0
  0
LINE
  5
8C
330
7F
100
AcDbEntity
  8
중심선
100
AcDbLine
 10
5.714909304380834
 20
16.24717430164393
 30
0.0
 11
3.58671253028996
 21
13.71088815037384
 31
0.0
  0
LINE
  5
8D
330
7F
100
AcDbEntity
  8
중심선
100
AcDbLine
 10
2.268634060543552
 20
16.24717430164393
 30
0.0
 11
0.1404042013395286
 21
13.71084872107135
 31
0.0
  0
LINE
  5
8E
330
7F
100
AcDbEntity
  8
중심선
100
AcDbLine
 10
7.28139805157953
 20
16.24717430164393
 30
0.0
 11
10.72767329541681
 21
16.24717430164393
 31
0.0
  0
LINE
  5
8F
330
7F
100
AcDbEntity
  8
중심선
100
AcDbLine
 10
12.29416204261559
 20
16.24717430164393
 30
0.0
 11
15.74043728645272
 21
16.24717430164393
 31
0.0
  0
LINE
  5
90
330
7F
100
AcDbEntity
  8
중심선
100
AcDbLine
 10
19.22036997980202
 20
11.08717430171403
 30
0.0
 11
23.66174974927406
 21
11.08717430171406
 31
0.0
  0
LINE
  5
91
330
7F
100
AcDbEntity
  8
중심선
100
AcDbLine
 10
19.22039502424796
 20
13.00717430171391
 30
0.0
 11
19.22036997980202
 21
11.08717430171403
 31
0.0
  0
LINE
  5
92
330
7F
100
AcDbEntity
  8
중심선
100
AcDbLine
 10
19.22039502424796
 20
13.00717430171391
 30
0.0
 11
26.96566020931264
 21
13.00717430171391
 31
0.0
  0
LINE
  5
93
330
7F
100
AcDbEntity
  8
중심선
100
AcDbLine
 10
22.22332737316547
 20
13.45928029700563
 30
0.0
 11
24.52862924686651
 21
15.39360700705356
 31
0.0
  0
ATTDEF
  5
95
330
7F
100
AcDbEntity
  8
FORMAT
 62
     2
100
AcDbText
 10
4.408487351596664
 20
2.075366912832191
 30
0.0
 40
4.233333333333333
  1
E1050040
 41
0.75
  7
SLDTEXTSTYLE0
 11
4.408487351596664
 21
-0.0412997538344756
 31
0.0
100
AcDbAttributeDefinition
  3

  2
AUTOATTR0
 70
     0
 74
     1
  0
ENDBLK
  5
81
330
7F
100
AcDbEntity
  8
0
100
AcDbBlockEnd
  0
BLOCK
  5
D6
330
D5
100
AcDbEntity
  8
0
100
AcDbBlockBegin
  2
_D
 70
     0
 10
0.0
 20
0.0
 30
0.0
  3
_D
  1
_D
  0
LINE
  5
D8
330
D5
100
AcDbEntity
  8
치수문자_일반주서
 62
     0
370
    -2
100
AcDbLine
 10
-25.58739322376157
 20
7.937499999999994
 30
0.0
 11
-72.14999999999998
 21
7.937499999999819
 31
0.0
  0
LINE
  5
D9
330
D5
100
AcDbEntity
  8
치수문자_일반주서
 62
     0
370
    -2
100
AcDbLine
 10
-25.58739322376159
 20
-7.937500000000006
 30
0.0
 11
-72.14999999999992
 21
-7.937500000000185
 31
0.0
  0
LINE
  5
DA
330
D5
100
AcDbEntity
  8
치수문자_일반주서
 62
     0
370
    -2
100
AcDbLine
 10
-72.14999999999998
 20
7.937499999999819
 30
0.0
 11
-72.1500000000001
 21
42.54149999999992
 31
0.0
  0
LINE
  5
DB
330
D5
100
AcDbEntity
  8
치수문자_일반주서
 62
     0
370
    -2
100
AcDbLine
 10
-72.14999999999998
 20
7.937499999999819
 30
0.0
 11
-72.14999999999992
 21
-7.937500000000185
 31
0.0
  0
LINE
  5
DC
330
D5
100
AcDbEntity
  8
치수문자_일반주서
 62
     0
370
    -2
100
AcDbLine
 10
-72.14999999999999
 20
11.23949999999982
 30
0.0
 11
-72.15
 21
14.54149999999982
 31
0.0
  0
LINE
  5
DD
330
D5
100
AcDbEntity
  8
치수문자_일반주서
 62
     0
370
    -2
100
AcDbLine
 10
-72.1499999999999
 20
-11.23950000000018
 30
0.0
 11
-72.14999999999989
 21
-14.54150000000018
 31
0.0
  0
SOLID
  5
DE
330
D5
100
AcDbEntity
  8
치수문자_일반주서
 62
     0
100
AcDbTrace
 10
-72.70033333333332
 20
11.23949999999982
 30
0.0
 11
-71.59966666666666
 21
11.23949999999982
 31
0.0
 12
-72.14999999999998
 22
7.937499999999819
 32
0.0
 13
-72.14999999999998
 23
7.937499999999819
 33
0.0
  0
SOLID
  5
DF
330
D5
100
AcDbEntity
  8
치수문자_일반주서
 62
     0
100
AcDbTrace
 10
-71.59966666666658
 20
-11.23950000000018
 30
0.0
 11
-72.70033333333323
 21
-11.23950000000019
 31
0.0
 12
-72.14999999999992
 22
-7.937500000000185
 32
0.0
 13
-72.14999999999992
 23
-7.937500000000185
 33
0.0
  0
MTEXT
  5
E0
330
D5
100
AcDbEntity
  8
치수문자_일반주서
 62
     0
100
AcDbMText
 10
-76.52500000000005
 20
28.5414999999999
 30
0.0
 40
3.5
 41
0.0
 71
     2
 72
     1
  1
\A1;%%c15.88 [5/8]
  7
SLDTEXTSTYLE0
 11
-3.580687802255623E-15
 21
1.0
 31
0.0
 73
     1
 44
1.0
  0
POINT
  5
1B7
330
D5
100
AcDbEntity
  8
Defpoints
 62
     0
100
AcDbPoint
 10
-25.52489322376157
 20
7.937499999999994
 30
0.0
  0
POINT
  5
1B8
330
D5
100
AcDbEntity
  8
Defpoints
 62
     0
100
AcDbPoint
 10
-25.52489322376159
 20
-7.937500000000006
 30
0.0
  0
POINT
  5
1B9
330
D5
100
AcDbEntity
  8
Defpoints
 62
     0
100
AcDbPoint
 10
-72.14999999999992
 20
-7.93750000000018
 30
0.0
  0
ENDBLK
  5
D7
330
D5
100
AcDbEntity
  8
0
100
AcDbBlockEnd
  0
BLOCK
  5
EB
330
EA
100
AcDbEntity
  8
0
100
AcDbBlockBegin
  2
_D_1
 70
     0
 10
0.0
 20
0.0
 30
0.0
  3
_D_1
  1
_D_1
  0
LINE
  5
ED
330
EA
100
AcDbEntity
  8
치수문자_일반주서
 62
     0
370
    -2
100
AcDbLine
 10
57.21250000000001
 20
-7.937499999999999
 30
0.0
 11
72.15000000000005
 21
-7.937499999999943
 31
0.0
  0
LINE
  5
EE
330
EA
100
AcDbEntity
  8
치수문자_일반주서
 62
     0
370
    -2
100
AcDbLine
 10
57.21250000000001
 20
7.937500000000001
 30
0.0
 11
72.14999999999999
 21
7.937500000000057
 31
0.0
  0
LINE
  5
EF
330
EA
100
AcDbEntity
  8
치수문자_일반주서
 62
     0
370
    -2
100
AcDbLine
 10
72.14999999999999
 20
7.937500000000057
 30
0.0
 11
72.14999999999986
 21
42.54150000000006
 31
0.0
  0
LINE
  5
F0
330
EA
100
AcDbEntity
  8
치수문자_일반주서
 62
     0
370
    -2
100
AcDbLine
 10
72.15000000000005
 20
-7.937499999999943
 30
0.0
 11
72.14999999999999
 21
7.937500000000057
 31
0.0
  0
LINE
  5
F1
330
EA
100
AcDbEntity
  8
치수문자_일반주서
 62
     0
370
    -2
100
AcDbLine
 10
72.15000000000006
 20
-11.23949999999994
 30
0.0
 11
72.15000000000008
 21
-14.54149999999994
 31
0.0
  0
LINE
  5
F2
330
EA
100
AcDbEntity
  8
치수문자_일반주서
 62
     0
370
    -2
100
AcDbLine
 10
72.14999999999998
 20
11.23950000000006
 30
0.0
 11
72.14999999999996
 21
14.54150000000006
 31
0.0
  0
SOLID
  5
F3
330
EA
100
AcDbEntity
  8
치수문자_일반주서
 62
     0
100
AcDbTrace
 10
72.70033333333339
 20
-11.23949999999994
 30
0.0
 11
71.59966666666674
 21
-11.23949999999994
 31
0.0
 12
72.15000000000005
 22
-7.937499999999943
 32
0.0
 13
72.15000000000005
 23
-7.937499999999943
 33
0.0
  0
SOLID
  5
F4
330
EA
100
AcDbEntity
  8
치수문자_일반주서
 62
     0
100
AcDbTrace
 10
71.59966666666665
 20
11.23950000000005
 30
0.0
 11
72.7003333333333
 21
11.23950000000006
 31
0.0
 12
72.14999999999999
 22
7.937500000000057
 32
0.0
 13
72.14999999999999
 23
7.937500000000057
 33
0.0
  0
MTEXT
  5
F5
330
EA
100
AcDbEntity
  8
치수문자_일반주서
 62
     0
100
AcDbMText
 10
67.77499999999992
 20
28.54150000000004
 30
0.0
 40
3.5
 41
0.0
 71
     2
 72
     1
  1
\A1;%%c15.88 [5/8]
  7
SLDTEXTSTYLE0
 11
-3.580687802255623E-15
 21
1.0
 31
0.0
 73
     1
 44
1.0
  0
POINT
  5
F6
330
EA
100
AcDbEntity
  8
Defpoints
 62
     0
100
AcDbPoint
 10
57.15000000000001
 20
-7.937499999999999
 30
0.0
  0
POINT
  5
1AF
330
EA
100
AcDbEntity
  8
Defpoints
 62
     0
100
AcDbPoint
 10
57.15000000000001
 20
7.937500000000001
 30
0.0
  0
POINT
  5
1B0
330
EA
100
AcDbEntity
  8
Defpoints
 62
     0
100
AcDbPoint
 10
72.14999999999999
 20
7.937500000000057
 30
0.0
  0
ENDBLK
  5
EC
330
EA
100
AcDbEntity
  8
0
100
AcDbBlockEnd
  0
BLOCK
  5
FE
330
FD
100
AcDbEntity
  8
0
100
AcDbBlockBegin
  2
_D_2
 70
     0
 10
0.0
 20
0.0
 30
0.0
  3
_D_2
  1
_D_2
  0
LINE
  5
100
330
FD
100
AcDbEntity
  8
치수문자_일반주서
 62
     0
370
    -2
100
AcDbLine
 10
57.15000000000001
 20
8.0
 30
0.0
 11
57.15000000000001
 21
22.9375
 31
0.0
  0
LINE
  5
101
330
FD
100
AcDbEntity
  8
치수문자_일반주서
 62
     0
370
    -2
100
AcDbLine
 10
28.57500000000001
 20
6.273370270512447
 30
0.0
 11
28.57500000000001
 21
22.9375
 31
0.0
  0
LINE
  5
102
330
FD
100
AcDbEntity
  8
치수문자_일반주서
 62
     0
370
    -2
100
AcDbLine
 10
53.84800000000001
 20
22.9375
 30
0.0
 11
31.87700000000001
 21
22.9375
 31
0.0
  0
SOLID
  5
103
330
FD
100
AcDbEntity
  8
치수문자_일반주서
 62
     0
100
AcDbTrace
 10
53.84800000000001
 20
22.38716666666667
 30
0.0
 11
53.84800000000001
 21
23.48783333333333
 31
0.0
 12
57.15000000000001
 22
22.9375
 32
0.0
 13
57.15000000000001
 23
22.9375
 33
0.0
  0
SOLID
  5
104
330
FD
100
AcDbEntity
  8
치수문자_일반주서
 62
     0
100
AcDbTrace
 10
31.87700000000001
 20
23.48783333333333
 30
0.0
 11
31.87700000000001
 21
22.38716666666667
 31
0.0
 12
28.57500000000001
 22
22.9375
 32
0.0
 13
28.57500000000001
 23
22.9375
 33
0.0
  0
MTEXT
  5
105
330
FD
100
AcDbEntity
  8
치수문자_일반주서
 62
     0
100
AcDbMText
 10
42.86250000000001
 20
27.3125
 30
0.0
 40
3.5
 41
0.0
 71
     2
 72
     1
  1
\A1;28.58 [1 1/8]
  7
SLDTEXTSTYLE0
 73
     1
 44
1.0
  0
POINT
  5
106
330
FD
100
AcDbEntity
  8
Defpoints
 62
     0
100
AcDbPoint
 10
57.15000000000001
 20
7.937500000000001
 30
0.0
  0
POINT
  5
107
330
FD
100
AcDbEntity
  8
Defpoints
 62
     0
100
AcDbPoint
 10
28.57500000000001
 20
6.210870270512447
 30
0.0
  0
POINT
  5
108
330
FD
100
AcDbEntity
  8
Defpoints
 62
     0
100
AcDbPoint
 10
28.57500000000001
 20
22.9375
 30
0.0
  0
ENDBLK
  5
FF
330
FD
100
AcDbEntity
  8
0
100
AcDbBlockEnd
  0
BLOCK
  5
113
330
112
100
AcDbEntity
  8
0
100
AcDbBlockBegin
  2
_D_3
 70
     0
 10
0.0
 20
0.0
 30
0.0
  3
_D_3
  1
_D_3
  0
LINE
  5
115
330
112
100
AcDbEntity
  8
치수문자_일반주서
 62
     0
370
    -2
100
AcDbLine
 10
-57.15000000000001
 20
7.993291345885313
 30
0.0
 11
-57.15000000000001
 21
37.9375
 31
0.0
  0
LINE
  5
116
330
112
100
AcDbEntity
  8
치수문자_일반주서
 62
     0
370
    -2
100
AcDbLine
 10
57.15000000000001
 20
8.0
 30
0.0
 11
57.15000000000001
 21
37.9375
 31
0.0
  0
LINE
  5
117
330
112
100
AcDbEntity
  8
치수문자_일반주서
 62
     0
370
    -2
100
AcDbLine
 10
-53.84800000000001
 20
37.9375
 30
0.0
 11
53.84800000000001
 21
37.9375
 31
0.0
  0
SOLID
  5
118
330
112
100
AcDbEntity
  8
치수문자_일반주서
 62
     0
100
AcDbTrace
 10
-53.84800000000001
 20
38.48783333333333
 30
0.0
 11
-53.84800000000001
 21
37.38716666666667
 31
0.0
 12
-57.15000000000001
 22
37.9375
 32
0.0
 13
-57.15000000000001
 23
37.9375
 33
0.0
  0
SOLID
  5
119
330
112
100
AcDbEntity
  8
치수문자_일반주서
 62
     0
100
AcDbTrace
 10
53.84800000000001
 20
37.38716666666667
 30
0.0
 11
53.84800000000001
 21
38.48783333333333
 31
0.0
 12
57.15000000000001
 22
37.9375
 32
0.0
 13
57.15000000000001
 23
37.9375
 33
0.0
  0
MTEXT
  5
11A
330
112
100
AcDbEntity
  8
치수문자_일반주서
 62
     0
100
AcDbMText
 10
0.0000000000000142
 20
42.3125
 30
0.0
 40
3.5
 41
0.0
 71
     2
 72
     1
  1
\A1;114.3 [4 1/2]
  7
SLDTEXTSTYLE0
 73
     1
 44
1.0
  0
POINT
  5
11B
330
112
100
AcDbEntity
  8
Defpoints
 62
     0
100
AcDbPoint
 10
-57.15000000000001
 20
7.930791345885313
 30
0.0
  0
POINT
  5
11C
330
112
100
AcDbEntity
  8
Defpoints
 62
     0
100
AcDbPoint
 10
57.15000000000001
 20
7.937500000000001
 30
0.0
  0
POINT
  5
11D
330
112
100
AcDbEntity
  8
Defpoints
 62
     0
100
AcDbPoint
 10
57.15000000000001
 20
37.9375
 30
0.0
  0
ENDBLK
  5
114
330
112
100
AcDbEntity
  8
0
100
AcDbBlockEnd
  0
BLOCK
  5
12C
330
12B
100
AcDbEntity
  8
0
100
AcDbBlockBegin
  2
SW_DOWELSYMBOL_0
 70
     0
 10
0.0
 20
0.0
 30
0.0
  3
SW_DOWELSYMBOL_0
  1
SW_DOWELSYMBOL_0
  0
CIRCLE
  5
12E
330
12B
100
AcDbEntity
  8
해칭선
 62
     0
100
AcDbCircle
 10
0.0
 20
0.0
 30
0.0
 40
3.000000000000001
  0
HATCH
  5
12F
330
12B
100
AcDbEntity
  8
0
  6
Continuous
 62
     0
370
     0
100
AcDbHatch
 10
0.0
 20
0.0
 30
0.0
210
0.0
220
0.0
230
1.0
  2
SOLID
 70
     1
 71
     0
 91
        1
 92
        0
 93
        3
 72
     2
 10
0.0
 20
0.0
 40
3.000000000000001
 50
0.0
 51
90.0
 73
     1
 72
     1
 10
0.0
 20
3.000000000000001
 11
0.0
 21
0.0
 72
     1
 10
0.0
 20
0.0
 11
3.000000000000001
 21
0.0
 97
        0
 75
     0
 76
     1
 98
        1
 10
0.0
 20
0.0
  0
HATCH
  5
130
330
12B
100
AcDbEntity
  8
0
  6
Continuous
 62
     0
370
     0
100
AcDbHatch
 10
0.0
 20
0.0
 30
0.0
210
0.0
220
0.0
230
1.0
  2
SOLID
 70
     1
 71
     0
 91
        1
 92
        0
 93
        3
 72
     2
 10
0.0
 20
0.0
 40
3.000000000000001
 50
180.0
 51
270.0000000000007
 73
     1
 72
     1
 10
0.0
 20
-3.000000000000001
 11
0.0
 21
0.0
 72
     1
 10
0.0
 20
0.0
 11
-3.000000000000001
 21
0.0
 97
        0
 75
     0
 76
     1
 98
        1
 10
0.0
 20
0.0
  0
ENDBLK
  5
12D
330
12B
100
AcDbEntity
  8
0
100
AcDbBlockEnd
  0
BLOCK
  5
192
330
191
100
AcDbEntity
  8
0
100
AcDbBlockBegin
  2
*D7
 70
     1
 10
0.0
 20
0.0
 30
0.0
  3
*D7
  1
*D7
  0
LINE
  5
194
330
191
100
AcDbEntity
  8
치수문자_일반주서
 62
     0
370
    -2
100
AcDbLine
 10
63.89369999999997
 20
4.916654502396817
 30
0.0
 11
63.89369999999997
 21
21.05048185839431
 31
0.0
  0
LINE
  5
195
330
191
100
AcDbEntity
  8
치수문자_일반주서
 62
     0
370
    -2
100
AcDbLine
 10
35.31869999999997
 20
4.452342659504531
 30
0.0
 11
35.31869999999997
 21
21.05048185839431
 31
0.0
  0
LINE
  5
196
330
191
100
AcDbEntity
  8
치수문자_일반주서
 62
     0
370
    -2
100
AcDbLine
 10
60.59169999999997
 20
21.05048185839431
 30
0.0
 11
38.62069999999997
 21
21.05048185839431
 31
0.0
  0
SOLID
  5
197
330
191
100
AcDbEntity
  8
치수문자_일반주서
 62
     0
100
AcDbTrace
 10
60.59169999999997
 20
20.50014852506097
 30
0.0
 11
60.59169999999997
 21
21.60081519172764
 31
0.0
 12
63.89369999999997
 22
21.05048185839431
 32
0.0
 13
63.89369999999997
 23
21.05048185839431
 33
0.0
  0
SOLID
  5
198
330
191
100
AcDbEntity
  8
치수문자_일반주서
 62
     0
100
AcDbTrace
 10
38.62069999999997
 20
21.60081519172764
 30
0.0
 11
38.62069999999997
 21
20.50014852506097
 31
0.0
 12
35.31869999999997
 22
21.05048185839431
 32
0.0
 13
35.31869999999997
 23
21.05048185839431
 33
0.0
  0
MTEXT
  5
199
330
191
100
AcDbEntity
  8
치수문자_일반주서
 62
     0
100
AcDbMText
 10
49.60619999999997
 20
25.42548185839431
 30
0.0
 40
3.5
 41
0.0
 71
     2
 72
     1
  1
\A1;28.58 [1 1/8]
  7
SLDTEXTSTYLE0
 73
     1
 44
1.0
  0
POINT
  5
19A
330
191
100
AcDbEntity
  8
Defpoints
 62
     0
100
AcDbPoint
 10
63.89369999999997
 20
4.854154502396817
 30
0.0
  0
POINT
  5
19B
330
191
100
AcDbEntity
  8
Defpoints
 62
     0
100
AcDbPoint
 10
35.31869999999997
 20
4.389842659504531
 30
0.0
  0
POINT
  5
19C
330
191
100
AcDbEntity
  8
Defpoints
 62
     0
100
AcDbPoint
 10
35.31869999999997
 20
21.05048185839431
 30
0.0
  0
ENDBLK
  5
193
330
191
100
AcDbEntity
  8
0
100
AcDbBlockEnd
  0
BLOCK
  5
1A4
330
1A3
100
AcDbEntity
  8
0
100
AcDbBlockBegin
  2
*D8
 70
     1
 10
0.0
 20
0.0
 30
0.0
  3
*D8
  1
*D8
  0
LINE
  5
1A6
330
1A3
100
AcDbEntity
  8
치수문자_일반주서
 62
     0
370
    -2
100
AcDbLine
 10
110.2135400044482
 20
-25.46097040366366
 30
0.0
 11
110.2135400044482
 21
-9.32714304766617
 31
0.0
  0
LINE
  5
1A7
330
1A3
100
AcDbEntity
  8
치수문자_일반주서
 62
     0
370
    -2
100
AcDbLine
 10
81.63854000444826
 20
-25.92528224655594
 30
0.0
 11
81.63854000444826
 21
-9.32714304766617
 31
0.0
  0
LINE
  5
1A8
330
1A3
100
AcDbEntity
  8
치수문자_일반주서
 62
     0
370
    -2
100
AcDbLine
 10
106.9115400044483
 20
-9.32714304766617
 30
0.0
 11
84.94054000444825
 21
-9.32714304766617
 31
0.0
  0
SOLID
  5
1A9
330
1A3
100
AcDbEntity
  8
치수문자_일반주서
 62
     0
100
AcDbTrace
 10
106.9115400044483
 20
-9.877476380999502
 30
0.0
 11
106.9115400044483
 21
-8.776809714332837
 31
0.0
 12
110.2135400044482
 22
-9.32714304766617
 32
0.0
 13
110.2135400044482
 23
-9.32714304766617
 33
0.0
  0
SOLID
  5
1AA
330
1A3
100
AcDbEntity
  8
치수문자_일반주서
 62
     0
100
AcDbTrace
 10
84.94054000444825
 20
-8.776809714332837
 30
0.0
 11
84.94054000444825
 21
-9.877476380999502
 31
0.0
 12
81.63854000444826
 22
-9.32714304766617
 32
0.0
 13
81.63854000444826
 23
-9.32714304766617
 33
0.0
  0
MTEXT
  5
1AB
330
1A3
100
AcDbEntity
  8
치수문자_일반주서
 62
     0
100
AcDbMText
 10
95.92604000444825
 20
-4.952143047666169
 30
0.0
 40
3.5
 41
0.0
 71
     2
 72
     1
  1
\A1;28.58 [1 1/8]
  7
SLDTEXTSTYLE0
 73
     1
 44
1.0
  0
POINT
  5
1AC
330
1A3
100
AcDbEntity
  8
Defpoints
 62
     0
100
AcDbPoint
 10
110.2135400044482
 20
-25.52347040366366
 30
0.0
  0
POINT
  5
1AD
330
1A3
100
AcDbEntity
  8
Defpoints
 62
     0
100
AcDbPoint
 10
81.63854000444826
 20
-25.98778224655594
 30
0.0
  0
POINT
  5
1AE
330
1A3
100
AcDbEntity
  8
Defpoints
 62
     0
100
AcDbPoint
 10
81.63854000444826
 20
-9.32714304766617
 30
0.0
  0
ENDBLK
  5
1A5
330
1A3
100
AcDbEntity
  8
0
100
AcDbBlockEnd
  0
ENDSEC
  0
SECTION
  2
ENTITIES
  0
LINE
  5
96
330
1F
100
AcDbEntity
  8
외형선
  6
Continuous
370
    15
100
AcDbLine
 10
25.52489322376158
 20
7.937499999999997
 30
0.0
 11
6.743699999999901
 21
7.937499999999996
 31
0.0
  0
LINE
  5
97
330
1F
100
AcDbEntity
  8
외형선
  6
Continuous
370
    15
100
AcDbLine
 10
-25.52489322376159
 20
-7.937500000000006
 30
0.0
 11
25.52489322376157
 21
-7.937500000000003
 31
0.0
  0
LINE
  5
9A
330
1F
100
AcDbEntity
  8
외형선
  6
Continuous
370
    15
100
AcDbLine
 10
28.57500000000001
 20
6.21086999169555
 30
0.0
 11
27.49795050486768
 21
6.240775921124152
 31
0.0
  0
SPLINE
  5
9B
330
1F
100
AcDbEntity
  8
외형선
  6
Continuous
370
    15
100
AcDbSpline
210
0.0
220
0.0
230
1.0
 70
     8
 71
     3
 72
     9
 73
     5
 74
     0
 42
0.000000001
 43
0.00000001
 40
0.0
 40
0.0
 40
0.0
 40
0.0
 40
0.4414815449954301
 40
1.0
 40
1.0
 40
1.0
 40
1.0
 10
25.52485238160692
 20
-6.326564066917913
 30
0.0
 10
25.96905576125851
 20
-6.302897754028437
 30
0.0
 10
26.97522098987795
 20
-6.249291180531189
 30
0.0
 10
28.00169520645523
 20
-6.224638800758425
 30
0.0
 10
28.575
 20
-6.210869991695554
 30
0.0
  0
SPLINE
  5
9C
330
1F
100
AcDbEntity
  8
0
  6
Continuous
 62
     1
370
    15
100
AcDbSpline
210
0.0
220
0.0
230
1.0
 70
     8
 71
     3
 72
     9
 73
     5
 74
     0
 42
0.000000001
 43
0.00000001
 40
0.0
 40
0.0
 40
0.0
 40
0.0
 40
0.4953574712610203
 40
0.9999999999999999
 40
0.9999999999999999
 40
0.9999999999999999
 40
0.9999999999999999
 10
36.58517501135087
 20
2.033996851934496
 30
0.0
 10
36.22203075238799
 20
2.207233394059872
 30
0.0
 10
35.488935401997
 20
2.556953650997497
 30
0.0
 10
34.75479523070602
 20
2.941336135498533
 30
0.0
 10
34.38431687821688
 20
3.135311884480107
 30
0.0
1001
PE_URL
1000

  0
LINE
  5
9D
330
1F
100
AcDbEntity
  8
0
  6
Continuous
 62
     1
370
    15
100
AcDbLine
 10
32.23938624113266
 20
2.211473373922264
 30
0.0
 11
32.11133803368121
 21
2.282029903063314
 31
0.0
1001
PE_URL
1000

  0
SPLINE
  5
9E
330
1F
100
AcDbEntity
  8
0
  6
Continuous
 62
     1
370
    15
100
AcDbSpline
210
0.0
220
0.0
230
1.0
 70
     8
 71
     3
 72
     9
 73
     5
 74
     0
 42
0.000000001
 43
0.00000001
 40
0.0
 40
0.0
 40
0.0
 40
0.0
 40
0.4622510975661289
 40
1.0
 40
1.0
 40
1.0
 40
1.0
 10
33.96157642251555
 20
6.307447345672452
 30
0.0
 10
33.1378750584323
 20
6.269715332779468
 30
0.0
 10
31.35594015677334
 20
6.188088673390983
 30
0.0
 10
29.54749135712093
 20
6.202903392665702
 30
0.0
 10
28.575
 20
6.210869991695549
 30
0.0
1001
PE_URL
1000

  0
SPLINE
  5
9F
330
1F
100
AcDbEntity
  8
0
  6
Continuous
 62
     1
370
    15
100
AcDbSpline
210
0.0
220
0.0
230
1.0
 70
     8
 71
     3
 72
    27
 73
    23
 74
     0
 42
0.000000001
 43
0.00000001
 40
0.0
 40
0.0
 40
0.0
 40
0.0
 40
0.0664431527290071
 40
0.1219926467080691
 40
0.1691638732608232
 40
0.2131577444570486
 40
0.2540982557940248
 40
0.2904039780498196
 40
0.3470548974443954
 40
0.42033018901625
 40
0.4918110634254585
 40
0.5390470563410709
 40
0.5796595923280445
 40
0.628652724943928
 40
0.6849482366241796
 40
0.7403434541740598
 40
0.773298429147253
 40
0.8007504359562478
 40
0.825343640020465
 40
0.8651301306838625
 40
0.9234341543185846
 40
0.9999999999999999
 40
0.9999999999999999
 40
0.9999999999999999
 40
0.9999999999999999
 10
54.20130339261628
 20
5.428890295376233
 30
0.0
 10
53.90440743855982
 20
5.40444275147131
 30
0.0
 10
53.35929297988886
 20
5.359555950288996
 30
0.0
 10
52.57502093500586
 20
5.310360076679151
 30
0.0
 10
51.88031411993696
 20
5.275899307717153
 30
0.0
 10
51.26329035340634
 20
5.252030219144935
 30
0.0
 10
50.70356781331204
 20
5.236592780553031
 30
0.0
 10
50.08428872589161
 20
5.225594483172036
 30
0.0
 10
49.31512417778264
 20
5.221098140719212
 30
0.0
 10
48.38419027110506
 20
5.231301951792762
 30
0.0
 10
47.49624883926953
 20
5.257451300343488
 30
0.0
 10
46.75944190040635
 20
5.290257866197803
 30
0.0
 10
46.12670951220336
 20
5.32561340950874
 30
0.0
 10
45.45229781756331
 20
5.370748295278247
 30
0.0
 10
44.70941594626063
 20
5.429976908964012
 30
0.0
 10
44.04007174665543
 20
5.492418099941039
 30
0.0
 10
43.50524021063453
 20
5.54816016807676
 30
0.0
 10
43.11448303893156
 20
5.591550257486134
 30
0.0
 10
42.69632410167176
 20
5.640271938153192
 30
0.0
 10
42.12867131243055
 20
5.710655120109827
 30
0.0
 10
41.31907155324926
 20
5.819225497916172
 30
0.0
 10
40.69151042318217
 20
5.915434018981096
 30
0.0
 10
40.33524294191292
 20
5.970051753946254
 30
0.0
1001
PE_URL
1000

  0
SPLINE
  5
A0
330
1F
100
AcDbEntity
  8
0
  6
Continuous
 62
     1
370
    15
100
AcDbSpline
210
0.0
220
0.0
230
1.0
 70
     8
 71
     3
 72
    16
 73
    12
 74
     0
 42
0.000000001
 43
0.00000001
 40
0.0
 40
0.0
 40
0.0
 40
0.0
 40
0.1655276186156049
 40
0.2949540885516282
 40
0.3997205862153218
 40
0.5050674652688616
 40
0.6085969071331209
 40
0.6977676608249329
 40
0.8274617162106604
 40
0.9881886782301369
 40
1.0
 40
1.0
 40
1.0
 40
1.0
 10
40.33524294191292
 20
-5.97005175394626
 30
0.0
 10
40.65562868794957
 20
-5.920684304171334
 30
0.0
 10
41.22652487130264
 20
-5.832716318681879
 30
0.0
 10
42.01630377956282
 20
-5.72499227892978
 30
0.0
 10
42.69945434577136
 20
-5.639494796365511
 30
0.0
 10
43.32343759869487
 20
-5.567410388279866
 30
0.0
 10
43.91123517182348
 20
-5.505446023309346
 30
0.0
 10
44.5479929463572
 20
-5.444518834876422
 30
0.0
 10
45.29836732274326
 20
-5.382639734665912
 30
0.0
 10
45.89559423362564
 20
-5.337736348366537
 30
0.0
 10
46.23635273958091
 20
-5.320520752916593
 30
0.0
 10
46.25967978486769
 20
-5.319342238022082
 30
0.0
1001
PE_URL
1000

  0
SPLINE
  5
A1
330
1F
100
AcDbEntity
  8
0
  6
Continuous
 62
     1
370
    15
100
AcDbSpline
210
0.0
220
0.0
230
1.0
 70
     8
 71
     3
 72
     9
 73
     5
 74
     0
 42
0.000000001
 43
0.00000001
 40
0.0
 40
0.0
 40
0.0
 40
0.0
 40
0.458102001973432
 40
1.0
 40
1.0
 40
1.0
 40
1.0
 10
28.575
 20
-6.210869991695554
 30
0.0
 10
29.39506172849314
 20
-6.202844852850016
 30
0.0
 10
31.18519083720788
 20
-6.185326617149307
 30
0.0
 10
32.98581940593363
 20
-6.264528178263886
 30
0.0
 10
33.96157642251555
 20
-6.307447345672456
 30
0.0
1001
PE_URL
1000

  0
SPLINE
  5
A2
330
1F
100
AcDbEntity
  8
외형선
  6
Continuous
370
    15
100
AcDbSpline
210
0.0
220
0.0
230
1.0
 70
     8
 71
     3
 72
    10
 73
     6
 74
     0
 42
0.000000001
 43
0.00000001
 40
0.0
 40
0.0
 40
0.0
 40
0.0
 40
0.5
 40
0.5
 40
1.0
 40
1.0
 40
1.0
 40
1.0
 10
28.57500000000005
 20
5.84968285973412
 30
0.0
 10
28.0656112222715
 20
6.048179047512559
 30
0.0
 10
27.55958718360989
 20
6.234240849064837
 30
0.0
 10
26.54419928134227
 20
6.580520544021885
 30
0.0
 10
26.03359574214416
 20
6.740823276306176
 30
0.0
 10
25.52478137582092
 20
6.886783492784472
 30
0.0
  0
LINE
  5
A3
330
1F
100
AcDbEntity
  8
외형선
  6
Continuous
370
    15
100
AcDbLine
 10
28.575
 20
5.849682859734131
 30
0.0
 11
28.575
 21
4.140405031099531
 31
0.0
  0
SPLINE
  5
A4
330
1F
100
AcDbEntity
  8
외형선
  6
Continuous
370
    15
100
AcDbSpline
210
0.0
220
0.0
230
1.0
 70
     8
 71
     3
 72
    10
 73
     6
 74
     0
 42
0.000000001
 43
0.00000001
 40
0.0
 40
0.0
 40
0.0
 40
0.0
 40
0.5
 40
0.5
 40
1.0
 40
1.0
 40
1.0
 40
1.0
 10
25.52489322376157
 20
5.528889200475075
 30
0.0
 10
26.03368921099757
 20
5.318270017273845
 30
0.0
 10
26.54427389521874
 20
5.096028419686156
 30
0.0
 10
27.55962417133142
 20
4.632437997895808
 30
0.0
 10
28.06562988463468
 20
4.390943140940959
 30
0.0
 10
28.575
 20
4.140405031099533
 30
0.0
  0
SPLINE
  5
A5
330
1F
100
AcDbEntity
  8
외형선
  6
Continuous
370
    15
100
AcDbSpline
210
0.0
220
0.0
230
1.0
 70
     8
 71
     3
 72
     9
 73
     5
 74
     0
 42
0.000000001
 43
0.00000001
 40
0.0
 40
0.0
 40
0.0
 40
0.0
 40
0.3170389278716538
 40
1.0
 40
1.0
 40
1.0
 40
1.0
 10
27.49275567960933
 20
-6.242662241226303
 30
0.0
 10
27.28485263956456
 20
-6.319883799334352
 30
0.0
 10
26.62908761587972
 20
-6.563455018258326
 30
0.0
 10
25.97291899834762
 20
-6.75557382592466
 30
0.0
 10
25.52478137582092
 20
-6.886783492784478
 30
0.0
  0
LINE
  5
A6
330
1F
100
AcDbEntity
  8
외형선
  6
Continuous
370
    15
100
AcDbLine
 10
25.52489322376158
 20
6.886952629173427
 30
0.0
 11
25.52489322376158
 21
7.937499999999997
 31
0.0
  0
LINE
  5
A8
330
1F
100
AcDbEntity
  8
외형선
  6
Continuous
370
    15
100
AcDbLine
 10
25.52489322376158
 20
-7.937500000000003
 30
0.0
 11
25.52489322376157
 21
5.528888544081849
 31
0.0
  0
SPLINE
  5
AA
330
1F
100
AcDbEntity
  8
외형선
  6
Continuous
370
    15
100
AcDbSpline
210
0.0
220
0.0
230
1.0
 70
    24
 71
     3
 72
    10
 73
     6
 74
     0
 42
0.000000001
 43
0.00000001
 40
0.0
 40
0.0
 40
0.0
 40
0.0
 40
0.5
 40
0.5
 40
1.0
 40
1.0
 40
1.0
 40
1.0
 10
28.575
 20
4.140405031099531
 30
0.0
 10
28.575
 20
4.036052337645017
 30
0.0
 10
28.575
 20
3.849245170993362
 30
0.0
 10
28.575
 20
3.347623397584914
 30
0.0
 10
28.575
 20
3.034635477551784
 30
0.0
 10
28.575
 20
2.700975766503896
 30
0.0
  0
SPLINE
  5
AB
330
1F
100
AcDbEntity
  8
외형선
  6
Continuous
370
    15
100
AcDbSpline
210
0.0
220
0.0
230
1.0
 70
     8
 71
     3
 72
    10
 73
     6
 74
     0
 42
0.000000001
 43
0.00000001
 40
0.0
 40
0.0
 40
0.0
 40
0.0
 40
0.5
 40
0.5
 40
1.0
 40
1.0
 40
1.0
 40
1.0
 10
28.575
 20
2.700975766503896
 30
0.0
 10
28.06562538853869
 20
2.880613301815405
 30
0.0
 10
27.55961526033176
 20
3.054315656353861
 30
0.0
 10
26.54425591940817
 20
3.388901954860799
 30
0.0
 10
26.03366669268559
 20
3.549893799478815
 30
0.0
 10
25.52486627759347
 20
3.703087037581726
 30
0.0
  0
SPLINE
  5
AC
330
1F
100
AcDbEntity
  8
외형선
  6
Continuous
370
    15
100
AcDbSpline
210
0.0
220
0.0
230
1.0
 70
     8
 71
     3
 72
    10
 73
     6
 74
     0
 42
0.000000001
 43
0.00000001
 40
0.0
 40
0.0
 40
0.0
 40
0.0
 40
0.5
 40
0.5
 40
1.0
 40
1.0
 40
1.0
 40
1.0
 10
28.57500000000001
 20
-5.549232736375393
 30
0.0
 10
28.06562306992719
 20
-5.435031526067359
 30
0.0
 10
27.55961066497873
 20
-5.309702686037703
 30
0.0
 10
26.54424664938281
 20
-5.037576191136521
 30
0.0
 10
26.03365508011805
 20
-4.890622859344445
 30
0.0
 10
25.52485238160692
 20
-4.734109587948192
 30
0.0
  0
SPLINE
  5
AD
330
1F
100
AcDbEntity
  8
외형선
  6
Continuous
370
    15
100
AcDbSpline
210
0.0
220
0.0
230
1.0
 70
    24
 71
     3
 72
    14
 73
    10
 74
     0
 42
0.000000001
 43
0.00000001
 40
0.0
 40
0.0
 40
0.0
 40
0.0
 40
0.25
 40
0.25
 40
0.5
 40
0.5
 40
0.75
 40
0.75
 40
1.0
 40
1.0
 40
1.0
 40
1.0
 10
28.575
 20
2.700975766503896
 30
0.0
 10
28.575
 20
2.027823113991152
 30
0.0
 10
28.575
 20
1.308152575502041
 30
0.0
 10
28.575
 20
-0.1654936060152956
 30
0.0
 10
28.575
 20
-0.9188195607427185
 30
0.0
 10
28.575
 20
-2.385119474373945
 30
0.0
 10
28.575
 20
-3.097312127380376
 30
0.0
 10
28.575
 20
-4.414227138905149
 30
0.0
 10
28.575
 20
-5.018519946507769
 30
0.0
 10
28.575
 20
-5.54923273637539
 30
0.0
  0
SPLINE
  5
AE
330
1F
100
AcDbEntity
  8
외형선
  6
Continuous
370
    15
100
AcDbSpline
210
0.0
220
0.0
230
1.0
 70
    24
 71
     3
 72
    10
 73
     6
 74
     0
 42
0.000000001
 43
0.00000001
 40
0.0
 40
0.0
 40
0.0
 40
0.0
 40
0.0046138295368973
 40
0.7084343324674492
 40
1.0
 40
1.0
 40
1.0
 40
1.0
 10
28.575
 20
6.210062000571246
 30
0.0
 10
28.575
 20
6.210328669012868
 30
0.0
 10
28.575
 20
6.251274498918463
 30
0.0
 10
28.575
 20
6.164343010125752
 30
0.0
 10
28.575
 20
5.982467857234925
 30
0.0
 10
28.575
 20
5.92919350810917
 30
0.0
  0
SPLINE
  5
AF
330
1F
100
AcDbEntity
  8
외형선
  6
Continuous
370
    15
100
AcDbSpline
210
0.0
220
0.0
230
1.0
 70
    24
 71
     3
 72
    10
 73
     6
 74
     0
 42
0.000000001
 43
0.00000001
 40
0.0
 40
0.0
 40
0.0
 40
0.0
 40
0.2877495806942376
 40
0.5792458406320461
 40
1.0
 40
1.0
 40
1.0
 40
1.0
 10
28.575
 20
-5.549232736375392
 30
0.0
 10
28.575
 20
-5.664248967336894
 30
0.0
 10
28.575
 20
-5.895779012415983
 30
0.0
 10
28.575
 20
-6.149639569190117
 30
0.0
 10
28.575
 20
-6.187630148450281
 30
0.0
 10
28.575
 20
-6.210072668394448
 30
0.0
  0
SPLINE
  5
B0
330
1F
100
AcDbEntity
  8
0
  6
Continuous
 62
     1
370
    15
100
AcDbSpline
210
0.0
220
0.0
230
1.0
 70
     8
 71
     3
 72
    38
 73
    34
 74
     0
 42
0.000000001
 43
0.00000001
 40
0.0
 40
0.0
 40
0.0
 40
0.0
 40
0.0625
 40
0.0625
 40
0.125
 40
0.125
 40
0.1875
 40
0.1875
 40
0.2500000000000001
 40
0.2500000000000001
 40
0.3125000000000001
 40
0.3125000000000001
 40
0.3750000000000001
 40
0.3750000000000001
 40
0.4375000000000001
 40
0.4375000000000001
 40
0.5000000000000001
 40
0.5000000000000001
 40
0.5625000000000001
 40
0.5625000000000001
 40
0.6250000000000001
 40
0.6250000000000001
 40
0.6875000000000001
 40
0.6875000000000001
 40
0.7500000000000001
 40
0.7500000000000001
 40
0.8125000000000001
 40
0.8125000000000001
 40
0.8750000000000001
 40
0.8750000000000001
 40
0.9375000000000001
 40
0.9375000000000001
 40
1.0
 40
1.0
 40
1.0
 40
1.0
 10
57.15000000000001
 20
-7.532218149528209
 30
0.0
 10
56.55756528000255
 20
-7.423971529010945
 30
0.0
 10
55.95944065427567
 20
-7.29417466650693
 30
0.0
 10
54.76686674507656
 20
-6.994484671472938
 30
0.0
 10
54.17539794309926
 20
-6.824971647680817
 30
0.0
 10
52.98300229367465
 20
-6.447663558186996
 30
0.0
 10
52.38479165479924
 20
-6.240039312852953
 30
0.0
 10
51.19940705725323
 20
-5.792291963256524
 30
0.0
 10
50.60188146794962
 20
-5.550879544340261
 30
0.0
 10
49.40914534260568
 20
-5.038452433445042
 30
0.0
 10
48.81764817120427
 20
-4.76805968972644
 30
0.0
 10
47.62544681718411
 20
-4.200622167297428
 30
0.0
 10
47.02715827294921
 20
-3.903885035623855
 30
0.0
 10
45.84127424000947
 20
-3.291973630472702
 30
0.0
 10
45.24431958872526
 20
-2.975206143300213
 30
0.0
 10
44.05143729814714
 20
-2.326870387100625
 30
0.0
 10
43.45988338916914
 20
-1.996138396162282
 30
0.0
 10
42.26789235746571
 20
-1.323681048341184
 30
0.0
 10
41.6695340191971
 20
-0.9823220366414098
 30
0.0
 10
40.48316629527648
 20
-0.2979787933103549
 30
0.0
 10
39.88675445810094
 20
0.0466129558852932
 30
0.0
 10
38.6937420597608
 20
0.7336398689854666
 30
0.0
 10
38.10210304759694
 20
1.075121980099012
 30
0.0
 10
36.9103383556878
 20
1.751750663971867
 30
0.0
 10
36.31191833788014
 20
2.086545312237426
 30
0.0
 10
35.1250826889564
 20
2.740699305516412
 30
0.0
 10
34.52918551772047
 20
3.061443303450121
 30
0.0
 10
33.33605907493212
 20
3.684134243749402
 30
0.0
 10
32.74430659778758
 20
3.985160927208135
 30
0.0
 10
31.5527842529992
 20
4.564499545909657
 30
0.0
 10
30.9543106729481
 20
4.842524535834
 30
0.0
 10
29.7670228858712
 20
5.368369682006914
 30
0.0
 10
29.17161220939847
 20
5.617197861388223
 30
0.0
 10
28.57499999999757
 20
5.849682859735085
 30
0.0
1001
PE_URL
1000

  0
SPLINE
  5
B1
330
1F
100
AcDbEntity
  8
0
  6
Continuous
 62
     1
370
    15
100
AcDbSpline
210
0.0
220
0.0
230
1.0
 70
     8
 71
     3
 72
    15
 73
    11
 74
     0
 42
0.000000001
 43
0.00000001
 40
0.0
 40
0.0
 40
0.0
 40
0.0
 40
0.1278228746901348
 40
0.2556439844997357
 40
0.3834634162785894
 40
0.5112812570521954
 40
0.6390975940127736
 40
0.7669125145102407
 40
0.8947261060431448
 40
1.0
 40
1.0
 40
1.0
 40
1.0
 10
57.15000000000001
 20
-6.262467348422716
 30
0.0
 10
56.27145732427718
 20
-6.079851190708862
 30
0.0
 10
54.51438410307715
 20
-5.714621396705455
 30
0.0
 10
51.87879878511772
 20
-4.895963885120324
 30
0.0
 10
49.24325279052665
 20
-3.914386450304955
 30
0.0
 10
46.60774458435162
 20
-2.785151408714447
 30
0.0
 10
43.97227192948348
 20
-1.554526514995776
 30
0.0
 10
41.33683292648671
 20
-0.2686953888191658
 30
0.0
 10
38.85633292358976
 20
0.9579409211178281
 30
0.0
 10
37.25431406731102
 20
1.713332517870238
 30
0.0
 10
36.53076272418161
 20
2.054504909366591
 30
0.0
1001
PE_URL
1000

  0
LINE
  5
B2
330
1F
100
AcDbEntity
  8
0
  6
Continuous
 62
     1
370
    15
100
AcDbLine
 10
57.15000000000001
 20
-7.532218149528209
 30
0.0
 11
57.15000000000001
 21
-6.262467348422716
 31
0.0
1001
PE_URL
1000

  0
SPLINE
  5
B3
330
1F
100
AcDbEntity
  8
0
  6
Continuous
 62
     1
370
    15
100
AcDbSpline
210
0.0
220
0.0
230
1.0
 70
     8
 71
     3
 72
    38
 73
    34
 74
     0
 42
0.000000001
 43
0.00000001
 40
0.0
 40
0.0
 40
0.0
 40
0.0
 40
0.0624999999999999
 40
0.0624999999999999
 40
0.1249999999999997
 40
0.1249999999999997
 40
0.1874999999999996
 40
0.1874999999999996
 40
0.2499999999999994
 40
0.2499999999999994
 40
0.3124999999999993
 40
0.3124999999999993
 40
0.3749999999999993
 40
0.3749999999999993
 40
0.4374999999999992
 40
0.4374999999999992
 40
0.4999999999999992
 40
0.4999999999999992
 40
0.5624999999999993
 40
0.5624999999999993
 40
0.6249999999999994
 40
0.6249999999999994
 40
0.6874999999999996
 40
0.6874999999999996
 40
0.7499999999999998
 40
0.7499999999999998
 40
0.8124999999999998
 40
0.8124999999999998
 40
0.8749999999999999
 40
0.8749999999999999
 40
0.9374999999999999
 40
0.9374999999999999
 40
1.0
 40
1.0
 40
1.0
 40
1.0
 10
28.575
 20
4.140405031099535
 30
0.0
 10
29.17161220940086
 20
3.846956140513545
 30
0.0
 10
29.76702288587352
 20
3.542027729229395
 30
0.0
 10
30.95431067295034
 20
2.914638689527568
 30
0.0
 10
31.55278425300139
 20
2.590996322904372
 30
0.0
 10
32.74430659778965
 20
1.931921049767723
 30
0.0
 10
33.33605907493416
 20
1.596769973684961
 30
0.0
 10
34.52918551772241
 20
0.9175724919591769
 30
0.0
 10
35.12508268895825
 20
0.5745568267610411
 30
0.0
 10
36.31191833788193
 20
-0.1118212623021418
 30
0.0
 10
36.91033835568953
 20
-0.4566227326942948
 30
0.0
 10
38.10210304759855
 20
-1.140751295421823
 30
0.0
 10
38.69374205976238
 20
-1.47976143287596
 30
0.0
 10
39.8867544581024
 20
-2.149404062665776
 30
0.0
 10
40.48316629527788
 20
-2.47907946589043
 30
0.0
 10
41.66953401919842
 20
-3.121513013714559
 30
0.0
 10
42.26789235746699
 20
-3.435770075830718
 30
0.0
 10
43.4598833891703
 20
-4.042356336298997
 30
0.0
 10
44.05143729814824
 20
-4.33439469522105
 30
0.0
 10
45.24431958872627
 20
-4.894067216045198
 30
0.0
 10
45.84127424001041
 20
-5.160945707023147
 30
0.0
 10
47.02715827295008
 20
-5.663117446869026
 30
0.0
 10
47.62544681718491
 20
-5.899710426642975
 30
0.0
 10
48.81764817120497
 20
-6.337775613974959
 30
0.0
 10
49.40914534260635
 20
-6.539057668155601
 30
0.0
 10
50.60188146795017
 20
-6.904843469922388
 30
0.0
 10
51.19940705725372
 20
-7.068855574487928
 30
0.0
 10
52.38479165479962
 20
-7.355506683985761
 30
0.0
 10
52.983002293675
 20
-7.478965689694237
 30
0.0
 10
54.17539794309952
 20
-7.682794819137963
 30
0.0
 10
54.76686674507675
 20
-7.763144169367457
 30
0.0
 10
55.95944065427577
 20
-7.880209108094507
 30
0.0
 10
56.5575652800026
 20
-7.916686207494069
 30
0.0
 10
57.15000000000001
 20
-7.937499999999996
 30
0.0
1001
PE_URL
1000

  0
SPLINE
  5
B4
330
1F
100
AcDbEntity
  8
0
  6
Continuous
 62
     1
370
    15
100
AcDbSpline
210
0.0
220
0.0
230
1.0
 70
     8
 71
     3
 72
    11
 73
     7
 74
     0
 42
0.000000001
 43
0.00000001
 40
0.0
 40
0.0
 40
0.0
 40
0.0
 40
0.1534978020792473
 40
0.4512855423657469
 40
0.725657805285354
 40
1.0
 40
1.0
 40
1.0
 40
1.0
 10
37.42451273453142
 20
-0.7503680198210735
 30
0.0
 10
36.97170803337785
 20
-0.5696347165234505
 30
0.0
 10
35.64045629962111
 20
-0.0382764449560695
 30
0.0
 10
33.49979731946702
 20
0.8314606742731646
 30
0.0
 10
31.0028179442541
 20
1.818805706128028
 30
0.0
 10
29.38424308344199
 20
2.406929822297768
 30
0.0
 10
28.575
 20
2.700975766503896
 30
0.0
1001
PE_URL
1000

  0
SPLINE
  5
B5
330
1F
100
AcDbEntity
  8
외형선
  6
Continuous
370
    15
100
AcDbSpline
210
0.0
220
0.0
230
1.0
 70
    24
 71
     3
 72
    10
 73
     6
 74
     0
 42
0.000000001
 43
0.00000001
 40
0.0
 40
0.0
 40
0.0
 40
0.0
 40
0.5
 40
0.5
 40
1.0
 40
1.0
 40
1.0
 40
1.0
 10
28.57500000000001
 20
4.14040503109953
 30
0.0
 10
28.57500000000001
 20
4.036052337645013
 30
0.0
 10
28.57500000000001
 20
3.849245170993359
 30
0.0
 10
28.57500000000001
 20
3.347623397584913
 30
0.0
 10
28.57500000000001
 20
3.034635477551783
 30
0.0
 10
28.57500000000001
 20
2.700975766503894
 30
0.0
  0
LINE
  5
B6
330
1F
100
AcDbEntity
  8
0
  6
Continuous
 62
     1
370
    15
100
AcDbLine
 10
57.15000000000001
 20
-7.937499999999999
 30
0.0
 11
57.15000000000001
 21
-7.532218149528207
 31
0.0
1001
PE_URL
1000

  0
SPLINE
  5
B7
330
1F
100
AcDbEntity
  8
0
  6
Continuous
 62
     1
370
    15
100
AcDbSpline
210
0.0
220
0.0
230
1.0
 70
     8
 71
     3
 72
     8
 73
     4
 74
     0
 42
0.000000001
 43
0.00000001
 40
0.0
 40
0.0
 40
0.0
 40
0.0
 40
1.0
 40
1.0
 40
1.0
 40
1.0
 10
52.238830245815
 20
2.220079671996136
 30
0.0
 10
52.20890471791481
 20
2.255523819275087
 30
0.0
 10
52.17929209921012
 20
2.290863161819909
 30
0.0
 10
52.15000000000835
 20
2.326095150660296
 30
0.0
1001
PE_URL
1000

  0
LINE
  5
B8
330
1F
100
AcDbEntity
  8
0
  6
Continuous
 62
     1
370
    15
100
AcDbLine
 10
52.15000000000001
 20
2.937719435296589
 30
0.0
 11
57.15000000000001
 21
0.000000000000001
 31
0.0
1001
PE_URL
1000

  0
LINE
  5
B9
330
1F
100
AcDbEntity
  8
0
  6
Continuous
 62
     1
370
    15
100
AcDbLine
 10
57.15000000000001
 20
0.000000000000001
 30
0.0
 11
57.15000000000001
 21
-2.121240884110306
 31
0.0
1001
PE_URL
1000

  0
SPLINE
  5
BA
330
1F
100
AcDbEntity
  8
0
  6
Continuous
 62
     1
370
    15
100
AcDbSpline
210
0.0
220
0.0
230
1.0
 70
     8
 71
     3
 72
    12
 73
     8
 74
     0
 42
0.000000001
 43
0.00000001
 40
0.0
 40
0.0
 40
0.0
 40
0.0
 40
0.5
 40
0.5
 40
0.75
 40
0.75
 40
1.0
 40
1.0
 40
1.0
 40
1.0
 10
57.15000000000001
 20
-2.121240884110305
 30
0.0
 10
56.29985708373019
 20
-1.452887382416917
 30
0.0
 10
55.46391642663291
 20
-0.7571355301524711
 30
0.0
 10
54.23186851419035
 20
0.3286694918016398
 30
0.0
 10
53.82488238863037
 20
0.6977356413040321
 30
0.0
 10
53.01922911848985
 20
1.45191653895069
 30
0.0
 10
52.6227441128429
 20
1.835090379294039
 30
0.0
 10
52.238830245815
 20
2.220079671996136
 30
0.0
1001
PE_URL
1000

  0
SPLINE
  5
BB
330
1F
100
AcDbEntity
  8
0
  6
Continuous
 62
     1
370
    15
100
AcDbSpline
210
0.0
220
0.0
230
1.0
 70
     8
 71
     3
 72
    14
 73
    10
 74
     0
 42
0.000000001
 43
0.00000001
 40
0.0
 40
0.0
 40
0.0
 40
0.0
 40
0.1638641331716938
 40
0.3080392350834997
 40
0.4522126167462637
 40
0.5963843780899346
 40
0.7405546192150954
 40
0.8847234403825218
 40
1.0
 40
1.0
 40
1.0
 40
1.0
 10
52.23883024580863
 20
2.220079671998888
 30
0.0
 10
51.24029236626902
 20
2.642131574176825
 30
0.0
 10
49.36319553817305
 20
3.435523896194039
 30
0.0
 10
46.6077772600182
 20
4.431785502663026
 30
0.0
 10
43.97229927924309
 20
5.228128386072122
 30
0.0
 10
41.33686909611981
 20
5.833125215027501
 30
0.0
 10
38.70146665217658
 20
6.217931490040389
 30
0.0
 10
36.24213414212737
 20
6.388605616859278
 30
0.0
 10
34.6612697929816
 20
6.319437905216216
 30
0.0
 10
33.95886143697184
 20
6.28870536409059
 30
0.0
1001
PE_URL
1000

  0
SPLINE
  5
BC
330
1F
100
AcDbEntity
  8
0
  6
Continuous
 62
     1
370
    15
100
AcDbSpline
210
0.0
220
0.0
230
1.0
 70
    24
 71
     3
 72
    10
 73
     6
 74
     0
 42
0.000000001
 43
0.00000001
 40
0.0
 40
0.0
 40
0.0
 40
0.0
 40
0.5
 40
0.5
 40
1.0
 40
1.0
 40
1.0
 40
1.0
 10
57.15000000000001
 20
-6.262467348422715
 30
0.0
 10
57.15000000000001
 20
-5.782400400217704
 30
0.0
 10
57.15000000000001
 20
-5.175817403507594
 30
0.0
 10
57.15000000000001
 20
-3.765570313258523
 30
0.0
 10
57.15000000000001
 20
-2.963127829219771
 30
0.0
 10
57.15000000000001
 20
-2.121240884110559
 30
0.0
1001
PE_URL
1000

  0
SPLINE
  5
BD
330
1F
100
AcDbEntity
  8
외형선
  6
Continuous
370
    15
100
AcDbSpline
210
0.0
220
0.0
230
1.0
 70
    24
 71
     3
 72
    10
 73
     6
 74
     0
 42
0.000000001
 43
0.00000001
 40
0.0
 40
0.0
 40
0.0
 40
0.0
 40
0.0069401694357524
 40
0.709129320990962
 40
1.0
 40
1.0
 40
1.0
 40
1.0
 10
28.57500000000001
 20
6.209658041959239
 30
0.0
 10
28.57500000000001
 20
6.210061195724471
 30
0.0
 10
28.57500000000001
 20
6.251254448776947
 30
0.0
 10
28.57500000000001
 20
6.164381558828565
 30
0.0
 10
28.57500000000001
 20
5.982482403493865
 30
0.0
 10
28.57500000000001
 20
5.929203508109169
 30
0.0
  0
SPLINE
  5
BE
330
1F
100
AcDbEntity
  8
0
  6
Continuous
 62
     1
370
    15
100
AcDbSpline
210
0.0
220
0.0
230
1.0
 70
     8
 71
     3
 72
     9
 73
     5
 74
     0
 42
0.000000001
 43
0.00000001
 40
0.0
 40
0.0
 40
0.0
 40
0.0
 40
0.8928930867714835
 40
1.0
 40
1.0
 40
1.0
 40
1.0
 10
57.15000000000001
 20
5.556249999999996
 30
0.0
 10
56.27145947345809
 20
5.552061939961909
 30
0.0
 10
55.28753369381236
 20
5.547371501543096
 30
0.0
 10
54.30361010079344
 20
5.430785755581609
 30
0.0
 10
54.19822508189247
 20
5.41829861620523
 30
0.0
1001
PE_URL
1000

  0
SPLINE
  5
BF
330
1F
100
AcDbEntity
  8
0
  6
Continuous
 62
     1
370
    15
100
AcDbSpline
210
0.0
220
0.0
230
1.0
 70
     8
 71
     3
 72
    10
 73
     6
 74
     0
 42
0.000000001
 43
0.00000001
 40
0.0
 40
0.0
 40
0.0
 40
0.0
 40
0.5
 40
0.5
 40
1.0
 40
1.0
 40
1.0
 40
1.0
 10
57.15000000000001
 20
5.556249999999999
 30
0.0
 10
56.33340404815337
 20
5.334809564106322
 30
0.0
 10
55.52174692733261
 20
5.086103314051059
 30
0.0
 10
53.90913907929082
 20
4.529584005730243
 30
0.0
 10
53.1092565694043
 20
4.222666859573498
 30
0.0
 10
52.3184913161142
 20
3.87667419120688
 30
0.0
1001
PE_URL
1000

  0
SPLINE
  5
C0
330
1F
100
AcDbEntity
  8
0
  6
Continuous
 62
     1
370
    15
100
AcDbSpline
210
0.0
220
0.0
230
1.0
 70
    24
 71
     3
 72
     8
 73
     4
 74
     0
 42
0.000000001
 43
0.00000001
 40
0.0
 40
0.0
 40
0.0
 40
0.0
 40
1.0
 40
1.0
 40
1.0
 40
1.0
 10
52.31849131611422
 20
3.876674191206888
 30
0.0
 10
52.2630816833712
 20
3.830179988808561
 30
0.0
 10
52.20690809952008
 20
3.783044755317177
 30
0.0
 10
52.15
 20
3.735293189998884
 30
0.0
1001
PE_URL
1000

  0
SPLINE
  5
C1
330
1F
100
AcDbEntity
  8
0
  6
Continuous
 62
     1
370
    15
100
AcDbSpline
210
0.0
220
0.0
230
1.0
 70
    24
 71
     3
 72
     8
 73
     4
 74
     0
 42
0.000000001
 43
0.00000001
 40
0.0
 40
0.0
 40
0.0
 40
0.0
 40
1.0
 40
1.0
 40
1.0
 40
1.0
 10
52.15000000000002
 20
2.326095150670326
 30
0.0
 10
52.15000000000002
 20
2.844328698008598
 30
0.0
 10
52.15000000000003
 20
3.323694336874996
 30
0.0
 10
52.15000000000003
 20
3.735293189998731
 30
0.0
1001
PE_URL
1000

  0
SPLINE
  5
C2
330
1F
100
AcDbEntity
  8
0
  6
Continuous
 62
     1
370
    15
100
AcDbSpline
210
0.0
220
0.0
230
1.0
 70
     8
 71
     3
 72
    12
 73
     8
 74
     0
 42
0.000000001
 43
0.00000001
 40
0.0
 40
0.0
 40
0.0
 40
0.0
 40
0.1396674562087221
 40
0.3635592212376337
 40
0.5874489370317701
 40
0.7937354779014116
 40
1.0
 40
1.0
 40
1.0
 40
1.0
 10
40.34545013882237
 20
-5.942334780796715
 30
0.0
 10
39.79745246990419
 20
-6.03068032702935
 30
0.0
 10
38.37099557607922
 20
-6.260646840775766
 30
0.0
 10
36.06610453627348
 20
-6.379420392861632
 30
0.0
 10
33.49977376577965
 20
-6.313994953047069
 30
0.0
 10
31.00281019984474
 20
-6.043957777788329
 30
0.0
 10
29.38424127106945
 20
-5.71413521572427
 30
0.0
 10
28.57500000000001
 20
-5.549232736375393
 30
0.0
1001
PE_URL
1000

  0
SPLINE
  5
C3
330
1F
100
AcDbEntity
  8
외형선
  6
Continuous
370
    15
100
AcDbSpline
210
0.0
220
0.0
230
1.0
 70
    24
 71
     3
 72
    14
 73
    10
 74
     0
 42
0.000000001
 43
0.00000001
 40
0.0
 40
0.0
 40
0.0
 40
0.0
 40
0.25
 40
0.25
 40
0.5
 40
0.5
 40
0.75
 40
0.75
 40
1.0
 40
1.0
 40
1.0
 40
1.0
 10
28.57500000000001
 20
2.700975766503894
 30
0.0
 10
28.57500000000001
 20
2.02782311399115
 30
0.0
 10
28.57500000000001
 20
1.308152575502038
 30
0.0
 10
28.57500000000001
 20
-0.1654936060152978
 30
0.0
 10
28.57500000000001
 20
-0.9188195607427201
 30
0.0
 10
28.57500000000001
 20
-2.385119474373946
 30
0.0
 10
28.57500000000001
 20
-3.097312127380378
 30
0.0
 10
28.57500000000001
 20
-4.414227138905151
 30
0.0
 10
28.57500000000001
 20
-5.018519946507767
 30
0.0
 10
28.57500000000001
 20
-5.549232736375392
 30
0.0
  0
LINE
  5
C4
330
1F
100
AcDbEntity
  8
0
  6
Continuous
 62
     1
370
    15
100
AcDbLine
 10
57.15000000000001
 20
0.000000000000001
 30
0.0
 11
57.15000000000001
 21
5.556249999999999
 31
0.0
1001
PE_URL
1000

  0
SPLINE
  5
C5
330
1F
100
AcDbEntity
  8
외형선
  6
Continuous
370
    15
100
AcDbSpline
210
0.0
220
0.0
230
1.0
 70
    24
 71
     3
 72
    10
 73
     6
 74
     0
 42
0.000000001
 43
0.00000001
 40
0.0
 40
0.0
 40
0.0
 40
0.0
 40
0.2883046163954404
 40
0.5803631389459067
 40
1.0
 40
1.0
 40
1.0
 40
1.0
 10
28.57500000000001
 20
-5.549232736375393
 30
0.0
 10
28.57500000000001
 20
-5.664243379928915
 30
0.0
 10
28.57500000000001
 20
-5.895762177440496
 30
0.0
 10
28.57500000000001
 20
-6.149231667366617
 30
0.0
 10
28.57500000000001
 20
-6.187168104564257
 30
0.0
 10
28.57500000000001
 20
-6.209536561339353
 30
0.0
  0
SPLINE
  5
C6
330
1F
100
AcDbEntity
  8
0
  6
Continuous
 62
     1
370
    15
100
AcDbSpline
210
0.0
220
0.0
230
1.0
 70
    24
 71
     3
 72
    10
 73
     6
 74
     0
 42
0.000000001
 43
0.00000001
 40
0.0
 40
0.0
 40
0.0
 40
0.0
 40
0.5
 40
0.5
 40
1.0
 40
1.0
 40
1.0
 40
1.0
 10
57.15000000000001
 20
5.556249999999998
 30
0.0
 10
57.15000000000001
 20
5.893056038408051
 30
0.0
 10
57.15000000000002
 20
6.284455846632739
 30
0.0
 10
57.15000000000001
 20
7.105611590126786
 30
0.0
 10
57.15000000000001
 20
7.533270396674183
 30
0.0
 10
57.15000000000001
 20
7.937500000000001
 30
0.0
1001
PE_URL
1000

  0
SPLINE
  5
C7
330
1F
100
AcDbEntity
  8
0
  6
Continuous
 62
     1
370
    15
100
AcDbSpline
210
0.0
220
0.0
230
1.0
 70
     8
 71
     3
 72
    16
 73
    12
 74
     0
 42
0.000000001
 43
0.00000001
 40
0.0
 40
0.0
 40
0.0
 40
0.0
 40
0.1018260729358829
 40
0.2118192091993963
 40
0.3222328404642511
 40
0.4328586426625468
 40
0.5439098351847347
 40
0.6573525123001145
 40
0.7710255275584615
 40
0.8853946955638524
 40
1.0
 40
1.0
 40
1.0
 40
1.0
 10
46.24148892928066
 20
5.320145933703436
 30
0.0
 10
46.61164620473406
 20
5.479434693259098
 30
0.0
 10
47.38164959488066
 20
5.810788128686962
 30
0.0
 10
48.55418895995162
 20
6.24546276668929
 30
0.0
 10
49.75676733091875
 20
6.653873223968556
 30
0.0
 10
50.96542827207611
 20
7.008255282661157
 30
0.0
 10
52.18288767172153
 20
7.313574755392421
 30
0.0
 10
53.41344995052569
 20
7.562219120256361
 30
0.0
 10
54.6544284805715
 20
7.751565713757805
 30
0.0
 10
55.90082350150747
 20
7.882164593159259
 30
0.0
 10
56.73332165471043
 20
7.914571288201581
 30
0.0
 10
57.15000000000001
 20
7.937500000000001
 30
0.0
1001
PE_URL
1000

  0
LINE
  5
C8
330
1F
100
AcDbEntity
  8
중심선
 62
     1
100
AcDbLine
 10
-64.15
 20
-0.0000000000000081
 30
0.0
 11
64.15
 21
0.0000000000000073
 31
0.0
  0
LINE
  5
C9
330
1F
100
AcDbEntity
  8
참조1
100
AcDbLine
 10
0.0
 20
-0.000000000000007
 30
0.0
 11
0.0000000000000071
 21
-40.00000000000001
 31
0.0
  0
LINE
  5
CA
330
1F
100
AcDbEntity
  8
참조1
100
AcDbLine
 10
0.0000000000000071
 20
-40.00000000000001
 30
0.0
 11
-11.29071559669922
 21
-40.0
 31
0.0
  0
CIRCLE
  5
CB
330
1F
100
AcDbEntity
  8
해칭선
100
AcDbCircle
 10
0.0
 20
0.0
 30
0.0
 40
3.000000000000001
  0
INSERT
  5
CC
330
1F
100
AcDbEntity
  8
0
  6
Continuous
 62
     7
100
AcDbBlockReference
 66
     1
  2
블럭10
 10
-13.94027293212521
 20
-52.04717430164393
 30
0.0
  0
ATTRIB
  5
CD
330
CC
100
AcDbEntity
  8
FORMAT
 62
     2
100
AcDbText
 10
-23.12156822086649
 20
-49.97180738881174
 30
0.0
 40
4.233333333333333
  1
E2050040 [ 2 FLUTE ]
 41
0.75
  7
SLDTEXTSTYLE0
 11
-23.12156822086649
 21
-52.08847405547841
 31
0.0
100
AcDbAttribute
  2
AUTOATTR0
 70
     0
 74
     1
  0
SEQEND
  5
CE
330
CC
100
AcDbEntity
  8
0
  6
Continuous
 62
     7
  0
HATCH
  5
CF
330
1F
100
AcDbEntity
  8
중심선
100
AcDbHatch
 10
0.0
 20
0.0
 30
0.0
210
0.0
220
0.0
230
1.0
  2
SOLID
 70
     1
 71
     0
 91
        1
 92
        0
 93
        4
 72
     1
 10
-8.225363627744365
 20
-35.8
 11
-11.67163887158165
 21
-35.8
 72
     1
 10
-11.67163887158165
 20
-35.8
 11
-13.79986873078567
 21
-38.3363255805726
 72
     1
 10
-13.79986873078567
 20
-38.3363255805726
 11
-10.35356040183524
 21
-38.33628615127011
 72
     1
 10
-10.35356040183524
 20
-38.33628615127011
 11
-8.225363627744365
 21
-35.8
 97
        0
 75
     0
 76
     1
 98
        1
 10
18.16921167873051
 20
-0.0010749287238962
  0
HATCH
  5
D0
330
1F
100
AcDbEntity
  8
중심선
100
AcDbHatch
 10
0.0
 20
0.0
 30
0.0
210
0.0
220
0.0
230
1.0
  2
SOLID
 70
     1
 71
     0
 91
        1
 92
        0
 93
        4
 72
     1
 10
-3.212599636708411
 20
-35.80000000000003
 11
-6.658874880545696
 21
-35.8
 72
     1
 10
-6.658874880545696
 20
-35.8
 11
-11.19001288890308
 21
-41.20000000000002
 72
     1
 10
-11.19001288890308
 20
-41.20000000000002
 11
-7.743737645065803
 21
-41.20000000000002
 72
     1
 10
-7.743737645065803
 20
-41.20000000000002
 11
-3.212599636708411
 21
-35.80000000000003
 97
        0
 75
     0
 76
     1
 98
        1
 10
18.16921167873051
 20
-0.0010749287238962
  0
HATCH
  5
D1
330
1F
100
AcDbEntity
  8
중심선
100
AcDbHatch
 10
0.0
 20
0.0
 30
0.0
210
0.0
220
0.0
230
1.0
  2
SOLID
 70
     1
 71
     0
 91
        1
 92
        0
 93
        4
 72
     1
 10
1.800164354327482
 20
-35.8
 11
-1.646110889509632
 21
-35.79999999999998
 72
     1
 10
-1.646110889509632
 20
-35.79999999999998
 11
-8.694547791398882
 21
-44.20000000000002
 72
     1
 10
-8.694547791398882
 20
-44.20000000000002
 11
-5.248272547561601
 21
-44.20000000000002
 72
     1
 10
-5.248272547561601
 20
-44.20000000000002
 11
1.800164354327482
 21
-35.8
 97
        0
 75
     0
 76
     1
 98
        1
 10
18.16921167873051
 20
-0.0010749287238962
  0
HATCH
  5
D2
330
1F
100
AcDbEntity
  8
중심선
100
AcDbHatch
 10
0.0
 20
0.0
 30
0.0
210
0.0
220
0.0
230
1.0
  2
SOLID
 70
     1
 71
     0
 91
        1
 92
        0
 93
        6
 72
     3
 10
6.600054785339681
 20
-40.00000000005127
 11
3.960054785062283
 21
1.540882976769353E-10
 40
0.3939339440162628
 50
17.09539180608436
 51
320.0019657685077
 73
     0
 72
     1
 10
8.28305444104025
 20
-38.5878940046383
 11
10.58835631474134
 21
-36.65356729459038
 72
     3
 10
6.600054785286835
 20
-40.00000000000015
 11
6.600054785286829
 21
-1.278976924368180E-13
 40
0.636358354079598
 50
39.99873849337385
 51
368.4976242363724
 73
     1
 72
     1
 10
13.02538727718744
 20
-39.03999999993002
 11
5.280122092122758
 21
-39.03999999993002
 72
     1
 10
5.280122092122758
 20
-39.03999999993002
 11
5.280097047676824
 21
-40.95999999992991
 72
     1
 10
5.280097047676824
 20
-40.95999999992991
 11
9.721476817148861
 21
-40.95999999992988
 97
        0
 75
     0
 76
     1
 98
        1
 10
18.16921167873051
 20
-0.0010749287238962
  0
DIMENSION
  5
D3
330
1F
100
AcDbEntity
  8
치수문자_일반주서
100
AcDbDimension
  2
_D
 10
-72.14999999999992
 20
-7.937500000000185
 30
0.0
 11
-72.15000000000005
 21
28.54149999999992
 31
0.0
 70
   160
  1
%%c<>
 71
     2
 42
15.875
 52
-270.0
  3
SLDDIMSTYLE0
100
AcDbAlignedDimension
 13
-25.52489322376157
 23
7.937499999999994
 33
0.0
 14
-25.52489322376159
 24
-7.937500000000006
 34
0.0
 50
90.0000000000002
100
AcDbRotatedDimension
1001
PE_URL
1000

1001
ACAD
1000
DSTYLE
1002
{
1070
   171
1070
     8
1070
   273
1070
     7
1002
}
  0
DIMENSION
  5
E8
330
1F
100
AcDbEntity
  8
치수문자_일반주서
100
AcDbDimension
  2
_D_1
 10
72.14999999999999
 20
7.937500000000057
 30
0.0
 11
72.14999999999992
 21
28.54150000000006
 31
0.0
 70
   160
  1
%%c<>
 71
     2
 42
15.875
 52
-270.0
  3
SLDDIMSTYLE0
100
AcDbAlignedDimension
 13
57.15000000000001
 23
-7.937499999999999
 33
0.0
 14
57.15000000000001
 24
7.937500000000001
 34
0.0
 50
90.0000000000002
100
AcDbRotatedDimension
1001
PE_URL
1000

1001
ACAD
1000
DSTYLE
1002
{
1070
   171
1070
     8
1070
   273
1070
     7
1002
}
  0
DIMENSION
  5
FC
330
1F
100
AcDbEntity
  8
치수문자_일반주서
100
AcDbDimension
  2
_D_2
 10
28.57500000000001
 20
22.9375
 30
0.0
 11
42.86250000000001
 21
22.9375
 31
0.0
 70
   160
  1
<>
 71
     2
 42
28.575
  3
SLDDIMSTYLE0
100
AcDbAlignedDimension
 13
57.15000000000001
 23
7.937500000000001
 33
0.0
 14
28.57500000000001
 24
6.210870270512447
 34
0.0
100
AcDbRotatedDimension
1001
PE_URL
1000

1001
ACAD
1000
DSTYLE
1002
{
1070
   171
1070
     8
1070
   273
1070
     7
1002
}
  0
DIMENSION
  5
110
330
1F
100
AcDbEntity
  8
치수문자_일반주서
100
AcDbDimension
  2
_D_3
 10
57.15000000000001
 20
37.9375
 30
0.0
 11
0.0000000000000142
 21
37.9375
 31
0.0
 70
   160
  1
<>
 71
     2
 42
114.3
  3
SLDDIMSTYLE0
100
AcDbAlignedDimension
 13
-57.15000000000001
 23
7.930791345885313
 33
0.0
 14
57.15000000000001
 24
7.937500000000001
 34
0.0
100
AcDbRotatedDimension
1001
PE_URL
1000

1001
ACAD
1000
DSTYLE
1002
{
1070
   171
1070
     8
1070
   273
1070
     7
1002
}
  0
LINE
  5
124
330
1F
100
AcDbEntity
  8
참조1
100
AcDbLine
 10
86.68162503295505
 20
7.44
 30
0.0
 11
86.68162503295505
 21
-7.440000000000005
 31
0.0
  0
LINE
  5
125
330
1F
100
AcDbEntity
  8
참조1
100
AcDbLine
 10
99.38162503295504
 20
5.44
 30
0.0
 11
86.68162503295505
 21
5.44
 31
0.0
  0
SOLID
  5
126
330
1F
100
AcDbEntity
  8
참조1
100
AcDbTrace
 10
86.68162503295505
 20
5.44
 30
0.0
 11
93.03162503295505
 21
4.423999999999999
 31
0.0
 12
93.03162503295505
 22
6.456
 32
0.0
 13
93.03162503295505
 23
6.456
 33
0.0
  0
LINE
  5
127
330
1F
100
AcDbEntity
  8
참조1
100
AcDbLine
 10
99.38162503295504
 20
-5.440000000000005
 30
0.0
 11
86.68162503295505
 21
-5.440000000000005
 31
0.0
  0
SOLID
  5
128
330
1F
100
AcDbEntity
  8
참조1
100
AcDbTrace
 10
86.68162503295505
 20
-5.440000000000005
 30
0.0
 11
93.03162503295505
 21
-6.456000000000005
 31
0.0
 12
93.03162503295505
 22
-4.424000000000005
 32
0.0
 13
93.03162503295505
 23
-4.424000000000005
 33
0.0
  0
MTEXT
  5
129
330
1F
100
AcDbEntity
  8
참조1
100
AcDbMText
 10
96.06597516558105
 20
11.01029177718832
 30
0.0
 40
3.5
 41
0.0
 71
     1
 72
     1
  1
A
  7
SLDTEXTSTYLE0
 73
     1
 44
1.0
  0
MTEXT
  5
12A
330
1F
100
AcDbEntity
  8
참조1
100
AcDbMText
 10
96.06597516558105
 20
0.1302917771883231
 30
0.0
 40
3.5
 41
0.0
 71
     1
 72
     1
  1
A
  7
SLDTEXTSTYLE0
 73
     1
 44
1.0
  0
INSERT
  5
131
330
1F
100
AcDbEntity
  8
해칭선
100
AcDbBlockReference
  2
SW_DOWELSYMBOL_0
 10
0.0
 20
0.0
 30
0.0
  0
LINE
  5
19E
330
1F
100
AcDbEntity
  8
외형선
  6
Continuous
370
    15
100
AcDbLine
 10
-5.092700000000011
 20
6.286499999999986
 30
0.0
 11
5.092700000000004
 21
6.286499999999986
 31
0.0
1001
PE_URL
1000

  0
LINE
  5
19F
330
1F
100
AcDbEntity
  8
외형선
  6
Continuous
370
    15
100
AcDbLine
 10
-5.092700000000011
 20
6.286500000000085
 30
0.0
 11
-6.743699999999965
 21
7.937499999999996
 31
0.0
1001
PE_URL
1000

  0
LINE
  5
1A0
330
1F
100
AcDbEntity
  8
외형선
  6
Continuous
370
    15
100
AcDbLine
 10
5.092699999999891
 20
6.286500000000085
 30
0.0
 11
6.743699999999901
 21
7.937499999999996
 31
0.0
1001
PE_URL
1000

  0
LINE
  5
212
330
1F
100
AcDbEntity
  8
외형선
  6
Continuous
370
    15
100
AcDbLine
 10
-6.743699999999968
 20
7.937499999999995
 30
0.0
 11
-25.52489322376157
 21
7.937499999999994
 31
0.0
  0
LINE
  5
263
330
1F
100
AcDbEntity
  8
외형선
  6
Continuous
370
    15
100
AcDbLine
 10
-28.6375
 20
-6.210869991695564
 30
0.0
 11
-27.56045050486767
 21
-6.240775921124165
 31
0.0
  0
SPLINE
  5
264
330
1F
100
AcDbEntity
  8
외형선
  6
Continuous
370
    15
100
AcDbSpline
210
0.0
220
0.0
230
1.0
 70
     8
 71
     3
 72
     9
 73
     5
 74
     0
 42
0.000000001
 43
0.00000001
 40
0.0
 40
0.0
 40
0.0
 40
0.0
 40
0.4414815449954301
 40
1.0
 40
1.0
 40
1.0
 40
1.0
 10
-25.58735238160691
 20
6.326564066917904
 30
0.0
 10
-26.0315557612585
 20
6.302897754028425
 30
0.0
 10
-27.03772098987794
 20
6.249291180531177
 30
0.0
 10
-28.06419520645522
 20
6.224638800758413
 30
0.0
 10
-28.63749999999999
 20
6.210869991695542
 30
0.0
  0
SPLINE
  5
265
330
1F
100
AcDbEntity
  8
0
  6
Continuous
 62
     1
370
    15
100
AcDbSpline
210
0.0
220
0.0
230
1.0
 70
     8
 71
     3
 72
     9
 73
     5
 74
     0
 42
0.000000001
 43
0.00000001
 40
0.0
 40
0.0
 40
0.0
 40
0.0
 40
0.4953574712610203
 40
0.9999999999999999
 40
0.9999999999999999
 40
0.9999999999999999
 40
0.9999999999999999
 10
-36.64767501135086
 20
-2.033996851934511
 30
0.0
 10
-36.28453075238798
 20
-2.207233394059887
 30
0.0
 10
-35.55143540199698
 20
-2.55695365099751
 30
0.0
 10
-34.81729523070601
 20
-2.941336135498545
 30
0.0
 10
-34.44681687821686
 20
-3.135311884480121
 30
0.0
1001
PE_URL
1000

  0
LINE
  5
266
330
1F
100
AcDbEntity
  8
0
  6
Continuous
 62
     1
370
    15
100
AcDbLine
 10
-32.30188624113265
 20
-2.211473373922278
 30
0.0
 11
-32.17383803368119
 21
-2.282029903063329
 31
0.0
1001
PE_URL
1000

  0
SPLINE
  5
267
330
1F
100
AcDbEntity
  8
0
  6
Continuous
 62
     1
370
    15
100
AcDbSpline
210
0.0
220
0.0
230
1.0
 70
     8
 71
     3
 72
     9
 73
     5
 74
     0
 42
0.000000001
 43
0.00000001
 40
0.0
 40
0.0
 40
0.0
 40
0.0
 40
0.4622510975661289
 40
1.0
 40
1.0
 40
1.0
 40
1.0
 10
-34.02407642251553
 20
-6.307447345672461
 30
0.0
 10
-33.20037505843229
 20
-6.26971533277948
 30
0.0
 10
-31.41844015677333
 20
-6.18808867339099
 30
0.0
 10
-29.60999135712092
 20
-6.202903392665714
 30
0.0
 10
-28.63749999999999
 20
-6.210869991695557
 30
0.0
1001
PE_URL
1000

  0
SPLINE
  5
268
330
1F
100
AcDbEntity
  8
0
  6
Continuous
 62
     1
370
    15
100
AcDbSpline
210
0.0
220
0.0
230
1.0
 70
     8
 71
     3
 72
    27
 73
    23
 74
     0
 42
0.000000001
 43
0.00000001
 40
0.0
 40
0.0
 40
0.0
 40
0.0
 40
0.0664431527290071
 40
0.1219926467080691
 40
0.1691638732608232
 40
0.2131577444570486
 40
0.2540982557940248
 40
0.2904039780498196
 40
0.3470548974443954
 40
0.42033018901625
 40
0.4918110634254585
 40
0.5390470563410709
 40
0.5796595923280445
 40
0.628652724943928
 40
0.6849482366241796
 40
0.7403434541740598
 40
0.773298429147253
 40
0.8007504359562478
 40
0.825343640020465
 40
0.8651301306838625
 40
0.9234341543185846
 40
0.9999999999999999
 40
0.9999999999999999
 40
0.9999999999999999
 40
0.9999999999999999
 10
-54.26380339261627
 20
-5.428890295376245
 30
0.0
 10
-53.96690743855982
 20
-5.404442751471318
 30
0.0
 10
-53.42179297988885
 20
-5.359555950289003
 30
0.0
 10
-52.63752093500585
 20
-5.310360076679164
 30
0.0
 10
-51.94281411993695
 20
-5.275899307717165
 30
0.0
 10
-51.32579035340633
 20
-5.252030219144945
 30
0.0
 10
-50.76606781331203
 20
-5.236592780553043
 30
0.0
 10
-50.1467887258916
 20
-5.225594483172049
 30
0.0
 10
-49.37762417778264
 20
-5.221098140719224
 30
0.0
 10
-48.44669027110506
 20
-5.231301951792769
 30
0.0
 10
-47.55874883926953
 20
-5.257451300343501
 30
0.0
 10
-46.82194190040634
 20
-5.290257866197816
 30
0.0
 10
-46.18920951220335
 20
-5.325613409508751
 30
0.0
 10
-45.51479781756331
 20
-5.370748295278258
 30
0.0
 10
-44.77191594626062
 20
-5.429976908964026
 30
0.0
 10
-44.10257174665541
 20
-5.492418099941052
 30
0.0
 10
-43.56774021063453
 20
-5.548160168076773
 30
0.0
 10
-43.17698303893155
 20
-5.591550257486144
 30
0.0
 10
-42.75882410167175
 20
-5.640271938153202
 30
0.0
 10
-42.19117131243054
 20
-5.710655120109838
 30
0.0
 10
-41.38157155324924
 20
-5.819225497916182
 30
0.0
 10
-40.75401042318217
 20
-5.915434018981106
 30
0.0
 10
-40.39774294191291
 20
-5.970051753946262
 30
0.0
1001
PE_URL
1000

  0
SPLINE
  5
269
330
1F
100
AcDbEntity
  8
0
  6
Continuous
 62
     1
370
    15
100
AcDbSpline
210
0.0
220
0.0
230
1.0
 70
     8
 71
     3
 72
    16
 73
    12
 74
     0
 42
0.000000001
 43
0.00000001
 40
0.0
 40
0.0
 40
0.0
 40
0.0
 40
0.1655276186156049
 40
0.2949540885516282
 40
0.3997205862153218
 40
0.5050674652688616
 40
0.6085969071331209
 40
0.6977676608249329
 40
0.8274617162106604
 40
0.9881886782301369
 40
1.0
 40
1.0
 40
1.0
 40
1.0
 10
-40.39774294191291
 20
5.970051753946244
 30
0.0
 10
-40.71812868794956
 20
5.920684304171321
 30
0.0
 10
-41.28902487130263
 20
5.832716318681864
 30
0.0
 10
-42.0788037795628
 20
5.724992278929765
 30
0.0
 10
-42.76195434577134
 20
5.639494796365497
 30
0.0
 10
-43.38593759869487
 20
5.567410388279853
 30
0.0
 10
-43.97373517182346
 20
5.505446023309332
 30
0.0
 10
-44.61049294635718
 20
5.444518834876408
 30
0.0
 10
-45.36086732274325
 20
5.382639734665897
 30
0.0
 10
-45.95809423362563
 20
5.337736348366523
 30
0.0
 10
-46.29885273958089
 20
5.320520752916579
 30
0.0
 10
-46.32217978486769
 20
5.319342238022067
 30
0.0
1001
PE_URL
1000

  0
SPLINE
  5
26A
330
1F
100
AcDbEntity
  8
0
  6
Continuous
 62
     1
370
    15
100
AcDbSpline
210
0.0
220
0.0
230
1.0
 70
     8
 71
     3
 72
     9
 73
     5
 74
     0
 42
0.000000001
 43
0.00000001
 40
0.0
 40
0.0
 40
0.0
 40
0.0
 40
0.458102001973432
 40
1.0
 40
1.0
 40
1.0
 40
1.0
 10
-28.63749999999999
 20
6.210869991695542
 30
0.0
 10
-29.45756172849313
 20
6.202844852850006
 30
0.0
 10
-31.24769083720787
 20
6.185326617149297
 30
0.0
 10
-33.04831940593363
 20
6.264528178263873
 30
0.0
 10
-34.02407642251553
 20
6.307447345672443
 30
0.0
1001
PE_URL
1000

  0
SPLINE
  5
26B
330
1F
100
AcDbEntity
  8
외형선
  6
Continuous
370
    15
100
AcDbSpline
210
0.0
220
0.0
230
1.0
 70
     8
 71
     3
 72
    10
 73
     6
 74
     0
 42
0.000000001
 43
0.00000001
 40
0.0
 40
0.0
 40
0.0
 40
0.0
 40
0.5
 40
0.5
 40
1.0
 40
1.0
 40
1.0
 40
1.0
 10
-28.63750000000003
 20
-5.849682859734127
 30
0.0
 10
-28.12811122227149
 20
-6.048179047512573
 30
0.0
 10
-27.62208718360987
 20
-6.23424084906485
 30
0.0
 10
-26.60669928134226
 20
-6.580520544021898
 30
0.0
 10
-26.09609574214415
 20
-6.740823276306184
 30
0.0
 10
-25.5872813758209
 20
-6.886783492784485
 30
0.0
  0
LINE
  5
26C
330
1F
100
AcDbEntity
  8
외형선
  6
Continuous
370
    15
100
AcDbLine
 10
-28.63749999999999
 20
-5.849682859734141
 30
0.0
 11
-28.63749999999999
 21
-4.140405031099544
 31
0.0
  0
SPLINE
  5
26D
330
1F
100
AcDbEntity
  8
외형선
  6
Continuous
370
    15
100
AcDbSpline
210
0.0
220
0.0
230
1.0
 70
     8
 71
     3
 72
    10
 73
     6
 74
     0
 42
0.000000001
 43
0.00000001
 40
0.0
 40
0.0
 40
0.0
 40
0.0
 40
0.5
 40
0.5
 40
1.0
 40
1.0
 40
1.0
 40
1.0
 10
-25.58739322376156
 20
-5.528889200475088
 30
0.0
 10
-26.09618921099755
 20
-5.318270017273857
 30
0.0
 10
-26.60677389521873
 20
-5.096028419686167
 30
0.0
 10
-27.62212417133141
 20
-4.632437997895817
 30
0.0
 10
-28.12812988463467
 20
-4.390943140940969
 30
0.0
 10
-28.63749999999999
 20
-4.140405031099544
 30
0.0
  0
SPLINE
  5
26E
330
1F
100
AcDbEntity
  8
외형선
  6
Continuous
370
    15
100
AcDbSpline
210
0.0
220
0.0
230
1.0
 70
     8
 71
     3
 72
     9
 73
     5
 74
     0
 42
0.000000001
 43
0.00000001
 40
0.0
 40
0.0
 40
0.0
 40
0.0
 40
0.3170389278716538
 40
1.0
 40
1.0
 40
1.0
 40
1.0
 10
-27.55525567960932
 20
6.242662241226292
 30
0.0
 10
-27.34735263956455
 20
6.319883799334342
 30
0.0
 10
-26.69158761587971
 20
6.563455018258313
 30
0.0
 10
-26.03541899834761
 20
6.75557382592465
 30
0.0
 10
-25.58728137582091
 20
6.886783492784467
 30
0.0
  0
LINE
  5
26F
330
1F
100
AcDbEntity
  8
외형선
  6
Continuous
370
    15
100
AcDbLine
 10
-25.58739322376157
 20
-6.88695262917344
 30
0.0
 11
-25.58739322376157
 21
-7.937500000000011
 31
0.0
  0
LINE
  5
270
330
1F
100
AcDbEntity
  8
외형선
  6
Continuous
370
    15
100
AcDbLine
 10
-25.58739322376157
 20
7.937499999999993
 30
0.0
 11
-25.58739322376156
 21
-5.528888544081862
 31
0.0
  0
SPLINE
  5
271
330
1F
100
AcDbEntity
  8
외형선
  6
Continuous
370
    15
100
AcDbSpline
210
0.0
220
0.0
230
1.0
 70
    24
 71
     3
 72
    10
 73
     6
 74
     0
 42
0.000000001
 43
0.00000001
 40
0.0
 40
0.0
 40
0.0
 40
0.0
 40
0.5
 40
0.5
 40
1.0
 40
1.0
 40
1.0
 40
1.0
 10
-28.63749999999999
 20
-4.140405031099544
 30
0.0
 10
-28.63749999999999
 20
-4.036052337645028
 30
0.0
 10
-28.63749999999999
 20
-3.849245170993374
 30
0.0
 10
-28.63749999999999
 20
-3.347623397584925
 30
0.0
 10
-28.63749999999999
 20
-3.034635477551795
 30
0.0
 10
-28.63749999999999
 20
-2.700975766503905
 30
0.0
  0
SPLINE
  5
272
330
1F
100
AcDbEntity
  8
외형선
  6
Continuous
370
    15
100
AcDbSpline
210
0.0
220
0.0
230
1.0
 70
     8
 71
     3
 72
    10
 73
     6
 74
     0
 42
0.000000001
 43
0.00000001
 40
0.0
 40
0.0
 40
0.0
 40
0.0
 40
0.5
 40
0.5
 40
1.0
 40
1.0
 40
1.0
 40
1.0
 10
-28.63749999999999
 20
-2.700975766503905
 30
0.0
 10
-28.12812538853868
 20
-2.880613301815416
 30
0.0
 10
-27.62211526033175
 20
-3.054315656353872
 30
0.0
 10
-26.60675591940816
 20
-3.38890195486081
 30
0.0
 10
-26.09616669268558
 20
-3.549893799478827
 30
0.0
 10
-25.58736627759346
 20
-3.703087037581735
 30
0.0
  0
SPLINE
  5
273
330
1F
100
AcDbEntity
  8
외형선
  6
Continuous
370
    15
100
AcDbSpline
210
0.0
220
0.0
230
1.0
 70
     8
 71
     3
 72
    10
 73
     6
 74
     0
 42
0.000000001
 43
0.00000001
 40
0.0
 40
0.0
 40
0.0
 40
0.0
 40
0.5
 40
0.5
 40
1.0
 40
1.0
 40
1.0
 40
1.0
 10
-28.6375
 20
5.549232736375384
 30
0.0
 10
-28.12812306992718
 20
5.435031526067348
 30
0.0
 10
-27.62211066497872
 20
5.309702686037692
 30
0.0
 10
-26.6067466493828
 20
5.037576191136512
 30
0.0
 10
-26.09615508011804
 20
4.890622859344436
 30
0.0
 10
-25.58735238160691
 20
4.734109587948179
 30
0.0
  0
SPLINE
  5
274
330
1F
100
AcDbEntity
  8
외형선
  6
Continuous
370
    15
100
AcDbSpline
210
0.0
220
0.0
230
1.0
 70
    24
 71
     3
 72
    14
 73
    10
 74
     0
 42
0.000000001
 43
0.00000001
 40
0.0
 40
0.0
 40
0.0
 40
0.0
 40
0.25
 40
0.25
 40
0.5
 40
0.5
 40
0.75
 40
0.75
 40
1.0
 40
1.0
 40
1.0
 40
1.0
 10
-28.63749999999999
 20
-2.700975766503905
 30
0.0
 10
-28.63749999999999
 20
-2.027823113991161
 30
0.0
 10
-28.63749999999999
 20
-1.308152575502053
 30
0.0
 10
-28.63749999999999
 20
0.1654936060152856
 30
0.0
 10
-28.63749999999999
 20
0.9188195607427083
 30
0.0
 10
-28.63749999999999
 20
2.385119474373933
 30
0.0
 10
-28.63749999999999
 20
3.097312127380366
 30
0.0
 10
-28.63749999999999
 20
4.414227138905137
 30
0.0
 10
-28.63749999999999
 20
5.018519946507759
 30
0.0
 10
-28.63749999999999
 20
5.54923273637538
 30
0.0
  0
SPLINE
  5
275
330
1F
100
AcDbEntity
  8
외형선
  6
Continuous
370
    15
100
AcDbSpline
210
0.0
220
0.0
230
1.0
 70
    24
 71
     3
 72
    10
 73
     6
 74
     0
 42
0.000000001
 43
0.00000001
 40
0.0
 40
0.0
 40
0.0
 40
0.0
 40
0.0046138295368973
 40
0.7084343324674492
 40
1.0
 40
1.0
 40
1.0
 40
1.0
 10
-28.63749999999999
 20
-6.210062000571259
 30
0.0
 10
-28.63749999999999
 20
-6.210328669012878
 30
0.0
 10
-28.63749999999999
 20
-6.251274498918473
 30
0.0
 10
-28.63749999999999
 20
-6.164343010125766
 30
0.0
 10
-28.63749999999999
 20
-5.982467857234933
 30
0.0
 10
-28.63749999999999
 20
-5.929193508109183
 30
0.0
  0
SPLINE
  5
276
330
1F
100
AcDbEntity
  8
외형선
  6
Continuous
370
    15
100
AcDbSpline
210
0.0
220
0.0
230
1.0
 70
    24
 71
     3
 72
    10
 73
     6
 74
     0
 42
0.000000001
 43
0.00000001
 40
0.0
 40
0.0
 40
0.0
 40
0.0
 40
0.2877495806942376
 40
0.5792458406320461
 40
1.0
 40
1.0
 40
1.0
 40
1.0
 10
-28.63749999999999
 20
5.54923273637538
 30
0.0
 10
-28.63749999999999
 20
5.664248967336885
 30
0.0
 10
-28.63749999999999
 20
5.895779012415971
 30
0.0
 10
-28.63749999999999
 20
6.149639569190107
 30
0.0
 10
-28.63749999999999
 20
6.187630148450271
 30
0.0
 10
-28.63749999999999
 20
6.210072668394435
 30
0.0
  0
SPLINE
  5
277
330
1F
100
AcDbEntity
  8
0
  6
Continuous
 62
     1
370
    15
100
AcDbSpline
210
0.0
220
0.0
230
1.0
 70
     8
 71
     3
 72
    38
 73
    34
 74
     0
 42
0.000000001
 43
0.00000001
 40
0.0
 40
0.0
 40
0.0
 40
0.0
 40
0.0625
 40
0.0625
 40
0.125
 40
0.125
 40
0.1875
 40
0.1875
 40
0.2500000000000001
 40
0.2500000000000001
 40
0.3125000000000001
 40
0.3125000000000001
 40
0.3750000000000001
 40
0.3750000000000001
 40
0.4375000000000001
 40
0.4375000000000001
 40
0.5000000000000001
 40
0.5000000000000001
 40
0.5625000000000001
 40
0.5625000000000001
 40
0.6250000000000001
 40
0.6250000000000001
 40
0.6875000000000001
 40
0.6875000000000001
 40
0.7500000000000001
 40
0.7500000000000001
 40
0.8125000000000001
 40
0.8125000000000001
 40
0.8750000000000001
 40
0.8750000000000001
 40
0.9375000000000001
 40
0.9375000000000001
 40
1.0
 40
1.0
 40
1.0
 40
1.0
 10
-57.21250000000001
 20
7.532218149528195
 30
0.0
 10
-56.62006528000254
 20
7.423971529010931
 30
0.0
 10
-56.02194065427565
 20
7.294174666506915
 30
0.0
 10
-54.82936674507656
 20
6.994484671472925
 30
0.0
 10
-54.23789794309926
 20
6.824971647680805
 30
0.0
 10
-53.04550229367464
 20
6.447663558186981
 30
0.0
 10
-52.44729165479923
 20
6.240039312852939
 30
0.0
 10
-51.26190705725323
 20
5.79229196325651
 30
0.0
 10
-50.66438146794961
 20
5.550879544340248
 30
0.0
 10
-49.47164534260567
 20
5.038452433445027
 30
0.0
 10
-48.88014817120425
 20
4.768059689726424
 30
0.0
 10
-47.6879468171841
 20
4.200622167297414
 30
0.0
 10
-47.08965827294919
 20
3.903885035623841
 30
0.0
 10
-45.90377424000945
 20
3.29197363047269
 30
0.0
 10
-45.30681958872525
 20
2.975206143300198
 30
0.0
 10
-44.11393729814714
 20
2.326870387100612
 30
0.0
 10
-43.52238338916914
 20
1.996138396162269
 30
0.0
 10
-42.3303923574657
 20
1.323681048341172
 30
0.0
 10
-41.73203401919709
 20
0.9823220366413956
 30
0.0
 10
-40.54566629527648
 20
0.2979787933103424
 30
0.0
 10
-39.94925445810092
 20
-0.0466129558853083
 30
0.0
 10
-38.75624205976079
 20
-0.7336398689854811
 30
0.0
 10
-38.16460304759693
 20
-1.075121980099027
 30
0.0
 10
-36.97283835568778
 20
-1.75175066397188
 30
0.0
 10
-36.37441833788013
 20
-2.08654531223744
 30
0.0
 10
-35.18758268895638
 20
-2.740699305516426
 30
0.0
 10
-34.59168551772046
 20
-3.061443303450137
 30
0.0
 10
-33.39855907493211
 20
-3.684134243749416
 30
0.0
 10
-32.80680659778757
 20
-3.985160927208149
 30
0.0
 10
-31.61528425299919
 20
-4.564499545909669
 30
0.0
 10
-31.01681067294809
 20
-4.842524535834013
 30
0.0
 10
-29.82952288587119
 20
-5.368369682006925
 30
0.0
 10
-29.23411220939846
 20
-5.617197861388231
 30
0.0
 10
-28.63749999999756
 20
-5.849682859735093
 30
0.0
1001
PE_URL
1000

  0
SPLINE
  5
278
330
1F
100
AcDbEntity
  8
0
  6
Continuous
 62
     1
370
    15
100
AcDbSpline
210
0.0
220
0.0
230
1.0
 70
     8
 71
     3
 72
    15
 73
    11
 74
     0
 42
0.000000001
 43
0.00000001
 40
0.0
 40
0.0
 40
0.0
 40
0.0
 40
0.1278228746901348
 40
0.2556439844997357
 40
0.3834634162785894
 40
0.5112812570521954
 40
0.6390975940127736
 40
0.7669125145102407
 40
0.8947261060431448
 40
1.0
 40
1.0
 40
1.0
 40
1.0
 10
-57.21250000000001
 20
6.262467348422703
 30
0.0
 10
-56.33395732427716
 20
6.079851190708847
 30
0.0
 10
-54.57688410307713
 20
5.714621396705439
 30
0.0
 10
-51.94129878511771
 20
4.89596388512031
 30
0.0
 10
-49.30575279052664
 20
3.914386450304942
 30
0.0
 10
-46.67024458435161
 20
2.785151408714434
 30
0.0
 10
-44.03477192948347
 20
1.554526514995761
 30
0.0
 10
-41.39933292648669
 20
0.2686953888191503
 30
0.0
 10
-38.91883292358975
 20
-0.9579409211178422
 30
0.0
 10
-37.31681406731101
 20
-1.713332517870253
 30
0.0
 10
-36.5932627241816
 20
-2.054504909366607
 30
0.0
1001
PE_URL
1000

  0
LINE
  5
279
330
1F
100
AcDbEntity
  8
0
  6
Continuous
 62
     1
370
    15
100
AcDbLine
 10
-57.21250000000001
 20
7.532218149528195
 30
0.0
 11
-57.21250000000001
 21
6.262467348422703
 31
0.0
1001
PE_URL
1000

  0
SPLINE
  5
27A
330
1F
100
AcDbEntity
  8
0
  6
Continuous
 62
     1
370
    15
100
AcDbSpline
210
0.0
220
0.0
230
1.0
 70
     8
 71
     3
 72
    38
 73
    34
 74
     0
 42
0.000000001
 43
0.00000001
 40
0.0
 40
0.0
 40
0.0
 40
0.0
 40
0.0624999999999999
 40
0.0624999999999999
 40
0.1249999999999997
 40
0.1249999999999997
 40
0.1874999999999996
 40
0.1874999999999996
 40
0.2499999999999994
 40
0.2499999999999994
 40
0.3124999999999993
 40
0.3124999999999993
 40
0.3749999999999993
 40
0.3749999999999993
 40
0.4374999999999992
 40
0.4374999999999992
 40
0.4999999999999992
 40
0.4999999999999992
 40
0.5624999999999993
 40
0.5624999999999993
 40
0.6249999999999994
 40
0.6249999999999994
 40
0.6874999999999996
 40
0.6874999999999996
 40
0.7499999999999998
 40
0.7499999999999998
 40
0.8124999999999998
 40
0.8124999999999998
 40
0.8749999999999999
 40
0.8749999999999999
 40
0.9374999999999999
 40
0.9374999999999999
 40
1.0
 40
1.0
 40
1.0
 40
1.0
 10
-28.63749999999999
 20
-4.140405031099544
 30
0.0
 10
-29.23411220940085
 20
-3.846956140513555
 30
0.0
 10
-29.82952288587351
 20
-3.542027729229407
 30
0.0
 10
-31.01681067295033
 20
-2.914638689527578
 30
0.0
 10
-31.61528425300138
 20
-2.590996322904388
 30
0.0
 10
-32.80680659778965
 20
-1.931921049767737
 30
0.0
 10
-33.39855907493416
 20
-1.596769973684975
 30
0.0
 10
-34.5916855177224
 20
-0.9175724919591914
 30
0.0
 10
-35.18758268895824
 20
-0.5745568267610537
 30
0.0
 10
-36.37441833788192
 20
0.1118212623021293
 30
0.0
 10
-36.97283835568952
 20
0.4566227326942816
 30
0.0
 10
-38.16460304759853
 20
1.140751295421808
 30
0.0
 10
-38.75624205976237
 20
1.479761432875947
 30
0.0
 10
-39.94925445810239
 20
2.149404062665763
 30
0.0
 10
-40.54566629527787
 20
2.479079465890415
 30
0.0
 10
-41.73203401919841
 20
3.121513013714544
 30
0.0
 10
-42.33039235746698
 20
3.435770075830703
 30
0.0
 10
-43.52238338917029
 20
4.042356336298983
 30
0.0
 10
-44.11393729814823
 20
4.334394695221036
 30
0.0
 10
-45.30681958872626
 20
4.894067216045183
 30
0.0
 10
-45.90377424001039
 20
5.160945707023131
 30
0.0
 10
-47.08965827295008
 20
5.663117446869013
 30
0.0
 10
-47.68794681718489
 20
5.899710426642962
 30
0.0
 10
-48.88014817120497
 20
6.337775613974944
 30
0.0
 10
-49.47164534260634
 20
6.539057668155586
 30
0.0
 10
-50.66438146795016
 20
6.904843469922373
 30
0.0
 10
-51.26190705725371
 20
7.068855574487912
 30
0.0
 10
-52.44729165479961
 20
7.355506683985745
 30
0.0
 10
-53.04550229367499
 20
7.478965689694224
 30
0.0
 10
-54.23789794309951
 20
7.68279481913795
 30
0.0
 10
-54.82936674507674
 20
7.763144169367443
 30
0.0
 10
-56.02194065427575
 20
7.880209108094494
 30
0.0
 10
-56.62006528000259
 20
7.916686207494056
 30
0.0
 10
-57.21250000000001
 20
7.937499999999982
 30
0.0
1001
PE_URL
1000

  0
SPLINE
  5
27B
330
1F
100
AcDbEntity
  8
0
  6
Continuous
 62
     1
370
    15
100
AcDbSpline
210
0.0
220
0.0
230
1.0
 70
     8
 71
     3
 72
    11
 73
     7
 74
     0
 42
0.000000001
 43
0.00000001
 40
0.0
 40
0.0
 40
0.0
 40
0.0
 40
0.1534978020792473
 40
0.4512855423657469
 40
0.725657805285354
 40
1.0
 40
1.0
 40
1.0
 40
1.0
 10
-37.4870127345314
 20
0.7503680198210603
 30
0.0
 10
-37.03420803337784
 20
0.569634716523435
 30
0.0
 10
-35.70295629962109
 20
0.038276444956054
 30
0.0
 10
-33.56229731946701
 20
-0.8314606742731776
 30
0.0
 10
-31.06531794425409
 20
-1.818805706128039
 30
0.0
 10
-29.44674308344198
 20
-2.40692982229778
 30
0.0
 10
-28.63749999999999
 20
-2.700975766503905
 30
0.0
1001
PE_URL
1000

  0
SPLINE
  5
27C
330
1F
100
AcDbEntity
  8
외형선
  6
Continuous
370
    15
100
AcDbSpline
210
0.0
220
0.0
230
1.0
 70
    24
 71
     3
 72
    10
 73
     6
 74
     0
 42
0.000000001
 43
0.00000001
 40
0.0
 40
0.0
 40
0.0
 40
0.0
 40
0.5
 40
0.5
 40
1.0
 40
1.0
 40
1.0
 40
1.0
 10
-28.6375
 20
-4.14040503109954
 30
0.0
 10
-28.6375
 20
-4.036052337645025
 30
0.0
 10
-28.6375
 20
-3.84924517099337
 30
0.0
 10
-28.6375
 20
-3.347623397584922
 30
0.0
 10
-28.6375
 20
-3.034635477551795
 30
0.0
 10
-28.6375
 20
-2.700975766503905
 30
0.0
  0
LINE
  5
27D
330
1F
100
AcDbEntity
  8
0
  6
Continuous
 62
     1
370
    15
100
AcDbLine
 10
-57.21250000000001
 20
7.937499999999986
 30
0.0
 11
-57.21250000000001
 21
7.532218149528191
 31
0.0
1001
PE_URL
1000

  0
SPLINE
  5
27E
330
1F
100
AcDbEntity
  8
0
  6
Continuous
 62
     1
370
    15
100
AcDbSpline
210
0.0
220
0.0
230
1.0
 70
     8
 71
     3
 72
     8
 73
     4
 74
     0
 42
0.000000001
 43
0.00000001
 40
0.0
 40
0.0
 40
0.0
 40
0.0
 40
1.0
 40
1.0
 40
1.0
 40
1.0
 10
-52.301330245815
 20
-2.22007967199615
 30
0.0
 10
-52.27140471791481
 20
-2.255523819275101
 30
0.0
 10
-52.24179209921012
 20
-2.290863161819924
 30
0.0
 10
-52.21250000000833
 20
-2.326095150660311
 30
0.0
1001
PE_URL
1000

  0
LINE
  5
27F
330
1F
100
AcDbEntity
  8
0
  6
Continuous
 62
     1
370
    15
100
AcDbLine
 10
-52.21250000000001
 20
-2.937719435296604
 30
0.0
 11
-57.21250000000001
 21
-0.0000000000000142
 31
0.0
1001
PE_URL
1000

  0
LINE
  5
280
330
1F
100
AcDbEntity
  8
0
  6
Continuous
 62
     1
370
    15
100
AcDbLine
 10
-57.21250000000001
 20
-0.0000000000000142
 30
0.0
 11
-57.21250000000001
 21
2.121240884110293
 31
0.0
1001
PE_URL
1000

  0
SPLINE
  5
281
330
1F
100
AcDbEntity
  8
0
  6
Continuous
 62
     1
370
    15
100
AcDbSpline
210
0.0
220
0.0
230
1.0
 70
     8
 71
     3
 72
    12
 73
     8
 74
     0
 42
0.000000001
 43
0.00000001
 40
0.0
 40
0.0
 40
0.0
 40
0.0
 40
0.5
 40
0.5
 40
0.75
 40
0.75
 40
1.0
 40
1.0
 40
1.0
 40
1.0
 10
-57.21250000000001
 20
2.121240884110293
 30
0.0
 10
-56.36235708373017
 20
1.452887382416904
 30
0.0
 10
-55.52641642663291
 20
0.7571355301524569
 30
0.0
 10
-54.29436851419034
 20
-0.3286694918016551
 30
0.0
 10
-53.88738238863036
 20
-0.6977356413040461
 30
0.0
 10
-53.08172911848983
 20
-1.451916538950705
 30
0.0
 10
-52.68524411284289
 20
-1.835090379294051
 30
0.0
 10
-52.301330245815
 20
-2.22007967199615
 30
0.0
1001
PE_URL
1000

  0
SPLINE
  5
282
330
1F
100
AcDbEntity
  8
0
  6
Continuous
 62
     1
370
    15
100
AcDbSpline
210
0.0
220
0.0
230
1.0
 70
     8
 71
     3
 72
    14
 73
    10
 74
     0
 42
0.000000001
 43
0.00000001
 40
0.0
 40
0.0
 40
0.0
 40
0.0
 40
0.1638641331716938
 40
0.3080392350834997
 40
0.4522126167462637
 40
0.5963843780899346
 40
0.7405546192150954
 40
0.8847234403825218
 40
1.0
 40
1.0
 40
1.0
 40
1.0
 10
-52.30133024580861
 20
-2.220079671998903
 30
0.0
 10
-51.302792366269
 20
-2.64213157417684
 30
0.0
 10
-49.42569553817304
 20
-3.435523896194052
 30
0.0
 10
-46.6702772600182
 20
-4.43178550266304
 30
0.0
 10
-44.03479927924307
 20
-5.228128386072132
 30
0.0
 10
-41.3993690961198
 20
-5.833125215027511
 30
0.0
 10
-38.76396665217656
 20
-6.217931490040396
 30
0.0
 10
-36.30463414212736
 20
-6.388605616859291
 30
0.0
 10
-34.72376979298159
 20
-6.31943790521623
 30
0.0
 10
-34.02136143697183
 20
-6.2887053640906
 30
0.0
1001
PE_URL
1000

  0
SPLINE
  5
283
330
1F
100
AcDbEntity
  8
0
  6
Continuous
 62
     1
370
    15
100
AcDbSpline
210
0.0
220
0.0
230
1.0
 70
    24
 71
     3
 72
    10
 73
     6
 74
     0
 42
0.000000001
 43
0.00000001
 40
0.0
 40
0.0
 40
0.0
 40
0.0
 40
0.5
 40
0.5
 40
1.0
 40
1.0
 40
1.0
 40
1.0
 10
-57.21250000000001
 20
6.2624673484227
 30
0.0
 10
-57.21250000000001
 20
5.782400400217689
 30
0.0
 10
-57.21250000000001
 20
5.17581740350758
 30
0.0
 10
-57.21250000000001
 20
3.765570313258507
 30
0.0
 10
-57.21250000000001
 20
2.963127829219758
 30
0.0
 10
-57.21250000000001
 20
2.121240884110545
 30
0.0
1001
PE_URL
1000

  0
SPLINE
  5
284
330
1F
100
AcDbEntity
  8
외형선
  6
Continuous
370
    15
100
AcDbSpline
210
0.0
220
0.0
230
1.0
 70
    24
 71
     3
 72
    10
 73
     6
 74
     0
 42
0.000000001
 43
0.00000001
 40
0.0
 40
0.0
 40
0.0
 40
0.0
 40
0.0069401694357524
 40
0.709129320990962
 40
1.0
 40
1.0
 40
1.0
 40
1.0
 10
-28.6375
 20
-6.209658041959248
 30
0.0
 10
-28.6375
 20
-6.210061195724482
 30
0.0
 10
-28.6375
 20
-6.251254448776958
 30
0.0
 10
-28.6375
 20
-6.164381558828577
 30
0.0
 10
-28.6375
 20
-5.982482403493872
 30
0.0
 10
-28.6375
 20
-5.929203508109179
 30
0.0
  0
SPLINE
  5
285
330
1F
100
AcDbEntity
  8
0
  6
Continuous
 62
     1
370
    15
100
AcDbSpline
210
0.0
220
0.0
230
1.0
 70
     8
 71
     3
 72
     9
 73
     5
 74
     0
 42
0.000000001
 43
0.00000001
 40
0.0
 40
0.0
 40
0.0
 40
0.0
 40
0.8928930867714835
 40
1.0
 40
1.0
 40
1.0
 40
1.0
 10
-57.21250000000001
 20
-5.556250000000009
 30
0.0
 10
-56.33395947345808
 20
-5.55206193996192
 30
0.0
 10
-55.35003369381235
 20
-5.547371501543108
 30
0.0
 10
-54.36611010079343
 20
-5.430785755581621
 30
0.0
 10
-54.26072508189246
 20
-5.418298616205238
 30
0.0
1001
PE_URL
1000

  0
SPLINE
  5
286
330
1F
100
AcDbEntity
  8
0
  6
Continuous
 62
     1
370
    15
100
AcDbSpline
210
0.0
220
0.0
230
1.0
 70
     8
 71
     3
 72
    10
 73
     6
 74
     0
 42
0.000000001
 43
0.00000001
 40
0.0
 40
0.0
 40
0.0
 40
0.0
 40
0.5
 40
0.5
 40
1.0
 40
1.0
 40
1.0
 40
1.0
 10
-57.21250000000001
 20
-5.556250000000009
 30
0.0
 10
-56.39590404815335
 20
-5.334809564106333
 30
0.0
 10
-55.5842469273326
 20
-5.086103314051069
 30
0.0
 10
-53.97163907929081
 20
-4.529584005730257
 30
0.0
 10
-53.17175656940429
 20
-4.222666859573511
 30
0.0
 10
-52.38099131611419
 20
-3.876674191206895
 30
0.0
1001
PE_URL
1000

  0
SPLINE
  5
287
330
1F
100
AcDbEntity
  8
0
  6
Continuous
 62
     1
370
    15
100
AcDbSpline
210
0.0
220
0.0
230
1.0
 70
    24
 71
     3
 72
     8
 73
     4
 74
     0
 42
0.000000001
 43
0.00000001
 40
0.0
 40
0.0
 40
0.0
 40
0.0
 40
1.0
 40
1.0
 40
1.0
 40
1.0
 10
-52.3809913161142
 20
-3.876674191206902
 30
0.0
 10
-52.32558168337118
 20
-3.830179988808574
 30
0.0
 10
-52.26940809952006
 20
-3.783044755317192
 30
0.0
 10
-52.21249999999999
 20
-3.735293189998899
 30
0.0
1001
PE_URL
1000

  0
SPLINE
  5
288
330
1F
100
AcDbEntity
  8
0
  6
Continuous
 62
     1
370
    15
100
AcDbSpline
210
0.0
220
0.0
230
1.0
 70
    24
 71
     3
 72
     8
 73
     4
 74
     0
 42
0.000000001
 43
0.00000001
 40
0.0
 40
0.0
 40
0.0
 40
0.0
 40
1.0
 40
1.0
 40
1.0
 40
1.0
 10
-52.21250000000001
 20
-2.326095150670341
 30
0.0
 10
-52.21250000000001
 20
-2.844328698008614
 30
0.0
 10
-52.21250000000002
 20
-3.323694336875011
 30
0.0
 10
-52.21250000000002
 20
-3.735293189998746
 30
0.0
1001
PE_URL
1000

  0
SPLINE
  5
289
330
1F
100
AcDbEntity
  8
0
  6
Continuous
 62
     1
370
    15
100
AcDbSpline
210
0.0
220
0.0
230
1.0
 70
     8
 71
     3
 72
    12
 73
     8
 74
     0
 42
0.000000001
 43
0.00000001
 40
0.0
 40
0.0
 40
0.0
 40
0.0
 40
0.1396674562087221
 40
0.3635592212376337
 40
0.5874489370317701
 40
0.7937354779014116
 40
1.0
 40
1.0
 40
1.0
 40
1.0
 10
-40.40795013882236
 20
5.942334780796699
 30
0.0
 10
-39.85995246990417
 20
6.030680327029337
 30
0.0
 10
-38.43349557607921
 20
6.260646840775753
 30
0.0
 10
-36.12860453627347
 20
6.379420392861618
 30
0.0
 10
-33.56227376577964
 20
6.313994953047054
 30
0.0
 10
-31.06531019984473
 20
6.043957777788318
 30
0.0
 10
-29.44674127106944
 20
5.714135215724259
 30
0.0
 10
-28.6375
 20
5.549232736375384
 30
0.0
1001
PE_URL
1000

  0
SPLINE
  5
28A
330
1F
100
AcDbEntity
  8
외형선
  6
Continuous
370
    15
100
AcDbSpline
210
0.0
220
0.0
230
1.0
 70
    24
 71
     3
 72
    14
 73
    10
 74
     0
 42
0.000000001
 43
0.00000001
 40
0.0
 40
0.0
 40
0.0
 40
0.0
 40
0.25
 40
0.25
 40
0.5
 40
0.5
 40
0.75
 40
0.75
 40
1.0
 40
1.0
 40
1.0
 40
1.0
 10
-28.6375
 20
-2.700975766503905
 30
0.0
 10
-28.6375
 20
-2.027823113991161
 30
0.0
 10
-28.6375
 20
-1.308152575502049
 30
0.0
 10
-28.6375
 20
0.1654936060152856
 30
0.0
 10
-28.6375
 20
0.9188195607427083
 30
0.0
 10
-28.6375
 20
2.385119474373933
 30
0.0
 10
-28.6375
 20
3.097312127380366
 30
0.0
 10
-28.6375
 20
4.41422713890514
 30
0.0
 10
-28.6375
 20
5.018519946507755
 30
0.0
 10
-28.6375
 20
5.54923273637538
 30
0.0
  0
LINE
  5
28B
330
1F
100
AcDbEntity
  8
0
  6
Continuous
 62
     1
370
    15
100
AcDbLine
 10
-57.21250000000001
 20
-0.0000000000000142
 30
0.0
 11
-57.21250000000001
 21
-5.556250000000009
 31
0.0
1001
PE_URL
1000

  0
SPLINE
  5
28C
330
1F
100
AcDbEntity
  8
외형선
  6
Continuous
370
    15
100
AcDbSpline
210
0.0
220
0.0
230
1.0
 70
    24
 71
     3
 72
    10
 73
     6
 74
     0
 42
0.000000001
 43
0.00000001
 40
0.0
 40
0.0
 40
0.0
 40
0.0
 40
0.2883046163954404
 40
0.5803631389459067
 40
1.0
 40
1.0
 40
1.0
 40
1.0
 10
-28.6375
 20
5.549232736375384
 30
0.0
 10
-28.6375
 20
5.664243379928905
 30
0.0
 10
-28.6375
 20
5.895762177440485
 30
0.0
 10
-28.6375
 20
6.149231667366607
 30
0.0
 10
-28.6375
 20
6.187168104564247
 30
0.0
 10
-28.6375
 20
6.209536561339341
 30
0.0
  0
SPLINE
  5
28D
330
1F
100
AcDbEntity
  8
0
  6
Continuous
 62
     1
370
    15
100
AcDbSpline
210
0.0
220
0.0
230
1.0
 70
    24
 71
     3
 72
    10
 73
     6
 74
     0
 42
0.000000001
 43
0.00000001
 40
0.0
 40
0.0
 40
0.0
 40
0.0
 40
0.5
 40
0.5
 40
1.0
 40
1.0
 40
1.0
 40
1.0
 10
-57.21250000000001
 20
-5.556250000000009
 30
0.0
 10
-57.21250000000001
 20
-5.893056038408059
 30
0.0
 10
-57.21250000000001
 20
-6.284455846632749
 30
0.0
 10
-57.21250000000001
 20
-7.105611590126795
 30
0.0
 10
-57.21250000000001
 20
-7.533270396674194
 30
0.0
 10
-57.21250000000001
 20
-7.937500000000011
 30
0.0
1001
PE_URL
1000

  0
SPLINE
  5
28E
330
1F
100
AcDbEntity
  8
0
  6
Continuous
 62
     1
370
    15
100
AcDbSpline
210
0.0
220
0.0
230
1.0
 70
     8
 71
     3
 72
    16
 73
    12
 74
     0
 42
0.000000001
 43
0.00000001
 40
0.0
 40
0.0
 40
0.0
 40
0.0
 40
0.1018260729358829
 40
0.2118192091993963
 40
0.3222328404642511
 40
0.4328586426625468
 40
0.5439098351847347
 40
0.6573525123001145
 40
0.7710255275584615
 40
0.8853946955638524
 40
1.0
 40
1.0
 40
1.0
 40
1.0
 10
-46.30398892928065
 20
-5.320145933703447
 30
0.0
 10
-46.67414620473404
 20
-5.479434693259105
 30
0.0
 10
-47.44414959488066
 20
-5.810788128686976
 30
0.0
 10
-48.6166889599516
 20
-6.245462766689297
 30
0.0
 10
-49.81926733091873
 20
-6.653873223968564
 30
0.0
 10
-51.0279282720761
 20
-7.008255282661164
 30
0.0
 10
-52.24538767172152
 20
-7.313574755392434
 30
0.0
 10
-53.47594995052567
 20
-7.562219120256369
 30
0.0
 10
-54.71692848057148
 20
-7.751565713757817
 30
0.0
 10
-55.96332350150746
 20
-7.882164593159271
 30
0.0
 10
-56.79582165471042
 20
-7.914571288201589
 30
0.0
 10
-57.21250000000001
 20
-7.937500000000011
 30
0.0
1001
PE_URL
1000

  0
ENDSEC
  0
SECTION
  2
OBJECTS
  0
DICTIONARY
  5
C
330
0
100
AcDbDictionary
281
     1
  3
ACAD_GROUP
350
D
  3
ACAD_IMAGE_VARS
350
2B2
  3
ACAD_LAYOUT
350
1A
  3
ACAD_MLINESTYLE
350
17
  3
ACAD_PLOTSETTINGS
350
19
  3
ACAD_PLOTSTYLENAME
350
E
  3
ACAD_SCALELIST
350
47
  3
APPDATA
350
153
  3
DWGPROPS
350
2B3
  0
DICTIONARY
  5
18D
330
2
100
AcDbDictionary
280
     1
281
     1
  3
ACAD_LAYERSTATES
360
18E
  0
DICTIONARY
  5
D
102
{ACAD_REACTORS
330
C
102
}
330
C
100
AcDbDictionary
281
     1
  0
RASTERVARIABLES
  5
2B2
102
{ACAD_REACTORS
330
C
102
}
330
C
100
AcDbRasterVariables
 90
        0
 70
     1
 71
     1
 72
     1
  0
DICTIONARY
  5
1A
102
{ACAD_REACTORS
330
C
102
}
330
C
100
AcDbDictionary
281
     1
  3
Layout1
350
1E
  3
Layout2
350
26
  3
Model
350
22
  0
DICTIONARY
  5
17
102
{ACAD_REACTORS
330
C
102
}
330
C
100
AcDbDictionary
281
     1
  3
Standard
350
18
  0
DICTIONARY
  5
19
102
{ACAD_REACTORS
330
C
102
}
330
C
100
AcDbDictionary
281
     1
  0
ACDBDICTIONARYWDFLT
  5
E
102
{ACAD_REACTORS
330
C
102
}
330
C
100
AcDbDictionary
281
     1
  3
Normal
350
F
100
AcDbDictionaryWithDefault
340
F
  0
DICTIONARY
  5
47
102
{ACAD_REACTORS
330
C
102
}
330
C
100
AcDbDictionary
281
     1
  3
A0
350
48
  3
A1
350
49
  3
A2
350
4A
  3
A3
350
4B
  3
A4
350
4C
  3
A5
350
4D
  3
A6
350
4E
  3
A7
350
4F
  3
A8
350
50
  3
A9
350
51
  3
B0
350
52
  3
B1
350
53
  3
B2
350
54
  3
B3
350
55
  3
B4
350
56
  3
B5
350
57
  3
B6
350
58
  3
B7
350
59
  3
B8
350
5A
  3
B9
350
5B
  3
C0
350
5C
  3
C1
350
5D
  3
C2
350
5E
  3
C3
350
5F
  3
C4
350
60
  3
C5
350
61
  3
C6
350
62
  3
C7
350
63
  3
C8
350
64
  3
C9
350
65
  3
D0
350
66
  3
D1
350
67
  3
D2
350
68
  0
DICTIONARY
  5
153
102
{ACAD_REACTORS
330
C
102
}
330
C
100
AcDbDictionary
281
     1
  0
XRECORD
  5
2B3
102
{ACAD_REACTORS
330
C
102
}
330
C
100
AcDbXrecord
280
     1
  1
DWGPROPS COOKIE
  2

  3

  4

  6

  7

  8
12016016
  9

300
=
301
=
302
=
303
=
304
=
305
=
306
=
307
=
308
=
309
=
 40
0.0
 41
2458313.024700116
 42
2458330.400768113
  1

 90
        0
  0
DICTIONARY
  5
18E
102
{ACAD_REACTORS
330
18D
102
}
330
18D
100
AcDbDictionary
281
     1
  0
LAYOUT
  5
1E
102
{ACAD_REACTORS
330
1A
102
}
330
1A
100
AcDbPlotSettings
  1

  2
none_device
  4

  6

 40
0.0
 41
0.0
 42
0.0
 43
0.0
 44
0.0
 45
0.0
 46
0.0
 47
0.0
 48
0.0
 49
0.0
140
0.0
141
0.0
142
1.0
143
1.0
 70
   688
 72
     1
 73
     0
 74
     5
  7

 75
    16
147
1.0
148
0.0
149
0.0
100
AcDbLayout
  1
Layout1
 70
     1
 71
     1
 10
0.0
 20
0.0
 11
420.0
 21
297.0
 12
0.0
 22
0.0
 32
0.0
 14
1.000000000000000E+20
 24
1.000000000000000E+20
 34
1.000000000000000E+20
 15
-1.000000000000000E+20
 25
-1.000000000000000E+20
 35
-1.000000000000000E+20
146
0.0
 13
0.0
 23
0.0
 33
0.0
 16
1.0
 26
0.0
 36
0.0
 17
0.0
 27
1.0
 37
0.0
 76
     0
330
1B
  0
LAYOUT
  5
26
102
{ACAD_REACTORS
330
1A
102
}
330
1A
100
AcDbPlotSettings
  1

  2
none_device
  4

  6

 40
0.0
 41
0.0
 42
0.0
 43
0.0
 44
0.0
 45
0.0
 46
0.0
 47
0.0
 48
0.0
 49
0.0
140
0.0
141
0.0
142
1.0
143
1.0
 70
   688
 72
     1
 73
     0
 74
     5
  7

 75
    16
147
1.0
148
0.0
149
0.0
100
AcDbLayout
  1
Layout2
 70
     1
 71
     2
 10
0.0
 20
0.0
 11
0.0
 21
0.0
 12
0.0
 22
0.0
 32
0.0
 14
0.0
 24
0.0
 34
0.0
 15
0.0
 25
0.0
 35
0.0
146
0.0
 13
0.0
 23
0.0
 33
0.0
 16
1.0
 26
0.0
 36
0.0
 17
0.0
 27
1.0
 37
0.0
 76
     0
330
23
  0
LAYOUT
  5
22
102
{ACAD_REACTORS
330
1A
102
}
330
1A
100
AcDbPlotSettings
  1

  2
none_device
  4
ANSI_A_(11.00_x_8.50_Inches)
  6

 40
6.35
 41
19.05
 42
6.35000508
 43
19.05000254
 44
279.4
 45
215.9
 46
60.05458028439221
 47
36.24862173935619
 48
0.0
 49
0.0
140
0.0
141
0.0
142
0.0259721867714998
143
1.0
 70
  1696
 72
     0
 73
     0
 74
     0
  7

 75
     0
147
0.0235690232323232
148
0.0
149
0.0
100
AcDbLayout
  1
Model
 70
     1
 71
     0
 10
0.0
 20
0.0
 11
420.0
 21
297.0
 12
0.0
 22
0.0
 32
0.0
 14
-76.52500000000009
 24
-49.97180738881175
 34
0.0
 15
99.38162503295504
 25
42.54149999999992
 35
0.0
146
0.0
 13
0.0
 23
0.0
 33
0.0
 16
1.0
 26
0.0
 36
0.0
 17
0.0
 27
1.0
 37
0.0
 76
     0
330
1F
331
29
  0
MLINESTYLE
  5
18
102
{ACAD_REACTORS
330
17
102
}
330
17
100
AcDbMlineStyle
  2
Standard
 70
     0
  3

 62
   256
 51
90.0
 52
90.0
 71
     2
 49
0.5
 62
   256
  6
BYLAYER
 49
-0.5
 62
   256
  6
BYLAYER
  0
ACDBPLACEHOLDER
  5
F
102
{ACAD_REACTORS
330
E
102
}
330
E
  0
SCALE
  5
48
102
{ACAD_REACTORS
330
47
102
}
330
47
100
AcDbScale
 70
     0
300
1:1
140
1.0
141
1.0
290
     1
  0
SCALE
  5
49
102
{ACAD_REACTORS
330
47
102
}
330
47
100
AcDbScale
 70
     0
300
1:2
140
1.0
141
2.0
290
     0
  0
SCALE
  5
4A
102
{ACAD_REACTORS
330
47
102
}
330
47
100
AcDbScale
 70
     0
300
1:4
140
1.0
141
4.0
290
     0
  0
SCALE
  5
4B
102
{ACAD_REACTORS
330
47
102
}
330
47
100
AcDbScale
 70
     0
300
1:5
140
1.0
141
5.0
290
     0
  0
SCALE
  5
4C
102
{ACAD_REACTORS
330
47
102
}
330
47
100
AcDbScale
 70
     0
300
1:8
140
1.0
141
8.0
290
     0
  0
SCALE
  5
4D
102
{ACAD_REACTORS
330
47
102
}
330
47
100
AcDbScale
 70
     0
300
1:10
140
1.0
141
10.0
290
     0
  0
SCALE
  5
4E
102
{ACAD_REACTORS
330
47
102
}
330
47
100
AcDbScale
 70
     0
300
1:16
140
1.0
141
16.0
290
     0
  0
SCALE
  5
4F
102
{ACAD_REACTORS
330
47
102
}
330
47
100
AcDbScale
 70
     0
300
1:20
140
1.0
141
20.0
290
     0
  0
SCALE
  5
50
102
{ACAD_REACTORS
330
47
102
}
330
47
100
AcDbScale
 70
     0
300
1:30
140
1.0
141
30.0
290
     0
  0
SCALE
  5
51
102
{ACAD_REACTORS
330
47
102
}
330
47
100
AcDbScale
 70
     0
300
1:40
140
1.0
141
40.0
290
     0
  0
SCALE
  5
52
102
{ACAD_REACTORS
330
47
102
}
330
47
100
AcDbScale
 70
     0
300
1:50
140
1.0
141
50.0
290
     0
  0
SCALE
  5
53
102
{ACAD_REACTORS
330
47
102
}
330
47
100
AcDbScale
 70
     0
300
1:100
140
1.0
141
100.0
290
     0
  0
SCALE
  5
54
102
{ACAD_REACTORS
330
47
102
}
330
47
100
AcDbScale
 70
     0
300
2:1
140
2.0
141
1.0
290
     0
  0
SCALE
  5
55
102
{ACAD_REACTORS
330
47
102
}
330
47
100
AcDbScale
 70
     0
300
4:1
140
4.0
141
1.0
290
     0
  0
SCALE
  5
56
102
{ACAD_REACTORS
330
47
102
}
330
47
100
AcDbScale
 70
     0
300
8:1
140
8.0
141
1.0
290
     0
  0
SCALE
  5
57
102
{ACAD_REACTORS
330
47
102
}
330
47
100
AcDbScale
 70
     0
300
10:1
140
10.0
141
1.0
290
     0
  0
SCALE
  5
58
102
{ACAD_REACTORS
330
47
102
}
330
47
100
AcDbScale
 70
     0
300
100:1
140
100.0
141
1.0
290
     0
  0
SCALE
  5
59
102
{ACAD_REACTORS
330
47
102
}
330
47
100
AcDbScale
 70
     0
300
1/128" = 1'-0"
140
0.0078125
141
12.0
290
     0
  0
SCALE
  5
5A
102
{ACAD_REACTORS
330
47
102
}
330
47
100
AcDbScale
 70
     0
300
1/64" = 1'-0"
140
0.015625
141
12.0
290
     0
  0
SCALE
  5
5B
102
{ACAD_REACTORS
330
47
102
}
330
47
100
AcDbScale
 70
     0
300
1/32" = 1'-0"
140
0.03125
141
12.0
290
     0
  0
SCALE
  5
5C
102
{ACAD_REACTORS
330
47
102
}
330
47
100
AcDbScale
 70
     0
300
1/16" = 1'-0"
140
0.0625
141
12.0
290
     0
  0
SCALE
  5
5D
102
{ACAD_REACTORS
330
47
102
}
330
47
100
AcDbScale
 70
     0
300
3/32" = 1'-0"
140
0.09375
141
12.0
290
     0
  0
SCALE
  5
5E
102
{ACAD_REACTORS
330
47
102
}
330
47
100
AcDbScale
 70
     0
300
1/8" = 1'-0"
140
0.125
141
12.0
290
     0
  0
SCALE
  5
5F
102
{ACAD_REACTORS
330
47
102
}
330
47
100
AcDbScale
 70
     0
300
3/16" = 1'-0"
140
0.1875
141
12.0
290
     0
  0
SCALE
  5
60
102
{ACAD_REACTORS
330
47
102
}
330
47
100
AcDbScale
 70
     0
300
1/4" = 1'-0"
140
0.25
141
12.0
290
     0
  0
SCALE
  5
61
102
{ACAD_REACTORS
330
47
102
}
330
47
100
AcDbScale
 70
     0
300
3/8" = 1'-0"
140
0.375
141
12.0
290
     0
  0
SCALE
  5
62
102
{ACAD_REACTORS
330
47
102
}
330
47
100
AcDbScale
 70
     0
300
1/2" = 1'-0"
140
0.5
141
12.0
290
     0
  0
SCALE
  5
63
102
{ACAD_REACTORS
330
47
102
}
330
47
100
AcDbScale
 70
     0
300
3/4" = 1'-0"
140
0.75
141
12.0
290
     0
  0
SCALE
  5
64
102
{ACAD_REACTORS
330
47
102
}
330
47
100
AcDbScale
 70
     0
300
1" = 1'-0"
140
1.0
141
12.0
290
     0
  0
SCALE
  5
65
102
{ACAD_REACTORS
330
47
102
}
330
47
100
AcDbScale
 70
     0
300
1-1/2" = 1'-0"
140
1.5
141
12.0
290
     0
  0
SCALE
  5
66
102
{ACAD_REACTORS
330
47
102
}
330
47
100
AcDbScale
 70
     0
300
3" = 1'-0"
140
3.0
141
12.0
290
     0
  0
SCALE
  5
67
102
{ACAD_REACTORS
330
47
102
}
330
47
100
AcDbScale
 70
     0
300
6" = 1'-0"
140
6.0
141
12.0
290
     0
  0
SCALE
  5
68
102
{ACAD_REACTORS
330
47
102
}
330
47
100
AcDbScale
 70
     0
300
1'-0" = 1'-0"
140
12.0
141
12.0
290
     0
  0
ENDSEC
  0
EOF
