  0
SECTION
  2
HEADER
  9
$ACADVER
  1
AC1015
  9
$ACADMAINTVER
 70
     6
  9
$DWGCODEPAGE
  3
ANSI_949
  9
$INSBASE
 10
0.0
 20
0.0
 30
0.0
  9
$EXTMIN
 10
-83.37500000000011
 20
-49.97180738881175
 30
0.0
  9
$EXTMAX
 10
114.7292027177502
 20
50.07787048047399
 30
0.0
  9
$LIMMIN
 10
0.0
 20
0.0
  9
$LIMMAX
 10
420.0
 20
297.0
  9
$ORTHOMODE
 70
     1
  9
$REGENMODE
 70
     1
  9
$FILLMODE
 70
     1
  9
$QTEXTMODE
 70
     0
  9
$MIRRTEXT
 70
     1
  9
$LTSCALE
 40
1.0
  9
$ATTMODE
 70
     1
  9
$TEXTSIZE
 40
3.5
  9
$TRACEWID
 40
1.0
  9
$TEXTSTYLE
  7
Standard
  9
$CLAYER
  8
0
  9
$CELTYPE
  6
ByLayer
  9
$CECOLOR
 62
   256
  9
$CELTSCALE
 40
1.0
  9
$DISPSILH
 70
     0
  9
$DIMSCALE
 40
1.0
  9
$DIMASZ
 40
3.302
  9
$DIMEXO
 40
1.0
  9
$DIMDLI
 40
3.75
  9
$DIMRND
 40
0.0
  9
$DIMDLE
 40
0.0
  9
$DIMEXE
 40
1.0
  9
$DIMTP
 40
0.0
  9
$DIMTM
 40
0.0
  9
$DIMTXT
 40
3.5
  9
$DIMCEN
 40
2.5
  9
$DIMTSZ
 40
0.0
  9
$DIMTOL
 70
     0
  9
$DIMLIM
 70
     0
  9
$DIMTIH
 70
     1
  9
$DIMTOH
 70
     1
  9
$DIMSE1
 70
     0
  9
$DIMSE2
 70
     0
  9
$DIMTAD
 70
     1
  9
$DIMZIN
 70
     0
  9
$DIMBLK
  1

  9
$DIMASO
 70
     1
  9
$DIMSHO
 70
     1
  9
$DIMPOST
  1

  9
$DIMAPOST
  1

  9
$DIMALT
 70
     0
  9
$DIMALTD
 70
     3
  9
$DIMALTF
 40
0.0393700787401575
  9
$DIMLFAC
 40
1.0
  9
$DIMTOFL
 70
     1
  9
$DIMTVP
 40
0.0
  9
$DIMTIX
 70
     0
  9
$DIMSOXD
 70
     0
  9
$DIMSAH
 70
     0
  9
$DIMBLK1
  1

  9
$DIMBLK2
  1

  9
$DIMSTYLE
  2
ISO-25
  9
$DIMCLRD
 70
     0
  9
$DIMCLRE
 70
     0
  9
$DIMCLRT
 70
     0
  9
$DIMTFAC
 40
1.0
  9
$DIMGAP
 40
1.524
  9
$DIMJUST
 70
     0
  9
$DIMSD1
 70
     0
  9
$DIMSD2
 70
     0
  9
$DIMTOLJ
 70
     0
  9
$DIMTZIN
 70
     0
  9
$DIMALTZ
 70
     0
  9
$DIMALTTZ
 70
     0
  9
$DIMUPT
 70
     0
  9
$DIMDEC
 70
     2
  9
$DIMTDEC
 70
     2
  9
$DIMALTU
 70
     2
  9
$DIMALTTD
 70
     3
  9
$DIMTXSTY
  7
Standard
  9
$DIMAUNIT
 70
     0
  9
$DIMADEC
 70
     2
  9
$DIMALTRND
 40
0.0
  9
$DIMAZIN
 70
     0
  9
$DIMDSEP
 70
    44
  9
$DIMATFIT
 70
     3
  9
$DIMFRAC
 70
     0
  9
$DIMLDRBLK
  1

  9
$DIMLUNIT
 70
     2
  9
$DIMLWD
 70
    -2
  9
$DIMLWE
 70
    -2
  9
$DIMTMOVE
 70
     0
  9
$LUNITS
 70
     2
  9
$LUPREC
 70
     2
  9
$SKETCHINC
 40
1.0
  9
$FILLETRAD
 40
10.0
  9
$AUNITS
 70
     0
  9
$AUPREC
 70
     2
  9
$MENU
  1
.
  9
$ELEVATION
 40
0.0
  9
$PELEVATION
 40
0.0
  9
$THICKNESS
 40
0.0
  9
$LIMCHECK
 70
     0
  9
$CHAMFERA
 40
0.0
  9
$CHAMFERB
 40
0.0
  9
$CHAMFERC
 40
0.0
  9
$CHAMFERD
 40
0.0
  9
$SKPOLY
 70
     0
  9
$TDCREATE
 40
2458313.400124051
  9
$TDUCREATE
 40
2458313.025124051
  9
$TDUPDATE
 40
2458330.777666447
  9
$TDUUPDATE
 40
2458330.402666447
  9
$TDINDWG
 40
0.0018017824
  9
$TDUSRTIMER
 40
2458330.40262
  9
$USRTIMER
 70
     1
  9
$ANGBASE
 50
0.0
  9
$ANGDIR
 70
     0
  9
$PDMODE
 70
     0
  9
$PDSIZE
 40
-1.0
  9
$PLINEWID
 40
0.0
  9
$SPLFRAME
 70
     0
  9
$SPLINETYPE
 70
     6
  9
$SPLINESEGS
 70
     8
  9
$HANDSEED
  5
24E
  9
$SURFTAB1
 70
     6
  9
$SURFTAB2
 70
     6
  9
$SURFTYPE
 70
     6
  9
$SURFU
 70
     6
  9
$SURFV
 70
     6
  9
$UCSBASE
  2

  9
$UCSNAME
  2

  9
$UCSORG
 10
0.0
 20
0.0
 30
0.0
  9
$UCSXDIR
 10
1.0
 20
0.0
 30
0.0
  9
$UCSYDIR
 10
0.0
 20
1.0
 30
0.0
  9
$UCSORTHOREF
  2

  9
$UCSORTHOVIEW
 70
     0
  9
$UCSORGTOP
 10
0.0
 20
0.0
 30
0.0
  9
$UCSORGBOTTOM
 10
0.0
 20
0.0
 30
0.0
  9
$UCSORGLEFT
 10
0.0
 20
0.0
 30
0.0
  9
$UCSORGRIGHT
 10
0.0
 20
0.0
 30
0.0
  9
$UCSORGFRONT
 10
0.0
 20
0.0
 30
0.0
  9
$UCSORGBACK
 10
0.0
 20
0.0
 30
0.0
  9
$PUCSBASE
  2

  9
$PUCSNAME
  2

  9
$PUCSORG
 10
0.0
 20
0.0
 30
0.0
  9
$PUCSXDIR
 10
1.0
 20
0.0
 30
0.0
  9
$PUCSYDIR
 10
0.0
 20
1.0
 30
0.0
  9
$PUCSORTHOREF
  2

  9
$PUCSORTHOVIEW
 70
     0
  9
$PUCSORGTOP
 10
0.0
 20
0.0
 30
0.0
  9
$PUCSORGBOTTOM
 10
0.0
 20
0.0
 30
0.0
  9
$PUCSORGLEFT
 10
0.0
 20
0.0
 30
0.0
  9
$PUCSORGRIGHT
 10
0.0
 20
0.0
 30
0.0
  9
$PUCSORGFRONT
 10
0.0
 20
0.0
 30
0.0
  9
$PUCSORGBACK
 10
0.0
 20
0.0
 30
0.0
  9
$USERI1
 70
     0
  9
$USERI2
 70
     0
  9
$USERI3
 70
     0
  9
$USERI4
 70
     0
  9
$USERI5
 70
     0
  9
$USERR1
 40
0.0
  9
$USERR2
 40
0.0
  9
$USERR3
 40
0.0
  9
$USERR4
 40
0.0
  9
$USERR5
 40
0.0
  9
$WORLDVIEW
 70
     1
  9
$SHADEDGE
 70
     3
  9
$SHADEDIF
 70
    70
  9
$TILEMODE
 70
     1
  9
$MAXACTVP
 70
    64
  9
$PINSBASE
 10
0.0
 20
0.0
 30
0.0
  9
$PLIMCHECK
 70
     0
  9
$PEXTMIN
 10
1.000000000000000E+20
 20
1.000000000000000E+20
 30
1.000000000000000E+20
  9
$PEXTMAX
 10
-1.000000000000000E+20
 20
-1.000000000000000E+20
 30
-1.000000000000000E+20
  9
$PLIMMIN
 10
0.0
 20
0.0
  9
$PLIMMAX
 10
0.0
 20
0.0
  9
$UNITMODE
 70
     0
  9
$VISRETAIN
 70
     1
  9
$PLINEGEN
 70
     0
  9
$PSLTSCALE
 70
     1
  9
$TREEDEPTH
 70
  3020
  9
$CMLSTYLE
  2
Standard
  9
$CMLJUST
 70
     0
  9
$CMLSCALE
 40
20.0
  9
$PROXYGRAPHICS
 70
     1
  9
$MEASUREMENT
 70
     1
  9
$CELWEIGHT
370
    -1
  9
$ENDCAPS
280
     0
  9
$JOINSTYLE
280
     0
  9
$LWDISPLAY
290
     1
  9
$INSUNITS
 70
     4
  9
$HYPERLINKBASE
  1

  9
$STYLESHEET
  1

  9
$XEDIT
290
     1
  9
$CEPSNTYPE
380
     0
  9
$PSTYLEMODE
290
     1
  9
$FINGERPRINTGUID
  2
{52EA022C-8374-4099-A8D2-3BD57B7AA66F}
  9
$VERSIONGUID
  2
{FAEB1C32-E019-11D5-929B-00C0DF256EC4}
  9
$EXTNAMES
290
     1
  9
$PSVPSCALE
 40
0.0
  9
$OLESTARTUP
290
     0
  0
ENDSEC
  0
SECTION
  2
CLASSES
  0
CLASS
  1
ACDBDICTIONARYWDFLT
  2
AcDbDictionaryWithDefault
  3
ObjectDBX Classes
 90
        0
280
     0
281
     0
  0
CLASS
  1
VISUALSTYLE
  2
AcDbVisualStyle
  3
ObjectDBX Classes
 90
     4095
280
     0
281
     0
  0
CLASS
  1
MATERIAL
  2
AcDbMaterial
  3
ObjectDBX Classes
 90
     1153
280
     0
281
     0
  0
CLASS
  1
SCALE
  2
AcDbScale
  3
ObjectDBX Classes
 90
     1153
280
     0
281
     0
  0
CLASS
  1
SUN
  2
AcDbSun
  3
SCENEOE
 90
     1153
280
     0
281
     0
  0
CLASS
  1
ACDBPLACEHOLDER
  2
AcDbPlaceHolder
  3
ObjectDBX Classes
 90
        0
280
     0
281
     0
  0
CLASS
  1
LAYOUT
  2
AcDbLayout
  3
ObjectDBX Classes
 90
        0
280
     0
281
     0
  0
CLASS
  1
TABLESTYLE
  2
AcDbTableStyle
  3
ObjectDBX Classes
 90
     4095
280
     0
281
     0
  0
CLASS
  1
MLEADERSTYLE
  2
AcDbMLeaderStyle
  3
ACDB_MLEADERSTYLE_CLASS
 90
     4095
280
     0
281
     0
  0
CLASS
  1
RASTERVARIABLES
  2
AcDbRasterVariables
  3
ISM
 90
        0
280
     0
281
     0
  0
ENDSEC
  0
SECTION
  2
TABLES
  0
TABLE
  2
VPORT
  5
8
330
0
100
AcDbSymbolTable
 70
     1
  0
VPORT
  5
29
330
8
100
AcDbSymbolTableRecord
100
AcDbViewportTableRecord
  2
*Active
 70
     0
 10
0.0
 20
0.0
 11
1.0
 21
1.0
 12
15.67710135887503
 22
0.0530315458311179
 13
0.0
 23
0.0
 14
10.0
 24
10.0
 15
10.0
 25
10.0
 16
0.0
 26
0.0
 36
1.0
 17
0.0
 27
0.0
 37
0.0
 40
113.3444668185253
 41
1.782762691853601
 42
50.0
 43
0.0
 44
0.0
 50
0.0
 51
0.0
 71
    16
 72
  2000
 73
     1
 74
     3
 75
     0
 76
     0
 77
     0
 78
     0
281
     0
 65
     1
110
0.0
120
0.0
130
0.0
111
1.0
121
0.0
131
0.0
112
0.0
122
1.0
132
0.0
 79
     0
146
0.0
  0
ENDTAB
  0
TABLE
  2
LTYPE
  5
5
330
0
100
AcDbSymbolTable
 70
     6
  0
LTYPE
  5
14
330
5
100
AcDbSymbolTableRecord
100
AcDbLinetypeTableRecord
  2
ByBlock
 70
     0
  3

 72
    65
 73
     0
 40
0.0
  0
LTYPE
  5
15
330
5
100
AcDbSymbolTableRecord
100
AcDbLinetypeTableRecord
  2
ByLayer
 70
     0
  3

 72
    65
 73
     0
 40
0.0
  0
LTYPE
  5
16
330
5
100
AcDbSymbolTableRecord
100
AcDbLinetypeTableRecord
  2
Continuous
 70
     0
  3
Solid line
 72
    65
 73
     0
 40
0.0
  0
LTYPE
  5
6A
330
5
100
AcDbSymbolTableRecord
100
AcDbLinetypeTableRecord
  2
HIDDEN
 70
     0
  3
Hidden __ __ __ __ __ __ __ __ __ __ __ __ __ __
 72
    65
 73
     2
 40
1.905
 49
1.27
 74
     0
 49
-0.635
 74
     0
  0
LTYPE
  5
6B
330
5
100
AcDbSymbolTableRecord
100
AcDbLinetypeTableRecord
  2
PHANTOM
 70
     0
  3
Phantom ______  __  __  ______  __  __  ______
 72
    65
 73
     6
 40
12.7
 49
6.35
 74
     0
 49
-1.27
 74
     0
 49
1.27
 74
     0
 49
-1.27
 74
     0
 49
1.27
 74
     0
 49
-1.27
 74
     0
  0
LTYPE
  5
6C
330
5
100
AcDbSymbolTableRecord
100
AcDbLinetypeTableRecord
  2
CENTER
 70
     0
  3
Center ____ _ ____ _ ____ _ ____ _ ____ _ ____
 72
    65
 73
     4
 40
10.16
 49
6.35
 74
     0
 49
-1.27
 74
     0
 49
1.27
 74
     0
 49
-1.27
 74
     0
  0
LTYPE
  5
6D
330
5
100
AcDbSymbolTableRecord
100
AcDbLinetypeTableRecord
  2
CENTERX2
 70
     0
  3
Center (2x) ________  __  ________  __  _____
 72
    65
 73
     4
 40
20.32
 49
12.7
 74
     0
 49
-2.54
 74
     0
 49
2.54
 74
     0
 49
-2.54
 74
     0
  0
LTYPE
  5
6E
330
5
100
AcDbSymbolTableRecord
100
AcDbLinetypeTableRecord
  2
DOT2
 70
     0
  3
Dot (.5x) ........................................
 72
    65
 73
     2
 40
0.635
 49
0.0
 74
     0
 49
-0.635
 74
     0
  0
ENDTAB
  0
TABLE
  2
LAYER
  5
2
102
{ACAD_XDICTIONARY
360
195
102
}
330
0
100
AcDbSymbolTable
 70
    18
  0
LAYER
  5
10
330
2
100
AcDbSymbolTableRecord
100
AcDbLayerTableRecord
  2
0
 70
     0
 62
     7
  6
Continuous
370
    -3
390
F
  0
LAYER
  5
6F
330
2
100
AcDbSymbolTableRecord
100
AcDbLayerTableRecord
  2
FORMAT
 70
     0
 62
     2
  6
Continuous
370
    -3
390
F
  0
LAYER
  5
70
330
2
100
AcDbSymbolTableRecord
100
AcDbLayerTableRecord
  2
외형선
 70
     0
 62
     4
  6
Continuous
370
    30
390
F
  0
LAYER
  5
71
330
2
100
AcDbSymbolTableRecord
100
AcDbLayerTableRecord
  2
숨은선
 70
     0
 62
     2
  6
HIDDEN
370
    15
390
F
  0
LAYER
  5
72
330
2
100
AcDbSymbolTableRecord
100
AcDbLayerTableRecord
  2
중심선
 70
     0
 62
     1
  6
CENTERX2
370
    -3
390
F
  0
LAYER
  5
73
330
2
100
AcDbSymbolTableRecord
100
AcDbLayerTableRecord
  2
파단선
 70
     0
 62
     4
  6
Continuous
370
    -3
390
F
  0
LAYER
  5
74
330
2
100
AcDbSymbolTableRecord
100
AcDbLayerTableRecord
  2
해칭선
 70
     0
 62
   100
  6
Continuous
370
    -3
390
F
  0
LAYER
  5
75
330
2
100
AcDbSymbolTableRecord
100
AcDbLayerTableRecord
  2
가는실선
 70
     0
 62
     4
  6
Continuous
370
    -3
390
F
  0
LAYER
  5
76
330
2
100
AcDbSymbolTableRecord
100
AcDbLayerTableRecord
  2
치수_보조선
 70
     0
 62
     4
  6
Continuous
370
    -3
390
F
  0
LAYER
  5
77
330
2
100
AcDbSymbolTableRecord
100
AcDbLayerTableRecord
  2
치수문자_일반주서
 70
     0
 62
     7
  6
Continuous
370
    15
390
F
  0
LAYER
  5
78
330
2
100
AcDbSymbolTableRecord
100
AcDbLayerTableRecord
  2
개별주서
 70
     0
 62
   100
  6
Continuous
370
    30
390
F
  0
LAYER
  5
79
330
2
100
AcDbSymbolTableRecord
100
AcDbLayerTableRecord
  2
중간선
 70
     0
 62
     2
  6
Continuous
370
    15
390
F
  0
LAYER
  5
7A
330
2
100
AcDbSymbolTableRecord
100
AcDbLayerTableRecord
  2
윤곽선
 70
     0
 62
     3
  6
Continuous
370
    40
390
F
  0
LAYER
  5
7B
330
2
100
AcDbSymbolTableRecord
100
AcDbLayerTableRecord
  2
중심마크
 70
     0
 62
   100
  6
Continuous
370
    30
390
F
  0
LAYER
  5
7C
330
2
100
AcDbSymbolTableRecord
100
AcDbLayerTableRecord
  2
가상선
 70
     0
 62
     4
  6
PHANTOM
370
    -3
390
F
  0
LAYER
  5
7D
330
2
100
AcDbSymbolTableRecord
100
AcDbLayerTableRecord
  2
특수지정선
 70
     0
 62
     5
  6
CENTERX2
370
    60
390
F
  0
LAYER
  5
7E
330
2
100
AcDbSymbolTableRecord
100
AcDbLayerTableRecord
  2
참조1
 70
     0
 62
    -4
  6
Continuous
370
    -3
390
F
  0
LAYER
  5
15A
330
2
100
AcDbSymbolTableRecord
100
AcDbLayerTableRecord
  2
Defpoints
 70
     0
 62
     7
  6
Continuous
290
     0
370
    -3
390
F
  0
ENDTAB
  0
TABLE
  2
STYLE
  5
3
330
0
100
AcDbSymbolTable
 70
     2
  0
STYLE
  5
11
330
3
100
AcDbSymbolTableRecord
100
AcDbTextStyleTableRecord
  2
Standard
 70
     0
 40
0.0
 41
1.0
 50
0.0
 71
     0
 42
3.5
  3
txt
  4

  0
STYLE
  5
94
330
3
100
AcDbSymbolTableRecord
100
AcDbTextStyleTableRecord
  2
SLDTEXTSTYLE0
 70
     0
 40
0.0
 41
0.75
 50
0.0
 71
     0
 42
3.5
  3
TXT
  4

  0
ENDTAB
  0
TABLE
  2
VIEW
  5
6
330
0
100
AcDbSymbolTable
 70
     0
  0
ENDTAB
  0
TABLE
  2
UCS
  5
7
330
0
100
AcDbSymbolTable
 70
     0
  0
ENDTAB
  0
TABLE
  2
APPID
  5
9
330
0
100
AcDbSymbolTable
 70
     2
  0
APPID
  5
12
330
9
100
AcDbSymbolTableRecord
100
AcDbRegAppTableRecord
  2
ACAD
 70
     0
  0
APPID
  5
162
330
9
100
AcDbSymbolTableRecord
100
AcDbRegAppTableRecord
  2
PE_URL
 70
     0
  0
ENDTAB
  0
TABLE
  2
DIMSTYLE
  5
A
330
0
100
AcDbSymbolTable
 70
     3
100
AcDbDimStyleTable
  0
DIMSTYLE
105
27
330
A
100
AcDbSymbolTableRecord
100
AcDbDimStyleTableRecord
  2
ISO-25
 70
     0
 41
2.5
 42
0.625
 43
3.75
 44
1.25
 73
     0
 74
     0
 77
     1
 78
     8
140
2.5
141
2.5
143
0.03937007874016
147
0.625
171
     3
172
     1
178
     0
271
     2
272
     2
274
     3
278
    44
283
     0
284
     8
340
11
  0
DIMSTYLE
105
DA
102
{ACAD_REACTORS
330
D9
330
EE
330
102
330
116
102
}
330
A
100
AcDbSymbolTableRecord
100
AcDbDimStyleTableRecord
  2
SLDDIMSTYLE0
 70
     0
 41
3.302
 44
0.0
 45
0.000000001
 73
     0
 74
     0
 77
     1
 78
    12
 79
     3
140
3.5
143
0.0393700787401575
147
0.875
148
0.000000001
170
     1
172
     1
173
     1
178
     0
271
     2
272
     2
276
     2
284
    12
289
     0
340
94
  0
DIMSTYLE
105
EF
330
A
100
AcDbSymbolTableRecord
100
AcDbDimStyleTableRecord
  2
SLDDIMSTYLE1
 70
     0
 41
3.302
 44
0.0
 45
0.000000001
 73
     0
 74
     0
 77
     1
 78
    12
 79
     3
140
3.5
143
0.0393700787401575
147
0.875
148
0.000000001
170
     1
173
     1
178
     0
271
     2
272
     2
276
     2
284
    12
340
94
  0
ENDTAB
  0
TABLE
  2
BLOCK_RECORD
  5
1
330
0
100
AcDbSymbolTable
 70
     9
  0
BLOCK_RECORD
  5
1F
330
1
100
AcDbSymbolTableRecord
100
AcDbBlockTableRecord
  2
*Model_Space
340
22
  0
BLOCK_RECORD
  5
1B
330
1
100
AcDbSymbolTableRecord
100
AcDbBlockTableRecord
  2
*Paper_Space
340
1E
  0
BLOCK_RECORD
  5
23
330
1
100
AcDbSymbolTableRecord
100
AcDbBlockTableRecord
  2
*Paper_Space0
340
26
  0
BLOCK_RECORD
  5
7F
330
1
100
AcDbSymbolTableRecord
100
AcDbBlockTableRecord
  2
블럭10
340
0
102
{BLKREFS
331
D2
102
}
  0
BLOCK_RECORD
  5
DB
330
1
100
AcDbSymbolTableRecord
100
AcDbBlockTableRecord
  2
_D
340
0
  0
BLOCK_RECORD
  5
F0
330
1
100
AcDbSymbolTableRecord
100
AcDbBlockTableRecord
  2
_D_1
340
0
  0
BLOCK_RECORD
  5
103
330
1
100
AcDbSymbolTableRecord
100
AcDbBlockTableRecord
  2
_D_2
340
0
  0
BLOCK_RECORD
  5
117
330
1
100
AcDbSymbolTableRecord
100
AcDbBlockTableRecord
  2
_D_3
340
0
  0
BLOCK_RECORD
  5
130
330
1
100
AcDbSymbolTableRecord
100
AcDbBlockTableRecord
  2
SW_DOWELSYMBOL_0
340
0
102
{BLKREFS
331
136
102
}
  0
BLOCK_RECORD
  5
199
330
1
100
AcDbSymbolTableRecord
100
AcDbBlockTableRecord
  2
*D7
340
0
  0
BLOCK_RECORD
  5
1AE
330
1
100
AcDbSymbolTableRecord
100
AcDbBlockTableRecord
  2
*D8
340
0
  0
ENDTAB
  0
ENDSEC
  0
SECTION
  2
BLOCKS
  0
BLOCK
  5
20
330
1F
100
AcDbEntity
  8
0
100
AcDbBlockBegin
  2
*Model_Space
 70
     0
 10
0.0
 20
0.0
 30
0.0
  3
*Model_Space
  1
*Model_Space
  0
ENDBLK
  5
21
330
1F
100
AcDbEntity
  8
0
100
AcDbBlockEnd
  0
BLOCK
  5
1C
330
1B
100
AcDbEntity
 67
     1
  8
0
100
AcDbBlockBegin
  2
*Paper_Space
 70
     0
 10
0.0
 20
0.0
 30
0.0
  3
*Paper_Space
  1
*Paper_Space
  0
ENDBLK
  5
1D
330
1B
100
AcDbEntity
 67
     1
  8
0
100
AcDbBlockEnd
  0
BLOCK
  5
24
330
23
100
AcDbEntity
  8
0
100
AcDbBlockBegin
  2
*Paper_Space0
 70
     0
 10
0.0
 20
0.0
 30
0.0
  3
*Paper_Space0
  1
*Paper_Space0
  0
ENDBLK
  5
25
330
23
100
AcDbEntity
  8
0
100
AcDbBlockEnd
  0
BLOCK
  5
80
330
7F
100
AcDbEntity
  8
0
100
AcDbBlockBegin
  2
블럭10
 70
     2
 10
0.0
 20
0.0
 30
0.0
  3
블럭10
  1
블럭10
  0
ELLIPSE
  5
82
330
7F
100
AcDbEntity
  8
중심선
100
AcDbEllipse
 10
20.54032771741204
 20
12.0471743016438
 30
0.0
 11
6.600054785286829
 21
-1.261213355974178E-13
 31
0.0
210
0.0
220
0.0
230
1.0
 40
0.636358354079598
 41
0.9219305317359503
 42
6.513795318482858
  0
ELLIPSE
  5
83
330
7F
100
AcDbEntity
  8
중심선
100
AcDbEllipse
 10
20.54032771746488
 20
12.04717430159265
 30
0.0
 11
3.960054785062283
 21
1.540847449632565E-10
 31
0.0
210
0.0
220
0.0
230
1.0
 40
0.3939339440162632
 41
1.131841032648279
 42
5.62031148352944
  0
LINE
  5
84
330
7F
100
AcDbEntity
  8
중심선
100
AcDbLine
 10
2.268634060543552
 20
16.24717430164393
 30
0.0
 11
5.714909304380834
 21
16.24717430164393
 31
0.0
  0
LINE
  5
85
330
7F
100
AcDbEntity
  8
중심선
100
AcDbLine
 10
5.245725140726316
 20
7.84717430164391
 30
0.0
 11
8.692000384563599
 21
7.84717430164391
 31
0.0
  0
LINE
  5
86
330
7F
100
AcDbEntity
  8
중심선
100
AcDbLine
 10
15.74043728645272
 20
16.24717430164393
 30
0.0
 11
8.692000384563599
 21
7.84717430164391
 31
0.0
  0
LINE
  5
87
330
7F
100
AcDbEntity
  8
중심선
100
AcDbLine
 10
0.1404042013395286
 20
13.71084872107135
 30
0.0
 11
3.58671253028996
 21
13.71088815037384
 31
0.0
  0
LINE
  5
88
330
7F
100
AcDbEntity
  8
중심선
100
AcDbLine
 10
2.750260043222114
 20
10.84717430164391
 30
0.0
 11
6.196535287059397
 21
10.84717430164391
 31
0.0
  0
LINE
  5
89
330
7F
100
AcDbEntity
  8
중심선
100
AcDbLine
 10
12.29416204261559
 20
16.24717430164393
 30
0.0
 11
5.245725140726316
 21
7.84717430164391
 31
0.0
  0
LINE
  5
8A
330
7F
100
AcDbEntity
  8
중심선
100
AcDbLine
 10
10.72767329541681
 20
16.24717430164393
 30
0.0
 11
6.196535287059397
 21
10.84717430164391
 31
0.0
  0
LINE
  5
8B
330
7F
100
AcDbEntity
  8
중심선
100
AcDbLine
 10
7.28139805157953
 20
16.24717430164393
 30
0.0
 11
2.750260043222114
 21
10.84717430164391
 31
0.0
  0
LINE
  5
8C
330
7F
100
AcDbEntity
  8
중심선
100
AcDbLine
 10
5.714909304380834
 20
16.24717430164393
 30
0.0
 11
3.58671253028996
 21
13.71088815037384
 31
0.0
  0
LINE
  5
8D
330
7F
100
AcDbEntity
  8
중심선
100
AcDbLine
 10
2.268634060543552
 20
16.24717430164393
 30
0.0
 11
0.1404042013395286
 21
13.71084872107135
 31
0.0
  0
LINE
  5
8E
330
7F
100
AcDbEntity
  8
중심선
100
AcDbLine
 10
7.28139805157953
 20
16.24717430164393
 30
0.0
 11
10.72767329541681
 21
16.24717430164393
 31
0.0
  0
LINE
  5
8F
330
7F
100
AcDbEntity
  8
중심선
100
AcDbLine
 10
12.29416204261559
 20
16.24717430164393
 30
0.0
 11
15.74043728645272
 21
16.24717430164393
 31
0.0
  0
LINE
  5
90
330
7F
100
AcDbEntity
  8
중심선
100
AcDbLine
 10
19.22036997980202
 20
11.08717430171403
 30
0.0
 11
23.66174974927406
 21
11.08717430171406
 31
0.0
  0
LINE
  5
91
330
7F
100
AcDbEntity
  8
중심선
100
AcDbLine
 10
19.22039502424796
 20
13.00717430171391
 30
0.0
 11
19.22036997980202
 21
11.08717430171403
 31
0.0
  0
LINE
  5
92
330
7F
100
AcDbEntity
  8
중심선
100
AcDbLine
 10
19.22039502424796
 20
13.00717430171391
 30
0.0
 11
26.96566020931264
 21
13.00717430171391
 31
0.0
  0
LINE
  5
93
330
7F
100
AcDbEntity
  8
중심선
100
AcDbLine
 10
22.22332737316547
 20
13.45928029700563
 30
0.0
 11
24.52862924686651
 21
15.39360700705356
 31
0.0
  0
ATTDEF
  5
95
330
7F
100
AcDbEntity
  8
FORMAT
 62
     2
100
AcDbText
 10
4.408487351596664
 20
2.075366912832191
 30
0.0
 40
4.233333333333333
  1
E1050044
 41
0.75
  7
SLDTEXTSTYLE0
 11
4.408487351596664
 21
-0.0412997538344756
 31
0.0
100
AcDbAttributeDefinition
  3

  2
AUTOATTR0
 70
     0
 74
     1
  0
ENDBLK
  5
81
330
7F
100
AcDbEntity
  8
0
100
AcDbBlockEnd
  0
BLOCK
  5
DC
330
DB
100
AcDbEntity
  8
0
100
AcDbBlockBegin
  2
_D
 70
     0
 10
0.0
 20
0.0
 30
0.0
  3
_D
  1
_D
  0
LINE
  5
DE
330
DB
100
AcDbEntity
  8
치수문자_일반주서
 62
     0
370
    -2
100
AcDbLine
 10
-26.26268467149224
 20
9.524999999999986
 30
0.0
 11
-78.49999999999996
 21
9.524999999999789
 31
0.0
  0
LINE
  5
DF
330
DB
100
AcDbEntity
  8
치수문자_일반주서
 62
     0
370
    -2
100
AcDbLine
 10
-26.26268467149227
 20
-9.525000000000006
 30
0.0
 11
-78.49999999999989
 21
-9.525000000000198
 31
0.0
  0
LINE
  5
E0
330
DB
100
AcDbEntity
  8
치수문자_일반주서
 62
     0
370
    -2
100
AcDbLine
 10
-78.49999999999996
 20
9.524999999999789
 30
0.0
 11
-78.5000000000001
 21
47.37899999999991
 31
0.0
  0
LINE
  5
E1
330
DB
100
AcDbEntity
  8
치수문자_일반주서
 62
     0
370
    -2
100
AcDbLine
 10
-78.49999999999996
 20
9.524999999999789
 30
0.0
 11
-78.49999999999989
 21
-9.525000000000198
 31
0.0
  0
LINE
  5
E2
330
DB
100
AcDbEntity
  8
치수문자_일반주서
 62
     0
370
    -2
100
AcDbLine
 10
-78.49999999999997
 20
12.82699999999979
 30
0.0
 11
-78.49999999999999
 21
16.12899999999979
 31
0.0
  0
LINE
  5
E3
330
DB
100
AcDbEntity
  8
치수문자_일반주서
 62
     0
370
    -2
100
AcDbLine
 10
-78.49999999999987
 20
-12.8270000000002
 30
0.0
 11
-78.49999999999986
 21
-16.1290000000002
 31
0.0
  0
SOLID
  5
E4
330
DB
100
AcDbEntity
  8
치수문자_일반주서
 62
     0
100
AcDbTrace
 10
-79.0503333333333
 20
12.82699999999979
 30
0.0
 11
-77.94966666666664
 21
12.82699999999979
 31
0.0
 12
-78.49999999999996
 22
9.524999999999789
 32
0.0
 13
-78.49999999999996
 23
9.524999999999789
 33
0.0
  0
SOLID
  5
E5
330
DB
100
AcDbEntity
  8
치수문자_일반주서
 62
     0
100
AcDbTrace
 10
-77.94966666666654
 20
-12.8270000000002
 30
0.0
 11
-79.0503333333332
 21
-12.8270000000002
 31
0.0
 12
-78.49999999999989
 22
-9.525000000000198
 32
0.0
 13
-78.49999999999989
 23
-9.525000000000198
 33
0.0
  0
MTEXT
  5
E6
330
DB
100
AcDbEntity
  8
치수문자_일반주서
 62
     0
100
AcDbMText
 10
-83.37500000000004
 20
31.75399999999989
 30
0.0
 40
4.0
 41
0.0
 71
     2
 72
     1
  1
\A1;%%c19.05 [3/4]
  7
SLDTEXTSTYLE0
 11
-3.729883127349609E-15
 21
1.0
 31
0.0
 73
     1
 44
1.0
  0
POINT
  5
1C0
330
DB
100
AcDbEntity
  8
Defpoints
 62
     0
100
AcDbPoint
 10
-26.20018467149224
 20
9.524999999999986
 30
0.0
  0
POINT
  5
1C1
330
DB
100
AcDbEntity
  8
Defpoints
 62
     0
100
AcDbPoint
 10
-26.20018467149227
 20
-9.525000000000006
 30
0.0
  0
POINT
  5
1C2
330
DB
100
AcDbEntity
  8
Defpoints
 62
     0
100
AcDbPoint
 10
-78.49999999999989
 20
-9.525000000000201
 30
0.0
  0
ENDBLK
  5
DD
330
DB
100
AcDbEntity
  8
0
100
AcDbBlockEnd
  0
BLOCK
  5
F1
330
F0
100
AcDbEntity
  8
0
100
AcDbBlockBegin
  2
_D_1
 70
     0
 10
0.0
 20
0.0
 30
0.0
  3
_D_1
  1
_D_1
  0
LINE
  5
F3
330
F0
100
AcDbEntity
  8
치수문자_일반주서
 62
     0
370
    -2
100
AcDbLine
 10
63.56250000000003
 20
-8.723870480473835
 30
0.0
 11
114.1788693844169
 21
-8.723870480473643
 31
0.0
  0
LINE
  5
F4
330
F0
100
AcDbEntity
  8
치수문자_일반주서
 62
     0
370
    -2
100
AcDbLine
 10
63.56250000000003
 20
8.723870480473824
 30
0.0
 11
114.1788693844168
 21
8.723870480474012
 31
0.0
  0
LINE
  5
F5
330
F0
100
AcDbEntity
  8
치수문자_일반주서
 62
     0
370
    -2
100
AcDbLine
 10
114.1788693844168
 20
8.723870480474012
 30
0.0
 11
114.1788693844167
 21
50.077870480474
 31
0.0
  0
LINE
  5
F6
330
F0
100
AcDbEntity
  8
치수문자_일반주서
 62
     0
370
    -2
100
AcDbLine
 10
114.1788693844169
 20
-8.723870480473643
 30
0.0
 11
114.1788693844168
 21
8.723870480474012
 31
0.0
  0
LINE
  5
F7
330
F0
100
AcDbEntity
  8
치수문자_일반주서
 62
     0
370
    -2
100
AcDbLine
 10
114.1788693844169
 20
-12.02587048047364
 30
0.0
 11
114.1788693844169
 21
-15.32787048047364
 31
0.0
  0
LINE
  5
F8
330
F0
100
AcDbEntity
  8
치수문자_일반주서
 62
     0
370
    -2
100
AcDbLine
 10
114.1788693844168
 20
12.02587048047401
 30
0.0
 11
114.1788693844168
 21
15.32787048047401
 31
0.0
  0
SOLID
  5
F9
330
F0
100
AcDbEntity
  8
치수문자_일반주서
 62
     0
100
AcDbTrace
 10
114.7292027177502
 20
-12.02587048047364
 30
0.0
 11
113.6285360510835
 21
-12.02587048047364
 31
0.0
 12
114.1788693844169
 22
-8.723870480473643
 32
0.0
 13
114.1788693844169
 23
-8.723870480473643
 33
0.0
  0
SOLID
  5
FA
330
F0
100
AcDbEntity
  8
치수문자_일반주서
 62
     0
100
AcDbTrace
 10
113.6285360510835
 20
12.02587048047401
 30
0.0
 11
114.7292027177501
 21
12.02587048047401
 31
0.0
 12
114.1788693844168
 22
8.723870480474012
 32
0.0
 13
114.1788693844168
 23
8.723870480474012
 33
0.0
  0
MTEXT
  5
FB
330
F0
100
AcDbEntity
  8
치수문자_일반주서
 62
     0
100
AcDbMText
 10
109.3038693844167
 20
32.70287048047399
 30
0.0
 40
4.0
 41
0.0
 71
     2
 72
     1
  1
\A1;%%c17.45 [11/16]
  7
SLDTEXTSTYLE0
 11
-3.257924277305445E-15
 21
1.0
 31
0.0
 73
     1
 44
1.0
  0
POINT
  5
FC
330
F0
100
AcDbEntity
  8
Defpoints
 62
     0
100
AcDbPoint
 10
63.50000000000003
 20
-8.723870480473835
 30
0.0
  0
POINT
  5
FD
330
F0
100
AcDbEntity
  8
Defpoints
 62
     0
100
AcDbPoint
 10
63.50000000000003
 20
8.723870480473824
 30
0.0
  0
POINT
  5
FE
330
F0
100
AcDbEntity
  8
Defpoints
 62
     0
100
AcDbPoint
 10
114.1788693844168
 20
8.723870480474014
 30
0.0
  0
ENDBLK
  5
F2
330
F0
100
AcDbEntity
  8
0
100
AcDbBlockEnd
  0
BLOCK
  5
104
330
103
100
AcDbEntity
  8
0
100
AcDbBlockBegin
  2
_D_2
 70
     0
 10
0.0
 20
0.0
 30
0.0
  3
_D_2
  1
_D_2
  0
LINE
  5
106
330
103
100
AcDbEntity
  8
치수문자_일반주서
 62
     0
370
    -2
100
AcDbLine
 10
63.50000000000003
 20
8.786370480473824
 30
0.0
 11
63.50000000000003
 21
24.52499999999997
 31
0.0
  0
LINE
  5
107
330
103
100
AcDbEntity
  8
치수문자_일반주서
 62
     0
370
    -2
100
AcDbLine
 10
30.16250000000002
 20
7.187604089950766
 30
0.0
 11
30.16250000000002
 21
24.52499999999997
 31
0.0
  0
LINE
  5
108
330
103
100
AcDbEntity
  8
치수문자_일반주서
 62
     0
370
    -2
100
AcDbLine
 10
63.50000000000003
 20
24.52499999999997
 30
0.0
 11
106.854
 21
24.52499999999997
 31
0.0
  0
LINE
  5
109
330
103
100
AcDbEntity
  8
치수문자_일반주서
 62
     0
370
    -2
100
AcDbLine
 10
63.50000000000003
 20
24.52499999999997
 30
0.0
 11
30.16250000000002
 21
24.52499999999997
 31
0.0
  0
LINE
  5
10A
330
103
100
AcDbEntity
  8
치수문자_일반주서
 62
     0
370
    -2
100
AcDbLine
 10
66.80200000000002
 20
24.52499999999997
 30
0.0
 11
70.10400000000001
 21
24.52499999999997
 31
0.0
  0
LINE
  5
10B
330
103
100
AcDbEntity
  8
치수문자_일반주서
 62
     0
370
    -2
100
AcDbLine
 10
26.86050000000002
 20
24.52499999999997
 30
0.0
 11
23.55850000000002
 21
24.52499999999997
 31
0.0
  0
SOLID
  5
10C
330
103
100
AcDbEntity
  8
치수문자_일반주서
 62
     0
100
AcDbTrace
 10
66.80200000000002
 20
25.07533333333331
 30
0.0
 11
66.80200000000002
 21
23.97466666666664
 31
0.0
 12
63.50000000000003
 22
24.52499999999997
 32
0.0
 13
63.50000000000003
 23
24.52499999999997
 33
0.0
  0
SOLID
  5
10D
330
103
100
AcDbEntity
  8
치수문자_일반주서
 62
     0
100
AcDbTrace
 10
26.86050000000002
 20
23.97466666666664
 30
0.0
 11
26.86050000000002
 21
25.07533333333331
 31
0.0
 12
30.16250000000002
 22
24.52499999999997
 32
0.0
 13
30.16250000000002
 23
24.52499999999997
 33
0.0
  0
MTEXT
  5
10E
330
103
100
AcDbEntity
  8
치수문자_일반주서
 62
     0
100
AcDbMText
 10
88.47900000000003
 20
29.39999999999997
 30
0.0
 40
4.0
 41
0.0
 71
     2
 72
     1
  1
\A1;33.34 [1 5/16]
  7
SLDTEXTSTYLE0
 73
     1
 44
1.0
  0
POINT
  5
10F
330
103
100
AcDbEntity
  8
Defpoints
 62
     0
100
AcDbPoint
 10
63.50000000000003
 20
8.723870480473824
 30
0.0
  0
POINT
  5
110
330
103
100
AcDbEntity
  8
Defpoints
 62
     0
100
AcDbPoint
 10
30.16250000000002
 20
7.125104089950766
 30
0.0
  0
POINT
  5
111
330
103
100
AcDbEntity
  8
Defpoints
 62
     0
100
AcDbPoint
 10
30.16250000000002
 20
24.52499999999997
 30
0.0
  0
ENDBLK
  5
105
330
103
100
AcDbEntity
  8
0
100
AcDbBlockEnd
  0
BLOCK
  5
118
330
117
100
AcDbEntity
  8
0
100
AcDbBlockBegin
  2
_D_3
 70
     0
 10
0.0
 20
0.0
 30
0.0
  3
_D_3
  1
_D_3
  0
LINE
  5
11A
330
117
100
AcDbEntity
  8
치수문자_일반주서
 62
     0
370
    -2
100
AcDbLine
 10
-63.50000000000005
 20
8.786370480473852
 30
0.0
 11
-63.50000000000006
 21
39.52499999999998
 31
0.0
  0
LINE
  5
11B
330
117
100
AcDbEntity
  8
치수문자_일반주서
 62
     0
370
    -2
100
AcDbLine
 10
63.50000000000003
 20
8.786370480473824
 30
0.0
 11
63.50000000000002
 21
39.52499999999998
 31
0.0
  0
LINE
  5
11C
330
117
100
AcDbEntity
  8
치수문자_일반주서
 62
     0
370
    -2
100
AcDbLine
 10
-60.19800000000006
 20
39.52499999999998
 30
0.0
 11
60.19800000000002
 21
39.52499999999998
 31
0.0
  0
SOLID
  5
11D
330
117
100
AcDbEntity
  8
치수문자_일반주서
 62
     0
100
AcDbTrace
 10
-60.19800000000006
 20
40.07533333333331
 30
0.0
 11
-60.19800000000006
 21
38.97466666666664
 31
0.0
 12
-63.50000000000006
 22
39.52499999999998
 32
0.0
 13
-63.50000000000006
 23
39.52499999999998
 33
0.0
  0
SOLID
  5
11E
330
117
100
AcDbEntity
  8
치수문자_일반주서
 62
     0
100
AcDbTrace
 10
60.19800000000002
 20
38.97466666666664
 30
0.0
 11
60.19800000000002
 21
40.07533333333331
 31
0.0
 12
63.50000000000002
 22
39.52499999999998
 32
0.0
 13
63.50000000000002
 23
39.52499999999998
 33
0.0
  0
MTEXT
  5
11F
330
117
100
AcDbEntity
  8
치수문자_일반주서
 62
     0
100
AcDbMText
 10
0.0000000000000142
 20
44.39999999999998
 30
0.0
 40
4.0
 41
0.0
 71
     2
 72
     1
  1
\A1;127 [5]
  7
SLDTEXTSTYLE0
 73
     1
 44
1.0
  0
POINT
  5
120
330
117
100
AcDbEntity
  8
Defpoints
 62
     0
100
AcDbPoint
 10
-63.50000000000005
 20
8.723870480473852
 30
0.0
  0
POINT
  5
121
330
117
100
AcDbEntity
  8
Defpoints
 62
     0
100
AcDbPoint
 10
63.50000000000003
 20
8.723870480473824
 30
0.0
  0
POINT
  5
122
330
117
100
AcDbEntity
  8
Defpoints
 62
     0
100
AcDbPoint
 10
63.50000000000003
 20
39.52499999999998
 30
0.0
  0
ENDBLK
  5
119
330
117
100
AcDbEntity
  8
0
100
AcDbBlockEnd
  0
BLOCK
  5
131
330
130
100
AcDbEntity
  8
0
100
AcDbBlockBegin
  2
SW_DOWELSYMBOL_0
 70
     0
 10
0.0
 20
0.0
 30
0.0
  3
SW_DOWELSYMBOL_0
  1
SW_DOWELSYMBOL_0
  0
CIRCLE
  5
133
330
130
100
AcDbEntity
  8
해칭선
 62
     0
100
AcDbCircle
 10
0.0
 20
0.0
 30
0.0
 40
3.000000000000001
  0
HATCH
  5
134
330
130
100
AcDbEntity
  8
0
  6
Continuous
 62
     0
370
     0
100
AcDbHatch
 10
0.0
 20
0.0
 30
0.0
210
0.0
220
0.0
230
1.0
  2
SOLID
 70
     1
 71
     0
 91
        1
 92
        0
 93
        3
 72
     2
 10
0.0
 20
0.0
 40
3.000000000000001
 50
0.0
 51
90.0
 73
     1
 72
     1
 10
0.0
 20
3.000000000000001
 11
0.0
 21
0.0
 72
     1
 10
0.0
 20
0.0
 11
3.000000000000001
 21
0.0
 97
        0
 75
     0
 76
     1
 98
        1
 10
0.0
 20
0.0
  0
HATCH
  5
135
330
130
100
AcDbEntity
  8
0
  6
Continuous
 62
     0
370
     0
100
AcDbHatch
 10
0.0
 20
0.0
 30
0.0
210
0.0
220
0.0
230
1.0
  2
SOLID
 70
     1
 71
     0
 91
        1
 92
        0
 93
        3
 72
     2
 10
0.0
 20
0.0
 40
3.000000000000001
 50
180.0
 51
270.0000000000007
 73
     1
 72
     1
 10
0.0
 20
-3.000000000000001
 11
0.0
 21
0.0
 72
     1
 10
0.0
 20
0.0
 11
-3.000000000000001
 21
0.0
 97
        0
 75
     0
 76
     1
 98
        1
 10
0.0
 20
0.0
  0
ENDBLK
  5
132
330
130
100
AcDbEntity
  8
0
100
AcDbBlockEnd
  0
BLOCK
  5
19A
330
199
100
AcDbEntity
  8
0
100
AcDbBlockBegin
  2
*D7
 70
     1
 10
0.0
 20
0.0
 30
0.0
  3
*D7
  1
*D7
  0
LINE
  5
19C
330
199
100
AcDbEntity
  8
치수문자_일반주서
 62
     0
370
    -2
100
AcDbLine
 10
71.19620000000018
 20
6.126707037181468
 30
0.0
 11
71.19620000000018
 21
22.26187612400189
 31
0.0
  0
LINE
  5
19D
330
199
100
AcDbEntity
  8
치수문자_일반주서
 62
     0
370
    -2
100
AcDbLine
 10
37.85870000000017
 20
5.067793431799671
 30
0.0
 11
37.85870000000017
 21
22.26187612400189
 31
0.0
  0
LINE
  5
19E
330
199
100
AcDbEntity
  8
치수문자_일반주서
 62
     0
370
    -2
100
AcDbLine
 10
71.19620000000018
 20
22.26187612400189
 30
0.0
 11
114.5502000000002
 21
22.26187612400189
 31
0.0
  0
LINE
  5
19F
330
199
100
AcDbEntity
  8
치수문자_일반주서
 62
     0
370
    -2
100
AcDbLine
 10
71.19620000000018
 20
22.26187612400189
 30
0.0
 11
37.85870000000017
 21
22.26187612400189
 31
0.0
  0
LINE
  5
1A0
330
199
100
AcDbEntity
  8
치수문자_일반주서
 62
     0
370
    -2
100
AcDbLine
 10
74.49820000000017
 20
22.26187612400189
 30
0.0
 11
77.80020000000016
 21
22.26187612400189
 31
0.0
  0
LINE
  5
1A1
330
199
100
AcDbEntity
  8
치수문자_일반주서
 62
     0
370
    -2
100
AcDbLine
 10
34.55670000000017
 20
22.26187612400189
 30
0.0
 11
31.25470000000017
 21
22.26187612400189
 31
0.0
  0
SOLID
  5
1A2
330
199
100
AcDbEntity
  8
치수문자_일반주서
 62
     0
100
AcDbTrace
 10
74.49820000000017
 20
22.81220945733522
 30
0.0
 11
74.49820000000017
 21
21.71154279066856
 31
0.0
 12
71.19620000000018
 22
22.26187612400189
 32
0.0
 13
71.19620000000018
 23
22.26187612400189
 33
0.0
  0
SOLID
  5
1A3
330
199
100
AcDbEntity
  8
치수문자_일반주서
 62
     0
100
AcDbTrace
 10
34.55670000000017
 20
21.71154279066856
 30
0.0
 11
34.55670000000017
 21
22.81220945733522
 31
0.0
 12
37.85870000000017
 22
22.26187612400189
 32
0.0
 13
37.85870000000017
 23
22.26187612400189
 33
0.0
  0
MTEXT
  5
1A4
330
199
100
AcDbEntity
  8
치수문자_일반주서
 62
     0
100
AcDbMText
 10
96.17520000000017
 20
27.13687612400189
 30
0.0
 40
4.0
 41
0.0
 71
     2
 72
     1
  1
\A1;33.34 [1 5/16]
  7
SLDTEXTSTYLE0
 73
     1
 44
1.0
  0
POINT
  5
1A5
330
199
100
AcDbEntity
  8
Defpoints
 62
     0
100
AcDbPoint
 10
71.19620000000018
 20
6.064207037181468
 30
0.0
  0
POINT
  5
1A6
330
199
100
AcDbEntity
  8
Defpoints
 62
     0
100
AcDbPoint
 10
37.85870000000017
 20
5.005293431799671
 30
0.0
  0
POINT
  5
1A7
330
199
100
AcDbEntity
  8
Defpoints
 62
     0
100
AcDbPoint
 10
37.85870000000017
 20
22.26187612400189
 30
0.0
  0
ENDBLK
  5
19B
330
199
100
AcDbEntity
  8
0
100
AcDbBlockEnd
  0
BLOCK
  5
1AF
330
1AE
100
AcDbEntity
  8
0
100
AcDbBlockBegin
  2
*D8
 70
     1
 10
0.0
 20
0.0
 30
0.0
  3
*D8
  1
*D8
  0
LINE
  5
1B1
330
1AE
100
AcDbEntity
  8
치수문자_일반주서
 62
     0
370
    -2
100
AcDbLine
 10
118.4478727729386
 20
-24.96318877106973
 30
0.0
 11
118.4478727729386
 21
-8.828019684249309
 31
0.0
  0
LINE
  5
1B2
330
1AE
100
AcDbEntity
  8
치수문자_일반주서
 62
     0
370
    -2
100
AcDbLine
 10
85.11037277293855
 20
-26.02210237645153
 30
0.0
 11
85.11037277293855
 21
-8.828019684249309
 31
0.0
  0
LINE
  5
1B3
330
1AE
100
AcDbEntity
  8
치수문자_일반주서
 62
     0
370
    -2
100
AcDbLine
 10
118.4478727729386
 20
-8.828019684249309
 30
0.0
 11
161.8018727729386
 21
-8.828019684249309
 31
0.0
  0
LINE
  5
1B4
330
1AE
100
AcDbEntity
  8
치수문자_일반주서
 62
     0
370
    -2
100
AcDbLine
 10
118.4478727729386
 20
-8.828019684249309
 30
0.0
 11
85.11037277293855
 21
-8.828019684249309
 31
0.0
  0
LINE
  5
1B5
330
1AE
100
AcDbEntity
  8
치수문자_일반주서
 62
     0
370
    -2
100
AcDbLine
 10
121.7498727729385
 20
-8.828019684249309
 30
0.0
 11
125.0518727729385
 21
-8.828019684249309
 31
0.0
  0
LINE
  5
1B6
330
1AE
100
AcDbEntity
  8
치수문자_일반주서
 62
     0
370
    -2
100
AcDbLine
 10
81.80837277293855
 20
-8.828019684249309
 30
0.0
 11
78.50637277293856
 21
-8.828019684249309
 31
0.0
  0
SOLID
  5
1B7
330
1AE
100
AcDbEntity
  8
치수문자_일반주서
 62
     0
100
AcDbTrace
 10
121.7498727729385
 20
-8.277686350915976
 30
0.0
 11
121.7498727729385
 21
-9.378353017582642
 31
0.0
 12
118.4478727729386
 22
-8.828019684249309
 32
0.0
 13
118.4478727729386
 23
-8.828019684249309
 33
0.0
  0
SOLID
  5
1B8
330
1AE
100
AcDbEntity
  8
치수문자_일반주서
 62
     0
100
AcDbTrace
 10
81.80837277293855
 20
-9.378353017582642
 30
0.0
 11
81.80837277293855
 21
-8.277686350915976
 31
0.0
 12
85.11037277293855
 22
-8.828019684249309
 32
0.0
 13
85.11037277293855
 23
-8.828019684249309
 33
0.0
  0
MTEXT
  5
1B9
330
1AE
100
AcDbEntity
  8
치수문자_일반주서
 62
     0
100
AcDbMText
 10
143.4268727729386
 20
-3.953019684249309
 30
0.0
 40
4.0
 41
0.0
 71
     2
 72
     1
  1
\A1;33.34 [1 5/16]
  7
SLDTEXTSTYLE0
 73
     1
 44
1.0
  0
POINT
  5
1BA
330
1AE
100
AcDbEntity
  8
Defpoints
 62
     0
100
AcDbPoint
 10
118.4478727729386
 20
-25.02568877106973
 30
0.0
  0
POINT
  5
1BB
330
1AE
100
AcDbEntity
  8
Defpoints
 62
     0
100
AcDbPoint
 10
85.11037277293855
 20
-26.08460237645153
 30
0.0
  0
POINT
  5
1BC
330
1AE
100
AcDbEntity
  8
Defpoints
 62
     0
100
AcDbPoint
 10
85.11037277293855
 20
-8.828019684249309
 30
0.0
  0
ENDBLK
  5
1B0
330
1AE
100
AcDbEntity
  8
0
100
AcDbBlockEnd
  0
ENDSEC
  0
SECTION
  2
ENTITIES
  0
LINE
  5
96
330
1F
100
AcDbEntity
  8
외형선
  6
Continuous
370
    15
100
AcDbLine
 10
26.20018467149223
 20
9.52499999999999
 30
0.0
 11
7.696199999999976
 21
9.524999999999988
 31
0.0
  0
LINE
  5
97
330
1F
100
AcDbEntity
  8
외형선
  6
Continuous
370
    15
100
AcDbLine
 10
-26.20018467149227
 20
-9.525000000000004
 30
0.0
 11
26.20018467149224
 21
-9.525
 31
0.0
  0
LINE
  5
98
330
1F
100
AcDbEntity
  8
외형선
  6
Continuous
370
    15
100
AcDbLine
 10
26.20018467149223
 20
-9.525000000000004
 30
0.0
 11
27.11252121119524
 21
-9.280540160961179
 31
0.0
  0
LINE
  5
99
330
1F
100
AcDbEntity
  8
외형선
  6
Continuous
370
    15
100
AcDbLine
 10
27.11252121119524
 20
9.280540160961166
 30
0.0
 11
26.20018467149223
 21
9.524999999999993
 31
0.0
  0
SPLINE
  5
9C
330
1F
100
AcDbEntity
  8
외형선
  6
Continuous
370
    15
100
AcDbSpline
210
0.0
220
0.0
230
1.0
 70
     8
 71
     3
 72
    11
 73
     7
 74
     0
 42
0.000000001
 43
0.00000001
 40
0.0
 40
0.0
 40
0.0
 40
0.0
 40
0.2939229600091839
 40
0.5577669298338099
 40
0.7923285729308326
 40
1.0
 40
1.0
 40
1.0
 40
1.0
 10
27.11252931461668
 20
-7.063739470153125
 30
0.0
 10
27.41398367036838
 20
-7.042919317230012
 30
0.0
 10
27.98604265646257
 20
-7.003409668939074
 30
0.0
 10
28.79943377435644
 20
-6.953700321412129
 30
0.0
 10
29.5215867994333
 20
-6.91541324785675
 30
0.0
 10
29.95770166492871
 20
-6.896821185030785
 30
0.0
 10
30.16250000000002
 20
-6.888090403730829
 30
0.0
  0
LINE
  5
9D
330
1F
100
AcDbEntity
  8
0
  6
Continuous
 62
     1
370
    15
100
AcDbLine
 10
36.04207045838743
 20
2.462867402810234
 30
0.0
 11
35.95590631768721
 21
2.510238767159531
 31
0.0
1001
PE_URL
1000

  0
SPLINE
  5
9E
330
1F
100
AcDbEntity
  8
0
  6
Continuous
 62
     1
370
    15
100
AcDbSpline
210
0.0
220
0.0
230
1.0
 70
     8
 71
     3
 72
     9
 73
     5
 74
     0
 42
0.000000001
 43
0.00000001
 40
0.0
 40
0.0
 40
0.0
 40
0.0
 40
0.446692429661169
 40
1.0
 40
1.0
 40
1.0
 40
1.0
 10
40.87993965545569
 20
2.237319588051911
 30
0.0
 10
40.51964666068731
 20
2.408675094358737
 30
0.0
 10
39.71306707517326
 20
2.792284698928944
 30
0.0
 10
38.90454396502308
 20
3.214961231467288
 30
0.0
 10
38.45718200738308
 20
3.448831356725321
 30
0.0
1001
PE_URL
1000

  0
SPLINE
  5
9F
330
1F
100
AcDbEntity
  8
0
  6
Continuous
 62
     1
370
    15
100
AcDbSpline
210
0.0
220
0.0
230
1.0
 70
     8
 71
     3
 72
    18
 73
    14
 74
     0
 42
0.000000001
 43
0.00000001
 40
0.0
 40
0.0
 40
0.0
 40
0.0
 40
0.1354347531817371
 40
0.2514326089467184
 40
0.3242404904486538
 40
0.3937078799558554
 40
0.459523758711014
 40
0.5219067679593874
 40
0.5818831253938411
 40
0.662734788746476
 40
0.7749308461981449
 40
0.9191632517659505
 40
1.0
 40
1.0
 40
1.0
 40
1.0
 10
37.99404315312152
 20
6.938204673672835
 30
0.0
 10
37.71956328683125
 20
6.921904285235667
 30
0.0
 10
37.20999548932433
 20
6.891642856058013
 30
0.0
 10
36.41811709972757
 20
6.855857585219198
 30
0.0
 10
35.78374244648757
 20
6.844477340060956
 30
0.0
 10
35.27440905578753
 20
6.835041380175118
 30
0.0
 10
34.78832797114083
 20
6.827378098012891
 30
0.0
 10
34.32633179526088
 20
6.821937435662063
 30
0.0
 10
33.83266846923041
 20
6.818623441314903
 30
0.0
 10
33.22094780875682
 20
6.818218618890753
 30
0.0
 10
32.40559684457148
 20
6.825231784471367
 30
0.0
 10
31.59066137648873
 20
6.83896178096063
 30
0.0
 10
31.04690312226946
 20
6.858252583677262
 30
0.0
 10
30.85160470685351
 20
6.865181146459395
 30
0.0
1001
PE_URL
1000

  0
SPLINE
  5
A0
330
1F
100
AcDbEntity
  8
0
  6
Continuous
 62
     1
370
    15
100
AcDbSpline
210
0.0
220
0.0
230
1.0
 70
     8
 71
     3
 72
    28
 73
    24
 74
     0
 42
0.000000001
 43
0.00000001
 40
0.0
 40
0.0
 40
0.0
 40
0.0
 40
0.0645475256670354
 40
0.1147691556840875
 40
0.151514213690416
 40
0.1887629958379343
 40
0.2311638328577399
 40
0.2754104826035722
 40
0.3126329623675106
 40
0.3533239257468285
 40
0.392385741722221
 40
0.4370737704395749
 40
0.5004460973156933
 40
0.5658500676934456
 40
0.6150816098446455
 40
0.6578340089836664
 40
0.699907671132762
 40
0.7519897746580904
 40
0.7976622835620281
 40
0.8406038183779393
 40
0.8821612125480596
 40
0.9343037149101314
 40
1.0
 40
1.0
 40
1.0
 40
1.0
 10
60.25630762311922
 20
5.971761986964845
 30
0.0
 10
59.93244973606005
 20
5.945291624645069
 30
0.0
 10
59.35661207419295
 20
5.898225821538012
 30
0.0
 10
58.59093318884051
 20
5.849455376395396
 30
0.0
 10
57.95021605357228
 20
5.815347092303943
 30
0.0
 10
57.3517947059589
 20
5.789132757035869
 30
0.0
 10
56.71914138149678
 20
5.767887499869255
 30
0.0
 10
56.08955927575782
 20
5.753725093341918
 30
0.0
 10
55.46840221228489
 20
5.746210339674966
 30
0.0
 10
54.87370999577166
 20
5.744982095757818
 30
0.0
 10
54.24065778134184
 20
5.750193074768457
 30
0.0
 10
53.49197580265547
 20
5.764386000489885
 30
0.0
 10
52.60951643274822
 20
5.793308188101228
 30
0.0
 10
51.70456005306627
 20
5.837962562243733
 30
0.0
 10
50.90323662431963
 20
5.888839143930439
 30
0.0
 10
50.22245556413043
 20
5.939807440884081
 30
0.0
 10
49.52980468495925
 20
5.998932547886688
 30
0.0
 10
48.81807112191723
 20
6.067817034716586
 30
0.0
 10
48.0989083878661
 20
6.145497269962973
 30
0.0
 10
47.42832217889558
 20
6.224797349885614
 30
0.0
 10
46.71849977946577
 20
6.315152261398337
 30
0.0
 10
45.91143216049916
 20
6.427126097320612
 30
0.0
 10
45.32777093747206
 20
6.516972185891459
 30
0.0
 10
45.00237405472215
 20
6.567062265538341
 30
0.0
1001
PE_URL
1000

  0
SPLINE
  5
A1
330
1F
100
AcDbEntity
  8
0
  6
Continuous
 62
     1
370
    15
100
AcDbSpline
210
0.0
220
0.0
230
1.0
 70
     8
 71
     3
 72
    16
 73
    12
 74
     0
 42
0.000000001
 43
0.00000001
 40
0.0
 40
0.0
 40
0.0
 40
0.0
 40
0.1625467286424282
 40
0.2893272582420611
 40
0.3919966727373561
 40
0.5004434236274273
 40
0.6137691907785096
 40
0.7121646507004681
 40
0.8084283172329532
 40
0.9073036605719438
 40
0.9999999999999999
 40
0.9999999999999999
 40
0.9999999999999999
 40
0.9999999999999999
 10
45.00237405472215
 20
-6.567062265538348
 30
0.0
 10
45.34528832253632
 20
-6.514323071550871
 30
0.0
 10
45.9556632328614
 20
-6.420449226621887
 30
0.0
 10
46.80371222574544
 20
-6.303732702254567
 30
0.0
 10
47.55188607290889
 20
-6.209605108791595
 30
0.0
 10
48.26253311915786
 20
-6.127019480658324
 30
0.0
 10
48.95841583504301
 20
-6.053842734040982
 30
0.0
 10
49.62581653143949
 20
-5.990502793627569
 30
0.0
 10
50.25828465164092
 20
-5.937125035462949
 30
0.0
 10
50.88113720638707
 20
-5.890173536762023
 30
0.0
 10
51.29648293719631
 20
-5.864909158944579
 30
0.0
 10
51.49745746687096
 20
-5.852684412010284
 30
0.0
1001
PE_URL
1000

  0
SPLINE
  5
A2
330
1F
100
AcDbEntity
  8
0
  6
Continuous
 62
     1
370
    15
100
AcDbSpline
210
0.0
220
0.0
230
1.0
 70
     8
 71
     3
 72
    16
 73
    12
 74
     0
 42
0.000000001
 43
0.00000001
 40
0.0
 40
0.0
 40
0.0
 40
0.0
 40
0.1366175574291832
 40
0.24093116527088
 40
0.3160592929589247
 40
0.3885434126417432
 40
0.4663063049195209
 40
0.5726744923667297
 40
0.694225216427146
 40
0.8361698660206568
 40
1.0
 40
1.0
 40
1.0
 40
1.0
 10
30.16250000000002
 20
-6.888091293871606
 30
0.0
 10
30.52005990015513
 20
-6.874731176056142
 30
0.0
 10
31.15063275637945
 20
-6.851170011488371
 30
0.0
 10
31.97315337265997
 20
-6.832980031040747
 30
0.0
 10
32.59573217234546
 20
-6.821580660361288
 30
0.0
 10
33.18073086336518
 20
-6.815633857401713
 30
0.0
 10
33.86383055560147
 20
-6.816467716996302
 30
0.0
 10
34.67971104045959
 20
-6.82547772165803
 30
0.0
 10
35.66817463901432
 20
-6.842820273463294
 30
0.0
 10
36.79093463787144
 20
-6.878282693561875
 30
0.0
 10
37.57431707726926
 20
-6.917299811600576
 30
0.0
 10
37.99404315312152
 20
-6.938204673672844
 30
0.0
1001
PE_URL
1000

  0
LINE
  5
A3
330
1F
100
AcDbEntity
  8
외형선
  6
Continuous
370
    15
100
AcDbLine
 10
26.20018467149223
 20
9.524999999999993
 30
0.0
 11
26.20018467149223
 21
-9.525
 31
0.0
  0
SPLINE
  5
A5
330
1F
100
AcDbEntity
  8
외형선
  6
Continuous
370
    15
100
AcDbSpline
210
0.0
220
0.0
230
1.0
 70
     8
 71
     3
 72
     8
 73
     4
 74
     0
 42
0.000000001
 43
0.00000001
 40
0.0
 40
0.0
 40
0.0
 40
0.0
 40
1.0
 40
1.0
 40
1.0
 40
1.0
 10
29.16250000000002
 20
7.443336307905989
 30
0.0
 10
28.47602943926582
 20
7.765846021466198
 30
0.0
 10
27.79282103326038
 20
8.081145274132304
 30
0.0
 10
27.1125433882128
 20
8.387569359733641
 30
0.0
  0
LINE
  5
A6
330
1F
100
AcDbEntity
  8
외형선
  6
Continuous
370
    15
100
AcDbLine
 10
29.16250000000002
 20
7.443336307905273
 30
0.0
 11
29.16250000000002
 21
5.893302338088226
 31
0.0
  0
SPLINE
  5
A7
330
1F
100
AcDbEntity
  8
외형선
  6
Continuous
370
    15
100
AcDbSpline
210
0.0
220
0.0
230
1.0
 70
     8
 71
     3
 72
     8
 73
     4
 74
     0
 42
0.000000001
 43
0.00000001
 40
0.0
 40
0.0
 40
0.0
 40
0.0
 40
1.0
 40
1.0
 40
1.0
 40
1.0
 10
27.11252121119524
 20
6.991760381790962
 30
0.0
 10
27.79674792176825
 20
6.633125320367039
 30
0.0
 10
28.47991800701239
 20
6.266833103358819
 30
0.0
 10
29.16250000000002
 20
5.893302338088226
 30
0.0
  0
LINE
  5
A8
330
1F
100
AcDbEntity
  8
외형선
  6
Continuous
370
    15
100
AcDbLine
 10
27.11252121119524
 20
-9.280540160961179
 30
0.0
 11
27.11252121119524
 21
6.991851580216584
 31
0.0
  0
SPLINE
  5
A9
330
1F
100
AcDbEntity
  8
외형선
  6
Continuous
370
    15
100
AcDbSpline
210
0.0
220
0.0
230
1.0
 70
     8
 71
     3
 72
     8
 73
     4
 74
     0
 42
0.000000001
 43
0.00000001
 40
0.0
 40
0.0
 40
0.0
 40
0.0
 40
1.0
 40
1.0
 40
1.0
 40
1.0
 10
29.16250000000002
 20
-7.443336307905997
 30
0.0
 10
28.47602943926582
 20
-7.765846021466206
 30
0.0
 10
27.79282103326038
 20
-8.081145274132314
 30
0.0
 10
27.1125433882128
 20
-8.387569359733652
 30
0.0
  0
LINE
  5
AA
330
1F
100
AcDbEntity
  8
외형선
  6
Continuous
370
    15
100
AcDbLine
 10
27.11252121119524
 20
8.38762017234889
 30
0.0
 11
27.11252121119524
 21
9.280540160961166
 31
0.0
  0
SPLINE
  5
AC
330
1F
100
AcDbEntity
  8
외형선
  6
Continuous
370
    15
100
AcDbSpline
210
0.0
220
0.0
230
1.0
 70
    24
 71
     3
 72
    10
 73
     6
 74
     0
 42
0.000000001
 43
0.00000001
 40
0.0
 40
0.0
 40
0.0
 40
0.0
 40
0.5
 40
0.5
 40
1.0
 40
1.0
 40
1.0
 40
1.0
 10
30.16250000000002
 20
5.454219442162876
 30
0.0
 10
30.16250000000002
 20
5.285500558857165
 30
0.0
 10
30.16250000000002
 20
5.028372940876093
 30
0.0
 10
30.16250000000002
 20
4.389667530212652
 30
0.0
 10
30.16250000000002
 20
4.010274382368705
 30
0.0
 10
30.16250000000002
 20
3.618544720069547
 30
0.0
  0
SPLINE
  5
AD
330
1F
100
AcDbEntity
  8
외형선
  6
Continuous
370
    15
100
AcDbSpline
210
0.0
220
0.0
230
1.0
 70
     8
 71
     3
 72
    10
 73
     6
 74
     0
 42
0.000000001
 43
0.00000001
 40
0.0
 40
0.0
 40
0.0
 40
0.0
 40
0.5000000000000001
 40
0.5000000000000001
 40
1.0
 40
1.0
 40
1.0
 40
1.0
 10
30.16250000001482
 20
3.618544720064718
 30
0.0
 10
29.65532713704568
 20
3.78401504566844
 30
0.0
 10
29.14745034645253
 20
3.943433996975306
 30
0.0
 10
28.12833444982376
 20
4.248692153354718
 30
0.0
 10
27.61909369539693
 20
4.394319662151581
 30
0.0
 10
27.11252655837049
 20
4.532024749129773
 30
0.0
  0
SPLINE
  5
AE
330
1F
100
AcDbEntity
  8
외형선
  6
Continuous
370
    15
100
AcDbSpline
210
0.0
220
0.0
230
1.0
 70
     8
 71
     3
 72
     8
 73
     4
 74
     0
 42
0.000000001
 43
0.00000001
 40
0.0
 40
0.0
 40
0.0
 40
0.0
 40
1.0
 40
1.0
 40
1.0
 40
1.0
 10
30.16250000000002
 20
5.454219442162876
 30
0.0
 10
29.8294515574757
 20
5.604629864201701
 30
0.0
 10
29.49673096909741
 20
5.751013095313214
 30
0.0
 10
29.1625
 20
5.893302338088235
 30
0.0
  0
SPLINE
  5
AF
330
1F
100
AcDbEntity
  8
외형선
  6
Continuous
370
    15
100
AcDbSpline
210
0.0
220
0.0
230
1.0
 70
     8
 71
     3
 72
     8
 73
     4
 74
     0
 42
0.000000001
 43
0.00000001
 40
0.0
 40
0.0
 40
0.0
 40
0.0
 40
1.0
 40
1.0
 40
1.0
 40
1.0
 10
30.1625000000056
 20
7.125104089956632
 30
0.0
 10
29.82945155747941
 20
7.2364335220931
 30
0.0
 10
29.49673096909929
 20
7.342529802935784
 30
0.0
 10
29.16250000000002
 20
7.443336307905275
 30
0.0
  0
LINE
  5
B0
330
1F
100
AcDbEntity
  8
외형선
  6
Continuous
370
    15
100
AcDbLine
 10
30.16250000000002
 20
7.125104089958493
 30
0.0
 11
30.16250000000002
 21
5.454219442162878
 31
0.0
  0
SPLINE
  5
B1
330
1F
100
AcDbEntity
  8
외형선
  6
Continuous
370
    15
100
AcDbSpline
210
0.0
220
0.0
230
1.0
 70
     8
 71
     3
 72
    10
 73
     6
 74
     0
 42
0.000000001
 43
0.00000001
 40
0.0
 40
0.0
 40
0.0
 40
0.0
 40
0.5
 40
0.5
 40
1.0
 40
1.0
 40
1.0
 40
1.0
 10
30.16250000000002
 20
-5.629212450747411
 30
0.0
 10
29.65532759695707
 20
-5.490284405128205
 30
0.0
 10
29.1474512702837
 20
-5.341758336571377
 30
0.0
 10
28.12833629849703
 20
-5.026743213779032
 30
0.0
 10
27.61909597993037
 20
-4.860449377901091
 30
0.0
 10
27.11252931461668
 20
-4.686519022214093
 30
0.0
  0
SPLINE
  5
B2
330
1F
100
AcDbEntity
  8
외형선
  6
Continuous
370
    15
100
AcDbSpline
210
0.0
220
0.0
230
1.0
 70
    24
 71
     3
 72
    14
 73
    10
 74
     0
 42
0.000000001
 43
0.00000001
 40
0.0
 40
0.0
 40
0.0
 40
0.0
 40
0.25
 40
0.25
 40
0.5
 40
0.5
 40
0.75
 40
0.75
 40
1.0
 40
1.0
 40
1.0
 40
1.0
 10
30.16250000000002
 20
3.618544720069545
 30
0.0
 10
30.16250000000002
 20
2.912017973097539
 30
0.0
 10
30.16250000000002
 20
2.144225820731692
 30
0.0
 10
30.16250000000002
 20
0.5452340857728674
 30
0.0
 10
30.16250000000002
 20
-0.2853114642618972
 30
0.0
 10
30.16250000000002
 20
-1.928904536621108
 30
0.0
 10
30.16250000000002
 20
-2.741076283840901
 30
0.0
 10
30.16250000000002
 20
-4.270057893380264
 30
0.0
 10
30.16250000000002
 20
-4.986312056140343
 30
0.0
 10
30.16250000000002
 20
-5.629212450747411
 30
0.0
  0
SPLINE
  5
B3
330
1F
100
AcDbEntity
  8
외형선
  6
Continuous
370
    15
100
AcDbSpline
210
0.0
220
0.0
230
1.0
 70
    24
 71
     3
 72
    11
 73
     7
 74
     0
 42
0.000000001
 43
0.00000001
 40
0.0
 40
0.0
 40
0.0
 40
0.0
 40
0.2186952354664771
 40
0.4373904709329544
 40
0.7574146994116339
 40
1.0
 40
1.0
 40
1.0
 40
1.0
 10
30.16250000000002
 20
-5.629212450747411
 30
0.0
 10
30.16250000000002
 20
-5.798925079874426
 30
0.0
 10
30.16250000000002
 20
-6.138350338128458
 30
0.0
 10
30.16250000000002
 20
-6.556847432657721
 30
0.0
 10
30.16250000000002
 20
-6.851060658821242
 30
0.0
 10
30.16250000000002
 20
-6.857888097811973
 30
0.0
 10
30.16250000000002
 20
-6.860831944750652
 30
0.0
  0
SPLINE
  5
B4
330
1F
100
AcDbEntity
  8
외형선
  6
Continuous
370
    15
100
AcDbSpline
210
0.0
220
0.0
230
1.0
 70
     8
 71
     3
 72
     8
 73
     4
 74
     0
 42
0.000000001
 43
0.00000001
 40
0.0
 40
0.0
 40
0.0
 40
0.0
 40
1.0
 40
1.0
 40
1.0
 40
1.0
 10
30.1625000000056
 20
-7.125104089956639
 30
0.0
 10
29.82945155747941
 20
-7.23643352209311
 30
0.0
 10
29.49673096909929
 20
-7.342529802935791
 30
0.0
 10
29.16250000000002
 20
-7.443336307905282
 30
0.0
  0
SPLINE
  5
B5
330
1F
100
AcDbEntity
  8
외형선
  6
Continuous
370
    15
100
AcDbSpline
210
0.0
220
0.0
230
1.0
 70
    24
 71
     3
 72
     9
 73
     5
 74
     0
 42
0.000000001
 43
0.00000001
 40
0.0
 40
0.0
 40
0.0
 40
0.0
 40
0.3594572111976143
 40
1.0
 40
1.0
 40
1.0
 40
1.0
 10
30.16250000000002
 20
-6.948829576852093
 30
0.0
 10
30.16250000000002
 20
-6.971169512760478
 30
0.0
 10
30.16250000000002
 20
-7.033318595356307
 30
0.0
 10
30.16250000000002
 20
-7.089266843229483
 30
0.0
 10
30.16250000000002
 20
-7.125104089950772
 30
0.0
  0
SPLINE
  5
B6
330
1F
100
AcDbEntity
  8
0
  6
Continuous
 62
     1
370
    15
100
AcDbSpline
210
0.0
220
0.0
230
1.0
 70
     8
 71
     3
 72
    48
 73
    44
 74
     0
 42
0.000000001
 43
0.00000001
 40
0.0
 40
0.0
 40
0.0
 40
0.0
 40
0.0624999999999998
 40
0.0624999999999998
 40
0.0937499999999997
 40
0.0937499999999997
 40
0.1249999999999996
 40
0.1249999999999996
 40
0.1562499999999995
 40
0.1562499999999995
 40
0.1874999999999994
 40
0.1874999999999994
 40
0.2499999999999992
 40
0.2499999999999992
 40
0.3124999999999991
 40
0.3124999999999991
 40
0.3749999999999989
 40
0.3749999999999989
 40
0.406249999999999
 40
0.406249999999999
 40
0.4374999999999991
 40
0.4374999999999991
 40
0.4999999999999992
 40
0.4999999999999992
 40
0.5624999999999993
 40
0.5624999999999993
 40
0.6249999999999996
 40
0.6249999999999996
 40
0.6562499999999997
 40
0.6562499999999997
 40
0.6874999999999998
 40
0.6874999999999998
 40
0.7499999999999998
 40
0.7499999999999998
 40
0.8125
 40
0.8125
 40
0.875
 40
0.875
 40
0.90625
 40
0.90625
 40
0.9375
 40
0.9375
 40
1.0
 40
1.0
 40
1.0
 40
1.0
 10
63.50000000000003
 20
-8.723870480473826
 30
0.0
 10
62.80844557498162
 20
-8.707411489314584
 30
0.0
 10
62.11026251960914
 20
-8.663248817927586
 30
0.0
 10
61.06787305327872
 20
-8.55618879099196
 30
0.0
 10
60.72232612291507
 20
-8.513780422478794
 30
0.0
 10
60.02892011390992
 20
-8.415500560481902
 30
0.0
 10
59.6809507880576
 20
-8.359605331672572
 30
0.0
 10
58.98495059099401
 20
-8.23465227172682
 30
0.0
 10
58.63692167983636
 20
-8.165594788936069
 30
0.0
 10
57.94327873793228
 20
-8.01485299290406
 30
0.0
 10
57.59786422230953
 20
-7.933201909695021
 30
0.0
 10
56.55571788205835
 20
-7.669164105399941
 30
0.0
 10
55.85745847670603
 20
-7.467904704038805
 30
0.0
 10
54.47372719173902
 20
-7.02081911090669
 30
0.0
 10
53.77624282391118
 20
-6.773718687993835
 30
0.0
 10
52.38608872663578
 20
-6.238766305056469
 30
0.0
 10
51.69484045062205
 20
-5.951210227097273
 30
0.0
 10
50.6508572623819
 20
-5.492036778097606
 30
0.0
 10
50.30277446988924
 20
-5.334489946018042
 30
0.0
 10
49.60890587150057
 20
-5.011564980038563
 30
0.0
 10
49.26358376452917
 20
-4.846271242944028
 30
0.0
 10
48.22169755655743
 20
-4.338351301289596
 30
0.0
 10
47.52337332897001
 20
-3.984270688422631
 30
0.0
 10
46.13904196885234
 20
-3.255300401526214
 30
0.0
 10
45.44222220631704
 20
-2.878534862921714
 30
0.0
 10
44.05178934258224
 20
-2.10973346544555
 30
0.0
 10
43.36071738005035
 20
-1.718210476485996
 30
0.0
 10
42.3167684055863
 20
-1.123257653463595
 30
0.0
 10
41.96863743867893
 20
-0.9238643320400363
 30
0.0
 10
41.27455447249699
 20
-0.5243491348586082
 30
0.0
 10
40.92928476306454
 20
-0.3243598620060602
 30
0.0
 10
39.88767567939676
 20
0.2770171591730909
 30
0.0
 10
39.18929816090355
 20
0.679085680938983
 30
0.0
 10
37.80438911796215
 20
1.474137251681135
 30
0.0
 10
37.10819984234422
 20
1.868965386134874
 30
0.0
 10
35.71751093639585
 20
2.643988238556748
 30
0.0
 10
35.02658085597892
 20
3.023546123283693
 30
0.0
 10
33.98268319984308
 20
3.578111601494014
 30
0.0
 10
33.63450976807928
 20
3.760312658416398
 30
0.0
 10
32.94022373446275
 20
4.118123950759546
 30
0.0
 10
32.59496640860875
 20
4.293597188123123
 30
0.0
 10
31.55365142617256
 20
4.810361305615872
 30
0.0
 10
30.85523215105014
 20
5.141369652475808
 30
0.0
 10
30.16250000000559
 20
5.454219442160359
 30
0.0
1001
PE_URL
1000

  0
SPLINE
  5
B7
330
1F
100
AcDbEntity
  8
0
  6
Continuous
 62
     1
370
    15
100
AcDbSpline
210
0.0
220
0.0
230
1.0
 70
     8
 71
     3
 72
    11
 73
     7
 74
     0
 42
0.000000001
 43
0.00000001
 40
0.0
 40
0.0
 40
0.0
 40
0.0
 40
0.2216118073868421
 40
0.4816273868434903
 40
0.7408265713647479
 40
1.0
 40
1.0
 40
1.0
 40
1.0
 10
41.8252269264205
 20
-0.836870926228094
 30
0.0
 10
40.96368298023718
 20
-0.49008408132049
 30
0.0
 10
39.09129556395305
 20
0.2635853367218305
 30
0.0
 10
36.21125655034954
 20
1.423081166315503
 30
0.0
 10
33.18522166762686
 20
2.591945029751422
 30
0.0
 10
31.17004051374715
 20
3.276356158524668
 30
0.0
 10
30.16250000000002
 20
3.618544720069546
 30
0.0
1001
PE_URL
1000

  0
SPLINE
  5
B8
330
1F
100
AcDbEntity
  8
외형선
  6
Continuous
370
    15
100
AcDbSpline
210
0.0
220
0.0
230
1.0
 70
    24
 71
     3
 72
    10
 73
     6
 74
     0
 42
0.000000001
 43
0.00000001
 40
0.0
 40
0.0
 40
0.0
 40
0.0
 40
0.5
 40
0.5
 40
1.0
 40
1.0
 40
1.0
 40
1.0
 10
30.16250000000002
 20
5.454219442162878
 30
0.0
 10
30.16250000000002
 20
5.285500558857165
 30
0.0
 10
30.16250000000002
 20
5.028372940876093
 30
0.0
 10
30.16250000000002
 20
4.389667530212654
 30
0.0
 10
30.16250000000002
 20
4.010274382368703
 30
0.0
 10
30.16250000000002
 20
3.618544720069547
 30
0.0
  0
SPLINE
  5
B9
330
1F
100
AcDbEntity
  8
0
  6
Continuous
 62
     1
370
    15
100
AcDbSpline
210
0.0
220
0.0
230
1.0
 70
     8
 71
     3
 72
    48
 73
    44
 74
     0
 42
0.000000001
 43
0.00000001
 40
0.0
 40
0.0
 40
0.0
 40
0.0
 40
0.0625000000000005
 40
0.0625000000000005
 40
0.0937500000000005
 40
0.0937500000000005
 40
0.1250000000000006
 40
0.1250000000000006
 40
0.1562500000000006
 40
0.1562500000000006
 40
0.1875000000000006
 40
0.1875000000000006
 40
0.2500000000000007
 40
0.2500000000000007
 40
0.3125000000000007
 40
0.3125000000000007
 40
0.3750000000000008
 40
0.3750000000000008
 40
0.4062500000000008
 40
0.4062500000000008
 40
0.4375000000000008
 40
0.4375000000000008
 40
0.5000000000000008
 40
0.5000000000000008
 40
0.5625000000000009
 40
0.5625000000000009
 40
0.6250000000000008
 40
0.6250000000000008
 40
0.6562500000000008
 40
0.6562500000000008
 40
0.6875000000000007
 40
0.6875000000000007
 40
0.7500000000000004
 40
0.7500000000000004
 40
0.8125000000000003
 40
0.8125000000000003
 40
0.8750000000000003
 40
0.8750000000000003
 40
0.9062500000000002
 40
0.9062500000000002
 40
0.9375000000000001
 40
0.9375000000000001
 40
1.0
 40
1.0
 40
1.0
 40
1.0
 10
63.50000000000002
 20
-8.28543996448103
 30
0.0
 10
62.80844557498157
 20
-8.159129245600045
 30
0.0
 10
62.11026251960902
 20
-8.00615511240749
 30
0.0
 10
61.06787305327853
 20
-7.739764315949557
 30
0.0
 10
60.72232612291485
 20
-7.644946371431118
 30
0.0
 10
60.02892011390964
 20
-7.443184927602909
 30
0.0
 10
59.68095078805732
 20
-7.33621413735427
 30
0.0
 10
58.98495059099366
 20
-7.110809483703756
 30
0.0
 10
58.63692167983598
 20
-6.992376251996404
 30
0.0
 10
57.94327873793186
 20
-6.744928058032343
 30
0.0
 10
57.59786422230907
 20
-6.615952683381804
 30
0.0
 10
56.55571788205782
 20
-6.212909942849009
 30
0.0
 10
55.85745847670544
 20
-5.923162346132462
 30
0.0
 10
54.47372719173833
 20
-5.309931900798689
 30
0.0
 10
53.77624282391043
 20
-4.984693161579827
 30
0.0
 10
52.38608872663492
 20
-4.305459062588462
 30
0.0
 10
51.69484045062115
 20
-3.951778798369998
 30
0.0
 10
50.65085726238092
 20
-3.402989366068342
 30
0.0
 10
50.30277446988823
 20
-3.217200901892205
 30
0.0
 10
49.60890587149953
 20
-2.841244144390238
 30
0.0
 10
49.26358376452809
 20
-2.651166802574654
 30
0.0
 10
48.22169755655626
 20
-2.074018410476446
 30
0.0
 10
47.52337332896879
 20
-1.680754908705632
 30
0.0
 10
46.13904196885103
 20
-0.8884178900415381
 30
0.0
 10
45.44222220631566
 20
-0.487295714197482
 30
0.0
 10
44.05178934258077
 20
0.3148936689246524
 30
0.0
 10
43.3607173800488
 20
0.715464588995293
 30
0.0
 10
42.31676840558468
 20
1.312437930232685
 30
0.0
 10
41.96863743867728
 20
1.510574023150896
 30
0.0
 10
41.2745544724953
 20
1.903732661145057
 30
0.0
 10
40.92928476306282
 20
2.09863076594258
 30
0.0
 10
39.88767567939495
 20
2.678974773927939
 30
0.0
 10
39.1892981609017
 20
3.059316196119404
 30
0.0
 10
37.8043891179602
 20
3.796161413627424
 30
0.0
 10
37.1081998423422
 20
4.154388264022924
 30
0.0
 10
35.71751093639374
 20
4.842004344903232
 30
0.0
 10
35.02658085597675
 20
5.17086382963421
 30
0.0
 10
33.98268319984083
 20
5.639258479847511
 30
0.0
 10
33.634509768077
 20
5.791073171189746
 30
0.0
 10
32.94022373446042
 20
6.085010069746877
 30
0.0
 10
32.5949664086064
 20
6.227026533729481
 30
0.0
 10
31.55365142617011
 20
6.638739978518742
 30
0.0
 10
30.85523215104764
 20
6.893541749015474
 30
0.0
 10
30.16250000000305
 20
7.12510408995748
 30
0.0
1001
PE_URL
1000

  0
SPLINE
  5
BA
330
1F
100
AcDbEntity
  8
0
  6
Continuous
 62
     1
370
    15
100
AcDbSpline
210
0.0
220
0.0
230
1.0
 70
     8
 71
     3
 72
    15
 73
    11
 74
     0
 42
0.000000001
 43
0.00000001
 40
0.0
 40
0.0
 40
0.0
 40
0.0
 40
0.1337660464451026
 40
0.2675485662185618
 40
0.4013442076882262
 40
0.5351496034523953
 40
0.6689613743684805
 40
0.8027761336119416
 40
0.9365904907550647
 40
1.0
 40
1.0
 40
1.0
 40
1.0
 10
63.50000000000003
 20
-6.888714083264991
 30
0.0
 10
62.48949183629338
 20
-6.677428371352573
 30
0.0
 10
60.46835106449955
 20
-6.25483092762955
 30
0.0
 10
57.43640527360623
 20
-5.296426661993807
 30
0.0
 10
54.40412282046013
 20
-4.145488970751325
 30
0.0
 10
51.37158534107704
 20
-2.823453458819881
 30
0.0
 10
48.3388820440173
 20
-1.388337943281945
 30
0.0
 10
45.30610190009098
 20
0.0978186471836438
 30
0.0
 10
42.80519033258645
 20
1.33537793641289
 30
0.0
 10
41.31522451027129
 20
2.02435634086787
 30
0.0
 10
40.8361851155216
 20
2.245870011129706
 30
0.0
1001
PE_URL
1000

  0
LINE
  5
BB
330
1F
100
AcDbEntity
  8
0
  6
Continuous
 62
     1
370
    15
100
AcDbLine
 10
63.50000000000003
 20
-8.285439964481034
 30
0.0
 11
63.50000000000003
 21
-6.888714083264991
 31
0.0
1001
PE_URL
1000

  0
LINE
  5
BC
330
1F
100
AcDbEntity
  8
0
  6
Continuous
 62
     1
370
    15
100
AcDbLine
 10
63.50000000000003
 20
-8.723870480473835
 30
0.0
 11
63.50000000000003
 21
-8.285439964481034
 31
0.0
1001
PE_URL
1000

  0
SPLINE
  5
BD
330
1F
100
AcDbEntity
  8
0
  6
Continuous
 62
     1
370
    15
100
AcDbSpline
210
0.0
220
0.0
230
1.0
 70
     8
 71
     3
 72
    12
 73
     8
 74
     0
 42
0.000000001
 43
0.00000001
 40
0.0
 40
0.0
 40
0.0
 40
0.0
 40
0.5000000000000012
 40
0.5000000000000012
 40
0.7500000000000006
 40
0.7500000000000006
 40
1.0
 40
1.0
 40
1.0
 40
1.0
 10
63.50000000000003
 20
-2.333364972521336
 30
0.0
 10
62.63841227284943
 20
-1.656014814730529
 30
0.0
 10
61.79013583843047
 20
-0.9529895420475818
 30
0.0
 10
60.53796290663971
 20
0.1405910424649128
 30
0.0
 10
60.12398972905427
 20
0.5117102313397075
 30
0.0
 10
59.30355214437908
 20
1.268431691165966
 30
0.0
 10
58.89603744039585
 20
1.655143439575839
 30
0.0
 10
58.50000000000002
 20
2.043313044166093
 30
0.0
1001
PE_URL
1000

  0
LINE
  5
BE
330
1F
100
AcDbEntity
  8
0
  6
Continuous
 62
     1
370
    15
100
AcDbLine
 10
58.50000000000002
 20
2.937719435296588
 30
0.0
 11
63.50000000000003
 21
0.0
 31
0.0
1001
PE_URL
1000

  0
LINE
  5
BF
330
1F
100
AcDbEntity
  8
0
  6
Continuous
 62
     1
370
    15
100
AcDbLine
 10
63.50000000000003
 20
0.0
 30
0.0
 11
63.50000000000003
 21
-2.333364972521337
 31
0.0
1001
PE_URL
1000

  0
SPLINE
  5
C0
330
1F
100
AcDbEntity
  8
0
  6
Continuous
 62
     1
370
    15
100
AcDbSpline
210
0.0
220
0.0
230
1.0
 70
     8
 71
     3
 72
    14
 73
    10
 74
     0
 42
0.000000001
 43
0.00000001
 40
0.0
 40
0.0
 40
0.0
 40
0.0
 40
0.1547309428126989
 40
0.3094248961475596
 40
0.4641510702215828
 40
0.6189117859060591
 40
0.773691680390165
 40
0.925708996181158
 40
1.0
 40
1.0
 40
1.0
 40
1.0
 10
58.50000000000001
 20
2.26722178401857
 30
0.0
 10
57.44218545370638
 20
2.719707779806101
 30
0.0
 10
55.32680923883707
 20
3.624571601545126
 30
0.0
 10
52.15384161531744
 20
4.796842731036429
 30
0.0
 10
48.98051195745428
 20
5.764415279584863
 30
0.0
 10
45.80651236046769
 20
6.481494170823661
 30
0.0
 10
42.65095693243804
 20
6.896099899109633
 30
0.0
 10
40.04561113102093
 20
7.040871966678625
 30
0.0
 10
38.49843792154024
 20
6.935783811500025
 30
0.0
 10
37.99054209600406
 20
6.901286164435401
 30
0.0
1001
PE_URL
1000

  0
SPLINE
  5
C1
330
1F
100
AcDbEntity
  8
0
  6
Continuous
 62
     1
370
    15
100
AcDbSpline
210
0.0
220
0.0
230
1.0
 70
    24
 71
     3
 72
     8
 73
     4
 74
     0
 42
0.000000001
 43
0.00000001
 40
0.0
 40
0.0
 40
0.0
 40
0.0
 40
1.0
 40
1.0
 40
1.0
 40
1.0
 10
58.50000000000004
 20
2.043313044166096
 30
0.0
 10
58.50000000000004
 20
2.118317755926374
 30
0.0
 10
58.50000000000003
 20
2.19296315567123
 30
0.0
 10
58.50000000000003
 20
2.26722178401857
 30
0.0
1001
PE_URL
1000

  0
SPLINE
  5
C2
330
1F
100
AcDbEntity
  8
0
  6
Continuous
 62
     1
370
    15
100
AcDbSpline
210
0.0
220
0.0
230
1.0
 70
    24
 71
     3
 72
    10
 73
     6
 74
     0
 42
0.000000001
 43
0.00000001
 40
0.0
 40
0.0
 40
0.0
 40
0.0
 40
0.5
 40
0.5
 40
1.0
 40
1.0
 40
1.0
 40
1.0
 10
63.50000000000003
 20
-6.888714083264989
 30
0.0
 10
63.50000000000004
 20
-6.360640440239475
 30
0.0
 10
63.50000000000004
 20
-5.693399143858358
 30
0.0
 10
63.50000000000002
 20
-4.142127344584376
 30
0.0
 10
63.50000000000004
 20
-3.25944061214175
 30
0.0
 10
63.50000000000003
 20
-2.333364972521617
 30
0.0
1001
PE_URL
1000

  0
SPLINE
  5
C3
330
1F
100
AcDbEntity
  8
0
  6
Continuous
 62
     1
370
    15
100
AcDbSpline
210
0.0
220
0.0
230
1.0
 70
    24
 71
     3
 72
    10
 73
     6
 74
     0
 42
0.000000001
 43
0.00000001
 40
0.0
 40
0.0
 40
0.0
 40
0.0
 40
0.5
 40
0.5
 40
1.0
 40
1.0
 40
1.0
 40
1.0
 10
58.50000000000002
 20
2.267221784018571
 30
0.0
 10
58.50000000000001
 20
2.673213831087894
 30
0.0
 10
58.50000000000004
 20
3.061056462287583
 30
0.0
 10
58.50000000000002
 20
3.778834532892279
 30
0.0
 10
58.50000000000003
 20
4.108657260640909
 30
0.0
 10
58.50000000000002
 20
4.399952607361764
 30
0.0
1001
PE_URL
1000

  0
SPLINE
  5
C4
330
1F
100
AcDbEntity
  8
0
  6
Continuous
 62
     1
370
    15
100
AcDbSpline
210
0.0
220
0.0
230
1.0
 70
     8
 71
     3
 72
     9
 73
     5
 74
     0
 42
0.000000001
 43
0.00000001
 40
0.0
 40
0.0
 40
0.0
 40
0.0
 40
0.9339428493269405
 40
1.0
 40
1.0
 40
1.0
 40
1.0
 10
63.50000000000003
 20
6.111874999999996
 30
0.0
 10
62.48949353625023
 20
6.108411999029073
 30
0.0
 10
61.40751462878492
 20
6.104704062324576
 30
0.0
 10
60.32551426346275
 20
5.972545330332605
 30
0.0
 10
60.25404040230234
 20
5.96381530106065
 30
0.0
1001
PE_URL
1000

  0
SPLINE
  5
C5
330
1F
100
AcDbEntity
  8
0
  6
Continuous
 62
     1
370
    15
100
AcDbSpline
210
0.0
220
0.0
230
1.0
 70
     8
 71
     3
 72
    10
 73
     6
 74
     0
 42
0.000000001
 43
0.00000001
 40
0.0
 40
0.0
 40
0.0
 40
0.0
 40
0.4999999999999994
 40
0.4999999999999994
 40
1.0
 40
1.0
 40
1.0
 40
1.0
 10
63.50000000000003
 20
6.111875
 30
0.0
 10
62.65588601914248
 20
5.882999830100323
 30
0.0
 10
61.81652983382607
 20
5.627531774560777
 30
0.0
 10
60.14803587579128
 20
5.059603747683955
 30
0.0
 10
59.31995936626261
 20
4.747974644908707
 30
0.0
 10
58.50000000000002
 20
4.399952607361743
 30
0.0
1001
PE_URL
1000

  0
SPLINE
  5
C6
330
1F
100
AcDbEntity
  8
0
  6
Continuous
 62
     1
370
    15
100
AcDbSpline
210
0.0
220
0.0
230
1.0
 70
     8
 71
     3
 72
    12
 73
     8
 74
     0
 42
0.000000001
 43
0.00000001
 40
0.0
 40
0.0
 40
0.0
 40
0.0
 40
0.160390311627518
 40
0.3703198572896014
 40
0.5802400414381571
 40
0.7901377702677796
 40
1.0
 40
1.0
 40
1.0
 40
1.0
 10
45.01420997949258
 20
-6.537956677056559
 30
0.0
 10
44.22016526927301
 20
-6.658370999140657
 30
0.0
 10
42.38682184106796
 20
-6.936391623437251
 30
0.0
 10
39.51427619675907
 20
-7.028738638725244
 30
0.0
 10
36.39663998332714
 20
-6.861686073162197
 30
0.0
 10
33.27937938967995
 20
-6.4119613688074
 30
0.0
 10
31.20140121836644
 20
-5.89011404589433
 30
0.0
 10
30.16250000001099
 20
-5.629212450750416
 30
0.0
1001
PE_URL
1000

  0
SPLINE
  5
C7
330
1F
100
AcDbEntity
  8
외형선
  6
Continuous
370
    15
100
AcDbSpline
210
0.0
220
0.0
230
1.0
 70
    24
 71
     3
 72
    14
 73
    10
 74
     0
 42
0.000000001
 43
0.00000001
 40
0.0
 40
0.0
 40
0.0
 40
0.0
 40
0.25
 40
0.25
 40
0.5
 40
0.5
 40
0.75
 40
0.75
 40
1.0
 40
1.0
 40
1.0
 40
1.0
 10
30.16250000000002
 20
3.618544720069545
 30
0.0
 10
30.16250000000002
 20
2.912017973097539
 30
0.0
 10
30.16250000000002
 20
2.144225820731692
 30
0.0
 10
30.16250000000002
 20
0.5452340857728674
 30
0.0
 10
30.16250000000002
 20
-0.2853114642618972
 30
0.0
 10
30.16250000000002
 20
-1.928904536621108
 30
0.0
 10
30.16250000000002
 20
-2.741076283840901
 30
0.0
 10
30.16250000000002
 20
-4.270057893380264
 30
0.0
 10
30.16250000000002
 20
-4.986312056140343
 30
0.0
 10
30.16250000000002
 20
-5.629212450747411
 30
0.0
  0
LINE
  5
C8
330
1F
100
AcDbEntity
  8
0
  6
Continuous
 62
     1
370
    15
100
AcDbLine
 10
63.50000000000003
 20
0.0
 30
0.0
 11
63.50000000000003
 21
6.111874999999998
 31
0.0
1001
PE_URL
1000

  0
SPLINE
  5
C9
330
1F
100
AcDbEntity
  8
외형선
  6
Continuous
370
    15
100
AcDbSpline
210
0.0
220
0.0
230
1.0
 70
    24
 71
     3
 72
    11
 73
     7
 74
     0
 42
0.000000001
 43
0.00000001
 40
0.0
 40
0.0
 40
0.0
 40
0.0
 40
0.2193889882863929
 40
0.4387779765727857
 40
0.7598173973142268
 40
1.0
 40
1.0
 40
1.0
 40
1.0
 10
30.16250000000002
 20
-5.629212450747411
 30
0.0
 10
30.16250000000002
 20
-5.798930094764613
 30
0.0
 10
30.16250000000002
 20
-6.138365382799016
 30
0.0
 10
30.16250000000002
 20
-6.556775636123565
 30
0.0
 10
30.16250000000002
 20
-6.850236319745408
 30
0.0
 10
30.16250000000002
 20
-6.857227820748322
 30
0.0
 10
30.16250000000002
 20
-6.86021992875097
 30
0.0
  0
SPLINE
  5
CA
330
1F
100
AcDbEntity
  8
0
  6
Continuous
 62
     1
370
    15
100
AcDbSpline
210
0.0
220
0.0
230
1.0
 70
     8
 71
     3
 72
    12
 73
     8
 74
     0
 42
0.000000001
 43
0.00000001
 40
0.0
 40
0.0
 40
0.0
 40
0.0
 40
0.0224302314902804
 40
0.2668368121123242
 40
0.5112347737286896
 40
0.7556229053569319
 40
1.0
 40
1.0
 40
1.0
 40
1.0
 10
51.49735764649461
 20
5.852638841544405
 30
0.0
 10
51.58709989351195
 20
5.893855289632763
 30
0.0
 10
52.65470078368931
 20
6.384178611496688
 30
0.0
 10
54.70010981551582
 20
7.122752343095117
 30
0.0
 10
57.63353979195478
 20
7.989403260227936
 30
0.0
 10
60.56682858311243
 20
8.558289489017048
 30
0.0
 10
62.52229091337264
 20
8.668677647559933
 30
0.0
 10
63.50000000000004
 20
8.723870480473817
 30
0.0
1001
PE_URL
1000

  0
SPLINE
  5
CB
330
1F
100
AcDbEntity
  8
0
  6
Continuous
 62
     1
370
    15
100
AcDbSpline
210
0.0
220
0.0
230
1.0
 70
    24
 71
     3
 72
    10
 73
     6
 74
     0
 42
0.000000001
 43
0.00000001
 40
0.0
 40
0.0
 40
0.0
 40
0.0
 40
0.5
 40
0.5
 40
1.0
 40
1.0
 40
1.0
 40
1.0
 10
63.50000000000003
 20
6.111874999999994
 30
0.0
 10
63.50000000000003
 20
6.482361642248852
 30
0.0
 10
63.50000000000003
 20
6.912901431296011
 30
0.0
 10
63.50000000000001
 20
7.816172749139462
 30
0.0
 10
63.50000000000003
 20
8.286597436341605
 30
0.0
 10
63.50000000000003
 20
8.723870480473826
 30
0.0
1001
PE_URL
1000

  0
LINE
  5
CC
330
1F
100
AcDbEntity
  8
0
  6
Continuous
 62
     1
370
    15
100
AcDbLine
 10
30.85411681344425
 20
-6.86423360665456
 30
0.0
 11
30.16250000000306
 21
-7.125104089957485
 31
0.0
1001
PE_URL
1000

  0
SPLINE
  5
CD
330
1F
100
AcDbEntity
  8
외형선
  6
Continuous
370
    15
100
AcDbSpline
210
0.0
220
0.0
230
1.0
 70
    24
 71
     3
 72
     9
 73
     5
 74
     0
 42
0.000000001
 43
0.00000001
 40
0.0
 40
0.0
 40
0.0
 40
0.0
 40
0.3652411027384023
 40
1.0
 40
1.0
 40
1.0
 40
1.0
 10
30.16250000000002
 20
-6.948829576852093
 30
0.0
 10
30.16250000000002
 20
-6.971078507417755
 30
0.0
 10
30.16250000000002
 20
-7.031994243349031
 30
0.0
 10
30.16250000000002
 20
-7.088950560734864
 30
0.0
 10
30.16250000000002
 20
-7.125104089950776
 30
0.0
  0
LINE
  5
CE
330
1F
100
AcDbEntity
  8
중심선
 62
     1
100
AcDbLine
 10
-70.5
 20
-0.000000000000009
 30
0.0
 11
70.5
 21
0.0000000000000075
 31
0.0
  0
LINE
  5
CF
330
1F
100
AcDbEntity
  8
참조1
100
AcDbLine
 10
0.0
 20
-0.0000000000000086
 30
0.0
 11
0.0000000000000071
 21
-40.00000000000001
 31
0.0
  0
LINE
  5
D0
330
1F
100
AcDbEntity
  8
참조1
100
AcDbLine
 10
0.0000000000000071
 20
-40.00000000000001
 30
0.0
 11
-9.703215596699206
 21
-40.0
 31
0.0
  0
CIRCLE
  5
D1
330
1F
100
AcDbEntity
  8
해칭선
100
AcDbCircle
 10
0.0
 20
0.0
 30
0.0
 40
3.000000000000001
  0
INSERT
  5
D2
330
1F
100
AcDbEntity
  8
0
  6
Continuous
 62
     7
100
AcDbBlockReference
 66
     1
  2
블럭10
 10
-13.94027293212521
 20
-52.04717430164393
 30
0.0
  0
ATTRIB
  5
D3
330
D2
100
AcDbEntity
  8
FORMAT
 62
     2
100
AcDbText
 10
-23.12156822086649
 20
-49.97180738881174
 30
0.0
 40
4.233333333333333
  1
E2050044 [ 2 FLUTE ]
 41
0.75
  7
SLDTEXTSTYLE0
 11
-23.12156822086649
 21
-52.08847405547841
 31
0.0
100
AcDbAttribute
  2
AUTOATTR0
 70
     0
 74
     1
  0
SEQEND
  5
D4
330
D2
100
AcDbEntity
  8
0
  6
Continuous
 62
     7
  0
HATCH
  5
D5
330
1F
100
AcDbEntity
  8
중심선
100
AcDbHatch
 10
0.0
 20
0.0
 30
0.0
210
0.0
220
0.0
230
1.0
  2
SOLID
 70
     1
 71
     0
 91
        1
 92
        0
 93
        4
 72
     1
 10
-8.225363627744372
 20
-35.8
 11
-11.67163887158165
 21
-35.8
 72
     1
 10
-11.67163887158165
 20
-35.8
 11
-13.79986873078568
 21
-38.3363255805726
 72
     1
 10
-13.79986873078568
 20
-38.3363255805726
 11
-10.35356040183525
 21
-38.33628615127011
 72
     1
 10
-10.35356040183525
 20
-38.33628615127011
 11
-8.225363627744372
 21
-35.8
 97
        0
 75
     0
 76
     1
 98
        1
 10
19.75671167873053
 20
-0.0010749287238978
  0
HATCH
  5
D6
330
1F
100
AcDbEntity
  8
중심선
100
AcDbHatch
 10
0.0
 20
0.0
 30
0.0
210
0.0
220
0.0
230
1.0
  2
SOLID
 70
     1
 71
     0
 91
        1
 92
        0
 93
        4
 72
     1
 10
-3.212599636708418
 20
-35.79999999999998
 11
-6.658874880545675
 21
-35.8
 72
     1
 10
-6.658874880545675
 20
-35.8
 11
-11.19001288890309
 21
-41.20000000000002
 72
     1
 10
-11.19001288890309
 20
-41.20000000000002
 11
-7.743737645065806
 21
-41.20000000000002
 72
     1
 10
-7.743737645065806
 20
-41.20000000000002
 11
-3.212599636708418
 21
-35.79999999999998
 97
        0
 75
     0
 76
     1
 98
        1
 10
19.75671167873053
 20
-0.0010749287238978
  0
HATCH
  5
D7
330
1F
100
AcDbEntity
  8
중심선
100
AcDbHatch
 10
0.0
 20
0.0
 30
0.0
210
0.0
220
0.0
230
1.0
  2
SOLID
 70
     1
 71
     0
 91
        1
 92
        0
 93
        4
 72
     1
 10
1.80016435432745
 20
-35.80000000000003
 11
-1.646110889509639
 21
-35.8
 72
     1
 10
-1.646110889509639
 20
-35.8
 11
-8.69454779139889
 21
-44.20000000000002
 72
     1
 10
-8.69454779139889
 20
-44.20000000000002
 11
-5.248272547561605
 21
-44.20000000000002
 72
     1
 10
-5.248272547561605
 20
-44.20000000000002
 11
1.80016435432745
 21
-35.80000000000003
 97
        0
 75
     0
 76
     1
 98
        1
 10
19.75671167873053
 20
-0.0010749287238978
  0
HATCH
  5
D8
330
1F
100
AcDbEntity
  8
중심선
100
AcDbHatch
 10
0.0
 20
0.0
 30
0.0
210
0.0
220
0.0
230
1.0
  2
SOLID
 70
     1
 71
     0
 91
        1
 92
        0
 93
        6
 72
     3
 10
6.600054785339676
 20
-40.00000000005127
 11
3.960054785062283
 21
1.540882976769353E-10
 40
0.3939339440162628
 50
17.09539180608436
 51
320.0019657685082
 73
     0
 72
     1
 10
8.283054441040242
 20
-38.58789400463833
 11
10.58835631474131
 21
-36.65356729459038
 72
     3
 10
6.600054785286829
 20
-40.00000000000015
 11
6.600054785286829
 21
-1.278976924368180E-13
 40
0.636358354079598
 50
39.99873849337411
 51
368.4976242363724
 73
     1
 72
     1
 10
13.02538727718744
 20
-39.03999999993002
 11
5.280122092122751
 21
-39.03999999993002
 72
     1
 10
5.280122092122751
 20
-39.03999999993002
 11
5.280097047676817
 21
-40.95999999992991
 72
     1
 10
5.280097047676817
 20
-40.95999999992991
 11
9.721476817148854
 21
-40.95999999992988
 97
        0
 75
     0
 76
     1
 98
        1
 10
19.75671167873053
 20
-0.0010749287238978
  0
DIMENSION
  5
D9
330
1F
100
AcDbEntity
  8
치수문자_일반주서
100
AcDbDimension
  2
_D
 10
-78.49999999999989
 20
-9.525000000000198
 30
0.0
 11
-78.50000000000004
 21
31.75399999999991
 31
0.0
 70
   160
  1
%%c<>
 71
     2
 42
19.04999999999999
 52
-270.0
  3
SLDDIMSTYLE0
100
AcDbAlignedDimension
 13
-26.20018467149224
 23
9.524999999999986
 33
0.0
 14
-26.20018467149227
 24
-9.525000000000006
 34
0.0
 50
90.0000000000002
100
AcDbRotatedDimension
1001
PE_URL
1000

1001
ACAD
1000
DSTYLE
1002
{
1070
   171
1070
     8
1070
   273
1070
     7
1070
   140
1040
4.0
1002
}
  0
DIMENSION
  5
EE
330
1F
100
AcDbEntity
  8
치수문자_일반주서
100
AcDbDimension
  2
_D_1
 10
114.1788693844168
 20
8.723870480474012
 30
0.0
 11
114.1788693844167
 21
32.702870480474
 31
0.0
 70
   160
  1
%%c<>
 71
     2
 42
17.44774096094766
 52
-270.0
  3
SLDDIMSTYLE0
100
AcDbAlignedDimension
 13
63.50000000000003
 23
-8.723870480473835
 33
0.0
 14
63.50000000000003
 24
8.723870480473824
 34
0.0
 50
90.0000000000002
100
AcDbRotatedDimension
1001
PE_URL
1000

1001
ACAD
1000
DSTYLE
1002
{
1070
   171
1070
     8
1070
   273
1070
     7
1070
   140
1040
4.0
1002
}
  0
DIMENSION
  5
102
330
1F
100
AcDbEntity
  8
치수문자_일반주서
100
AcDbDimension
  2
_D_2
 10
30.16250000000002
 20
24.52499999999997
 30
0.0
 11
88.47900000000003
 21
24.52499999999997
 31
0.0
 70
   160
  1
<>
 71
     2
 42
33.33750000000001
  3
SLDDIMSTYLE0
100
AcDbAlignedDimension
 13
63.50000000000003
 23
8.723870480473824
 33
0.0
 14
30.16250000000002
 24
7.125104089950766
 34
0.0
 50
0.0000000000000061
100
AcDbRotatedDimension
1001
PE_URL
1000

1001
ACAD
1000
DSTYLE
1002
{
1070
   171
1070
     8
1070
   273
1070
     7
1070
   140
1040
4.0
1002
}
  0
DIMENSION
  5
116
330
1F
100
AcDbEntity
  8
치수문자_일반주서
100
AcDbDimension
  2
_D_3
 10
63.50000000000002
 20
39.52499999999998
 30
0.0
 11
0.0000000000000142
 21
39.52499999999998
 31
0.0
 70
   160
  1
<>
 71
     2
 42
127.0000000000001
  3
SLDDIMSTYLE0
100
AcDbAlignedDimension
 13
-63.50000000000005
 23
8.723870480473852
 33
0.0
 14
63.50000000000003
 24
8.723870480473824
 34
0.0
 50
-0.0000000000000064
100
AcDbRotatedDimension
1001
PE_URL
1000

1001
ACAD
1000
DSTYLE
1002
{
1070
   171
1070
     8
1070
   273
1070
     7
1070
   140
1040
4.0
1002
}
  0
LINE
  5
129
330
1F
100
AcDbEntity
  8
참조1
100
AcDbLine
 10
88.26912503295506
 20
7.439999999999998
 30
0.0
 11
88.26912503295506
 21
-7.440000000000007
 31
0.0
  0
LINE
  5
12A
330
1F
100
AcDbEntity
  8
참조1
100
AcDbLine
 10
100.9691250329551
 20
5.439999999999998
 30
0.0
 11
88.26912503295506
 21
5.439999999999998
 31
0.0
  0
SOLID
  5
12B
330
1F
100
AcDbEntity
  8
참조1
100
AcDbTrace
 10
88.26912503295506
 20
5.439999999999998
 30
0.0
 11
94.61912503295505
 21
4.423999999999998
 31
0.0
 12
94.61912503295505
 22
6.455999999999998
 32
0.0
 13
94.61912503295505
 23
6.455999999999998
 33
0.0
  0
LINE
  5
12C
330
1F
100
AcDbEntity
  8
참조1
100
AcDbLine
 10
100.9691250329551
 20
-5.440000000000007
 30
0.0
 11
88.26912503295506
 21
-5.440000000000007
 31
0.0
  0
SOLID
  5
12D
330
1F
100
AcDbEntity
  8
참조1
100
AcDbTrace
 10
88.26912503295506
 20
-5.440000000000007
 30
0.0
 11
94.61912503295505
 21
-6.456000000000007
 31
0.0
 12
94.61912503295505
 22
-4.424000000000007
 32
0.0
 13
94.61912503295505
 23
-4.424000000000007
 33
0.0
  0
MTEXT
  5
12E
330
1F
100
AcDbEntity
  8
참조1
100
AcDbMText
 10
97.65347516558106
 20
11.01029177718832
 30
0.0
 40
3.5
 41
0.0
 71
     1
 72
     1
  1
A
  7
SLDTEXTSTYLE0
 73
     1
 44
1.0
  0
MTEXT
  5
12F
330
1F
100
AcDbEntity
  8
참조1
100
AcDbMText
 10
97.65347516558106
 20
0.1302917771883214
 30
0.0
 40
3.5
 41
0.0
 71
     1
 72
     1
  1
A
  7
SLDTEXTSTYLE0
 73
     1
 44
1.0
  0
INSERT
  5
136
330
1F
100
AcDbEntity
  8
해칭선
100
AcDbBlockReference
  2
SW_DOWELSYMBOL_0
 10
0.0
 20
0.0
 30
0.0
  0
LINE
  5
1AB
330
1F
100
AcDbEntity
  8
외형선
  6
Continuous
370
    15
100
AcDbLine
 10
-5.791200000000003
 20
7.619999999999973
 30
0.0
 11
5.791200000000003
 21
7.619999999999973
 31
0.0
1001
PE_URL
1000

  0
LINE
  5
1AC
330
1F
100
AcDbEntity
  8
외형선
  6
Continuous
370
    15
100
AcDbLine
 10
-5.791200000000003
 20
7.619999999999958
 30
0.0
 11
-7.696200000000147
 21
9.524999999999988
 31
0.0
1001
PE_URL
1000

  0
LINE
  5
1AD
330
1F
100
AcDbEntity
  8
외형선
  6
Continuous
370
    15
100
AcDbLine
 10
5.791200000000003
 20
7.619999999999958
 30
0.0
 11
7.696199999999976
 21
9.524999999999988
 31
0.0
1001
PE_URL
1000

  0
LINE
  5
1F5
330
1F
100
AcDbEntity
  8
외형선
  6
Continuous
370
    15
100
AcDbLine
 10
-26.20018467149225
 20
9.524999999999988
 30
0.0
 11
-27.11252121119525
 21
9.280540160961166
 31
0.0
  0
LINE
  5
1F6
330
1F
100
AcDbEntity
  8
외형선
  6
Continuous
370
    15
100
AcDbLine
 10
-27.11252121119527
 20
-9.28054016096118
 30
0.0
 11
-26.20018467149226
 21
-9.525000000000006
 31
0.0
  0
SPLINE
  5
1F7
330
1F
100
AcDbEntity
  8
외형선
  6
Continuous
370
    15
100
AcDbSpline
210
0.0
220
0.0
230
1.0
 70
     8
 71
     3
 72
    11
 73
     7
 74
     0
 42
0.000000001
 43
0.00000001
 40
0.0
 40
0.0
 40
0.0
 40
0.0
 40
0.2939229600091839
 40
0.5577669298338099
 40
0.7923285729308326
 40
1.0
 40
1.0
 40
1.0
 40
1.0
 10
-27.1125293146167
 20
7.063739470153113
 30
0.0
 10
-27.4139836703684
 20
7.042919317229998
 30
0.0
 10
-27.98604265646258
 20
7.00340966893906
 30
0.0
 10
-28.79943377435646
 20
6.953700321412114
 30
0.0
 10
-29.52158679943332
 20
6.91541324785674
 30
0.0
 10
-29.95770166492873
 20
6.896821185030774
 30
0.0
 10
-30.16250000000003
 20
6.888090403730818
 30
0.0
  0
LINE
  5
1F8
330
1F
100
AcDbEntity
  8
0
  6
Continuous
 62
     1
370
    15
100
AcDbLine
 10
-36.04207045838746
 20
-2.46286740281024
 30
0.0
 11
-35.95590631768724
 21
-2.510238767159539
 31
0.0
1001
PE_URL
1000

  0
SPLINE
  5
1F9
330
1F
100
AcDbEntity
  8
0
  6
Continuous
 62
     1
370
    15
100
AcDbSpline
210
0.0
220
0.0
230
1.0
 70
     8
 71
     3
 72
     9
 73
     5
 74
     0
 42
0.000000001
 43
0.00000001
 40
0.0
 40
0.0
 40
0.0
 40
0.0
 40
0.446692429661169
 40
1.0
 40
1.0
 40
1.0
 40
1.0
 10
-40.87993965545571
 20
-2.237319588051914
 30
0.0
 10
-40.51964666068734
 20
-2.408675094358742
 30
0.0
 10
-39.71306707517329
 20
-2.792284698928949
 30
0.0
 10
-38.90454396502311
 20
-3.214961231467292
 30
0.0
 10
-38.45718200738311
 20
-3.448831356725325
 30
0.0
1001
PE_URL
1000

  0
SPLINE
  5
1FA
330
1F
100
AcDbEntity
  8
0
  6
Continuous
 62
     1
370
    15
100
AcDbSpline
210
0.0
220
0.0
230
1.0
 70
     8
 71
     3
 72
    18
 73
    14
 74
     0
 42
0.000000001
 43
0.00000001
 40
0.0
 40
0.0
 40
0.0
 40
0.0
 40
0.1354347531817371
 40
0.2514326089467184
 40
0.3242404904486538
 40
0.3937078799558554
 40
0.459523758711014
 40
0.5219067679593874
 40
0.5818831253938411
 40
0.662734788746476
 40
0.7749308461981449
 40
0.9191632517659505
 40
1.0
 40
1.0
 40
1.0
 40
1.0
 10
-37.99404315312156
 20
-6.938204673672843
 30
0.0
 10
-37.71956328683128
 20
-6.921904285235669
 30
0.0
 10
-37.20999548932436
 20
-6.891642856058013
 30
0.0
 10
-36.4181170997276
 20
-6.855857585219205
 30
0.0
 10
-35.7837424464876
 20
-6.844477340060969
 30
0.0
 10
-35.27440905578757
 20
-6.835041380175127
 30
0.0
 10
-34.78832797114087
 20
-6.8273780980129
 30
0.0
 10
-34.32633179526092
 20
-6.821937435662072
 30
0.0
 10
-33.83266846923045
 20
-6.818623441314912
 30
0.0
 10
-33.22094780875685
 20
-6.818218618890761
 30
0.0
 10
-32.40559684457152
 20
-6.825231784471377
 30
0.0
 10
-31.59066137648876
 20
-6.838961780960638
 30
0.0
 10
-31.04690312226949
 20
-6.85825258367727
 30
0.0
 10
-30.85160470685354
 20
-6.865181146459413
 30
0.0
1001
PE_URL
1000

  0
SPLINE
  5
1FB
330
1F
100
AcDbEntity
  8
0
  6
Continuous
 62
     1
370
    15
100
AcDbSpline
210
0.0
220
0.0
230
1.0
 70
     8
 71
     3
 72
    28
 73
    24
 74
     0
 42
0.000000001
 43
0.00000001
 40
0.0
 40
0.0
 40
0.0
 40
0.0
 40
0.0645475256670354
 40
0.1147691556840875
 40
0.151514213690416
 40
0.1887629958379343
 40
0.2311638328577399
 40
0.2754104826035722
 40
0.3126329623675106
 40
0.3533239257468285
 40
0.392385741722221
 40
0.4370737704395749
 40
0.5004460973156933
 40
0.5658500676934456
 40
0.6150816098446455
 40
0.6578340089836664
 40
0.699907671132762
 40
0.7519897746580904
 40
0.7976622835620281
 40
0.8406038183779393
 40
0.8821612125480596
 40
0.9343037149101314
 40
1.0
 40
1.0
 40
1.0
 40
1.0
 10
-60.25630762311926
 20
-5.971761986964829
 30
0.0
 10
-59.93244973606009
 20
-5.945291624645058
 30
0.0
 10
-59.35661207419298
 20
-5.898225821537999
 30
0.0
 10
-58.59093318884054
 20
-5.84945537639539
 30
0.0
 10
-57.95021605357232
 20
-5.815347092303938
 30
0.0
 10
-57.35179470595894
 20
-5.789132757035858
 30
0.0
 10
-56.71914138149681
 20
-5.767887499869246
 30
0.0
 10
-56.08955927575786
 20
-5.753725093341906
 30
0.0
 10
-55.46840221228493
 20
-5.74621033967496
 30
0.0
 10
-54.8737099957717
 20
-5.744982095757813
 30
0.0
 10
-54.24065778134187
 20
-5.750193074768447
 30
0.0
 10
-53.4919758026555
 20
-5.764386000489871
 30
0.0
 10
-52.60951643274826
 20
-5.793308188101228
 30
0.0
 10
-51.70456005306631
 20
-5.837962562243732
 30
0.0
 10
-50.90323662431967
 20
-5.888839143930433
 30
0.0
 10
-50.22245556413047
 20
-5.939807440884074
 30
0.0
 10
-49.52980468495929
 20
-5.998932547886682
 30
0.0
 10
-48.81807112191726
 20
-6.067817034716583
 30
0.0
 10
-48.09890838786613
 20
-6.145497269962966
 30
0.0
 10
-47.42832217889562
 20
-6.224797349885613
 30
0.0
 10
-46.7184997794658
 20
-6.315152261398339
 30
0.0
 10
-45.9114321604992
 20
-6.427126097320617
 30
0.0
 10
-45.3277709374721
 20
-6.516972185891461
 30
0.0
 10
-45.00237405472219
 20
-6.56706226553834
 30
0.0
1001
PE_URL
1000

  0
SPLINE
  5
1FC
330
1F
100
AcDbEntity
  8
0
  6
Continuous
 62
     1
370
    15
100
AcDbSpline
210
0.0
220
0.0
230
1.0
 70
     8
 71
     3
 72
    16
 73
    12
 74
     0
 42
0.000000001
 43
0.00000001
 40
0.0
 40
0.0
 40
0.0
 40
0.0
 40
0.1625467286424282
 40
0.2893272582420611
 40
0.3919966727373561
 40
0.5004434236274273
 40
0.6137691907785096
 40
0.7121646507004681
 40
0.8084283172329532
 40
0.9073036605719438
 40
0.9999999999999999
 40
0.9999999999999999
 40
0.9999999999999999
 40
0.9999999999999999
 10
-45.00237405472217
 20
6.567062265538347
 30
0.0
 10
-45.34528832253634
 20
6.514323071550869
 30
0.0
 10
-45.95566323286142
 20
6.420449226621887
 30
0.0
 10
-46.80371222574546
 20
6.303732702254567
 30
0.0
 10
-47.55188607290891
 20
6.209605108791596
 30
0.0
 10
-48.26253311915788
 20
6.127019480658326
 30
0.0
 10
-48.95841583504303
 20
6.053842734040984
 30
0.0
 10
-49.62581653143951
 20
5.990502793627574
 30
0.0
 10
-50.25828465164094
 20
5.937125035462955
 30
0.0
 10
-50.88113720638709
 20
5.890173536762028
 30
0.0
 10
-51.29648293719633
 20
5.864909158944585
 30
0.0
 10
-51.49745746687098
 20
5.852684412010287
 30
0.0
1001
PE_URL
1000

  0
SPLINE
  5
1FD
330
1F
100
AcDbEntity
  8
0
  6
Continuous
 62
     1
370
    15
100
AcDbSpline
210
0.0
220
0.0
230
1.0
 70
     8
 71
     3
 72
    16
 73
    12
 74
     0
 42
0.000000001
 43
0.00000001
 40
0.0
 40
0.0
 40
0.0
 40
0.0
 40
0.1366175574291832
 40
0.24093116527088
 40
0.3160592929589247
 40
0.3885434126417432
 40
0.4663063049195209
 40
0.5726744923667297
 40
0.694225216427146
 40
0.8361698660206568
 40
1.0
 40
1.0
 40
1.0
 40
1.0
 10
-30.16250000000003
 20
6.888091293871597
 30
0.0
 10
-30.52005990015515
 20
6.87473117605613
 30
0.0
 10
-31.15063275637947
 20
6.85117001148836
 30
0.0
 10
-31.97315337265999
 20
6.832980031040737
 30
0.0
 10
-32.59573217234549
 20
6.821580660361278
 30
0.0
 10
-33.18073086336521
 20
6.815633857401703
 30
0.0
 10
-33.86383055560149
 20
6.816467716996293
 30
0.0
 10
-34.67971104045961
 20
6.825477721658018
 30
0.0
 10
-35.66817463901435
 20
6.842820273463289
 30
0.0
 10
-36.79093463787147
 20
6.878282693561868
 30
0.0
 10
-37.57431707726928
 20
6.917299811600568
 30
0.0
 10
-37.99404315312155
 20
6.938204673672839
 30
0.0
1001
PE_URL
1000

  0
LINE
  5
1FE
330
1F
100
AcDbEntity
  8
외형선
  6
Continuous
370
    15
100
AcDbLine
 10
-26.20018467149226
 20
-9.525000000000006
 30
0.0
 11
-26.20018467149225
 21
9.524999999999984
 31
0.0
  0
SPLINE
  5
1FF
330
1F
100
AcDbEntity
  8
외형선
  6
Continuous
370
    15
100
AcDbSpline
210
0.0
220
0.0
230
1.0
 70
     8
 71
     3
 72
     8
 73
     4
 74
     0
 42
0.000000001
 43
0.00000001
 40
0.0
 40
0.0
 40
0.0
 40
0.0
 40
1.0
 40
1.0
 40
1.0
 40
1.0
 10
-29.16250000000005
 20
-7.443336307906002
 30
0.0
 10
-28.47602943926585
 20
-7.76584602146621
 30
0.0
 10
-27.79282103326042
 20
-8.081145274132318
 30
0.0
 10
-27.11254338821283
 20
-8.387569359733654
 30
0.0
  0
LINE
  5
200
330
1F
100
AcDbEntity
  8
외형선
  6
Continuous
370
    15
100
AcDbLine
 10
-29.16250000000005
 20
-7.443336307905284
 30
0.0
 11
-29.16250000000005
 21
-5.89330233808824
 31
0.0
  0
SPLINE
  5
201
330
1F
100
AcDbEntity
  8
외형선
  6
Continuous
370
    15
100
AcDbSpline
210
0.0
220
0.0
230
1.0
 70
     8
 71
     3
 72
     8
 73
     4
 74
     0
 42
0.000000001
 43
0.00000001
 40
0.0
 40
0.0
 40
0.0
 40
0.0
 40
1.0
 40
1.0
 40
1.0
 40
1.0
 10
-27.11252121119527
 20
-6.991760381790975
 30
0.0
 10
-27.79674792176828
 20
-6.63312532036705
 30
0.0
 10
-28.47991800701242
 20
-6.266833103358834
 30
0.0
 10
-29.16250000000005
 20
-5.89330233808824
 30
0.0
  0
LINE
  5
202
330
1F
100
AcDbEntity
  8
외형선
  6
Continuous
370
    15
100
AcDbLine
 10
-27.11252121119525
 20
9.280540160961166
 30
0.0
 11
-27.11252121119527
 21
-6.991851580216597
 31
0.0
  0
SPLINE
  5
203
330
1F
100
AcDbEntity
  8
외형선
  6
Continuous
370
    15
100
AcDbSpline
210
0.0
220
0.0
230
1.0
 70
     8
 71
     3
 72
     8
 73
     4
 74
     0
 42
0.000000001
 43
0.00000001
 40
0.0
 40
0.0
 40
0.0
 40
0.0
 40
1.0
 40
1.0
 40
1.0
 40
1.0
 10
-29.16250000000004
 20
7.443336307905984
 30
0.0
 10
-28.47602943926584
 20
7.765846021466192
 30
0.0
 10
-27.7928210332604
 20
8.0811452741323
 30
0.0
 10
-27.11254338821282
 20
8.38756935973364
 30
0.0
  0
LINE
  5
204
330
1F
100
AcDbEntity
  8
외형선
  6
Continuous
370
    15
100
AcDbLine
 10
-27.11252121119527
 20
-8.387620172348903
 30
0.0
 11
-27.11252121119527
 21
-9.28054016096118
 31
0.0
  0
SPLINE
  5
205
330
1F
100
AcDbEntity
  8
외형선
  6
Continuous
370
    15
100
AcDbSpline
210
0.0
220
0.0
230
1.0
 70
    24
 71
     3
 72
    10
 73
     6
 74
     0
 42
0.000000001
 43
0.00000001
 40
0.0
 40
0.0
 40
0.0
 40
0.0
 40
0.5
 40
0.5
 40
1.0
 40
1.0
 40
1.0
 40
1.0
 10
-30.16250000000004
 20
-5.454219442162888
 30
0.0
 10
-30.16250000000004
 20
-5.28550055885718
 30
0.0
 10
-30.16250000000004
 20
-5.02837294087611
 30
0.0
 10
-30.16250000000004
 20
-4.389667530212662
 30
0.0
 10
-30.16250000000004
 20
-4.010274382368717
 30
0.0
 10
-30.16250000000004
 20
-3.618544720069558
 30
0.0
  0
SPLINE
  5
206
330
1F
100
AcDbEntity
  8
외형선
  6
Continuous
370
    15
100
AcDbSpline
210
0.0
220
0.0
230
1.0
 70
     8
 71
     3
 72
    10
 73
     6
 74
     0
 42
0.000000001
 43
0.00000001
 40
0.0
 40
0.0
 40
0.0
 40
0.0
 40
0.5000000000000001
 40
0.5000000000000001
 40
1.0
 40
1.0
 40
1.0
 40
1.0
 10
-30.16250000001484
 20
-3.61854472006473
 30
0.0
 10
-29.65532713704571
 20
-3.78401504566845
 30
0.0
 10
-29.14745034645255
 20
-3.943433996975322
 30
0.0
 10
-28.12833444982379
 20
-4.248692153354732
 30
0.0
 10
-27.61909369539695
 20
-4.394319662151595
 30
0.0
 10
-27.11252655837052
 20
-4.532024749129786
 30
0.0
  0
SPLINE
  5
207
330
1F
100
AcDbEntity
  8
외형선
  6
Continuous
370
    15
100
AcDbSpline
210
0.0
220
0.0
230
1.0
 70
     8
 71
     3
 72
     8
 73
     4
 74
     0
 42
0.000000001
 43
0.00000001
 40
0.0
 40
0.0
 40
0.0
 40
0.0
 40
1.0
 40
1.0
 40
1.0
 40
1.0
 10
-30.16250000000004
 20
-5.454219442162888
 30
0.0
 10
-29.82945155747573
 20
-5.604629864201712
 30
0.0
 10
-29.49673096909744
 20
-5.751013095313226
 30
0.0
 10
-29.16250000000003
 20
-5.893302338088247
 30
0.0
  0
SPLINE
  5
208
330
1F
100
AcDbEntity
  8
외형선
  6
Continuous
370
    15
100
AcDbSpline
210
0.0
220
0.0
230
1.0
 70
     8
 71
     3
 72
     8
 73
     4
 74
     0
 42
0.000000001
 43
0.00000001
 40
0.0
 40
0.0
 40
0.0
 40
0.0
 40
1.0
 40
1.0
 40
1.0
 40
1.0
 10
-30.16250000000563
 20
-7.125104089956643
 30
0.0
 10
-29.82945155747944
 20
-7.236433522093115
 30
0.0
 10
-29.49673096909932
 20
-7.3425298029358
 30
0.0
 10
-29.16250000000005
 20
-7.443336307905291
 30
0.0
  0
LINE
  5
209
330
1F
100
AcDbEntity
  8
외형선
  6
Continuous
370
    15
100
AcDbLine
 10
-30.16250000000004
 20
-7.125104089958505
 30
0.0
 11
-30.16250000000004
 21
-5.454219442162895
 31
0.0
  0
SPLINE
  5
20A
330
1F
100
AcDbEntity
  8
외형선
  6
Continuous
370
    15
100
AcDbSpline
210
0.0
220
0.0
230
1.0
 70
     8
 71
     3
 72
    10
 73
     6
 74
     0
 42
0.000000001
 43
0.00000001
 40
0.0
 40
0.0
 40
0.0
 40
0.0
 40
0.5
 40
0.5
 40
1.0
 40
1.0
 40
1.0
 40
1.0
 10
-30.16250000000004
 20
5.629212450747399
 30
0.0
 10
-29.65532759695709
 20
5.490284405128193
 30
0.0
 10
-29.14745127028372
 20
5.341758336571363
 30
0.0
 10
-28.12833629849705
 20
5.026743213779021
 30
0.0
 10
-27.61909597993039
 20
4.860449377901077
 30
0.0
 10
-27.1125293146167
 20
4.686519022214078
 30
0.0
  0
SPLINE
  5
20B
330
1F
100
AcDbEntity
  8
외형선
  6
Continuous
370
    15
100
AcDbSpline
210
0.0
220
0.0
230
1.0
 70
    24
 71
     3
 72
    14
 73
    10
 74
     0
 42
0.000000001
 43
0.00000001
 40
0.0
 40
0.0
 40
0.0
 40
0.0
 40
0.25
 40
0.25
 40
0.5
 40
0.5
 40
0.75
 40
0.75
 40
1.0
 40
1.0
 40
1.0
 40
1.0
 10
-30.16250000000005
 20
-3.618544720069558
 30
0.0
 10
-30.16250000000005
 20
-2.912017973097552
 30
0.0
 10
-30.16250000000005
 20
-2.144225820731702
 30
0.0
 10
-30.16250000000004
 20
-0.5452340857728792
 30
0.0
 10
-30.16250000000004
 20
0.2853114642618877
 30
0.0
 10
-30.16250000000004
 20
1.928904536621097
 30
0.0
 10
-30.16250000000004
 20
2.74107628384089
 30
0.0
 10
-30.16250000000004
 20
4.270057893380255
 30
0.0
 10
-30.16250000000004
 20
4.986312056140331
 30
0.0
 10
-30.16250000000004
 20
5.629212450747399
 30
0.0
  0
SPLINE
  5
20C
330
1F
100
AcDbEntity
  8
외형선
  6
Continuous
370
    15
100
AcDbSpline
210
0.0
220
0.0
230
1.0
 70
    24
 71
     3
 72
    11
 73
     7
 74
     0
 42
0.000000001
 43
0.00000001
 40
0.0
 40
0.0
 40
0.0
 40
0.0
 40
0.2186952354664771
 40
0.4373904709329544
 40
0.7574146994116339
 40
1.0
 40
1.0
 40
1.0
 40
1.0
 10
-30.16250000000004
 20
5.629212450747399
 30
0.0
 10
-30.16250000000004
 20
5.798925079874415
 30
0.0
 10
-30.16250000000004
 20
6.138350338128447
 30
0.0
 10
-30.16250000000003
 20
6.556847432657708
 30
0.0
 10
-30.16250000000003
 20
6.851060658821233
 30
0.0
 10
-30.16250000000003
 20
6.857888097811962
 30
0.0
 10
-30.16250000000003
 20
6.86083194475064
 30
0.0
  0
SPLINE
  5
20D
330
1F
100
AcDbEntity
  8
외형선
  6
Continuous
370
    15
100
AcDbSpline
210
0.0
220
0.0
230
1.0
 70
     8
 71
     3
 72
     8
 73
     4
 74
     0
 42
0.000000001
 43
0.00000001
 40
0.0
 40
0.0
 40
0.0
 40
0.0
 40
1.0
 40
1.0
 40
1.0
 40
1.0
 10
-30.16250000000561
 20
7.125104089956629
 30
0.0
 10
-29.82945155747943
 20
7.236433522093098
 30
0.0
 10
-29.49673096909931
 20
7.342529802935779
 30
0.0
 10
-29.16250000000004
 20
7.44333630790527
 30
0.0
  0
SPLINE
  5
20E
330
1F
100
AcDbEntity
  8
외형선
  6
Continuous
370
    15
100
AcDbSpline
210
0.0
220
0.0
230
1.0
 70
    24
 71
     3
 72
     9
 73
     5
 74
     0
 42
0.000000001
 43
0.00000001
 40
0.0
 40
0.0
 40
0.0
 40
0.0
 40
0.3594572111976143
 40
1.0
 40
1.0
 40
1.0
 40
1.0
 10
-30.16250000000003
 20
6.948829576852081
 30
0.0
 10
-30.16250000000003
 20
6.971169512760468
 30
0.0
 10
-30.16250000000003
 20
7.033318595356295
 30
0.0
 10
-30.16250000000003
 20
7.089266843229471
 30
0.0
 10
-30.16250000000003
 20
7.125104089950764
 30
0.0
  0
SPLINE
  5
20F
330
1F
100
AcDbEntity
  8
0
  6
Continuous
 62
     1
370
    15
100
AcDbSpline
210
0.0
220
0.0
230
1.0
 70
     8
 71
     3
 72
    48
 73
    44
 74
     0
 42
0.000000001
 43
0.00000001
 40
0.0
 40
0.0
 40
0.0
 40
0.0
 40
0.0624999999999998
 40
0.0624999999999998
 40
0.0937499999999997
 40
0.0937499999999997
 40
0.1249999999999996
 40
0.1249999999999996
 40
0.1562499999999995
 40
0.1562499999999995
 40
0.1874999999999994
 40
0.1874999999999994
 40
0.2499999999999992
 40
0.2499999999999992
 40
0.3124999999999991
 40
0.3124999999999991
 40
0.3749999999999989
 40
0.3749999999999989
 40
0.406249999999999
 40
0.406249999999999
 40
0.4374999999999991
 40
0.4374999999999991
 40
0.4999999999999992
 40
0.4999999999999992
 40
0.5624999999999993
 40
0.5624999999999993
 40
0.6249999999999996
 40
0.6249999999999996
 40
0.6562499999999997
 40
0.6562499999999997
 40
0.6874999999999998
 40
0.6874999999999998
 40
0.7499999999999998
 40
0.7499999999999998
 40
0.8125
 40
0.8125
 40
0.875
 40
0.875
 40
0.90625
 40
0.90625
 40
0.9375
 40
0.9375
 40
1.0
 40
1.0
 40
1.0
 40
1.0
 10
-63.50000000000005
 20
8.723870480473842
 30
0.0
 10
-62.80844557498164
 20
8.707411489314595
 30
0.0
 10
-62.11026251960917
 20
8.663248817927599
 30
0.0
 10
-61.06787305327874
 20
8.556188790991975
 30
0.0
 10
-60.72232612291509
 20
8.513780422478806
 30
0.0
 10
-60.02892011390994
 20
8.415500560481913
 30
0.0
 10
-59.68095078805762
 20
8.359605331672583
 30
0.0
 10
-58.98495059099403
 20
8.23465227172683
 30
0.0
 10
-58.63692167983638
 20
8.16559478893608
 30
0.0
 10
-57.9432787379323
 20
8.014852992904071
 30
0.0
 10
-57.59786422230955
 20
7.933201909695033
 30
0.0
 10
-56.55571788205837
 20
7.66916410539995
 30
0.0
 10
-55.85745847670606
 20
7.467904704038812
 30
0.0
 10
-54.47372719173904
 20
7.020819110906697
 30
0.0
 10
-53.7762428239112
 20
6.773718687993842
 30
0.0
 10
-52.3860887266358
 20
6.238766305056476
 30
0.0
 10
-51.69484045062207
 20
5.951210227097278
 30
0.0
 10
-50.65085726238193
 20
5.49203677809761
 30
0.0
 10
-50.30277446988926
 20
5.334489946018046
 30
0.0
 10
-49.6089058715006
 20
5.011564980038568
 30
0.0
 10
-49.26358376452919
 20
4.846271242944034
 30
0.0
 10
-48.22169755655745
 20
4.338351301289599
 30
0.0
 10
-47.52337332897003
 20
3.984270688422633
 30
0.0
 10
-46.13904196885236
 20
3.255300401526213
 30
0.0
 10
-45.44222220631706
 20
2.878534862921711
 30
0.0
 10
-44.05178934258226
 20
2.109733465445551
 30
0.0
 10
-43.36071738005037
 20
1.718210476485993
 30
0.0
 10
-42.31676840558633
 20
1.123257653463593
 30
0.0
 10
-41.96863743867895
 20
0.9238643320400328
 30
0.0
 10
-41.27455447249702
 20
0.5243491348586069
 30
0.0
 10
-40.92928476306457
 20
0.3243598620060588
 30
0.0
 10
-39.88767567939679
 20
-0.277017159173095
 30
0.0
 10
-39.18929816090358
 20
-0.6790856809389894
 30
0.0
 10
-37.80438911796217
 20
-1.474137251681142
 30
0.0
 10
-37.10819984234425
 20
-1.868965386134882
 30
0.0
 10
-35.71751093639588
 20
-2.643988238556755
 30
0.0
 10
-35.02658085597895
 20
-3.023546123283701
 30
0.0
 10
-33.98268319984311
 20
-3.578111601494022
 30
0.0
 10
-33.63450976807932
 20
-3.760312658416407
 30
0.0
 10
-32.94022373446278
 20
-4.118123950759554
 30
0.0
 10
-32.59496640860878
 20
-4.293597188123133
 30
0.0
 10
-31.55365142617258
 20
-4.810361305615878
 30
0.0
 10
-30.85523215105017
 20
-5.141369652475824
 30
0.0
 10
-30.16250000000562
 20
-5.454219442160372
 30
0.0
1001
PE_URL
1000

  0
SPLINE
  5
210
330
1F
100
AcDbEntity
  8
0
  6
Continuous
 62
     1
370
    15
100
AcDbSpline
210
0.0
220
0.0
230
1.0
 70
     8
 71
     3
 72
    11
 73
     7
 74
     0
 42
0.000000001
 43
0.00000001
 40
0.0
 40
0.0
 40
0.0
 40
0.0
 40
0.2216118073868421
 40
0.4816273868434903
 40
0.7408265713647479
 40
1.0
 40
1.0
 40
1.0
 40
1.0
 10
-41.82522692642053
 20
0.8368709262280909
 30
0.0
 10
-40.96368298023721
 20
0.4900840813204894
 30
0.0
 10
-39.09129556395308
 20
-0.2635853367218353
 30
0.0
 10
-36.21125655034957
 20
-1.423081166315509
 30
0.0
 10
-33.18522166762688
 20
-2.591945029751432
 30
0.0
 10
-31.17004051374717
 20
-3.276356158524681
 30
0.0
 10
-30.16250000000005
 20
-3.618544720069558
 30
0.0
1001
PE_URL
1000

  0
SPLINE
  5
211
330
1F
100
AcDbEntity
  8
외형선
  6
Continuous
370
    15
100
AcDbSpline
210
0.0
220
0.0
230
1.0
 70
    24
 71
     3
 72
    10
 73
     6
 74
     0
 42
0.000000001
 43
0.00000001
 40
0.0
 40
0.0
 40
0.0
 40
0.0
 40
0.5
 40
0.5
 40
1.0
 40
1.0
 40
1.0
 40
1.0
 10
-30.16250000000004
 20
-5.454219442162895
 30
0.0
 10
-30.16250000000004
 20
-5.28550055885718
 30
0.0
 10
-30.16250000000004
 20
-5.02837294087611
 30
0.0
 10
-30.16250000000004
 20
-4.389667530212666
 30
0.0
 10
-30.16250000000004
 20
-4.010274382368713
 30
0.0
 10
-30.16250000000004
 20
-3.618544720069558
 30
0.0
  0
SPLINE
  5
212
330
1F
100
AcDbEntity
  8
0
  6
Continuous
 62
     1
370
    15
100
AcDbSpline
210
0.0
220
0.0
230
1.0
 70
     8
 71
     3
 72
    48
 73
    44
 74
     0
 42
0.000000001
 43
0.00000001
 40
0.0
 40
0.0
 40
0.0
 40
0.0
 40
0.0625000000000005
 40
0.0625000000000005
 40
0.0937500000000005
 40
0.0937500000000005
 40
0.1250000000000006
 40
0.1250000000000006
 40
0.1562500000000006
 40
0.1562500000000006
 40
0.1875000000000006
 40
0.1875000000000006
 40
0.2500000000000007
 40
0.2500000000000007
 40
0.3125000000000007
 40
0.3125000000000007
 40
0.3750000000000008
 40
0.3750000000000008
 40
0.4062500000000008
 40
0.4062500000000008
 40
0.4375000000000008
 40
0.4375000000000008
 40
0.5000000000000008
 40
0.5000000000000008
 40
0.5625000000000009
 40
0.5625000000000009
 40
0.6250000000000008
 40
0.6250000000000008
 40
0.6562500000000008
 40
0.6562500000000008
 40
0.6875000000000007
 40
0.6875000000000007
 40
0.7500000000000004
 40
0.7500000000000004
 40
0.8125000000000003
 40
0.8125000000000003
 40
0.8750000000000003
 40
0.8750000000000003
 40
0.9062500000000002
 40
0.9062500000000002
 40
0.9375000000000001
 40
0.9375000000000001
 40
1.0
 40
1.0
 40
1.0
 40
1.0
 10
-63.50000000000004
 20
8.285439964481046
 30
0.0
 10
-62.80844557498159
 20
8.159129245600056
 30
0.0
 10
-62.11026251960904
 20
8.006155112407502
 30
0.0
 10
-61.06787305327855
 20
7.739764315949571
 30
0.0
 10
-60.72232612291487
 20
7.644946371431132
 30
0.0
 10
-60.02892011390967
 20
7.443184927602918
 30
0.0
 10
-59.68095078805735
 20
7.336214137354279
 30
0.0
 10
-58.98495059099368
 20
7.110809483703765
 30
0.0
 10
-58.636921679836
 20
6.992376251996415
 30
0.0
 10
-57.94327873793188
 20
6.744928058032354
 30
0.0
 10
-57.59786422230909
 20
6.615952683381817
 30
0.0
 10
-56.55571788205784
 20
6.212909942849016
 30
0.0
 10
-55.85745847670546
 20
5.923162346132472
 30
0.0
 10
-54.47372719173836
 20
5.309931900798695
 30
0.0
 10
-53.77624282391045
 20
4.984693161579834
 30
0.0
 10
-52.38608872663495
 20
4.305459062588469
 30
0.0
 10
-51.69484045062117
 20
3.95177879837
 30
0.0
 10
-50.65085726238095
 20
3.402989366068347
 30
0.0
 10
-50.30277446988826
 20
3.217200901892209
 30
0.0
 10
-49.60890587149955
 20
2.841244144390242
 30
0.0
 10
-49.26358376452811
 20
2.651166802574657
 30
0.0
 10
-48.22169755655629
 20
2.074018410476448
 30
0.0
 10
-47.52337332896882
 20
1.680754908705634
 30
0.0
 10
-46.13904196885106
 20
0.8884178900415378
 30
0.0
 10
-45.44222220631569
 20
0.487295714197483
 30
0.0
 10
-44.0517893425808
 20
-0.314893668924654
 30
0.0
 10
-43.36071738004883
 20
-0.715464588995296
 30
0.0
 10
-42.31676840558471
 20
-1.312437930232687
 30
0.0
 10
-41.96863743867731
 20
-1.510574023150898
 30
0.0
 10
-41.27455447249532
 20
-1.90373266114506
 30
0.0
 10
-40.92928476306285
 20
-2.098630765942584
 30
0.0
 10
-39.88767567939498
 20
-2.678974773927944
 30
0.0
 10
-39.18929816090173
 20
-3.059316196119408
 30
0.0
 10
-37.80438911796023
 20
-3.796161413627431
 30
0.0
 10
-37.10819984234224
 20
-4.154388264022931
 30
0.0
 10
-35.71751093639377
 20
-4.842004344903245
 30
0.0
 10
-35.02658085597678
 20
-5.170863829634222
 30
0.0
 10
-33.98268319984086
 20
-5.63925847984752
 30
0.0
 10
-33.63450976807703
 20
-5.791073171189758
 30
0.0
 10
-32.94022373446046
 20
-6.085010069746886
 30
0.0
 10
-32.59496640860643
 20
-6.227026533729493
 30
0.0
 10
-31.55365142617013
 20
-6.63873997851875
 30
0.0
 10
-30.85523215104767
 20
-6.89354174901549
 30
0.0
 10
-30.16250000000308
 20
-7.125104089957496
 30
0.0
1001
PE_URL
1000

  0
SPLINE
  5
213
330
1F
100
AcDbEntity
  8
0
  6
Continuous
 62
     1
370
    15
100
AcDbSpline
210
0.0
220
0.0
230
1.0
 70
     8
 71
     3
 72
    15
 73
    11
 74
     0
 42
0.000000001
 43
0.00000001
 40
0.0
 40
0.0
 40
0.0
 40
0.0
 40
0.1337660464451026
 40
0.2675485662185618
 40
0.4013442076882262
 40
0.5351496034523953
 40
0.6689613743684805
 40
0.8027761336119416
 40
0.9365904907550647
 40
1.0
 40
1.0
 40
1.0
 40
1.0
 10
-63.50000000000005
 20
6.888714083265004
 30
0.0
 10
-62.4894918362934
 20
6.677428371352583
 30
0.0
 10
-60.46835106449957
 20
6.254830927629563
 30
0.0
 10
-57.43640527360625
 20
5.296426661993813
 30
0.0
 10
-54.40412282046015
 20
4.14548897075133
 30
0.0
 10
-51.37158534107706
 20
2.823453458819884
 30
0.0
 10
-48.33888204401733
 20
1.388337943281947
 30
0.0
 10
-45.30610190009101
 20
-0.0978186471836437
 30
0.0
 10
-42.80519033258648
 20
-1.335377936412893
 30
0.0
 10
-41.31522451027132
 20
-2.024356340867872
 30
0.0
 10
-40.83618511552163
 20
-2.245870011129707
 30
0.0
1001
PE_URL
1000

  0
LINE
  5
214
330
1F
100
AcDbEntity
  8
0
  6
Continuous
 62
     1
370
    15
100
AcDbLine
 10
-63.50000000000005
 20
8.28543996448105
 30
0.0
 11
-63.50000000000005
 21
6.888714083265004
 31
0.0
1001
PE_URL
1000

  0
LINE
  5
215
330
1F
100
AcDbEntity
  8
0
  6
Continuous
 62
     1
370
    15
100
AcDbLine
 10
-63.50000000000005
 20
8.723870480473852
 30
0.0
 11
-63.50000000000005
 21
8.28543996448105
 31
0.0
1001
PE_URL
1000

  0
SPLINE
  5
216
330
1F
100
AcDbEntity
  8
0
  6
Continuous
 62
     1
370
    15
100
AcDbSpline
210
0.0
220
0.0
230
1.0
 70
     8
 71
     3
 72
    12
 73
     8
 74
     0
 42
0.000000001
 43
0.00000001
 40
0.0
 40
0.0
 40
0.0
 40
0.0
 40
0.5000000000000012
 40
0.5000000000000012
 40
0.7500000000000006
 40
0.7500000000000006
 40
1.0
 40
1.0
 40
1.0
 40
1.0
 10
-63.50000000000005
 20
2.333364972521352
 30
0.0
 10
-62.63841227284946
 20
1.65601481473054
 30
0.0
 10
-61.7901358384305
 20
0.9529895420475931
 30
0.0
 10
-60.53796290663974
 20
-0.140591042464898
 30
0.0
 10
-60.12398972905429
 20
-0.5117102313396984
 30
0.0
 10
-59.3035521443791
 20
-1.268431691165954
 30
0.0
 10
-58.89603744039588
 20
-1.655143439575827
 30
0.0
 10
-58.50000000000005
 20
-2.043313044166084
 30
0.0
1001
PE_URL
1000

  0
LINE
  5
217
330
1F
100
AcDbEntity
  8
0
  6
Continuous
 62
     1
370
    15
100
AcDbLine
 10
-58.50000000000005
 20
-2.937719435296575
 30
0.0
 11
-63.50000000000006
 21
0.0000000000000142
 31
0.0
1001
PE_URL
1000

  0
LINE
  5
218
330
1F
100
AcDbEntity
  8
0
  6
Continuous
 62
     1
370
    15
100
AcDbLine
 10
-63.50000000000006
 20
0.0000000000000142
 30
0.0
 11
-63.50000000000005
 21
2.333364972521352
 31
0.0
1001
PE_URL
1000

  0
SPLINE
  5
219
330
1F
100
AcDbEntity
  8
0
  6
Continuous
 62
     1
370
    15
100
AcDbSpline
210
0.0
220
0.0
230
1.0
 70
     8
 71
     3
 72
    14
 73
    10
 74
     0
 42
0.000000001
 43
0.00000001
 40
0.0
 40
0.0
 40
0.0
 40
0.0
 40
0.1547309428126989
 40
0.3094248961475596
 40
0.4641510702215828
 40
0.6189117859060591
 40
0.773691680390165
 40
0.925708996181158
 40
1.0
 40
1.0
 40
1.0
 40
1.0
 10
-58.50000000000004
 20
-2.26722178401856
 30
0.0
 10
-57.44218545370641
 20
-2.719707779806093
 30
0.0
 10
-55.3268092388371
 20
-3.624571601545117
 30
0.0
 10
-52.15384161531748
 20
-4.796842731036424
 30
0.0
 10
-48.98051195745432
 20
-5.76441527958486
 30
0.0
 10
-45.80651236046773
 20
-6.481494170823659
 30
0.0
 10
-42.65095693243807
 20
-6.896099899109636
 30
0.0
 10
-40.04561113102097
 20
-7.04087196667863
 30
0.0
 10
-38.49843792154027
 20
-6.935783811500031
 30
0.0
 10
-37.9905420960041
 20
-6.901286164435405
 30
0.0
1001
PE_URL
1000

  0
SPLINE
  5
21A
330
1F
100
AcDbEntity
  8
0
  6
Continuous
 62
     1
370
    15
100
AcDbSpline
210
0.0
220
0.0
230
1.0
 70
    24
 71
     3
 72
     8
 73
     4
 74
     0
 42
0.000000001
 43
0.00000001
 40
0.0
 40
0.0
 40
0.0
 40
0.0
 40
1.0
 40
1.0
 40
1.0
 40
1.0
 10
-58.50000000000006
 20
-2.043313044166087
 30
0.0
 10
-58.50000000000006
 20
-2.118317755926363
 30
0.0
 10
-58.50000000000006
 20
-2.192963155671219
 30
0.0
 10
-58.50000000000006
 20
-2.26722178401856
 30
0.0
1001
PE_URL
1000

  0
SPLINE
  5
21B
330
1F
100
AcDbEntity
  8
0
  6
Continuous
 62
     1
370
    15
100
AcDbSpline
210
0.0
220
0.0
230
1.0
 70
    24
 71
     3
 72
    10
 73
     6
 74
     0
 42
0.000000001
 43
0.00000001
 40
0.0
 40
0.0
 40
0.0
 40
0.0
 40
0.5
 40
0.5
 40
1.0
 40
1.0
 40
1.0
 40
1.0
 10
-63.50000000000005
 20
6.888714083265004
 30
0.0
 10
-63.50000000000006
 20
6.360640440239489
 30
0.0
 10
-63.50000000000006
 20
5.693399143858375
 30
0.0
 10
-63.50000000000004
 20
4.142127344584392
 30
0.0
 10
-63.50000000000006
 20
3.259440612141766
 30
0.0
 10
-63.50000000000005
 20
2.333364972521633
 30
0.0
1001
PE_URL
1000

  0
SPLINE
  5
21C
330
1F
100
AcDbEntity
  8
0
  6
Continuous
 62
     1
370
    15
100
AcDbSpline
210
0.0
220
0.0
230
1.0
 70
    24
 71
     3
 72
    10
 73
     6
 74
     0
 42
0.000000001
 43
0.00000001
 40
0.0
 40
0.0
 40
0.0
 40
0.0
 40
0.5
 40
0.5
 40
1.0
 40
1.0
 40
1.0
 40
1.0
 10
-58.50000000000005
 20
-2.26722178401856
 30
0.0
 10
-58.50000000000004
 20
-2.673213831087882
 30
0.0
 10
-58.50000000000006
 20
-3.061056462287571
 30
0.0
 10
-58.50000000000006
 20
-3.778834532892269
 30
0.0
 10
-58.50000000000006
 20
-4.1086572606409
 30
0.0
 10
-58.50000000000006
 20
-4.399952607361755
 30
0.0
1001
PE_URL
1000

  0
SPLINE
  5
21D
330
1F
100
AcDbEntity
  8
0
  6
Continuous
 62
     1
370
    15
100
AcDbSpline
210
0.0
220
0.0
230
1.0
 70
     8
 71
     3
 72
     9
 73
     5
 74
     0
 42
0.000000001
 43
0.00000001
 40
0.0
 40
0.0
 40
0.0
 40
0.0
 40
0.9339428493269405
 40
1.0
 40
1.0
 40
1.0
 40
1.0
 10
-63.50000000000006
 20
-6.111874999999984
 30
0.0
 10
-62.48949353625027
 20
-6.108411999029059
 30
0.0
 10
-61.40751462878495
 20
-6.104704062324565
 30
0.0
 10
-60.32551426346279
 20
-5.972545330332593
 30
0.0
 10
-60.25404040230237
 20
-5.963815301060635
 30
0.0
1001
PE_URL
1000

  0
SPLINE
  5
21E
330
1F
100
AcDbEntity
  8
0
  6
Continuous
 62
     1
370
    15
100
AcDbSpline
210
0.0
220
0.0
230
1.0
 70
     8
 71
     3
 72
    10
 73
     6
 74
     0
 42
0.000000001
 43
0.00000001
 40
0.0
 40
0.0
 40
0.0
 40
0.0
 40
0.4999999999999994
 40
0.4999999999999994
 40
1.0
 40
1.0
 40
1.0
 40
1.0
 10
-63.50000000000006
 20
-6.111874999999991
 30
0.0
 10
-62.65588601914251
 20
-5.88299983010031
 30
0.0
 10
-61.8165298338261
 20
-5.627531774560765
 30
0.0
 10
-60.14803587579132
 20
-5.059603747683944
 30
0.0
 10
-59.31995936626264
 20
-4.747974644908698
 30
0.0
 10
-58.50000000000006
 20
-4.399952607361733
 30
0.0
1001
PE_URL
1000

  0
SPLINE
  5
21F
330
1F
100
AcDbEntity
  8
0
  6
Continuous
 62
     1
370
    15
100
AcDbSpline
210
0.0
220
0.0
230
1.0
 70
     8
 71
     3
 72
    12
 73
     8
 74
     0
 42
0.000000001
 43
0.00000001
 40
0.0
 40
0.0
 40
0.0
 40
0.0
 40
0.160390311627518
 40
0.3703198572896014
 40
0.5802400414381571
 40
0.7901377702677796
 40
1.0
 40
1.0
 40
1.0
 40
1.0
 10
-45.01420997949261
 20
6.537956677056556
 30
0.0
 10
-44.22016526927303
 20
6.658370999140658
 30
0.0
 10
-42.38682184106798
 20
6.936391623437249
 30
0.0
 10
-39.51427619675909
 20
7.028738638725237
 30
0.0
 10
-36.39663998332716
 20
6.86168607316219
 30
0.0
 10
-33.27937938967997
 20
6.41196136880739
 30
0.0
 10
-31.20140121836646
 20
5.890114045894318
 30
0.0
 10
-30.16250000001101
 20
5.629212450750405
 30
0.0
1001
PE_URL
1000

  0
SPLINE
  5
220
330
1F
100
AcDbEntity
  8
외형선
  6
Continuous
370
    15
100
AcDbSpline
210
0.0
220
0.0
230
1.0
 70
    24
 71
     3
 72
    14
 73
    10
 74
     0
 42
0.000000001
 43
0.00000001
 40
0.0
 40
0.0
 40
0.0
 40
0.0
 40
0.25
 40
0.25
 40
0.5
 40
0.5
 40
0.75
 40
0.75
 40
1.0
 40
1.0
 40
1.0
 40
1.0
 10
-30.16250000000005
 20
-3.618544720069558
 30
0.0
 10
-30.16250000000005
 20
-2.912017973097552
 30
0.0
 10
-30.16250000000005
 20
-2.144225820731702
 30
0.0
 10
-30.16250000000004
 20
-0.5452340857728792
 30
0.0
 10
-30.16250000000004
 20
0.2853114642618877
 30
0.0
 10
-30.16250000000004
 20
1.928904536621097
 30
0.0
 10
-30.16250000000004
 20
2.74107628384089
 30
0.0
 10
-30.16250000000004
 20
4.270057893380255
 30
0.0
 10
-30.16250000000004
 20
4.986312056140331
 30
0.0
 10
-30.16250000000004
 20
5.629212450747399
 30
0.0
  0
LINE
  5
221
330
1F
100
AcDbEntity
  8
0
  6
Continuous
 62
     1
370
    15
100
AcDbLine
 10
-63.50000000000006
 20
0.0000000000000142
 30
0.0
 11
-63.50000000000006
 21
-6.111874999999984
 31
0.0
1001
PE_URL
1000

  0
SPLINE
  5
222
330
1F
100
AcDbEntity
  8
외형선
  6
Continuous
370
    15
100
AcDbSpline
210
0.0
220
0.0
230
1.0
 70
    24
 71
     3
 72
    11
 73
     7
 74
     0
 42
0.000000001
 43
0.00000001
 40
0.0
 40
0.0
 40
0.0
 40
0.0
 40
0.2193889882863929
 40
0.4387779765727857
 40
0.7598173973142268
 40
1.0
 40
1.0
 40
1.0
 40
1.0
 10
-30.16250000000004
 20
5.629212450747399
 30
0.0
 10
-30.16250000000004
 20
5.798930094764604
 30
0.0
 10
-30.16250000000004
 20
6.138365382799005
 30
0.0
 10
-30.16250000000003
 20
6.556775636123554
 30
0.0
 10
-30.16250000000003
 20
6.850236319745395
 30
0.0
 10
-30.16250000000003
 20
6.85722782074831
 30
0.0
 10
-30.16250000000003
 20
6.860219928750961
 30
0.0
  0
SPLINE
  5
223
330
1F
100
AcDbEntity
  8
0
  6
Continuous
 62
     1
370
    15
100
AcDbSpline
210
0.0
220
0.0
230
1.0
 70
     8
 71
     3
 72
    12
 73
     8
 74
     0
 42
0.000000001
 43
0.00000001
 40
0.0
 40
0.0
 40
0.0
 40
0.0
 40
0.0224302314902804
 40
0.2668368121123242
 40
0.5112347737286896
 40
0.7556229053569319
 40
1.0
 40
1.0
 40
1.0
 40
1.0
 10
-51.49735764649464
 20
-5.852638841544405
 30
0.0
 10
-51.58709989351199
 20
-5.893855289632761
 30
0.0
 10
-52.65470078368934
 20
-6.384178611496687
 30
0.0
 10
-54.70010981551585
 20
-7.122752343095108
 30
0.0
 10
-57.63353979195481
 20
-7.989403260227931
 30
0.0
 10
-60.56682858311246
 20
-8.558289489017035
 30
0.0
 10
-62.52229091337267
 20
-8.668677647559917
 30
0.0
 10
-63.50000000000006
 20
-8.723870480473806
 30
0.0
1001
PE_URL
1000

  0
SPLINE
  5
224
330
1F
100
AcDbEntity
  8
0
  6
Continuous
 62
     1
370
    15
100
AcDbSpline
210
0.0
220
0.0
230
1.0
 70
    24
 71
     3
 72
    10
 73
     6
 74
     0
 42
0.000000001
 43
0.00000001
 40
0.0
 40
0.0
 40
0.0
 40
0.0
 40
0.5
 40
0.5
 40
1.0
 40
1.0
 40
1.0
 40
1.0
 10
-63.50000000000006
 20
-6.111874999999984
 30
0.0
 10
-63.50000000000006
 20
-6.48236164224884
 30
0.0
 10
-63.50000000000006
 20
-6.912901431296
 30
0.0
 10
-63.50000000000004
 20
-7.816172749139454
 30
0.0
 10
-63.50000000000006
 20
-8.286597436341594
 30
0.0
 10
-63.50000000000006
 20
-8.723870480473813
 30
0.0
1001
PE_URL
1000

  0
LINE
  5
225
330
1F
100
AcDbEntity
  8
0
  6
Continuous
 62
     1
370
    15
100
AcDbLine
 10
-30.85411681344427
 20
6.864233606654548
 30
0.0
 11
-30.16250000000308
 21
7.125104089957475
 31
0.0
1001
PE_URL
1000

  0
SPLINE
  5
226
330
1F
100
AcDbEntity
  8
외형선
  6
Continuous
370
    15
100
AcDbSpline
210
0.0
220
0.0
230
1.0
 70
    24
 71
     3
 72
     9
 73
     5
 74
     0
 42
0.000000001
 43
0.00000001
 40
0.0
 40
0.0
 40
0.0
 40
0.0
 40
0.3652411027384023
 40
1.0
 40
1.0
 40
1.0
 40
1.0
 10
-30.16250000000003
 20
6.948829576852081
 30
0.0
 10
-30.16250000000003
 20
6.971078507417744
 30
0.0
 10
-30.16250000000003
 20
7.031994243349022
 30
0.0
 10
-30.16250000000003
 20
7.088950560734855
 30
0.0
 10
-30.16250000000003
 20
7.125104089950764
 30
0.0
  0
LINE
  5
227
330
1F
100
AcDbEntity
  8
외형선
  6
Continuous
370
    15
100
AcDbLine
 10
-7.696200000000154
 20
9.524999999999988
 30
0.0
 11
-26.20018467149224
 21
9.524999999999986
 31
0.0
  0
ENDSEC
  0
SECTION
  2
OBJECTS
  0
DICTIONARY
  5
C
330
0
100
AcDbDictionary
281
     1
  3
ACAD_GROUP
350
D
  3
ACAD_IMAGE_VARS
350
24C
  3
ACAD_LAYOUT
350
1A
  3
ACAD_MLINESTYLE
350
17
  3
ACAD_PLOTSETTINGS
350
19
  3
ACAD_PLOTSTYLENAME
350
E
  3
ACAD_SCALELIST
350
47
  3
APPDATA
350
158
  3
DWGPROPS
350
24D
  0
DICTIONARY
  5
195
330
2
100
AcDbDictionary
280
     1
281
     1
  3
ACAD_LAYERSTATES
360
196
  0
DICTIONARY
  5
D
102
{ACAD_REACTORS
330
C
102
}
330
C
100
AcDbDictionary
281
     1
  0
RASTERVARIABLES
  5
24C
102
{ACAD_REACTORS
330
C
102
}
330
C
100
AcDbRasterVariables
 90
        0
 70
     1
 71
     1
 72
     1
  0
DICTIONARY
  5
1A
102
{ACAD_REACTORS
330
C
102
}
330
C
100
AcDbDictionary
281
     1
  3
Layout1
350
1E
  3
Layout2
350
26
  3
Model
350
22
  0
DICTIONARY
  5
17
102
{ACAD_REACTORS
330
C
102
}
330
C
100
AcDbDictionary
281
     1
  3
Standard
350
18
  0
DICTIONARY
  5
19
102
{ACAD_REACTORS
330
C
102
}
330
C
100
AcDbDictionary
281
     1
  0
ACDBDICTIONARYWDFLT
  5
E
102
{ACAD_REACTORS
330
C
102
}
330
C
100
AcDbDictionary
281
     1
  3
Normal
350
F
100
AcDbDictionaryWithDefault
340
F
  0
DICTIONARY
  5
47
102
{ACAD_REACTORS
330
C
102
}
330
C
100
AcDbDictionary
281
     1
  3
A0
350
48
  3
A1
350
49
  3
A2
350
4A
  3
A3
350
4B
  3
A4
350
4C
  3
A5
350
4D
  3
A6
350
4E
  3
A7
350
4F
  3
A8
350
50
  3
A9
350
51
  3
B0
350
52
  3
B1
350
53
  3
B2
350
54
  3
B3
350
55
  3
B4
350
56
  3
B5
350
57
  3
B6
350
58
  3
B7
350
59
  3
B8
350
5A
  3
B9
350
5B
  3
C0
350
5C
  3
C1
350
5D
  3
C2
350
5E
  3
C3
350
5F
  3
C4
350
60
  3
C5
350
61
  3
C6
350
62
  3
C7
350
63
  3
C8
350
64
  3
C9
350
65
  3
D0
350
66
  3
D1
350
67
  3
D2
350
68
  0
DICTIONARY
  5
158
102
{ACAD_REACTORS
330
C
102
}
330
C
100
AcDbDictionary
281
     1
  0
XRECORD
  5
24D
102
{ACAD_REACTORS
330
C
102
}
330
C
100
AcDbXrecord
280
     1
  1
DWGPROPS COOKIE
  2

  3

  4

  6

  7

  8
12016016
  9

300
=
301
=
302
=
303
=
304
=
305
=
306
=
307
=
308
=
309
=
 40
0.0
 41
2458313.025124051
 42
2458330.402666447
  1

 90
        0
  0
DICTIONARY
  5
196
102
{ACAD_REACTORS
330
195
102
}
330
195
100
AcDbDictionary
281
     1
  0
LAYOUT
  5
1E
102
{ACAD_REACTORS
330
1A
102
}
330
1A
100
AcDbPlotSettings
  1

  2
none_device
  4

  6

 40
0.0
 41
0.0
 42
0.0
 43
0.0
 44
0.0
 45
0.0
 46
0.0
 47
0.0
 48
0.0
 49
0.0
140
0.0
141
0.0
142
1.0
143
1.0
 70
   688
 72
     1
 73
     0
 74
     5
  7

 75
    16
147
1.0
148
0.0
149
0.0
100
AcDbLayout
  1
Layout1
 70
     1
 71
     1
 10
0.0
 20
0.0
 11
420.0
 21
297.0
 12
0.0
 22
0.0
 32
0.0
 14
1.000000000000000E+20
 24
1.000000000000000E+20
 34
1.000000000000000E+20
 15
-1.000000000000000E+20
 25
-1.000000000000000E+20
 35
-1.000000000000000E+20
146
0.0
 13
0.0
 23
0.0
 33
0.0
 16
1.0
 26
0.0
 36
0.0
 17
0.0
 27
1.0
 37
0.0
 76
     0
330
1B
  0
LAYOUT
  5
26
102
{ACAD_REACTORS
330
1A
102
}
330
1A
100
AcDbPlotSettings
  1

  2
none_device
  4

  6

 40
0.0
 41
0.0
 42
0.0
 43
0.0
 44
0.0
 45
0.0
 46
0.0
 47
0.0
 48
0.0
 49
0.0
140
0.0
141
0.0
142
1.0
143
1.0
 70
   688
 72
     1
 73
     0
 74
     5
  7

 75
    16
147
1.0
148
0.0
149
0.0
100
AcDbLayout
  1
Layout2
 70
     1
 71
     2
 10
0.0
 20
0.0
 11
0.0
 21
0.0
 12
0.0
 22
0.0
 32
0.0
 14
0.0
 24
0.0
 34
0.0
 15
0.0
 25
0.0
 35
0.0
146
0.0
 13
0.0
 23
0.0
 33
0.0
 16
1.0
 26
0.0
 36
0.0
 17
0.0
 27
1.0
 37
0.0
 76
     0
330
23
  0
LAYOUT
  5
22
102
{ACAD_REACTORS
330
1A
102
}
330
1A
100
AcDbPlotSettings
  1

  2
none_device
  4
ANSI_A_(11.00_x_8.50_Inches)
  6

 40
6.35
 41
19.05
 42
6.35000508
 43
19.05000254
 44
279.4
 45
215.9
 46
56.71148299683747
 47
36.83370750541937
 48
0.0
 49
0.0
140
0.0
141
0.0
142
0.0228000086557032
143
1.0
 70
  1696
 72
     0
 73
     0
 74
     0
  7

 75
     0
147
0.0235690232323232
148
0.0
149
0.0
100
AcDbLayout
  1
Model
 70
     1
 71
     0
 10
0.0
 20
0.0
 11
420.0
 21
297.0
 12
0.0
 22
0.0
 32
0.0
 14
-83.37500000000011
 24
-49.97180738881175
 34
0.0
 15
114.7292027177502
 25
50.07787048047399
 35
0.0
146
0.0
 13
0.0
 23
0.0
 33
0.0
 16
1.0
 26
0.0
 36
0.0
 17
0.0
 27
1.0
 37
0.0
 76
     0
330
1F
331
29
  0
MLINESTYLE
  5
18
102
{ACAD_REACTORS
330
17
102
}
330
17
100
AcDbMlineStyle
  2
Standard
 70
     0
  3

 62
   256
 51
90.0
 52
90.0
 71
     2
 49
0.5
 62
   256
  6
BYLAYER
 49
-0.5
 62
   256
  6
BYLAYER
  0
ACDBPLACEHOLDER
  5
F
102
{ACAD_REACTORS
330
E
102
}
330
E
  0
SCALE
  5
48
102
{ACAD_REACTORS
330
47
102
}
330
47
100
AcDbScale
 70
     0
300
1:1
140
1.0
141
1.0
290
     1
  0
SCALE
  5
49
102
{ACAD_REACTORS
330
47
102
}
330
47
100
AcDbScale
 70
     0
300
1:2
140
1.0
141
2.0
290
     0
  0
SCALE
  5
4A
102
{ACAD_REACTORS
330
47
102
}
330
47
100
AcDbScale
 70
     0
300
1:4
140
1.0
141
4.0
290
     0
  0
SCALE
  5
4B
102
{ACAD_REACTORS
330
47
102
}
330
47
100
AcDbScale
 70
     0
300
1:5
140
1.0
141
5.0
290
     0
  0
SCALE
  5
4C
102
{ACAD_REACTORS
330
47
102
}
330
47
100
AcDbScale
 70
     0
300
1:8
140
1.0
141
8.0
290
     0
  0
SCALE
  5
4D
102
{ACAD_REACTORS
330
47
102
}
330
47
100
AcDbScale
 70
     0
300
1:10
140
1.0
141
10.0
290
     0
  0
SCALE
  5
4E
102
{ACAD_REACTORS
330
47
102
}
330
47
100
AcDbScale
 70
     0
300
1:16
140
1.0
141
16.0
290
     0
  0
SCALE
  5
4F
102
{ACAD_REACTORS
330
47
102
}
330
47
100
AcDbScale
 70
     0
300
1:20
140
1.0
141
20.0
290
     0
  0
SCALE
  5
50
102
{ACAD_REACTORS
330
47
102
}
330
47
100
AcDbScale
 70
     0
300
1:30
140
1.0
141
30.0
290
     0
  0
SCALE
  5
51
102
{ACAD_REACTORS
330
47
102
}
330
47
100
AcDbScale
 70
     0
300
1:40
140
1.0
141
40.0
290
     0
  0
SCALE
  5
52
102
{ACAD_REACTORS
330
47
102
}
330
47
100
AcDbScale
 70
     0
300
1:50
140
1.0
141
50.0
290
     0
  0
SCALE
  5
53
102
{ACAD_REACTORS
330
47
102
}
330
47
100
AcDbScale
 70
     0
300
1:100
140
1.0
141
100.0
290
     0
  0
SCALE
  5
54
102
{ACAD_REACTORS
330
47
102
}
330
47
100
AcDbScale
 70
     0
300
2:1
140
2.0
141
1.0
290
     0
  0
SCALE
  5
55
102
{ACAD_REACTORS
330
47
102
}
330
47
100
AcDbScale
 70
     0
300
4:1
140
4.0
141
1.0
290
     0
  0
SCALE
  5
56
102
{ACAD_REACTORS
330
47
102
}
330
47
100
AcDbScale
 70
     0
300
8:1
140
8.0
141
1.0
290
     0
  0
SCALE
  5
57
102
{ACAD_REACTORS
330
47
102
}
330
47
100
AcDbScale
 70
     0
300
10:1
140
10.0
141
1.0
290
     0
  0
SCALE
  5
58
102
{ACAD_REACTORS
330
47
102
}
330
47
100
AcDbScale
 70
     0
300
100:1
140
100.0
141
1.0
290
     0
  0
SCALE
  5
59
102
{ACAD_REACTORS
330
47
102
}
330
47
100
AcDbScale
 70
     0
300
1/128" = 1'-0"
140
0.0078125
141
12.0
290
     0
  0
SCALE
  5
5A
102
{ACAD_REACTORS
330
47
102
}
330
47
100
AcDbScale
 70
     0
300
1/64" = 1'-0"
140
0.015625
141
12.0
290
     0
  0
SCALE
  5
5B
102
{ACAD_REACTORS
330
47
102
}
330
47
100
AcDbScale
 70
     0
300
1/32" = 1'-0"
140
0.03125
141
12.0
290
     0
  0
SCALE
  5
5C
102
{ACAD_REACTORS
330
47
102
}
330
47
100
AcDbScale
 70
     0
300
1/16" = 1'-0"
140
0.0625
141
12.0
290
     0
  0
SCALE
  5
5D
102
{ACAD_REACTORS
330
47
102
}
330
47
100
AcDbScale
 70
     0
300
3/32" = 1'-0"
140
0.09375
141
12.0
290
     0
  0
SCALE
  5
5E
102
{ACAD_REACTORS
330
47
102
}
330
47
100
AcDbScale
 70
     0
300
1/8" = 1'-0"
140
0.125
141
12.0
290
     0
  0
SCALE
  5
5F
102
{ACAD_REACTORS
330
47
102
}
330
47
100
AcDbScale
 70
     0
300
3/16" = 1'-0"
140
0.1875
141
12.0
290
     0
  0
SCALE
  5
60
102
{ACAD_REACTORS
330
47
102
}
330
47
100
AcDbScale
 70
     0
300
1/4" = 1'-0"
140
0.25
141
12.0
290
     0
  0
SCALE
  5
61
102
{ACAD_REACTORS
330
47
102
}
330
47
100
AcDbScale
 70
     0
300
3/8" = 1'-0"
140
0.375
141
12.0
290
     0
  0
SCALE
  5
62
102
{ACAD_REACTORS
330
47
102
}
330
47
100
AcDbScale
 70
     0
300
1/2" = 1'-0"
140
0.5
141
12.0
290
     0
  0
SCALE
  5
63
102
{ACAD_REACTORS
330
47
102
}
330
47
100
AcDbScale
 70
     0
300
3/4" = 1'-0"
140
0.75
141
12.0
290
     0
  0
SCALE
  5
64
102
{ACAD_REACTORS
330
47
102
}
330
47
100
AcDbScale
 70
     0
300
1" = 1'-0"
140
1.0
141
12.0
290
     0
  0
SCALE
  5
65
102
{ACAD_REACTORS
330
47
102
}
330
47
100
AcDbScale
 70
     0
300
1-1/2" = 1'-0"
140
1.5
141
12.0
290
     0
  0
SCALE
  5
66
102
{ACAD_REACTORS
330
47
102
}
330
47
100
AcDbScale
 70
     0
300
3" = 1'-0"
140
3.0
141
12.0
290
     0
  0
SCALE
  5
67
102
{ACAD_REACTORS
330
47
102
}
330
47
100
AcDbScale
 70
     0
300
6" = 1'-0"
140
6.0
141
12.0
290
     0
  0
SCALE
  5
68
102
{ACAD_REACTORS
330
47
102
}
330
47
100
AcDbScale
 70
     0
300
1'-0" = 1'-0"
140
12.0
141
12.0
290
     0
  0
ENDSEC
  0
EOF
