  0
SECTION
  2
HEADER
  9
$ACADVER
  1
AC1015
  9
$ACADMAINTVER
 70
     6
  9
$DWGCODEPAGE
  3
ANSI_949
  9
$INSBASE
 10
0.0
 20
0.0
 30
0.0
  9
$EXTMIN
 10
-83.37500000000011
 20
-49.97180738881175
 30
0.0
  9
$EXTMAX
 10
114.7035838366447
 20
53.47441004776829
 30
0.0
  9
$LIMMIN
 10
0.0
 20
0.0
  9
$LIMMAX
 10
420.0
 20
297.0
  9
$ORTHOMODE
 70
     1
  9
$REGENMODE
 70
     1
  9
$FILLMODE
 70
     1
  9
$QTEXTMODE
 70
     0
  9
$MIRRTEXT
 70
     1
  9
$LTSCALE
 40
1.0
  9
$ATTMODE
 70
     1
  9
$TEXTSIZE
 40
3.5
  9
$TRACEWID
 40
1.0
  9
$TEXTSTYLE
  7
Standard
  9
$CLAYER
  8
0
  9
$CELTYPE
  6
ByLayer
  9
$CECOLOR
 62
   256
  9
$CELTSCALE
 40
1.0
  9
$DISPSILH
 70
     0
  9
$DIMSCALE
 40
1.0
  9
$DIMASZ
 40
3.302
  9
$DIMEXO
 40
1.0
  9
$DIMDLI
 40
3.75
  9
$DIMRND
 40
0.0
  9
$DIMDLE
 40
0.0
  9
$DIMEXE
 40
1.0
  9
$DIMTP
 40
0.0
  9
$DIMTM
 40
0.0
  9
$DIMTXT
 40
3.5
  9
$DIMCEN
 40
2.5
  9
$DIMTSZ
 40
0.0
  9
$DIMTOL
 70
     0
  9
$DIMLIM
 70
     0
  9
$DIMTIH
 70
     1
  9
$DIMTOH
 70
     1
  9
$DIMSE1
 70
     0
  9
$DIMSE2
 70
     0
  9
$DIMTAD
 70
     1
  9
$DIMZIN
 70
     0
  9
$DIMBLK
  1

  9
$DIMASO
 70
     1
  9
$DIMSHO
 70
     1
  9
$DIMPOST
  1

  9
$DIMAPOST
  1

  9
$DIMALT
 70
     0
  9
$DIMALTD
 70
     3
  9
$DIMALTF
 40
0.0393700787401575
  9
$DIMLFAC
 40
1.0
  9
$DIMTOFL
 70
     1
  9
$DIMTVP
 40
0.0
  9
$DIMTIX
 70
     0
  9
$DIMSOXD
 70
     0
  9
$DIMSAH
 70
     0
  9
$DIMBLK1
  1

  9
$DIMBLK2
  1

  9
$DIMSTYLE
  2
ISO-25
  9
$DIMCLRD
 70
     0
  9
$DIMCLRE
 70
     0
  9
$DIMCLRT
 70
     0
  9
$DIMTFAC
 40
1.0
  9
$DIMGAP
 40
1.524
  9
$DIMJUST
 70
     0
  9
$DIMSD1
 70
     0
  9
$DIMSD2
 70
     0
  9
$DIMTOLJ
 70
     0
  9
$DIMTZIN
 70
     0
  9
$DIMALTZ
 70
     0
  9
$DIMALTTZ
 70
     0
  9
$DIMUPT
 70
     0
  9
$DIMDEC
 70
     2
  9
$DIMTDEC
 70
     2
  9
$DIMALTU
 70
     2
  9
$DIMALTTD
 70
     3
  9
$DIMTXSTY
  7
Standard
  9
$DIMAUNIT
 70
     0
  9
$DIMADEC
 70
     2
  9
$DIMALTRND
 40
0.0
  9
$DIMAZIN
 70
     0
  9
$DIMDSEP
 70
    44
  9
$DIMATFIT
 70
     3
  9
$DIMFRAC
 70
     0
  9
$DIMLDRBLK
  1

  9
$DIMLUNIT
 70
     2
  9
$DIMLWD
 70
    -2
  9
$DIMLWE
 70
    -2
  9
$DIMTMOVE
 70
     0
  9
$LUNITS
 70
     2
  9
$LUPREC
 70
     2
  9
$SKETCHINC
 40
1.0
  9
$FILLETRAD
 40
10.0
  9
$AUNITS
 70
     0
  9
$AUPREC
 70
     2
  9
$MENU
  1
.
  9
$ELEVATION
 40
0.0
  9
$PELEVATION
 40
0.0
  9
$THICKNESS
 40
0.0
  9
$LIMCHECK
 70
     0
  9
$CHAMFERA
 40
0.0
  9
$CHAMFERB
 40
0.0
  9
$CHAMFERC
 40
0.0
  9
$CHAMFERD
 40
0.0
  9
$SKPOLY
 70
     0
  9
$TDCREATE
 40
2458313.400335857
  9
$TDUCREATE
 40
2458313.025335857
  9
$TDUPDATE
 40
2458330.777614063
  9
$TDUUPDATE
 40
2458330.402614063
  9
$TDINDWG
 40
0.0016266667
  9
$TDUSRTIMER
 40
2458330.402573414
  9
$USRTIMER
 70
     1
  9
$ANGBASE
 50
0.0
  9
$ANGDIR
 70
     0
  9
$PDMODE
 70
     0
  9
$PDSIZE
 40
-1.0
  9
$PLINEWID
 40
0.0
  9
$SPLFRAME
 70
     0
  9
$SPLINETYPE
 70
     6
  9
$SPLINESEGS
 70
     8
  9
$HANDSEED
  5
24E
  9
$SURFTAB1
 70
     6
  9
$SURFTAB2
 70
     6
  9
$SURFTYPE
 70
     6
  9
$SURFU
 70
     6
  9
$SURFV
 70
     6
  9
$UCSBASE
  2

  9
$UCSNAME
  2

  9
$UCSORG
 10
0.0
 20
0.0
 30
0.0
  9
$UCSXDIR
 10
1.0
 20
0.0
 30
0.0
  9
$UCSYDIR
 10
0.0
 20
1.0
 30
0.0
  9
$UCSORTHOREF
  2

  9
$UCSORTHOVIEW
 70
     0
  9
$UCSORGTOP
 10
0.0
 20
0.0
 30
0.0
  9
$UCSORGBOTTOM
 10
0.0
 20
0.0
 30
0.0
  9
$UCSORGLEFT
 10
0.0
 20
0.0
 30
0.0
  9
$UCSORGRIGHT
 10
0.0
 20
0.0
 30
0.0
  9
$UCSORGFRONT
 10
0.0
 20
0.0
 30
0.0
  9
$UCSORGBACK
 10
0.0
 20
0.0
 30
0.0
  9
$PUCSBASE
  2

  9
$PUCSNAME
  2

  9
$PUCSORG
 10
0.0
 20
0.0
 30
0.0
  9
$PUCSXDIR
 10
1.0
 20
0.0
 30
0.0
  9
$PUCSYDIR
 10
0.0
 20
1.0
 30
0.0
  9
$PUCSORTHOREF
  2

  9
$PUCSORTHOVIEW
 70
     0
  9
$PUCSORGTOP
 10
0.0
 20
0.0
 30
0.0
  9
$PUCSORGBOTTOM
 10
0.0
 20
0.0
 30
0.0
  9
$PUCSORGLEFT
 10
0.0
 20
0.0
 30
0.0
  9
$PUCSORGRIGHT
 10
0.0
 20
0.0
 30
0.0
  9
$PUCSORGFRONT
 10
0.0
 20
0.0
 30
0.0
  9
$PUCSORGBACK
 10
0.0
 20
0.0
 30
0.0
  9
$USERI1
 70
     0
  9
$USERI2
 70
     0
  9
$USERI3
 70
     0
  9
$USERI4
 70
     0
  9
$USERI5
 70
     0
  9
$USERR1
 40
0.0
  9
$USERR2
 40
0.0
  9
$USERR3
 40
0.0
  9
$USERR4
 40
0.0
  9
$USERR5
 40
0.0
  9
$WORLDVIEW
 70
     1
  9
$SHADEDGE
 70
     3
  9
$SHADEDIF
 70
    70
  9
$TILEMODE
 70
     1
  9
$MAXACTVP
 70
    64
  9
$PINSBASE
 10
0.0
 20
0.0
 30
0.0
  9
$PLIMCHECK
 70
     0
  9
$PEXTMIN
 10
1.000000000000000E+20
 20
1.000000000000000E+20
 30
1.000000000000000E+20
  9
$PEXTMAX
 10
-1.000000000000000E+20
 20
-1.000000000000000E+20
 30
-1.000000000000000E+20
  9
$PLIMMIN
 10
0.0
 20
0.0
  9
$PLIMMAX
 10
0.0
 20
0.0
  9
$UNITMODE
 70
     0
  9
$VISRETAIN
 70
     1
  9
$PLINEGEN
 70
     0
  9
$PSLTSCALE
 70
     1
  9
$TREEDEPTH
 70
  3020
  9
$CMLSTYLE
  2
Standard
  9
$CMLJUST
 70
     0
  9
$CMLSCALE
 40
20.0
  9
$PROXYGRAPHICS
 70
     1
  9
$MEASUREMENT
 70
     1
  9
$CELWEIGHT
370
    -1
  9
$ENDCAPS
280
     0
  9
$JOINSTYLE
280
     0
  9
$LWDISPLAY
290
     1
  9
$INSUNITS
 70
     4
  9
$HYPERLINKBASE
  1

  9
$STYLESHEET
  1

  9
$XEDIT
290
     1
  9
$CEPSNTYPE
380
     0
  9
$PSTYLEMODE
290
     1
  9
$FINGERPRINTGUID
  2
{F401A597-71EA-4C09-8610-BF6BA585980B}
  9
$VERSIONGUID
  2
{FAEB1C32-E019-11D5-929B-00C0DF256EC4}
  9
$EXTNAMES
290
     1
  9
$PSVPSCALE
 40
0.0
  9
$OLESTARTUP
290
     0
  0
ENDSEC
  0
SECTION
  2
CLASSES
  0
CLASS
  1
ACDBDICTIONARYWDFLT
  2
AcDbDictionaryWithDefault
  3
ObjectDBX Classes
 90
        0
280
     0
281
     0
  0
CLASS
  1
VISUALSTYLE
  2
AcDbVisualStyle
  3
ObjectDBX Classes
 90
     4095
280
     0
281
     0
  0
CLASS
  1
MATERIAL
  2
AcDbMaterial
  3
ObjectDBX Classes
 90
     1153
280
     0
281
     0
  0
CLASS
  1
SCALE
  2
AcDbScale
  3
ObjectDBX Classes
 90
     1153
280
     0
281
     0
  0
CLASS
  1
SUN
  2
AcDbSun
  3
SCENEOE
 90
     1153
280
     0
281
     0
  0
CLASS
  1
ACDBPLACEHOLDER
  2
AcDbPlaceHolder
  3
ObjectDBX Classes
 90
        0
280
     0
281
     0
  0
CLASS
  1
LAYOUT
  2
AcDbLayout
  3
ObjectDBX Classes
 90
        0
280
     0
281
     0
  0
CLASS
  1
TABLESTYLE
  2
AcDbTableStyle
  3
ObjectDBX Classes
 90
     4095
280
     0
281
     0
  0
CLASS
  1
MLEADERSTYLE
  2
AcDbMLeaderStyle
  3
ACDB_MLEADERSTYLE_CLASS
 90
     4095
280
     0
281
     0
  0
CLASS
  1
RASTERVARIABLES
  2
AcDbRasterVariables
  3
ISM
 90
        0
280
     0
281
     0
  0
ENDSEC
  0
SECTION
  2
TABLES
  0
TABLE
  2
VPORT
  5
8
330
0
100
AcDbSymbolTable
 70
     1
  0
VPORT
  5
29
330
8
100
AcDbSymbolTableRecord
100
AcDbViewportTableRecord
  2
*Active
 70
     0
 10
0.0
 20
0.0
 11
1.0
 21
1.0
 12
15.66429191832228
 22
1.751301329478267
 13
0.0
 23
0.0
 14
10.0
 24
10.0
 15
10.0
 25
10.0
 16
0.0
 26
0.0
 36
1.0
 17
0.0
 27
0.0
 37
0.0
 40
113.3298090859807
 41
1.782762691853601
 42
50.0
 43
0.0
 44
0.0
 50
0.0
 51
0.0
 71
    16
 72
  2000
 73
     1
 74
     3
 75
     0
 76
     0
 77
     0
 78
     0
281
     0
 65
     1
110
0.0
120
0.0
130
0.0
111
1.0
121
0.0
131
0.0
112
0.0
122
1.0
132
0.0
 79
     0
146
0.0
  0
ENDTAB
  0
TABLE
  2
LTYPE
  5
5
330
0
100
AcDbSymbolTable
 70
     6
  0
LTYPE
  5
14
330
5
100
AcDbSymbolTableRecord
100
AcDbLinetypeTableRecord
  2
ByBlock
 70
     0
  3

 72
    65
 73
     0
 40
0.0
  0
LTYPE
  5
15
330
5
100
AcDbSymbolTableRecord
100
AcDbLinetypeTableRecord
  2
ByLayer
 70
     0
  3

 72
    65
 73
     0
 40
0.0
  0
LTYPE
  5
16
330
5
100
AcDbSymbolTableRecord
100
AcDbLinetypeTableRecord
  2
Continuous
 70
     0
  3
Solid line
 72
    65
 73
     0
 40
0.0
  0
LTYPE
  5
6A
330
5
100
AcDbSymbolTableRecord
100
AcDbLinetypeTableRecord
  2
HIDDEN
 70
     0
  3
Hidden __ __ __ __ __ __ __ __ __ __ __ __ __ __
 72
    65
 73
     2
 40
1.905
 49
1.27
 74
     0
 49
-0.635
 74
     0
  0
LTYPE
  5
6B
330
5
100
AcDbSymbolTableRecord
100
AcDbLinetypeTableRecord
  2
PHANTOM
 70
     0
  3
Phantom ______  __  __  ______  __  __  ______
 72
    65
 73
     6
 40
12.7
 49
6.35
 74
     0
 49
-1.27
 74
     0
 49
1.27
 74
     0
 49
-1.27
 74
     0
 49
1.27
 74
     0
 49
-1.27
 74
     0
  0
LTYPE
  5
6C
330
5
100
AcDbSymbolTableRecord
100
AcDbLinetypeTableRecord
  2
CENTER
 70
     0
  3
Center ____ _ ____ _ ____ _ ____ _ ____ _ ____
 72
    65
 73
     4
 40
10.16
 49
6.35
 74
     0
 49
-1.27
 74
     0
 49
1.27
 74
     0
 49
-1.27
 74
     0
  0
LTYPE
  5
6D
330
5
100
AcDbSymbolTableRecord
100
AcDbLinetypeTableRecord
  2
CENTERX2
 70
     0
  3
Center (2x) ________  __  ________  __  _____
 72
    65
 73
     4
 40
20.32
 49
12.7
 74
     0
 49
-2.54
 74
     0
 49
2.54
 74
     0
 49
-2.54
 74
     0
  0
LTYPE
  5
6E
330
5
100
AcDbSymbolTableRecord
100
AcDbLinetypeTableRecord
  2
DOT2
 70
     0
  3
Dot (.5x) ........................................
 72
    65
 73
     2
 40
0.635
 49
0.0
 74
     0
 49
-0.635
 74
     0
  0
ENDTAB
  0
TABLE
  2
LAYER
  5
2
102
{ACAD_XDICTIONARY
360
195
102
}
330
0
100
AcDbSymbolTable
 70
    18
  0
LAYER
  5
10
330
2
100
AcDbSymbolTableRecord
100
AcDbLayerTableRecord
  2
0
 70
     0
 62
     7
  6
Continuous
370
    -3
390
F
  0
LAYER
  5
6F
330
2
100
AcDbSymbolTableRecord
100
AcDbLayerTableRecord
  2
FORMAT
 70
     0
 62
     2
  6
Continuous
370
    -3
390
F
  0
LAYER
  5
70
330
2
100
AcDbSymbolTableRecord
100
AcDbLayerTableRecord
  2
외형선
 70
     0
 62
     4
  6
Continuous
370
    30
390
F
  0
LAYER
  5
71
330
2
100
AcDbSymbolTableRecord
100
AcDbLayerTableRecord
  2
숨은선
 70
     0
 62
     2
  6
HIDDEN
370
    15
390
F
  0
LAYER
  5
72
330
2
100
AcDbSymbolTableRecord
100
AcDbLayerTableRecord
  2
중심선
 70
     0
 62
     1
  6
CENTERX2
370
    -3
390
F
  0
LAYER
  5
73
330
2
100
AcDbSymbolTableRecord
100
AcDbLayerTableRecord
  2
파단선
 70
     0
 62
     4
  6
Continuous
370
    -3
390
F
  0
LAYER
  5
74
330
2
100
AcDbSymbolTableRecord
100
AcDbLayerTableRecord
  2
해칭선
 70
     0
 62
   100
  6
Continuous
370
    -3
390
F
  0
LAYER
  5
75
330
2
100
AcDbSymbolTableRecord
100
AcDbLayerTableRecord
  2
가는실선
 70
     0
 62
     4
  6
Continuous
370
    -3
390
F
  0
LAYER
  5
76
330
2
100
AcDbSymbolTableRecord
100
AcDbLayerTableRecord
  2
치수_보조선
 70
     0
 62
     4
  6
Continuous
370
    -3
390
F
  0
LAYER
  5
77
330
2
100
AcDbSymbolTableRecord
100
AcDbLayerTableRecord
  2
치수문자_일반주서
 70
     0
 62
     7
  6
Continuous
370
    15
390
F
  0
LAYER
  5
78
330
2
100
AcDbSymbolTableRecord
100
AcDbLayerTableRecord
  2
개별주서
 70
     0
 62
   100
  6
Continuous
370
    30
390
F
  0
LAYER
  5
79
330
2
100
AcDbSymbolTableRecord
100
AcDbLayerTableRecord
  2
중간선
 70
     0
 62
     2
  6
Continuous
370
    15
390
F
  0
LAYER
  5
7A
330
2
100
AcDbSymbolTableRecord
100
AcDbLayerTableRecord
  2
윤곽선
 70
     0
 62
     3
  6
Continuous
370
    40
390
F
  0
LAYER
  5
7B
330
2
100
AcDbSymbolTableRecord
100
AcDbLayerTableRecord
  2
중심마크
 70
     0
 62
   100
  6
Continuous
370
    30
390
F
  0
LAYER
  5
7C
330
2
100
AcDbSymbolTableRecord
100
AcDbLayerTableRecord
  2
가상선
 70
     0
 62
     4
  6
PHANTOM
370
    -3
390
F
  0
LAYER
  5
7D
330
2
100
AcDbSymbolTableRecord
100
AcDbLayerTableRecord
  2
특수지정선
 70
     0
 62
     5
  6
CENTERX2
370
    60
390
F
  0
LAYER
  5
7E
330
2
100
AcDbSymbolTableRecord
100
AcDbLayerTableRecord
  2
참조1
 70
     0
 62
    -4
  6
Continuous
370
    -3
390
F
  0
LAYER
  5
15A
330
2
100
AcDbSymbolTableRecord
100
AcDbLayerTableRecord
  2
Defpoints
 70
     0
 62
     7
  6
Continuous
290
     0
370
    -3
390
F
  0
ENDTAB
  0
TABLE
  2
STYLE
  5
3
330
0
100
AcDbSymbolTable
 70
     2
  0
STYLE
  5
11
330
3
100
AcDbSymbolTableRecord
100
AcDbTextStyleTableRecord
  2
Standard
 70
     0
 40
0.0
 41
1.0
 50
0.0
 71
     0
 42
3.5
  3
txt
  4

  0
STYLE
  5
94
330
3
100
AcDbSymbolTableRecord
100
AcDbTextStyleTableRecord
  2
SLDTEXTSTYLE0
 70
     0
 40
0.0
 41
0.75
 50
0.0
 71
     0
 42
3.5
  3
TXT
  4

  0
ENDTAB
  0
TABLE
  2
VIEW
  5
6
330
0
100
AcDbSymbolTable
 70
     0
  0
ENDTAB
  0
TABLE
  2
UCS
  5
7
330
0
100
AcDbSymbolTable
 70
     0
  0
ENDTAB
  0
TABLE
  2
APPID
  5
9
330
0
100
AcDbSymbolTable
 70
     2
  0
APPID
  5
12
330
9
100
AcDbSymbolTableRecord
100
AcDbRegAppTableRecord
  2
ACAD
 70
     0
  0
APPID
  5
162
330
9
100
AcDbSymbolTableRecord
100
AcDbRegAppTableRecord
  2
PE_URL
 70
     0
  0
ENDTAB
  0
TABLE
  2
DIMSTYLE
  5
A
330
0
100
AcDbSymbolTable
 70
     3
100
AcDbDimStyleTable
  0
DIMSTYLE
105
27
330
A
100
AcDbSymbolTableRecord
100
AcDbDimStyleTableRecord
  2
ISO-25
 70
     0
 41
2.5
 42
0.625
 43
3.75
 44
1.25
 73
     0
 74
     0
 77
     1
 78
     8
140
2.5
141
2.5
143
0.03937007874016
147
0.625
171
     3
172
     1
178
     0
271
     2
272
     2
274
     3
278
    44
283
     0
284
     8
340
11
  0
DIMSTYLE
105
DA
102
{ACAD_REACTORS
330
D9
330
EE
330
102
330
116
102
}
330
A
100
AcDbSymbolTableRecord
100
AcDbDimStyleTableRecord
  2
SLDDIMSTYLE0
 70
     0
 41
3.302
 44
0.0
 45
0.000000001
 73
     0
 74
     0
 77
     1
 78
    12
 79
     3
140
3.5
143
0.0393700787401575
147
0.875
148
0.000000001
170
     1
172
     1
173
     1
178
     0
271
     2
272
     2
276
     2
284
    12
289
     0
340
94
  0
DIMSTYLE
105
EF
330
A
100
AcDbSymbolTableRecord
100
AcDbDimStyleTableRecord
  2
SLDDIMSTYLE1
 70
     0
 41
3.302
 44
0.0
 45
0.000000001
 73
     0
 74
     0
 77
     1
 78
    12
 79
     3
140
3.5
143
0.0393700787401575
147
0.875
148
0.000000001
170
     1
173
     1
178
     0
271
     2
272
     2
276
     2
284
    12
340
94
  0
ENDTAB
  0
TABLE
  2
BLOCK_RECORD
  5
1
330
0
100
AcDbSymbolTable
 70
     9
  0
BLOCK_RECORD
  5
1F
330
1
100
AcDbSymbolTableRecord
100
AcDbBlockTableRecord
  2
*Model_Space
340
22
  0
BLOCK_RECORD
  5
1B
330
1
100
AcDbSymbolTableRecord
100
AcDbBlockTableRecord
  2
*Paper_Space
340
1E
  0
BLOCK_RECORD
  5
23
330
1
100
AcDbSymbolTableRecord
100
AcDbBlockTableRecord
  2
*Paper_Space0
340
26
  0
BLOCK_RECORD
  5
7F
330
1
100
AcDbSymbolTableRecord
100
AcDbBlockTableRecord
  2
블럭10
340
0
102
{BLKREFS
331
D2
102
}
  0
BLOCK_RECORD
  5
DB
330
1
100
AcDbSymbolTableRecord
100
AcDbBlockTableRecord
  2
_D
340
0
  0
BLOCK_RECORD
  5
F0
330
1
100
AcDbSymbolTableRecord
100
AcDbBlockTableRecord
  2
_D_1
340
0
  0
BLOCK_RECORD
  5
103
330
1
100
AcDbSymbolTableRecord
100
AcDbBlockTableRecord
  2
_D_2
340
0
  0
BLOCK_RECORD
  5
117
330
1
100
AcDbSymbolTableRecord
100
AcDbBlockTableRecord
  2
_D_3
340
0
  0
BLOCK_RECORD
  5
130
330
1
100
AcDbSymbolTableRecord
100
AcDbBlockTableRecord
  2
SW_DOWELSYMBOL_0
340
0
102
{BLKREFS
331
136
102
}
  0
BLOCK_RECORD
  5
199
330
1
100
AcDbSymbolTableRecord
100
AcDbBlockTableRecord
  2
*D7
340
0
  0
BLOCK_RECORD
  5
1AE
330
1
100
AcDbSymbolTableRecord
100
AcDbBlockTableRecord
  2
*D8
340
0
  0
ENDTAB
  0
ENDSEC
  0
SECTION
  2
BLOCKS
  0
BLOCK
  5
20
330
1F
100
AcDbEntity
  8
0
100
AcDbBlockBegin
  2
*Model_Space
 70
     0
 10
0.0
 20
0.0
 30
0.0
  3
*Model_Space
  1
*Model_Space
  0
ENDBLK
  5
21
330
1F
100
AcDbEntity
  8
0
100
AcDbBlockEnd
  0
BLOCK
  5
1C
330
1B
100
AcDbEntity
 67
     1
  8
0
100
AcDbBlockBegin
  2
*Paper_Space
 70
     0
 10
0.0
 20
0.0
 30
0.0
  3
*Paper_Space
  1
*Paper_Space
  0
ENDBLK
  5
1D
330
1B
100
AcDbEntity
 67
     1
  8
0
100
AcDbBlockEnd
  0
BLOCK
  5
24
330
23
100
AcDbEntity
  8
0
100
AcDbBlockBegin
  2
*Paper_Space0
 70
     0
 10
0.0
 20
0.0
 30
0.0
  3
*Paper_Space0
  1
*Paper_Space0
  0
ENDBLK
  5
25
330
23
100
AcDbEntity
  8
0
100
AcDbBlockEnd
  0
BLOCK
  5
80
330
7F
100
AcDbEntity
  8
0
100
AcDbBlockBegin
  2
블럭10
 70
     2
 10
0.0
 20
0.0
 30
0.0
  3
블럭10
  1
블럭10
  0
ELLIPSE
  5
82
330
7F
100
AcDbEntity
  8
중심선
100
AcDbEllipse
 10
20.54032771741204
 20
12.0471743016438
 30
0.0
 11
6.600054785286829
 21
-1.261213355974178E-13
 31
0.0
210
0.0
220
0.0
230
1.0
 40
0.636358354079598
 41
0.9219305317359503
 42
6.513795318482858
  0
ELLIPSE
  5
83
330
7F
100
AcDbEntity
  8
중심선
100
AcDbEllipse
 10
20.54032771746488
 20
12.04717430159265
 30
0.0
 11
3.960054785062283
 21
1.540847449632565E-10
 31
0.0
210
0.0
220
0.0
230
1.0
 40
0.3939339440162632
 41
1.131841032648279
 42
5.62031148352944
  0
LINE
  5
84
330
7F
100
AcDbEntity
  8
중심선
100
AcDbLine
 10
2.268634060543552
 20
16.24717430164393
 30
0.0
 11
5.714909304380834
 21
16.24717430164393
 31
0.0
  0
LINE
  5
85
330
7F
100
AcDbEntity
  8
중심선
100
AcDbLine
 10
5.245725140726316
 20
7.84717430164391
 30
0.0
 11
8.692000384563599
 21
7.84717430164391
 31
0.0
  0
LINE
  5
86
330
7F
100
AcDbEntity
  8
중심선
100
AcDbLine
 10
15.74043728645272
 20
16.24717430164393
 30
0.0
 11
8.692000384563599
 21
7.84717430164391
 31
0.0
  0
LINE
  5
87
330
7F
100
AcDbEntity
  8
중심선
100
AcDbLine
 10
0.1404042013395286
 20
13.71084872107135
 30
0.0
 11
3.58671253028996
 21
13.71088815037384
 31
0.0
  0
LINE
  5
88
330
7F
100
AcDbEntity
  8
중심선
100
AcDbLine
 10
2.750260043222114
 20
10.84717430164391
 30
0.0
 11
6.196535287059397
 21
10.84717430164391
 31
0.0
  0
LINE
  5
89
330
7F
100
AcDbEntity
  8
중심선
100
AcDbLine
 10
12.29416204261559
 20
16.24717430164393
 30
0.0
 11
5.245725140726316
 21
7.84717430164391
 31
0.0
  0
LINE
  5
8A
330
7F
100
AcDbEntity
  8
중심선
100
AcDbLine
 10
10.72767329541681
 20
16.24717430164393
 30
0.0
 11
6.196535287059397
 21
10.84717430164391
 31
0.0
  0
LINE
  5
8B
330
7F
100
AcDbEntity
  8
중심선
100
AcDbLine
 10
7.28139805157953
 20
16.24717430164393
 30
0.0
 11
2.750260043222114
 21
10.84717430164391
 31
0.0
  0
LINE
  5
8C
330
7F
100
AcDbEntity
  8
중심선
100
AcDbLine
 10
5.714909304380834
 20
16.24717430164393
 30
0.0
 11
3.58671253028996
 21
13.71088815037384
 31
0.0
  0
LINE
  5
8D
330
7F
100
AcDbEntity
  8
중심선
100
AcDbLine
 10
2.268634060543552
 20
16.24717430164393
 30
0.0
 11
0.1404042013395286
 21
13.71084872107135
 31
0.0
  0
LINE
  5
8E
330
7F
100
AcDbEntity
  8
중심선
100
AcDbLine
 10
7.28139805157953
 20
16.24717430164393
 30
0.0
 11
10.72767329541681
 21
16.24717430164393
 31
0.0
  0
LINE
  5
8F
330
7F
100
AcDbEntity
  8
중심선
100
AcDbLine
 10
12.29416204261559
 20
16.24717430164393
 30
0.0
 11
15.74043728645272
 21
16.24717430164393
 31
0.0
  0
LINE
  5
90
330
7F
100
AcDbEntity
  8
중심선
100
AcDbLine
 10
19.22036997980202
 20
11.08717430171403
 30
0.0
 11
23.66174974927406
 21
11.08717430171406
 31
0.0
  0
LINE
  5
91
330
7F
100
AcDbEntity
  8
중심선
100
AcDbLine
 10
19.22039502424796
 20
13.00717430171391
 30
0.0
 11
19.22036997980202
 21
11.08717430171403
 31
0.0
  0
LINE
  5
92
330
7F
100
AcDbEntity
  8
중심선
100
AcDbLine
 10
19.22039502424796
 20
13.00717430171391
 30
0.0
 11
26.96566020931264
 21
13.00717430171391
 31
0.0
  0
LINE
  5
93
330
7F
100
AcDbEntity
  8
중심선
100
AcDbLine
 10
22.22332737316547
 20
13.45928029700563
 30
0.0
 11
24.52862924686651
 21
15.39360700705356
 31
0.0
  0
ATTDEF
  5
95
330
7F
100
AcDbEntity
  8
FORMAT
 62
     2
100
AcDbText
 10
4.408487351596664
 20
2.075366912832191
 30
0.0
 40
4.233333333333333
  1
E1050046
 41
0.75
  7
SLDTEXTSTYLE0
 11
4.408487351596664
 21
-0.0412997538344756
 31
0.0
100
AcDbAttributeDefinition
  3

  2
AUTOATTR0
 70
     0
 74
     1
  0
ENDBLK
  5
81
330
7F
100
AcDbEntity
  8
0
100
AcDbBlockEnd
  0
BLOCK
  5
DC
330
DB
100
AcDbEntity
  8
0
100
AcDbBlockBegin
  2
_D
 70
     0
 10
0.0
 20
0.0
 30
0.0
  3
_D
  1
_D
  0
LINE
  5
DE
330
DB
100
AcDbEntity
  8
치수문자_일반주서
 62
     0
370
    -2
100
AcDbLine
 10
-27.17502658361473
 20
9.524999999999991
 30
0.0
 11
-78.49999999999996
 21
9.5249999999998
 31
0.0
  0
LINE
  5
DF
330
DB
100
AcDbEntity
  8
치수문자_일반주서
 62
     0
370
    -2
100
AcDbLine
 10
-27.17502658361472
 20
-9.525000000000006
 30
0.0
 11
-78.49999999999989
 21
-9.525000000000198
 31
0.0
  0
LINE
  5
E0
330
DB
100
AcDbEntity
  8
치수문자_일반주서
 62
     0
370
    -2
100
AcDbLine
 10
-78.49999999999996
 20
9.5249999999998
 30
0.0
 11
-78.5000000000001
 21
47.37899999999994
 31
0.0
  0
LINE
  5
E1
330
DB
100
AcDbEntity
  8
치수문자_일반주서
 62
     0
370
    -2
100
AcDbLine
 10
-78.49999999999996
 20
9.5249999999998
 30
0.0
 11
-78.49999999999989
 21
-9.525000000000198
 31
0.0
  0
LINE
  5
E2
330
DB
100
AcDbEntity
  8
치수문자_일반주서
 62
     0
370
    -2
100
AcDbLine
 10
-78.49999999999997
 20
12.8269999999998
 30
0.0
 11
-78.49999999999999
 21
16.1289999999998
 31
0.0
  0
LINE
  5
E3
330
DB
100
AcDbEntity
  8
치수문자_일반주서
 62
     0
370
    -2
100
AcDbLine
 10
-78.49999999999987
 20
-12.8270000000002
 30
0.0
 11
-78.49999999999986
 21
-16.1290000000002
 31
0.0
  0
SOLID
  5
E4
330
DB
100
AcDbEntity
  8
치수문자_일반주서
 62
     0
100
AcDbTrace
 10
-79.0503333333333
 20
12.8269999999998
 30
0.0
 11
-77.94966666666664
 21
12.8269999999998
 31
0.0
 12
-78.49999999999996
 22
9.5249999999998
 32
0.0
 13
-78.49999999999996
 23
9.5249999999998
 33
0.0
  0
SOLID
  5
E5
330
DB
100
AcDbEntity
  8
치수문자_일반주서
 62
     0
100
AcDbTrace
 10
-77.94966666666654
 20
-12.8270000000002
 30
0.0
 11
-79.0503333333332
 21
-12.8270000000002
 31
0.0
 12
-78.49999999999989
 22
-9.525000000000198
 32
0.0
 13
-78.49999999999989
 23
-9.525000000000198
 33
0.0
  0
MTEXT
  5
E6
330
DB
100
AcDbEntity
  8
치수문자_일반주서
 62
     0
100
AcDbMText
 10
-83.37500000000004
 20
31.75399999999992
 30
0.0
 40
4.0
 41
0.0
 71
     2
 72
     1
  1
\A1;%%c19.05 [3/4]
  7
SLDTEXTSTYLE0
 11
-3.729883127349608E-15
 21
1.0
 31
0.0
 73
     1
 44
1.0
  0
POINT
  5
1C0
330
DB
100
AcDbEntity
  8
Defpoints
 62
     0
100
AcDbPoint
 10
-27.11252658361473
 20
9.524999999999991
 30
0.0
  0
POINT
  5
1C1
330
DB
100
AcDbEntity
  8
Defpoints
 62
     0
100
AcDbPoint
 10
-27.11252658361472
 20
-9.525000000000006
 30
0.0
  0
POINT
  5
1C2
330
DB
100
AcDbEntity
  8
Defpoints
 62
     0
100
AcDbPoint
 10
-78.49999999999989
 20
-9.525000000000198
 30
0.0
  0
ENDBLK
  5
DD
330
DB
100
AcDbEntity
  8
0
100
AcDbBlockEnd
  0
BLOCK
  5
F1
330
F0
100
AcDbEntity
  8
0
100
AcDbBlockBegin
  2
_D_1
 70
     0
 10
0.0
 20
0.0
 30
0.0
  3
_D_1
  1
_D_1
  0
LINE
  5
F3
330
F0
100
AcDbEntity
  8
치수문자_일반주서
 62
     0
370
    -2
100
AcDbLine
 10
63.56250000000004
 20
-9.120410047768098
 30
0.0
 11
114.1532505033113
 21
-9.120410047767912
 31
0.0
  0
LINE
  5
F4
330
F0
100
AcDbEntity
  8
치수문자_일반주서
 62
     0
370
    -2
100
AcDbLine
 10
63.56250000000004
 20
9.12041004776809
 30
0.0
 11
114.1532505033113
 21
9.120410047768278
 31
0.0
  0
LINE
  5
F5
330
F0
100
AcDbEntity
  8
치수문자_일반주서
 62
     0
370
    -2
100
AcDbLine
 10
114.1532505033113
 20
9.120410047768278
 30
0.0
 11
114.1532505033111
 21
53.47441004776829
 31
0.0
  0
LINE
  5
F6
330
F0
100
AcDbEntity
  8
치수문자_일반주서
 62
     0
370
    -2
100
AcDbLine
 10
114.1532505033113
 20
-9.120410047767912
 30
0.0
 11
114.1532505033113
 21
9.120410047768278
 31
0.0
  0
LINE
  5
F7
330
F0
100
AcDbEntity
  8
치수문자_일반주서
 62
     0
370
    -2
100
AcDbLine
 10
114.1532505033113
 20
-12.42241004776791
 30
0.0
 11
114.1532505033114
 21
-15.72441004776791
 31
0.0
  0
LINE
  5
F8
330
F0
100
AcDbEntity
  8
치수문자_일반주서
 62
     0
370
    -2
100
AcDbLine
 10
114.1532505033113
 20
12.42241004776828
 30
0.0
 11
114.1532505033112
 21
15.72441004776828
 31
0.0
  0
SOLID
  5
F9
330
F0
100
AcDbEntity
  8
치수문자_일반주서
 62
     0
100
AcDbTrace
 10
114.7035838366447
 20
-12.42241004776791
 30
0.0
 11
113.602917169978
 21
-12.42241004776791
 31
0.0
 12
114.1532505033113
 22
-9.120410047767912
 32
0.0
 13
114.1532505033113
 23
-9.120410047767912
 33
0.0
  0
SOLID
  5
FA
330
F0
100
AcDbEntity
  8
치수문자_일반주서
 62
     0
100
AcDbTrace
 10
113.6029171699779
 20
12.42241004776828
 30
0.0
 11
114.7035838366446
 21
12.42241004776828
 31
0.0
 12
114.1532505033113
 22
9.120410047768278
 32
0.0
 13
114.1532505033113
 23
9.120410047768278
 33
0.0
  0
MTEXT
  5
FB
330
F0
100
AcDbEntity
  8
치수문자_일반주서
 62
     0
100
AcDbMText
 10
109.2782505033112
 20
34.59941004776827
 30
0.0
 40
4.0
 41
0.0
 71
     2
 72
     1
  1
\A1;%%c18.24 [23/32]
  7
SLDTEXTSTYLE0
 11
-3.116275395683469E-15
 21
1.0
 31
0.0
 73
     1
 44
1.0
  0
POINT
  5
FC
330
F0
100
AcDbEntity
  8
Defpoints
 62
     0
100
AcDbPoint
 10
63.50000000000004
 20
-9.120410047768098
 30
0.0
  0
POINT
  5
FD
330
F0
100
AcDbEntity
  8
Defpoints
 62
     0
100
AcDbPoint
 10
63.50000000000004
 20
9.12041004776809
 30
0.0
  0
POINT
  5
FE
330
F0
100
AcDbEntity
  8
Defpoints
 62
     0
100
AcDbPoint
 10
114.1532505033113
 20
9.12041004776828
 30
0.0
  0
ENDBLK
  5
F2
330
F0
100
AcDbEntity
  8
0
100
AcDbBlockEnd
  0
BLOCK
  5
104
330
103
100
AcDbEntity
  8
0
100
AcDbBlockBegin
  2
_D_2
 70
     0
 10
0.0
 20
0.0
 30
0.0
  3
_D_2
  1
_D_2
  0
LINE
  5
106
330
103
100
AcDbEntity
  8
치수문자_일반주서
 62
     0
370
    -2
100
AcDbLine
 10
63.50000000000004
 20
9.18291004776809
 30
0.0
 11
63.50000000000004
 21
24.52499999999999
 31
0.0
  0
LINE
  5
107
330
103
100
AcDbEntity
  8
치수문자_일반주서
 62
     0
370
    -2
100
AcDbLine
 10
30.16250000000002
 20
7.214897586978281
 30
0.0
 11
30.16250000000002
 21
24.52499999999999
 31
0.0
  0
LINE
  5
108
330
103
100
AcDbEntity
  8
치수문자_일반주서
 62
     0
370
    -2
100
AcDbLine
 10
63.50000000000004
 20
24.52499999999999
 30
0.0
 11
106.854
 21
24.52499999999999
 31
0.0
  0
LINE
  5
109
330
103
100
AcDbEntity
  8
치수문자_일반주서
 62
     0
370
    -2
100
AcDbLine
 10
63.50000000000004
 20
24.52499999999999
 30
0.0
 11
30.16250000000002
 21
24.52499999999999
 31
0.0
  0
LINE
  5
10A
330
103
100
AcDbEntity
  8
치수문자_일반주서
 62
     0
370
    -2
100
AcDbLine
 10
66.80200000000004
 20
24.52499999999999
 30
0.0
 11
70.10400000000004
 21
24.52499999999999
 31
0.0
  0
LINE
  5
10B
330
103
100
AcDbEntity
  8
치수문자_일반주서
 62
     0
370
    -2
100
AcDbLine
 10
26.86050000000002
 20
24.52499999999999
 30
0.0
 11
23.55850000000002
 21
24.52499999999999
 31
0.0
  0
SOLID
  5
10C
330
103
100
AcDbEntity
  8
치수문자_일반주서
 62
     0
100
AcDbTrace
 10
66.80200000000004
 20
25.07533333333332
 30
0.0
 11
66.80200000000004
 21
23.97466666666665
 31
0.0
 12
63.50000000000004
 22
24.52499999999999
 32
0.0
 13
63.50000000000004
 23
24.52499999999999
 33
0.0
  0
SOLID
  5
10D
330
103
100
AcDbEntity
  8
치수문자_일반주서
 62
     0
100
AcDbTrace
 10
26.86050000000002
 20
23.97466666666665
 30
0.0
 11
26.86050000000002
 21
25.07533333333332
 31
0.0
 12
30.16250000000002
 22
24.52499999999999
 32
0.0
 13
30.16250000000002
 23
24.52499999999999
 33
0.0
  0
MTEXT
  5
10E
330
103
100
AcDbEntity
  8
치수문자_일반주서
 62
     0
100
AcDbMText
 10
88.47900000000004
 20
29.39999999999999
 30
0.0
 40
4.0
 41
0.0
 71
     2
 72
     1
  1
\A1;33.34 [1 5/16]
  7
SLDTEXTSTYLE0
 73
     1
 44
1.0
  0
POINT
  5
10F
330
103
100
AcDbEntity
  8
Defpoints
 62
     0
100
AcDbPoint
 10
63.50000000000004
 20
9.12041004776809
 30
0.0
  0
POINT
  5
110
330
103
100
AcDbEntity
  8
Defpoints
 62
     0
100
AcDbPoint
 10
30.16250000000002
 20
7.152397586978281
 30
0.0
  0
POINT
  5
111
330
103
100
AcDbEntity
  8
Defpoints
 62
     0
100
AcDbPoint
 10
30.16250000000002
 20
24.52499999999999
 30
0.0
  0
ENDBLK
  5
105
330
103
100
AcDbEntity
  8
0
100
AcDbBlockEnd
  0
BLOCK
  5
118
330
117
100
AcDbEntity
  8
0
100
AcDbBlockBegin
  2
_D_3
 70
     0
 10
0.0
 20
0.0
 30
0.0
  3
_D_3
  1
_D_3
  0
LINE
  5
11A
330
117
100
AcDbEntity
  8
치수문자_일반주서
 62
     0
370
    -2
100
AcDbLine
 10
-63.50000000000001
 20
9.182910047768061
 30
0.0
 11
-63.50000000000002
 21
39.52499999999998
 31
0.0
  0
LINE
  5
11B
330
117
100
AcDbEntity
  8
치수문자_일반주서
 62
     0
370
    -2
100
AcDbLine
 10
63.50000000000004
 20
9.18291004776809
 30
0.0
 11
63.50000000000003
 21
39.52499999999998
 31
0.0
  0
LINE
  5
11C
330
117
100
AcDbEntity
  8
치수문자_일반주서
 62
     0
370
    -2
100
AcDbLine
 10
-60.19800000000002
 20
39.52499999999998
 30
0.0
 11
60.19800000000003
 21
39.52499999999998
 31
0.0
  0
SOLID
  5
11D
330
117
100
AcDbEntity
  8
치수문자_일반주서
 62
     0
100
AcDbTrace
 10
-60.19800000000002
 20
40.07533333333332
 30
0.0
 11
-60.19800000000002
 21
38.97466666666665
 31
0.0
 12
-63.50000000000002
 22
39.52499999999998
 32
0.0
 13
-63.50000000000002
 23
39.52499999999998
 33
0.0
  0
SOLID
  5
11E
330
117
100
AcDbEntity
  8
치수문자_일반주서
 62
     0
100
AcDbTrace
 10
60.19800000000003
 20
38.97466666666665
 30
0.0
 11
60.19800000000003
 21
40.07533333333332
 31
0.0
 12
63.50000000000003
 22
39.52499999999998
 32
0.0
 13
63.50000000000003
 23
39.52499999999998
 33
0.0
  0
MTEXT
  5
11F
330
117
100
AcDbEntity
  8
치수문자_일반주서
 62
     0
100
AcDbMText
 10
0.0000000000000213
 20
44.39999999999998
 30
0.0
 40
4.0
 41
0.0
 71
     2
 72
     1
  1
\A1;127 [5]
  7
SLDTEXTSTYLE0
 73
     1
 44
1.0
  0
POINT
  5
120
330
117
100
AcDbEntity
  8
Defpoints
 62
     0
100
AcDbPoint
 10
-63.50000000000001
 20
9.120410047768061
 30
0.0
  0
POINT
  5
121
330
117
100
AcDbEntity
  8
Defpoints
 62
     0
100
AcDbPoint
 10
63.50000000000004
 20
9.12041004776809
 30
0.0
  0
POINT
  5
122
330
117
100
AcDbEntity
  8
Defpoints
 62
     0
100
AcDbPoint
 10
63.50000000000004
 20
39.52499999999998
 30
0.0
  0
ENDBLK
  5
119
330
117
100
AcDbEntity
  8
0
100
AcDbBlockEnd
  0
BLOCK
  5
131
330
130
100
AcDbEntity
  8
0
100
AcDbBlockBegin
  2
SW_DOWELSYMBOL_0
 70
     0
 10
0.0
 20
0.0
 30
0.0
  3
SW_DOWELSYMBOL_0
  1
SW_DOWELSYMBOL_0
  0
CIRCLE
  5
133
330
130
100
AcDbEntity
  8
해칭선
 62
     0
100
AcDbCircle
 10
0.0
 20
0.0
 30
0.0
 40
3.000000000000001
  0
HATCH
  5
134
330
130
100
AcDbEntity
  8
0
  6
Continuous
 62
     0
370
     0
100
AcDbHatch
 10
0.0
 20
0.0
 30
0.0
210
0.0
220
0.0
230
1.0
  2
SOLID
 70
     1
 71
     0
 91
        1
 92
        0
 93
        3
 72
     2
 10
0.0
 20
0.0
 40
3.000000000000001
 50
0.0
 51
90.0
 73
     1
 72
     1
 10
0.0
 20
3.000000000000001
 11
0.0
 21
0.0
 72
     1
 10
0.0
 20
0.0
 11
3.000000000000001
 21
0.0
 97
        0
 75
     0
 76
     1
 98
        1
 10
0.0
 20
0.0
  0
HATCH
  5
135
330
130
100
AcDbEntity
  8
0
  6
Continuous
 62
     0
370
     0
100
AcDbHatch
 10
0.0
 20
0.0
 30
0.0
210
0.0
220
0.0
230
1.0
  2
SOLID
 70
     1
 71
     0
 91
        1
 92
        0
 93
        3
 72
     2
 10
0.0
 20
0.0
 40
3.000000000000001
 50
180.0
 51
270.0000000000007
 73
     1
 72
     1
 10
0.0
 20
-3.000000000000001
 11
0.0
 21
0.0
 72
     1
 10
0.0
 20
0.0
 11
-3.000000000000001
 21
0.0
 97
        0
 75
     0
 76
     1
 98
        1
 10
0.0
 20
0.0
  0
ENDBLK
  5
132
330
130
100
AcDbEntity
  8
0
100
AcDbBlockEnd
  0
BLOCK
  5
19A
330
199
100
AcDbEntity
  8
0
100
AcDbBlockBegin
  2
*D7
 70
     1
 10
0.0
 20
0.0
 30
0.0
  3
*D7
  1
*D7
  0
LINE
  5
19C
330
199
100
AcDbEntity
  8
치수문자_일반주서
 62
     0
370
    -2
100
AcDbLine
 10
71.19620000000018
 20
6.126707037181468
 30
0.0
 11
71.19620000000018
 21
22.26187612400189
 31
0.0
  0
LINE
  5
19D
330
199
100
AcDbEntity
  8
치수문자_일반주서
 62
     0
370
    -2
100
AcDbLine
 10
37.85870000000017
 20
5.067793431799671
 30
0.0
 11
37.85870000000017
 21
22.26187612400189
 31
0.0
  0
LINE
  5
19E
330
199
100
AcDbEntity
  8
치수문자_일반주서
 62
     0
370
    -2
100
AcDbLine
 10
71.19620000000018
 20
22.26187612400189
 30
0.0
 11
114.5502000000002
 21
22.26187612400189
 31
0.0
  0
LINE
  5
19F
330
199
100
AcDbEntity
  8
치수문자_일반주서
 62
     0
370
    -2
100
AcDbLine
 10
71.19620000000018
 20
22.26187612400189
 30
0.0
 11
37.85870000000017
 21
22.26187612400189
 31
0.0
  0
LINE
  5
1A0
330
199
100
AcDbEntity
  8
치수문자_일반주서
 62
     0
370
    -2
100
AcDbLine
 10
74.49820000000017
 20
22.26187612400189
 30
0.0
 11
77.80020000000016
 21
22.26187612400189
 31
0.0
  0
LINE
  5
1A1
330
199
100
AcDbEntity
  8
치수문자_일반주서
 62
     0
370
    -2
100
AcDbLine
 10
34.55670000000017
 20
22.26187612400189
 30
0.0
 11
31.25470000000017
 21
22.26187612400189
 31
0.0
  0
SOLID
  5
1A2
330
199
100
AcDbEntity
  8
치수문자_일반주서
 62
     0
100
AcDbTrace
 10
74.49820000000017
 20
22.81220945733522
 30
0.0
 11
74.49820000000017
 21
21.71154279066856
 31
0.0
 12
71.19620000000018
 22
22.26187612400189
 32
0.0
 13
71.19620000000018
 23
22.26187612400189
 33
0.0
  0
SOLID
  5
1A3
330
199
100
AcDbEntity
  8
치수문자_일반주서
 62
     0
100
AcDbTrace
 10
34.55670000000017
 20
21.71154279066856
 30
0.0
 11
34.55670000000017
 21
22.81220945733522
 31
0.0
 12
37.85870000000017
 22
22.26187612400189
 32
0.0
 13
37.85870000000017
 23
22.26187612400189
 33
0.0
  0
MTEXT
  5
1A4
330
199
100
AcDbEntity
  8
치수문자_일반주서
 62
     0
100
AcDbMText
 10
96.17520000000017
 20
27.13687612400189
 30
0.0
 40
4.0
 41
0.0
 71
     2
 72
     1
  1
\A1;33.34 [1 5/16]
  7
SLDTEXTSTYLE0
 73
     1
 44
1.0
  0
POINT
  5
1A5
330
199
100
AcDbEntity
  8
Defpoints
 62
     0
100
AcDbPoint
 10
71.19620000000018
 20
6.064207037181468
 30
0.0
  0
POINT
  5
1A6
330
199
100
AcDbEntity
  8
Defpoints
 62
     0
100
AcDbPoint
 10
37.85870000000017
 20
5.005293431799671
 30
0.0
  0
POINT
  5
1A7
330
199
100
AcDbEntity
  8
Defpoints
 62
     0
100
AcDbPoint
 10
37.85870000000017
 20
22.26187612400189
 30
0.0
  0
ENDBLK
  5
19B
330
199
100
AcDbEntity
  8
0
100
AcDbBlockEnd
  0
BLOCK
  5
1AF
330
1AE
100
AcDbEntity
  8
0
100
AcDbBlockBegin
  2
*D8
 70
     1
 10
0.0
 20
0.0
 30
0.0
  3
*D8
  1
*D8
  0
LINE
  5
1B1
330
1AE
100
AcDbEntity
  8
치수문자_일반주서
 62
     0
370
    -2
100
AcDbLine
 10
117.8764099747136
 20
-27.73816579807359
 30
0.0
 11
117.8764099747136
 21
-11.60299671125317
 31
0.0
  0
LINE
  5
1B2
330
1AE
100
AcDbEntity
  8
치수문자_일반주서
 62
     0
370
    -2
100
AcDbLine
 10
84.53890997471362
 20
-28.79707940345538
 30
0.0
 11
84.53890997471362
 21
-11.60299671125317
 31
0.0
  0
LINE
  5
1B3
330
1AE
100
AcDbEntity
  8
치수문자_일반주서
 62
     0
370
    -2
100
AcDbLine
 10
117.8764099747136
 20
-11.60299671125317
 30
0.0
 11
161.2304099747136
 21
-11.60299671125317
 31
0.0
  0
LINE
  5
1B4
330
1AE
100
AcDbEntity
  8
치수문자_일반주서
 62
     0
370
    -2
100
AcDbLine
 10
117.8764099747136
 20
-11.60299671125317
 30
0.0
 11
84.53890997471362
 21
-11.60299671125317
 31
0.0
  0
LINE
  5
1B5
330
1AE
100
AcDbEntity
  8
치수문자_일반주서
 62
     0
370
    -2
100
AcDbLine
 10
121.1784099747136
 20
-11.60299671125317
 30
0.0
 11
124.4804099747136
 21
-11.60299671125317
 31
0.0
  0
LINE
  5
1B6
330
1AE
100
AcDbEntity
  8
치수문자_일반주서
 62
     0
370
    -2
100
AcDbLine
 10
81.23690997471363
 20
-11.60299671125317
 30
0.0
 11
77.93490997471363
 21
-11.60299671125317
 31
0.0
  0
SOLID
  5
1B7
330
1AE
100
AcDbEntity
  8
치수문자_일반주서
 62
     0
100
AcDbTrace
 10
121.1784099747136
 20
-11.05266337791983
 30
0.0
 11
121.1784099747136
 21
-12.1533300445865
 31
0.0
 12
117.8764099747136
 22
-11.60299671125317
 32
0.0
 13
117.8764099747136
 23
-11.60299671125317
 33
0.0
  0
SOLID
  5
1B8
330
1AE
100
AcDbEntity
  8
치수문자_일반주서
 62
     0
100
AcDbTrace
 10
81.23690997471363
 20
-12.1533300445865
 30
0.0
 11
81.23690997471363
 21
-11.05266337791983
 31
0.0
 12
84.53890997471362
 22
-11.60299671125317
 32
0.0
 13
84.53890997471362
 23
-11.60299671125317
 33
0.0
  0
MTEXT
  5
1B9
330
1AE
100
AcDbEntity
  8
치수문자_일반주서
 62
     0
100
AcDbMText
 10
142.8554099747136
 20
-6.727996711253166
 30
0.0
 40
4.0
 41
0.0
 71
     2
 72
     1
  1
\A1;33.34 [1 5/16]
  7
SLDTEXTSTYLE0
 73
     1
 44
1.0
  0
POINT
  5
1BA
330
1AE
100
AcDbEntity
  8
Defpoints
 62
     0
100
AcDbPoint
 10
117.8764099747136
 20
-27.80066579807359
 30
0.0
  0
POINT
  5
1BB
330
1AE
100
AcDbEntity
  8
Defpoints
 62
     0
100
AcDbPoint
 10
84.53890997471362
 20
-28.85957940345538
 30
0.0
  0
POINT
  5
1BC
330
1AE
100
AcDbEntity
  8
Defpoints
 62
     0
100
AcDbPoint
 10
84.53890997471362
 20
-11.60299671125317
 30
0.0
  0
ENDBLK
  5
1B0
330
1AE
100
AcDbEntity
  8
0
100
AcDbBlockEnd
  0
ENDSEC
  0
SECTION
  2
ENTITIES
  0
LINE
  5
96
330
1F
100
AcDbEntity
  8
외형선
  6
Continuous
370
    15
100
AcDbLine
 10
27.11252658361474
 20
9.524999999999995
 30
0.0
 11
7.696199999999987
 21
9.524999999999993
 31
0.0
  0
LINE
  5
97
330
1F
100
AcDbEntity
  8
외형선
  6
Continuous
370
    15
100
AcDbLine
 10
-27.11252658361472
 20
-9.525000000000006
 30
0.0
 11
27.11252658361475
 21
-9.525000000000002
 31
0.0
  0
SPLINE
  5
9A
330
1F
100
AcDbEntity
  8
외형선
  6
Continuous
370
    15
100
AcDbSpline
210
0.0
220
0.0
230
1.0
 70
     8
 71
     3
 72
     9
 73
     5
 74
     0
 42
0.000000001
 43
0.00000001
 40
0.0
 40
0.0
 40
0.0
 40
0.0
 40
0.439435455352968
 40
1.0
 40
1.0
 40
1.0
 40
1.0
 10
27.11253675444011
 20
-7.27670822290815
 30
0.0
 10
27.55635281598221
 20
-7.252710650375282
 30
0.0
 10
28.56632152955726
 20
-7.198100645104788
 30
0.0
 10
29.58914271046765
 20
-7.168814390755347
 30
0.0
 10
30.16250000000002
 20
-7.152397554921533
 30
0.0
  0
LINE
  5
9B
330
1F
100
AcDbEntity
  8
외형선
  6
Continuous
370
    15
100
AcDbLine
 10
30.16250000000002
 20
7.152397554921524
 30
0.0
 11
29.43688950995685
 21
7.175579573450205
 31
0.0
  0
SPLINE
  5
9C
330
1F
100
AcDbEntity
  8
0
  6
Continuous
 62
     1
370
    15
100
AcDbSpline
210
0.0
220
0.0
230
1.0
 70
     8
 71
     3
 72
    10
 73
     6
 74
     0
 42
0.000000001
 43
0.00000001
 40
0.0
 40
0.0
 40
0.0
 40
0.0
 40
0.4328187823197341
 40
0.6140547586235096
 40
1.0
 40
1.0
 40
1.0
 40
1.0
 10
39.8517350692363
 20
2.339025316115222
 30
0.0
 10
39.4861119522831
 20
2.513177452719869
 30
0.0
 10
38.96738997440458
 20
2.76025302470264
 30
0.0
 10
38.1270318053697
 20
3.18168270068318
 30
0.0
 10
37.64611437617374
 20
3.43394411171051
 30
0.0
 10
37.31886836113058
 20
3.605598405142703
 30
0.0
1001
PE_URL
1000

  0
SPLINE
  5
9D
330
1F
100
AcDbEntity
  8
0
  6
Continuous
 62
     1
370
    15
100
AcDbSpline
210
0.0
220
0.0
230
1.0
 70
     8
 71
     3
 72
     9
 73
     5
 74
     0
 42
0.000000001
 43
0.00000001
 40
0.0
 40
0.0
 40
0.0
 40
0.0
 40
0.4774326040107281
 40
1.0
 40
1.0
 40
1.0
 40
1.0
 10
36.8346604615283
 20
7.253576490546317
 30
0.0
 10
35.77529996834836
 20
7.206311152953229
 30
0.0
 10
33.55643078287451
 20
7.107312179703325
 30
0.0
 10
31.32734667676877
 20
7.136923594828173
 30
0.0
 10
30.16250000000002
 20
7.152397554921522
 30
0.0
1001
PE_URL
1000

  0
SPLINE
  5
9E
330
1F
100
AcDbEntity
  8
0
  6
Continuous
 62
     1
370
    15
100
AcDbSpline
210
0.0
220
0.0
230
1.0
 70
     8
 71
     3
 72
    27
 73
    23
 74
     0
 42
0.000000001
 43
0.00000001
 40
0.0
 40
0.0
 40
0.0
 40
0.0
 40
0.0687235326514562
 40
0.1241339689902086
 40
0.1701462545059703
 40
0.2154844055418726
 40
0.2593870606516617
 40
0.2974350277863212
 40
0.3532802290578281
 40
0.4225895069653568
 40
0.4980689142486404
 40
0.5492412884798609
 40
0.5906077376673078
 40
0.6360600922602233
 40
0.6882750425596615
 40
0.7477301183103704
 40
0.7852648288799887
 40
0.815135234076703
 40
0.8399148936572981
 40
0.8772901522451477
 40
0.9305760279428954
 40
1.0
 40
1.0
 40
1.0
 40
1.0
 10
60.1089450598361
 20
6.243212428273101
 30
0.0
 10
59.75374682205967
 20
6.21410788247486
 30
0.0
 10
59.11215921251205
 20
6.161536912296182
 30
0.0
 10
58.2063804922232
 20
6.10526809243928
 30
0.0
 10
57.40840117409686
 20
6.065812690679629
 30
0.0
 10
56.68298952658411
 20
6.038187770066253
 30
0.0
 10
56.00709339412184
 20
6.020207788026481
 30
0.0
 10
55.27439563094963
 20
6.008351809607783
 30
0.0
 10
54.4065545353428
 20
6.004784301733301
 30
0.0
 10
53.33962165154742
 20
6.017639195981971
 30
0.0
 10
52.29750768793992
 20
6.049438845279846
 30
0.0
 10
51.40452943327382
 20
6.091277920078751
 30
0.0
 10
50.67037799715487
 20
6.134100551922765
 30
0.0
 10
49.93116789143413
 20
6.185158376749592
 30
0.0
 10
49.09612228278651
 20
6.252927757802705
 30
0.0
 10
48.30300161074058
 20
6.328259564041237
 30
0.0
 10
47.62849589987235
 20
6.399762373212449
 30
0.0
 10
47.13931520278216
 20
6.455442042850472
 30
0.0
 10
46.65373154297556
 20
6.513684220188884
 30
0.0
 10
46.04023751317312
 20
6.591830278134609
 30
0.0
 10
45.18797968281044
 20
6.708411985422679
 30
0.0
 10
44.53238031058035
 20
6.808791049185944
 30
0.0
 10
44.16147028721137
 20
6.865581220841452
 30
0.0
1001
PE_URL
1000

  0
SPLINE
  5
9F
330
1F
100
AcDbEntity
  8
0
  6
Continuous
 62
     1
370
    15
100
AcDbSpline
210
0.0
220
0.0
230
1.0
 70
     8
 71
     3
 72
    14
 73
    10
 74
     0
 42
0.000000001
 43
0.00000001
 40
0.0
 40
0.0
 40
0.0
 40
0.0
 40
0.1907503071739167
 40
0.3546072359794115
 40
0.4953379937543737
 40
0.6153868918822814
 40
0.7221877896650578
 40
0.851880911581483
 40
0.9999999999999999
 40
0.9999999999999999
 40
0.9999999999999999
 40
0.9999999999999999
 10
44.16147028721137
 20
-6.86558122084146
 30
0.0
 10
44.57887777059293
 20
-6.801290593953621
 30
0.0
 10
45.35484356667474
 20
-6.681773504634896
 30
0.0
 10
46.50707526285233
 20
-6.53001148279173
 30
0.0
 10
47.48610371209669
 20
-6.414316329586553
 30
0.0
 10
48.31944689888977
 20
-6.326612073508691
 30
0.0
 10
49.13037475959105
 20
-6.250415865741064
 30
0.0
 10
50.00499511813256
 20
-6.178200922804836
 30
0.0
 10
50.63660279834984
 20
-6.138320095910256
 30
0.0
 10
50.97335240960389
 20
-6.117057129398164
 30
0.0
1001
PE_URL
1000

  0
SPLINE
  5
A0
330
1F
100
AcDbEntity
  8
0
  6
Continuous
 62
     1
370
    15
100
AcDbSpline
210
0.0
220
0.0
230
1.0
 70
     8
 71
     3
 72
     9
 73
     5
 74
     0
 42
0.000000001
 43
0.00000001
 40
0.0
 40
0.0
 40
0.0
 40
0.0
 40
0.4469563859326197
 40
1.0
 40
1.0
 40
1.0
 40
1.0
 10
30.16250000000002
 20
-7.152397554921533
 30
0.0
 10
31.15099094918406
 20
-7.137503683212676
 30
0.0
 10
33.36259588491277
 20
-7.104180808369351
 30
0.0
 10
35.59824757245443
 20
-7.200376228010986
 30
0.0
 10
36.8346604615283
 20
-7.253576490546324
 30
0.0
1001
PE_URL
1000

  0
SPLINE
  5
A1
330
1F
100
AcDbEntity
  8
외형선
  6
Continuous
370
    15
100
AcDbSpline
210
0.0
220
0.0
230
1.0
 70
     8
 71
     3
 72
     8
 73
     4
 74
     0
 42
0.000000001
 43
0.00000001
 40
0.0
 40
0.0
 40
0.0
 40
0.0
 40
1.0
 40
1.0
 40
1.0
 40
1.0
 10
27.68134233574613
 20
7.997890115621014
 30
0.0
 10
27.49191219108017
 20
8.059842145193858
 30
0.0
 10
27.30225506034642
 20
8.120097671311589
 30
0.0
 10
27.11255444061566
 20
8.178595871496507
 30
0.0
  0
LINE
  5
A2
330
1F
100
AcDbEntity
  8
외형선
  6
Continuous
370
    15
100
AcDbLine
 10
27.68134233574613
 20
7.997890115620898
 30
0.0
 11
27.68134233574613
 21
6.285996569831829
 31
0.0
  0
SPLINE
  5
A3
330
1F
100
AcDbEntity
  8
외형선
  6
Continuous
370
    15
100
AcDbSpline
210
0.0
220
0.0
230
1.0
 70
     8
 71
     3
 72
     8
 73
     4
 74
     0
 42
0.000000001
 43
0.00000001
 40
0.0
 40
0.0
 40
0.0
 40
0.0
 40
1.0
 40
1.0
 40
1.0
 40
1.0
 10
27.68134233574613
 20
6.285996569831825
 30
0.0
 10
27.4919029186528
 20
6.371705112305211
 30
0.0
 10
27.30223649326347
 20
6.456094927063727
 30
0.0
 10
27.11252658361474
 20
6.539082331099938
 30
0.0
  0
LINE
  5
A4
330
1F
100
AcDbEntity
  8
외형선
  6
Continuous
370
    15
100
AcDbLine
 10
27.11252658361474
 20
-9.525000000000002
 30
0.0
 11
27.11252658361474
 21
6.539187365051673
 31
0.0
  0
SPLINE
  5
A5
330
1F
100
AcDbEntity
  8
외형선
  6
Continuous
370
    15
100
AcDbSpline
210
0.0
220
0.0
230
1.0
 70
     8
 71
     3
 72
     8
 73
     4
 74
     0
 42
0.000000001
 43
0.00000001
 40
0.0
 40
0.0
 40
0.0
 40
0.0
 40
1.0
 40
1.0
 40
1.0
 40
1.0
 10
27.68134233574613
 20
-7.997890115621023
 30
0.0
 10
27.49191219108017
 20
-8.059842145193866
 30
0.0
 10
27.30225506034642
 20
-8.120097671311596
 30
0.0
 10
27.11255444061566
 20
-8.178595871496514
 30
0.0
  0
LINE
  5
A6
330
1F
100
AcDbEntity
  8
외형선
  6
Continuous
370
    15
100
AcDbLine
 10
27.11252658361474
 20
8.17870622165976
 30
0.0
 11
27.11252658361474
 21
9.524999999999995
 31
0.0
  0
SPLINE
  5
A9
330
1F
100
AcDbEntity
  8
외형선
  6
Continuous
370
    15
100
AcDbSpline
210
0.0
220
0.0
230
1.0
 70
    24
 71
     3
 72
    10
 73
     6
 74
     0
 42
0.000000001
 43
0.00000001
 40
0.0
 40
0.0
 40
0.0
 40
0.0
 40
0.5
 40
0.5
 40
1.0
 40
1.0
 40
1.0
 40
1.0
 10
30.16250000000002
 20
4.994236410724461
 30
0.0
 10
30.16250000000002
 20
4.860518314530183
 30
0.0
 10
30.16250000000002
 20
4.632415510154567
 30
0.0
 10
30.16250000000002
 20
4.032894792280302
 30
0.0
 10
30.16250000000002
 20
3.663624613600187
 30
0.0
 10
30.16250000000002
 20
3.273158898017781
 30
0.0
  0
SPLINE
  5
AA
330
1F
100
AcDbEntity
  8
외형선
  6
Continuous
370
    15
100
AcDbSpline
210
0.0
220
0.0
230
1.0
 70
     8
 71
     3
 72
    10
 73
     6
 74
     0
 42
0.000000001
 43
0.00000001
 40
0.0
 40
0.0
 40
0.0
 40
0.0
 40
0.5
 40
0.5
 40
1.0
 40
1.0
 40
1.0
 40
1.0
 10
30.16250000000002
 20
3.273158898017781
 30
0.0
 10
29.65323386791578
 20
3.449694493270755
 30
0.0
 10
29.1433593577618
 20
3.621206574068052
 30
0.0
 10
28.12948483282256
 20
3.95184602426973
 30
0.0
 10
27.62187700999068
 20
4.11137720957487
 30
0.0
 10
27.11253329336945
 20
4.26446066388805
 30
0.0
  0
SPLINE
  5
AB
330
1F
100
AcDbEntity
  8
외형선
  6
Continuous
370
    15
100
AcDbSpline
210
0.0
220
0.0
230
1.0
 70
     8
 71
     3
 72
     8
 73
     4
 74
     0
 42
0.000000001
 43
0.00000001
 40
0.0
 40
0.0
 40
0.0
 40
0.0
 40
1.0
 40
1.0
 40
1.0
 40
1.0
 10
27.68134233574613
 20
6.285996569831829
 30
0.0
 10
28.17579086755507
 20
6.015995708955725
 30
0.0
 10
28.66901983581428
 20
5.742162865228783
 30
0.0
 10
29.16250000000002
 20
5.466670069912601
 30
0.0
  0
SPLINE
  5
AC
330
1F
100
AcDbEntity
  8
외형선
  6
Continuous
370
    15
100
AcDbSpline
210
0.0
220
0.0
230
1.0
 70
     8
 71
     3
 72
     8
 73
     4
 74
     0
 42
0.000000001
 43
0.00000001
 40
0.0
 40
0.0
 40
0.0
 40
0.0
 40
1.0
 40
1.0
 40
1.0
 40
1.0
 10
30.16250000000002
 20
4.994236410724461
 30
0.0
 10
29.82909604317618
 20
5.155153878250279
 30
0.0
 10
29.49543021728772
 20
5.312787231567612
 30
0.0
 10
29.16250000000002
 20
5.466670069912599
 30
0.0
  0
LINE
  5
AD
330
1F
100
AcDbEntity
  8
외형선
  6
Continuous
370
    15
100
AcDbLine
 10
29.16250000000002
 20
7.272968641159513
 30
0.0
 11
29.16250000000002
 21
5.466670069912599
 31
0.0
  0
SPLINE
  5
AE
330
1F
100
AcDbEntity
  8
외형선
  6
Continuous
370
    15
100
AcDbSpline
210
0.0
220
0.0
230
1.0
 70
     8
 71
     3
 72
     8
 73
     4
 74
     0
 42
0.000000001
 43
0.00000001
 40
0.0
 40
0.0
 40
0.0
 40
0.0
 40
1.0
 40
1.0
 40
1.0
 40
1.0
 10
30.16250000000002
 20
6.910203060642159
 30
0.0
 10
29.82909604317619
 20
7.03581265676073
 30
0.0
 10
29.49543021728772
 20
7.156852925030694
 30
0.0
 10
29.16250000000002
 20
7.272968641159514
 30
0.0
  0
LINE
  5
AF
330
1F
100
AcDbEntity
  8
외형선
  6
Continuous
370
    15
100
AcDbLine
 10
30.16250000000002
 20
6.910203060642157
 30
0.0
 11
30.16250000000002
 21
4.994236410724461
 31
0.0
  0
SPLINE
  5
B0
330
1F
100
AcDbEntity
  8
외형선
  6
Continuous
370
    15
100
AcDbSpline
210
0.0
220
0.0
230
1.0
 70
     8
 71
     3
 72
     8
 73
     4
 74
     0
 42
0.000000001
 43
0.00000001
 40
0.0
 40
0.0
 40
0.0
 40
0.0
 40
1.0
 40
1.0
 40
1.0
 40
1.0
 10
29.16250000000002
 20
7.272968641159551
 30
0.0
 10
28.66712161209021
 20
7.517012882699154
 30
0.0
 10
28.17386604522806
 20
7.759277059796712
 30
0.0
 10
27.68134233574617
 20
7.997890115620995
 30
0.0
  0
SPLINE
  5
B1
330
1F
100
AcDbEntity
  8
외형선
  6
Continuous
370
    15
100
AcDbSpline
210
0.0
220
0.0
230
1.0
 70
     8
 71
     3
 72
    10
 73
     6
 74
     0
 42
0.000000001
 43
0.00000001
 40
0.0
 40
0.0
 40
0.0
 40
0.0
 40
0.5
 40
0.5
 40
1.0
 40
1.0
 40
1.0
 40
1.0
 10
30.16250000000002
 20
-6.271624434401525
 30
0.0
 10
29.65323444467302
 20
-6.151286449752029
 30
0.0
 10
29.14336051264096
 20
-6.021143178026311
 30
0.0
 10
28.12948712266183
 20
-5.743144073151242
 30
0.0
 10
27.62187989279821
 20
-5.594977034829983
 30
0.0
 10
27.1125367544401
 20
-5.438185827847982
 30
0.0
  0
SPLINE
  5
B2
330
1F
100
AcDbEntity
  8
외형선
  6
Continuous
370
    15
100
AcDbSpline
210
0.0
220
0.0
230
1.0
 70
    24
 71
     3
 72
    14
 73
    10
 74
     0
 42
0.000000001
 43
0.00000001
 40
0.0
 40
0.0
 40
0.0
 40
0.0
 40
0.25
 40
0.25
 40
0.5000000000000001
 40
0.5000000000000001
 40
0.7500000000000001
 40
0.7500000000000001
 40
1.0
 40
1.0
 40
1.0
 40
1.0
 10
30.16250000000002
 20
3.273158898017781
 30
0.0
 10
30.16250000000002
 20
2.506433491106049
 30
0.0
 10
30.16250000000002
 20
1.68360065763971
 30
0.0
 10
30.16250000000002
 20
-0.0080176263903985
 30
0.0
 10
30.16250000000002
 20
-0.8760700732030184
 30
0.0
 10
30.16250000000002
 20
-2.57245325807293
 30
0.0
 10
30.16250000000002
 20
-3.399880092246561
 30
0.0
 10
30.16250000000002
 20
-4.936701665724154
 30
0.0
 10
30.16250000000002
 20
-5.645580821609381
 30
0.0
 10
30.16250000000002
 20
-6.271624434401521
 30
0.0
  0
SPLINE
  5
B3
330
1F
100
AcDbEntity
  8
외형선
  6
Continuous
370
    15
100
AcDbSpline
210
0.0
220
0.0
230
1.0
 70
    24
 71
     3
 72
    11
 73
     7
 74
     0
 42
0.000000001
 43
0.00000001
 40
0.0
 40
0.0
 40
0.0
 40
0.0
 40
0.2688920121356367
 40
0.5377840242712735
 40
0.9312629153145007
 40
1.0
 40
1.0
 40
1.0
 40
1.0
 10
30.16250000000002
 20
-6.271624434401525
 30
0.0
 10
30.16250000000002
 20
-6.416540519951822
 30
0.0
 10
30.16250000000002
 20
-6.706372691052418
 30
0.0
 10
30.16250000000002
 20
-7.014560475779805
 30
0.0
 10
30.16250000000002
 20
-7.183010980164097
 30
0.0
 10
30.16250000000002
 20
-7.138351541534209
 30
0.0
 10
30.16250000000002
 20
-7.131710144922441
 30
0.0
  0
SPLINE
  5
B4
330
1F
100
AcDbEntity
  8
외형선
  6
Continuous
370
    15
100
AcDbSpline
210
0.0
220
0.0
230
1.0
 70
    24
 71
     3
 72
     9
 73
     5
 74
     0
 42
0.000000001
 43
0.00000001
 40
0.0
 40
0.0
 40
0.0
 40
0.0
 40
0.8556570607805726
 40
1.0
 40
1.0
 40
1.0
 40
1.0
 10
30.16250000000002
 20
7.131582095511749
 30
0.0
 10
30.16250000000002
 20
7.136837987194675
 30
0.0
 10
30.16250000000002
 20
7.142980508449785
 30
0.0
 10
30.16250000000002
 20
7.017006223938352
 30
0.0
 10
30.16250000000002
 20
6.998822725445907
 30
0.0
  0
LINE
  5
B5
330
1F
100
AcDbEntity
  8
외형선
  6
Continuous
370
    15
100
AcDbLine
 10
29.43375530819143
 20
-7.176691995670711
 30
0.0
 11
29.16250000000002
 21
-7.272968641159522
 31
0.0
  0
SPLINE
  5
B6
330
1F
100
AcDbEntity
  8
외형선
  6
Continuous
370
    15
100
AcDbSpline
210
0.0
220
0.0
230
1.0
 70
     8
 71
     3
 72
     8
 73
     4
 74
     0
 42
0.000000001
 43
0.00000001
 40
0.0
 40
0.0
 40
0.0
 40
0.0
 40
1.0
 40
1.0
 40
1.0
 40
1.0
 10
29.16250000000002
 20
-7.27296864115956
 30
0.0
 10
28.66712161209021
 20
-7.517012882699161
 30
0.0
 10
28.17386604522806
 20
-7.759277059796721
 30
0.0
 10
27.68134233574617
 20
-7.997890115621004
 30
0.0
  0
SPLINE
  5
B7
330
1F
100
AcDbEntity
  8
0
  6
Continuous
 62
     1
370
    15
100
AcDbSpline
210
0.0
220
0.0
230
1.0
 70
     8
 71
     3
 72
    46
 73
    42
 74
     0
 42
0.000000001
 43
0.00000001
 40
0.0
 40
0.0
 40
0.0
 40
0.0
 40
0.0625
 40
0.0625
 40
0.1250000000000001
 40
0.1250000000000001
 40
0.1562500000000002
 40
0.1562500000000002
 40
0.1875000000000004
 40
0.1875000000000004
 40
0.2500000000000003
 40
0.2500000000000003
 40
0.2812500000000003
 40
0.2812500000000003
 40
0.3125000000000004
 40
0.3125000000000004
 40
0.3750000000000004
 40
0.3750000000000004
 40
0.4375000000000004
 40
0.4375000000000004
 40
0.5000000000000006
 40
0.5000000000000006
 40
0.5625000000000006
 40
0.5625000000000006
 40
0.5937500000000007
 40
0.5937500000000007
 40
0.6250000000000007
 40
0.6250000000000007
 40
0.6875000000000004
 40
0.6875000000000004
 40
0.7187500000000003
 40
0.7187500000000003
 40
0.7500000000000002
 40
0.7500000000000002
 40
0.8125000000000002
 40
0.8125000000000002
 40
0.8750000000000001
 40
0.8750000000000001
 40
0.9375000000000001
 40
0.9375000000000001
 40
1.0
 40
1.0
 40
1.0
 40
1.0
 10
63.50000000000003
 20
-9.120410047768097
 30
0.0
 10
62.80842025140404
 20
-9.103950453907858
 30
0.0
 10
62.11050014100471
 20
-9.061000346809635
 30
0.0
 10
60.72006698937099
 20
-8.922959143090786
 30
0.0
 10
60.02912516604741
 20
-8.82807326785473
 30
0.0
 10
58.98522999886274
 20
-8.64751025651732
 30
0.0
 10
58.63703075465176
 20
-8.580992362265409
 30
0.0
 10
57.94243040966697
 20
-8.435753097036134
 30
0.0
 10
57.59705184956898
 20
-8.35712091408504
 30
0.0
 10
56.55648632739464
 20
-8.102951435993404
 30
0.0
 10
55.85819538152504
 20
-7.909103555803806
 30
0.0
 10
54.81747772269065
 20
-7.585496880024061
 30
0.0
 10
54.47213587988031
 20
-7.472236680516282
 30
0.0
 10
53.77761723358172
 20
-7.23465609294345
 30
0.0
 10
53.42943352330729
 20
-7.110433295580276
 30
0.0
 10
52.38550850725554
 20
-6.72264865823573
 30
0.0
 10
51.69449930334817
 20
-6.444531785947841
 30
0.0
 10
50.3041899621514
 20
-5.851558060176427
 30
0.0
 10
49.60622963989856
 20
-5.536793228036802
 30
0.0
 10
48.22278892665177
 20
-4.879033610399019
 30
0.0
 10
47.52519001444587
 20
-4.534129732243995
 30
0.0
 10
46.13463759955071
 20
-3.820803628646034
 30
0.0
 10
45.44375585031632
 20
-3.452809152379539
 30
0.0
 10
44.39989395407032
 20
-2.88610353777151
 30
0.0
 10
44.05168031916801
 20
-2.694924262173579
 30
0.0
 10
43.3570005423621
 20
-2.309262983928616
 30
0.0
 10
43.01157684399666
 20
-2.114979226265981
 30
0.0
 10
41.97116684423543
 20
-1.527194459724863
 30
0.0
 10
41.27287820548361
 20
-1.128887479385257
 30
0.0
 10
40.23201179739857
 20
-0.5295003469597647
 30
0.0
 10
39.88669825049668
 20
-0.3294930311659134
 30
0.0
 10
39.19226356885868
 20
0.0714405941619594
 30
0.0
 10
38.84409653559572
 20
0.2721834968966163
 30
0.0
 10
37.8001450930747
 20
0.8732790692043932
 30
0.0
 10
37.10906120282435
 20
1.271703090282821
 30
0.0
 10
35.71888021788868
 20
2.060427490271093
 30
0.0
 10
35.02088198724498
 20
2.4504865058781
 30
0.0
 10
33.63716452902937
 20
3.211941358751548
 30
0.0
 10
32.93987958104084
 20
3.585454911232131
 30
0.0
 10
31.54921245136162
 20
4.308861467568246
 30
0.0
 10
30.85838346906627
 20
4.658368154684564
 30
0.0
 10
30.16250000000002
 20
4.99423641072446
 30
0.0
1001
PE_URL
1000

  0
SPLINE
  5
B8
330
1F
100
AcDbEntity
  8
0
  6
Continuous
 62
     1
370
    15
100
AcDbSpline
210
0.0
220
0.0
230
1.0
 70
     8
 71
     3
 72
    11
 73
     7
 74
     0
 42
0.000000001
 43
0.00000001
 40
0.0
 40
0.0
 40
0.0
 40
0.0
 40
0.1462314484820738
 40
0.431364245341996
 40
0.7156811539316679
 40
1.0
 40
1.0
 40
1.0
 40
1.0
 10
40.79774500104673
 20
-0.8550911277119632
 30
0.0
 10
40.27934321782637
 20
-0.648147071955788
 30
0.0
 10
38.75012363938387
 20
-0.037688327507136
 30
0.0
 10
36.21297230050685
 20
0.9928779237712708
 30
0.0
 10
33.18629580364242
 20
2.188767134251278
 30
0.0
 10
31.17043422405576
 20
2.911694155700252
 30
0.0
 10
30.16250000000002
 20
3.273158898017781
 30
0.0
1001
PE_URL
1000

  0
SPLINE
  5
B9
330
1F
100
AcDbEntity
  8
외형선
  6
Continuous
370
    15
100
AcDbSpline
210
0.0
220
0.0
230
1.0
 70
    24
 71
     3
 72
    10
 73
     6
 74
     0
 42
0.000000001
 43
0.00000001
 40
0.0
 40
0.0
 40
0.0
 40
0.0
 40
0.5
 40
0.5
 40
1.0
 40
1.0
 40
1.0
 40
1.0
 10
30.16250000000002
 20
4.994236410724458
 30
0.0
 10
30.16250000000002
 20
4.86051831453018
 30
0.0
 10
30.16250000000002
 20
4.632415510154564
 30
0.0
 10
30.16250000000002
 20
4.0328947922803
 30
0.0
 10
30.16250000000002
 20
3.663624613600186
 30
0.0
 10
30.16250000000002
 20
3.273158898017779
 30
0.0
  0
SPLINE
  5
BA
330
1F
100
AcDbEntity
  8
0
  6
Continuous
 62
     1
370
    15
100
AcDbSpline
210
0.0
220
0.0
230
1.0
 70
     8
 71
     3
 72
    46
 73
    42
 74
     0
 42
0.000000001
 43
0.00000001
 40
0.0
 40
0.0
 40
0.0
 40
0.0
 40
0.0625000000000005
 40
0.0625000000000005
 40
0.125000000000001
 40
0.125000000000001
 40
0.1562500000000012
 40
0.1562500000000012
 40
0.1875000000000014
 40
0.1875000000000014
 40
0.2500000000000017
 40
0.2500000000000017
 40
0.2812500000000017
 40
0.2812500000000017
 40
0.3125000000000018
 40
0.3125000000000018
 40
0.3750000000000018
 40
0.3750000000000018
 40
0.4375000000000018
 40
0.4375000000000018
 40
0.5000000000000019
 40
0.5000000000000019
 40
0.5625000000000019
 40
0.5625000000000019
 40
0.5937500000000019
 40
0.5937500000000019
 40
0.6250000000000018
 40
0.6250000000000018
 40
0.6875000000000016
 40
0.6875000000000016
 40
0.7187500000000013
 40
0.7187500000000013
 40
0.7500000000000011
 40
0.7500000000000011
 40
0.8125000000000009
 40
0.8125000000000009
 40
0.8750000000000006
 40
0.8750000000000006
 40
0.9375000000000003
 40
0.9375000000000003
 40
1.0
 40
1.0
 40
1.0
 40
1.0
 10
63.50000000000002
 20
-8.662050871957437
 30
0.0
 10
62.80842025140399
 20
-8.53573552778714
 30
0.0
 10
62.11050014100461
 20
-8.383924060136264
 30
0.0
 10
60.72006698937076
 20
-8.032990995014538
 30
0.0
 10
60.02912516604713
 20
-7.834143234865002
 30
0.0
 10
58.98522999886238
 20
-7.502028475913158
 30
0.0
 10
58.63703075465138
 20
-7.385776379306622
 30
0.0
 10
57.94243040966654
 20
-7.142955419921224
 30
0.0
 10
57.59705184956852
 20
-7.016521058056725
 30
0.0
 10
56.5564863273941
 20
-6.621750170726528
 30
0.0
 10
55.85819538152443
 20
-6.337993563894309
 30
0.0
 10
54.81747772268996
 20
-5.887012822461559
 30
0.0
 10
54.47213587987959
 20
-5.732553684643492
 30
0.0
 10
53.77761723358096
 20
-5.414998979258162
 30
0.0
 10
53.42943352330649
 20
-5.252042947668875
 30
0.0
 10
52.38550850725466
 20
-4.752206606391317
 30
0.0
 10
51.69449930334724
 20
-4.405052585502073
 30
0.0
 10
50.30418996215035
 20
-3.685916077593275
 30
0.0
 10
49.60622963989744
 20
-3.314102344103151
 30
0.0
 10
48.22278892665057
 20
-2.555727065665085
 30
0.0
 10
47.5251900144446
 20
-2.166962002233905
 30
0.0
 10
46.13463759954935
 20
-1.379978338902581
 30
0.0
 10
45.44375585031489
 20
-0.9821854836617078
 30
0.0
 10
44.3998939540688
 20
-0.3815236028303191
 30
0.0
 10
44.05168031916646
 20
-0.1808314101655106
 30
0.0
 10
43.3570005423605
 20
0.2201884880734114
 30
0.0
 10
43.01157684399504
 20
0.4203154320519052
 30
0.0
 10
41.97116684423372
 20
1.020147363264191
 30
0.0
 10
41.27287820548184
 20
1.419127878758833
 30
0.0
 10
40.23201179739672
 20
2.008470524023787
 30
0.0
 10
39.88669825049482
 20
2.20330048000487
 30
0.0
 10
39.19226356885675
 20
2.590205404590535
 30
0.0
 10
38.84409653559376
 20
2.782097920451216
 30
0.0
 10
37.80014509307267
 20
3.35120863534112
 30
0.0
 10
37.10906120282225
 20
3.721124968806651
 30
0.0
 10
35.71888021788646
 20
4.438734800324968
 30
0.0
 10
35.02088198724272
 20
4.786166189694741
 30
0.0
 10
33.63716452902703
 20
5.44939392475766
 30
0.0
 10
32.9398795810384
 20
5.767038896860995
 30
0.0
 10
31.54921245135909
 20
6.366494958724533
 30
0.0
 10
30.85838346906367
 20
6.648029682955328
 30
0.0
 10
30.16249999999738
 20
6.910203060643153
 30
0.0
1001
PE_URL
1000

  0
SPLINE
  5
BB
330
1F
100
AcDbEntity
  8
0
  6
Continuous
 62
     1
370
    15
100
AcDbSpline
210
0.0
220
0.0
230
1.0
 70
     8
 71
     3
 72
    15
 73
    11
 74
     0
 42
0.000000001
 43
0.00000001
 40
0.0
 40
0.0
 40
0.0
 40
0.0
 40
0.1278896746668113
 40
0.2557829781030875
 40
0.3836796162911187
 40
0.5115792944231994
 40
0.6394817169707712
 40
0.7673865877539245
 40
0.8952936100112364
 40
0.9999999999999999
 40
0.9999999999999999
 40
0.9999999999999999
 40
0.9999999999999999
 10
63.50000000000003
 20
-7.201837450686128
 30
0.0
 10
62.48937049710445
 20
-6.991716651419885
 30
0.0
 10
60.46808281549178
 20
-6.571469090874106
 30
0.0
 10
57.43609413712552
 20
-5.629383877873392
 30
0.0
 10
54.40401566589829
 20
-4.49977673805936
 30
0.0
 10
51.37185415455524
 20
-3.200241399435161
 30
0.0
 10
48.33961804068887
 20
-1.784061920297898
 30
0.0
 10
45.3073150844322
 20
-0.3044675373079075
 30
0.0
 10
42.45831228444423
 20
1.104429074509817
 30
0.0
 10
40.62007534944557
 20
1.971017009431252
 30
0.0
 10
39.79262885120107
 20
2.361094664014008
 30
0.0
1001
PE_URL
1000

  0
LINE
  5
BC
330
1F
100
AcDbEntity
  8
0
  6
Continuous
 62
     1
370
    15
100
AcDbLine
 10
63.50000000000003
 20
-8.662050871957444
 30
0.0
 11
63.50000000000003
 21
-7.201837450686128
 31
0.0
1001
PE_URL
1000

  0
LINE
  5
BD
330
1F
100
AcDbEntity
  8
0
  6
Continuous
 62
     1
370
    15
100
AcDbLine
 10
63.50000000000004
 20
-9.120410047768098
 30
0.0
 11
63.50000000000003
 21
-8.662050871957444
 31
0.0
1001
PE_URL
1000

  0
SPLINE
  5
BE
330
1F
100
AcDbEntity
  8
0
  6
Continuous
 62
     1
370
    15
100
AcDbSpline
210
0.0
220
0.0
230
1.0
 70
     8
 71
     3
 72
    12
 73
     8
 74
     0
 42
0.000000001
 43
0.00000001
 40
0.0
 40
0.0
 40
0.0
 40
0.0
 40
0.5
 40
0.5
 40
0.75
 40
0.75
 40
1.0
 40
1.0
 40
1.0
 40
1.0
 10
63.50000000000003
 20
-2.439427016726852
 30
0.0
 10
62.64027629554491
 20
-1.763542288429901
 30
0.0
 10
61.79325317450975
 20
-1.063160394825336
 30
0.0
 10
60.54191772633165
 20
0.0244443501960706
 30
0.0
 10
60.12804739566054
 20
0.3932315136844036
 30
0.0
 10
59.30734059634784
 20
1.144372908817866
 30
0.0
 10
58.89886803412364
 20
1.528340230361227
 30
0.0
 10
58.50000000000001
 20
1.914738733312238
 30
0.0
1001
PE_URL
1000

  0
LINE
  5
BF
330
1F
100
AcDbEntity
  8
0
  6
Continuous
 62
     1
370
    15
100
AcDbLine
 10
58.50000000000002
 20
2.937719435296588
 30
0.0
 11
63.50000000000003
 21
0.0000000000000002
 31
0.0
1001
PE_URL
1000

  0
LINE
  5
C0
330
1F
100
AcDbEntity
  8
0
  6
Continuous
 62
     1
370
    15
100
AcDbLine
 10
63.50000000000003
 20
0.0000000000000002
 30
0.0
 11
63.50000000000003
 21
-2.439427016726853
 31
0.0
1001
PE_URL
1000

  0
SPLINE
  5
C1
330
1F
100
AcDbEntity
  8
외형선
  6
Continuous
370
    15
100
AcDbSpline
210
0.0
220
0.0
230
1.0
 70
    24
 71
     3
 72
     9
 73
     5
 74
     0
 42
0.000000001
 43
0.00000001
 40
0.0
 40
0.0
 40
0.0
 40
0.0
 40
0.8563465310961974
 40
0.9999999999999999
 40
0.9999999999999999
 40
0.9999999999999999
 40
0.9999999999999999
 10
30.16250000000002
 20
7.132036223566211
 30
0.0
 10
30.16250000000002
 20
7.137347723021867
 30
0.0
 10
30.16250000000002
 20
7.143550234812111
 30
0.0
 10
30.16250000000002
 20
7.017001841175947
 30
0.0
 10
30.16250000000002
 20
6.998822725445909
 30
0.0
  0
SPLINE
  5
C2
330
1F
100
AcDbEntity
  8
0
  6
Continuous
 62
     1
370
    15
100
AcDbSpline
210
0.0
220
0.0
230
1.0
 70
     8
 71
     3
 72
    14
 73
    10
 74
     0
 42
0.000000001
 43
0.00000001
 40
0.0
 40
0.0
 40
0.0
 40
0.0
 40
0.1464882353314585
 40
0.2929629473746501
 40
0.4394202373369101
 40
0.5858658415094197
 40
0.7323288226588113
 40
0.8761935109579342
 40
1.0
 40
1.0
 40
1.0
 40
1.0
 10
58.50000000000002
 20
2.27078132437757
 30
0.0
 10
57.44196447288262
 20
2.726374519818575
 30
0.0
 10
55.32599109283576
 20
3.63751885190931
 30
0.0
 10
52.15225197859681
 20
4.833851805002474
 30
0.0
 10
48.97886882071387
 20
5.842018581356172
 30
0.0
 10
45.80563227717474
 20
6.615893026029999
 30
0.0
 10
42.65102671165359
 20
7.113828399435368
 30
0.0
 10
39.65994685311119
 20
7.34555791307602
 30
0.0
 10
37.7266709164458
 20
7.270973562743873
 30
0.0
 10
36.83246890169933
 20
7.236475912889191
 30
0.0
1001
PE_URL
1000

  0
SPLINE
  5
C3
330
1F
100
AcDbEntity
  8
0
  6
Continuous
 62
     1
370
    15
100
AcDbSpline
210
0.0
220
0.0
230
1.0
 70
    24
 71
     3
 72
     8
 73
     4
 74
     0
 42
0.000000001
 43
0.00000001
 40
0.0
 40
0.0
 40
0.0
 40
0.0
 40
1.0
 40
1.0
 40
1.0
 40
1.0
 10
58.50000000000003
 20
1.914738733312246
 30
0.0
 10
58.50000000000003
 20
2.034248893946967
 30
0.0
 10
58.50000000000002
 20
2.152963611816037
 30
0.0
 10
58.50000000000002
 20
2.270781324377572
 30
0.0
1001
PE_URL
1000

  0
SPLINE
  5
C4
330
1F
100
AcDbEntity
  8
0
  6
Continuous
 62
     1
370
    15
100
AcDbSpline
210
0.0
220
0.0
230
1.0
 70
    24
 71
     3
 72
    10
 73
     6
 74
     0
 42
0.000000001
 43
0.00000001
 40
0.0
 40
0.0
 40
0.0
 40
0.0
 40
0.5
 40
0.5
 40
1.0
 40
1.0
 40
1.0
 40
1.0
 10
63.50000000000003
 20
-7.201837450686126
 30
0.0
 10
63.50000000000004
 20
-6.649760460250361
 30
0.0
 10
63.50000000000004
 20
-5.952190014033737
 30
0.0
 10
63.50000000000002
 20
-4.330405860247304
 30
0.0
 10
63.50000000000003
 20
-3.407597003602739
 30
0.0
 10
63.50000000000003
 20
-2.439427016727144
 30
0.0
1001
PE_URL
1000

  0
SPLINE
  5
C5
330
1F
100
AcDbEntity
  8
0
  6
Continuous
 62
     1
370
    15
100
AcDbSpline
210
0.0
220
0.0
230
1.0
 70
    24
 71
     3
 72
    10
 73
     6
 74
     0
 42
0.000000001
 43
0.00000001
 40
0.0
 40
0.0
 40
0.0
 40
0.0
 40
0.4999999999999998
 40
0.4999999999999998
 40
1.0
 40
1.0
 40
1.0
 40
1.0
 10
58.50000000000002
 20
2.270781324377573
 30
0.0
 10
58.50000000000002
 20
2.737449348010805
 30
0.0
 10
58.50000000000002
 20
3.182402136679488
 30
0.0
 10
58.50000000000001
 20
3.99979465810255
 30
0.0
 10
58.50000000000004
 20
4.372055748702496
 30
0.0
 10
58.50000000000002
 20
4.69543453282602
 30
0.0
1001
PE_URL
1000

  0
SPLINE
  5
C6
330
1F
100
AcDbEntity
  8
0
  6
Continuous
 62
     1
370
    15
100
AcDbSpline
210
0.0
220
0.0
230
1.0
 70
     8
 71
     3
 72
     9
 73
     5
 74
     0
 42
0.000000001
 43
0.00000001
 40
0.0
 40
0.0
 40
0.0
 40
0.0
 40
0.8932040229722834
 40
0.9999999999999999
 40
0.9999999999999999
 40
0.9999999999999999
 40
0.9999999999999999
 10
63.50000000000003
 20
6.389687499999995
 30
0.0
 10
62.48937037280853
 20
6.384876851483788
 30
0.0
 10
61.35790477122238
 20
6.379491017572963
 30
0.0
 10
60.22643400049283
 20
6.245355976381826
 30
0.0
 10
60.10559747405447
 20
6.231030893604165
 30
0.0
1001
PE_URL
1000

  0
SPLINE
  5
C7
330
1F
100
AcDbEntity
  8
0
  6
Continuous
 62
     1
370
    15
100
AcDbSpline
210
0.0
220
0.0
230
1.0
 70
     8
 71
     3
 72
    10
 73
     6
 74
     0
 42
0.000000001
 43
0.00000001
 40
0.0
 40
0.0
 40
0.0
 40
0.0
 40
0.4999999999999993
 40
0.4999999999999993
 40
1.0
 40
1.0
 40
1.0
 40
1.0
 10
63.50000000000003
 20
6.3896875
 30
0.0
 10
62.65650482270079
 20
6.160980114040356
 30
0.0
 10
61.81753602408047
 20
5.906848124666751
 30
0.0
 10
60.149268883043
 20
5.34436442559348
 30
0.0
 10
59.32091401428757
 20
5.036828229907973
 30
0.0
 10
58.50000000000002
 20
4.695434532826017
 30
0.0
1001
PE_URL
1000

  0
SPLINE
  5
C8
330
1F
100
AcDbEntity
  8
0
  6
Continuous
 62
     1
370
    15
100
AcDbSpline
210
0.0
220
0.0
230
1.0
 70
     8
 71
     3
 72
    12
 73
     8
 74
     0
 42
0.000000001
 43
0.00000001
 40
0.0
 40
0.0
 40
0.0
 40
0.0
 40
0.1101671079919477
 40
0.3326097277878526
 40
0.5550646317099818
 40
0.7775289985438115
 40
1.0
 40
1.0
 40
1.0
 40
1.0
 10
44.17608038930078
 20
-6.828946165594227
 30
0.0
 10
43.66147481289971
 20
-6.917086665078394
 30
0.0
 10
42.10780944213063
 20
-7.183195016971018
 30
0.0
 10
39.51501689782782
 20
-7.331157414858175
 30
0.0
 10
36.39764035311216
 20
-7.273932294401682
 30
0.0
 10
33.28011499704765
 20
-6.937979041051868
 30
0.0
 10
31.20171532965258
 20
-6.493744844673934
 30
0.0
 10
30.16250000000002
 20
-6.271624434401526
 30
0.0
1001
PE_URL
1000

  0
SPLINE
  5
C9
330
1F
100
AcDbEntity
  8
외형선
  6
Continuous
370
    15
100
AcDbSpline
210
0.0
220
0.0
230
1.0
 70
    24
 71
     3
 72
    14
 73
    10
 74
     0
 42
0.000000001
 43
0.00000001
 40
0.0
 40
0.0
 40
0.0
 40
0.0
 40
0.2499999999999999
 40
0.2499999999999999
 40
0.4999999999999999
 40
0.4999999999999999
 40
0.7499999999999999
 40
0.7499999999999999
 40
1.0
 40
1.0
 40
1.0
 40
1.0
 10
30.16250000000002
 20
3.273158898017779
 30
0.0
 10
30.16250000000002
 20
2.506433491106047
 30
0.0
 10
30.16250000000002
 20
1.683600657639708
 30
0.0
 10
30.16250000000002
 20
-0.0080176263904004
 30
0.0
 10
30.16250000000002
 20
-0.8760700732030208
 30
0.0
 10
30.16250000000002
 20
-2.572453258072932
 30
0.0
 10
30.16250000000002
 20
-3.399880092246563
 30
0.0
 10
30.16250000000002
 20
-4.936701665724158
 30
0.0
 10
30.16250000000002
 20
-5.645580821609385
 30
0.0
 10
30.16250000000002
 20
-6.271624434401523
 30
0.0
  0
LINE
  5
CA
330
1F
100
AcDbEntity
  8
0
  6
Continuous
 62
     1
370
    15
100
AcDbLine
 10
63.50000000000003
 20
0.0000000000000002
 30
0.0
 11
63.50000000000003
 21
6.389687499999996
 31
0.0
1001
PE_URL
1000

  0
SPLINE
  5
CB
330
1F
100
AcDbEntity
  8
외형선
  6
Continuous
370
    15
100
AcDbSpline
210
0.0
220
0.0
230
1.0
 70
    24
 71
     3
 72
    11
 73
     7
 74
     0
 42
0.000000001
 43
0.00000001
 40
0.0
 40
0.0
 40
0.0
 40
0.0
 40
0.269257785194514
 40
0.5385155703890282
 40
0.9325297096772188
 40
1.0
 40
1.0
 40
1.0
 40
1.0
 10
30.16250000000002
 20
-6.271624434401526
 30
0.0
 10
30.16250000000002
 20
-6.416545057945577
 30
0.0
 10
30.16250000000002
 20
-6.70638630503368
 30
0.0
 10
30.16250000000002
 20
-7.014495506815089
 30
0.0
 10
30.16250000000001
 20
-7.182935492711866
 30
0.0
 10
30.16250000000002
 20
-7.138530040411535
 30
0.0
 10
30.16250000000002
 20
-7.132037841398141
 30
0.0
  0
SPLINE
  5
CC
330
1F
100
AcDbEntity
  8
0
  6
Continuous
 62
     1
370
    15
100
AcDbSpline
210
0.0
220
0.0
230
1.0
 70
     8
 71
     3
 72
    12
 73
     8
 74
     0
 42
0.000000001
 43
0.00000001
 40
0.0
 40
0.0
 40
0.0
 40
0.0
 40
0.0631390984022976
 40
0.2973544469309042
 40
0.531569713825541
 40
0.7657848984079244
 40
1.0
 40
1.0
 40
1.0
 40
1.0
 10
50.97434524785428
 20
6.117496883330479
 30
0.0
 10
51.23796480850228
 20
6.236049704704195
 30
0.0
 10
52.47948473261009
 20
6.794375837381391
 30
0.0
 10
54.6989044778914
 20
7.579694082829695
 30
0.0
 10
57.63260412685171
 20
8.41045168517062
 30
0.0
 10
60.56630253837815
 20
8.959214760501245
 30
0.0
 10
62.52210096162693
 20
9.06667829169213
 30
0.0
 10
63.50000000000003
 20
9.120410047768088
 30
0.0
1001
PE_URL
1000

  0
SPLINE
  5
CD
330
1F
100
AcDbEntity
  8
0
  6
Continuous
 62
     1
370
    15
100
AcDbSpline
210
0.0
220
0.0
230
1.0
 70
    24
 71
     3
 72
    10
 73
     6
 74
     0
 42
0.000000001
 43
0.00000001
 40
0.0
 40
0.0
 40
0.0
 40
0.0
 40
0.5000000000000004
 40
0.5000000000000004
 40
1.0
 40
1.0
 40
1.0
 40
1.0
 10
63.50000000000003
 20
6.389687499999995
 30
0.0
 10
63.50000000000004
 20
6.777014444169257
 30
0.0
 10
63.50000000000002
 20
7.227124223627648
 30
0.0
 10
63.50000000000003
 20
8.171453328645807
 30
0.0
 10
63.50000000000003
 20
8.663260956175314
 30
0.0
 10
63.50000000000004
 20
9.12041004776809
 30
0.0
1001
PE_URL
1000

  0
LINE
  5
CE
330
1F
100
AcDbEntity
  8
중심선
 62
     1
100
AcDbLine
 10
-70.5
 20
-0.000000000000008
 30
0.0
 11
70.5
 21
0.000000000000008
 31
0.0
  0
LINE
  5
CF
330
1F
100
AcDbEntity
  8
참조1
100
AcDbLine
 10
0.0
 20
-0.0000000000000083
 30
0.0
 11
0.0000000000000071
 21
-40.00000000000001
 31
0.0
  0
LINE
  5
D0
330
1F
100
AcDbEntity
  8
참조1
100
AcDbLine
 10
0.0000000000000071
 20
-40.00000000000001
 30
0.0
 11
-9.703215596699206
 21
-40.0
 31
0.0
  0
CIRCLE
  5
D1
330
1F
100
AcDbEntity
  8
해칭선
100
AcDbCircle
 10
0.0
 20
0.0
 30
0.0
 40
3.000000000000001
  0
INSERT
  5
D2
330
1F
100
AcDbEntity
  8
0
  6
Continuous
 62
     7
100
AcDbBlockReference
 66
     1
  2
블럭10
 10
-13.94027293212521
 20
-52.04717430164393
 30
0.0
  0
ATTRIB
  5
D3
330
D2
100
AcDbEntity
  8
FORMAT
 62
     2
100
AcDbText
 10
-23.12156822086649
 20
-49.97180738881174
 30
0.0
 40
4.233333333333333
  1
E2050046 [ 2 FLUTE ]
 41
0.75
  7
SLDTEXTSTYLE0
 11
-23.12156822086649
 21
-52.08847405547841
 31
0.0
100
AcDbAttribute
  2
AUTOATTR0
 70
     0
 74
     1
  0
SEQEND
  5
D4
330
D2
100
AcDbEntity
  8
0
  6
Continuous
 62
     7
  0
HATCH
  5
D5
330
1F
100
AcDbEntity
  8
중심선
100
AcDbHatch
 10
0.0
 20
0.0
 30
0.0
210
0.0
220
0.0
230
1.0
  2
SOLID
 70
     1
 71
     0
 91
        1
 92
        0
 93
        4
 72
     1
 10
-8.225363627744372
 20
-35.8
 11
-11.67163887158165
 21
-35.8
 72
     1
 10
-11.67163887158165
 20
-35.8
 11
-13.79986873078568
 21
-38.3363255805726
 72
     1
 10
-13.79986873078568
 20
-38.3363255805726
 11
-10.35356040183525
 21
-38.33628615127011
 72
     1
 10
-10.35356040183525
 20
-38.33628615127011
 11
-8.225363627744372
 21
-35.8
 97
        0
 75
     0
 76
     1
 98
        1
 10
19.75671167873053
 20
-0.0010749287238975
  0
HATCH
  5
D6
330
1F
100
AcDbEntity
  8
중심선
100
AcDbHatch
 10
0.0
 20
0.0
 30
0.0
210
0.0
220
0.0
230
1.0
  2
SOLID
 70
     1
 71
     0
 91
        1
 92
        0
 93
        4
 72
     1
 10
-3.212599636708418
 20
-35.79999999999998
 11
-6.658874880545675
 21
-35.8
 72
     1
 10
-6.658874880545675
 20
-35.8
 11
-11.19001288890309
 21
-41.20000000000002
 72
     1
 10
-11.19001288890309
 20
-41.20000000000002
 11
-7.743737645065806
 21
-41.20000000000002
 72
     1
 10
-7.743737645065806
 20
-41.20000000000002
 11
-3.212599636708418
 21
-35.79999999999998
 97
        0
 75
     0
 76
     1
 98
        1
 10
19.75671167873053
 20
-0.0010749287238975
  0
HATCH
  5
D7
330
1F
100
AcDbEntity
  8
중심선
100
AcDbHatch
 10
0.0
 20
0.0
 30
0.0
210
0.0
220
0.0
230
1.0
  2
SOLID
 70
     1
 71
     0
 91
        1
 92
        0
 93
        4
 72
     1
 10
1.80016435432745
 20
-35.80000000000003
 11
-1.646110889509639
 21
-35.8
 72
     1
 10
-1.646110889509639
 20
-35.8
 11
-8.69454779139889
 21
-44.20000000000002
 72
     1
 10
-8.69454779139889
 20
-44.20000000000002
 11
-5.248272547561605
 21
-44.20000000000002
 72
     1
 10
-5.248272547561605
 20
-44.20000000000002
 11
1.80016435432745
 21
-35.80000000000003
 97
        0
 75
     0
 76
     1
 98
        1
 10
19.75671167873053
 20
-0.0010749287238975
  0
HATCH
  5
D8
330
1F
100
AcDbEntity
  8
중심선
100
AcDbHatch
 10
0.0
 20
0.0
 30
0.0
210
0.0
220
0.0
230
1.0
  2
SOLID
 70
     1
 71
     0
 91
        1
 92
        0
 93
        6
 72
     3
 10
6.600054785339676
 20
-40.00000000005127
 11
3.960054785062283
 21
1.540882976769353E-10
 40
0.3939339440162628
 50
17.09539180608436
 51
320.0019657685082
 73
     0
 72
     1
 10
8.283054441040242
 20
-38.58789400463833
 11
10.58835631474131
 21
-36.65356729459038
 72
     3
 10
6.600054785286829
 20
-40.00000000000015
 11
6.600054785286829
 21
-1.278976924368180E-13
 40
0.636358354079598
 50
39.99873849337411
 51
368.4976242363724
 73
     1
 72
     1
 10
13.02538727718744
 20
-39.03999999993002
 11
5.280122092122751
 21
-39.03999999993002
 72
     1
 10
5.280122092122751
 20
-39.03999999993002
 11
5.280097047676817
 21
-40.95999999992991
 72
     1
 10
5.280097047676817
 20
-40.95999999992991
 11
9.721476817148854
 21
-40.95999999992988
 97
        0
 75
     0
 76
     1
 98
        1
 10
19.75671167873053
 20
-0.0010749287238975
  0
DIMENSION
  5
D9
330
1F
100
AcDbEntity
  8
치수문자_일반주서
100
AcDbDimension
  2
_D
 10
-78.49999999999989
 20
-9.525000000000198
 30
0.0
 11
-78.50000000000004
 21
31.75399999999994
 31
0.0
 70
   160
  1
%%c<>
 71
     2
 42
19.05
 52
-270.0
  3
SLDDIMSTYLE0
100
AcDbAlignedDimension
 13
-27.11252658361473
 23
9.524999999999991
 33
0.0
 14
-27.11252658361472
 24
-9.525000000000006
 34
0.0
 50
90.0000000000002
100
AcDbRotatedDimension
1001
PE_URL
1000

1001
ACAD
1000
DSTYLE
1002
{
1070
   171
1070
     8
1070
   273
1070
     7
1070
   140
1040
4.0
1002
}
  0
DIMENSION
  5
EE
330
1F
100
AcDbEntity
  8
치수문자_일반주서
100
AcDbDimension
  2
_D_1
 10
114.1532505033113
 20
9.120410047768278
 30
0.0
 11
114.1532505033112
 21
34.59941004776829
 31
0.0
 70
   160
  1
%%c<>
 71
     2
 42
18.24082009553619
 52
-270.0
  3
SLDDIMSTYLE0
100
AcDbAlignedDimension
 13
63.50000000000004
 23
-9.120410047768098
 33
0.0
 14
63.50000000000004
 24
9.12041004776809
 34
0.0
 50
90.0000000000002
100
AcDbRotatedDimension
1001
PE_URL
1000

1001
ACAD
1000
DSTYLE
1002
{
1070
   171
1070
     8
1070
   273
1070
     7
1070
   140
1040
4.0
1002
}
  0
DIMENSION
  5
102
330
1F
100
AcDbEntity
  8
치수문자_일반주서
100
AcDbDimension
  2
_D_2
 10
30.16250000000002
 20
24.52499999999999
 30
0.0
 11
88.47900000000004
 21
24.52499999999999
 31
0.0
 70
   160
  1
<>
 71
     2
 42
33.33750000000001
  3
SLDDIMSTYLE0
100
AcDbAlignedDimension
 13
63.50000000000004
 23
9.12041004776809
 33
0.0
 14
30.16250000000002
 24
7.152397586978281
 34
0.0
100
AcDbRotatedDimension
1001
PE_URL
1000

1001
ACAD
1000
DSTYLE
1002
{
1070
   171
1070
     8
1070
   273
1070
     7
1070
   140
1040
4.0
1002
}
  0
DIMENSION
  5
116
330
1F
100
AcDbEntity
  8
치수문자_일반주서
100
AcDbDimension
  2
_D_3
 10
63.50000000000003
 20
39.52499999999998
 30
0.0
 11
0.0000000000000213
 21
39.52499999999998
 31
0.0
 70
   160
  1
<>
 71
     2
 42
127.0000000000001
  3
SLDDIMSTYLE0
100
AcDbAlignedDimension
 13
-63.50000000000001
 23
9.120410047768061
 33
0.0
 14
63.50000000000004
 24
9.12041004776809
 34
0.0
 50
-0.0000000000000064
100
AcDbRotatedDimension
1001
PE_URL
1000

1001
ACAD
1000
DSTYLE
1002
{
1070
   171
1070
     8
1070
   273
1070
     7
1070
   140
1040
4.0
1002
}
  0
LINE
  5
129
330
1F
100
AcDbEntity
  8
참조1
100
AcDbLine
 10
88.26912503295506
 20
7.439999999999998
 30
0.0
 11
88.26912503295506
 21
-7.440000000000007
 31
0.0
  0
LINE
  5
12A
330
1F
100
AcDbEntity
  8
참조1
100
AcDbLine
 10
100.9691250329551
 20
5.439999999999998
 30
0.0
 11
88.26912503295506
 21
5.439999999999998
 31
0.0
  0
SOLID
  5
12B
330
1F
100
AcDbEntity
  8
참조1
100
AcDbTrace
 10
88.26912503295506
 20
5.439999999999998
 30
0.0
 11
94.61912503295505
 21
4.423999999999998
 31
0.0
 12
94.61912503295505
 22
6.455999999999998
 32
0.0
 13
94.61912503295505
 23
6.455999999999998
 33
0.0
  0
LINE
  5
12C
330
1F
100
AcDbEntity
  8
참조1
100
AcDbLine
 10
100.9691250329551
 20
-5.440000000000007
 30
0.0
 11
88.26912503295506
 21
-5.440000000000007
 31
0.0
  0
SOLID
  5
12D
330
1F
100
AcDbEntity
  8
참조1
100
AcDbTrace
 10
88.26912503295506
 20
-5.440000000000007
 30
0.0
 11
94.61912503295505
 21
-6.456000000000007
 31
0.0
 12
94.61912503295505
 22
-4.424000000000007
 32
0.0
 13
94.61912503295505
 23
-4.424000000000007
 33
0.0
  0
MTEXT
  5
12E
330
1F
100
AcDbEntity
  8
참조1
100
AcDbMText
 10
97.65347516558106
 20
11.01029177718832
 30
0.0
 40
3.5
 41
0.0
 71
     1
 72
     1
  1
A
  7
SLDTEXTSTYLE0
 73
     1
 44
1.0
  0
MTEXT
  5
12F
330
1F
100
AcDbEntity
  8
참조1
100
AcDbMText
 10
97.65347516558106
 20
0.1302917771883217
 30
0.0
 40
3.5
 41
0.0
 71
     1
 72
     1
  1
A
  7
SLDTEXTSTYLE0
 73
     1
 44
1.0
  0
INSERT
  5
136
330
1F
100
AcDbEntity
  8
해칭선
100
AcDbBlockReference
  2
SW_DOWELSYMBOL_0
 10
0.0
 20
0.0
 30
0.0
  0
LINE
  5
1AB
330
1F
100
AcDbEntity
  8
외형선
  6
Continuous
370
    15
100
AcDbLine
 10
-5.791199999999989
 20
7.619999999999978
 30
0.0
 11
5.791200000000018
 21
7.619999999999978
 31
0.0
1001
PE_URL
1000

  0
LINE
  5
1AC
330
1F
100
AcDbEntity
  8
외형선
  6
Continuous
370
    15
100
AcDbLine
 10
-5.791199999999989
 20
7.619999999999964
 30
0.0
 11
-7.696200000000132
 21
9.524999999999993
 31
0.0
1001
PE_URL
1000

  0
LINE
  5
1AD
330
1F
100
AcDbEntity
  8
외형선
  6
Continuous
370
    15
100
AcDbLine
 10
5.791200000000018
 20
7.619999999999964
 30
0.0
 11
7.69619999999999
 21
9.524999999999993
 31
0.0
1001
PE_URL
1000

  0
SPLINE
  5
1F5
330
1F
100
AcDbEntity
  8
외형선
  6
Continuous
370
    15
100
AcDbSpline
210
0.0
220
0.0
230
1.0
 70
     8
 71
     3
 72
     9
 73
     5
 74
     0
 42
0.000000001
 43
0.00000001
 40
0.0
 40
0.0
 40
0.0
 40
0.0
 40
0.439435455352968
 40
1.0
 40
1.0
 40
1.0
 40
1.0
 10
-27.11253675444009
 20
7.276708222908137
 30
0.0
 10
-27.55635281598219
 20
7.252710650375271
 30
0.0
 10
-28.56632152955725
 20
7.198100645104777
 30
0.0
 10
-29.58914271046764
 20
7.168814390755333
 30
0.0
 10
-30.16250000000001
 20
7.152397554921521
 30
0.0
  0
LINE
  5
1F6
330
1F
100
AcDbEntity
  8
외형선
  6
Continuous
370
    15
100
AcDbLine
 10
-30.1625
 20
-7.152397554921535
 30
0.0
 11
-29.43688950995682
 21
-7.175579573450221
 31
0.0
  0
SPLINE
  5
1F7
330
1F
100
AcDbEntity
  8
0
  6
Continuous
 62
     1
370
    15
100
AcDbSpline
210
0.0
220
0.0
230
1.0
 70
     8
 71
     3
 72
    10
 73
     6
 74
     0
 42
0.000000001
 43
0.00000001
 40
0.0
 40
0.0
 40
0.0
 40
0.0
 40
0.4328187823197341
 40
0.6140547586235096
 40
1.0
 40
1.0
 40
1.0
 40
1.0
 10
-39.85173506923627
 20
-2.339025316115244
 30
0.0
 10
-39.48611195228307
 20
-2.513177452719887
 30
0.0
 10
-38.96738997440455
 20
-2.760253024702656
 30
0.0
 10
-38.12703180536967
 20
-3.181682700683197
 30
0.0
 10
-37.64611437617371
 20
-3.433944111710527
 30
0.0
 10
-37.31886836113055
 20
-3.605598405142722
 30
0.0
1001
PE_URL
1000

  0
SPLINE
  5
1F8
330
1F
100
AcDbEntity
  8
0
  6
Continuous
 62
     1
370
    15
100
AcDbSpline
210
0.0
220
0.0
230
1.0
 70
     8
 71
     3
 72
     9
 73
     5
 74
     0
 42
0.000000001
 43
0.00000001
 40
0.0
 40
0.0
 40
0.0
 40
0.0
 40
0.4774326040107281
 40
1.0
 40
1.0
 40
1.0
 40
1.0
 10
-36.83466046152827
 20
-7.25357649054633
 30
0.0
 10
-35.77529996834834
 20
-7.206311152953241
 30
0.0
 10
-33.55643078287448
 20
-7.107312179703342
 30
0.0
 10
-31.32734667676874
 20
-7.13692359482819
 30
0.0
 10
-30.16249999999999
 20
-7.152397554921535
 30
0.0
1001
PE_URL
1000

  0
SPLINE
  5
1F9
330
1F
100
AcDbEntity
  8
0
  6
Continuous
 62
     1
370
    15
100
AcDbSpline
210
0.0
220
0.0
230
1.0
 70
     8
 71
     3
 72
    27
 73
    23
 74
     0
 42
0.000000001
 43
0.00000001
 40
0.0
 40
0.0
 40
0.0
 40
0.0
 40
0.0687235326514562
 40
0.1241339689902086
 40
0.1701462545059703
 40
0.2154844055418726
 40
0.2593870606516617
 40
0.2974350277863212
 40
0.3532802290578281
 40
0.4225895069653568
 40
0.4980689142486404
 40
0.5492412884798609
 40
0.5906077376673078
 40
0.6360600922602233
 40
0.6882750425596615
 40
0.7477301183103704
 40
0.7852648288799887
 40
0.815135234076703
 40
0.8399148936572981
 40
0.8772901522451477
 40
0.9305760279428954
 40
1.0
 40
1.0
 40
1.0
 40
1.0
 10
-60.10894505983607
 20
-6.243212428273132
 30
0.0
 10
-59.75374682205964
 20
-6.214107882474892
 30
0.0
 10
-59.11215921251202
 20
-6.161536912296214
 30
0.0
 10
-58.20638049222317
 20
-6.105268092439314
 30
0.0
 10
-57.40840117409683
 20
-6.06581269067966
 30
0.0
 10
-56.68298952658408
 20
-6.038187770066283
 30
0.0
 10
-56.00709339412181
 20
-6.020207788026514
 30
0.0
 10
-55.2743956309496
 20
-6.008351809607809
 30
0.0
 10
-54.40655453534277
 20
-6.004784301733331
 30
0.0
 10
-53.33962165154739
 20
-6.017639195981999
 30
0.0
 10
-52.29750768793989
 20
-6.049438845279873
 30
0.0
 10
-51.40452943327379
 20
-6.091277920078781
 30
0.0
 10
-50.67037799715484
 20
-6.134100551922792
 30
0.0
 10
-49.9311678914341
 20
-6.185158376749616
 30
0.0
 10
-49.09612228278648
 20
-6.25292775780273
 30
0.0
 10
-48.30300161074055
 20
-6.328259564041261
 30
0.0
 10
-47.62849589987232
 20
-6.399762373212475
 30
0.0
 10
-47.13931520278214
 20
-6.455442042850496
 30
0.0
 10
-46.65373154297554
 20
-6.51368422018891
 30
0.0
 10
-46.04023751317309
 20
-6.591830278134633
 30
0.0
 10
-45.18797968281041
 20
-6.708411985422703
 30
0.0
 10
-44.53238031058032
 20
-6.808791049185963
 30
0.0
 10
-44.16147028721134
 20
-6.86558122084147
 30
0.0
1001
PE_URL
1000

  0
SPLINE
  5
1FA
330
1F
100
AcDbEntity
  8
0
  6
Continuous
 62
     1
370
    15
100
AcDbSpline
210
0.0
220
0.0
230
1.0
 70
     8
 71
     3
 72
    14
 73
    10
 74
     0
 42
0.000000001
 43
0.00000001
 40
0.0
 40
0.0
 40
0.0
 40
0.0
 40
0.1907503071739167
 40
0.3546072359794115
 40
0.4953379937543737
 40
0.6153868918822814
 40
0.7221877896650578
 40
0.851880911581483
 40
0.9999999999999999
 40
0.9999999999999999
 40
0.9999999999999999
 40
0.9999999999999999
 10
-44.16147028721135
 20
6.865581220841438
 30
0.0
 10
-44.57887777059291
 20
6.801290593953599
 30
0.0
 10
-45.35484356667472
 20
6.681773504634872
 30
0.0
 10
-46.50707526285231
 20
6.530011482791704
 30
0.0
 10
-47.48610371209667
 20
6.41431632958653
 30
0.0
 10
-48.31944689888974
 20
6.326612073508667
 30
0.0
 10
-49.13037475959103
 20
6.25041586574104
 30
0.0
 10
-50.00499511813253
 20
6.178200922804809
 30
0.0
 10
-50.63660279834982
 20
6.138320095910228
 30
0.0
 10
-50.97335240960387
 20
6.117057129398134
 30
0.0
1001
PE_URL
1000

  0
SPLINE
  5
1FB
330
1F
100
AcDbEntity
  8
0
  6
Continuous
 62
     1
370
    15
100
AcDbSpline
210
0.0
220
0.0
230
1.0
 70
     8
 71
     3
 72
     9
 73
     5
 74
     0
 42
0.000000001
 43
0.00000001
 40
0.0
 40
0.0
 40
0.0
 40
0.0
 40
0.4469563859326197
 40
1.0
 40
1.0
 40
1.0
 40
1.0
 10
-30.1625
 20
7.152397554921521
 30
0.0
 10
-31.15099094918405
 20
7.137503683212664
 30
0.0
 10
-33.36259588491275
 20
7.104180808369335
 30
0.0
 10
-35.5982475724544
 20
7.200376228010967
 30
0.0
 10
-36.83466046152828
 20
7.253576490546305
 30
0.0
1001
PE_URL
1000

  0
SPLINE
  5
1FC
330
1F
100
AcDbEntity
  8
외형선
  6
Continuous
370
    15
100
AcDbSpline
210
0.0
220
0.0
230
1.0
 70
     8
 71
     3
 72
     8
 73
     4
 74
     0
 42
0.000000001
 43
0.00000001
 40
0.0
 40
0.0
 40
0.0
 40
0.0
 40
1.0
 40
1.0
 40
1.0
 40
1.0
 10
-27.68134233574611
 20
-7.997890115621026
 30
0.0
 10
-27.49191219108014
 20
-8.059842145193869
 30
0.0
 10
-27.30225506034639
 20
-8.120097671311605
 30
0.0
 10
-27.11255444061564
 20
-8.178595871496519
 30
0.0
  0
LINE
  5
1FD
330
1F
100
AcDbEntity
  8
외형선
  6
Continuous
370
    15
100
AcDbLine
 10
-27.68134233574611
 20
-7.997890115620912
 30
0.0
 11
-27.68134233574611
 21
-6.285996569831841
 31
0.0
  0
SPLINE
  5
1FE
330
1F
100
AcDbEntity
  8
외형선
  6
Continuous
370
    15
100
AcDbSpline
210
0.0
220
0.0
230
1.0
 70
     8
 71
     3
 72
     8
 73
     4
 74
     0
 42
0.000000001
 43
0.00000001
 40
0.0
 40
0.0
 40
0.0
 40
0.0
 40
1.0
 40
1.0
 40
1.0
 40
1.0
 10
-27.68134233574611
 20
-6.285996569831834
 30
0.0
 10
-27.49190291865278
 20
-6.371705112305222
 30
0.0
 10
-27.30223649326344
 20
-6.456094927063738
 30
0.0
 10
-27.11252658361472
 20
-6.539082331099948
 30
0.0
  0
LINE
  5
1FF
330
1F
100
AcDbEntity
  8
외형선
  6
Continuous
370
    15
100
AcDbLine
 10
-27.11252658361473
 20
9.524999999999991
 30
0.0
 11
-27.11252658361472
 21
-6.539187365051685
 31
0.0
  0
SPLINE
  5
200
330
1F
100
AcDbEntity
  8
외형선
  6
Continuous
370
    15
100
AcDbSpline
210
0.0
220
0.0
230
1.0
 70
     8
 71
     3
 72
     8
 73
     4
 74
     0
 42
0.000000001
 43
0.00000001
 40
0.0
 40
0.0
 40
0.0
 40
0.0
 40
1.0
 40
1.0
 40
1.0
 40
1.0
 10
-27.68134233574612
 20
7.997890115621011
 30
0.0
 10
-27.49191219108015
 20
8.059842145193855
 30
0.0
 10
-27.3022550603464
 20
8.120097671311587
 30
0.0
 10
-27.11255444061565
 20
8.178595871496501
 30
0.0
  0
LINE
  5
201
330
1F
100
AcDbEntity
  8
외형선
  6
Continuous
370
    15
100
AcDbLine
 10
-27.11252658361472
 20
-8.178706221659773
 30
0.0
 11
-27.11252658361472
 21
-9.525000000000006
 31
0.0
  0
SPLINE
  5
202
330
1F
100
AcDbEntity
  8
외형선
  6
Continuous
370
    15
100
AcDbSpline
210
0.0
220
0.0
230
1.0
 70
    24
 71
     3
 72
    10
 73
     6
 74
     0
 42
0.000000001
 43
0.00000001
 40
0.0
 40
0.0
 40
0.0
 40
0.0
 40
0.5
 40
0.5
 40
1.0
 40
1.0
 40
1.0
 40
1.0
 10
-30.16249999999999
 20
-4.994236410724476
 30
0.0
 10
-30.16249999999999
 20
-4.860518314530196
 30
0.0
 10
-30.16249999999999
 20
-4.63241551015458
 30
0.0
 10
-30.16249999999999
 20
-4.032894792280317
 30
0.0
 10
-30.16249999999999
 20
-3.663624613600202
 30
0.0
 10
-30.16249999999999
 20
-3.273158898017794
 30
0.0
  0
SPLINE
  5
203
330
1F
100
AcDbEntity
  8
외형선
  6
Continuous
370
    15
100
AcDbSpline
210
0.0
220
0.0
230
1.0
 70
     8
 71
     3
 72
    10
 73
     6
 74
     0
 42
0.000000001
 43
0.00000001
 40
0.0
 40
0.0
 40
0.0
 40
0.0
 40
0.5
 40
0.5
 40
1.0
 40
1.0
 40
1.0
 40
1.0
 10
-30.16249999999999
 20
-3.273158898017794
 30
0.0
 10
-29.65323386791576
 20
-3.449694493270769
 30
0.0
 10
-29.14335935776177
 20
-3.621206574068061
 30
0.0
 10
-28.12948483282253
 20
-3.951846024269742
 30
0.0
 10
-27.62187700999065
 20
-4.111377209574879
 30
0.0
 10
-27.11253329336943
 20
-4.264460663888062
 30
0.0
  0
SPLINE
  5
204
330
1F
100
AcDbEntity
  8
외형선
  6
Continuous
370
    15
100
AcDbSpline
210
0.0
220
0.0
230
1.0
 70
     8
 71
     3
 72
     8
 73
     4
 74
     0
 42
0.000000001
 43
0.00000001
 40
0.0
 40
0.0
 40
0.0
 40
0.0
 40
1.0
 40
1.0
 40
1.0
 40
1.0
 10
-27.68134233574611
 20
-6.285996569831841
 30
0.0
 10
-28.17579086755505
 20
-6.015995708955735
 30
0.0
 10
-28.66901983581425
 20
-5.742162865228796
 30
0.0
 10
-29.16249999999999
 20
-5.466670069912613
 30
0.0
  0
SPLINE
  5
205
330
1F
100
AcDbEntity
  8
외형선
  6
Continuous
370
    15
100
AcDbSpline
210
0.0
220
0.0
230
1.0
 70
     8
 71
     3
 72
     8
 73
     4
 74
     0
 42
0.000000001
 43
0.00000001
 40
0.0
 40
0.0
 40
0.0
 40
0.0
 40
1.0
 40
1.0
 40
1.0
 40
1.0
 10
-30.16249999999999
 20
-4.994236410724476
 30
0.0
 10
-29.82909604317616
 20
-5.155153878250292
 30
0.0
 10
-29.49543021728769
 20
-5.312787231567626
 30
0.0
 10
-29.16249999999999
 20
-5.46667006991261
 30
0.0
  0
LINE
  5
206
330
1F
100
AcDbEntity
  8
외형선
  6
Continuous
370
    15
100
AcDbLine
 10
-29.16249999999999
 20
-7.27296864115953
 30
0.0
 11
-29.16249999999999
 21
-5.46667006991261
 31
0.0
  0
SPLINE
  5
207
330
1F
100
AcDbEntity
  8
외형선
  6
Continuous
370
    15
100
AcDbSpline
210
0.0
220
0.0
230
1.0
 70
     8
 71
     3
 72
     8
 73
     4
 74
     0
 42
0.000000001
 43
0.00000001
 40
0.0
 40
0.0
 40
0.0
 40
0.0
 40
1.0
 40
1.0
 40
1.0
 40
1.0
 10
-30.16249999999999
 20
-6.910203060642175
 30
0.0
 10
-29.82909604317616
 20
-7.035812656760747
 30
0.0
 10
-29.49543021728769
 20
-7.156852925030705
 30
0.0
 10
-29.16249999999999
 20
-7.27296864115953
 30
0.0
  0
LINE
  5
208
330
1F
100
AcDbEntity
  8
외형선
  6
Continuous
370
    15
100
AcDbLine
 10
-30.16249999999999
 20
-6.910203060642175
 30
0.0
 11
-30.16249999999999
 21
-4.994236410724476
 31
0.0
  0
SPLINE
  5
209
330
1F
100
AcDbEntity
  8
외형선
  6
Continuous
370
    15
100
AcDbSpline
210
0.0
220
0.0
230
1.0
 70
     8
 71
     3
 72
     8
 73
     4
 74
     0
 42
0.000000001
 43
0.00000001
 40
0.0
 40
0.0
 40
0.0
 40
0.0
 40
1.0
 40
1.0
 40
1.0
 40
1.0
 10
-29.1625
 20
-7.272968641159565
 30
0.0
 10
-28.66712161209018
 20
-7.51701288269917
 30
0.0
 10
-28.17386604522803
 20
-7.759277059796723
 30
0.0
 10
-27.68134233574615
 20
-7.997890115621011
 30
0.0
  0
SPLINE
  5
20A
330
1F
100
AcDbEntity
  8
외형선
  6
Continuous
370
    15
100
AcDbSpline
210
0.0
220
0.0
230
1.0
 70
     8
 71
     3
 72
    10
 73
     6
 74
     0
 42
0.000000001
 43
0.00000001
 40
0.0
 40
0.0
 40
0.0
 40
0.0
 40
0.5
 40
0.5
 40
1.0
 40
1.0
 40
1.0
 40
1.0
 10
-30.1625
 20
6.27162443440151
 30
0.0
 10
-29.65323444467301
 20
6.151286449752014
 30
0.0
 10
-29.14336051264094
 20
6.0211431780263
 30
0.0
 10
-28.12948712266181
 20
5.743144073151232
 30
0.0
 10
-27.62187989279819
 20
5.594977034829974
 30
0.0
 10
-27.11253675444009
 20
5.43818582784797
 30
0.0
  0
SPLINE
  5
20B
330
1F
100
AcDbEntity
  8
외형선
  6
Continuous
370
    15
100
AcDbSpline
210
0.0
220
0.0
230
1.0
 70
    24
 71
     3
 72
    14
 73
    10
 74
     0
 42
0.000000001
 43
0.00000001
 40
0.0
 40
0.0
 40
0.0
 40
0.0
 40
0.25
 40
0.25
 40
0.5000000000000001
 40
0.5000000000000001
 40
0.7500000000000001
 40
0.7500000000000001
 40
1.0
 40
1.0
 40
1.0
 40
1.0
 10
-30.16249999999999
 20
-3.273158898017794
 30
0.0
 10
-30.16249999999999
 20
-2.506433491106062
 30
0.0
 10
-30.16249999999999
 20
-1.683600657639726
 30
0.0
 10
-30.16249999999999
 20
0.0080176263903837
 30
0.0
 10
-30.16249999999999
 20
0.8760700732030031
 30
0.0
 10
-30.1625
 20
2.572453258072915
 30
0.0
 10
-30.1625
 20
3.399880092246548
 30
0.0
 10
-30.1625
 20
4.93670166572414
 30
0.0
 10
-30.1625
 20
5.645580821609368
 30
0.0
 10
-30.1625
 20
6.271624434401506
 30
0.0
  0
SPLINE
  5
20C
330
1F
100
AcDbEntity
  8
외형선
  6
Continuous
370
    15
100
AcDbSpline
210
0.0
220
0.0
230
1.0
 70
    24
 71
     3
 72
    11
 73
     7
 74
     0
 42
0.000000001
 43
0.00000001
 40
0.0
 40
0.0
 40
0.0
 40
0.0
 40
0.2688920121356367
 40
0.5377840242712735
 40
0.9312629153145007
 40
1.0
 40
1.0
 40
1.0
 40
1.0
 10
-30.1625
 20
6.27162443440151
 30
0.0
 10
-30.1625
 20
6.416540519951809
 30
0.0
 10
-30.1625
 20
6.706372691052405
 30
0.0
 10
-30.1625
 20
7.014560475779792
 30
0.0
 10
-30.1625
 20
7.183010980164084
 30
0.0
 10
-30.1625
 20
7.138351541534195
 30
0.0
 10
-30.1625
 20
7.131710144922426
 30
0.0
  0
SPLINE
  5
20D
330
1F
100
AcDbEntity
  8
외형선
  6
Continuous
370
    15
100
AcDbSpline
210
0.0
220
0.0
230
1.0
 70
    24
 71
     3
 72
     9
 73
     5
 74
     0
 42
0.000000001
 43
0.00000001
 40
0.0
 40
0.0
 40
0.0
 40
0.0
 40
0.8556570607805726
 40
1.0
 40
1.0
 40
1.0
 40
1.0
 10
-30.16249999999999
 20
-7.13158209551176
 30
0.0
 10
-30.16249999999999
 20
-7.136837987194689
 30
0.0
 10
-30.16249999999999
 20
-7.142980508449796
 30
0.0
 10
-30.16249999999999
 20
-7.017006223938367
 30
0.0
 10
-30.16249999999999
 20
-6.998822725445919
 30
0.0
  0
LINE
  5
20E
330
1F
100
AcDbEntity
  8
외형선
  6
Continuous
370
    15
100
AcDbLine
 10
-29.43375530819142
 20
7.176691995670698
 30
0.0
 11
-29.16250000000001
 21
7.272968641159512
 31
0.0
  0
SPLINE
  5
20F
330
1F
100
AcDbEntity
  8
외형선
  6
Continuous
370
    15
100
AcDbSpline
210
0.0
220
0.0
230
1.0
 70
     8
 71
     3
 72
     8
 73
     4
 74
     0
 42
0.000000001
 43
0.00000001
 40
0.0
 40
0.0
 40
0.0
 40
0.0
 40
1.0
 40
1.0
 40
1.0
 40
1.0
 10
-29.16250000000001
 20
7.272968641159547
 30
0.0
 10
-28.66712161209019
 20
7.517012882699152
 30
0.0
 10
-28.17386604522805
 20
7.759277059796712
 30
0.0
 10
-27.68134233574616
 20
7.997890115620994
 30
0.0
  0
SPLINE
  5
210
330
1F
100
AcDbEntity
  8
0
  6
Continuous
 62
     1
370
    15
100
AcDbSpline
210
0.0
220
0.0
230
1.0
 70
     8
 71
     3
 72
    46
 73
    42
 74
     0
 42
0.000000001
 43
0.00000001
 40
0.0
 40
0.0
 40
0.0
 40
0.0
 40
0.0625
 40
0.0625
 40
0.1250000000000001
 40
0.1250000000000001
 40
0.1562500000000002
 40
0.1562500000000002
 40
0.1875000000000004
 40
0.1875000000000004
 40
0.2500000000000003
 40
0.2500000000000003
 40
0.2812500000000003
 40
0.2812500000000003
 40
0.3125000000000004
 40
0.3125000000000004
 40
0.3750000000000004
 40
0.3750000000000004
 40
0.4375000000000004
 40
0.4375000000000004
 40
0.5000000000000006
 40
0.5000000000000006
 40
0.5625000000000006
 40
0.5625000000000006
 40
0.5937500000000007
 40
0.5937500000000007
 40
0.6250000000000007
 40
0.6250000000000007
 40
0.6875000000000004
 40
0.6875000000000004
 40
0.7187500000000003
 40
0.7187500000000003
 40
0.7500000000000002
 40
0.7500000000000002
 40
0.8125000000000002
 40
0.8125000000000002
 40
0.8750000000000001
 40
0.8750000000000001
 40
0.9375000000000001
 40
0.9375000000000001
 40
1.0
 40
1.0
 40
1.0
 40
1.0
 10
-63.50000000000001
 20
9.120410047768061
 30
0.0
 10
-62.80842025140402
 20
9.10395045390782
 30
0.0
 10
-62.11050014100469
 20
9.0610003468096
 30
0.0
 10
-60.72006698937097
 20
8.922959143090754
 30
0.0
 10
-60.02912516604739
 20
8.828073267854698
 30
0.0
 10
-58.98522999886271
 20
8.64751025651729
 30
0.0
 10
-58.63703075465174
 20
8.580992362265377
 30
0.0
 10
-57.94243040966695
 20
8.435753097036102
 30
0.0
 10
-57.59705184956896
 20
8.357120914085009
 30
0.0
 10
-56.55648632739462
 20
8.102951435993372
 30
0.0
 10
-55.85819538152502
 20
7.909103555803775
 30
0.0
 10
-54.81747772269063
 20
7.585496880024031
 30
0.0
 10
-54.47213587988029
 20
7.472236680516254
 30
0.0
 10
-53.7776172335817
 20
7.234656092943421
 30
0.0
 10
-53.42943352330727
 20
7.110433295580247
 30
0.0
 10
-52.38550850725552
 20
6.722648658235702
 30
0.0
 10
-51.69449930334815
 20
6.444531785947813
 30
0.0
 10
-50.30418996215138
 20
5.851558060176401
 30
0.0
 10
-49.60622963989854
 20
5.536793228036778
 30
0.0
 10
-48.22278892665175
 20
4.879033610398995
 30
0.0
 10
-47.52519001444585
 20
4.534129732243972
 30
0.0
 10
-46.13463759955069
 20
3.820803628646008
 30
0.0
 10
-45.4437558503163
 20
3.452809152379515
 30
0.0
 10
-44.3998939540703
 20
2.88610353777149
 30
0.0
 10
-44.05168031916799
 20
2.694924262173558
 30
0.0
 10
-43.35700054236208
 20
2.309262983928594
 30
0.0
 10
-43.01157684399664
 20
2.114979226265959
 30
0.0
 10
-41.97116684423541
 20
1.527194459724843
 30
0.0
 10
-41.27287820548359
 20
1.128887479385234
 30
0.0
 10
-40.23201179739855
 20
0.5295003469597432
 30
0.0
 10
-39.88669825049666
 20
0.3294930311658923
 30
0.0
 10
-39.19226356885866
 20
-0.0714405941619773
 30
0.0
 10
-38.8440965355957
 20
-0.2721834968966341
 30
0.0
 10
-37.80014509307468
 20
-0.8732790692044112
 30
0.0
 10
-37.10906120282433
 20
-1.271703090282838
 30
0.0
 10
-35.71888021788865
 20
-2.06042749027111
 30
0.0
 10
-35.02088198724496
 20
-2.450486505878118
 30
0.0
 10
-33.63716452902934
 20
-3.211941358751563
 30
0.0
 10
-32.93987958104081
 20
-3.585454911232144
 30
0.0
 10
-31.54921245136159
 20
-4.30886146756826
 30
0.0
 10
-30.85838346906624
 20
-4.658368154684577
 30
0.0
 10
-30.1625
 20
-4.994236410724476
 30
0.0
1001
PE_URL
1000

  0
SPLINE
  5
211
330
1F
100
AcDbEntity
  8
0
  6
Continuous
 62
     1
370
    15
100
AcDbSpline
210
0.0
220
0.0
230
1.0
 70
     8
 71
     3
 72
    11
 73
     7
 74
     0
 42
0.000000001
 43
0.00000001
 40
0.0
 40
0.0
 40
0.0
 40
0.0
 40
0.1462314484820738
 40
0.431364245341996
 40
0.7156811539316679
 40
1.0
 40
1.0
 40
1.0
 40
1.0
 10
-40.79774500104671
 20
0.8550911277119404
 30
0.0
 10
-40.27934321782634
 20
0.6481470719557656
 30
0.0
 10
-38.75012363938385
 20
0.0376883275071194
 30
0.0
 10
-36.21297230050683
 20
-0.9928779237712888
 30
0.0
 10
-33.18629580364239
 20
-2.188767134251293
 30
0.0
 10
-31.17043422405574
 20
-2.911694155700268
 30
0.0
 10
-30.16249999999999
 20
-3.273158898017794
 30
0.0
1001
PE_URL
1000

  0
SPLINE
  5
212
330
1F
100
AcDbEntity
  8
외형선
  6
Continuous
370
    15
100
AcDbSpline
210
0.0
220
0.0
230
1.0
 70
    24
 71
     3
 72
    10
 73
     6
 74
     0
 42
0.000000001
 43
0.00000001
 40
0.0
 40
0.0
 40
0.0
 40
0.0
 40
0.5
 40
0.5
 40
1.0
 40
1.0
 40
1.0
 40
1.0
 10
-30.1625
 20
-4.994236410724472
 30
0.0
 10
-30.1625
 20
-4.860518314530193
 30
0.0
 10
-30.1625
 20
-4.63241551015458
 30
0.0
 10
-30.1625
 20
-4.032894792280313
 30
0.0
 10
-30.1625
 20
-3.663624613600199
 30
0.0
 10
-30.1625
 20
-3.273158898017794
 30
0.0
  0
SPLINE
  5
213
330
1F
100
AcDbEntity
  8
0
  6
Continuous
 62
     1
370
    15
100
AcDbSpline
210
0.0
220
0.0
230
1.0
 70
     8
 71
     3
 72
    46
 73
    42
 74
     0
 42
0.000000001
 43
0.00000001
 40
0.0
 40
0.0
 40
0.0
 40
0.0
 40
0.0625000000000005
 40
0.0625000000000005
 40
0.125000000000001
 40
0.125000000000001
 40
0.1562500000000012
 40
0.1562500000000012
 40
0.1875000000000014
 40
0.1875000000000014
 40
0.2500000000000017
 40
0.2500000000000017
 40
0.2812500000000017
 40
0.2812500000000017
 40
0.3125000000000018
 40
0.3125000000000018
 40
0.3750000000000018
 40
0.3750000000000018
 40
0.4375000000000018
 40
0.4375000000000018
 40
0.5000000000000019
 40
0.5000000000000019
 40
0.5625000000000019
 40
0.5625000000000019
 40
0.5937500000000019
 40
0.5937500000000019
 40
0.6250000000000018
 40
0.6250000000000018
 40
0.6875000000000016
 40
0.6875000000000016
 40
0.7187500000000013
 40
0.7187500000000013
 40
0.7500000000000011
 40
0.7500000000000011
 40
0.8125000000000009
 40
0.8125000000000009
 40
0.8750000000000006
 40
0.8750000000000006
 40
0.9375000000000003
 40
0.9375000000000003
 40
1.0
 40
1.0
 40
1.0
 40
1.0
 10
-63.5
 20
8.662050871957401
 30
0.0
 10
-62.80842025140397
 20
8.535735527787104
 30
0.0
 10
-62.11050014100459
 20
8.38392406013623
 30
0.0
 10
-60.72006698937074
 20
8.032990995014504
 30
0.0
 10
-60.02912516604711
 20
7.834143234864971
 30
0.0
 10
-58.98522999886236
 20
7.502028475913125
 30
0.0
 10
-58.63703075465136
 20
7.385776379306591
 30
0.0
 10
-57.94243040966652
 20
7.14295541992119
 30
0.0
 10
-57.5970518495685
 20
7.016521058056693
 30
0.0
 10
-56.55648632739408
 20
6.621750170726497
 30
0.0
 10
-55.85819538152441
 20
6.337993563894276
 30
0.0
 10
-54.81747772268994
 20
5.887012822461529
 30
0.0
 10
-54.47213587987957
 20
5.732553684643463
 30
0.0
 10
-53.77761723358094
 20
5.414998979258133
 30
0.0
 10
-53.42943352330647
 20
5.252042947668848
 30
0.0
 10
-52.38550850725464
 20
4.75220660639129
 30
0.0
 10
-51.69449930334722
 20
4.405052585502045
 30
0.0
 10
-50.30418996215032
 20
3.685916077593252
 30
0.0
 10
-49.60622963989742
 20
3.314102344103127
 30
0.0
 10
-48.22278892665054
 20
2.55572706566506
 30
0.0
 10
-47.52519001444458
 20
2.16696200223388
 30
0.0
 10
-46.13463759954933
 20
1.379978338902557
 30
0.0
 10
-45.44375585031487
 20
0.9821854836616843
 30
0.0
 10
-44.39989395406878
 20
0.3815236028302991
 30
0.0
 10
-44.05168031916644
 20
0.1808314101654886
 30
0.0
 10
-43.35700054236047
 20
-0.2201884880734326
 30
0.0
 10
-43.01157684399502
 20
-0.4203154320519253
 30
0.0
 10
-41.9711668442337
 20
-1.020147363264211
 30
0.0
 10
-41.27287820548181
 20
-1.419127878758854
 30
0.0
 10
-40.23201179739669
 20
-2.008470524023807
 30
0.0
 10
-39.88669825049479
 20
-2.203300480004891
 30
0.0
 10
-39.19226356885672
 20
-2.590205404590552
 30
0.0
 10
-38.84409653559374
 20
-2.782097920451232
 30
0.0
 10
-37.80014509307264
 20
-3.351208635341138
 30
0.0
 10
-37.10906120282222
 20
-3.721124968806667
 30
0.0
 10
-35.71888021788644
 20
-4.438734800324987
 30
0.0
 10
-35.02088198724269
 20
-4.786166189694757
 30
0.0
 10
-33.637164529027
 20
-5.449393924757675
 30
0.0
 10
-32.93987958103838
 20
-5.76703889686101
 30
0.0
 10
-31.54921245135906
 20
-6.366494958724548
 30
0.0
 10
-30.85838346906365
 20
-6.648029682955343
 30
0.0
 10
-30.16249999999735
 20
-6.91020306064317
 30
0.0
1001
PE_URL
1000

  0
SPLINE
  5
214
330
1F
100
AcDbEntity
  8
0
  6
Continuous
 62
     1
370
    15
100
AcDbSpline
210
0.0
220
0.0
230
1.0
 70
     8
 71
     3
 72
    15
 73
    11
 74
     0
 42
0.000000001
 43
0.00000001
 40
0.0
 40
0.0
 40
0.0
 40
0.0
 40
0.1278896746668113
 40
0.2557829781030875
 40
0.3836796162911187
 40
0.5115792944231994
 40
0.6394817169707712
 40
0.7673865877539245
 40
0.8952936100112364
 40
0.9999999999999999
 40
0.9999999999999999
 40
0.9999999999999999
 40
0.9999999999999999
 10
-63.50000000000001
 20
7.201837450686092
 30
0.0
 10
-62.48937049710442
 20
6.99171665141985
 30
0.0
 10
-60.46808281549175
 20
6.571469090874075
 30
0.0
 10
-57.4360941371255
 20
5.629383877873359
 30
0.0
 10
-54.40401566589827
 20
4.499776738059332
 30
0.0
 10
-51.37185415455522
 20
3.200241399435132
 30
0.0
 10
-48.33961804068885
 20
1.784061920297873
 30
0.0
 10
-45.30731508443218
 20
0.3044675373078825
 30
0.0
 10
-42.45831228444421
 20
-1.104429074509838
 30
0.0
 10
-40.62007534944554
 20
-1.971017009431272
 30
0.0
 10
-39.79262885120104
 20
-2.361094664014029
 30
0.0
1001
PE_URL
1000

  0
LINE
  5
215
330
1F
100
AcDbEntity
  8
0
  6
Continuous
 62
     1
370
    15
100
AcDbLine
 10
-63.50000000000001
 20
8.662050871957408
 30
0.0
 11
-63.50000000000001
 21
7.201837450686092
 31
0.0
1001
PE_URL
1000

  0
LINE
  5
216
330
1F
100
AcDbEntity
  8
0
  6
Continuous
 62
     1
370
    15
100
AcDbLine
 10
-63.50000000000001
 20
9.120410047768061
 30
0.0
 11
-63.50000000000001
 21
8.662050871957408
 31
0.0
1001
PE_URL
1000

  0
SPLINE
  5
217
330
1F
100
AcDbEntity
  8
0
  6
Continuous
 62
     1
370
    15
100
AcDbSpline
210
0.0
220
0.0
230
1.0
 70
     8
 71
     3
 72
    12
 73
     8
 74
     0
 42
0.000000001
 43
0.00000001
 40
0.0
 40
0.0
 40
0.0
 40
0.0
 40
0.5
 40
0.5
 40
0.75
 40
0.75
 40
1.0
 40
1.0
 40
1.0
 40
1.0
 10
-63.50000000000001
 20
2.439427016726817
 30
0.0
 10
-62.64027629554489
 20
1.763542288429864
 30
0.0
 10
-61.79325317450973
 20
1.063160394825299
 30
0.0
 10
-60.54191772633163
 20
-0.0244443501961022
 30
0.0
 10
-60.12804739566052
 20
-0.3932315136844373
 30
0.0
 10
-59.30734059634782
 20
-1.144372908817896
 30
0.0
 10
-58.89886803412362
 20
-1.528340230361259
 30
0.0
 10
-58.49999999999998
 20
-1.914738733312269
 30
0.0
1001
PE_URL
1000

  0
LINE
  5
218
330
1F
100
AcDbEntity
  8
0
  6
Continuous
 62
     1
370
    15
100
AcDbLine
 10
-58.49999999999999
 20
-2.937719435296621
 30
0.0
 11
-63.50000000000001
 21
-0.0000000000000355
 31
0.0
1001
PE_URL
1000

  0
LINE
  5
219
330
1F
100
AcDbEntity
  8
0
  6
Continuous
 62
     1
370
    15
100
AcDbLine
 10
-63.50000000000001
 20
-0.0000000000000355
 30
0.0
 11
-63.50000000000001
 21
2.439427016726817
 31
0.0
1001
PE_URL
1000

  0
SPLINE
  5
21A
330
1F
100
AcDbEntity
  8
외형선
  6
Continuous
370
    15
100
AcDbSpline
210
0.0
220
0.0
230
1.0
 70
    24
 71
     3
 72
     9
 73
     5
 74
     0
 42
0.000000001
 43
0.00000001
 40
0.0
 40
0.0
 40
0.0
 40
0.0
 40
0.8563465310961974
 40
0.9999999999999999
 40
0.9999999999999999
 40
0.9999999999999999
 40
0.9999999999999999
 10
-30.16249999999999
 20
-7.132036223566224
 30
0.0
 10
-30.1625
 20
-7.137347723021882
 30
0.0
 10
-30.1625
 20
-7.143550234812125
 30
0.0
 10
-30.1625
 20
-7.017001841175961
 30
0.0
 10
-30.1625
 20
-6.998822725445926
 30
0.0
  0
SPLINE
  5
21B
330
1F
100
AcDbEntity
  8
0
  6
Continuous
 62
     1
370
    15
100
AcDbSpline
210
0.0
220
0.0
230
1.0
 70
     8
 71
     3
 72
    14
 73
    10
 74
     0
 42
0.000000001
 43
0.00000001
 40
0.0
 40
0.0
 40
0.0
 40
0.0
 40
0.1464882353314585
 40
0.2929629473746501
 40
0.4394202373369101
 40
0.5858658415094197
 40
0.7323288226588113
 40
0.8761935109579342
 40
1.0
 40
1.0
 40
1.0
 40
1.0
 10
-58.49999999999999
 20
-2.270781324377602
 30
0.0
 10
-57.44196447288259
 20
-2.726374519818606
 30
0.0
 10
-55.32599109283573
 20
-3.637518851909338
 30
0.0
 10
-52.15225197859678
 20
-4.833851805002503
 30
0.0
 10
-48.97886882071384
 20
-5.842018581356196
 30
0.0
 10
-45.80563227717471
 20
-6.615893026030026
 30
0.0
 10
-42.65102671165356
 20
-7.113828399435391
 30
0.0
 10
-39.65994685311117
 20
-7.345557913076043
 30
0.0
 10
-37.72667091644578
 20
-7.270973562743897
 30
0.0
 10
-36.8324689016993
 20
-7.236475912889205
 30
0.0
1001
PE_URL
1000

  0
SPLINE
  5
21C
330
1F
100
AcDbEntity
  8
0
  6
Continuous
 62
     1
370
    15
100
AcDbSpline
210
0.0
220
0.0
230
1.0
 70
    24
 71
     3
 72
     8
 73
     4
 74
     0
 42
0.000000001
 43
0.00000001
 40
0.0
 40
0.0
 40
0.0
 40
0.0
 40
1.0
 40
1.0
 40
1.0
 40
1.0
 10
-58.5
 20
-1.91473873331228
 30
0.0
 10
-58.5
 20
-2.034248893946998
 30
0.0
 10
-58.49999999999999
 20
-2.15296361181607
 30
0.0
 10
-58.49999999999999
 20
-2.270781324377605
 30
0.0
1001
PE_URL
1000

  0
SPLINE
  5
21D
330
1F
100
AcDbEntity
  8
0
  6
Continuous
 62
     1
370
    15
100
AcDbSpline
210
0.0
220
0.0
230
1.0
 70
    24
 71
     3
 72
    10
 73
     6
 74
     0
 42
0.000000001
 43
0.00000001
 40
0.0
 40
0.0
 40
0.0
 40
0.0
 40
0.5
 40
0.5
 40
1.0
 40
1.0
 40
1.0
 40
1.0
 10
-63.50000000000001
 20
7.201837450686092
 30
0.0
 10
-63.50000000000001
 20
6.649760460250327
 30
0.0
 10
-63.50000000000001
 20
5.9521900140337
 30
0.0
 10
-63.5
 20
4.330405860247268
 30
0.0
 10
-63.50000000000001
 20
3.407597003602703
 30
0.0
 10
-63.50000000000001
 20
2.439427016727109
 30
0.0
1001
PE_URL
1000

  0
SPLINE
  5
21E
330
1F
100
AcDbEntity
  8
0
  6
Continuous
 62
     1
370
    15
100
AcDbSpline
210
0.0
220
0.0
230
1.0
 70
    24
 71
     3
 72
    10
 73
     6
 74
     0
 42
0.000000001
 43
0.00000001
 40
0.0
 40
0.0
 40
0.0
 40
0.0
 40
0.4999999999999998
 40
0.4999999999999998
 40
1.0
 40
1.0
 40
1.0
 40
1.0
 10
-58.49999999999999
 20
-2.270781324377605
 30
0.0
 10
-58.49999999999999
 20
-2.737449348010838
 30
0.0
 10
-58.49999999999999
 20
-3.182402136679521
 30
0.0
 10
-58.49999999999998
 20
-3.999794658102584
 30
0.0
 10
-58.50000000000001
 20
-4.372055748702529
 30
0.0
 10
-58.49999999999999
 20
-4.695434532826052
 30
0.0
1001
PE_URL
1000

  0
SPLINE
  5
21F
330
1F
100
AcDbEntity
  8
0
  6
Continuous
 62
     1
370
    15
100
AcDbSpline
210
0.0
220
0.0
230
1.0
 70
     8
 71
     3
 72
     9
 73
     5
 74
     0
 42
0.000000001
 43
0.00000001
 40
0.0
 40
0.0
 40
0.0
 40
0.0
 40
0.8932040229722834
 40
0.9999999999999999
 40
0.9999999999999999
 40
0.9999999999999999
 40
0.9999999999999999
 10
-63.5
 20
-6.389687500000029
 30
0.0
 10
-62.4893703728085
 20
-6.384876851483824
 30
0.0
 10
-61.35790477122235
 20
-6.379491017572999
 30
0.0
 10
-60.2264340004928
 20
-6.245355976381859
 30
0.0
 10
-60.10559747405444
 20
-6.231030893604196
 30
0.0
1001
PE_URL
1000

  0
SPLINE
  5
220
330
1F
100
AcDbEntity
  8
0
  6
Continuous
 62
     1
370
    15
100
AcDbSpline
210
0.0
220
0.0
230
1.0
 70
     8
 71
     3
 72
    10
 73
     6
 74
     0
 42
0.000000001
 43
0.00000001
 40
0.0
 40
0.0
 40
0.0
 40
0.0
 40
0.4999999999999993
 40
0.4999999999999993
 40
1.0
 40
1.0
 40
1.0
 40
1.0
 10
-63.5
 20
-6.389687500000036
 30
0.0
 10
-62.65650482270076
 20
-6.160980114040392
 30
0.0
 10
-61.81753602408044
 20
-5.906848124666787
 30
0.0
 10
-60.14926888304297
 20
-5.344364425593511
 30
0.0
 10
-59.32091401428755
 20
-5.036828229908007
 30
0.0
 10
-58.49999999999999
 20
-4.695434532826049
 30
0.0
1001
PE_URL
1000

  0
SPLINE
  5
221
330
1F
100
AcDbEntity
  8
0
  6
Continuous
 62
     1
370
    15
100
AcDbSpline
210
0.0
220
0.0
230
1.0
 70
     8
 71
     3
 72
    12
 73
     8
 74
     0
 42
0.000000001
 43
0.00000001
 40
0.0
 40
0.0
 40
0.0
 40
0.0
 40
0.1101671079919477
 40
0.3326097277878526
 40
0.5550646317099818
 40
0.7775289985438115
 40
1.0
 40
1.0
 40
1.0
 40
1.0
 10
-44.17608038930076
 20
6.828946165594207
 30
0.0
 10
-43.66147481289969
 20
6.917086665078372
 30
0.0
 10
-42.10780944213061
 20
7.183195016970998
 30
0.0
 10
-39.5150168978278
 20
7.331157414858158
 30
0.0
 10
-36.39764035311214
 20
7.273932294401664
 30
0.0
 10
-33.28011499704763
 20
6.937979041051854
 30
0.0
 10
-31.20171532965256
 20
6.49374484467392
 30
0.0
 10
-30.1625
 20
6.271624434401513
 30
0.0
1001
PE_URL
1000

  0
SPLINE
  5
222
330
1F
100
AcDbEntity
  8
외형선
  6
Continuous
370
    15
100
AcDbSpline
210
0.0
220
0.0
230
1.0
 70
    24
 71
     3
 72
    14
 73
    10
 74
     0
 42
0.000000001
 43
0.00000001
 40
0.0
 40
0.0
 40
0.0
 40
0.0
 40
0.2499999999999999
 40
0.2499999999999999
 40
0.4999999999999999
 40
0.4999999999999999
 40
0.7499999999999999
 40
0.7499999999999999
 40
1.0
 40
1.0
 40
1.0
 40
1.0
 10
-30.1625
 20
-3.273158898017794
 30
0.0
 10
-30.1625
 20
-2.506433491106062
 30
0.0
 10
-30.1625
 20
-1.683600657639722
 30
0.0
 10
-30.1625
 20
0.0080176263903873
 30
0.0
 10
-30.1625
 20
0.8760700732030067
 30
0.0
 10
-30.1625
 20
2.572453258072919
 30
0.0
 10
-30.1625
 20
3.399880092246548
 30
0.0
 10
-30.1625
 20
4.936701665724144
 30
0.0
 10
-30.1625
 20
5.645580821609371
 30
0.0
 10
-30.1625
 20
6.27162443440151
 30
0.0
  0
LINE
  5
223
330
1F
100
AcDbEntity
  8
0
  6
Continuous
 62
     1
370
    15
100
AcDbLine
 10
-63.50000000000001
 20
-0.0000000000000355
 30
0.0
 11
-63.5
 21
-6.389687500000033
 31
0.0
1001
PE_URL
1000

  0
SPLINE
  5
224
330
1F
100
AcDbEntity
  8
외형선
  6
Continuous
370
    15
100
AcDbSpline
210
0.0
220
0.0
230
1.0
 70
    24
 71
     3
 72
    11
 73
     7
 74
     0
 42
0.000000001
 43
0.00000001
 40
0.0
 40
0.0
 40
0.0
 40
0.0
 40
0.269257785194514
 40
0.5385155703890282
 40
0.9325297096772188
 40
1.0
 40
1.0
 40
1.0
 40
1.0
 10
-30.1625
 20
6.271624434401513
 30
0.0
 10
-30.1625
 20
6.416545057945562
 30
0.0
 10
-30.1625
 20
6.706386305033668
 30
0.0
 10
-30.1625
 20
7.014495506815074
 30
0.0
 10
-30.16249999999999
 20
7.182935492711852
 30
0.0
 10
-30.1625
 20
7.138530040411521
 30
0.0
 10
-30.1625
 20
7.132037841398127
 30
0.0
  0
SPLINE
  5
225
330
1F
100
AcDbEntity
  8
0
  6
Continuous
 62
     1
370
    15
100
AcDbSpline
210
0.0
220
0.0
230
1.0
 70
     8
 71
     3
 72
    12
 73
     8
 74
     0
 42
0.000000001
 43
0.00000001
 40
0.0
 40
0.0
 40
0.0
 40
0.0
 40
0.0631390984022976
 40
0.2973544469309042
 40
0.531569713825541
 40
0.7657848984079244
 40
1.0
 40
1.0
 40
1.0
 40
1.0
 10
-50.97434524785425
 20
-6.117496883330507
 30
0.0
 10
-51.23796480850226
 20
-6.236049704704222
 30
0.0
 10
-52.47948473261006
 20
-6.79437583738142
 30
0.0
 10
-54.69890447789137
 20
-7.579694082829725
 30
0.0
 10
-57.63260412685168
 20
-8.41045168517065
 30
0.0
 10
-60.56630253837812
 20
-8.959214760501283
 30
0.0
 10
-62.5221009616269
 20
-9.066678291692163
 30
0.0
 10
-63.5
 20
-9.120410047768125
 30
0.0
1001
PE_URL
1000

  0
SPLINE
  5
226
330
1F
100
AcDbEntity
  8
0
  6
Continuous
 62
     1
370
    15
100
AcDbSpline
210
0.0
220
0.0
230
1.0
 70
    24
 71
     3
 72
    10
 73
     6
 74
     0
 42
0.000000001
 43
0.00000001
 40
0.0
 40
0.0
 40
0.0
 40
0.0
 40
0.5000000000000004
 40
0.5000000000000004
 40
1.0
 40
1.0
 40
1.0
 40
1.0
 10
-63.5
 20
-6.389687500000029
 30
0.0
 10
-63.50000000000001
 20
-6.777014444169293
 30
0.0
 10
-63.49999999999999
 20
-7.227124223627683
 30
0.0
 10
-63.5
 20
-8.171453328645846
 30
0.0
 10
-63.5
 20
-8.66326095617535
 30
0.0
 10
-63.50000000000001
 20
-9.120410047768125
 30
0.0
1001
PE_URL
1000

  0
LINE
  5
227
330
1F
100
AcDbEntity
  8
외형선
  6
Continuous
370
    15
100
AcDbLine
 10
-7.696200000000132
 20
9.524999999999993
 30
0.0
 11
-27.11252658361472
 21
9.524999999999991
 31
0.0
  0
ENDSEC
  0
SECTION
  2
OBJECTS
  0
DICTIONARY
  5
C
330
0
100
AcDbDictionary
281
     1
  3
ACAD_GROUP
350
D
  3
ACAD_IMAGE_VARS
350
24C
  3
ACAD_LAYOUT
350
1A
  3
ACAD_MLINESTYLE
350
17
  3
ACAD_PLOTSETTINGS
350
19
  3
ACAD_PLOTSTYLENAME
350
E
  3
ACAD_SCALELIST
350
47
  3
APPDATA
350
158
  3
DWGPROPS
350
24D
  0
DICTIONARY
  5
195
330
2
100
AcDbDictionary
280
     1
281
     1
  3
ACAD_LAYERSTATES
360
196
  0
DICTIONARY
  5
D
102
{ACAD_REACTORS
330
C
102
}
330
C
100
AcDbDictionary
281
     1
  0
RASTERVARIABLES
  5
24C
102
{ACAD_REACTORS
330
C
102
}
330
C
100
AcDbRasterVariables
 90
        0
 70
     1
 71
     1
 72
     1
  0
DICTIONARY
  5
1A
102
{ACAD_REACTORS
330
C
102
}
330
C
100
AcDbDictionary
281
     1
  3
Layout1
350
1E
  3
Layout2
350
26
  3
Model
350
22
  0
DICTIONARY
  5
17
102
{ACAD_REACTORS
330
C
102
}
330
C
100
AcDbDictionary
281
     1
  3
Standard
350
18
  0
DICTIONARY
  5
19
102
{ACAD_REACTORS
330
C
102
}
330
C
100
AcDbDictionary
281
     1
  0
ACDBDICTIONARYWDFLT
  5
E
102
{ACAD_REACTORS
330
C
102
}
330
C
100
AcDbDictionary
281
     1
  3
Normal
350
F
100
AcDbDictionaryWithDefault
340
F
  0
DICTIONARY
  5
47
102
{ACAD_REACTORS
330
C
102
}
330
C
100
AcDbDictionary
281
     1
  3
A0
350
48
  3
A1
350
49
  3
A2
350
4A
  3
A3
350
4B
  3
A4
350
4C
  3
A5
350
4D
  3
A6
350
4E
  3
A7
350
4F
  3
A8
350
50
  3
A9
350
51
  3
B0
350
52
  3
B1
350
53
  3
B2
350
54
  3
B3
350
55
  3
B4
350
56
  3
B5
350
57
  3
B6
350
58
  3
B7
350
59
  3
B8
350
5A
  3
B9
350
5B
  3
C0
350
5C
  3
C1
350
5D
  3
C2
350
5E
  3
C3
350
5F
  3
C4
350
60
  3
C5
350
61
  3
C6
350
62
  3
C7
350
63
  3
C8
350
64
  3
C9
350
65
  3
D0
350
66
  3
D1
350
67
  3
D2
350
68
  0
DICTIONARY
  5
158
102
{ACAD_REACTORS
330
C
102
}
330
C
100
AcDbDictionary
281
     1
  0
XRECORD
  5
24D
102
{ACAD_REACTORS
330
C
102
}
330
C
100
AcDbXrecord
280
     1
  1
DWGPROPS COOKIE
  2

  3

  4

  6

  7

  8
12016016
  9

300
=
301
=
302
=
303
=
304
=
305
=
306
=
307
=
308
=
309
=
 40
0.0
 41
2458313.025335857
 42
2458330.402614063
  1

 90
        0
  0
DICTIONARY
  5
196
102
{ACAD_REACTORS
330
195
102
}
330
195
100
AcDbDictionary
281
     1
  0
LAYOUT
  5
1E
102
{ACAD_REACTORS
330
1A
102
}
330
1A
100
AcDbPlotSettings
  1

  2
none_device
  4

  6

 40
0.0
 41
0.0
 42
0.0
 43
0.0
 44
0.0
 45
0.0
 46
0.0
 47
0.0
 48
0.0
 49
0.0
140
0.0
141
0.0
142
1.0
143
1.0
 70
   688
 72
     1
 73
     0
 74
     5
  7

 75
    16
147
1.0
148
0.0
149
0.0
100
AcDbLayout
  1
Layout1
 70
     1
 71
     1
 10
0.0
 20
0.0
 11
420.0
 21
297.0
 12
0.0
 22
0.0
 32
0.0
 14
1.000000000000000E+20
 24
1.000000000000000E+20
 34
1.000000000000000E+20
 15
-1.000000000000000E+20
 25
-1.000000000000000E+20
 35
-1.000000000000000E+20
146
0.0
 13
0.0
 23
0.0
 33
0.0
 16
1.0
 26
0.0
 36
0.0
 17
0.0
 27
1.0
 37
0.0
 76
     0
330
1B
  0
LAYOUT
  5
26
102
{ACAD_REACTORS
330
1A
102
}
330
1A
100
AcDbPlotSettings
  1

  2
none_device
  4

  6

 40
0.0
 41
0.0
 42
0.0
 43
0.0
 44
0.0
 45
0.0
 46
0.0
 47
0.0
 48
0.0
 49
0.0
140
0.0
141
0.0
142
1.0
143
1.0
 70
   688
 72
     1
 73
     0
 74
     5
  7

 75
    16
147
1.0
148
0.0
149
0.0
100
AcDbLayout
  1
Layout2
 70
     1
 71
     2
 10
0.0
 20
0.0
 11
0.0
 21
0.0
 12
0.0
 22
0.0
 32
0.0
 14
0.0
 24
0.0
 34
0.0
 15
0.0
 25
0.0
 35
0.0
146
0.0
 13
0.0
 23
0.0
 33
0.0
 16
1.0
 26
0.0
 36
0.0
 17
0.0
 27
1.0
 37
0.0
 76
     0
330
23
  0
LAYOUT
  5
22
102
{ACAD_REACTORS
330
1A
102
}
330
1A
100
AcDbPlotSettings
  1

  2
none_device
  4
ANSI_A_(11.00_x_8.50_Inches)
  6

 40
6.35
 41
19.05
 42
6.35000508
 43
19.05000254
 44
279.4
 45
215.9
 46
56.71148299683747
 47
33.91089645376513
 48
0.0
 49
0.0
140
0.0
141
0.0
142
0.0228000086557032
143
1.0
 70
  1696
 72
     0
 73
     0
 74
     0
  7

 75
     0
147
0.0235690232323232
148
0.0
149
0.0
100
AcDbLayout
  1
Model
 70
     1
 71
     0
 10
0.0
 20
0.0
 11
420.0
 21
297.0
 12
0.0
 22
0.0
 32
0.0
 14
-83.37500000000011
 24
-49.97180738881175
 34
0.0
 15
114.7035838366447
 25
53.47441004776829
 35
0.0
146
0.0
 13
0.0
 23
0.0
 33
0.0
 16
1.0
 26
0.0
 36
0.0
 17
0.0
 27
1.0
 37
0.0
 76
     0
330
1F
331
29
  0
MLINESTYLE
  5
18
102
{ACAD_REACTORS
330
17
102
}
330
17
100
AcDbMlineStyle
  2
Standard
 70
     0
  3

 62
   256
 51
90.0
 52
90.0
 71
     2
 49
0.5
 62
   256
  6
BYLAYER
 49
-0.5
 62
   256
  6
BYLAYER
  0
ACDBPLACEHOLDER
  5
F
102
{ACAD_REACTORS
330
E
102
}
330
E
  0
SCALE
  5
48
102
{ACAD_REACTORS
330
47
102
}
330
47
100
AcDbScale
 70
     0
300
1:1
140
1.0
141
1.0
290
     1
  0
SCALE
  5
49
102
{ACAD_REACTORS
330
47
102
}
330
47
100
AcDbScale
 70
     0
300
1:2
140
1.0
141
2.0
290
     0
  0
SCALE
  5
4A
102
{ACAD_REACTORS
330
47
102
}
330
47
100
AcDbScale
 70
     0
300
1:4
140
1.0
141
4.0
290
     0
  0
SCALE
  5
4B
102
{ACAD_REACTORS
330
47
102
}
330
47
100
AcDbScale
 70
     0
300
1:5
140
1.0
141
5.0
290
     0
  0
SCALE
  5
4C
102
{ACAD_REACTORS
330
47
102
}
330
47
100
AcDbScale
 70
     0
300
1:8
140
1.0
141
8.0
290
     0
  0
SCALE
  5
4D
102
{ACAD_REACTORS
330
47
102
}
330
47
100
AcDbScale
 70
     0
300
1:10
140
1.0
141
10.0
290
     0
  0
SCALE
  5
4E
102
{ACAD_REACTORS
330
47
102
}
330
47
100
AcDbScale
 70
     0
300
1:16
140
1.0
141
16.0
290
     0
  0
SCALE
  5
4F
102
{ACAD_REACTORS
330
47
102
}
330
47
100
AcDbScale
 70
     0
300
1:20
140
1.0
141
20.0
290
     0
  0
SCALE
  5
50
102
{ACAD_REACTORS
330
47
102
}
330
47
100
AcDbScale
 70
     0
300
1:30
140
1.0
141
30.0
290
     0
  0
SCALE
  5
51
102
{ACAD_REACTORS
330
47
102
}
330
47
100
AcDbScale
 70
     0
300
1:40
140
1.0
141
40.0
290
     0
  0
SCALE
  5
52
102
{ACAD_REACTORS
330
47
102
}
330
47
100
AcDbScale
 70
     0
300
1:50
140
1.0
141
50.0
290
     0
  0
SCALE
  5
53
102
{ACAD_REACTORS
330
47
102
}
330
47
100
AcDbScale
 70
     0
300
1:100
140
1.0
141
100.0
290
     0
  0
SCALE
  5
54
102
{ACAD_REACTORS
330
47
102
}
330
47
100
AcDbScale
 70
     0
300
2:1
140
2.0
141
1.0
290
     0
  0
SCALE
  5
55
102
{ACAD_REACTORS
330
47
102
}
330
47
100
AcDbScale
 70
     0
300
4:1
140
4.0
141
1.0
290
     0
  0
SCALE
  5
56
102
{ACAD_REACTORS
330
47
102
}
330
47
100
AcDbScale
 70
     0
300
8:1
140
8.0
141
1.0
290
     0
  0
SCALE
  5
57
102
{ACAD_REACTORS
330
47
102
}
330
47
100
AcDbScale
 70
     0
300
10:1
140
10.0
141
1.0
290
     0
  0
SCALE
  5
58
102
{ACAD_REACTORS
330
47
102
}
330
47
100
AcDbScale
 70
     0
300
100:1
140
100.0
141
1.0
290
     0
  0
SCALE
  5
59
102
{ACAD_REACTORS
330
47
102
}
330
47
100
AcDbScale
 70
     0
300
1/128" = 1'-0"
140
0.0078125
141
12.0
290
     0
  0
SCALE
  5
5A
102
{ACAD_REACTORS
330
47
102
}
330
47
100
AcDbScale
 70
     0
300
1/64" = 1'-0"
140
0.015625
141
12.0
290
     0
  0
SCALE
  5
5B
102
{ACAD_REACTORS
330
47
102
}
330
47
100
AcDbScale
 70
     0
300
1/32" = 1'-0"
140
0.03125
141
12.0
290
     0
  0
SCALE
  5
5C
102
{ACAD_REACTORS
330
47
102
}
330
47
100
AcDbScale
 70
     0
300
1/16" = 1'-0"
140
0.0625
141
12.0
290
     0
  0
SCALE
  5
5D
102
{ACAD_REACTORS
330
47
102
}
330
47
100
AcDbScale
 70
     0
300
3/32" = 1'-0"
140
0.09375
141
12.0
290
     0
  0
SCALE
  5
5E
102
{ACAD_REACTORS
330
47
102
}
330
47
100
AcDbScale
 70
     0
300
1/8" = 1'-0"
140
0.125
141
12.0
290
     0
  0
SCALE
  5
5F
102
{ACAD_REACTORS
330
47
102
}
330
47
100
AcDbScale
 70
     0
300
3/16" = 1'-0"
140
0.1875
141
12.0
290
     0
  0
SCALE
  5
60
102
{ACAD_REACTORS
330
47
102
}
330
47
100
AcDbScale
 70
     0
300
1/4" = 1'-0"
140
0.25
141
12.0
290
     0
  0
SCALE
  5
61
102
{ACAD_REACTORS
330
47
102
}
330
47
100
AcDbScale
 70
     0
300
3/8" = 1'-0"
140
0.375
141
12.0
290
     0
  0
SCALE
  5
62
102
{ACAD_REACTORS
330
47
102
}
330
47
100
AcDbScale
 70
     0
300
1/2" = 1'-0"
140
0.5
141
12.0
290
     0
  0
SCALE
  5
63
102
{ACAD_REACTORS
330
47
102
}
330
47
100
AcDbScale
 70
     0
300
3/4" = 1'-0"
140
0.75
141
12.0
290
     0
  0
SCALE
  5
64
102
{ACAD_REACTORS
330
47
102
}
330
47
100
AcDbScale
 70
     0
300
1" = 1'-0"
140
1.0
141
12.0
290
     0
  0
SCALE
  5
65
102
{ACAD_REACTORS
330
47
102
}
330
47
100
AcDbScale
 70
     0
300
1-1/2" = 1'-0"
140
1.5
141
12.0
290
     0
  0
SCALE
  5
66
102
{ACAD_REACTORS
330
47
102
}
330
47
100
AcDbScale
 70
     0
300
3" = 1'-0"
140
3.0
141
12.0
290
     0
  0
SCALE
  5
67
102
{ACAD_REACTORS
330
47
102
}
330
47
100
AcDbScale
 70
     0
300
6" = 1'-0"
140
6.0
141
12.0
290
     0
  0
SCALE
  5
68
102
{ACAD_REACTORS
330
47
102
}
330
47
100
AcDbScale
 70
     0
300
1'-0" = 1'-0"
140
12.0
141
12.0
290
     0
  0
ENDSEC
  0
EOF
