  0
SECTION
  2
HEADER
  9
$ACADVER
  1
AC1015
  9
$ACADMAINTVER
 70
     6
  9
$DWGCODEPAGE
  3
ANSI_949
  9
$INSBASE
 10
0.0
 20
0.0
 30
0.0
  9
$EXTMIN
 10
-83.37500000000011
 20
-49.97180738881175
 30
0.0
  9
$EXTMAX
 10
114.4656090742286
 20
47.37899999999993
 30
0.0
  9
$LIMMIN
 10
0.0
 20
0.0
  9
$LIMMAX
 10
420.0
 20
297.0
  9
$ORTHOMODE
 70
     1
  9
$REGENMODE
 70
     1
  9
$FILLMODE
 70
     1
  9
$QTEXTMODE
 70
     0
  9
$MIRRTEXT
 70
     1
  9
$LTSCALE
 40
1.0
  9
$ATTMODE
 70
     1
  9
$TEXTSIZE
 40
3.5
  9
$TRACEWID
 40
1.0
  9
$TEXTSTYLE
  7
Standard
  9
$CLAYER
  8
0
  9
$CELTYPE
  6
ByLayer
  9
$CECOLOR
 62
   256
  9
$CELTSCALE
 40
1.0
  9
$DISPSILH
 70
     0
  9
$DIMSCALE
 40
1.0
  9
$DIMASZ
 40
3.302
  9
$DIMEXO
 40
1.0
  9
$DIMDLI
 40
3.75
  9
$DIMRND
 40
0.0
  9
$DIMDLE
 40
0.0
  9
$DIMEXE
 40
1.0
  9
$DIMTP
 40
0.0
  9
$DIMTM
 40
0.0
  9
$DIMTXT
 40
3.5
  9
$DIMCEN
 40
2.5
  9
$DIMTSZ
 40
0.0
  9
$DIMTOL
 70
     0
  9
$DIMLIM
 70
     0
  9
$DIMTIH
 70
     1
  9
$DIMTOH
 70
     1
  9
$DIMSE1
 70
     0
  9
$DIMSE2
 70
     0
  9
$DIMTAD
 70
     1
  9
$DIMZIN
 70
     0
  9
$DIMBLK
  1

  9
$DIMASO
 70
     1
  9
$DIMSHO
 70
     1
  9
$DIMPOST
  1

  9
$DIMAPOST
  1

  9
$DIMALT
 70
     0
  9
$DIMALTD
 70
     3
  9
$DIMALTF
 40
0.0393700787401575
  9
$DIMLFAC
 40
1.0
  9
$DIMTOFL
 70
     1
  9
$DIMTVP
 40
0.0
  9
$DIMTIX
 70
     0
  9
$DIMSOXD
 70
     0
  9
$DIMSAH
 70
     0
  9
$DIMBLK1
  1

  9
$DIMBLK2
  1

  9
$DIMSTYLE
  2
ISO-25
  9
$DIMCLRD
 70
     0
  9
$DIMCLRE
 70
     0
  9
$DIMCLRT
 70
     0
  9
$DIMTFAC
 40
1.0
  9
$DIMGAP
 40
1.524
  9
$DIMJUST
 70
     0
  9
$DIMSD1
 70
     0
  9
$DIMSD2
 70
     0
  9
$DIMTOLJ
 70
     0
  9
$DIMTZIN
 70
     0
  9
$DIMALTZ
 70
     0
  9
$DIMALTTZ
 70
     0
  9
$DIMUPT
 70
     0
  9
$DIMDEC
 70
     2
  9
$DIMTDEC
 70
     2
  9
$DIMALTU
 70
     2
  9
$DIMALTTD
 70
     3
  9
$DIMTXSTY
  7
Standard
  9
$DIMAUNIT
 70
     0
  9
$DIMADEC
 70
     2
  9
$DIMALTRND
 40
0.0
  9
$DIMAZIN
 70
     0
  9
$DIMDSEP
 70
    44
  9
$DIMATFIT
 70
     3
  9
$DIMFRAC
 70
     0
  9
$DIMLDRBLK
  1

  9
$DIMLUNIT
 70
     2
  9
$DIMLWD
 70
    -2
  9
$DIMLWE
 70
    -2
  9
$DIMTMOVE
 70
     0
  9
$LUNITS
 70
     2
  9
$LUPREC
 70
     2
  9
$SKETCHINC
 40
1.0
  9
$FILLETRAD
 40
10.0
  9
$AUNITS
 70
     0
  9
$AUPREC
 70
     2
  9
$MENU
  1
.
  9
$ELEVATION
 40
0.0
  9
$PELEVATION
 40
0.0
  9
$THICKNESS
 40
0.0
  9
$LIMCHECK
 70
     0
  9
$CHAMFERA
 40
0.0
  9
$CHAMFERB
 40
0.0
  9
$CHAMFERC
 40
0.0
  9
$CHAMFERD
 40
0.0
  9
$SKPOLY
 70
     0
  9
$TDCREATE
 40
2458313.400547454
  9
$TDUCREATE
 40
2458313.025547454
  9
$TDUPDATE
 40
2458330.777565671
  9
$TDUUPDATE
 40
2458330.402565671
  9
$TDINDWG
 40
0.0010664005
  9
$TDUSRTIMER
 40
2458330.402525
  9
$USRTIMER
 70
     1
  9
$ANGBASE
 50
0.0
  9
$ANGDIR
 70
     0
  9
$PDMODE
 70
     0
  9
$PDSIZE
 40
-1.0
  9
$PLINEWID
 40
0.0
  9
$SPLFRAME
 70
     0
  9
$SPLINETYPE
 70
     6
  9
$SPLINESEGS
 70
     8
  9
$HANDSEED
  5
297
  9
$SURFTAB1
 70
     6
  9
$SURFTAB2
 70
     6
  9
$SURFTYPE
 70
     6
  9
$SURFU
 70
     6
  9
$SURFV
 70
     6
  9
$UCSBASE
  2

  9
$UCSNAME
  2

  9
$UCSORG
 10
0.0
 20
0.0
 30
0.0
  9
$UCSXDIR
 10
1.0
 20
0.0
 30
0.0
  9
$UCSYDIR
 10
0.0
 20
1.0
 30
0.0
  9
$UCSORTHOREF
  2

  9
$UCSORTHOVIEW
 70
     0
  9
$UCSORGTOP
 10
0.0
 20
0.0
 30
0.0
  9
$UCSORGBOTTOM
 10
0.0
 20
0.0
 30
0.0
  9
$UCSORGLEFT
 10
0.0
 20
0.0
 30
0.0
  9
$UCSORGRIGHT
 10
0.0
 20
0.0
 30
0.0
  9
$UCSORGFRONT
 10
0.0
 20
0.0
 30
0.0
  9
$UCSORGBACK
 10
0.0
 20
0.0
 30
0.0
  9
$PUCSBASE
  2

  9
$PUCSNAME
  2

  9
$PUCSORG
 10
0.0
 20
0.0
 30
0.0
  9
$PUCSXDIR
 10
1.0
 20
0.0
 30
0.0
  9
$PUCSYDIR
 10
0.0
 20
1.0
 30
0.0
  9
$PUCSORTHOREF
  2

  9
$PUCSORTHOVIEW
 70
     0
  9
$PUCSORGTOP
 10
0.0
 20
0.0
 30
0.0
  9
$PUCSORGBOTTOM
 10
0.0
 20
0.0
 30
0.0
  9
$PUCSORGLEFT
 10
0.0
 20
0.0
 30
0.0
  9
$PUCSORGRIGHT
 10
0.0
 20
0.0
 30
0.0
  9
$PUCSORGFRONT
 10
0.0
 20
0.0
 30
0.0
  9
$PUCSORGBACK
 10
0.0
 20
0.0
 30
0.0
  9
$USERI1
 70
     0
  9
$USERI2
 70
     0
  9
$USERI3
 70
     0
  9
$USERI4
 70
     0
  9
$USERI5
 70
     0
  9
$USERR1
 40
0.0
  9
$USERR2
 40
0.0
  9
$USERR3
 40
0.0
  9
$USERR4
 40
0.0
  9
$USERR5
 40
0.0
  9
$WORLDVIEW
 70
     1
  9
$SHADEDGE
 70
     3
  9
$SHADEDIF
 70
    70
  9
$TILEMODE
 70
     1
  9
$MAXACTVP
 70
    64
  9
$PINSBASE
 10
0.0
 20
0.0
 30
0.0
  9
$PLIMCHECK
 70
     0
  9
$PEXTMIN
 10
1.000000000000000E+20
 20
1.000000000000000E+20
 30
1.000000000000000E+20
  9
$PEXTMAX
 10
-1.000000000000000E+20
 20
-1.000000000000000E+20
 30
-1.000000000000000E+20
  9
$PLIMMIN
 10
0.0
 20
0.0
  9
$PLIMMAX
 10
0.0
 20
0.0
  9
$UNITMODE
 70
     0
  9
$VISRETAIN
 70
     1
  9
$PLINEGEN
 70
     0
  9
$PSLTSCALE
 70
     1
  9
$TREEDEPTH
 70
  3020
  9
$CMLSTYLE
  2
Standard
  9
$CMLJUST
 70
     0
  9
$CMLSCALE
 40
20.0
  9
$PROXYGRAPHICS
 70
     1
  9
$MEASUREMENT
 70
     1
  9
$CELWEIGHT
370
    -1
  9
$ENDCAPS
280
     0
  9
$JOINSTYLE
280
     0
  9
$LWDISPLAY
290
     1
  9
$INSUNITS
 70
     4
  9
$HYPERLINKBASE
  1

  9
$STYLESHEET
  1

  9
$XEDIT
290
     1
  9
$CEPSNTYPE
380
     0
  9
$PSTYLEMODE
290
     1
  9
$FINGERPRINTGUID
  2
{077CBD8C-60DB-4EE0-B5D3-EB1518C12463}
  9
$VERSIONGUID
  2
{FAEB1C32-E019-11D5-929B-00C0DF256EC4}
  9
$EXTNAMES
290
     1
  9
$PSVPSCALE
 40
0.0
  9
$OLESTARTUP
290
     0
  0
ENDSEC
  0
SECTION
  2
CLASSES
  0
CLASS
  1
ACDBDICTIONARYWDFLT
  2
AcDbDictionaryWithDefault
  3
ObjectDBX Classes
 90
        0
280
     0
281
     0
  0
CLASS
  1
VISUALSTYLE
  2
AcDbVisualStyle
  3
ObjectDBX Classes
 90
     4095
280
     0
281
     0
  0
CLASS
  1
MATERIAL
  2
AcDbMaterial
  3
ObjectDBX Classes
 90
     1153
280
     0
281
     0
  0
CLASS
  1
SCALE
  2
AcDbScale
  3
ObjectDBX Classes
 90
     1153
280
     0
281
     0
  0
CLASS
  1
SUN
  2
AcDbSun
  3
SCENEOE
 90
     1153
280
     0
281
     0
  0
CLASS
  1
ACDBPLACEHOLDER
  2
AcDbPlaceHolder
  3
ObjectDBX Classes
 90
        0
280
     0
281
     0
  0
CLASS
  1
LAYOUT
  2
AcDbLayout
  3
ObjectDBX Classes
 90
        0
280
     0
281
     0
  0
CLASS
  1
TABLESTYLE
  2
AcDbTableStyle
  3
ObjectDBX Classes
 90
     4095
280
     0
281
     0
  0
CLASS
  1
MLEADERSTYLE
  2
AcDbMLeaderStyle
  3
ACDB_MLEADERSTYLE_CLASS
 90
     4095
280
     0
281
     0
  0
CLASS
  1
DICTIONARYVAR
  2
AcDbDictionaryVar
  3
ObjectDBX Classes
 90
        0
280
     0
281
     0
  0
CLASS
  1
RASTERVARIABLES
  2
AcDbRasterVariables
  3
ISM
 90
        0
280
     0
281
     0
  0
ENDSEC
  0
SECTION
  2
TABLES
  0
TABLE
  2
VPORT
  5
8
330
0
100
AcDbSymbolTable
 70
     1
  0
VPORT
  5
29
330
8
100
AcDbSymbolTableRecord
100
AcDbViewportTableRecord
  2
*Active
 70
     0
 10
0.0
 20
0.0
 11
1.0
 21
1.0
 12
15.54530453711426
 22
-1.296403694405782
 13
0.0
 23
0.0
 14
10.0
 24
10.0
 15
10.0
 25
10.0
 16
0.0
 26
0.0
 36
1.0
 17
0.0
 27
0.0
 37
0.0
 40
113.1936528500591
 41
1.782762691853601
 42
50.0
 43
0.0
 44
0.0
 50
0.0
 51
0.0
 71
    16
 72
  2000
 73
     1
 74
     3
 75
     0
 76
     0
 77
     0
 78
     0
281
     0
 65
     1
110
0.0
120
0.0
130
0.0
111
1.0
121
0.0
131
0.0
112
0.0
122
1.0
132
0.0
 79
     0
146
0.0
  0
ENDTAB
  0
TABLE
  2
LTYPE
  5
5
330
0
100
AcDbSymbolTable
 70
     6
  0
LTYPE
  5
14
330
5
100
AcDbSymbolTableRecord
100
AcDbLinetypeTableRecord
  2
ByBlock
 70
     0
  3

 72
    65
 73
     0
 40
0.0
  0
LTYPE
  5
15
330
5
100
AcDbSymbolTableRecord
100
AcDbLinetypeTableRecord
  2
ByLayer
 70
     0
  3

 72
    65
 73
     0
 40
0.0
  0
LTYPE
  5
16
330
5
100
AcDbSymbolTableRecord
100
AcDbLinetypeTableRecord
  2
Continuous
 70
     0
  3
Solid line
 72
    65
 73
     0
 40
0.0
  0
LTYPE
  5
6A
330
5
100
AcDbSymbolTableRecord
100
AcDbLinetypeTableRecord
  2
HIDDEN
 70
     0
  3
Hidden __ __ __ __ __ __ __ __ __ __ __ __ __ __
 72
    65
 73
     2
 40
1.905
 49
1.27
 74
     0
 49
-0.635
 74
     0
  0
LTYPE
  5
6B
330
5
100
AcDbSymbolTableRecord
100
AcDbLinetypeTableRecord
  2
PHANTOM
 70
     0
  3
Phantom ______  __  __  ______  __  __  ______
 72
    65
 73
     6
 40
12.7
 49
6.35
 74
     0
 49
-1.27
 74
     0
 49
1.27
 74
     0
 49
-1.27
 74
     0
 49
1.27
 74
     0
 49
-1.27
 74
     0
  0
LTYPE
  5
6C
330
5
100
AcDbSymbolTableRecord
100
AcDbLinetypeTableRecord
  2
CENTER
 70
     0
  3
Center ____ _ ____ _ ____ _ ____ _ ____ _ ____
 72
    65
 73
     4
 40
10.16
 49
6.35
 74
     0
 49
-1.27
 74
     0
 49
1.27
 74
     0
 49
-1.27
 74
     0
  0
LTYPE
  5
6D
330
5
100
AcDbSymbolTableRecord
100
AcDbLinetypeTableRecord
  2
CENTERX2
 70
     0
  3
Center (2x) ________  __  ________  __  _____
 72
    65
 73
     4
 40
20.32
 49
12.7
 74
     0
 49
-2.54
 74
     0
 49
2.54
 74
     0
 49
-2.54
 74
     0
  0
LTYPE
  5
6E
330
5
100
AcDbSymbolTableRecord
100
AcDbLinetypeTableRecord
  2
DOT2
 70
     0
  3
Dot (.5x) ........................................
 72
    65
 73
     2
 40
0.635
 49
0.0
 74
     0
 49
-0.635
 74
     0
  0
ENDTAB
  0
TABLE
  2
LAYER
  5
2
102
{ACAD_XDICTIONARY
360
18E
102
}
330
0
100
AcDbSymbolTable
 70
    18
  0
LAYER
  5
10
330
2
100
AcDbSymbolTableRecord
100
AcDbLayerTableRecord
  2
0
 70
     0
 62
     7
  6
Continuous
370
    -3
390
F
  0
LAYER
  5
6F
330
2
100
AcDbSymbolTableRecord
100
AcDbLayerTableRecord
  2
FORMAT
 70
     0
 62
     2
  6
Continuous
370
    -3
390
F
  0
LAYER
  5
70
330
2
100
AcDbSymbolTableRecord
100
AcDbLayerTableRecord
  2
외형선
 70
     0
 62
     4
  6
Continuous
370
    30
390
F
  0
LAYER
  5
71
330
2
100
AcDbSymbolTableRecord
100
AcDbLayerTableRecord
  2
숨은선
 70
     0
 62
     2
  6
HIDDEN
370
    15
390
F
  0
LAYER
  5
72
330
2
100
AcDbSymbolTableRecord
100
AcDbLayerTableRecord
  2
중심선
 70
     0
 62
     1
  6
CENTERX2
370
    -3
390
F
  0
LAYER
  5
73
330
2
100
AcDbSymbolTableRecord
100
AcDbLayerTableRecord
  2
파단선
 70
     0
 62
     4
  6
Continuous
370
    -3
390
F
  0
LAYER
  5
74
330
2
100
AcDbSymbolTableRecord
100
AcDbLayerTableRecord
  2
해칭선
 70
     0
 62
   100
  6
Continuous
370
    -3
390
F
  0
LAYER
  5
75
330
2
100
AcDbSymbolTableRecord
100
AcDbLayerTableRecord
  2
가는실선
 70
     0
 62
     4
  6
Continuous
370
    -3
390
F
  0
LAYER
  5
76
330
2
100
AcDbSymbolTableRecord
100
AcDbLayerTableRecord
  2
치수_보조선
 70
     0
 62
     4
  6
Continuous
370
    -3
390
F
  0
LAYER
  5
77
330
2
100
AcDbSymbolTableRecord
100
AcDbLayerTableRecord
  2
치수문자_일반주서
 70
     0
 62
     7
  6
Continuous
370
    15
390
F
  0
LAYER
  5
78
330
2
100
AcDbSymbolTableRecord
100
AcDbLayerTableRecord
  2
개별주서
 70
     0
 62
   100
  6
Continuous
370
    30
390
F
  0
LAYER
  5
79
330
2
100
AcDbSymbolTableRecord
100
AcDbLayerTableRecord
  2
중간선
 70
     0
 62
     2
  6
Continuous
370
    15
390
F
  0
LAYER
  5
7A
330
2
100
AcDbSymbolTableRecord
100
AcDbLayerTableRecord
  2
윤곽선
 70
     0
 62
     3
  6
Continuous
370
    40
390
F
  0
LAYER
  5
7B
330
2
100
AcDbSymbolTableRecord
100
AcDbLayerTableRecord
  2
중심마크
 70
     0
 62
   100
  6
Continuous
370
    30
390
F
  0
LAYER
  5
7C
330
2
100
AcDbSymbolTableRecord
100
AcDbLayerTableRecord
  2
가상선
 70
     0
 62
     4
  6
PHANTOM
370
    -3
390
F
  0
LAYER
  5
7D
330
2
100
AcDbSymbolTableRecord
100
AcDbLayerTableRecord
  2
특수지정선
 70
     0
 62
     5
  6
CENTERX2
370
    60
390
F
  0
LAYER
  5
7E
330
2
100
AcDbSymbolTableRecord
100
AcDbLayerTableRecord
  2
참조1
 70
     0
 62
    -4
  6
Continuous
370
    -3
390
F
  0
LAYER
  5
153
330
2
100
AcDbSymbolTableRecord
100
AcDbLayerTableRecord
  2
Defpoints
 70
     0
 62
     7
  6
Continuous
290
     0
370
    -3
390
F
  0
ENDTAB
  0
TABLE
  2
STYLE
  5
3
330
0
100
AcDbSymbolTable
 70
     2
  0
STYLE
  5
11
330
3
100
AcDbSymbolTableRecord
100
AcDbTextStyleTableRecord
  2
Standard
 70
     0
 40
0.0
 41
1.0
 50
0.0
 71
     0
 42
3.5
  3
txt
  4

  0
STYLE
  5
94
330
3
100
AcDbSymbolTableRecord
100
AcDbTextStyleTableRecord
  2
SLDTEXTSTYLE0
 70
     0
 40
0.0
 41
0.75
 50
0.0
 71
     0
 42
3.5
  3
TXT
  4

  0
ENDTAB
  0
TABLE
  2
VIEW
  5
6
330
0
100
AcDbSymbolTable
 70
     0
  0
ENDTAB
  0
TABLE
  2
UCS
  5
7
330
0
100
AcDbSymbolTable
 70
     0
  0
ENDTAB
  0
TABLE
  2
APPID
  5
9
330
0
100
AcDbSymbolTable
 70
     2
  0
APPID
  5
12
330
9
100
AcDbSymbolTableRecord
100
AcDbRegAppTableRecord
  2
ACAD
 70
     0
  0
APPID
  5
15B
330
9
100
AcDbSymbolTableRecord
100
AcDbRegAppTableRecord
  2
PE_URL
 70
     0
  0
ENDTAB
  0
TABLE
  2
DIMSTYLE
  5
A
330
0
100
AcDbSymbolTable
 70
     3
100
AcDbDimStyleTable
  0
DIMSTYLE
105
27
330
A
100
AcDbSymbolTableRecord
100
AcDbDimStyleTableRecord
  2
ISO-25
 70
     0
 41
2.5
 42
0.625
 43
3.75
 44
1.25
 73
     0
 74
     0
 77
     1
 78
     8
140
2.5
141
2.5
143
0.03937007874016
147
0.625
171
     3
172
     1
178
     0
271
     2
272
     2
274
     3
278
    44
283
     0
284
     8
340
11
  0
DIMSTYLE
105
D3
102
{ACAD_REACTORS
330
D2
330
E7
330
FB
330
10F
102
}
330
A
100
AcDbSymbolTableRecord
100
AcDbDimStyleTableRecord
  2
SLDDIMSTYLE0
 70
     0
 41
3.302
 44
0.0
 45
0.000000001
 73
     0
 74
     0
 77
     1
 78
    12
 79
     3
140
3.5
143
0.0393700787401575
147
0.875
148
0.000000001
170
     1
172
     1
173
     1
178
     0
271
     2
272
     2
276
     2
284
    12
289
     0
340
94
  0
DIMSTYLE
105
E8
330
A
100
AcDbSymbolTableRecord
100
AcDbDimStyleTableRecord
  2
SLDDIMSTYLE1
 70
     0
 41
3.302
 44
0.0
 45
0.000000001
 73
     0
 74
     0
 77
     1
 78
    12
 79
     3
140
3.5
143
0.0393700787401575
147
0.875
148
0.000000001
170
     1
173
     1
178
     0
271
     2
272
     2
276
     2
284
    12
340
94
  0
ENDTAB
  0
TABLE
  2
BLOCK_RECORD
  5
1
330
0
100
AcDbSymbolTable
 70
     9
  0
BLOCK_RECORD
  5
1F
330
1
100
AcDbSymbolTableRecord
100
AcDbBlockTableRecord
  2
*Model_Space
340
22
  0
BLOCK_RECORD
  5
1B
330
1
100
AcDbSymbolTableRecord
100
AcDbBlockTableRecord
  2
*Paper_Space
340
1E
  0
BLOCK_RECORD
  5
23
330
1
100
AcDbSymbolTableRecord
100
AcDbBlockTableRecord
  2
*Paper_Space0
340
26
  0
BLOCK_RECORD
  5
7F
330
1
100
AcDbSymbolTableRecord
100
AcDbBlockTableRecord
  2
블럭10
340
0
102
{BLKREFS
331
CB
102
}
  0
BLOCK_RECORD
  5
D4
330
1
100
AcDbSymbolTableRecord
100
AcDbBlockTableRecord
  2
_D
340
0
  0
BLOCK_RECORD
  5
E9
330
1
100
AcDbSymbolTableRecord
100
AcDbBlockTableRecord
  2
_D_1
340
0
  0
BLOCK_RECORD
  5
FC
330
1
100
AcDbSymbolTableRecord
100
AcDbBlockTableRecord
  2
_D_2
340
0
  0
BLOCK_RECORD
  5
110
330
1
100
AcDbSymbolTableRecord
100
AcDbBlockTableRecord
  2
_D_3
340
0
  0
BLOCK_RECORD
  5
129
330
1
100
AcDbSymbolTableRecord
100
AcDbBlockTableRecord
  2
SW_DOWELSYMBOL_0
340
0
102
{BLKREFS
331
12F
102
}
  0
BLOCK_RECORD
  5
192
330
1
100
AcDbSymbolTableRecord
100
AcDbBlockTableRecord
  2
*D7
340
0
  0
BLOCK_RECORD
  5
1A7
330
1
100
AcDbSymbolTableRecord
100
AcDbBlockTableRecord
  2
*D8
340
0
  0
ENDTAB
  0
ENDSEC
  0
SECTION
  2
BLOCKS
  0
BLOCK
  5
20
330
1F
100
AcDbEntity
  8
0
100
AcDbBlockBegin
  2
*Model_Space
 70
     0
 10
0.0
 20
0.0
 30
0.0
  3
*Model_Space
  1
*Model_Space
  0
ENDBLK
  5
21
330
1F
100
AcDbEntity
  8
0
100
AcDbBlockEnd
  0
BLOCK
  5
1C
330
1B
100
AcDbEntity
 67
     1
  8
0
100
AcDbBlockBegin
  2
*Paper_Space
 70
     0
 10
0.0
 20
0.0
 30
0.0
  3
*Paper_Space
  1
*Paper_Space
  0
ENDBLK
  5
1D
330
1B
100
AcDbEntity
 67
     1
  8
0
100
AcDbBlockEnd
  0
BLOCK
  5
24
330
23
100
AcDbEntity
  8
0
100
AcDbBlockBegin
  2
*Paper_Space0
 70
     0
 10
0.0
 20
0.0
 30
0.0
  3
*Paper_Space0
  1
*Paper_Space0
  0
ENDBLK
  5
25
330
23
100
AcDbEntity
  8
0
100
AcDbBlockEnd
  0
BLOCK
  5
80
330
7F
100
AcDbEntity
  8
0
100
AcDbBlockBegin
  2
블럭10
 70
     2
 10
0.0
 20
0.0
 30
0.0
  3
블럭10
  1
블럭10
  0
ELLIPSE
  5
82
330
7F
100
AcDbEntity
  8
중심선
100
AcDbEllipse
 10
20.54032771741204
 20
12.0471743016438
 30
0.0
 11
6.600054785286829
 21
-1.261213355974178E-13
 31
0.0
210
0.0
220
0.0
230
1.0
 40
0.636358354079598
 41
0.9219305317359503
 42
6.513795318482858
  0
ELLIPSE
  5
83
330
7F
100
AcDbEntity
  8
중심선
100
AcDbEllipse
 10
20.54032771746488
 20
12.04717430159265
 30
0.0
 11
3.960054785062283
 21
1.540847449632565E-10
 31
0.0
210
0.0
220
0.0
230
1.0
 40
0.3939339440162632
 41
1.131841032648279
 42
5.62031148352944
  0
LINE
  5
84
330
7F
100
AcDbEntity
  8
중심선
100
AcDbLine
 10
2.268634060543552
 20
16.24717430164393
 30
0.0
 11
5.714909304380834
 21
16.24717430164393
 31
0.0
  0
LINE
  5
85
330
7F
100
AcDbEntity
  8
중심선
100
AcDbLine
 10
5.245725140726316
 20
7.84717430164391
 30
0.0
 11
8.692000384563599
 21
7.84717430164391
 31
0.0
  0
LINE
  5
86
330
7F
100
AcDbEntity
  8
중심선
100
AcDbLine
 10
15.74043728645272
 20
16.24717430164393
 30
0.0
 11
8.692000384563599
 21
7.84717430164391
 31
0.0
  0
LINE
  5
87
330
7F
100
AcDbEntity
  8
중심선
100
AcDbLine
 10
0.1404042013395286
 20
13.71084872107135
 30
0.0
 11
3.58671253028996
 21
13.71088815037384
 31
0.0
  0
LINE
  5
88
330
7F
100
AcDbEntity
  8
중심선
100
AcDbLine
 10
2.750260043222114
 20
10.84717430164391
 30
0.0
 11
6.196535287059397
 21
10.84717430164391
 31
0.0
  0
LINE
  5
89
330
7F
100
AcDbEntity
  8
중심선
100
AcDbLine
 10
12.29416204261559
 20
16.24717430164393
 30
0.0
 11
5.245725140726316
 21
7.84717430164391
 31
0.0
  0
LINE
  5
8A
330
7F
100
AcDbEntity
  8
중심선
100
AcDbLine
 10
10.72767329541681
 20
16.24717430164393
 30
0.0
 11
6.196535287059397
 21
10.84717430164391
 31
0.0
  0
LINE
  5
8B
330
7F
100
AcDbEntity
  8
중심선
100
AcDbLine
 10
7.28139805157953
 20
16.24717430164393
 30
0.0
 11
2.750260043222114
 21
10.84717430164391
 31
0.0
  0
LINE
  5
8C
330
7F
100
AcDbEntity
  8
중심선
100
AcDbLine
 10
5.714909304380834
 20
16.24717430164393
 30
0.0
 11
3.58671253028996
 21
13.71088815037384
 31
0.0
  0
LINE
  5
8D
330
7F
100
AcDbEntity
  8
중심선
100
AcDbLine
 10
2.268634060543552
 20
16.24717430164393
 30
0.0
 11
0.1404042013395286
 21
13.71084872107135
 31
0.0
  0
LINE
  5
8E
330
7F
100
AcDbEntity
  8
중심선
100
AcDbLine
 10
7.28139805157953
 20
16.24717430164393
 30
0.0
 11
10.72767329541681
 21
16.24717430164393
 31
0.0
  0
LINE
  5
8F
330
7F
100
AcDbEntity
  8
중심선
100
AcDbLine
 10
12.29416204261559
 20
16.24717430164393
 30
0.0
 11
15.74043728645272
 21
16.24717430164393
 31
0.0
  0
LINE
  5
90
330
7F
100
AcDbEntity
  8
중심선
100
AcDbLine
 10
19.22036997980202
 20
11.08717430171403
 30
0.0
 11
23.66174974927406
 21
11.08717430171406
 31
0.0
  0
LINE
  5
91
330
7F
100
AcDbEntity
  8
중심선
100
AcDbLine
 10
19.22039502424796
 20
13.00717430171391
 30
0.0
 11
19.22036997980202
 21
11.08717430171403
 31
0.0
  0
LINE
  5
92
330
7F
100
AcDbEntity
  8
중심선
100
AcDbLine
 10
19.22039502424796
 20
13.00717430171391
 30
0.0
 11
26.96566020931264
 21
13.00717430171391
 31
0.0
  0
LINE
  5
93
330
7F
100
AcDbEntity
  8
중심선
100
AcDbLine
 10
22.22332737316547
 20
13.45928029700563
 30
0.0
 11
24.52862924686651
 21
15.39360700705356
 31
0.0
  0
ATTDEF
  5
95
330
7F
100
AcDbEntity
  8
FORMAT
 62
     2
100
AcDbText
 10
4.408487351596664
 20
2.075366912832191
 30
0.0
 40
4.233333333333333
  1
E1050048
 41
0.75
  7
SLDTEXTSTYLE0
 11
4.408487351596664
 21
-0.0412997538344756
 31
0.0
100
AcDbAttributeDefinition
  3

  2
AUTOATTR0
 70
     0
 74
     1
  0
ENDBLK
  5
81
330
7F
100
AcDbEntity
  8
0
100
AcDbBlockEnd
  0
BLOCK
  5
D5
330
D4
100
AcDbEntity
  8
0
100
AcDbBlockBegin
  2
_D
 70
     0
 10
0.0
 20
0.0
 30
0.0
  3
_D
  1
_D
  0
LINE
  5
D7
330
D4
100
AcDbEntity
  8
치수문자_일반주서
 62
     0
370
    -2
100
AcDbLine
 10
-27.17493541362269
 20
9.52499999999999
 30
0.0
 11
-78.49999999999996
 21
9.5249999999998
 31
0.0
  0
LINE
  5
D8
330
D4
100
AcDbEntity
  8
치수문자_일반주서
 62
     0
370
    -2
100
AcDbLine
 10
-27.17493541362268
 20
-9.525000000000006
 30
0.0
 11
-78.49999999999989
 21
-9.525000000000198
 31
0.0
  0
LINE
  5
D9
330
D4
100
AcDbEntity
  8
치수문자_일반주서
 62
     0
370
    -2
100
AcDbLine
 10
-78.49999999999996
 20
9.5249999999998
 30
0.0
 11
-78.5000000000001
 21
47.37899999999994
 31
0.0
  0
LINE
  5
DA
330
D4
100
AcDbEntity
  8
치수문자_일반주서
 62
     0
370
    -2
100
AcDbLine
 10
-78.49999999999996
 20
9.5249999999998
 30
0.0
 11
-78.49999999999989
 21
-9.525000000000198
 31
0.0
  0
LINE
  5
DB
330
D4
100
AcDbEntity
  8
치수문자_일반주서
 62
     0
370
    -2
100
AcDbLine
 10
-78.49999999999997
 20
12.8269999999998
 30
0.0
 11
-78.49999999999999
 21
16.1289999999998
 31
0.0
  0
LINE
  5
DC
330
D4
100
AcDbEntity
  8
치수문자_일반주서
 62
     0
370
    -2
100
AcDbLine
 10
-78.49999999999987
 20
-12.8270000000002
 30
0.0
 11
-78.49999999999986
 21
-16.1290000000002
 31
0.0
  0
SOLID
  5
DD
330
D4
100
AcDbEntity
  8
치수문자_일반주서
 62
     0
100
AcDbTrace
 10
-79.0503333333333
 20
12.8269999999998
 30
0.0
 11
-77.94966666666664
 21
12.8269999999998
 31
0.0
 12
-78.49999999999996
 22
9.5249999999998
 32
0.0
 13
-78.49999999999996
 23
9.5249999999998
 33
0.0
  0
SOLID
  5
DE
330
D4
100
AcDbEntity
  8
치수문자_일반주서
 62
     0
100
AcDbTrace
 10
-77.94966666666654
 20
-12.8270000000002
 30
0.0
 11
-79.0503333333332
 21
-12.8270000000002
 31
0.0
 12
-78.49999999999989
 22
-9.525000000000198
 32
0.0
 13
-78.49999999999989
 23
-9.525000000000198
 33
0.0
  0
MTEXT
  5
DF
330
D4
100
AcDbEntity
  8
치수문자_일반주서
 62
     0
100
AcDbMText
 10
-83.37500000000004
 20
31.75399999999992
 30
0.0
 40
4.0
 41
0.0
 71
     2
 72
     1
  1
\A1;%%c19.05 [3/4]
  7
SLDTEXTSTYLE0
 11
-3.729883127349608E-15
 21
1.0
 31
0.0
 73
     1
 44
1.0
  0
POINT
  5
1B9
330
D4
100
AcDbEntity
  8
Defpoints
 62
     0
100
AcDbPoint
 10
-27.11243541362269
 20
9.52499999999999
 30
0.0
  0
POINT
  5
1BA
330
D4
100
AcDbEntity
  8
Defpoints
 62
     0
100
AcDbPoint
 10
-27.11243541362268
 20
-9.525000000000006
 30
0.0
  0
POINT
  5
1BB
330
D4
100
AcDbEntity
  8
Defpoints
 62
     0
100
AcDbPoint
 10
-78.49999999999989
 20
-9.525000000000198
 30
0.0
  0
ENDBLK
  5
D6
330
D4
100
AcDbEntity
  8
0
100
AcDbBlockEnd
  0
BLOCK
  5
EA
330
E9
100
AcDbEntity
  8
0
100
AcDbBlockBegin
  2
_D_1
 70
     0
 10
0.0
 20
0.0
 30
0.0
  3
_D_1
  1
_D_1
  0
LINE
  5
EC
330
E9
100
AcDbEntity
  8
치수문자_일반주서
 62
     0
370
    -2
100
AcDbLine
 10
63.56250000000002
 20
-9.525
 30
0.0
 11
113.9152757408953
 21
-9.524999999999814
 31
0.0
  0
LINE
  5
ED
330
E9
100
AcDbEntity
  8
치수문자_일반주서
 62
     0
370
    -2
100
AcDbLine
 10
63.56250000000002
 20
9.525
 30
0.0
 11
113.9152757408952
 21
9.525000000000187
 31
0.0
  0
LINE
  5
EE
330
E9
100
AcDbEntity
  8
치수문자_일반주서
 62
     0
370
    -2
100
AcDbLine
 10
113.9152757408952
 20
9.525000000000187
 30
0.0
 11
113.9152757408951
 21
47.37900000000019
 31
0.0
  0
LINE
  5
EF
330
E9
100
AcDbEntity
  8
치수문자_일반주서
 62
     0
370
    -2
100
AcDbLine
 10
113.9152757408953
 20
-9.524999999999814
 30
0.0
 11
113.9152757408952
 21
9.525000000000187
 31
0.0
  0
LINE
  5
F0
330
E9
100
AcDbEntity
  8
치수문자_일반주서
 62
     0
370
    -2
100
AcDbLine
 10
113.9152757408953
 20
-12.82699999999981
 30
0.0
 11
113.9152757408953
 21
-16.12899999999981
 31
0.0
  0
LINE
  5
F1
330
E9
100
AcDbEntity
  8
치수문자_일반주서
 62
     0
370
    -2
100
AcDbLine
 10
113.9152757408952
 20
12.82700000000019
 30
0.0
 11
113.9152757408952
 21
16.12900000000019
 31
0.0
  0
SOLID
  5
F2
330
E9
100
AcDbEntity
  8
치수문자_일반주서
 62
     0
100
AcDbTrace
 10
114.4656090742286
 20
-12.82699999999981
 30
0.0
 11
113.364942407562
 21
-12.82699999999982
 31
0.0
 12
113.9152757408953
 22
-9.524999999999814
 32
0.0
 13
113.9152757408953
 23
-9.524999999999814
 33
0.0
  0
SOLID
  5
F3
330
E9
100
AcDbEntity
  8
치수문자_일반주서
 62
     0
100
AcDbTrace
 10
113.3649424075619
 20
12.82700000000018
 30
0.0
 11
114.4656090742285
 21
12.82700000000019
 31
0.0
 12
113.9152757408952
 22
9.525000000000187
 32
0.0
 13
113.9152757408952
 23
9.525000000000187
 33
0.0
  0
MTEXT
  5
F4
330
E9
100
AcDbEntity
  8
치수문자_일반주서
 62
     0
100
AcDbMText
 10
109.0402757408951
 20
31.75400000000017
 30
0.0
 40
4.0
 41
0.0
 71
     2
 72
     1
  1
\A1;%%c19.05 [3/4]
  7
SLDTEXTSTYLE0
 11
-3.729883127349607E-15
 21
1.0
 31
0.0
 73
     1
 44
1.0
  0
POINT
  5
F5
330
E9
100
AcDbEntity
  8
Defpoints
 62
     0
100
AcDbPoint
 10
63.50000000000002
 20
-9.525
 30
0.0
  0
POINT
  5
F6
330
E9
100
AcDbEntity
  8
Defpoints
 62
     0
100
AcDbPoint
 10
63.50000000000002
 20
9.525
 30
0.0
  0
POINT
  5
F7
330
E9
100
AcDbEntity
  8
Defpoints
 62
     0
100
AcDbPoint
 10
113.9152757408952
 20
9.525000000000189
 30
0.0
  0
ENDBLK
  5
EB
330
E9
100
AcDbEntity
  8
0
100
AcDbBlockEnd
  0
BLOCK
  5
FD
330
FC
100
AcDbEntity
  8
0
100
AcDbBlockBegin
  2
_D_2
 70
     0
 10
0.0
 20
0.0
 30
0.0
  3
_D_2
  1
_D_2
  0
LINE
  5
FF
330
FC
100
AcDbEntity
  8
치수문자_일반주서
 62
     0
370
    -2
100
AcDbLine
 10
63.50000000000002
 20
9.5875
 30
0.0
 11
63.50000000000002
 21
24.525
 31
0.0
  0
LINE
  5
100
330
FC
100
AcDbEntity
  8
치수문자_일반주서
 62
     0
370
    -2
100
AcDbLine
 10
30.16250000000002
 20
7.503463044024604
 30
0.0
 11
30.16250000000002
 21
24.525
 31
0.0
  0
LINE
  5
101
330
FC
100
AcDbEntity
  8
치수문자_일반주서
 62
     0
370
    -2
100
AcDbLine
 10
63.50000000000002
 20
24.525
 30
0.0
 11
106.854
 21
24.525
 31
0.0
  0
LINE
  5
102
330
FC
100
AcDbEntity
  8
치수문자_일반주서
 62
     0
370
    -2
100
AcDbLine
 10
63.50000000000002
 20
24.525
 30
0.0
 11
30.16250000000002
 21
24.525
 31
0.0
  0
LINE
  5
103
330
FC
100
AcDbEntity
  8
치수문자_일반주서
 62
     0
370
    -2
100
AcDbLine
 10
66.80200000000002
 20
24.525
 30
0.0
 11
70.10400000000001
 21
24.525
 31
0.0
  0
LINE
  5
104
330
FC
100
AcDbEntity
  8
치수문자_일반주서
 62
     0
370
    -2
100
AcDbLine
 10
26.86050000000002
 20
24.525
 30
0.0
 11
23.55850000000002
 21
24.525
 31
0.0
  0
SOLID
  5
105
330
FC
100
AcDbEntity
  8
치수문자_일반주서
 62
     0
100
AcDbTrace
 10
66.80200000000002
 20
25.07533333333333
 30
0.0
 11
66.80200000000002
 21
23.97466666666666
 31
0.0
 12
63.50000000000002
 22
24.525
 32
0.0
 13
63.50000000000002
 23
24.525
 33
0.0
  0
SOLID
  5
106
330
FC
100
AcDbEntity
  8
치수문자_일반주서
 62
     0
100
AcDbTrace
 10
26.86050000000002
 20
23.97466666666666
 30
0.0
 11
26.86050000000002
 21
25.07533333333333
 31
0.0
 12
30.16250000000002
 22
24.525
 32
0.0
 13
30.16250000000002
 23
24.525
 33
0.0
  0
MTEXT
  5
107
330
FC
100
AcDbEntity
  8
치수문자_일반주서
 62
     0
100
AcDbMText
 10
88.47900000000003
 20
29.4
 30
0.0
 40
4.0
 41
0.0
 71
     2
 72
     1
  1
\A1;33.34 [1 5/16]
  7
SLDTEXTSTYLE0
 73
     1
 44
1.0
  0
POINT
  5
108
330
FC
100
AcDbEntity
  8
Defpoints
 62
     0
100
AcDbPoint
 10
63.50000000000002
 20
9.525
 30
0.0
  0
POINT
  5
109
330
FC
100
AcDbEntity
  8
Defpoints
 62
     0
100
AcDbPoint
 10
30.16250000000002
 20
7.440963044024604
 30
0.0
  0
POINT
  5
10A
330
FC
100
AcDbEntity
  8
Defpoints
 62
     0
100
AcDbPoint
 10
30.16250000000002
 20
24.525
 30
0.0
  0
ENDBLK
  5
FE
330
FC
100
AcDbEntity
  8
0
100
AcDbBlockEnd
  0
BLOCK
  5
111
330
110
100
AcDbEntity
  8
0
100
AcDbBlockBegin
  2
_D_3
 70
     0
 10
0.0
 20
0.0
 30
0.0
  3
_D_3
  1
_D_3
  0
LINE
  5
113
330
110
100
AcDbEntity
  8
치수문자_일반주서
 62
     0
370
    -2
100
AcDbLine
 10
-63.47555360266973
 20
9.578857283535713
 30
0.0
 11
-63.47555360266973
 21
39.52499999999999
 31
0.0
  0
LINE
  5
114
330
110
100
AcDbEntity
  8
치수문자_일반주서
 62
     0
370
    -2
100
AcDbLine
 10
63.50000000000002
 20
9.5875
 30
0.0
 11
63.50000000000003
 21
39.52499999999999
 31
0.0
  0
LINE
  5
115
330
110
100
AcDbEntity
  8
치수문자_일반주서
 62
     0
370
    -2
100
AcDbLine
 10
-60.17355360266973
 20
39.52499999999999
 30
0.0
 11
60.19800000000003
 21
39.52499999999999
 31
0.0
  0
SOLID
  5
116
330
110
100
AcDbEntity
  8
치수문자_일반주서
 62
     0
100
AcDbTrace
 10
-60.17355360266973
 20
40.07533333333333
 30
0.0
 11
-60.17355360266973
 21
38.97466666666666
 31
0.0
 12
-63.47555360266973
 22
39.52499999999999
 32
0.0
 13
-63.47555360266973
 23
39.52499999999999
 33
0.0
  0
SOLID
  5
117
330
110
100
AcDbEntity
  8
치수문자_일반주서
 62
     0
100
AcDbTrace
 10
60.19800000000003
 20
38.97466666666666
 30
0.0
 11
60.19800000000003
 21
40.07533333333333
 31
0.0
 12
63.50000000000003
 22
39.52499999999999
 32
0.0
 13
63.50000000000003
 23
39.52499999999999
 33
0.0
  0
MTEXT
  5
118
330
110
100
AcDbEntity
  8
치수문자_일반주서
 62
     0
100
AcDbMText
 10
0.0000000000000142
 20
44.39999999999999
 30
0.0
 40
4.0
 41
0.0
 71
     2
 72
     1
  1
\A1;126.98 [5]
  7
SLDTEXTSTYLE0
 73
     1
 44
1.0
  0
POINT
  5
119
330
110
100
AcDbEntity
  8
Defpoints
 62
     0
100
AcDbPoint
 10
-63.47555360266973
 20
9.516357283535713
 30
0.0
  0
POINT
  5
11A
330
110
100
AcDbEntity
  8
Defpoints
 62
     0
100
AcDbPoint
 10
63.50000000000002
 20
9.525
 30
0.0
  0
POINT
  5
11B
330
110
100
AcDbEntity
  8
Defpoints
 62
     0
100
AcDbPoint
 10
63.50000000000002
 20
39.52499999999999
 30
0.0
  0
ENDBLK
  5
112
330
110
100
AcDbEntity
  8
0
100
AcDbBlockEnd
  0
BLOCK
  5
12A
330
129
100
AcDbEntity
  8
0
100
AcDbBlockBegin
  2
SW_DOWELSYMBOL_0
 70
     0
 10
0.0
 20
0.0
 30
0.0
  3
SW_DOWELSYMBOL_0
  1
SW_DOWELSYMBOL_0
  0
CIRCLE
  5
12C
330
129
100
AcDbEntity
  8
해칭선
 62
     0
100
AcDbCircle
 10
0.0
 20
0.0
 30
0.0
 40
3.000000000000001
  0
HATCH
  5
12D
330
129
100
AcDbEntity
  8
0
  6
Continuous
 62
     0
370
     0
100
AcDbHatch
 10
0.0
 20
0.0
 30
0.0
210
0.0
220
0.0
230
1.0
  2
SOLID
 70
     1
 71
     0
 91
        1
 92
        0
 93
        3
 72
     2
 10
0.0
 20
0.0
 40
3.000000000000001
 50
0.0
 51
90.0
 73
     1
 72
     1
 10
0.0
 20
3.000000000000001
 11
0.0
 21
0.0
 72
     1
 10
0.0
 20
0.0
 11
3.000000000000001
 21
0.0
 97
        0
 75
     0
 76
     1
 98
        1
 10
0.0
 20
0.0
  0
HATCH
  5
12E
330
129
100
AcDbEntity
  8
0
  6
Continuous
 62
     0
370
     0
100
AcDbHatch
 10
0.0
 20
0.0
 30
0.0
210
0.0
220
0.0
230
1.0
  2
SOLID
 70
     1
 71
     0
 91
        1
 92
        0
 93
        3
 72
     2
 10
0.0
 20
0.0
 40
3.000000000000001
 50
180.0
 51
270.0000000000007
 73
     1
 72
     1
 10
0.0
 20
-3.000000000000001
 11
0.0
 21
0.0
 72
     1
 10
0.0
 20
0.0
 11
-3.000000000000001
 21
0.0
 97
        0
 75
     0
 76
     1
 98
        1
 10
0.0
 20
0.0
  0
ENDBLK
  5
12B
330
129
100
AcDbEntity
  8
0
100
AcDbBlockEnd
  0
BLOCK
  5
193
330
192
100
AcDbEntity
  8
0
100
AcDbBlockBegin
  2
*D7
 70
     1
 10
0.0
 20
0.0
 30
0.0
  3
*D7
  1
*D7
  0
LINE
  5
195
330
192
100
AcDbEntity
  8
치수문자_일반주서
 62
     0
370
    -2
100
AcDbLine
 10
71.19620000000018
 20
6.126707037181468
 30
0.0
 11
71.19620000000018
 21
22.26187612400189
 31
0.0
  0
LINE
  5
196
330
192
100
AcDbEntity
  8
치수문자_일반주서
 62
     0
370
    -2
100
AcDbLine
 10
37.85870000000017
 20
5.067793431799671
 30
0.0
 11
37.85870000000017
 21
22.26187612400189
 31
0.0
  0
LINE
  5
197
330
192
100
AcDbEntity
  8
치수문자_일반주서
 62
     0
370
    -2
100
AcDbLine
 10
71.19620000000018
 20
22.26187612400189
 30
0.0
 11
114.5502000000002
 21
22.26187612400189
 31
0.0
  0
LINE
  5
198
330
192
100
AcDbEntity
  8
치수문자_일반주서
 62
     0
370
    -2
100
AcDbLine
 10
71.19620000000018
 20
22.26187612400189
 30
0.0
 11
37.85870000000017
 21
22.26187612400189
 31
0.0
  0
LINE
  5
199
330
192
100
AcDbEntity
  8
치수문자_일반주서
 62
     0
370
    -2
100
AcDbLine
 10
74.49820000000017
 20
22.26187612400189
 30
0.0
 11
77.80020000000016
 21
22.26187612400189
 31
0.0
  0
LINE
  5
19A
330
192
100
AcDbEntity
  8
치수문자_일반주서
 62
     0
370
    -2
100
AcDbLine
 10
34.55670000000017
 20
22.26187612400189
 30
0.0
 11
31.25470000000017
 21
22.26187612400189
 31
0.0
  0
SOLID
  5
19B
330
192
100
AcDbEntity
  8
치수문자_일반주서
 62
     0
100
AcDbTrace
 10
74.49820000000017
 20
22.81220945733522
 30
0.0
 11
74.49820000000017
 21
21.71154279066856
 31
0.0
 12
71.19620000000018
 22
22.26187612400189
 32
0.0
 13
71.19620000000018
 23
22.26187612400189
 33
0.0
  0
SOLID
  5
19C
330
192
100
AcDbEntity
  8
치수문자_일반주서
 62
     0
100
AcDbTrace
 10
34.55670000000017
 20
21.71154279066856
 30
0.0
 11
34.55670000000017
 21
22.81220945733522
 31
0.0
 12
37.85870000000017
 22
22.26187612400189
 32
0.0
 13
37.85870000000017
 23
22.26187612400189
 33
0.0
  0
MTEXT
  5
19D
330
192
100
AcDbEntity
  8
치수문자_일반주서
 62
     0
100
AcDbMText
 10
96.17520000000017
 20
27.13687612400189
 30
0.0
 40
4.0
 41
0.0
 71
     2
 72
     1
  1
\A1;33.34 [1 5/16]
  7
SLDTEXTSTYLE0
 73
     1
 44
1.0
  0
POINT
  5
19E
330
192
100
AcDbEntity
  8
Defpoints
 62
     0
100
AcDbPoint
 10
71.19620000000018
 20
6.064207037181468
 30
0.0
  0
POINT
  5
19F
330
192
100
AcDbEntity
  8
Defpoints
 62
     0
100
AcDbPoint
 10
37.85870000000017
 20
5.005293431799671
 30
0.0
  0
POINT
  5
1A0
330
192
100
AcDbEntity
  8
Defpoints
 62
     0
100
AcDbPoint
 10
37.85870000000017
 20
22.26187612400189
 30
0.0
  0
ENDBLK
  5
194
330
192
100
AcDbEntity
  8
0
100
AcDbBlockEnd
  0
BLOCK
  5
1A8
330
1A7
100
AcDbEntity
  8
0
100
AcDbBlockBegin
  2
*D8
 70
     1
 10
0.0
 20
0.0
 30
0.0
  3
*D8
  1
*D8
  0
LINE
  5
1AA
330
1A7
100
AcDbEntity
  8
치수문자_일반주서
 62
     0
370
    -2
100
AcDbLine
 10
118.5690736943128
 20
-24.19257301390058
 30
0.0
 11
118.5690736943128
 21
-8.057403927080156
 31
0.0
  0
LINE
  5
1AB
330
1A7
100
AcDbEntity
  8
치수문자_일반주서
 62
     0
370
    -2
100
AcDbLine
 10
85.23157369431283
 20
-25.25148661928237
 30
0.0
 11
85.23157369431283
 21
-8.057403927080156
 31
0.0
  0
LINE
  5
1AC
330
1A7
100
AcDbEntity
  8
치수문자_일반주서
 62
     0
370
    -2
100
AcDbLine
 10
118.5690736943128
 20
-8.057403927080156
 30
0.0
 11
161.9230736943128
 21
-8.057403927080156
 31
0.0
  0
LINE
  5
1AD
330
1A7
100
AcDbEntity
  8
치수문자_일반주서
 62
     0
370
    -2
100
AcDbLine
 10
118.5690736943128
 20
-8.057403927080156
 30
0.0
 11
85.23157369431283
 21
-8.057403927080156
 31
0.0
  0
LINE
  5
1AE
330
1A7
100
AcDbEntity
  8
치수문자_일반주서
 62
     0
370
    -2
100
AcDbLine
 10
121.8710736943128
 20
-8.057403927080156
 30
0.0
 11
125.1730736943128
 21
-8.057403927080156
 31
0.0
  0
LINE
  5
1AF
330
1A7
100
AcDbEntity
  8
치수문자_일반주서
 62
     0
370
    -2
100
AcDbLine
 10
81.92957369431284
 20
-8.057403927080156
 30
0.0
 11
78.62757369431284
 21
-8.057403927080156
 31
0.0
  0
SOLID
  5
1B0
330
1A7
100
AcDbEntity
  8
치수문자_일반주서
 62
     0
100
AcDbTrace
 10
121.8710736943128
 20
-7.507070593746822
 30
0.0
 11
121.8710736943128
 21
-8.607737260413488
 31
0.0
 12
118.5690736943128
 22
-8.057403927080156
 32
0.0
 13
118.5690736943128
 23
-8.057403927080156
 33
0.0
  0
SOLID
  5
1B1
330
1A7
100
AcDbEntity
  8
치수문자_일반주서
 62
     0
100
AcDbTrace
 10
81.92957369431284
 20
-8.607737260413488
 30
0.0
 11
81.92957369431284
 21
-7.507070593746822
 31
0.0
 12
85.23157369431283
 22
-8.057403927080156
 32
0.0
 13
85.23157369431283
 23
-8.057403927080156
 33
0.0
  0
MTEXT
  5
1B2
330
1A7
100
AcDbEntity
  8
치수문자_일반주서
 62
     0
100
AcDbMText
 10
143.5480736943128
 20
-3.182403927080156
 30
0.0
 40
4.0
 41
0.0
 71
     2
 72
     1
  1
\A1;33.34 [1 5/16]
  7
SLDTEXTSTYLE0
 73
     1
 44
1.0
  0
POINT
  5
1B3
330
1A7
100
AcDbEntity
  8
Defpoints
 62
     0
100
AcDbPoint
 10
118.5690736943128
 20
-24.25507301390058
 30
0.0
  0
POINT
  5
1B4
330
1A7
100
AcDbEntity
  8
Defpoints
 62
     0
100
AcDbPoint
 10
85.23157369431283
 20
-25.31398661928237
 30
0.0
  0
POINT
  5
1B5
330
1A7
100
AcDbEntity
  8
Defpoints
 62
     0
100
AcDbPoint
 10
85.23157369431283
 20
-8.057403927080156
 30
0.0
  0
ENDBLK
  5
1A9
330
1A7
100
AcDbEntity
  8
0
100
AcDbBlockEnd
  0
ENDSEC
  0
SECTION
  2
ENTITIES
  0
LINE
  5
96
330
1F
100
AcDbEntity
  8
외형선
  6
Continuous
370
    15
100
AcDbLine
 10
27.11243541362268
 20
9.524999999999995
 30
0.0
 11
7.696199999999976
 21
9.524999999999993
 31
0.0
  0
LINE
  5
97
330
1F
100
AcDbEntity
  8
외형선
  6
Continuous
370
    15
100
AcDbLine
 10
-27.11243541362268
 20
-9.52500000000001
 30
0.0
 11
27.11243541362268
 21
-9.525000000000006
 31
0.0
  0
SPLINE
  5
9A
330
1F
100
AcDbEntity
  8
외형선
  6
Continuous
370
    15
100
AcDbSpline
210
0.0
220
0.0
230
1.0
 70
     8
 71
     3
 72
     9
 73
     5
 74
     0
 42
0.000000001
 43
0.00000001
 40
0.0
 40
0.0
 40
0.0
 40
0.0
 40
0.5887517481144153
 40
1.0
 40
1.0
 40
1.0
 40
1.0
 10
30.16250000000004
 20
7.440962401348931
 30
0.0
 10
29.72718343763967
 20
7.445495677371982
 30
0.0
 10
28.98779444430834
 20
7.453195486396024
 30
0.0
 10
28.24832083820896
 20
7.476919162271638
 30
0.0
 10
27.94421361038507
 20
7.486675482503782
 30
0.0
  0
SPLINE
  5
9B
330
1F
100
AcDbEntity
  8
외형선
  6
Continuous
370
    15
100
AcDbSpline
210
0.0
220
0.0
230
1.0
 70
     8
 71
     3
 72
    11
 73
     7
 74
     0
 42
0.000000001
 43
0.00000001
 40
0.0
 40
0.0
 40
0.0
 40
0.0
 40
0.120624687819201
 40
0.6810330012536422
 40
0.8581246620479975
 40
1.0
 40
1.0
 40
1.0
 40
1.0
 10
27.37781276029364
 20
7.68594798548479
 30
0.0
 10
27.36405330923618
 20
7.698870667081937
 30
0.0
 10
27.28636904394454
 20
7.771830629022244
 30
0.0
 10
27.1872808843618
 20
7.881471093736877
 30
0.0
 10
27.11822493913128
 20
7.967311853638625
 30
0.0
 10
27.11421778217414
 20
7.976797997136453
 30
0.0
 10
27.11243541362268
 20
7.981017398578937
 30
0.0
  0
SPLINE
  5
9C
330
1F
100
AcDbEntity
  8
외형선
  6
Continuous
370
    15
100
AcDbSpline
210
0.0
220
0.0
230
1.0
 70
     8
 71
     3
 72
     9
 73
     5
 74
     0
 42
0.000000001
 43
0.00000001
 40
0.0
 40
0.0
 40
0.0
 40
0.0
 40
0.5003342574920764
 40
1.0
 40
1.0
 40
1.0
 40
1.0
 10
27.09411665536402
 20
-7.515836549150406
 30
0.0
 10
27.60587573860114
 20
-7.496846160231411
 30
0.0
 10
28.62871012496179
 20
-7.458890756149779
 30
0.0
 10
29.65146461722169
 20
-7.446935855605836
 30
0.0
 10
30.16250000000005
 20
-7.440962401348941
 30
0.0
  0
SPLINE
  5
9D
330
1F
100
AcDbEntity
  8
0
  6
Continuous
 62
     1
370
    15
100
AcDbSpline
210
0.0
220
0.0
230
1.0
 70
     8
 71
     3
 72
    10
 73
     6
 74
     0
 42
0.000000001
 43
0.00000001
 40
0.0
 40
0.0
 40
0.0
 40
0.0
 40
0.4242458144893556
 40
0.5976841977098416
 40
1.0
 40
1.0
 40
1.0
 40
1.0
 10
38.82353098374394
 20
2.440730809549037
 30
0.0
 10
38.45019546462962
 20
2.618474483349049
 30
0.0
 10
37.92423449436756
 20
2.868882575650511
 30
0.0
 10
37.04166675351257
 20
3.310822907247569
 30
0.0
 10
36.5347157827391
 20
3.576653838744438
 30
0.0
 10
36.18047713079145
 20
3.762406695033011
 30
0.0
1001
PE_URL
1000

  0
SPLINE
  5
9E
330
1F
100
AcDbEntity
  8
0
  6
Continuous
 62
     1
370
    15
100
AcDbSpline
210
0.0
220
0.0
230
1.0
 70
     8
 71
     3
 72
     9
 73
     5
 74
     0
 42
0.000000001
 43
0.00000001
 40
0.0
 40
0.0
 40
0.0
 40
0.0
 40
0.4710006023559119
 40
1.0
 40
1.0
 40
1.0
 40
1.0
 10
35.67515411292572
 20
7.568941700598114
 30
0.0
 10
34.82148321571333
 20
7.528590666378848
 30
0.0
 10
33.00902078372833
 20
7.442919790338707
 30
0.0
 10
31.14733216036177
 20
7.441639613909082
 30
0.0
 10
30.16250000000002
 20
7.440962401348931
 30
0.0
1001
PE_URL
1000

  0
SPLINE
  5
9F
330
1F
100
AcDbEntity
  8
0
  6
Continuous
 62
     1
370
    15
100
AcDbSpline
210
0.0
220
0.0
230
1.0
 70
     8
 71
     3
 72
    29
 73
    25
 74
     0
 42
0.000000001
 43
0.00000001
 40
0.0
 40
0.0
 40
0.0
 40
0.0
 40
0.0739290946452234
 40
0.1385693113104073
 40
0.1930651827163543
 40
0.2373216836906979
 40
0.2770383822718323
 40
0.3177887980433727
 40
0.3748179739593687
 40
0.4344139612432656
 40
0.4797793053686909
 40
0.5093744805750264
 40
0.5376159693174772
 40
0.5701131359689502
 40
0.613377383227647
 40
0.6624932873471834
 40
0.7028421742313721
 40
0.73391442072281
 40
0.7609939121006656
 40
0.7858870774653487
 40
0.8136891426418987
 40
0.8586833936018027
 40
0.9206758590838205
 40
1.0
 40
1.0
 40
1.0
 40
1.0
 10
59.96160763567811
 20
6.514665033488163
 30
0.0
 10
59.5696402346353
 20
6.482307127712122
 30
0.0
 10
58.83495447824559
 20
6.42165695012845
 30
0.0
 10
57.74112679057976
 20
6.357286058366675
 30
0.0
 10
56.81474173960986
 20
6.315651953686502
 30
0.0
 10
56.04511199258563
 20
6.29073966525575
 30
0.0
 10
55.35324115754907
 20
6.275757007262341
 30
0.0
 10
54.5894119129979
 20
6.267075328262069
 30
0.0
 10
53.7162133428843
 20
6.268184536990883
 30
0.0
 10
52.81710281417359
 20
6.282801348956562
 30
0.0
 10
52.07025715056074
 20
6.304958827270147
 30
0.0
 10
51.49752861415242
 20
6.327459766103473
 30
0.0
 10
50.99635390165076
 20
6.350897340312397
 30
0.0
 10
50.41921827409298
 20
6.382238945160407
 30
0.0
 10
49.72626655923247
 20
6.426383081163041
 30
0.0
 10
48.98949835468295
 20
6.481710719581839
 30
0.0
 10
48.32047357232693
 20
6.539425411099734
 30
0.0
 10
47.77335152791422
 20
6.591385941659367
 30
0.0
 10
47.31289681530492
 20
6.638182299170801
 30
0.0
 10
46.87321708166074
 20
6.685488194392535
 30
0.0
 10
46.33298671343596
 20
6.746834813948206
 30
0.0
 10
45.58515566895812
 20
6.838192760074013
 30
0.0
 10
44.55024767187899
 20
6.976525985779101
 30
0.0
 10
43.76264438162479
 20
7.096666175685899
 30
0.0
 10
43.32054521172165
 20
7.164103525030463
 30
0.0
1001
PE_URL
1000

  0
SPLINE
  5
A0
330
1F
100
AcDbEntity
  8
0
  6
Continuous
 62
     1
370
    15
100
AcDbSpline
210
0.0
220
0.0
230
1.0
 70
     8
 71
     3
 72
    19
 73
    15
 74
     0
 42
0.000000001
 43
0.00000001
 40
0.0
 40
0.0
 40
0.0
 40
0.0
 40
0.148404732650473
 40
0.2609647813410181
 40
0.3378450113479149
 40
0.3909176380397295
 40
0.4554196782113789
 40
0.5607631959017381
 40
0.6717741742069039
 40
0.758586841029716
 40
0.8300236992930998
 40
0.9012716552950736
 40
0.9769808189408522
 40
1.0
 40
1.0
 40
1.0
 40
1.0
 10
43.32054521172165
 20
-7.16410352503047
 30
0.0
 10
43.67140407380953
 20
-7.11024850275734
 30
0.0
 10
44.28837770120705
 20
-7.015546239152823
 30
0.0
 10
45.08606221938681
 20
-6.904936612155947
 30
0.0
 10
45.658828494465
 20
-6.830024877285026
 30
0.0
 10
46.12042375423165
 20
-6.772772672105772
 30
0.0
 10
46.64846644394076
 20
-6.710300624344469
 30
0.0
 10
47.31303445143661
 20
-6.637242040884518
 30
0.0
 10
48.0293454672108
 20
-6.566075709509053
 30
0.0
 10
48.66516970359419
 20
-6.509215620027279
 30
0.0
 10
49.20754626944985
 20
-6.465212947877998
 30
0.0
 10
49.72388073719711
 20
-6.427583817622156
 30
0.0
 10
50.12596773344329
 20
-6.400217707339054
 30
0.0
 10
50.3593713125159
 20
-6.387217147258657
 30
0.0
 10
50.41379093499194
 20
-6.384185978780597
 30
0.0
1001
PE_URL
1000

  0
SPLINE
  5
A1
330
1F
100
AcDbEntity
  8
0
  6
Continuous
 62
     1
370
    15
100
AcDbSpline
210
0.0
220
0.0
230
1.0
 70
     8
 71
     3
 72
     9
 73
     5
 74
     0
 42
0.000000001
 43
0.00000001
 40
0.0
 40
0.0
 40
0.0
 40
0.0
 40
0.3935088155429661
 40
1.0
 40
1.0
 40
1.0
 40
1.0
 10
30.16250000000002
 20
-7.440962401348941
 30
0.0
 10
30.88193534166873
 20
-7.439925606832151
 30
0.0
 10
32.71019258331663
 20
-7.43729086403647
 30
0.0
 10
34.5558059040092
 20
-7.519240169351923
 30
0.0
 10
35.67515411292572
 20
-7.568941700598121
 30
0.0
1001
PE_URL
1000

  0
SPLINE
  5
A2
330
1F
100
AcDbEntity
  8
외형선
  6
Continuous
370
    15
100
AcDbSpline
210
0.0
220
0.0
230
1.0
 70
     8
 71
     3
 72
    10
 73
     6
 74
     0
 42
0.000000001
 43
0.00000001
 40
0.0
 40
0.0
 40
0.0
 40
0.0
 40
0.5
 40
0.5
 40
1.0
 40
1.0
 40
1.0
 40
1.0
 10
30.16250000000002
 20
6.636407126728122
 30
0.0
 10
29.65551731981
 20
6.84675294729952
 30
0.0
 10
29.14792973413894
 20
7.047746400637031
 30
0.0
 10
28.12915609188722
 20
7.429534210898048
 30
0.0
 10
27.61934552498965
 20
7.610134726774276
 30
0.0
 10
27.11236785715182
 20
7.779337446754288
 30
0.0
  0
LINE
  5
A3
330
1F
100
AcDbEntity
  8
외형선
  6
Continuous
370
    15
100
AcDbLine
 10
30.16250000000002
 20
6.636407126728121
 30
0.0
 11
30.16250000000002
 21
4.49127009097085
 31
0.0
  0
SPLINE
  5
A4
330
1F
100
AcDbEntity
  8
외형선
  6
Continuous
370
    15
100
AcDbSpline
210
0.0
220
0.0
230
1.0
 70
     8
 71
     3
 72
    10
 73
     6
 74
     0
 42
0.000000001
 43
0.00000001
 40
0.0
 40
0.0
 40
0.0
 40
0.0
 40
0.5
 40
0.5
 40
1.0
 40
1.0
 40
1.0
 40
1.0
 10
27.11243541362267
 20
5.958807453621209
 30
0.0
 10
27.61940207321794
 20
5.730046759401238
 30
0.0
 10
28.12920136250325
 20
5.492371593159544
 30
0.0
 10
29.14795234100344
 20
5.002156727938813
 30
0.0
 10
29.65552857933034
 20
4.749854700143797
 30
0.0
 10
30.16250000000002
 20
4.49127009097085
 30
0.0
  0
LINE
  5
A5
330
1F
100
AcDbEntity
  8
외형선
  6
Continuous
370
    15
100
AcDbLine
 10
27.94039097432052
 20
-7.488020371474993
 30
0.0
 11
27.11236785715182
 21
-7.779337446754295
 31
0.0
  0
LINE
  5
A6
330
1F
100
AcDbEntity
  8
외형선
  6
Continuous
370
    15
100
AcDbLine
 10
27.11243541362268
 20
7.77957298862687
 30
0.0
 11
27.11243541362268
 21
9.524999999999995
 31
0.0
  0
LINE
  5
A8
330
1F
100
AcDbEntity
  8
외형선
  6
Continuous
370
    15
100
AcDbLine
 10
27.11243541362268
 20
-9.525000000000006
 30
0.0
 11
27.11243541362267
 21
5.95880775809385
 31
0.0
  0
SPLINE
  5
AA
330
1F
100
AcDbEntity
  8
외형선
  6
Continuous
370
    15
100
AcDbSpline
210
0.0
220
0.0
230
1.0
 70
    24
 71
     3
 72
    10
 73
     6
 74
     0
 42
0.000000001
 43
0.00000001
 40
0.0
 40
0.0
 40
0.0
 40
0.0
 40
0.5000000000000001
 40
0.5000000000000001
 40
1.0
 40
1.0
 40
1.0
 40
1.0
 10
30.16250000000002
 20
4.491270090970853
 30
0.0
 10
30.16250000000002
 20
4.393734757633734
 30
0.0
 10
30.16250000000002
 20
4.196630948229537
 30
0.0
 10
30.16250000000002
 20
3.641432750666211
 30
0.0
 10
30.16250000000002
 20
3.285430923391348
 30
0.0
 10
30.16250000000002
 20
2.899542126467241
 30
0.0
  0
SPLINE
  5
AB
330
1F
100
AcDbEntity
  8
외형선
  6
Continuous
370
    15
100
AcDbSpline
210
0.0
220
0.0
230
1.0
 70
     8
 71
     3
 72
    10
 73
     6
 74
     0
 42
0.000000001
 43
0.00000001
 40
0.0
 40
0.0
 40
0.0
 40
0.0
 40
0.5
 40
0.5
 40
1.0
 40
1.0
 40
1.0
 40
1.0
 10
30.16250000000001
 20
2.899542126467241
 30
0.0
 10
29.65552586511329
 20
3.084377749805821
 30
0.0
 10
29.14794689139889
 20
3.265164481679911
 30
0.0
 10
28.12919044958022
 20
3.61733742133981
 30
0.0
 10
27.61938844171586
 20
3.788553794792431
 30
0.0
 10
27.11241912847432
 20
3.953830027475288
 30
0.0
  0
SPLINE
  5
AC
330
1F
100
AcDbEntity
  8
외형선
  6
Continuous
370
    15
100
AcDbSpline
210
0.0
220
0.0
230
1.0
 70
     8
 71
     3
 72
    10
 73
     6
 74
     0
 42
0.000000001
 43
0.00000001
 40
0.0
 40
0.0
 40
0.0
 40
0.0
 40
0.5
 40
0.5
 40
1.0
 40
1.0
 40
1.0
 40
1.0
 10
30.16250000000002
 20
-6.861732912018293
 30
0.0
 10
29.65552446592993
 20
-6.759717360358612
 30
0.0
 10
29.14794408211866
 20
-6.647904421351385
 30
0.0
 10
28.12918482395038
 20
-6.405373026783971
 30
0.0
 10
27.61938141465421
 20
-6.274746872075881
 30
0.0
 10
27.11241073345417
 20
-6.135638306853288
 30
0.0
  0
SPLINE
  5
AD
330
1F
100
AcDbEntity
  8
외형선
  6
Continuous
370
    15
100
AcDbSpline
210
0.0
220
0.0
230
1.0
 70
    24
 71
     3
 72
    14
 73
    10
 74
     0
 42
0.000000001
 43
0.00000001
 40
0.0
 40
0.0
 40
0.0
 40
0.0
 40
0.2500000000000001
 40
0.2500000000000001
 40
0.5000000000000001
 40
0.5000000000000001
 40
0.75
 40
0.75
 40
1.0
 40
1.0
 40
1.0
 40
1.0
 10
30.16250000000001
 20
2.899542126467245
 30
0.0
 10
30.16250000000001
 20
2.07903748162766
 30
0.0
 10
30.16250000000001
 20
1.208066268783552
 30
0.0
 10
30.16250000000001
 20
-0.5619603268145835
 30
0.0
 10
30.16250000000001
 20
-1.460209842326089
 30
0.0
 10
30.16250000000001
 20
-3.195069845060182
 30
0.0
 10
30.16250000000001
 20
-4.030755926341901
 30
0.0
 10
30.16250000000001
 20
-5.562395622874676
 30
0.0
 10
30.16250000000001
 20
-6.257878198145706
 30
0.0
 10
30.16250000000001
 20
-6.861732912018289
 30
0.0
  0
SPLINE
  5
AE
330
1F
100
AcDbEntity
  8
외형선
  6
Continuous
370
    15
100
AcDbSpline
210
0.0
220
0.0
230
1.0
 70
    24
 71
     3
 72
    10
 73
     6
 74
     0
 42
0.000000001
 43
0.00000001
 40
0.0
 40
0.0
 40
0.0
 40
0.0
 40
0.1603614092942549
 40
0.6229088741819419
 40
1.0
 40
1.0
 40
1.0
 40
1.0
 10
30.16250000000002
 20
7.407752665167942
 30
0.0
 10
30.16250000000002
 20
7.416393413243816
 30
0.0
 10
30.16250000000002
 20
7.449957589810488
 30
0.0
 10
30.16250000000002
 20
7.234141496518025
 30
0.0
 10
30.16250000000002
 20
6.882817262100657
 30
0.0
 10
30.16250000000002
 20
6.725033600713372
 30
0.0
  0
SPLINE
  5
AF
330
1F
100
AcDbEntity
  8
외형선
  6
Continuous
370
    15
100
AcDbSpline
210
0.0
220
0.0
230
1.0
 70
    24
 71
     3
 72
    10
 73
     6
 74
     0
 42
0.000000001
 43
0.00000001
 40
0.0
 40
0.0
 40
0.0
 40
0.0
 40
0.3377607561240049
 40
0.6799143883909644
 40
1.0
 40
1.0
 40
1.0
 40
1.0
 10
30.16250000000002
 20
-6.861732912018291
 30
0.0
 10
30.16250000000002
 20
-6.977491809904614
 30
0.0
 10
30.16250000000002
 20
-7.210515152108095
 30
0.0
 10
30.16250000000002
 20
-7.413536933625184
 30
0.0
 10
30.16250000000002
 20
-7.409642418675791
 30
0.0
 10
30.16250000000002
 20
-7.407760050315678
 30
0.0
  0
SPLINE
  5
B0
330
1F
100
AcDbEntity
  8
0
  6
Continuous
 62
     1
370
    15
100
AcDbSpline
210
0.0
220
0.0
230
1.0
 70
     8
 71
     3
 72
    50
 73
    46
 74
     0
 42
0.000000001
 43
0.00000001
 40
0.0
 40
0.0
 40
0.0
 40
0.0
 40
0.0625
 40
0.0625
 40
0.125
 40
0.125
 40
0.1562499999999999
 40
0.1562499999999999
 40
0.1874999999999999
 40
0.1874999999999999
 40
0.2499999999999998
 40
0.2499999999999998
 40
0.2812499999999997
 40
0.2812499999999997
 40
0.3124999999999996
 40
0.3124999999999996
 40
0.3437499999999996
 40
0.3437499999999996
 40
0.3749999999999994
 40
0.3749999999999994
 40
0.4374999999999996
 40
0.4374999999999996
 40
0.4687499999999998
 40
0.4687499999999998
 40
0.4999999999999999
 40
0.4999999999999999
 40
0.53125
 40
0.53125
 40
0.5625000000000002
 40
0.5625000000000002
 40
0.6250000000000006
 40
0.6250000000000006
 40
0.6562500000000006
 40
0.6562500000000006
 40
0.6875000000000007
 40
0.6875000000000007
 40
0.7500000000000004
 40
0.7500000000000004
 40
0.8125000000000004
 40
0.8125000000000004
 40
0.8750000000000002
 40
0.8750000000000002
 40
0.9375000000000001
 40
0.9375000000000001
 40
1.0
 40
1.0
 40
1.0
 40
1.0
 10
30.16250000000002
 20
4.491270090970853
 30
0.0
 10
30.85514063678998
 20
4.137983493227241
 30
0.0
 10
31.55306643165653
 20
3.771836719246183
 30
0.0
 10
32.94285838756627
 20
3.022481861255943
 30
0.0
 10
33.63394097334925
 20
2.63946769058162
 30
0.0
 10
34.67782041260929
 20
2.054620466080808
 30
0.0
 10
35.02598620042158
 20
1.858134615124133
 30
0.0
 10
35.72064823495205
 20
1.463269168920801
 30
0.0
 10
36.06613448460374
 20
1.265084051527093
 30
0.0
 10
37.10619100818418
 20
0.6677216974141004
 30
0.0
 10
37.80423927972873
 20
0.2657472689551023
 30
0.0
 10
38.84584787599233
 20
-0.3356294864151121
 30
0.0
 10
39.19118646742297
 20
-0.5356400020031338
 30
0.0
 10
39.8848893591898
 20
-0.9352663710115552
 30
0.0
 10
40.23283332770454
 20
-1.134800335581994
 30
0.0
 10
40.92882922941959
 20
-1.532112710561768
 30
0.0
 10
41.27687977822507
 20
-1.729890329946497
 30
0.0
 10
41.97100687266861
 20
-2.122511812459684
 30
0.0
 10
42.31628492858827
 20
-2.31720890474567
 30
0.0
 10
43.35730369448019
 20
-2.89726909449851
 30
0.0
 10
44.05538354739109
 20
-3.278029425516212
 30
0.0
 10
45.09612278030129
 20
-3.833445566334069
 30
0.0
 10
45.44142742991092
 20
-4.015880011753581
 30
0.0
 10
46.13572726886987
 20
-4.375821186279063
 30
0.0
 10
46.48381776801273
 20
-4.553163529524098
 30
0.0
 10
47.17979993226967
 20
-4.901516989889952
 30
0.0
 10
47.52769021317991
 20
-5.072527418933509
 30
0.0
 10
48.22119315883154
 20
-5.407217354493029
 30
0.0
 10
48.5666115284806
 20
-5.570875253316302
 30
0.0
 10
49.60845879746913
 20
-6.051301578353256
 30
0.0
 10
50.30647932267439
 20
-6.356816515377091
 30
0.0
 10
51.34621557307967
 20
-6.787522766537039
 30
0.0
 10
51.6918347769244
 20
-6.92655596096593
 30
0.0
 10
52.3866422801358
 20
-7.19570886673007
 30
0.0
 10
52.73483426376073
 20
-7.325688351220502
 30
0.0
 10
53.77865189334219
 20
-7.700647492998471
 30
0.0
 10
54.46958083140501
 20
-7.930225962685975
 30
0.0
 10
55.85963640045153
 20
-8.346977608039545
 30
0.0
 10
56.55750671472823
 20
-8.533902825569744
 30
0.0
 10
57.94230682035403
 20
-8.860566040600837
 30
0.0
 10
58.63802060111992
 20
-9.001029193618624
 30
0.0
 10
60.02939002676956
 20
-9.233312409901709
 30
0.0
 10
60.72001432277543
 20
-9.324952979381877
 30
0.0
 10
62.11081657685819
 20
-9.458655723668995
 30
0.0
 10
62.80844586241804
 20
-9.500490630744101
 30
0.0
 10
63.50000000000001
 20
-9.524999999999997
 30
0.0
1001
PE_URL
1000

  0
SPLINE
  5
B1
330
1F
100
AcDbEntity
  8
0
  6
Continuous
 62
     1
370
    15
100
AcDbSpline
210
0.0
220
0.0
230
1.0
 70
     8
 71
     3
 72
    11
 73
     7
 74
     0
 42
0.000000001
 43
0.00000001
 40
0.0
 40
0.0
 40
0.0
 40
0.0
 40
0.0620423004600424
 40
0.3753077442692414
 40
0.687654097589427
 40
1.0
 40
1.0
 40
1.0
 40
1.0
 10
39.84212514880566
 20
-0.9062643980658327
 30
0.0
 10
39.64194300590628
 20
-0.827110493893442
 30
0.0
 10
38.43099647527373
 20
-0.3482908336815185
 30
0.0
 10
36.21225090866368
 20
0.558118270771638
 30
0.0
 10
33.18589188417023
 20
1.770572605643672
 30
0.0
 10
31.170296809764
 20
2.523219133948844
 30
0.0
 10
30.16250000000003
 20
2.899542126467236
 30
0.0
1001
PE_URL
1000

  0
SPLINE
  5
B2
330
1F
100
AcDbEntity
  8
외형선
  6
Continuous
370
    15
100
AcDbSpline
210
0.0
220
0.0
230
1.0
 70
    24
 71
     3
 72
    10
 73
     6
 74
     0
 42
0.000000001
 43
0.00000001
 40
0.0
 40
0.0
 40
0.0
 40
0.0
 40
0.4999999999999999
 40
0.4999999999999999
 40
1.0
 40
1.0
 40
1.0
 40
1.0
 10
30.16250000000002
 20
4.491270090970851
 30
0.0
 10
30.16250000000002
 20
4.393734757633732
 30
0.0
 10
30.16250000000002
 20
4.196630948229538
 30
0.0
 10
30.16250000000002
 20
3.64143275066621
 30
0.0
 10
30.16250000000002
 20
3.285430923391347
 30
0.0
 10
30.16250000000002
 20
2.899542126467241
 30
0.0
  0
SPLINE
  5
B3
330
1F
100
AcDbEntity
  8
0
  6
Continuous
 62
     1
370
    15
100
AcDbSpline
210
0.0
220
0.0
230
1.0
 70
     8
 71
     3
 72
    50
 73
    46
 74
     0
 42
0.000000001
 43
0.00000001
 40
0.0
 40
0.0
 40
0.0
 40
0.0
 40
0.0625000000000003
 40
0.0625000000000003
 40
0.1250000000000006
 40
0.1250000000000006
 40
0.1875000000000009
 40
0.1875000000000009
 40
0.2500000000000012
 40
0.2500000000000012
 40
0.3125000000000014
 40
0.3125000000000014
 40
0.3437500000000015
 40
0.3437500000000015
 40
0.3750000000000016
 40
0.3750000000000016
 40
0.4375000000000017
 40
0.4375000000000017
 40
0.4687500000000017
 40
0.4687500000000017
 40
0.5000000000000018
 40
0.5000000000000018
 40
0.5312500000000018
 40
0.5312500000000018
 40
0.5625000000000019
 40
0.5625000000000019
 40
0.6250000000000017
 40
0.6250000000000017
 40
0.6562500000000017
 40
0.6562500000000017
 40
0.6875000000000016
 40
0.6875000000000016
 40
0.7187500000000016
 40
0.7187500000000016
 40
0.7500000000000014
 40
0.7500000000000014
 40
0.8125000000000011
 40
0.8125000000000011
 40
0.8437500000000009
 40
0.8437500000000009
 40
0.8750000000000007
 40
0.8750000000000007
 40
0.9375000000000003
 40
0.9375000000000003
 40
1.0
 40
1.0
 40
1.0
 40
1.0
 10
63.50000000000002
 20
-9.03866177943385
 30
0.0
 10
62.80844586241799
 20
-8.912351113052424
 30
0.0
 10
62.11081657685806
 20
-8.761616824435066
 30
0.0
 10
60.72001432277521
 20
-8.414633241713238
 30
0.0
 10
60.02939002676927
 20
-8.218730647730615
 30
0.0
 10
58.63802060111952
 20
-7.783360776025853
 30
0.0
 10
57.94230682035356
 20
-7.544331576934124
 30
0.0
 10
56.55750671472764
 20
-7.028341605424171
 30
0.0
 10
55.8596364004509
 20
-6.750262630258614
 30
0.0
 10
54.46958083140427
 20
-6.160426206301474
 30
0.0
 10
53.7786518933414
 20
-5.848945063899296
 30
0.0
 10
52.73483426375984
 20
-5.358546435163001
 30
0.0
 10
52.38664228013489
 20
-5.191362542071117
 30
0.0
 10
51.69183477692341
 20
-4.850570119486806
 30
0.0
 10
51.34621557307866
 20
-4.67713282791485
 30
0.0
 10
50.30647932267329
 20
-4.147384825941728
 30
0.0
 10
49.60845879746797
 20
-3.781401488503627
 30
0.0
 10
48.56661152847936
 20
-3.219710796508513
 30
0.0
 10
48.22119315883027
 20
-3.030555200823907
 30
0.0
 10
47.52769021317859
 20
-2.647990816262017
 30
0.0
 10
47.17979993226831
 20
-2.454612399272894
 30
0.0
 10
46.48381776801132
 20
-2.06480664257673
 30
0.0
 10
46.13572726886844
 20
-1.868380075898971
 30
0.0
 10
45.44142742990941
 20
-1.473660386629772
 30
0.0
 10
45.09612278029976
 20
-1.275541932463078
 30
0.0
 10
44.05538354738947
 20
-0.6781235836125413
 30
0.0
 10
43.35730369447852
 20
-0.2761645376378517
 30
0.0
 10
42.31628492858653
 20
0.325107779376881
 30
0.0
 10
41.97100687266683
 20
0.5251167276418464
 30
0.0
 10
41.2768797782232
 20
0.9248583531888401
 30
0.0
 10
40.92882922941772
 20
1.124436396001083
 30
0.0
 10
40.23283332770261
 20
1.521810076010787
 30
0.0
 10
39.88488935918783
 20
1.719604923496483
 30
0.0
 10
39.19118646742095
 20
2.112235548108617
 30
0.0
 10
38.84584787599029
 20
2.306995824598515
 30
0.0
 10
37.80423927972659
 20
2.887339680707219
 30
0.0
 10
37.10619100818198
 20
3.268234379044404
 30
0.0
 10
36.06613448460147
 20
3.823782762088873
 30
0.0
 10
35.72064823494974
 20
4.006340854340282
 30
0.0
 10
35.0259862004192
 20
4.366538715901845
 30
0.0
 10
34.67782041260688
 20
4.543996439054635
 30
0.0
 10
33.63394097334676
 20
5.066837968311416
 30
0.0
 10
32.94285838756373
 20
5.402048922973446
 30
0.0
 10
31.55306643165387
 20
6.043249328288349
 30
0.0
 10
30.85514063678725
 20
6.349032293624395
 30
0.0
 10
30.16249999999724
 20
6.636407126729273
 30
0.0
1001
PE_URL
1000

  0
SPLINE
  5
B4
330
1F
100
AcDbEntity
  8
0
  6
Continuous
 62
     1
370
    15
100
AcDbSpline
210
0.0
220
0.0
230
1.0
 70
     8
 71
     3
 72
    16
 73
    12
 74
     0
 42
0.000000001
 43
0.00000001
 40
0.0
 40
0.0
 40
0.0
 40
0.0
 40
0.1225976334488152
 40
0.2451951871495047
 40
0.3677926619651266
 40
0.4903900587591216
 40
0.6129873783953078
 40
0.7355846217378786
 40
0.8581817896513958
 40
0.9807788830007869
 40
1.0
 40
1.0
 40
1.0
 40
1.0
 10
63.50000000000003
 20
-7.51496081810726
 30
0.0
 10
62.48922841701238
 20
-7.305906196790215
 30
0.0
 10
60.46768590853053
 20
-6.887797090143369
 30
0.0
 10
57.43537349678414
 20
-5.960760771634011
 30
0.0
 10
54.40306330453458
 20
-4.851145971440259
 30
0.0
 10
51.37075533357525
 20
-3.57307286194936
 30
0.0
 10
48.33844955447692
 20
-2.176568681865435
 30
0.0
 10
45.30614593600897
 20
-0.7040452027468991
 30
0.0
 10
42.27384448530313
 20
0.7833373604986357
 30
0.0
 10
40.09384011396072
 20
1.857218894084318
 30
0.0
 10
38.92460297004012
 20
2.388858795130073
 30
0.0
 10
38.76613217924478
 20
2.460913806361225
 30
0.0
1001
PE_URL
1000

  0
LINE
  5
B5
330
1F
100
AcDbEntity
  8
0
  6
Continuous
 62
     1
370
    15
100
AcDbLine
 10
63.50000000000002
 20
-9.038661779433856
 30
0.0
 11
63.50000000000002
 21
-7.51496081810726
 31
0.0
1001
PE_URL
1000

  0
LINE
  5
B6
330
1F
100
AcDbEntity
  8
0
  6
Continuous
 62
     1
370
    15
100
AcDbLine
 10
63.50000000000002
 20
-9.525
 30
0.0
 11
63.50000000000002
 21
-9.038661779433856
 31
0.0
1001
PE_URL
1000

  0
SPLINE
  5
B7
330
1F
100
AcDbEntity
  8
0
  6
Continuous
 62
     1
370
    15
100
AcDbSpline
210
0.0
220
0.0
230
1.0
 70
     8
 71
     3
 72
    12
 73
     8
 74
     0
 42
0.000000001
 43
0.00000001
 40
0.0
 40
0.0
 40
0.0
 40
0.0
 40
0.5000000000000012
 40
0.5000000000000012
 40
0.7500000000000006
 40
0.7500000000000006
 40
1.0
 40
1.0
 40
1.0
 40
1.0
 10
63.50000000000002
 20
-2.545489060932367
 30
0.0
 10
62.64179496967378
 20
-1.87079826115645
 30
0.0
 10
61.79573740577397
 20
-1.172677160324452
 30
0.0
 10
60.54492402574463
 20
-0.0902502097417898
 30
0.0
 10
60.13107042667419
 20
0.2765076356954232
 30
0.0
 10
59.30998841918662
 20
1.022802140366356
 30
0.0
 10
58.90138535338718
 20
1.403657852354435
 30
0.0
 10
58.50000000000001
 20
1.78848616933086
 30
0.0
1001
PE_URL
1000

  0
LINE
  5
B8
330
1F
100
AcDbEntity
  8
0
  6
Continuous
 62
     1
370
    15
100
AcDbLine
 10
58.50000000000002
 20
2.937719435296588
 30
0.0
 11
63.50000000000002
 21
0.0
 31
0.0
1001
PE_URL
1000

  0
LINE
  5
B9
330
1F
100
AcDbEntity
  8
0
  6
Continuous
 62
     1
370
    15
100
AcDbLine
 10
63.50000000000002
 20
0.0
 30
0.0
 11
63.50000000000002
 21
-2.545489060932368
 31
0.0
1001
PE_URL
1000

  0
SPLINE
  5
BA
330
1F
100
AcDbEntity
  8
0
  6
Continuous
 62
     1
370
    15
100
AcDbSpline
210
0.0
220
0.0
230
1.0
 70
     8
 71
     3
 72
    16
 73
    12
 74
     0
 42
0.000000001
 43
0.00000001
 40
0.0
 40
0.0
 40
0.0
 40
0.0
 40
0.0896858394237291
 40
0.1794933573908341
 40
0.3123232043294077
 40
0.4451529664663981
 40
0.5779826447517863
 40
0.7108122401359617
 40
0.8436417535697167
 40
0.9764711860042428
 40
1.0
 40
1.0
 40
1.0
 40
1.0
 10
58.50000000000001
 20
2.27396250458874
 30
0.0
 10
57.81773314691512
 20
2.571610342539749
 30
0.0
 10
56.4522737958786
 20
3.167309843121265
 30
0.0
 10
54.07571319311585
 20
4.135078431471559
 30
0.0
 10
51.370764024842
 20
5.140027596331377
 30
0.0
 10
48.33846891343742
 20
6.0922280801333
 30
0.0
 10
45.30616698647447
 20
6.838001631866608
 30
0.0
 10
42.27386953714623
 20
7.359449629951765
 30
0.0
 10
39.2415738530674
 20
7.610082977290538
 30
0.0
 10
37.04100118779713
 20
7.668027763437363
 30
0.0
 10
35.85119496062384
 20
7.565773416208554
 30
0.0
 10
35.67215272876665
 20
7.550386165640497
 30
0.0
1001
PE_URL
1000

  0
SPLINE
  5
BB
330
1F
100
AcDbEntity
  8
0
  6
Continuous
 62
     1
370
    15
100
AcDbSpline
210
0.0
220
0.0
230
1.0
 70
    24
 71
     3
 72
     8
 73
     4
 74
     0
 42
0.000000001
 43
0.00000001
 40
0.0
 40
0.0
 40
0.0
 40
0.0
 40
1.0
 40
1.0
 40
1.0
 40
1.0
 10
58.50000000000001
 20
1.788486169330773
 30
0.0
 10
58.50000000000001
 20
1.951691093477693
 30
0.0
 10
58.50000000000001
 20
2.113595766767045
 30
0.0
 10
58.50000000000001
 20
2.273962504588742
 30
0.0
1001
PE_URL
1000

  0
SPLINE
  5
BC
330
1F
100
AcDbEntity
  8
0
  6
Continuous
 62
     1
370
    15
100
AcDbSpline
210
0.0
220
0.0
230
1.0
 70
    24
 71
     3
 72
    10
 73
     6
 74
     0
 42
0.000000001
 43
0.00000001
 40
0.0
 40
0.0
 40
0.0
 40
0.0
 40
0.5
 40
0.5
 40
1.0
 40
1.0
 40
1.0
 40
1.0
 10
63.50000000000002
 20
-7.51496081810726
 30
0.0
 10
63.50000000000001
 20
-6.938880480261243
 30
0.0
 10
63.50000000000002
 20
-6.210980884209117
 30
0.0
 10
63.50000000000002
 20
-4.518684375910228
 30
0.0
 10
63.50000000000001
 20
-3.555753395063727
 30
0.0
 10
63.50000000000002
 20
-2.545489060932671
 30
0.0
1001
PE_URL
1000

  0
SPLINE
  5
BD
330
1F
100
AcDbEntity
  8
외형선
  6
Continuous
370
    15
100
AcDbSpline
210
0.0
220
0.0
230
1.0
 70
    24
 71
     3
 72
    10
 73
     6
 74
     0
 42
0.000000001
 43
0.00000001
 40
0.0
 40
0.0
 40
0.0
 40
0.0
 40
0.1622858226734687
 40
0.6237731498545228
 40
0.9999999999999999
 40
0.9999999999999999
 40
0.9999999999999999
 40
0.9999999999999999
 10
30.16250000000002
 20
7.4075408209204
 30
0.0
 10
30.16250000000002
 20
7.416343655805968
 30
0.0
 10
30.16250000000002
 20
7.450178848269258
 30
0.0
 10
30.16250000000002
 20
7.234216117058308
 30
0.0
 10
30.16250000000002
 20
6.88284038863662
 30
0.0
 10
30.16250000000002
 20
6.725033600713372
 30
0.0
  0
SPLINE
  5
BE
330
1F
100
AcDbEntity
  8
0
  6
Continuous
 62
     1
370
    15
100
AcDbSpline
210
0.0
220
0.0
230
1.0
 70
    24
 71
     3
 72
    10
 73
     6
 74
     0
 42
0.000000001
 43
0.00000001
 40
0.0
 40
0.0
 40
0.0
 40
0.0
 40
0.5000000000000001
 40
0.5000000000000001
 40
1.0
 40
1.0
 40
1.0
 40
1.0
 10
58.50000000000002
 20
2.273962504588737
 30
0.0
 10
58.50000000000002
 20
2.801767246870175
 30
0.0
 10
58.50000000000002
 20
3.304266617507629
 30
0.0
 10
58.50000000000002
 20
4.221095501631599
 30
0.0
 10
58.50000000000002
 20
4.635160569708957
 30
0.0
 10
58.50000000000002
 20
4.989159483222095
 30
0.0
1001
PE_URL
1000

  0
SPLINE
  5
BF
330
1F
100
AcDbEntity
  8
0
  6
Continuous
 62
     1
370
    15
100
AcDbSpline
210
0.0
220
0.0
230
1.0
 70
     8
 71
     3
 72
     9
 73
     5
 74
     0
 42
0.000000001
 43
0.00000001
 40
0.0
 40
0.0
 40
0.0
 40
0.0
 40
0.8559677414051317
 40
1.0
 40
1.0
 40
1.0
 40
1.0
 10
63.50000000000002
 20
6.667499999999995
 30
0.0
 10
62.48922982964078
 20
6.661568537464722
 30
0.0
 10
61.30837905517119
 20
6.654638997660412
 30
0.0
 10
60.12752840439749
 20
6.518718744628253
 30
0.0
 10
59.95744781810333
 20
6.499141843595244
 30
0.0
1001
PE_URL
1000

  0
SPLINE
  5
C0
330
1F
100
AcDbEntity
  8
0
  6
Continuous
 62
     1
370
    15
100
AcDbSpline
210
0.0
220
0.0
230
1.0
 70
     8
 71
     3
 72
    10
 73
     6
 74
     0
 42
0.000000001
 43
0.00000001
 40
0.0
 40
0.0
 40
0.0
 40
0.0
 40
0.5
 40
0.5
 40
1.0
 40
1.0
 40
1.0
 40
1.0
 10
63.50000000000002
 20
6.667499999999999
 30
0.0
 10
62.65705417514778
 20
6.438941566832859
 30
0.0
 10
61.81842461786649
 20
6.186028406994861
 30
0.0
 10
60.15034462458525
 20
5.628489846077759
 30
0.0
 10
59.32174154135762
 20
5.324646660889361
 30
0.0
 10
58.50000000000002
 20
4.989159483222093
 30
0.0
1001
PE_URL
1000

  0
SPLINE
  5
C1
330
1F
100
AcDbEntity
  8
0
  6
Continuous
 62
     1
370
    15
100
AcDbSpline
210
0.0
220
0.0
230
1.0
 70
     8
 71
     3
 72
    12
 73
     8
 74
     0
 42
0.000000001
 43
0.00000001
 40
0.0
 40
0.0
 40
0.0
 40
0.0
 40
0.080518729356435
 40
0.3107270712697085
 40
0.5409352728022961
 40
0.7704677978087786
 40
1.0
 40
1.0
 40
1.0
 40
1.0
 10
43.33445870999959
 20
-7.134640100344511
 30
0.0
 10
42.98092876721822
 20
-7.197748427359898
 30
0.0
 10
41.61663347089875
 20
-7.441287611136836
 30
0.0
 10
39.24157380808522
 20
-7.615045783385171
 30
0.0
 10
36.21224571071708
 20
-7.636301514268824
 30
0.0
 10
33.18588869084969
 20
-7.401619175207542
 30
0.0
 10
31.17029575782688
 20
-7.041694915381551
 30
0.0
 10
30.16250000000002
 20
-6.861732912018293
 30
0.0
1001
PE_URL
1000

  0
SPLINE
  5
C2
330
1F
100
AcDbEntity
  8
외형선
  6
Continuous
370
    15
100
AcDbSpline
210
0.0
220
0.0
230
1.0
 70
    24
 71
     3
 72
    14
 73
    10
 74
     0
 42
0.000000001
 43
0.00000001
 40
0.0
 40
0.0
 40
0.0
 40
0.0
 40
0.2500000000000001
 40
0.2500000000000001
 40
0.5000000000000001
 40
0.5000000000000001
 40
0.75
 40
0.75
 40
1.0
 40
1.0
 40
1.0
 40
1.0
 10
30.16250000000001
 20
2.899542126467245
 30
0.0
 10
30.16250000000001
 20
2.07903748162766
 30
0.0
 10
30.16250000000001
 20
1.208066268783552
 30
0.0
 10
30.16250000000001
 20
-0.5619603268145835
 30
0.0
 10
30.16250000000001
 20
-1.460209842326089
 30
0.0
 10
30.16250000000001
 20
-3.195069845060182
 30
0.0
 10
30.16250000000001
 20
-4.030755926341901
 30
0.0
 10
30.16250000000001
 20
-5.562395622874676
 30
0.0
 10
30.16250000000001
 20
-6.257878198145706
 30
0.0
 10
30.16250000000001
 20
-6.861732912018289
 30
0.0
  0
LINE
  5
C3
330
1F
100
AcDbEntity
  8
0
  6
Continuous
 62
     1
370
    15
100
AcDbLine
 10
63.50000000000002
 20
0.0
 30
0.0
 11
63.50000000000002
 21
6.6675
 31
0.0
1001
PE_URL
1000

  0
SPLINE
  5
C4
330
1F
100
AcDbEntity
  8
외형선
  6
Continuous
370
    15
100
AcDbSpline
210
0.0
220
0.0
230
1.0
 70
    24
 71
     3
 72
    10
 73
     6
 74
     0
 42
0.000000001
 43
0.00000001
 40
0.0
 40
0.0
 40
0.0
 40
0.0
 40
0.3389243215902955
 40
0.6822566525173379
 40
1.0
 40
1.0
 40
1.0
 40
1.0
 10
30.16250000000002
 20
-6.861732912018293
 30
0.0
 10
30.16250000000002
 20
-6.977474981645418
 30
0.0
 10
30.16250000000002
 20
-7.21046444846417
 30
0.0
 10
30.16250000000002
 20
-7.413039430417936
 30
0.0
 10
30.16250000000002
 20
-7.409280628343208
 30
0.0
 10
30.16250000000002
 20
-7.407473975349071
 30
0.0
  0
SPLINE
  5
C5
330
1F
100
AcDbEntity
  8
0
  6
Continuous
 62
     1
370
    15
100
AcDbSpline
210
0.0
220
0.0
230
1.0
 70
    24
 71
     3
 72
    10
 73
     6
 74
     0
 42
0.000000001
 43
0.00000001
 40
0.0
 40
0.0
 40
0.0
 40
0.0
 40
0.5
 40
0.5
 40
1.0
 40
1.0
 40
1.0
 40
1.0
 10
63.50000000000002
 20
6.667499999999995
 30
0.0
 10
63.50000000000001
 20
7.071667246089658
 30
0.0
 10
63.50000000000002
 20
7.541347015959285
 30
0.0
 10
63.50000000000001
 20
8.526733908152146
 30
0.0
 10
63.50000000000003
 20
9.039924476009018
 30
0.0
 10
63.50000000000002
 20
9.525
 30
0.0
1001
PE_URL
1000

  0
SPLINE
  5
C6
330
1F
100
AcDbEntity
  8
0
  6
Continuous
 62
     1
370
    15
100
AcDbSpline
210
0.0
220
0.0
230
1.0
 70
     8
 71
     3
 72
    14
 73
    10
 74
     0
 42
0.000000001
 43
0.00000001
 40
0.0
 40
0.0
 40
0.0
 40
0.0
 40
0.0683617093832907
 40
0.1737780423976594
 40
0.3772167457009367
 40
0.5814036825133976
 40
0.7901400062557641
 40
0.8948893292058031
 40
1.0
 40
1.0
 40
1.0
 40
1.0
 10
50.41015867846409
 20
6.384103990048739
 30
0.0
 10
50.7084650787831
 20
6.514702926697833
 30
0.0
 10
51.46677119414775
 20
6.846690347065688
 30
0.0
 10
53.11217641079114
 20
7.476238611104457
 30
0.0
 10
55.35102891990616
 20
8.231053320131885
 30
0.0
 10
58.0403958527401
 20
8.913445030345525
 30
0.0
 10
60.29945689663116
 20
9.286402096210194
 30
0.0
 10
62.12599778754651
 20
9.465138698143862
 30
0.0
 10
63.04147382444179
 20
9.4996594961881
 30
0.0
 10
63.50000000000002
 20
9.525
 30
0.0
1001
PE_URL
1000

  0
LINE
  5
C7
330
1F
100
AcDbEntity
  8
중심선
 62
     1
100
AcDbLine
 10
-70.5
 20
-0.0000000000000093
 30
0.0
 11
70.5
 21
0.0000000000000064
 31
0.0
  0
LINE
  5
C8
330
1F
100
AcDbEntity
  8
참조1
100
AcDbLine
 10
0.0
 20
-0.0000000000000086
 30
0.0
 11
0.0000000000000071
 21
-40.00000000000001
 31
0.0
  0
LINE
  5
C9
330
1F
100
AcDbEntity
  8
참조1
100
AcDbLine
 10
0.0000000000000071
 20
-40.00000000000001
 30
0.0
 11
-9.703215596699206
 21
-40.0
 31
0.0
  0
CIRCLE
  5
CA
330
1F
100
AcDbEntity
  8
해칭선
100
AcDbCircle
 10
0.0
 20
0.0
 30
0.0
 40
3.000000000000001
  0
INSERT
  5
CB
330
1F
100
AcDbEntity
  8
0
  6
Continuous
 62
     7
100
AcDbBlockReference
 66
     1
  2
블럭10
 10
-13.94027293212521
 20
-52.04717430164393
 30
0.0
  0
ATTRIB
  5
CC
330
CB
100
AcDbEntity
  8
FORMAT
 62
     2
100
AcDbText
 10
-23.12156822086649
 20
-49.97180738881174
 30
0.0
 40
4.233333333333333
  1
E2050048 [ 2 FLUTE ]
 41
0.75
  7
SLDTEXTSTYLE0
 11
-23.12156822086649
 21
-52.08847405547841
 31
0.0
100
AcDbAttribute
  2
AUTOATTR0
 70
     0
 74
     1
  0
SEQEND
  5
CD
330
CB
100
AcDbEntity
  8
0
  6
Continuous
 62
     7
  0
HATCH
  5
CE
330
1F
100
AcDbEntity
  8
중심선
100
AcDbHatch
 10
0.0
 20
0.0
 30
0.0
210
0.0
220
0.0
230
1.0
  2
SOLID
 70
     1
 71
     0
 91
        1
 92
        0
 93
        4
 72
     1
 10
-8.225363627744372
 20
-35.8
 11
-11.67163887158165
 21
-35.8
 72
     1
 10
-11.67163887158165
 20
-35.8
 11
-13.79986873078568
 21
-38.3363255805726
 72
     1
 10
-13.79986873078568
 20
-38.3363255805726
 11
-10.35356040183525
 21
-38.33628615127011
 72
     1
 10
-10.35356040183525
 20
-38.33628615127011
 11
-8.225363627744372
 21
-35.8
 97
        0
 75
     0
 76
     1
 98
        1
 10
19.75671167873053
 20
-0.0010749287238978
  0
HATCH
  5
CF
330
1F
100
AcDbEntity
  8
중심선
100
AcDbHatch
 10
0.0
 20
0.0
 30
0.0
210
0.0
220
0.0
230
1.0
  2
SOLID
 70
     1
 71
     0
 91
        1
 92
        0
 93
        4
 72
     1
 10
-3.212599636708418
 20
-35.79999999999998
 11
-6.658874880545675
 21
-35.8
 72
     1
 10
-6.658874880545675
 20
-35.8
 11
-11.19001288890309
 21
-41.20000000000002
 72
     1
 10
-11.19001288890309
 20
-41.20000000000002
 11
-7.743737645065806
 21
-41.20000000000002
 72
     1
 10
-7.743737645065806
 20
-41.20000000000002
 11
-3.212599636708418
 21
-35.79999999999998
 97
        0
 75
     0
 76
     1
 98
        1
 10
19.75671167873053
 20
-0.0010749287238978
  0
HATCH
  5
D0
330
1F
100
AcDbEntity
  8
중심선
100
AcDbHatch
 10
0.0
 20
0.0
 30
0.0
210
0.0
220
0.0
230
1.0
  2
SOLID
 70
     1
 71
     0
 91
        1
 92
        0
 93
        4
 72
     1
 10
1.80016435432745
 20
-35.80000000000003
 11
-1.646110889509639
 21
-35.8
 72
     1
 10
-1.646110889509639
 20
-35.8
 11
-8.69454779139889
 21
-44.20000000000002
 72
     1
 10
-8.69454779139889
 20
-44.20000000000002
 11
-5.248272547561605
 21
-44.20000000000002
 72
     1
 10
-5.248272547561605
 20
-44.20000000000002
 11
1.80016435432745
 21
-35.80000000000003
 97
        0
 75
     0
 76
     1
 98
        1
 10
19.75671167873053
 20
-0.0010749287238978
  0
HATCH
  5
D1
330
1F
100
AcDbEntity
  8
중심선
100
AcDbHatch
 10
0.0
 20
0.0
 30
0.0
210
0.0
220
0.0
230
1.0
  2
SOLID
 70
     1
 71
     0
 91
        1
 92
        0
 93
        6
 72
     3
 10
6.600054785339676
 20
-40.00000000005127
 11
3.960054785062283
 21
1.540882976769353E-10
 40
0.3939339440162628
 50
17.09539180608436
 51
320.0019657685082
 73
     0
 72
     1
 10
8.283054441040242
 20
-38.58789400463833
 11
10.58835631474131
 21
-36.65356729459038
 72
     3
 10
6.600054785286829
 20
-40.00000000000015
 11
6.600054785286829
 21
-1.278976924368180E-13
 40
0.636358354079598
 50
39.99873849337411
 51
368.4976242363724
 73
     1
 72
     1
 10
13.02538727718744
 20
-39.03999999993002
 11
5.280122092122751
 21
-39.03999999993002
 72
     1
 10
5.280122092122751
 20
-39.03999999993002
 11
5.280097047676817
 21
-40.95999999992991
 72
     1
 10
5.280097047676817
 20
-40.95999999992991
 11
9.721476817148854
 21
-40.95999999992988
 97
        0
 75
     0
 76
     1
 98
        1
 10
19.75671167873053
 20
-0.0010749287238978
  0
DIMENSION
  5
D2
330
1F
100
AcDbEntity
  8
치수문자_일반주서
100
AcDbDimension
  2
_D
 10
-78.49999999999989
 20
-9.525000000000198
 30
0.0
 11
-78.50000000000004
 21
31.75399999999994
 31
0.0
 70
   160
  1
%%c<>
 71
     2
 42
19.05
 52
-270.0
  3
SLDDIMSTYLE0
100
AcDbAlignedDimension
 13
-27.11243541362269
 23
9.52499999999999
 33
0.0
 14
-27.11243541362268
 24
-9.525000000000006
 34
0.0
 50
90.0000000000002
100
AcDbRotatedDimension
1001
PE_URL
1000

1001
ACAD
1000
DSTYLE
1002
{
1070
   171
1070
     8
1070
   273
1070
     7
1070
   140
1040
4.0
1002
}
  0
DIMENSION
  5
E7
330
1F
100
AcDbEntity
  8
치수문자_일반주서
100
AcDbDimension
  2
_D_1
 10
113.9152757408952
 20
9.525000000000187
 30
0.0
 11
113.9152757408951
 21
31.75400000000019
 31
0.0
 70
   160
  1
%%c<>
 71
     2
 42
19.05
 52
-270.0
  3
SLDDIMSTYLE0
100
AcDbAlignedDimension
 13
63.50000000000002
 23
-9.525
 33
0.0
 14
63.50000000000002
 24
9.525
 34
0.0
 50
90.0000000000002
100
AcDbRotatedDimension
1001
PE_URL
1000

1001
ACAD
1000
DSTYLE
1002
{
1070
   171
1070
     8
1070
   273
1070
     7
1070
   140
1040
4.0
1002
}
  0
DIMENSION
  5
FB
330
1F
100
AcDbEntity
  8
치수문자_일반주서
100
AcDbDimension
  2
_D_2
 10
30.16250000000002
 20
24.525
 30
0.0
 11
88.47900000000003
 21
24.525
 31
0.0
 70
   160
  1
<>
 71
     2
 42
33.33750000000001
  3
SLDDIMSTYLE0
100
AcDbAlignedDimension
 13
63.50000000000002
 23
9.525
 33
0.0
 14
30.16250000000002
 24
7.440963044024604
 34
0.0
100
AcDbRotatedDimension
1001
PE_URL
1000

1001
ACAD
1000
DSTYLE
1002
{
1070
   171
1070
     8
1070
   273
1070
     7
1070
   140
1040
4.0
1002
}
  0
DIMENSION
  5
10F
330
1F
100
AcDbEntity
  8
치수문자_일반주서
100
AcDbDimension
  2
_D_3
 10
63.50000000000003
 20
39.52499999999999
 30
0.0
 11
0.0000000000000142
 21
39.52499999999999
 31
0.0
 70
   160
  1
<>
 71
     2
 42
126.9755536026697
  3
SLDDIMSTYLE0
100
AcDbAlignedDimension
 13
-63.47555360266973
 23
9.516357283535713
 33
0.0
 14
63.50000000000002
 24
9.525
 34
0.0
 50
-0.0000000000000064
100
AcDbRotatedDimension
1001
PE_URL
1000

1001
ACAD
1000
DSTYLE
1002
{
1070
   171
1070
     8
1070
   273
1070
     7
1070
   140
1040
4.0
1002
}
  0
LINE
  5
122
330
1F
100
AcDbEntity
  8
참조1
100
AcDbLine
 10
88.26912503295506
 20
7.439999999999998
 30
0.0
 11
88.26912503295506
 21
-7.440000000000007
 31
0.0
  0
LINE
  5
123
330
1F
100
AcDbEntity
  8
참조1
100
AcDbLine
 10
100.9691250329551
 20
5.439999999999998
 30
0.0
 11
88.26912503295506
 21
5.439999999999998
 31
0.0
  0
SOLID
  5
124
330
1F
100
AcDbEntity
  8
참조1
100
AcDbTrace
 10
88.26912503295506
 20
5.439999999999998
 30
0.0
 11
94.61912503295505
 21
4.423999999999998
 31
0.0
 12
94.61912503295505
 22
6.455999999999998
 32
0.0
 13
94.61912503295505
 23
6.455999999999998
 33
0.0
  0
LINE
  5
125
330
1F
100
AcDbEntity
  8
참조1
100
AcDbLine
 10
100.9691250329551
 20
-5.440000000000007
 30
0.0
 11
88.26912503295506
 21
-5.440000000000007
 31
0.0
  0
SOLID
  5
126
330
1F
100
AcDbEntity
  8
참조1
100
AcDbTrace
 10
88.26912503295506
 20
-5.440000000000007
 30
0.0
 11
94.61912503295505
 21
-6.456000000000007
 31
0.0
 12
94.61912503295505
 22
-4.424000000000007
 32
0.0
 13
94.61912503295505
 23
-4.424000000000007
 33
0.0
  0
MTEXT
  5
127
330
1F
100
AcDbEntity
  8
참조1
100
AcDbMText
 10
97.65347516558106
 20
11.01029177718832
 30
0.0
 40
3.5
 41
0.0
 71
     1
 72
     1
  1
A
  7
SLDTEXTSTYLE0
 73
     1
 44
1.0
  0
MTEXT
  5
128
330
1F
100
AcDbEntity
  8
참조1
100
AcDbMText
 10
97.65347516558106
 20
0.1302917771883214
 30
0.0
 40
3.5
 41
0.0
 71
     1
 72
     1
  1
A
  7
SLDTEXTSTYLE0
 73
     1
 44
1.0
  0
INSERT
  5
12F
330
1F
100
AcDbEntity
  8
해칭선
100
AcDbBlockReference
  2
SW_DOWELSYMBOL_0
 10
0.0
 20
0.0
 30
0.0
  0
LINE
  5
1A4
330
1F
100
AcDbEntity
  8
외형선
  6
Continuous
370
    15
100
AcDbLine
 10
-5.791200000000003
 20
7.619999999999978
 30
0.0
 11
5.791200000000003
 21
7.619999999999978
 31
0.0
1001
PE_URL
1000

  0
LINE
  5
1A5
330
1F
100
AcDbEntity
  8
외형선
  6
Continuous
370
    15
100
AcDbLine
 10
-5.791200000000003
 20
7.619999999999964
 30
0.0
 11
-7.696200000000147
 21
9.524999999999993
 31
0.0
1001
PE_URL
1000

  0
LINE
  5
1A6
330
1F
100
AcDbEntity
  8
외형선
  6
Continuous
370
    15
100
AcDbLine
 10
5.791200000000003
 20
7.619999999999964
 30
0.0
 11
7.696199999999976
 21
9.524999999999993
 31
0.0
1001
PE_URL
1000

  0
LINE
  5
213
330
1F
100
AcDbEntity
  8
외형선
  6
Continuous
370
    15
100
AcDbLine
 10
-7.696200000000143
 20
9.524999999999993
 30
0.0
 11
-27.11243541362269
 21
9.524999999999991
 31
0.0
  0
SPLINE
  5
247
330
1F
100
AcDbEntity
  8
외형선
  6
Continuous
370
    15
100
AcDbSpline
210
0.0
220
0.0
230
1.0
 70
     8
 71
     3
 72
     9
 73
     5
 74
     0
 42
0.000000001
 43
0.00000001
 40
0.0
 40
0.0
 40
0.0
 40
0.0
 40
0.5887517481144153
 40
1.0
 40
1.0
 40
1.0
 40
1.0
 10
-30.16250000000008
 20
-7.440962401348941
 30
0.0
 10
-29.7271834376397
 20
-7.445495677371994
 30
0.0
 10
-28.98779444430837
 20
-7.453195486396041
 30
0.0
 10
-28.24832083820899
 20
-7.476919162271656
 30
0.0
 10
-27.9442136103851
 20
-7.486675482503799
 30
0.0
  0
SPLINE
  5
248
330
1F
100
AcDbEntity
  8
외형선
  6
Continuous
370
    15
100
AcDbSpline
210
0.0
220
0.0
230
1.0
 70
     8
 71
     3
 72
    11
 73
     7
 74
     0
 42
0.000000001
 43
0.00000001
 40
0.0
 40
0.0
 40
0.0
 40
0.0
 40
0.120624687819201
 40
0.6810330012536422
 40
0.8581246620479975
 40
1.0
 40
1.0
 40
1.0
 40
1.0
 10
-27.37781276029368
 20
-7.685947985484802
 30
0.0
 10
-27.36405330923621
 20
-7.698870667081948
 30
0.0
 10
-27.28636904394457
 20
-7.771830629022261
 30
0.0
 10
-27.18728088436184
 20
-7.881471093736891
 30
0.0
 10
-27.11822493913131
 20
-7.967311853638641
 30
0.0
 10
-27.11421778217418
 20
-7.976797997136465
 30
0.0
 10
-27.11243541362271
 20
-7.981017398578956
 30
0.0
  0
SPLINE
  5
249
330
1F
100
AcDbEntity
  8
외형선
  6
Continuous
370
    15
100
AcDbSpline
210
0.0
220
0.0
230
1.0
 70
     8
 71
     3
 72
     9
 73
     5
 74
     0
 42
0.000000001
 43
0.00000001
 40
0.0
 40
0.0
 40
0.0
 40
0.0
 40
0.5003342574920764
 40
1.0
 40
1.0
 40
1.0
 40
1.0
 10
-27.09411665536403
 20
7.515836549150393
 30
0.0
 10
-27.60587573860115
 20
7.496846160231396
 30
0.0
 10
-28.6287101249618
 20
7.458890756149763
 30
0.0
 10
-29.65146461722171
 20
7.446935855605822
 30
0.0
 10
-30.16250000000006
 20
7.440962401348926
 30
0.0
  0
SPLINE
  5
24A
330
1F
100
AcDbEntity
  8
0
  6
Continuous
 62
     1
370
    15
100
AcDbSpline
210
0.0
220
0.0
230
1.0
 70
     8
 71
     3
 72
    10
 73
     6
 74
     0
 42
0.000000001
 43
0.00000001
 40
0.0
 40
0.0
 40
0.0
 40
0.0
 40
0.4242458144893556
 40
0.5976841977098416
 40
1.0
 40
1.0
 40
1.0
 40
1.0
 10
-38.82353098374396
 20
-2.440730809549034
 30
0.0
 10
-38.45019546462964
 20
-2.618474483349051
 30
0.0
 10
-37.92423449436758
 20
-2.868882575650513
 30
0.0
 10
-37.04166675351259
 20
-3.310822907247569
 30
0.0
 10
-36.53471578273912
 20
-3.576653838744445
 30
0.0
 10
-36.18047713079147
 20
-3.762406695033015
 30
0.0
1001
PE_URL
1000

  0
SPLINE
  5
24B
330
1F
100
AcDbEntity
  8
0
  6
Continuous
 62
     1
370
    15
100
AcDbSpline
210
0.0
220
0.0
230
1.0
 70
     8
 71
     3
 72
     9
 73
     5
 74
     0
 42
0.000000001
 43
0.00000001
 40
0.0
 40
0.0
 40
0.0
 40
0.0
 40
0.4710006023559119
 40
1.0
 40
1.0
 40
1.0
 40
1.0
 10
-35.67515411292575
 20
-7.568941700598117
 30
0.0
 10
-34.82148321571336
 20
-7.528590666378854
 30
0.0
 10
-33.00902078372836
 20
-7.442919790338721
 30
0.0
 10
-31.14733216036181
 20
-7.441639613909089
 30
0.0
 10
-30.16250000000005
 20
-7.440962401348941
 30
0.0
1001
PE_URL
1000

  0
SPLINE
  5
24C
330
1F
100
AcDbEntity
  8
0
  6
Continuous
 62
     1
370
    15
100
AcDbSpline
210
0.0
220
0.0
230
1.0
 70
     8
 71
     3
 72
    29
 73
    25
 74
     0
 42
0.000000001
 43
0.00000001
 40
0.0
 40
0.0
 40
0.0
 40
0.0
 40
0.0739290946452234
 40
0.1385693113104073
 40
0.1930651827163543
 40
0.2373216836906979
 40
0.2770383822718323
 40
0.3177887980433727
 40
0.3748179739593687
 40
0.4344139612432656
 40
0.4797793053686909
 40
0.5093744805750264
 40
0.5376159693174772
 40
0.5701131359689502
 40
0.613377383227647
 40
0.6624932873471834
 40
0.7028421742313721
 40
0.73391442072281
 40
0.7609939121006656
 40
0.7858870774653487
 40
0.8136891426418987
 40
0.8586833936018027
 40
0.9206758590838205
 40
1.0
 40
1.0
 40
1.0
 40
1.0
 10
-59.96160763567813
 20
-6.514665033488136
 30
0.0
 10
-59.56964023463533
 20
-6.482307127712097
 30
0.0
 10
-58.83495447824562
 20
-6.421656950128423
 30
0.0
 10
-57.74112679057978
 20
-6.357286058366647
 30
0.0
 10
-56.81474173960989
 20
-6.315651953686483
 30
0.0
 10
-56.04511199258566
 20
-6.290739665255728
 30
0.0
 10
-55.3532411575491
 20
-6.275757007262321
 30
0.0
 10
-54.58941191299792
 20
-6.267075328262045
 30
0.0
 10
-53.71621334288433
 20
-6.268184536990859
 30
0.0
 10
-52.81710281417362
 20
-6.282801348956546
 30
0.0
 10
-52.07025715056076
 20
-6.304958827270127
 30
0.0
 10
-51.49752861415244
 20
-6.327459766103459
 30
0.0
 10
-50.99635390165079
 20
-6.350897340312379
 30
0.0
 10
-50.41921827409301
 20
-6.382238945160388
 30
0.0
 10
-49.7262665592325
 20
-6.426383081163024
 30
0.0
 10
-48.98949835468298
 20
-6.481710719581827
 30
0.0
 10
-48.32047357232696
 20
-6.539425411099721
 30
0.0
 10
-47.77335152791425
 20
-6.591385941659354
 30
0.0
 10
-47.31289681530495
 20
-6.638182299170786
 30
0.0
 10
-46.87321708166077
 20
-6.685488194392526
 30
0.0
 10
-46.33298671343599
 20
-6.746834813948198
 30
0.0
 10
-45.58515566895815
 20
-6.838192760074008
 30
0.0
 10
-44.55024767187902
 20
-6.976525985779098
 30
0.0
 10
-43.76264438162482
 20
-7.09666617568589
 30
0.0
 10
-43.32054521172168
 20
-7.164103525030455
 30
0.0
1001
PE_URL
1000

  0
SPLINE
  5
24D
330
1F
100
AcDbEntity
  8
0
  6
Continuous
 62
     1
370
    15
100
AcDbSpline
210
0.0
220
0.0
230
1.0
 70
     8
 71
     3
 72
    19
 73
    15
 74
     0
 42
0.000000001
 43
0.00000001
 40
0.0
 40
0.0
 40
0.0
 40
0.0
 40
0.148404732650473
 40
0.2609647813410181
 40
0.3378450113479149
 40
0.3909176380397295
 40
0.4554196782113789
 40
0.5607631959017381
 40
0.6717741742069039
 40
0.758586841029716
 40
0.8300236992930998
 40
0.9012716552950736
 40
0.9769808189408522
 40
1.0
 40
1.0
 40
1.0
 40
1.0
 10
-43.32054521172166
 20
7.164103525030477
 30
0.0
 10
-43.67140407380953
 20
7.110248502757347
 30
0.0
 10
-44.28837770120706
 20
7.01554623915283
 30
0.0
 10
-45.08606221938682
 20
6.904936612155957
 30
0.0
 10
-45.65882849446501
 20
6.830024877285034
 30
0.0
 10
-46.12042375423166
 20
6.772772672105781
 30
0.0
 10
-46.64846644394077
 20
6.710300624344477
 30
0.0
 10
-47.31303445143661
 20
6.63724204088453
 30
0.0
 10
-48.02934546721081
 20
6.566075709509064
 30
0.0
 10
-48.6651697035942
 20
6.509215620027291
 30
0.0
 10
-49.20754626944986
 20
6.465212947878012
 30
0.0
 10
-49.72388073719711
 20
6.427583817622171
 30
0.0
 10
-50.1259677334433
 20
6.40021770733907
 30
0.0
 10
-50.35937131251591
 20
6.387217147258671
 30
0.0
 10
-50.41379093499195
 20
6.384185978780611
 30
0.0
1001
PE_URL
1000

  0
SPLINE
  5
24E
330
1F
100
AcDbEntity
  8
0
  6
Continuous
 62
     1
370
    15
100
AcDbSpline
210
0.0
220
0.0
230
1.0
 70
     8
 71
     3
 72
     9
 73
     5
 74
     0
 42
0.000000001
 43
0.00000001
 40
0.0
 40
0.0
 40
0.0
 40
0.0
 40
0.3935088155429661
 40
1.0
 40
1.0
 40
1.0
 40
1.0
 10
-30.16250000000003
 20
7.440962401348926
 30
0.0
 10
-30.88193534166874
 20
7.439925606832141
 30
0.0
 10
-32.71019258331663
 20
7.437290864036459
 30
0.0
 10
-34.55580590400921
 20
7.519240169351914
 30
0.0
 10
-35.67515411292573
 20
7.568941700598117
 30
0.0
1001
PE_URL
1000

  0
SPLINE
  5
24F
330
1F
100
AcDbEntity
  8
외형선
  6
Continuous
370
    15
100
AcDbSpline
210
0.0
220
0.0
230
1.0
 70
     8
 71
     3
 72
    10
 73
     6
 74
     0
 42
0.000000001
 43
0.00000001
 40
0.0
 40
0.0
 40
0.0
 40
0.0
 40
0.5
 40
0.5
 40
1.0
 40
1.0
 40
1.0
 40
1.0
 10
-30.16250000000004
 20
-6.63640712672813
 30
0.0
 10
-29.65551731981003
 20
-6.846752947299535
 30
0.0
 10
-29.14792973413897
 20
-7.047746400637045
 30
0.0
 10
-28.12915609188725
 20
-7.429534210898062
 30
0.0
 10
-27.61934552498968
 20
-7.610134726774291
 30
0.0
 10
-27.11236785715185
 20
-7.779337446754305
 30
0.0
  0
LINE
  5
250
330
1F
100
AcDbEntity
  8
외형선
  6
Continuous
370
    15
100
AcDbLine
 10
-30.16250000000004
 20
-6.63640712672813
 30
0.0
 11
-30.16250000000004
 21
-4.491270090970861
 31
0.0
  0
SPLINE
  5
251
330
1F
100
AcDbEntity
  8
외형선
  6
Continuous
370
    15
100
AcDbSpline
210
0.0
220
0.0
230
1.0
 70
     8
 71
     3
 72
    10
 73
     6
 74
     0
 42
0.000000001
 43
0.00000001
 40
0.0
 40
0.0
 40
0.0
 40
0.0
 40
0.5
 40
0.5
 40
1.0
 40
1.0
 40
1.0
 40
1.0
 10
-27.1124354136227
 20
-5.958807453621226
 30
0.0
 10
-27.61940207321797
 20
-5.730046759401255
 30
0.0
 10
-28.12920136250327
 20
-5.492371593159561
 30
0.0
 10
-29.14795234100347
 20
-5.002156727938825
 30
0.0
 10
-29.65552857933037
 20
-4.749854700143811
 30
0.0
 10
-30.16250000000004
 20
-4.491270090970861
 30
0.0
  0
LINE
  5
252
330
1F
100
AcDbEntity
  8
외형선
  6
Continuous
370
    15
100
AcDbLine
 10
-27.94039097432053
 20
7.488020371474978
 30
0.0
 11
-27.11236785715183
 21
7.77933744675428
 31
0.0
  0
LINE
  5
253
330
1F
100
AcDbEntity
  8
외형선
  6
Continuous
370
    15
100
AcDbLine
 10
-27.11243541362271
 20
-7.779572988626882
 30
0.0
 11
-27.11243541362272
 21
-9.525000000000013
 31
0.0
  0
LINE
  5
254
330
1F
100
AcDbEntity
  8
외형선
  6
Continuous
370
    15
100
AcDbLine
 10
-27.11243541362269
 20
9.524999999999991
 30
0.0
 11
-27.1124354136227
 21
-5.958807758093865
 31
0.0
  0
SPLINE
  5
255
330
1F
100
AcDbEntity
  8
외형선
  6
Continuous
370
    15
100
AcDbSpline
210
0.0
220
0.0
230
1.0
 70
    24
 71
     3
 72
    10
 73
     6
 74
     0
 42
0.000000001
 43
0.00000001
 40
0.0
 40
0.0
 40
0.0
 40
0.0
 40
0.5000000000000001
 40
0.5000000000000001
 40
1.0
 40
1.0
 40
1.0
 40
1.0
 10
-30.16250000000004
 20
-4.491270090970868
 30
0.0
 10
-30.16250000000004
 20
-4.393734757633748
 30
0.0
 10
-30.16250000000004
 20
-4.196630948229551
 30
0.0
 10
-30.16250000000004
 20
-3.641432750666223
 30
0.0
 10
-30.16250000000004
 20
-3.28543092339136
 30
0.0
 10
-30.16250000000004
 20
-2.899542126467253
 30
0.0
  0
SPLINE
  5
256
330
1F
100
AcDbEntity
  8
외형선
  6
Continuous
370
    15
100
AcDbSpline
210
0.0
220
0.0
230
1.0
 70
     8
 71
     3
 72
    10
 73
     6
 74
     0
 42
0.000000001
 43
0.00000001
 40
0.0
 40
0.0
 40
0.0
 40
0.0
 40
0.5
 40
0.5
 40
1.0
 40
1.0
 40
1.0
 40
1.0
 10
-30.16250000000003
 20
-2.899542126467253
 30
0.0
 10
-29.65552586511332
 20
-3.084377749805835
 30
0.0
 10
-29.14794689139892
 20
-3.265164481679921
 30
0.0
 10
-28.12919044958025
 20
-3.617337421339826
 30
0.0
 10
-27.61938844171589
 20
-3.788553794792445
 30
0.0
 10
-27.11241912847435
 20
-3.953830027475302
 30
0.0
  0
SPLINE
  5
257
330
1F
100
AcDbEntity
  8
외형선
  6
Continuous
370
    15
100
AcDbSpline
210
0.0
220
0.0
230
1.0
 70
     8
 71
     3
 72
    10
 73
     6
 74
     0
 42
0.000000001
 43
0.00000001
 40
0.0
 40
0.0
 40
0.0
 40
0.0
 40
0.5
 40
0.5
 40
1.0
 40
1.0
 40
1.0
 40
1.0
 10
-30.16250000000004
 20
6.86173291201828
 30
0.0
 10
-29.65552446592994
 20
6.7597173603586
 30
0.0
 10
-29.14794408211867
 20
6.647904421351374
 30
0.0
 10
-28.12918482395039
 20
6.405373026783955
 30
0.0
 10
-27.61938141465422
 20
6.274746872075866
 30
0.0
 10
-27.11241073345418
 20
6.135638306853274
 30
0.0
  0
SPLINE
  5
258
330
1F
100
AcDbEntity
  8
외형선
  6
Continuous
370
    15
100
AcDbSpline
210
0.0
220
0.0
230
1.0
 70
    24
 71
     3
 72
    14
 73
    10
 74
     0
 42
0.000000001
 43
0.00000001
 40
0.0
 40
0.0
 40
0.0
 40
0.0
 40
0.2500000000000001
 40
0.2500000000000001
 40
0.5000000000000001
 40
0.5000000000000001
 40
0.75
 40
0.75
 40
1.0
 40
1.0
 40
1.0
 40
1.0
 10
-30.16250000000003
 20
-2.899542126467257
 30
0.0
 10
-30.16250000000003
 20
-2.079037481627672
 30
0.0
 10
-30.16250000000003
 20
-1.208066268783565
 30
0.0
 10
-30.16250000000003
 20
0.561960326814571
 30
0.0
 10
-30.16250000000003
 20
1.460209842326076
 30
0.0
 10
-30.16250000000002
 20
3.195069845060168
 30
0.0
 10
-30.16250000000002
 20
4.030755926341886
 30
0.0
 10
-30.16250000000002
 20
5.562395622874664
 30
0.0
 10
-30.16250000000002
 20
6.257878198145693
 30
0.0
 10
-30.16250000000002
 20
6.861732912018276
 30
0.0
  0
SPLINE
  5
259
330
1F
100
AcDbEntity
  8
외형선
  6
Continuous
370
    15
100
AcDbSpline
210
0.0
220
0.0
230
1.0
 70
    24
 71
     3
 72
    10
 73
     6
 74
     0
 42
0.000000001
 43
0.00000001
 40
0.0
 40
0.0
 40
0.0
 40
0.0
 40
0.1603614092942549
 40
0.6229088741819419
 40
1.0
 40
1.0
 40
1.0
 40
1.0
 10
-30.16250000000005
 20
-7.407752665167955
 30
0.0
 10
-30.16250000000005
 20
-7.416393413243824
 30
0.0
 10
-30.16250000000005
 20
-7.449957589810495
 30
0.0
 10
-30.16250000000005
 20
-7.234141496518035
 30
0.0
 10
-30.16250000000004
 20
-6.882817262100666
 30
0.0
 10
-30.16250000000004
 20
-6.725033600713381
 30
0.0
  0
SPLINE
  5
25A
330
1F
100
AcDbEntity
  8
외형선
  6
Continuous
370
    15
100
AcDbSpline
210
0.0
220
0.0
230
1.0
 70
    24
 71
     3
 72
    10
 73
     6
 74
     0
 42
0.000000001
 43
0.00000001
 40
0.0
 40
0.0
 40
0.0
 40
0.0
 40
0.3377607561240049
 40
0.6799143883909644
 40
1.0
 40
1.0
 40
1.0
 40
1.0
 10
-30.16250000000003
 20
6.86173291201828
 30
0.0
 10
-30.16250000000003
 20
6.977491809904603
 30
0.0
 10
-30.16250000000003
 20
7.210515152108083
 30
0.0
 10
-30.16250000000003
 20
7.413536933625171
 30
0.0
 10
-30.16250000000003
 20
7.409642418675777
 30
0.0
 10
-30.16250000000003
 20
7.407760050315662
 30
0.0
  0
SPLINE
  5
25B
330
1F
100
AcDbEntity
  8
0
  6
Continuous
 62
     1
370
    15
100
AcDbSpline
210
0.0
220
0.0
230
1.0
 70
     8
 71
     3
 72
    50
 73
    46
 74
     0
 42
0.000000001
 43
0.00000001
 40
0.0
 40
0.0
 40
0.0
 40
0.0
 40
0.0625
 40
0.0625
 40
0.125
 40
0.125
 40
0.1562499999999999
 40
0.1562499999999999
 40
0.1874999999999999
 40
0.1874999999999999
 40
0.2499999999999998
 40
0.2499999999999998
 40
0.2812499999999997
 40
0.2812499999999997
 40
0.3124999999999996
 40
0.3124999999999996
 40
0.3437499999999996
 40
0.3437499999999996
 40
0.3749999999999994
 40
0.3749999999999994
 40
0.4374999999999996
 40
0.4374999999999996
 40
0.4687499999999998
 40
0.4687499999999998
 40
0.4999999999999999
 40
0.4999999999999999
 40
0.53125
 40
0.53125
 40
0.5625000000000002
 40
0.5625000000000002
 40
0.6250000000000006
 40
0.6250000000000006
 40
0.6562500000000006
 40
0.6562500000000006
 40
0.6875000000000007
 40
0.6875000000000007
 40
0.7500000000000004
 40
0.7500000000000004
 40
0.8125000000000004
 40
0.8125000000000004
 40
0.8750000000000002
 40
0.8750000000000002
 40
0.9375000000000001
 40
0.9375000000000001
 40
1.0
 40
1.0
 40
1.0
 40
1.0
 10
-30.16250000000004
 20
-4.491270090970868
 30
0.0
 10
-30.85514063679001
 20
-4.137983493227249
 30
0.0
 10
-31.55306643165656
 20
-3.771836719246195
 30
0.0
 10
-32.94285838756629
 20
-3.022481861255951
 30
0.0
 10
-33.63394097334927
 20
-2.639467690581629
 30
0.0
 10
-34.67782041260931
 20
-2.054620466080816
 30
0.0
 10
-35.02598620042161
 20
-1.858134615124136
 30
0.0
 10
-35.72064823495207
 20
-1.463269168920807
 30
0.0
 10
-36.06613448460377
 20
-1.265084051527097
 30
0.0
 10
-37.1061910081842
 20
-0.6677216974141018
 30
0.0
 10
-37.80423927972875
 20
-0.2657472689551028
 30
0.0
 10
-38.84584787599235
 20
0.3356294864151117
 30
0.0
 10
-39.19118646742298
 20
0.5356400020031344
 30
0.0
 10
-39.88488935918981
 20
0.9352663710115543
 30
0.0
 10
-40.23283332770455
 20
1.134800335581993
 30
0.0
 10
-40.92882922941961
 20
1.532112710561773
 30
0.0
 10
-41.27687977822508
 20
1.7298903299465
 30
0.0
 10
-41.97100687266862
 20
2.122511812459688
 30
0.0
 10
-42.31628492858829
 20
2.317208904745673
 30
0.0
 10
-43.35730369448021
 20
2.897269094498515
 30
0.0
 10
-44.0553835473911
 20
3.278029425516216
 30
0.0
 10
-45.0961227803013
 20
3.833445566334078
 30
0.0
 10
-45.44142742991093
 20
4.015880011753591
 30
0.0
 10
-46.13572726886988
 20
4.375821186279072
 30
0.0
 10
-46.48381776801273
 20
4.553163529524106
 30
0.0
 10
-47.17979993226968
 20
4.901516989889963
 30
0.0
 10
-47.52769021317992
 20
5.072527418933522
 30
0.0
 10
-48.22119315883155
 20
5.407217354493042
 30
0.0
 10
-48.56661152848061
 20
5.570875253316313
 30
0.0
 10
-49.60845879746913
 20
6.051301578353272
 30
0.0
 10
-50.3064793226744
 20
6.356816515377105
 30
0.0
 10
-51.34621557307968
 20
6.787522766537055
 30
0.0
 10
-51.6918347769244
 20
6.926555960965949
 30
0.0
 10
-52.38664228013581
 20
7.195708866730087
 30
0.0
 10
-52.73483426376074
 20
7.325688351220521
 30
0.0
 10
-53.7786518933422
 20
7.700647492998492
 30
0.0
 10
-54.46958083140502
 20
7.930225962685995
 30
0.0
 10
-55.85963640045154
 20
8.346977608039566
 30
0.0
 10
-56.55750671472823
 20
8.533902825569765
 30
0.0
 10
-57.94230682035404
 20
8.860566040600862
 30
0.0
 10
-58.63802060111993
 20
9.001029193618653
 30
0.0
 10
-60.02939002676957
 20
9.233312409901735
 30
0.0
 10
-60.72001432277544
 20
9.324952979381909
 30
0.0
 10
-62.1108165768582
 20
9.458655723669025
 30
0.0
 10
-62.80844586241805
 20
9.500490630744135
 30
0.0
 10
-63.50000000000002
 20
9.52500000000003
 30
0.0
1001
PE_URL
1000

  0
SPLINE
  5
25C
330
1F
100
AcDbEntity
  8
0
  6
Continuous
 62
     1
370
    15
100
AcDbSpline
210
0.0
220
0.0
230
1.0
 70
     8
 71
     3
 72
    11
 73
     7
 74
     0
 42
0.000000001
 43
0.00000001
 40
0.0
 40
0.0
 40
0.0
 40
0.0
 40
0.0620423004600424
 40
0.3753077442692414
 40
0.687654097589427
 40
1.0
 40
1.0
 40
1.0
 40
1.0
 10
-39.84212514880568
 20
0.9062643980658329
 30
0.0
 10
-39.6419430059063
 20
0.8271104938934428
 30
0.0
 10
-38.43099647527374
 20
0.3482908336815171
 30
0.0
 10
-36.2122509086637
 20
-0.5581182707716437
 30
0.0
 10
-33.18589188417025
 20
-1.770572605643679
 30
0.0
 10
-31.17029680976403
 20
-2.523219133948853
 30
0.0
 10
-30.16250000000005
 20
-2.899542126467249
 30
0.0
1001
PE_URL
1000

  0
SPLINE
  5
25D
330
1F
100
AcDbEntity
  8
외형선
  6
Continuous
370
    15
100
AcDbSpline
210
0.0
220
0.0
230
1.0
 70
    24
 71
     3
 72
    10
 73
     6
 74
     0
 42
0.000000001
 43
0.00000001
 40
0.0
 40
0.0
 40
0.0
 40
0.0
 40
0.4999999999999999
 40
0.4999999999999999
 40
1.0
 40
1.0
 40
1.0
 40
1.0
 10
-30.16250000000004
 20
-4.491270090970865
 30
0.0
 10
-30.16250000000004
 20
-4.393734757633744
 30
0.0
 10
-30.16250000000004
 20
-4.196630948229551
 30
0.0
 10
-30.16250000000004
 20
-3.641432750666223
 30
0.0
 10
-30.16250000000004
 20
-3.28543092339136
 30
0.0
 10
-30.16250000000004
 20
-2.899542126467253
 30
0.0
  0
SPLINE
  5
25E
330
1F
100
AcDbEntity
  8
0
  6
Continuous
 62
     1
370
    15
100
AcDbSpline
210
0.0
220
0.0
230
1.0
 70
     8
 71
     3
 72
    50
 73
    46
 74
     0
 42
0.000000001
 43
0.00000001
 40
0.0
 40
0.0
 40
0.0
 40
0.0
 40
0.0625000000000003
 40
0.0625000000000003
 40
0.1250000000000006
 40
0.1250000000000006
 40
0.1875000000000009
 40
0.1875000000000009
 40
0.2500000000000012
 40
0.2500000000000012
 40
0.3125000000000014
 40
0.3125000000000014
 40
0.3437500000000015
 40
0.3437500000000015
 40
0.3750000000000016
 40
0.3750000000000016
 40
0.4375000000000017
 40
0.4375000000000017
 40
0.4687500000000017
 40
0.4687500000000017
 40
0.5000000000000018
 40
0.5000000000000018
 40
0.5312500000000018
 40
0.5312500000000018
 40
0.5625000000000019
 40
0.5625000000000019
 40
0.6250000000000017
 40
0.6250000000000017
 40
0.6562500000000017
 40
0.6562500000000017
 40
0.6875000000000016
 40
0.6875000000000016
 40
0.7187500000000016
 40
0.7187500000000016
 40
0.7500000000000014
 40
0.7500000000000014
 40
0.8125000000000011
 40
0.8125000000000011
 40
0.8437500000000009
 40
0.8437500000000009
 40
0.8750000000000007
 40
0.8750000000000007
 40
0.9375000000000003
 40
0.9375000000000003
 40
1.0
 40
1.0
 40
1.0
 40
1.0
 10
-63.50000000000003
 20
9.038661779433884
 30
0.0
 10
-62.808445862418
 20
8.912351113052459
 30
0.0
 10
-62.11081657685807
 20
8.761616824435098
 30
0.0
 10
-60.72001432277521
 20
8.414633241713268
 30
0.0
 10
-60.02939002676927
 20
8.218730647730641
 30
0.0
 10
-58.63802060111953
 20
7.78336077602588
 30
0.0
 10
-57.94230682035357
 20
7.544331576934148
 30
0.0
 10
-56.55750671472765
 20
7.028341605424192
 30
0.0
 10
-55.8596364004509
 20
6.750262630258636
 30
0.0
 10
-54.46958083140428
 20
6.160426206301494
 30
0.0
 10
-53.77865189334141
 20
5.848945063899315
 30
0.0
 10
-52.73483426375985
 20
5.358546435163021
 30
0.0
 10
-52.38664228013489
 20
5.191362542071133
 30
0.0
 10
-51.69183477692342
 20
4.850570119486822
 30
0.0
 10
-51.34621557307867
 20
4.677132827914868
 30
0.0
 10
-50.3064793226733
 20
4.147384825941742
 30
0.0
 10
-49.60845879746799
 20
3.78140148850364
 30
0.0
 10
-48.56661152847937
 20
3.219710796508522
 30
0.0
 10
-48.22119315883029
 20
3.030555200823919
 30
0.0
 10
-47.5276902131786
 20
2.64799081626203
 30
0.0
 10
-47.17979993226832
 20
2.454612399272904
 30
0.0
 10
-46.48381776801133
 20
2.064806642576738
 30
0.0
 10
-46.13572726886845
 20
1.86838007589898
 30
0.0
 10
-45.44142742990942
 20
1.473660386629781
 30
0.0
 10
-45.09612278029977
 20
1.275541932463085
 30
0.0
 10
-44.05538354738948
 20
0.6781235836125461
 30
0.0
 10
-43.35730369447853
 20
0.2761645376378574
 30
0.0
 10
-42.31628492858655
 20
-0.3251077793768786
 30
0.0
 10
-41.97100687266686
 20
-0.5251167276418442
 30
0.0
 10
-41.27687977822323
 20
-0.924858353188835
 30
0.0
 10
-40.92882922941774
 20
-1.12443639600108
 30
0.0
 10
-40.23283332770263
 20
-1.521810076010787
 30
0.0
 10
-39.88488935918785
 20
-1.719604923496483
 30
0.0
 10
-39.19118646742097
 20
-2.112235548108615
 30
0.0
 10
-38.84584787599031
 20
-2.306995824598516
 30
0.0
 10
-37.80423927972661
 20
-2.887339680707221
 30
0.0
 10
-37.106191008182
 20
-3.268234379044404
 30
0.0
 10
-36.06613448460149
 20
-3.823782762088879
 30
0.0
 10
-35.72064823494977
 20
-4.006340854340287
 30
0.0
 10
-35.02598620041923
 20
-4.36653871590185
 30
0.0
 10
-34.67782041260691
 20
-4.543996439054641
 30
0.0
 10
-33.63394097334679
 20
-5.066837968311422
 30
0.0
 10
-32.94285838756376
 20
-5.402048922973453
 30
0.0
 10
-31.5530664316539
 20
-6.043249328288358
 30
0.0
 10
-30.85514063678728
 20
-6.349032293624404
 30
0.0
 10
-30.16249999999727
 20
-6.636407126729281
 30
0.0
1001
PE_URL
1000

  0
SPLINE
  5
25F
330
1F
100
AcDbEntity
  8
0
  6
Continuous
 62
     1
370
    15
100
AcDbSpline
210
0.0
220
0.0
230
1.0
 70
     8
 71
     3
 72
    16
 73
    12
 74
     0
 42
0.000000001
 43
0.00000001
 40
0.0
 40
0.0
 40
0.0
 40
0.0
 40
0.1225976334488152
 40
0.2451951871495047
 40
0.3677926619651266
 40
0.4903900587591216
 40
0.6129873783953078
 40
0.7355846217378786
 40
0.8581817896513958
 40
0.9807788830007869
 40
1.0
 40
1.0
 40
1.0
 40
1.0
 10
-63.50000000000004
 20
7.514960818107291
 30
0.0
 10
-62.48922841701239
 20
7.305906196790243
 30
0.0
 10
-60.46768590853054
 20
6.887797090143398
 30
0.0
 10
-57.43537349678414
 20
5.960760771634035
 30
0.0
 10
-54.40306330453458
 20
4.851145971440278
 30
0.0
 10
-51.37075533357527
 20
3.573072861949377
 30
0.0
 10
-48.33844955447694
 20
2.176568681865447
 30
0.0
 10
-45.30614593600899
 20
0.704045202746908
 30
0.0
 10
-42.27384448530315
 20
-0.7833373604986313
 30
0.0
 10
-40.09384011396074
 20
-1.857218894084319
 30
0.0
 10
-38.92460297004014
 20
-2.388858795130073
 30
0.0
 10
-38.7661321792448
 20
-2.460913806361223
 30
0.0
1001
PE_URL
1000

  0
LINE
  5
260
330
1F
100
AcDbEntity
  8
0
  6
Continuous
 62
     1
370
    15
100
AcDbLine
 10
-63.50000000000003
 20
9.038661779433887
 30
0.0
 11
-63.50000000000003
 21
7.514960818107291
 31
0.0
1001
PE_URL
1000

  0
LINE
  5
261
330
1F
100
AcDbEntity
  8
0
  6
Continuous
 62
     1
370
    15
100
AcDbLine
 10
-63.50000000000003
 20
9.525000000000034
 30
0.0
 11
-63.50000000000003
 21
9.038661779433887
 31
0.0
1001
PE_URL
1000

  0
SPLINE
  5
262
330
1F
100
AcDbEntity
  8
0
  6
Continuous
 62
     1
370
    15
100
AcDbSpline
210
0.0
220
0.0
230
1.0
 70
     8
 71
     3
 72
    12
 73
     8
 74
     0
 42
0.000000001
 43
0.00000001
 40
0.0
 40
0.0
 40
0.0
 40
0.0
 40
0.5000000000000012
 40
0.5000000000000012
 40
0.7500000000000006
 40
0.7500000000000006
 40
1.0
 40
1.0
 40
1.0
 40
1.0
 10
-63.50000000000004
 20
2.5454890609324
 30
0.0
 10
-62.64179496967379
 20
1.870798261156484
 30
0.0
 10
-61.79573740577398
 20
1.172677160324483
 30
0.0
 10
-60.54492402574465
 20
0.0902502097418179
 30
0.0
 10
-60.13107042667421
 20
-0.2765076356953955
 30
0.0
 10
-59.30998841918665
 20
-1.022802140366327
 30
0.0
 10
-58.9013853533872
 20
-1.403657852354407
 30
0.0
 10
-58.50000000000004
 20
-1.788486169330834
 30
0.0
1001
PE_URL
1000

  0
LINE
  5
263
330
1F
100
AcDbEntity
  8
0
  6
Continuous
 62
     1
370
    15
100
AcDbLine
 10
-58.50000000000004
 20
-2.937719435296565
 30
0.0
 11
-63.50000000000004
 21
0.000000000000032
 31
0.0
1001
PE_URL
1000

  0
LINE
  5
264
330
1F
100
AcDbEntity
  8
0
  6
Continuous
 62
     1
370
    15
100
AcDbLine
 10
-63.50000000000004
 20
0.000000000000032
 30
0.0
 11
-63.50000000000004
 21
2.5454890609324
 31
0.0
1001
PE_URL
1000

  0
SPLINE
  5
265
330
1F
100
AcDbEntity
  8
0
  6
Continuous
 62
     1
370
    15
100
AcDbSpline
210
0.0
220
0.0
230
1.0
 70
     8
 71
     3
 72
    16
 73
    12
 74
     0
 42
0.000000001
 43
0.00000001
 40
0.0
 40
0.0
 40
0.0
 40
0.0
 40
0.0896858394237291
 40
0.1794933573908341
 40
0.3123232043294077
 40
0.4451529664663981
 40
0.5779826447517863
 40
0.7108122401359617
 40
0.8436417535697167
 40
0.9764711860042428
 40
1.0
 40
1.0
 40
1.0
 40
1.0
 10
-58.50000000000004
 20
-2.273962504588717
 30
0.0
 10
-57.81773314691514
 20
-2.571610342539724
 30
0.0
 10
-56.45227379587862
 20
-3.167309843121242
 30
0.0
 10
-54.07571319311588
 20
-4.135078431471538
 30
0.0
 10
-51.37076402484202
 20
-5.140027596331361
 30
0.0
 10
-48.33846891343745
 20
-6.092228080133289
 30
0.0
 10
-45.30616698647449
 20
-6.838001631866604
 30
0.0
 10
-42.27386953714625
 20
-7.359449629951762
 30
0.0
 10
-39.24157385306743
 20
-7.610082977290539
 30
0.0
 10
-37.04100118779716
 20
-7.668027763437365
 30
0.0
 10
-35.85119496062387
 20
-7.565773416208557
 30
0.0
 10
-35.67215272876668
 20
-7.550386165640504
 30
0.0
1001
PE_URL
1000

  0
SPLINE
  5
266
330
1F
100
AcDbEntity
  8
0
  6
Continuous
 62
     1
370
    15
100
AcDbSpline
210
0.0
220
0.0
230
1.0
 70
    24
 71
     3
 72
     8
 73
     4
 74
     0
 42
0.000000001
 43
0.00000001
 40
0.0
 40
0.0
 40
0.0
 40
0.0
 40
1.0
 40
1.0
 40
1.0
 40
1.0
 10
-58.50000000000004
 20
-1.788486169330749
 30
0.0
 10
-58.50000000000004
 20
-1.951691093477667
 30
0.0
 10
-58.50000000000004
 20
-2.11359576676702
 30
0.0
 10
-58.50000000000004
 20
-2.273962504588717
 30
0.0
1001
PE_URL
1000

  0
SPLINE
  5
267
330
1F
100
AcDbEntity
  8
0
  6
Continuous
 62
     1
370
    15
100
AcDbSpline
210
0.0
220
0.0
230
1.0
 70
    24
 71
     3
 72
    10
 73
     6
 74
     0
 42
0.000000001
 43
0.00000001
 40
0.0
 40
0.0
 40
0.0
 40
0.0
 40
0.5
 40
0.5
 40
1.0
 40
1.0
 40
1.0
 40
1.0
 10
-63.50000000000003
 20
7.514960818107291
 30
0.0
 10
-63.50000000000002
 20
6.938880480261275
 30
0.0
 10
-63.50000000000003
 20
6.21098088420915
 30
0.0
 10
-63.50000000000003
 20
4.518684375910262
 30
0.0
 10
-63.50000000000003
 20
3.555753395063761
 30
0.0
 10
-63.50000000000004
 20
2.545489060932702
 30
0.0
1001
PE_URL
1000

  0
SPLINE
  5
268
330
1F
100
AcDbEntity
  8
외형선
  6
Continuous
370
    15
100
AcDbSpline
210
0.0
220
0.0
230
1.0
 70
    24
 71
     3
 72
    10
 73
     6
 74
     0
 42
0.000000001
 43
0.00000001
 40
0.0
 40
0.0
 40
0.0
 40
0.0
 40
0.1622858226734687
 40
0.6237731498545228
 40
0.9999999999999999
 40
0.9999999999999999
 40
0.9999999999999999
 40
0.9999999999999999
 10
-30.16250000000005
 20
-7.40754082092041
 30
0.0
 10
-30.16250000000005
 20
-7.416343655805981
 30
0.0
 10
-30.16250000000005
 20
-7.450178848269267
 30
0.0
 10
-30.16250000000005
 20
-7.234216117058317
 30
0.0
 10
-30.16250000000004
 20
-6.88284038863663
 30
0.0
 10
-30.16250000000004
 20
-6.725033600713381
 30
0.0
  0
SPLINE
  5
269
330
1F
100
AcDbEntity
  8
0
  6
Continuous
 62
     1
370
    15
100
AcDbSpline
210
0.0
220
0.0
230
1.0
 70
    24
 71
     3
 72
    10
 73
     6
 74
     0
 42
0.000000001
 43
0.00000001
 40
0.0
 40
0.0
 40
0.0
 40
0.0
 40
0.5000000000000001
 40
0.5000000000000001
 40
1.0
 40
1.0
 40
1.0
 40
1.0
 10
-58.50000000000004
 20
-2.273962504588713
 30
0.0
 10
-58.50000000000004
 20
-2.801767246870153
 30
0.0
 10
-58.50000000000004
 20
-3.304266617507604
 30
0.0
 10
-58.50000000000005
 20
-4.221095501631574
 30
0.0
 10
-58.50000000000005
 20
-4.635160569708933
 30
0.0
 10
-58.50000000000005
 20
-4.989159483222071
 30
0.0
1001
PE_URL
1000

  0
SPLINE
  5
26A
330
1F
100
AcDbEntity
  8
0
  6
Continuous
 62
     1
370
    15
100
AcDbSpline
210
0.0
220
0.0
230
1.0
 70
     8
 71
     3
 72
     9
 73
     5
 74
     0
 42
0.000000001
 43
0.00000001
 40
0.0
 40
0.0
 40
0.0
 40
0.0
 40
0.8559677414051317
 40
1.0
 40
1.0
 40
1.0
 40
1.0
 10
-63.50000000000005
 20
-6.667499999999961
 30
0.0
 10
-62.48922982964081
 20
-6.661568537464689
 30
0.0
 10
-61.30837905517122
 20
-6.654638997660385
 30
0.0
 10
-60.12752840439752
 20
-6.518718744628224
 30
0.0
 10
-59.95744781810336
 20
-6.499141843595218
 30
0.0
1001
PE_URL
1000

  0
SPLINE
  5
26B
330
1F
100
AcDbEntity
  8
0
  6
Continuous
 62
     1
370
    15
100
AcDbSpline
210
0.0
220
0.0
230
1.0
 70
     8
 71
     3
 72
    10
 73
     6
 74
     0
 42
0.000000001
 43
0.00000001
 40
0.0
 40
0.0
 40
0.0
 40
0.0
 40
0.5
 40
0.5
 40
1.0
 40
1.0
 40
1.0
 40
1.0
 10
-63.50000000000005
 20
-6.667499999999968
 30
0.0
 10
-62.65705417514781
 20
-6.438941566832824
 30
0.0
 10
-61.81842461786652
 20
-6.186028406994829
 30
0.0
 10
-60.15034462458528
 20
-5.628489846077731
 30
0.0
 10
-59.32174154135765
 20
-5.324646660889336
 30
0.0
 10
-58.50000000000005
 20
-4.989159483222068
 30
0.0
1001
PE_URL
1000

  0
SPLINE
  5
26C
330
1F
100
AcDbEntity
  8
0
  6
Continuous
 62
     1
370
    15
100
AcDbSpline
210
0.0
220
0.0
230
1.0
 70
     8
 71
     3
 72
    12
 73
     8
 74
     0
 42
0.000000001
 43
0.00000001
 40
0.0
 40
0.0
 40
0.0
 40
0.0
 40
0.080518729356435
 40
0.3107270712697085
 40
0.5409352728022961
 40
0.7704677978087786
 40
1.0
 40
1.0
 40
1.0
 40
1.0
 10
-43.3344587099996
 20
7.134640100344519
 30
0.0
 10
-42.98092876721822
 20
7.197748427359905
 30
0.0
 10
-41.61663347089876
 20
7.44128761113684
 30
0.0
 10
-39.24157380808523
 20
7.61504578338517
 30
0.0
 10
-36.21224571071709
 20
7.636301514268819
 30
0.0
 10
-33.18588869084969
 20
7.401619175207536
 30
0.0
 10
-31.17029575782689
 20
7.041694915381541
 30
0.0
 10
-30.16250000000004
 20
6.86173291201828
 30
0.0
1001
PE_URL
1000

  0
SPLINE
  5
26D
330
1F
100
AcDbEntity
  8
외형선
  6
Continuous
370
    15
100
AcDbSpline
210
0.0
220
0.0
230
1.0
 70
    24
 71
     3
 72
    14
 73
    10
 74
     0
 42
0.000000001
 43
0.00000001
 40
0.0
 40
0.0
 40
0.0
 40
0.0
 40
0.2500000000000001
 40
0.2500000000000001
 40
0.5000000000000001
 40
0.5000000000000001
 40
0.75
 40
0.75
 40
1.0
 40
1.0
 40
1.0
 40
1.0
 10
-30.16250000000003
 20
-2.899542126467257
 30
0.0
 10
-30.16250000000003
 20
-2.079037481627672
 30
0.0
 10
-30.16250000000003
 20
-1.208066268783565
 30
0.0
 10
-30.16250000000003
 20
0.561960326814571
 30
0.0
 10
-30.16250000000003
 20
1.460209842326076
 30
0.0
 10
-30.16250000000002
 20
3.195069845060168
 30
0.0
 10
-30.16250000000002
 20
4.030755926341886
 30
0.0
 10
-30.16250000000002
 20
5.562395622874664
 30
0.0
 10
-30.16250000000002
 20
6.257878198145693
 30
0.0
 10
-30.16250000000002
 20
6.861732912018276
 30
0.0
  0
LINE
  5
26E
330
1F
100
AcDbEntity
  8
0
  6
Continuous
 62
     1
370
    15
100
AcDbLine
 10
-63.50000000000004
 20
0.000000000000032
 30
0.0
 11
-63.50000000000005
 21
-6.667499999999968
 31
0.0
1001
PE_URL
1000

  0
SPLINE
  5
26F
330
1F
100
AcDbEntity
  8
외형선
  6
Continuous
370
    15
100
AcDbSpline
210
0.0
220
0.0
230
1.0
 70
    24
 71
     3
 72
    10
 73
     6
 74
     0
 42
0.000000001
 43
0.00000001
 40
0.0
 40
0.0
 40
0.0
 40
0.0
 40
0.3389243215902955
 40
0.6822566525173379
 40
1.0
 40
1.0
 40
1.0
 40
1.0
 10
-30.16250000000003
 20
6.86173291201828
 30
0.0
 10
-30.16250000000003
 20
6.977474981645404
 30
0.0
 10
-30.16250000000003
 20
7.210464448464155
 30
0.0
 10
-30.16250000000003
 20
7.413039430417921
 30
0.0
 10
-30.16250000000003
 20
7.409280628343193
 30
0.0
 10
-30.16250000000003
 20
7.40747397534906
 30
0.0
  0
SPLINE
  5
270
330
1F
100
AcDbEntity
  8
0
  6
Continuous
 62
     1
370
    15
100
AcDbSpline
210
0.0
220
0.0
230
1.0
 70
    24
 71
     3
 72
    10
 73
     6
 74
     0
 42
0.000000001
 43
0.00000001
 40
0.0
 40
0.0
 40
0.0
 40
0.0
 40
0.5
 40
0.5
 40
1.0
 40
1.0
 40
1.0
 40
1.0
 10
-63.50000000000005
 20
-6.667499999999961
 30
0.0
 10
-63.50000000000004
 20
-7.071667246089625
 30
0.0
 10
-63.50000000000005
 20
-7.541347015959253
 30
0.0
 10
-63.50000000000004
 20
-8.52673390815211
 30
0.0
 10
-63.50000000000006
 20
-9.039924476008984
 30
0.0
 10
-63.50000000000005
 20
-9.52499999999997
 30
0.0
1001
PE_URL
1000

  0
SPLINE
  5
271
330
1F
100
AcDbEntity
  8
0
  6
Continuous
 62
     1
370
    15
100
AcDbSpline
210
0.0
220
0.0
230
1.0
 70
     8
 71
     3
 72
    14
 73
    10
 74
     0
 42
0.000000001
 43
0.00000001
 40
0.0
 40
0.0
 40
0.0
 40
0.0
 40
0.0683617093832907
 40
0.1737780423976594
 40
0.3772167457009367
 40
0.5814036825133976
 40
0.7901400062557641
 40
0.8948893292058031
 40
1.0
 40
1.0
 40
1.0
 40
1.0
 10
-50.41015867846412
 20
-6.384103990048722
 30
0.0
 10
-50.70846507878313
 20
-6.514702926697815
 30
0.0
 10
-51.46677119414777
 20
-6.846690347065675
 30
0.0
 10
-53.11217641079116
 20
-7.476238611104442
 30
0.0
 10
-55.35102891990619
 20
-8.231053320131863
 30
0.0
 10
-58.04039585274013
 20
-8.9134450303455
 30
0.0
 10
-60.29945689663118
 20
-9.286402096210168
 30
0.0
 10
-62.12599778754654
 20
-9.465138698143825
 30
0.0
 10
-63.04147382444182
 20
-9.499659496188066
 30
0.0
 10
-63.50000000000005
 20
-9.52499999999997
 30
0.0
1001
PE_URL
1000

  0
ENDSEC
  0
SECTION
  2
OBJECTS
  0
DICTIONARY
  5
C
330
0
100
AcDbDictionary
281
     1
  3
ACAD_DETAILVIEWSTYLE
350
219
  3
ACAD_GROUP
350
D
  3
ACAD_IMAGE_VARS
350
295
  3
ACAD_LAYOUT
350
1A
  3
ACAD_MLINESTYLE
350
17
  3
ACAD_PLOTSETTINGS
350
19
  3
ACAD_PLOTSTYLENAME
350
E
  3
ACAD_SCALELIST
350
47
  3
ACAD_SECTIONVIEWSTYLE
350
21A
  3
AcDbVariableDictionary
350
214
  3
APPDATA
350
151
  3
DWGPROPS
350
296
  0
DICTIONARY
  5
18E
330
2
100
AcDbDictionary
280
     1
281
     1
  3
ACAD_LAYERSTATES
360
18F
  0
DICTIONARY
  5
219
102
{ACAD_REACTORS
330
C
102
}
330
C
100
AcDbDictionary
281
     1
  0
DICTIONARY
  5
D
102
{ACAD_REACTORS
330
C
102
}
330
C
100
AcDbDictionary
281
     1
  0
RASTERVARIABLES
  5
295
102
{ACAD_REACTORS
330
C
102
}
330
C
100
AcDbRasterVariables
 90
        0
 70
     1
 71
     1
 72
     1
  0
DICTIONARY
  5
1A
102
{ACAD_REACTORS
330
C
102
}
330
C
100
AcDbDictionary
281
     1
  3
Layout1
350
1E
  3
Layout2
350
26
  3
Model
350
22
  0
DICTIONARY
  5
17
102
{ACAD_REACTORS
330
C
102
}
330
C
100
AcDbDictionary
281
     1
  3
Standard
350
18
  0
DICTIONARY
  5
19
102
{ACAD_REACTORS
330
C
102
}
330
C
100
AcDbDictionary
281
     1
  0
ACDBDICTIONARYWDFLT
  5
E
102
{ACAD_REACTORS
330
C
102
}
330
C
100
AcDbDictionary
281
     1
  3
Normal
350
F
100
AcDbDictionaryWithDefault
340
F
  0
DICTIONARY
  5
47
102
{ACAD_REACTORS
330
C
102
}
330
C
100
AcDbDictionary
281
     1
  3
A0
350
48
  3
A1
350
49
  3
A2
350
4A
  3
A3
350
4B
  3
A4
350
4C
  3
A5
350
4D
  3
A6
350
4E
  3
A7
350
4F
  3
A8
350
50
  3
A9
350
51
  3
B0
350
52
  3
B1
350
53
  3
B2
350
54
  3
B3
350
55
  3
B4
350
56
  3
B5
350
57
  3
B6
350
58
  3
B7
350
59
  3
B8
350
5A
  3
B9
350
5B
  3
C0
350
5C
  3
C1
350
5D
  3
C2
350
5E
  3
C3
350
5F
  3
C4
350
60
  3
C5
350
61
  3
C6
350
62
  3
C7
350
63
  3
C8
350
64
  3
C9
350
65
  3
D0
350
66
  3
D1
350
67
  3
D2
350
68
  0
DICTIONARY
  5
21A
102
{ACAD_REACTORS
330
C
102
}
330
C
100
AcDbDictionary
281
     1
  0
DICTIONARY
  5
214
102
{ACAD_REACTORS
330
C
102
}
330
C
100
AcDbDictionary
281
     1
  0
DICTIONARY
  5
151
102
{ACAD_REACTORS
330
C
102
}
330
C
100
AcDbDictionary
281
     1
  0
XRECORD
  5
296
102
{ACAD_REACTORS
330
C
102
}
330
C
100
AcDbXrecord
280
     1
  1
DWGPROPS COOKIE
  2

  3

  4

  6

  7

  8
12016016
  9

300
=
301
=
302
=
303
=
304
=
305
=
306
=
307
=
308
=
309
=
 40
0.0
 41
2458313.025547454
 42
2458330.402565671
  1

 90
        0
  0
DICTIONARY
  5
18F
102
{ACAD_REACTORS
330
18E
102
}
330
18E
100
AcDbDictionary
281
     1
  0
LAYOUT
  5
1E
102
{ACAD_REACTORS
330
1A
102
}
330
1A
100
AcDbPlotSettings
  1

  2
none_device
  4

  6

 40
0.0
 41
0.0
 42
0.0
 43
0.0
 44
0.0
 45
0.0
 46
0.0
 47
0.0
 48
0.0
 49
0.0
140
0.0
141
0.0
142
1.0
143
1.0
 70
   688
 72
     1
 73
     0
 74
     5
  7

 75
    16
147
1.0
148
0.0
149
0.0
100
AcDbLayout
  1
Layout1
 70
     1
 71
     1
 10
0.0
 20
0.0
 11
420.0
 21
297.0
 12
0.0
 22
0.0
 32
0.0
 14
1.000000000000000E+20
 24
1.000000000000000E+20
 34
1.000000000000000E+20
 15
-1.000000000000000E+20
 25
-1.000000000000000E+20
 35
-1.000000000000000E+20
146
0.0
 13
0.0
 23
0.0
 33
0.0
 16
1.0
 26
0.0
 36
0.0
 17
0.0
 27
1.0
 37
0.0
 76
     0
330
1B
  0
LAYOUT
  5
26
102
{ACAD_REACTORS
330
1A
102
}
330
1A
100
AcDbPlotSettings
  1

  2
none_device
  4

  6

 40
0.0
 41
0.0
 42
0.0
 43
0.0
 44
0.0
 45
0.0
 46
0.0
 47
0.0
 48
0.0
 49
0.0
140
0.0
141
0.0
142
1.0
143
1.0
 70
   688
 72
     1
 73
     0
 74
     5
  7

 75
    16
147
1.0
148
0.0
149
0.0
100
AcDbLayout
  1
Layout2
 70
     1
 71
     2
 10
0.0
 20
0.0
 11
0.0
 21
0.0
 12
0.0
 22
0.0
 32
0.0
 14
0.0
 24
0.0
 34
0.0
 15
0.0
 25
0.0
 35
0.0
146
0.0
 13
0.0
 23
0.0
 33
0.0
 16
1.0
 26
0.0
 36
0.0
 17
0.0
 27
1.0
 37
0.0
 76
     0
330
23
  0
LAYOUT
  5
22
102
{ACAD_REACTORS
330
1A
102
}
330
1A
100
AcDbPlotSettings
  1

  2
none_device
  4
ANSI_A_(11.00_x_8.50_Inches)
  6

 40
6.35
 41
19.05
 42
6.35000508
 43
19.05000254
 44
279.4
 45
215.9
 46
56.71148299683747
 47
30.98808540211088
 48
0.0
 49
0.0
140
0.0
141
0.0
142
0.0228000086557032
143
1.0
 70
  1696
 72
     0
 73
     0
 74
     0
  7

 75
     0
147
0.0235690232323232
148
0.0
149
0.0
100
AcDbLayout
  1
Model
 70
     1
 71
     0
 10
0.0
 20
0.0
 11
420.0
 21
297.0
 12
0.0
 22
0.0
 32
0.0
 14
-83.37500000000011
 24
-49.97180738881175
 34
0.0
 15
114.4656090742286
 25
47.37899999999993
 35
0.0
146
0.0
 13
0.0
 23
0.0
 33
0.0
 16
1.0
 26
0.0
 36
0.0
 17
0.0
 27
1.0
 37
0.0
 76
     0
330
1F
331
29
  0
MLINESTYLE
  5
18
102
{ACAD_REACTORS
330
17
102
}
330
17
100
AcDbMlineStyle
  2
Standard
 70
     0
  3

 62
   256
 51
90.0
 52
90.0
 71
     2
 49
0.5
 62
   256
  6
BYLAYER
 49
-0.5
 62
   256
  6
BYLAYER
  0
ACDBPLACEHOLDER
  5
F
102
{ACAD_REACTORS
330
E
102
}
330
E
  0
SCALE
  5
48
102
{ACAD_REACTORS
330
47
102
}
330
47
100
AcDbScale
 70
     0
300
1:1
140
1.0
141
1.0
290
     1
  0
SCALE
  5
49
102
{ACAD_REACTORS
330
47
102
}
330
47
100
AcDbScale
 70
     0
300
1:2
140
1.0
141
2.0
290
     0
  0
SCALE
  5
4A
102
{ACAD_REACTORS
330
47
102
}
330
47
100
AcDbScale
 70
     0
300
1:4
140
1.0
141
4.0
290
     0
  0
SCALE
  5
4B
102
{ACAD_REACTORS
330
47
102
}
330
47
100
AcDbScale
 70
     0
300
1:5
140
1.0
141
5.0
290
     0
  0
SCALE
  5
4C
102
{ACAD_REACTORS
330
47
102
}
330
47
100
AcDbScale
 70
     0
300
1:8
140
1.0
141
8.0
290
     0
  0
SCALE
  5
4D
102
{ACAD_REACTORS
330
47
102
}
330
47
100
AcDbScale
 70
     0
300
1:10
140
1.0
141
10.0
290
     0
  0
SCALE
  5
4E
102
{ACAD_REACTORS
330
47
102
}
330
47
100
AcDbScale
 70
     0
300
1:16
140
1.0
141
16.0
290
     0
  0
SCALE
  5
4F
102
{ACAD_REACTORS
330
47
102
}
330
47
100
AcDbScale
 70
     0
300
1:20
140
1.0
141
20.0
290
     0
  0
SCALE
  5
50
102
{ACAD_REACTORS
330
47
102
}
330
47
100
AcDbScale
 70
     0
300
1:30
140
1.0
141
30.0
290
     0
  0
SCALE
  5
51
102
{ACAD_REACTORS
330
47
102
}
330
47
100
AcDbScale
 70
     0
300
1:40
140
1.0
141
40.0
290
     0
  0
SCALE
  5
52
102
{ACAD_REACTORS
330
47
102
}
330
47
100
AcDbScale
 70
     0
300
1:50
140
1.0
141
50.0
290
     0
  0
SCALE
  5
53
102
{ACAD_REACTORS
330
47
102
}
330
47
100
AcDbScale
 70
     0
300
1:100
140
1.0
141
100.0
290
     0
  0
SCALE
  5
54
102
{ACAD_REACTORS
330
47
102
}
330
47
100
AcDbScale
 70
     0
300
2:1
140
2.0
141
1.0
290
     0
  0
SCALE
  5
55
102
{ACAD_REACTORS
330
47
102
}
330
47
100
AcDbScale
 70
     0
300
4:1
140
4.0
141
1.0
290
     0
  0
SCALE
  5
56
102
{ACAD_REACTORS
330
47
102
}
330
47
100
AcDbScale
 70
     0
300
8:1
140
8.0
141
1.0
290
     0
  0
SCALE
  5
57
102
{ACAD_REACTORS
330
47
102
}
330
47
100
AcDbScale
 70
     0
300
10:1
140
10.0
141
1.0
290
     0
  0
SCALE
  5
58
102
{ACAD_REACTORS
330
47
102
}
330
47
100
AcDbScale
 70
     0
300
100:1
140
100.0
141
1.0
290
     0
  0
SCALE
  5
59
102
{ACAD_REACTORS
330
47
102
}
330
47
100
AcDbScale
 70
     0
300
1/128" = 1'-0"
140
0.0078125
141
12.0
290
     0
  0
SCALE
  5
5A
102
{ACAD_REACTORS
330
47
102
}
330
47
100
AcDbScale
 70
     0
300
1/64" = 1'-0"
140
0.015625
141
12.0
290
     0
  0
SCALE
  5
5B
102
{ACAD_REACTORS
330
47
102
}
330
47
100
AcDbScale
 70
     0
300
1/32" = 1'-0"
140
0.03125
141
12.0
290
     0
  0
SCALE
  5
5C
102
{ACAD_REACTORS
330
47
102
}
330
47
100
AcDbScale
 70
     0
300
1/16" = 1'-0"
140
0.0625
141
12.0
290
     0
  0
SCALE
  5
5D
102
{ACAD_REACTORS
330
47
102
}
330
47
100
AcDbScale
 70
     0
300
3/32" = 1'-0"
140
0.09375
141
12.0
290
     0
  0
SCALE
  5
5E
102
{ACAD_REACTORS
330
47
102
}
330
47
100
AcDbScale
 70
     0
300
1/8" = 1'-0"
140
0.125
141
12.0
290
     0
  0
SCALE
  5
5F
102
{ACAD_REACTORS
330
47
102
}
330
47
100
AcDbScale
 70
     0
300
3/16" = 1'-0"
140
0.1875
141
12.0
290
     0
  0
SCALE
  5
60
102
{ACAD_REACTORS
330
47
102
}
330
47
100
AcDbScale
 70
     0
300
1/4" = 1'-0"
140
0.25
141
12.0
290
     0
  0
SCALE
  5
61
102
{ACAD_REACTORS
330
47
102
}
330
47
100
AcDbScale
 70
     0
300
3/8" = 1'-0"
140
0.375
141
12.0
290
     0
  0
SCALE
  5
62
102
{ACAD_REACTORS
330
47
102
}
330
47
100
AcDbScale
 70
     0
300
1/2" = 1'-0"
140
0.5
141
12.0
290
     0
  0
SCALE
  5
63
102
{ACAD_REACTORS
330
47
102
}
330
47
100
AcDbScale
 70
     0
300
3/4" = 1'-0"
140
0.75
141
12.0
290
     0
  0
SCALE
  5
64
102
{ACAD_REACTORS
330
47
102
}
330
47
100
AcDbScale
 70
     0
300
1" = 1'-0"
140
1.0
141
12.0
290
     0
  0
SCALE
  5
65
102
{ACAD_REACTORS
330
47
102
}
330
47
100
AcDbScale
 70
     0
300
1-1/2" = 1'-0"
140
1.5
141
12.0
290
     0
  0
SCALE
  5
66
102
{ACAD_REACTORS
330
47
102
}
330
47
100
AcDbScale
 70
     0
300
3" = 1'-0"
140
3.0
141
12.0
290
     0
  0
SCALE
  5
67
102
{ACAD_REACTORS
330
47
102
}
330
47
100
AcDbScale
 70
     0
300
6" = 1'-0"
140
6.0
141
12.0
290
     0
  0
SCALE
  5
68
102
{ACAD_REACTORS
330
47
102
}
330
47
100
AcDbScale
 70
     0
300
1'-0" = 1'-0"
140
12.0
141
12.0
290
     0
  0
ENDSEC
  0
EOF
