  0
SECTION
  2
HEADER
  9
$ACADVER
  1
AC1015
  9
$ACADMAINTVER
 70
     6
  9
$DWGCODEPAGE
  3
ANSI_949
  9
$INSBASE
 10
0.0
 20
0.0
 30
0.0
  9
$EXTMIN
 10
-89.72500000000008
 20
-49.97180738881175
 30
0.0
  9
$EXTMAX
 10
100.9691250329551
 20
50.96548918235666
 30
0.0
  9
$LIMMIN
 10
0.0
 20
0.0
  9
$LIMMAX
 10
420.0
 20
297.0
  9
$ORTHOMODE
 70
     1
  9
$REGENMODE
 70
     1
  9
$FILLMODE
 70
     1
  9
$QTEXTMODE
 70
     0
  9
$MIRRTEXT
 70
     1
  9
$LTSCALE
 40
1.0
  9
$ATTMODE
 70
     1
  9
$TEXTSIZE
 40
3.5
  9
$TRACEWID
 40
1.0
  9
$TEXTSTYLE
  7
Standard
  9
$CLAYER
  8
0
  9
$CELTYPE
  6
ByLayer
  9
$CECOLOR
 62
   256
  9
$CELTSCALE
 40
1.0
  9
$DISPSILH
 70
     0
  9
$DIMSCALE
 40
1.0
  9
$DIMASZ
 40
3.302
  9
$DIMEXO
 40
1.0
  9
$DIMDLI
 40
3.75
  9
$DIMRND
 40
0.0
  9
$DIMDLE
 40
0.0
  9
$DIMEXE
 40
1.0
  9
$DIMTP
 40
0.0
  9
$DIMTM
 40
0.0
  9
$DIMTXT
 40
3.5
  9
$DIMCEN
 40
2.5
  9
$DIMTSZ
 40
0.0
  9
$DIMTOL
 70
     0
  9
$DIMLIM
 70
     0
  9
$DIMTIH
 70
     1
  9
$DIMTOH
 70
     1
  9
$DIMSE1
 70
     0
  9
$DIMSE2
 70
     0
  9
$DIMTAD
 70
     1
  9
$DIMZIN
 70
     0
  9
$DIMBLK
  1

  9
$DIMASO
 70
     1
  9
$DIMSHO
 70
     1
  9
$DIMPOST
  1

  9
$DIMAPOST
  1

  9
$DIMALT
 70
     0
  9
$DIMALTD
 70
     3
  9
$DIMALTF
 40
0.0393700787401575
  9
$DIMLFAC
 40
1.0
  9
$DIMTOFL
 70
     1
  9
$DIMTVP
 40
0.0
  9
$DIMTIX
 70
     0
  9
$DIMSOXD
 70
     0
  9
$DIMSAH
 70
     0
  9
$DIMBLK1
  1

  9
$DIMBLK2
  1

  9
$DIMSTYLE
  2
ISO-25
  9
$DIMCLRD
 70
     0
  9
$DIMCLRE
 70
     0
  9
$DIMCLRT
 70
     0
  9
$DIMTFAC
 40
1.0
  9
$DIMGAP
 40
1.524
  9
$DIMJUST
 70
     0
  9
$DIMSD1
 70
     0
  9
$DIMSD2
 70
     0
  9
$DIMTOLJ
 70
     0
  9
$DIMTZIN
 70
     0
  9
$DIMALTZ
 70
     0
  9
$DIMALTTZ
 70
     0
  9
$DIMUPT
 70
     0
  9
$DIMDEC
 70
     2
  9
$DIMTDEC
 70
     2
  9
$DIMALTU
 70
     2
  9
$DIMALTTD
 70
     3
  9
$DIMTXSTY
  7
Standard
  9
$DIMAUNIT
 70
     0
  9
$DIMADEC
 70
     2
  9
$DIMALTRND
 40
0.0
  9
$DIMAZIN
 70
     0
  9
$DIMDSEP
 70
    44
  9
$DIMATFIT
 70
     3
  9
$DIMFRAC
 70
     0
  9
$DIMLDRBLK
  1

  9
$DIMLUNIT
 70
     2
  9
$DIMLWD
 70
    -2
  9
$DIMLWE
 70
    -2
  9
$DIMTMOVE
 70
     0
  9
$LUNITS
 70
     2
  9
$LUPREC
 70
     2
  9
$SKETCHINC
 40
1.0
  9
$FILLETRAD
 40
10.0
  9
$AUNITS
 70
     0
  9
$AUPREC
 70
     2
  9
$MENU
  1
.
  9
$ELEVATION
 40
0.0
  9
$PELEVATION
 40
0.0
  9
$THICKNESS
 40
0.0
  9
$LIMCHECK
 70
     0
  9
$CHAMFERA
 40
0.0
  9
$CHAMFERB
 40
0.0
  9
$CHAMFERC
 40
0.0
  9
$CHAMFERD
 40
0.0
  9
$SKPOLY
 70
     0
  9
$TDCREATE
 40
2458313.400759248
  9
$TDUCREATE
 40
2458313.025759248
  9
$TDUPDATE
 40
2458330.777516794
  9
$TDUUPDATE
 40
2458330.402516794
  9
$TDINDWG
 40
0.0004265278
  9
$TDUSRTIMER
 40
2458330.402480301
  9
$USRTIMER
 70
     1
  9
$ANGBASE
 50
0.0
  9
$ANGDIR
 70
     0
  9
$PDMODE
 70
     0
  9
$PDSIZE
 40
-1.0
  9
$PLINEWID
 40
0.0
  9
$SPLFRAME
 70
     0
  9
$SPLINETYPE
 70
     6
  9
$SPLINESEGS
 70
     8
  9
$HANDSEED
  5
246
  9
$SURFTAB1
 70
     6
  9
$SURFTAB2
 70
     6
  9
$SURFTYPE
 70
     6
  9
$SURFU
 70
     6
  9
$SURFV
 70
     6
  9
$UCSBASE
  2

  9
$UCSNAME
  2

  9
$UCSORG
 10
0.0
 20
0.0
 30
0.0
  9
$UCSXDIR
 10
1.0
 20
0.0
 30
0.0
  9
$UCSYDIR
 10
0.0
 20
1.0
 30
0.0
  9
$UCSORTHOREF
  2

  9
$UCSORTHOVIEW
 70
     0
  9
$UCSORGTOP
 10
0.0
 20
0.0
 30
0.0
  9
$UCSORGBOTTOM
 10
0.0
 20
0.0
 30
0.0
  9
$UCSORGLEFT
 10
0.0
 20
0.0
 30
0.0
  9
$UCSORGRIGHT
 10
0.0
 20
0.0
 30
0.0
  9
$UCSORGFRONT
 10
0.0
 20
0.0
 30
0.0
  9
$UCSORGBACK
 10
0.0
 20
0.0
 30
0.0
  9
$PUCSBASE
  2

  9
$PUCSNAME
  2

  9
$PUCSORG
 10
0.0
 20
0.0
 30
0.0
  9
$PUCSXDIR
 10
1.0
 20
0.0
 30
0.0
  9
$PUCSYDIR
 10
0.0
 20
1.0
 30
0.0
  9
$PUCSORTHOREF
  2

  9
$PUCSORTHOVIEW
 70
     0
  9
$PUCSORGTOP
 10
0.0
 20
0.0
 30
0.0
  9
$PUCSORGBOTTOM
 10
0.0
 20
0.0
 30
0.0
  9
$PUCSORGLEFT
 10
0.0
 20
0.0
 30
0.0
  9
$PUCSORGRIGHT
 10
0.0
 20
0.0
 30
0.0
  9
$PUCSORGFRONT
 10
0.0
 20
0.0
 30
0.0
  9
$PUCSORGBACK
 10
0.0
 20
0.0
 30
0.0
  9
$USERI1
 70
     0
  9
$USERI2
 70
     0
  9
$USERI3
 70
     0
  9
$USERI4
 70
     0
  9
$USERI5
 70
     0
  9
$USERR1
 40
0.0
  9
$USERR2
 40
0.0
  9
$USERR3
 40
0.0
  9
$USERR4
 40
0.0
  9
$USERR5
 40
0.0
  9
$WORLDVIEW
 70
     1
  9
$SHADEDGE
 70
     3
  9
$SHADEDIF
 70
    70
  9
$TILEMODE
 70
     1
  9
$MAXACTVP
 70
    64
  9
$PINSBASE
 10
0.0
 20
0.0
 30
0.0
  9
$PLIMCHECK
 70
     0
  9
$PEXTMIN
 10
1.000000000000000E+20
 20
1.000000000000000E+20
 30
1.000000000000000E+20
  9
$PEXTMAX
 10
-1.000000000000000E+20
 20
-1.000000000000000E+20
 30
-1.000000000000000E+20
  9
$PLIMMIN
 10
0.0
 20
0.0
  9
$PLIMMAX
 10
0.0
 20
0.0
  9
$UNITMODE
 70
     0
  9
$VISRETAIN
 70
     1
  9
$PLINEGEN
 70
     0
  9
$PSLTSCALE
 70
     1
  9
$TREEDEPTH
 70
  3020
  9
$CMLSTYLE
  2
Standard
  9
$CMLJUST
 70
     0
  9
$CMLSCALE
 40
20.0
  9
$PROXYGRAPHICS
 70
     1
  9
$MEASUREMENT
 70
     1
  9
$CELWEIGHT
370
    -1
  9
$ENDCAPS
280
     0
  9
$JOINSTYLE
280
     0
  9
$LWDISPLAY
290
     1
  9
$INSUNITS
 70
     4
  9
$HYPERLINKBASE
  1

  9
$STYLESHEET
  1

  9
$XEDIT
290
     1
  9
$CEPSNTYPE
380
     0
  9
$PSTYLEMODE
290
     1
  9
$FINGERPRINTGUID
  2
{019BC10E-E258-48E3-AF4D-DA17FDE68734}
  9
$VERSIONGUID
  2
{FAEB1C32-E019-11D5-929B-00C0DF256EC4}
  9
$EXTNAMES
290
     1
  9
$PSVPSCALE
 40
0.0
  9
$OLESTARTUP
290
     0
  0
ENDSEC
  0
SECTION
  2
CLASSES
  0
CLASS
  1
ACDBDICTIONARYWDFLT
  2
AcDbDictionaryWithDefault
  3
ObjectDBX Classes
 90
        0
280
     0
281
     0
  0
CLASS
  1
VISUALSTYLE
  2
AcDbVisualStyle
  3
ObjectDBX Classes
 90
     4095
280
     0
281
     0
  0
CLASS
  1
MATERIAL
  2
AcDbMaterial
  3
ObjectDBX Classes
 90
     1153
280
     0
281
     0
  0
CLASS
  1
SCALE
  2
AcDbScale
  3
ObjectDBX Classes
 90
     1153
280
     0
281
     0
  0
CLASS
  1
SUN
  2
AcDbSun
  3
SCENEOE
 90
     1153
280
     0
281
     0
  0
CLASS
  1
ACDBPLACEHOLDER
  2
AcDbPlaceHolder
  3
ObjectDBX Classes
 90
        0
280
     0
281
     0
  0
CLASS
  1
LAYOUT
  2
AcDbLayout
  3
ObjectDBX Classes
 90
        0
280
     0
281
     0
  0
CLASS
  1
TABLESTYLE
  2
AcDbTableStyle
  3
ObjectDBX Classes
 90
     4095
280
     0
281
     0
  0
CLASS
  1
MLEADERSTYLE
  2
AcDbMLeaderStyle
  3
ACDB_MLEADERSTYLE_CLASS
 90
     4095
280
     0
281
     0
  0
CLASS
  1
RASTERVARIABLES
  2
AcDbRasterVariables
  3
ISM
 90
        0
280
     0
281
     0
  0
ENDSEC
  0
SECTION
  2
TABLES
  0
TABLE
  2
VPORT
  5
8
330
0
100
AcDbSymbolTable
 70
     1
  0
VPORT
  5
29
330
8
100
AcDbSymbolTableRecord
100
AcDbViewportTableRecord
  2
*Active
 70
     0
 10
0.0
 20
0.0
 11
1.0
 21
1.0
 12
5.622062516477484
 22
0.4968408967724542
 13
0.0
 23
0.0
 14
10.0
 24
10.0
 15
10.0
 25
10.0
 16
0.0
 26
0.0
 36
1.0
 17
0.0
 27
0.0
 37
0.0
 40
109.1048227688551
 41
1.782762691853601
 42
50.0
 43
0.0
 44
0.0
 50
0.0
 51
0.0
 71
    16
 72
  2000
 73
     1
 74
     3
 75
     0
 76
     0
 77
     0
 78
     0
281
     0
 65
     1
110
0.0
120
0.0
130
0.0
111
1.0
121
0.0
131
0.0
112
0.0
122
1.0
132
0.0
 79
     0
146
0.0
  0
ENDTAB
  0
TABLE
  2
LTYPE
  5
5
330
0
100
AcDbSymbolTable
 70
     6
  0
LTYPE
  5
14
330
5
100
AcDbSymbolTableRecord
100
AcDbLinetypeTableRecord
  2
ByBlock
 70
     0
  3

 72
    65
 73
     0
 40
0.0
  0
LTYPE
  5
15
330
5
100
AcDbSymbolTableRecord
100
AcDbLinetypeTableRecord
  2
ByLayer
 70
     0
  3

 72
    65
 73
     0
 40
0.0
  0
LTYPE
  5
16
330
5
100
AcDbSymbolTableRecord
100
AcDbLinetypeTableRecord
  2
Continuous
 70
     0
  3
Solid line
 72
    65
 73
     0
 40
0.0
  0
LTYPE
  5
6A
330
5
100
AcDbSymbolTableRecord
100
AcDbLinetypeTableRecord
  2
HIDDEN
 70
     0
  3
Hidden __ __ __ __ __ __ __ __ __ __ __ __ __ __
 72
    65
 73
     2
 40
1.905
 49
1.27
 74
     0
 49
-0.635
 74
     0
  0
LTYPE
  5
6B
330
5
100
AcDbSymbolTableRecord
100
AcDbLinetypeTableRecord
  2
PHANTOM
 70
     0
  3
Phantom ______  __  __  ______  __  __  ______
 72
    65
 73
     6
 40
12.7
 49
6.35
 74
     0
 49
-1.27
 74
     0
 49
1.27
 74
     0
 49
-1.27
 74
     0
 49
1.27
 74
     0
 49
-1.27
 74
     0
  0
LTYPE
  5
6C
330
5
100
AcDbSymbolTableRecord
100
AcDbLinetypeTableRecord
  2
CENTER
 70
     0
  3
Center ____ _ ____ _ ____ _ ____ _ ____ _ ____
 72
    65
 73
     4
 40
10.16
 49
6.35
 74
     0
 49
-1.27
 74
     0
 49
1.27
 74
     0
 49
-1.27
 74
     0
  0
LTYPE
  5
6D
330
5
100
AcDbSymbolTableRecord
100
AcDbLinetypeTableRecord
  2
CENTERX2
 70
     0
  3
Center (2x) ________  __  ________  __  _____
 72
    65
 73
     4
 40
20.32
 49
12.7
 74
     0
 49
-2.54
 74
     0
 49
2.54
 74
     0
 49
-2.54
 74
     0
  0
LTYPE
  5
6E
330
5
100
AcDbSymbolTableRecord
100
AcDbLinetypeTableRecord
  2
DOT2
 70
     0
  3
Dot (.5x) ........................................
 72
    65
 73
     2
 40
0.635
 49
0.0
 74
     0
 49
-0.635
 74
     0
  0
ENDTAB
  0
TABLE
  2
LAYER
  5
2
102
{ACAD_XDICTIONARY
360
17E
102
}
330
0
100
AcDbSymbolTable
 70
    18
  0
LAYER
  5
10
330
2
100
AcDbSymbolTableRecord
100
AcDbLayerTableRecord
  2
0
 70
     0
 62
     7
  6
Continuous
370
    -3
390
F
  0
LAYER
  5
6F
330
2
100
AcDbSymbolTableRecord
100
AcDbLayerTableRecord
  2
FORMAT
 70
     0
 62
     2
  6
Continuous
370
    -3
390
F
  0
LAYER
  5
70
330
2
100
AcDbSymbolTableRecord
100
AcDbLayerTableRecord
  2
외형선
 70
     0
 62
     4
  6
Continuous
370
    30
390
F
  0
LAYER
  5
71
330
2
100
AcDbSymbolTableRecord
100
AcDbLayerTableRecord
  2
숨은선
 70
     0
 62
     2
  6
HIDDEN
370
    15
390
F
  0
LAYER
  5
72
330
2
100
AcDbSymbolTableRecord
100
AcDbLayerTableRecord
  2
중심선
 70
     0
 62
     1
  6
CENTERX2
370
    -3
390
F
  0
LAYER
  5
73
330
2
100
AcDbSymbolTableRecord
100
AcDbLayerTableRecord
  2
파단선
 70
     0
 62
     4
  6
Continuous
370
    -3
390
F
  0
LAYER
  5
74
330
2
100
AcDbSymbolTableRecord
100
AcDbLayerTableRecord
  2
해칭선
 70
     0
 62
   100
  6
Continuous
370
    -3
390
F
  0
LAYER
  5
75
330
2
100
AcDbSymbolTableRecord
100
AcDbLayerTableRecord
  2
가는실선
 70
     0
 62
     4
  6
Continuous
370
    -3
390
F
  0
LAYER
  5
76
330
2
100
AcDbSymbolTableRecord
100
AcDbLayerTableRecord
  2
치수_보조선
 70
     0
 62
     4
  6
Continuous
370
    -3
390
F
  0
LAYER
  5
77
330
2
100
AcDbSymbolTableRecord
100
AcDbLayerTableRecord
  2
치수문자_일반주서
 70
     0
 62
     7
  6
Continuous
370
    15
390
F
  0
LAYER
  5
78
330
2
100
AcDbSymbolTableRecord
100
AcDbLayerTableRecord
  2
개별주서
 70
     0
 62
   100
  6
Continuous
370
    30
390
F
  0
LAYER
  5
79
330
2
100
AcDbSymbolTableRecord
100
AcDbLayerTableRecord
  2
중간선
 70
     0
 62
     2
  6
Continuous
370
    15
390
F
  0
LAYER
  5
7A
330
2
100
AcDbSymbolTableRecord
100
AcDbLayerTableRecord
  2
윤곽선
 70
     0
 62
     3
  6
Continuous
370
    40
390
F
  0
LAYER
  5
7B
330
2
100
AcDbSymbolTableRecord
100
AcDbLayerTableRecord
  2
중심마크
 70
     0
 62
   100
  6
Continuous
370
    30
390
F
  0
LAYER
  5
7C
330
2
100
AcDbSymbolTableRecord
100
AcDbLayerTableRecord
  2
가상선
 70
     0
 62
     4
  6
PHANTOM
370
    -3
390
F
  0
LAYER
  5
7D
330
2
100
AcDbSymbolTableRecord
100
AcDbLayerTableRecord
  2
특수지정선
 70
     0
 62
     5
  6
CENTERX2
370
    60
390
F
  0
LAYER
  5
7E
330
2
100
AcDbSymbolTableRecord
100
AcDbLayerTableRecord
  2
참조1
 70
     0
 62
    -4
  6
Continuous
370
    -3
390
F
  0
LAYER
  5
15A
330
2
100
AcDbSymbolTableRecord
100
AcDbLayerTableRecord
  2
Defpoints
 70
     0
 62
     7
  6
Continuous
290
     0
370
    -3
390
F
  0
ENDTAB
  0
TABLE
  2
STYLE
  5
3
330
0
100
AcDbSymbolTable
 70
     2
  0
STYLE
  5
11
330
3
100
AcDbSymbolTableRecord
100
AcDbTextStyleTableRecord
  2
Standard
 70
     0
 40
0.0
 41
1.0
 50
0.0
 71
     0
 42
3.5
  3
txt
  4

  0
STYLE
  5
94
330
3
100
AcDbSymbolTableRecord
100
AcDbTextStyleTableRecord
  2
SLDTEXTSTYLE0
 70
     0
 40
0.0
 41
0.75
 50
0.0
 71
     0
 42
3.5
  3
TXT
  4

  0
ENDTAB
  0
TABLE
  2
VIEW
  5
6
330
0
100
AcDbSymbolTable
 70
     0
  0
ENDTAB
  0
TABLE
  2
UCS
  5
7
330
0
100
AcDbSymbolTable
 70
     0
  0
ENDTAB
  0
TABLE
  2
APPID
  5
9
330
0
100
AcDbSymbolTable
 70
     4
  0
APPID
  5
12
330
9
100
AcDbSymbolTableRecord
100
AcDbRegAppTableRecord
  2
ACAD
 70
     0
  0
APPID
  5
184
330
9
100
AcDbSymbolTableRecord
100
AcDbRegAppTableRecord
  2
PE_URL
 70
     0
  0
APPID
  5
220
330
9
100
AcDbSymbolTableRecord
100
AcDbRegAppTableRecord
  2
ACAD_DSTYLE_DIMFLIPARROW_SYMBOL
 70
     0
  0
APPID
  5
221
330
9
100
AcDbSymbolTableRecord
100
AcDbRegAppTableRecord
  2
ACAD_DSTYLE_DIMFLIPARROW_WHICH_SYMBOL
 70
     0
  0
ENDTAB
  0
TABLE
  2
DIMSTYLE
  5
A
330
0
100
AcDbSymbolTable
 70
     4
100
AcDbDimStyleTable
  0
DIMSTYLE
105
27
330
A
100
AcDbSymbolTableRecord
100
AcDbDimStyleTableRecord
  2
ISO-25
 70
     0
 41
2.5
 42
0.625
 43
3.75
 44
1.25
 73
     0
 74
     0
 77
     1
 78
     8
140
2.5
141
2.5
143
0.03937007874016
147
0.625
171
     3
172
     1
178
     0
271
     2
272
     2
274
     3
278
    44
283
     0
284
     8
340
11
  0
DIMSTYLE
105
DA
330
A
100
AcDbSymbolTableRecord
100
AcDbDimStyleTableRecord
  2
SLDDIMSTYLE0
 70
     0
 41
3.302
 44
0.0
 45
0.000000001
 73
     0
 74
     0
 77
     1
 78
    12
 79
     3
140
3.5
143
0.0393700787401575
147
0.875
148
0.000000001
170
     1
172
     1
173
     1
178
     0
271
     2
272
     2
276
     2
284
    12
289
     0
340
94
  0
DIMSTYLE
105
EF
102
{ACAD_REACTORS
330
EE
330
102
330
116
330
D9
102
}
330
A
100
AcDbSymbolTableRecord
100
AcDbDimStyleTableRecord
  2
SLDDIMSTYLE1
 70
     0
 41
3.302
 44
0.0
 45
0.000000001
 73
     0
 74
     0
 77
     1
 78
    12
 79
     3
140
3.5
143
0.0393700787401575
147
0.875
148
0.000000001
170
     1
173
     1
178
     0
271
     2
272
     2
276
     2
284
    12
340
94
  0
DIMSTYLE
105
117
330
A
100
AcDbSymbolTableRecord
100
AcDbDimStyleTableRecord
  2
SLDDIMSTYLE2
 70
     0
 41
3.302
 44
0.0
 45
0.000000001
 73
     0
 74
     0
 77
     1
 78
     4
 79
     1
140
3.5
143
0.0393700787401575
147
0.875
148
0.000000001
170
     1
173
     1
178
     0
271
     2
272
     2
276
     2
284
    12
340
94
  0
ENDTAB
  0
TABLE
  2
BLOCK_RECORD
  5
1
330
0
100
AcDbSymbolTable
 70
     7
  0
BLOCK_RECORD
  5
1F
330
1
100
AcDbSymbolTableRecord
100
AcDbBlockTableRecord
  2
*Model_Space
340
22
  0
BLOCK_RECORD
  5
1B
330
1
100
AcDbSymbolTableRecord
100
AcDbBlockTableRecord
  2
*Paper_Space
340
1E
  0
BLOCK_RECORD
  5
23
330
1
100
AcDbSymbolTableRecord
100
AcDbBlockTableRecord
  2
*Paper_Space0
340
26
  0
BLOCK_RECORD
  5
7F
330
1
100
AcDbSymbolTableRecord
100
AcDbBlockTableRecord
  2
블럭10
340
0
102
{BLKREFS
331
D2
102
}
  0
BLOCK_RECORD
  5
DB
330
1
100
AcDbSymbolTableRecord
100
AcDbBlockTableRecord
  2
_D
340
0
  0
BLOCK_RECORD
  5
F0
330
1
100
AcDbSymbolTableRecord
100
AcDbBlockTableRecord
  2
_D_1
340
0
  0
BLOCK_RECORD
  5
103
330
1
100
AcDbSymbolTableRecord
100
AcDbBlockTableRecord
  2
_D_2
340
0
  0
BLOCK_RECORD
  5
118
330
1
100
AcDbSymbolTableRecord
100
AcDbBlockTableRecord
  2
_D_3
340
0
  0
BLOCK_RECORD
  5
131
330
1
100
AcDbSymbolTableRecord
100
AcDbBlockTableRecord
  2
SW_DOWELSYMBOL_0
340
0
102
{BLKREFS
331
137
102
}
  0
ENDTAB
  0
ENDSEC
  0
SECTION
  2
BLOCKS
  0
BLOCK
  5
20
330
1F
100
AcDbEntity
  8
0
100
AcDbBlockBegin
  2
*Model_Space
 70
     0
 10
0.0
 20
0.0
 30
0.0
  3
*Model_Space
  1
*Model_Space
  0
ENDBLK
  5
21
330
1F
100
AcDbEntity
  8
0
100
AcDbBlockEnd
  0
BLOCK
  5
1C
330
1B
100
AcDbEntity
 67
     1
  8
0
100
AcDbBlockBegin
  2
*Paper_Space
 70
     0
 10
0.0
 20
0.0
 30
0.0
  3
*Paper_Space
  1
*Paper_Space
  0
ENDBLK
  5
1D
330
1B
100
AcDbEntity
 67
     1
  8
0
100
AcDbBlockEnd
  0
BLOCK
  5
24
330
23
100
AcDbEntity
  8
0
100
AcDbBlockBegin
  2
*Paper_Space0
 70
     0
 10
0.0
 20
0.0
 30
0.0
  3
*Paper_Space0
  1
*Paper_Space0
  0
ENDBLK
  5
25
330
23
100
AcDbEntity
  8
0
100
AcDbBlockEnd
  0
BLOCK
  5
80
330
7F
100
AcDbEntity
  8
0
100
AcDbBlockBegin
  2
블럭10
 70
     2
 10
0.0
 20
0.0
 30
0.0
  3
블럭10
  1
블럭10
  0
ELLIPSE
  5
82
330
7F
100
AcDbEntity
  8
중심선
100
AcDbEllipse
 10
20.54032771741204
 20
12.0471743016438
 30
0.0
 11
6.600054785286829
 21
-1.261213355974178E-13
 31
0.0
210
0.0
220
0.0
230
1.0
 40
0.636358354079598
 41
0.9219305317359503
 42
6.513795318482858
  0
ELLIPSE
  5
83
330
7F
100
AcDbEntity
  8
중심선
100
AcDbEllipse
 10
20.54032771746488
 20
12.04717430159265
 30
0.0
 11
3.960054785062283
 21
1.540847449632565E-10
 31
0.0
210
0.0
220
0.0
230
1.0
 40
0.3939339440162632
 41
1.131841032648279
 42
5.62031148352944
  0
LINE
  5
84
330
7F
100
AcDbEntity
  8
중심선
100
AcDbLine
 10
2.268634060543552
 20
16.24717430164393
 30
0.0
 11
5.714909304380834
 21
16.24717430164393
 31
0.0
  0
LINE
  5
85
330
7F
100
AcDbEntity
  8
중심선
100
AcDbLine
 10
5.245725140726316
 20
7.84717430164391
 30
0.0
 11
8.692000384563599
 21
7.84717430164391
 31
0.0
  0
LINE
  5
86
330
7F
100
AcDbEntity
  8
중심선
100
AcDbLine
 10
15.74043728645272
 20
16.24717430164393
 30
0.0
 11
8.692000384563599
 21
7.84717430164391
 31
0.0
  0
LINE
  5
87
330
7F
100
AcDbEntity
  8
중심선
100
AcDbLine
 10
0.1404042013395286
 20
13.71084872107135
 30
0.0
 11
3.58671253028996
 21
13.71088815037384
 31
0.0
  0
LINE
  5
88
330
7F
100
AcDbEntity
  8
중심선
100
AcDbLine
 10
2.750260043222114
 20
10.84717430164391
 30
0.0
 11
6.196535287059397
 21
10.84717430164391
 31
0.0
  0
LINE
  5
89
330
7F
100
AcDbEntity
  8
중심선
100
AcDbLine
 10
12.29416204261559
 20
16.24717430164393
 30
0.0
 11
5.245725140726316
 21
7.84717430164391
 31
0.0
  0
LINE
  5
8A
330
7F
100
AcDbEntity
  8
중심선
100
AcDbLine
 10
10.72767329541681
 20
16.24717430164393
 30
0.0
 11
6.196535287059397
 21
10.84717430164391
 31
0.0
  0
LINE
  5
8B
330
7F
100
AcDbEntity
  8
중심선
100
AcDbLine
 10
7.28139805157953
 20
16.24717430164393
 30
0.0
 11
2.750260043222114
 21
10.84717430164391
 31
0.0
  0
LINE
  5
8C
330
7F
100
AcDbEntity
  8
중심선
100
AcDbLine
 10
5.714909304380834
 20
16.24717430164393
 30
0.0
 11
3.58671253028996
 21
13.71088815037384
 31
0.0
  0
LINE
  5
8D
330
7F
100
AcDbEntity
  8
중심선
100
AcDbLine
 10
2.268634060543552
 20
16.24717430164393
 30
0.0
 11
0.1404042013395286
 21
13.71084872107135
 31
0.0
  0
LINE
  5
8E
330
7F
100
AcDbEntity
  8
중심선
100
AcDbLine
 10
7.28139805157953
 20
16.24717430164393
 30
0.0
 11
10.72767329541681
 21
16.24717430164393
 31
0.0
  0
LINE
  5
8F
330
7F
100
AcDbEntity
  8
중심선
100
AcDbLine
 10
12.29416204261559
 20
16.24717430164393
 30
0.0
 11
15.74043728645272
 21
16.24717430164393
 31
0.0
  0
LINE
  5
90
330
7F
100
AcDbEntity
  8
중심선
100
AcDbLine
 10
19.22036997980202
 20
11.08717430171403
 30
0.0
 11
23.66174974927406
 21
11.08717430171406
 31
0.0
  0
LINE
  5
91
330
7F
100
AcDbEntity
  8
중심선
100
AcDbLine
 10
19.22039502424796
 20
13.00717430171391
 30
0.0
 11
19.22036997980202
 21
11.08717430171403
 31
0.0
  0
LINE
  5
92
330
7F
100
AcDbEntity
  8
중심선
100
AcDbLine
 10
19.22039502424796
 20
13.00717430171391
 30
0.0
 11
26.96566020931264
 21
13.00717430171391
 31
0.0
  0
LINE
  5
93
330
7F
100
AcDbEntity
  8
중심선
100
AcDbLine
 10
22.22332737316547
 20
13.45928029700563
 30
0.0
 11
24.52862924686651
 21
15.39360700705356
 31
0.0
  0
ATTDEF
  5
95
330
7F
100
AcDbEntity
  8
FORMAT
 62
     2
100
AcDbText
 10
4.408487351596664
 20
2.075366912832191
 30
0.0
 40
4.233333333333333
  1
E1050050
 41
0.75
  7
SLDTEXTSTYLE0
 11
4.408487351596664
 21
-0.0412997538344756
 31
0.0
100
AcDbAttributeDefinition
  3

  2
AUTOATTR0
 70
     0
 74
     1
  0
ENDBLK
  5
81
330
7F
100
AcDbEntity
  8
0
100
AcDbBlockEnd
  0
BLOCK
  5
DC
330
DB
100
AcDbEntity
  8
0
100
AcDbBlockBegin
  2
_D
 70
     0
 10
0.0
 20
0.0
 30
0.0
  3
_D
  1
_D
  0
LINE
  5
DE
330
DB
100
AcDbEntity
  8
치수문자_일반주서
 62
     0
370
    -2
100
AcDbLine
 10
-24.78152700723834
 20
11.11249999999998
 30
0.0
 11
-84.85
 21
11.11249999999976
 31
0.0
  0
LINE
  5
DF
330
DB
100
AcDbEntity
  8
치수문자_일반주서
 62
     0
370
    -2
100
AcDbLine
 10
-24.78152700723835
 20
-11.11250000000001
 30
0.0
 11
-84.84999999999992
 21
-11.11250000000023
 31
0.0
  0
LINE
  5
E0
330
DB
100
AcDbEntity
  8
치수문자_일반주서
 62
     0
370
    -2
100
AcDbLine
 10
-84.85
 20
11.11249999999976
 30
0.0
 11
-84.85000000000011
 21
47.16449999999993
 31
0.0
  0
LINE
  5
E1
330
DB
100
AcDbEntity
  8
치수문자_일반주서
 62
     0
370
    -2
100
AcDbLine
 10
-84.85
 20
11.11249999999976
 30
0.0
 11
-84.84999999999992
 21
-11.11250000000023
 31
0.0
  0
LINE
  5
E2
330
DB
100
AcDbEntity
  8
치수문자_일반주서
 62
     0
370
    -2
100
AcDbLine
 10
-84.85000000000001
 20
14.41449999999976
 30
0.0
 11
-84.85000000000002
 21
17.71649999999976
 31
0.0
  0
LINE
  5
E3
330
DB
100
AcDbEntity
  8
치수문자_일반주서
 62
     0
370
    -2
100
AcDbLine
 10
-84.84999999999991
 20
-14.41450000000023
 30
0.0
 11
-84.8499999999999
 21
-17.71650000000023
 31
0.0
  0
SOLID
  5
E4
330
DB
100
AcDbEntity
  8
치수문자_일반주서
 62
     0
100
AcDbTrace
 10
-85.40033333333334
 20
14.41449999999976
 30
0.0
 11
-84.29966666666668
 21
14.41449999999976
 31
0.0
 12
-84.85
 22
11.11249999999976
 32
0.0
 13
-84.85
 23
11.11249999999976
 33
0.0
  0
SOLID
  5
E5
330
DB
100
AcDbEntity
  8
치수문자_일반주서
 62
     0
100
AcDbTrace
 10
-84.29966666666658
 20
-14.41450000000023
 30
0.0
 11
-85.40033333333324
 21
-14.41450000000023
 31
0.0
 12
-84.84999999999992
 22
-11.11250000000023
 32
0.0
 13
-84.84999999999992
 23
-11.11250000000023
 33
0.0
  0
MTEXT
  5
E6
330
DB
100
AcDbEntity
  8
치수문자_일반주서
 62
     0
100
AcDbMText
 10
-89.72500000000005
 20
30.78949999999992
 30
0.0
 40
4.0
 41
0.0
 71
     2
 72
     1
  1
\A1;%%c22.23 [7/8]
  7
SLDTEXTSTYLE0
 11
-3.197042680585378E-15
 21
1.0
 31
0.0
 73
     1
 44
1.0
  0
POINT
  5
188
330
DB
100
AcDbEntity
  8
Defpoints
 62
     0
100
AcDbPoint
 10
-24.71902700723834
 20
11.11249999999998
 30
0.0
  0
POINT
  5
18C
330
DB
100
AcDbEntity
  8
Defpoints
 62
     0
100
AcDbPoint
 10
-24.71902700723835
 20
-11.11250000000001
 30
0.0
  0
POINT
  5
18D
330
DB
100
AcDbEntity
  8
Defpoints
 62
     0
100
AcDbPoint
 10
-84.84999999999992
 20
-11.11250000000024
 30
0.0
  0
ENDBLK
  5
DD
330
DB
100
AcDbEntity
  8
0
100
AcDbBlockEnd
  0
BLOCK
  5
F1
330
F0
100
AcDbEntity
  8
0
100
AcDbBlockBegin
  2
_D_1
 70
     0
 10
0.0
 20
0.0
 30
0.0
  3
_D_1
  1
_D_1
  0
LINE
  5
F3
330
F0
100
AcDbEntity
  8
치수문자_일반주서
 62
     0
370
    -2
100
AcDbLine
 10
69.91250000000002
 20
-9.913489182356626
 30
0.0
 11
84.8500000000001
 21
-9.913489182356571
 31
0.0
  0
LINE
  5
F4
330
F0
100
AcDbEntity
  8
치수문자_일반주서
 62
     0
370
    -2
100
AcDbLine
 10
69.91250000000002
 20
9.913489182356615
 30
0.0
 11
84.85000000000002
 21
9.91348918235667
 31
0.0
  0
LINE
  5
F5
330
F0
100
AcDbEntity
  8
치수문자_일반주서
 62
     0
370
    -2
100
AcDbLine
 10
84.85000000000002
 20
9.91348918235667
 30
0.0
 11
84.84999999999987
 21
50.96548918235667
 31
0.0
  0
LINE
  5
F6
330
F0
100
AcDbEntity
  8
치수문자_일반주서
 62
     0
370
    -2
100
AcDbLine
 10
84.8500000000001
 20
-9.913489182356571
 30
0.0
 11
84.85000000000002
 21
9.91348918235667
 31
0.0
  0
LINE
  5
F7
330
F0
100
AcDbEntity
  8
치수문자_일반주서
 62
     0
370
    -2
100
AcDbLine
 10
84.85000000000011
 20
-13.21548918235657
 30
0.0
 11
84.85000000000012
 21
-16.51748918235657
 31
0.0
  0
LINE
  5
F8
330
F0
100
AcDbEntity
  8
치수문자_일반주서
 62
     0
370
    -2
100
AcDbLine
 10
84.85000000000001
 20
13.21548918235667
 30
0.0
 11
84.85
 21
16.51748918235667
 31
0.0
  0
SOLID
  5
F9
330
F0
100
AcDbEntity
  8
치수문자_일반주서
 62
     0
100
AcDbTrace
 10
85.40033333333344
 20
-13.21548918235657
 30
0.0
 11
84.29966666666678
 21
-13.21548918235657
 31
0.0
 12
84.8500000000001
 22
-9.913489182356571
 32
0.0
 13
84.8500000000001
 23
-9.913489182356571
 33
0.0
  0
SOLID
  5
FA
330
F0
100
AcDbEntity
  8
치수문자_일반주서
 62
     0
100
AcDbTrace
 10
84.29966666666668
 20
13.21548918235667
 30
0.0
 11
85.40033333333334
 21
13.21548918235667
 31
0.0
 12
84.85000000000002
 22
9.91348918235667
 32
0.0
 13
84.85000000000002
 23
9.91348918235667
 33
0.0
  0
MTEXT
  5
FB
330
F0
100
AcDbEntity
  8
치수문자_일반주서
 62
     0
100
AcDbMText
 10
79.97499999999994
 20
32.09048918235666
 30
0.0
 40
4.0
 41
0.0
 71
     2
 72
     1
  1
\A1;%%c19.83 [25/32]
  7
SLDTEXTSTYLE0
 11
-3.583716705035991E-15
 21
1.0
 31
0.0
 73
     1
 44
1.0
  0
POINT
  5
FC
330
F0
100
AcDbEntity
  8
Defpoints
 62
     0
100
AcDbPoint
 10
69.85000000000002
 20
-9.913489182356626
 30
0.0
  0
POINT
  5
18A
330
F0
100
AcDbEntity
  8
Defpoints
 62
     0
100
AcDbPoint
 10
69.85000000000002
 20
9.913489182356615
 30
0.0
  0
POINT
  5
18B
330
F0
100
AcDbEntity
  8
Defpoints
 62
     0
100
AcDbPoint
 10
84.85000000000002
 20
9.913489182356672
 30
0.0
  0
ENDBLK
  5
F2
330
F0
100
AcDbEntity
  8
0
100
AcDbBlockEnd
  0
BLOCK
  5
104
330
103
100
AcDbEntity
  8
0
100
AcDbBlockBegin
  2
_D_2
 70
     0
 10
0.0
 20
0.0
 30
0.0
  3
_D_2
  1
_D_2
  0
LINE
  5
106
330
103
100
AcDbEntity
  8
치수문자_일반주서
 62
     0
370
    -2
100
AcDbLine
 10
69.85000000000002
 20
9.975989182356615
 30
0.0
 11
69.85000000000002
 21
26.1125
 31
0.0
  0
LINE
  5
107
330
103
100
AcDbEntity
  8
치수문자_일반주서
 62
     0
370
    -2
100
AcDbLine
 10
30.16250000000002
 20
8.715672996236423
 30
0.0
 11
30.16250000000002
 21
26.1125
 31
0.0
  0
LINE
  5
108
330
103
100
AcDbEntity
  8
치수문자_일반주서
 62
     0
370
    -2
100
AcDbLine
 10
66.54800000000003
 20
26.1125
 30
0.0
 11
33.46450000000002
 21
26.1125
 31
0.0
  0
SOLID
  5
109
330
103
100
AcDbEntity
  8
치수문자_일반주서
 62
     0
100
AcDbTrace
 10
66.54800000000003
 20
25.56216666666667
 30
0.0
 11
66.54800000000003
 21
26.66283333333334
 31
0.0
 12
69.85000000000002
 22
26.1125
 32
0.0
 13
69.85000000000002
 23
26.1125
 33
0.0
  0
SOLID
  5
10A
330
103
100
AcDbEntity
  8
치수문자_일반주서
 62
     0
100
AcDbTrace
 10
33.46450000000002
 20
26.66283333333334
 30
0.0
 11
33.46450000000002
 21
25.56216666666667
 31
0.0
 12
30.16250000000002
 22
26.1125
 32
0.0
 13
30.16250000000002
 23
26.1125
 33
0.0
  0
MTEXT
  5
10B
330
103
100
AcDbEntity
  8
치수문자_일반주서
 62
     0
100
AcDbMText
 10
50.00625000000002
 20
30.9875
 30
0.0
 40
4.0
 41
0.0
 71
     2
 72
     1
  1
\A1;39.69 [1 9/16]
  7
SLDTEXTSTYLE0
 73
     1
 44
1.0
  0
POINT
  5
10C
330
103
100
AcDbEntity
  8
Defpoints
 62
     0
100
AcDbPoint
 10
69.85000000000002
 20
9.913489182356615
 30
0.0
  0
POINT
  5
10D
330
103
100
AcDbEntity
  8
Defpoints
 62
     0
100
AcDbPoint
 10
30.16250000000002
 20
8.653172996236423
 30
0.0
  0
POINT
  5
10E
330
103
100
AcDbEntity
  8
Defpoints
 62
     0
100
AcDbPoint
 10
30.16250000000002
 20
26.1125
 30
0.0
  0
ENDBLK
  5
105
330
103
100
AcDbEntity
  8
0
100
AcDbBlockEnd
  0
BLOCK
  5
119
330
118
100
AcDbEntity
  8
0
100
AcDbBlockBegin
  2
_D_3
 70
     0
 10
0.0
 20
0.0
 30
0.0
  3
_D_3
  1
_D_3
  0
LINE
  5
11B
330
118
100
AcDbEntity
  8
치수문자_일반주서
 62
     0
370
    -2
100
AcDbLine
 10
-69.85000000000002
 20
9.975989182356603
 30
0.0
 11
-69.85000000000002
 21
41.1125
 31
0.0
  0
LINE
  5
11C
330
118
100
AcDbEntity
  8
치수문자_일반주서
 62
     0
370
    -2
100
AcDbLine
 10
69.85000000000002
 20
9.975989182356615
 30
0.0
 11
69.85000000000002
 21
41.1125
 31
0.0
  0
LINE
  5
11D
330
118
100
AcDbEntity
  8
치수문자_일반주서
 62
     0
370
    -2
100
AcDbLine
 10
-66.54800000000003
 20
41.1125
 30
0.0
 11
66.54800000000003
 21
41.1125
 31
0.0
  0
SOLID
  5
11E
330
118
100
AcDbEntity
  8
치수문자_일반주서
 62
     0
100
AcDbTrace
 10
-66.54800000000003
 20
41.66283333333334
 30
0.0
 11
-66.54800000000003
 21
40.56216666666667
 31
0.0
 12
-69.85000000000002
 22
41.1125
 32
0.0
 13
-69.85000000000002
 23
41.1125
 33
0.0
  0
SOLID
  5
11F
330
118
100
AcDbEntity
  8
치수문자_일반주서
 62
     0
100
AcDbTrace
 10
66.54800000000003
 20
40.56216666666667
 30
0.0
 11
66.54800000000003
 21
41.66283333333334
 31
0.0
 12
69.85000000000002
 22
41.1125
 32
0.0
 13
69.85000000000002
 23
41.1125
 33
0.0
  0
MTEXT
  5
120
330
118
100
AcDbEntity
  8
치수문자_일반주서
 62
     0
100
AcDbMText
 10
0.0000000000000284
 20
45.9875
 30
0.0
 40
4.0
 41
0.0
 71
     2
 72
     1
  1
\A1;139.7 [5 1/2]
  7
SLDTEXTSTYLE0
 73
     1
 44
1.0
  0
POINT
  5
121
330
118
100
AcDbEntity
  8
Defpoints
 62
     0
100
AcDbPoint
 10
-69.85000000000002
 20
9.913489182356603
 30
0.0
  0
POINT
  5
122
330
118
100
AcDbEntity
  8
Defpoints
 62
     0
100
AcDbPoint
 10
69.85000000000002
 20
9.913489182356615
 30
0.0
  0
POINT
  5
123
330
118
100
AcDbEntity
  8
Defpoints
 62
     0
100
AcDbPoint
 10
69.85000000000002
 20
41.1125
 30
0.0
  0
ENDBLK
  5
11A
330
118
100
AcDbEntity
  8
0
100
AcDbBlockEnd
  0
BLOCK
  5
132
330
131
100
AcDbEntity
  8
0
100
AcDbBlockBegin
  2
SW_DOWELSYMBOL_0
 70
     0
 10
0.0
 20
0.0
 30
0.0
  3
SW_DOWELSYMBOL_0
  1
SW_DOWELSYMBOL_0
  0
CIRCLE
  5
134
330
131
100
AcDbEntity
  8
해칭선
 62
     0
100
AcDbCircle
 10
0.0
 20
0.0
 30
0.0
 40
3.000000000000001
  0
HATCH
  5
135
330
131
100
AcDbEntity
  8
0
  6
Continuous
 62
     0
370
     0
100
AcDbHatch
 10
0.0
 20
0.0
 30
0.0
210
0.0
220
0.0
230
1.0
  2
SOLID
 70
     1
 71
     0
 91
        1
 92
        0
 93
        3
 72
     2
 10
0.0
 20
0.0
 40
3.000000000000001
 50
0.0
 51
90.0
 73
     1
 72
     1
 10
0.0
 20
3.000000000000001
 11
0.0
 21
0.0
 72
     1
 10
0.0
 20
0.0
 11
3.000000000000001
 21
0.0
 97
        0
 75
     0
 76
     1
 98
        1
 10
0.0
 20
0.0
  0
HATCH
  5
136
330
131
100
AcDbEntity
  8
0
  6
Continuous
 62
     0
370
     0
100
AcDbHatch
 10
0.0
 20
0.0
 30
0.0
210
0.0
220
0.0
230
1.0
  2
SOLID
 70
     1
 71
     0
 91
        1
 92
        0
 93
        3
 72
     2
 10
0.0
 20
0.0
 40
3.000000000000001
 50
180.0
 51
270.0000000000007
 73
     1
 72
     1
 10
0.0
 20
-3.000000000000001
 11
0.0
 21
0.0
 72
     1
 10
0.0
 20
0.0
 11
-3.000000000000001
 21
0.0
 97
        0
 75
     0
 76
     1
 98
        1
 10
0.0
 20
0.0
  0
ENDBLK
  5
133
330
131
100
AcDbEntity
  8
0
100
AcDbBlockEnd
  0
ENDSEC
  0
SECTION
  2
ENTITIES
  0
LINE
  5
96
330
1F
100
AcDbEntity
  8
외형선
  6
Continuous
370
    15
100
AcDbLine
 10
24.71902700723835
 20
11.11249999999999
 30
0.0
 11
7.696199999999987
 21
11.11249999999999
 31
0.0
  0
LINE
  5
97
330
1F
100
AcDbEntity
  8
외형선
  6
Continuous
370
    15
100
AcDbLine
 10
-24.71902700723834
 20
-11.1125
 30
0.0
 11
24.71902700723835
 21
-11.1125
 31
0.0
  0
LINE
  5
98
330
1F
100
AcDbEntity
  8
외형선
  6
Continuous
370
    15
100
AcDbLine
 10
24.71902700723835
 20
-11.1125
 30
0.0
 11
27.11252693670441
 21
-10.47116362681562
 31
0.0
  0
LINE
  5
99
330
1F
100
AcDbEntity
  8
외형선
  6
Continuous
370
    15
100
AcDbLine
 10
27.11252693670441
 20
10.47116362681561
 30
0.0
 11
24.71902700723835
 21
11.11249999999999
 31
0.0
  0
SPLINE
  5
9C
330
1F
100
AcDbEntity
  8
외형선
  6
Continuous
370
    15
100
AcDbSpline
210
0.0
220
0.0
230
1.0
 70
     8
 71
     3
 72
     9
 73
     5
 74
     0
 42
0.000000001
 43
0.00000001
 40
0.0
 40
0.0
 40
0.0
 40
0.0
 40
0.5084364117909487
 40
1.0
 40
1.0
 40
1.0
 40
1.0
 10
27.11253724272627
 20
-8.144165124480315
 30
0.0
 10
27.63182147740061
 20
-8.100185109550814
 30
0.0
 10
28.65315713045737
 20
-8.013684587736133
 30
0.0
 10
29.6650770254415
 20
-7.949532290690128
 30
0.0
 10
30.16250000000002
 20
-7.917997357362343
 30
0.0
  0
LINE
  5
9D
330
1F
100
AcDbEntity
  8
0
  6
Continuous
 62
     1
370
    15
100
AcDbLine
 10
38.67381467480062
 20
2.784356377480069
 30
0.0
 11
38.54972680333702
 21
2.852636324149045
 31
0.0
1001
PE_URL
1000

  0
SPLINE
  5
9E
330
1F
100
AcDbEntity
  8
0
  6
Continuous
 62
     1
370
    15
100
AcDbSpline
210
0.0
220
0.0
230
1.0
 70
     8
 71
     3
 72
     9
 73
     5
 74
     0
 42
0.000000001
 43
0.00000001
 40
0.0
 40
0.0
 40
0.0
 40
0.0
 40
0.4622950099661626
 40
1.0
 40
1.0
 40
1.0
 40
1.0
 10
44.14540799252089
 20
2.542398304688668
 30
0.0
 10
43.7215840216885
 20
2.744074501534278
 30
0.0
 10
42.80480153064794
 20
3.180324498825773
 30
0.0
 10
41.88612591358147
 20
3.660817642653217
 30
0.0
 10
41.39214945006242
 20
3.91918120376628
 30
0.0
1001
PE_URL
1000

  0
SPLINE
  5
9F
330
1F
100
AcDbEntity
  8
0
  6
Continuous
 62
     1
370
    15
100
AcDbSpline
210
0.0
220
0.0
230
1.0
 70
     8
 71
     3
 72
    19
 73
    15
 74
     0
 42
0.000000001
 43
0.00000001
 40
0.0
 40
0.0
 40
0.0
 40
0.0
 40
0.1283110816093783
 40
0.2332321983047163
 40
0.3202204529669572
 40
0.3932622785306504
 40
0.4684114760165324
 40
0.5569759126384229
 40
0.6298014127723549
 40
0.7122375547122878
 40
0.807428844893721
 40
0.9258172430224791
 40
0.983879704104276
 40
1.0
 40
1.0
 40
1.0
 40
1.0
 10
40.86570836687626
 20
7.884310148305008
 30
0.0
 10
40.53209665546619
 20
7.86715350703708
 30
0.0
 10
39.92568766992552
 20
7.835967727069717
 30
0.0
 10
39.05261270183309
 20
7.803342259979603
 30
0.0
 10
38.3273531736595
 20
7.781607468159148
 30
0.0
 10
37.69307335183561
 20
7.766713979779193
 30
0.0
 10
37.06233741001232
 20
7.756069987189567
 30
0.0
 10
36.42465654733498
 20
7.749712234617437
 30
0.0
 10
35.76922505576006
 20
7.747774436828482
 30
0.0
 10
35.09556652146956
 20
7.750294844196321
 30
0.0
 10
34.29950814894082
 20
7.759379949659908
 30
0.0
 10
33.5688626772999
 20
7.774608148589889
 30
0.0
 10
33.05089879946349
 20
7.788897200311609
 30
0.0
 10
32.85135884868984
 20
7.79539356957217
 30
0.0
 10
32.8079977877028
 20
7.796805264135637
 30
0.0
1001
PE_URL
1000

  0
SPLINE
  5
A0
330
1F
100
AcDbEntity
  8
0
  6
Continuous
 62
     1
370
    15
100
AcDbSpline
210
0.0
220
0.0
230
1.0
 70
     8
 71
     3
 72
    28
 73
    24
 74
     0
 42
0.000000001
 43
0.00000001
 40
0.0
 40
0.0
 40
0.0
 40
0.0
 40
0.0688147267229877
 40
0.1216203697266767
 40
0.1602455966029747
 40
0.1931857302206607
 40
0.2225897959578042
 40
0.2581662271324817
 40
0.2995335143139217
 40
0.3526255179331361
 40
0.4031217948199912
 40
0.4498204056761229
 40
0.495694443776858
 40
0.5530827097703742
 40
0.6051365367477054
 40
0.653793375462938
 40
0.7065500790760858
 40
0.7660160674691097
 40
0.8010744590131508
 40
0.8356759695396542
 40
0.8759401891458769
 40
0.9293560199126372
 40
1.0
 40
1.0
 40
1.0
 40
1.0
 10
66.16397729237693
 20
6.786092422958475
 30
0.0
 10
65.7727359856187
 20
6.754185036728671
 30
0.0
 10
65.08127189579054
 20
6.697793210515337
 30
0.0
 10
64.15720363218111
 20
6.640300502541206
 30
0.0
 10
63.4230585823106
 20
6.602721168245124
 30
0.0
 10
62.8322557071081
 20
6.577810636399181
 30
0.0
 10
62.27009186938707
 20
6.558672918178602
 30
0.0
 10
61.65621544726386
 20
6.542797691583451
 30
0.0
 10
60.90378300604079
 20
6.530757056695247
 30
0.0
 10
60.06654628714786
 20
6.5275185803597
 30
0.0
 10
59.1978403106738
 20
6.535773006515231
 30
0.0
 10
58.37046615802424
 20
6.553923580955098
 30
0.0
 10
57.50352719393344
 20
6.583202319345792
 30
0.0
 10
56.60626611565886
 20
6.625469134610446
 30
0.0
 10
55.69190047809642
 20
6.680938478862171
 30
0.0
 10
54.80450562583999
 20
6.745812502004502
 30
0.0
 10
53.87598482260013
 20
6.82543473069479
 30
0.0
 10
53.02110200246838
 20
6.910362652088978
 30
0.0
 10
52.28578090184315
 20
6.991121989412754
 30
0.0
 10
51.64664784637193
 20
7.066563881160842
 30
0.0
 10
50.8873336958234
 20
7.162693888791162
 30
0.0
 10
49.93368372046547
 20
7.293119329331656
 30
0.0
 10
49.23039080169883
 20
7.401094970501977
 30
0.0
 10
48.82991130227936
 20
7.462580063798839
 30
0.0
1001
PE_URL
1000

  0
SPLINE
  5
A1
330
1F
100
AcDbEntity
  8
0
  6
Continuous
 62
     1
370
    15
100
AcDbSpline
210
0.0
220
0.0
230
1.0
 70
     8
 71
     3
 72
    18
 73
    14
 74
     0
 42
0.000000001
 43
0.00000001
 40
0.0
 40
0.0
 40
0.0
 40
0.0
 40
0.1046650182756282
 40
0.1855112022435071
 40
0.2832613473443616
 40
0.3751864116162474
 40
0.4818928692923107
 40
0.5798255318122777
 40
0.6599245581301961
 40
0.7266079359286688
 40
0.8335673603003187
 40
0.9446483744002339
 40
1.0
 40
1.0
 40
1.0
 40
1.0
 10
48.82991130227936
 20
-7.462580063798848
 30
0.0
 10
49.05791683200175
 20
-7.426277391856686
 30
0.0
 10
49.46204020229134
 20
-7.361933521979293
 30
0.0
 10
50.17594871164368
 20
-7.257362344728978
 30
0.0
 10
50.86634779916152
 20
-7.166656734621934
 30
0.0
 10
51.61556522309633
 20
-7.069871876591213
 30
0.0
 10
52.34982747772116
 20
-6.983499999597097
 30
0.0
 10
53.05881983229447
 20
-6.906892645323336
 30
0.0
 10
53.66305431974303
 20
-6.847068145526931
 30
0.0
 10
54.28446660983869
 20
-6.78978115754111
 30
0.0
 10
54.99623907812573
 20
-6.731222255159566
 30
0.0
 10
55.68306397053678
 20
-6.681790859070933
 30
0.0
 10
56.095665605627
 20
-6.65741847042689
 30
0.0
 10
56.23288731447315
 20
-6.649312780739872
 30
0.0
1001
PE_URL
1000

  0
SPLINE
  5
A2
330
1F
100
AcDbEntity
  8
0
  6
Continuous
 62
     1
370
    15
100
AcDbSpline
210
0.0
220
0.0
230
1.0
 70
     8
 71
     3
 72
    26
 73
    22
 74
     0
 42
0.000000001
 43
0.00000001
 40
0.0
 40
0.0
 40
0.0
 40
0.0
 40
0.080073375335795
 40
0.139612426701456
 40
0.1787651743083515
 40
0.2062663100723753
 40
0.240100926724003
 40
0.2797653083739269
 40
0.3168620369537326
 40
0.3754244557971093
 40
0.4362516563097659
 40
0.5054654057418685
 40
0.5502794062882728
 40
0.5834541763673018
 40
0.619821631176564
 40
0.6774257228689642
 40
0.7357223672844795
 40
0.7808779859745442
 40
0.828498008880553
 40
0.9015226933576577
 40
1.0
 40
1.0
 40
1.0
 40
1.0
 10
30.16250000000002
 20
-7.917997357362339
 30
0.0
 10
30.44910291036685
 20
-7.901679735634616
 30
0.0
 10
30.94881117979117
 20
-7.873229045778592
 30
0.0
 10
31.58828887713607
 20
-7.84316642275088
 30
0.0
 10
32.03964212510557
 20
-7.824173221723803
 30
0.0
 10
32.39926339357574
 20
-7.810462482634937
 30
0.0
 10
32.76063809649871
 20
-7.797950798100715
 30
0.0
 10
33.15627407201967
 20
-7.785848138112246
 30
0.0
 10
33.6366883600993
 20
-7.773520815566663
 30
0.0
 10
34.14332929799549
 20
-7.761205131748106
 30
0.0
 10
34.81861459464547
 20
-7.750130304493878
 30
0.0
 10
35.45709497311899
 20
-7.74811244336786
 30
0.0
 10
35.99242741542557
 20
-7.74830841885407
 30
0.0
 10
36.4068659281949
 20
-7.750112011793867
 30
0.0
 10
36.86027010237586
 20
-7.753887092203106
 30
0.0
 10
37.40543791201537
 20
-7.761349734496763
 30
0.0
 10
37.98160578481245
 20
-7.773096412852172
 30
0.0
 10
38.52387426876898
 20
-7.787366377915621
 30
0.0
 10
39.11854575113557
 20
-7.806198460816153
 30
0.0
 10
39.90120997133211
 20
-7.835782674737422
 30
0.0
 10
40.51389915394226
 20
-7.866609328521011
 30
0.0
 10
40.86570836687626
 20
-7.88431014830502
 30
0.0
1001
PE_URL
1000

  0
LINE
  5
A3
330
1F
100
AcDbEntity
  8
외형선
  6
Continuous
370
    15
100
AcDbLine
 10
24.71902700723835
 20
11.11249999999999
 30
0.0
 11
24.71902700723835
 21
-11.1125
 31
0.0
  0
SPLINE
  5
A5
330
1F
100
AcDbEntity
  8
외형선
  6
Continuous
370
    15
100
AcDbSpline
210
0.0
220
0.0
230
1.0
 70
     8
 71
     3
 72
     8
 73
     4
 74
     0
 42
0.000000001
 43
0.00000001
 40
0.0
 40
0.0
 40
0.0
 40
0.0
 40
1.0
 40
1.0
 40
1.0
 40
1.0
 10
29.16250000000002
 20
8.920627981159114
 30
0.0
 10
28.47644125225893
 20
9.224744407553695
 30
0.0
 10
27.79380631999744
 20
9.52097008807364
 30
0.0
 10
27.11255516382323
 20
9.806903327544163
 30
0.0
  0
LINE
  5
A6
330
1F
100
AcDbEntity
  8
외형선
  6
Continuous
370
    15
100
AcDbLine
 10
29.16250000000002
 20
8.920627981159114
 30
0.0
 11
29.16250000000002
 21
7.374075019297663
 31
0.0
  0
SPLINE
  5
A7
330
1F
100
AcDbEntity
  8
외형선
  6
Continuous
370
    15
100
AcDbSpline
210
0.0
220
0.0
230
1.0
 70
     8
 71
     3
 72
     8
 73
     4
 74
     0
 42
0.000000001
 43
0.00000001
 40
0.0
 40
0.0
 40
0.0
 40
0.0
 40
1.0
 40
1.0
 40
1.0
 40
1.0
 10
27.11252693670441
 20
8.438809848725887
 30
0.0
 10
27.79724011620296
 20
8.09271896507783
 30
0.0
 10
28.47982980568106
 20
7.73705034131286
 30
0.0
 10
29.16250000000002
 20
7.374075019297661
 30
0.0
  0
LINE
  5
A8
330
1F
100
AcDbEntity
  8
외형선
  6
Continuous
370
    15
100
AcDbLine
 10
27.11252693670441
 20
-10.47116362681562
 30
0.0
 11
27.11252693670441
 21
8.438909335663638
 31
0.0
  0
SPLINE
  5
A9
330
1F
100
AcDbEntity
  8
외형선
  6
Continuous
370
    15
100
AcDbSpline
210
0.0
220
0.0
230
1.0
 70
     8
 71
     3
 72
     8
 73
     4
 74
     0
 42
0.000000001
 43
0.00000001
 40
0.0
 40
0.0
 40
0.0
 40
0.0
 40
1.0
 40
1.0
 40
1.0
 40
1.0
 10
29.16250000000002
 20
-8.920627981159125
 30
0.0
 10
28.47644125225893
 20
-9.224744407553706
 30
0.0
 10
27.79380631999744
 20
-9.52097008807365
 30
0.0
 10
27.11255516382323
 20
-9.806903327544173
 30
0.0
  0
LINE
  5
AA
330
1F
100
AcDbEntity
  8
외형선
  6
Continuous
370
    15
100
AcDbLine
 10
27.11252693670441
 20
9.806967330258216
 30
0.0
 11
27.11252693670441
 21
10.47116362681561
 31
0.0
  0
SPLINE
  5
AC
330
1F
100
AcDbEntity
  8
외형선
  6
Continuous
370
    15
100
AcDbSpline
210
0.0
220
0.0
230
1.0
 70
    24
 71
     3
 72
    10
 73
     6
 74
     0
 42
0.000000001
 43
0.00000001
 40
0.0
 40
0.0
 40
0.0
 40
0.0
 40
0.5
 40
0.5
 40
1.0
 40
1.0
 40
1.0
 40
1.0
 10
30.16250000000002
 20
6.975893511659402
 30
0.0
 10
30.16250000000002
 20
6.735362087251333
 30
0.0
 10
30.16250000000002
 20
6.397755728618463
 30
0.0
 10
30.16250000000002
 20
5.59834411033697
 30
0.0
 10
30.16250000000002
 20
5.139157500302843
 30
0.0
 10
30.16250000000002
 20
4.675983949461125
 30
0.0
  0
SPLINE
  5
AD
330
1F
100
AcDbEntity
  8
외형선
  6
Continuous
370
    15
100
AcDbSpline
210
0.0
220
0.0
230
1.0
 70
     8
 71
     3
 72
     8
 73
     4
 74
     0
 42
0.000000001
 43
0.00000001
 40
0.0
 40
0.0
 40
0.0
 40
0.0
 40
1.0
 40
1.0
 40
1.0
 40
1.0
 10
30.16250000000002
 20
4.675983949461125
 30
0.0
 10
29.14358281730351
 20
4.980032127554747
 30
0.0
 10
28.1314034285877
 20
5.258829053668812
 30
0.0
 10
27.11253373603109
 20
5.509217848364564
 30
0.0
  0
SPLINE
  5
AE
330
1F
100
AcDbEntity
  8
외형선
  6
Continuous
370
    15
100
AcDbSpline
210
0.0
220
0.0
230
1.0
 70
     8
 71
     3
 72
     8
 73
     4
 74
     0
 42
0.000000001
 43
0.00000001
 40
0.0
 40
0.0
 40
0.0
 40
0.0
 40
1.0
 40
1.0
 40
1.0
 40
1.0
 10
30.16250000000002
 20
6.975893511659402
 30
0.0
 10
29.82889345684982
 20
7.112663807332084
 30
0.0
 10
29.49527875396308
 20
7.245499756765272
 30
0.0
 10
29.16250000000002
 20
7.374075019297663
 30
0.0
  0
SPLINE
  5
AF
330
1F
100
AcDbEntity
  8
외형선
  6
Continuous
370
    15
100
AcDbSpline
210
0.0
220
0.0
230
1.0
 70
    24
 71
     3
 72
    14
 73
    10
 74
     0
 42
0.000000001
 43
0.00000001
 40
0.0
 40
0.0
 40
0.0
 40
0.0
 40
0.25
 40
0.25
 40
0.5
 40
0.5
 40
0.75
 40
0.75
 40
1.0
 40
1.0
 40
1.0
 40
1.0
 10
30.16250000000002
 20
4.675983949461125
 30
0.0
 10
30.16250000000002
 20
3.915019219228068
 30
0.0
 10
30.16250000000002
 20
3.075707180165458
 30
0.0
 10
30.16250000000002
 20
1.301564409783114
 30
0.0
 10
30.16250000000002
 20
0.3674104166101562
 30
0.0
 10
30.16250000000002
 20
-1.506746419875
 30
0.0
 10
30.16250000000002
 20
-2.445750634069558
 30
0.0
 10
30.16250000000002
 20
-4.238374313681952
 30
0.0
 10
30.16250000000002
 20
-5.09129108351882
 30
0.0
 10
30.16250000000002
 20
-5.869051567732469
 30
0.0
  0
SPLINE
  5
B0
330
1F
100
AcDbEntity
  8
외형선
  6
Continuous
370
    15
100
AcDbSpline
210
0.0
220
0.0
230
1.0
 70
     8
 71
     3
 72
     8
 73
     4
 74
     0
 42
0.000000001
 43
0.00000001
 40
0.0
 40
0.0
 40
0.0
 40
0.0
 40
1.0
 40
1.0
 40
1.0
 40
1.0
 10
30.16250000000002
 20
-5.869051567732469
 30
0.0
 10
29.14358398625638
 20
-5.552655638320166
 30
0.0
 10
28.13140576392247
 20
-5.206109218204521
 30
0.0
 10
27.11253724272627
 20
-4.833339173439363
 30
0.0
  0
SPLINE
  5
B1
330
1F
100
AcDbEntity
  8
외형선
  6
Continuous
370
    15
100
AcDbSpline
210
0.0
220
0.0
230
1.0
 70
     8
 71
     3
 72
     8
 73
     4
 74
     0
 42
0.000000001
 43
0.00000001
 40
0.0
 40
0.0
 40
0.0
 40
0.0
 40
1.0
 40
1.0
 40
1.0
 40
1.0
 10
30.16250000000002
 20
8.653172996246644
 30
0.0
 10
29.82889345684982
 20
8.747276736676508
 30
0.0
 10
29.49527875396308
 20
8.836499614294219
 30
0.0
 10
29.16250000000002
 20
8.920627981159118
 30
0.0
  0
LINE
  5
B2
330
1F
100
AcDbEntity
  8
외형선
  6
Continuous
370
    15
100
AcDbLine
 10
30.16250000000002
 20
8.65317299624664
 30
0.0
 11
30.16250000000002
 21
6.975893511659404
 31
0.0
  0
SPLINE
  5
B3
330
1F
100
AcDbEntity
  8
외형선
  6
Continuous
370
    15
100
AcDbSpline
210
0.0
220
0.0
230
1.0
 70
    24
 71
     3
 72
    12
 73
     8
 74
     0
 42
0.000000001
 43
0.00000001
 40
0.0
 40
0.0
 40
0.0
 40
0.0
 40
0.1822281840998107
 40
0.3644563681996214
 40
0.6311171113988118
 40
0.9055110342156611
 40
1.0
 40
1.0
 40
1.0
 40
1.0
 10
30.16250000000002
 20
-5.869051567732469
 30
0.0
 10
30.16250000000002
 20
-6.098744633963652
 30
0.0
 10
30.16250000000002
 20
-6.558130766426015
 30
0.0
 10
30.16250000000002
 20
-7.18022716217018
 30
0.0
 10
30.16250000000002
 20
-7.676019728272283
 30
0.0
 10
30.16250000000002
 20
-7.924888835721473
 30
0.0
 10
30.16250000000002
 20
-7.896058123054301
 30
0.0
 10
30.16250000000002
 20
-7.888673166183363
 30
0.0
  0
SPLINE
  5
B4
330
1F
100
AcDbEntity
  8
외형선
  6
Continuous
370
    15
100
AcDbSpline
210
0.0
220
0.0
230
1.0
 70
     8
 71
     3
 72
     8
 73
     4
 74
     0
 42
0.000000001
 43
0.00000001
 40
0.0
 40
0.0
 40
0.0
 40
0.0
 40
1.0
 40
1.0
 40
1.0
 40
1.0
 10
30.16250000000002
 20
-8.653172996246656
 30
0.0
 10
29.82889345684982
 20
-8.747276736676518
 30
0.0
 10
29.49527875396308
 20
-8.83649961429423
 30
0.0
 10
29.16250000000002
 20
-8.920627981159129
 30
0.0
  0
SPLINE
  5
B5
330
1F
100
AcDbEntity
  8
외형선
  6
Continuous
370
    15
100
AcDbSpline
210
0.0
220
0.0
230
1.0
 70
    24
 71
     3
 72
    10
 73
     6
 74
     0
 42
0.000000001
 43
0.00000001
 40
0.0
 40
0.0
 40
0.0
 40
0.0
 40
0.1877447957461185
 40
0.7904128737587272
 40
1.0
 40
1.0
 40
1.0
 40
1.0
 10
30.16250000000002
 20
-7.917997357362339
 30
0.0
 10
30.16250000000002
 20
-7.967747785493333
 30
0.0
 10
30.16250000000002
 20
-8.177199018021351
 30
0.0
 10
30.16250000000002
 20
-8.41803172620406
 30
0.0
 10
30.16250000000002
 20
-8.6049438501382
 30
0.0
 10
30.16250000000002
 20
-8.653172996236433
 30
0.0
  0
SPLINE
  5
B6
330
1F
100
AcDbEntity
  8
0
  6
Continuous
 62
     1
370
    15
100
AcDbSpline
210
0.0
220
0.0
230
1.0
 70
     8
 71
     3
 72
    10
 73
     6
 74
     0
 42
0.000000001
 43
0.00000001
 40
0.0
 40
0.0
 40
0.0
 40
0.0
 40
0.5
 40
0.5
 40
1.0
 40
1.0
 40
1.0
 40
1.0
 10
69.85000000000002
 20
-2.651551105137882
 30
0.0
 10
68.9930288375915
 20
-1.977830329194039
 30
0.0
 10
68.14770160643842
 20
-1.281650481933266
 30
0.0
 10
66.48030512533285
 20
0.155569719491953
 30
0.0
 10
65.65717962182177
 20
0.8974463025933276
 30
0.0
 10
64.85000000000176
 20
1.664193252683267
 30
0.0
1001
PE_URL
1000

  0
LINE
  5
B7
330
1F
100
AcDbEntity
  8
0
  6
Continuous
 62
     1
370
    15
100
AcDbLine
 10
64.85000000000002
 20
2.937719435296586
 30
0.0
 11
69.85000000000002
 21
0.0
 31
0.0
1001
PE_URL
1000

  0
LINE
  5
B8
330
1F
100
AcDbEntity
  8
0
  6
Continuous
 62
     1
370
    15
100
AcDbLine
 10
69.85000000000002
 20
0.0
 30
0.0
 11
69.85000000000002
 21
-2.651551105137884
 31
0.0
1001
PE_URL
1000

  0
SPLINE
  5
B9
330
1F
100
AcDbEntity
  8
0
  6
Continuous
 62
     1
370
    15
100
AcDbSpline
210
0.0
220
0.0
230
1.0
 70
     8
 71
     3
 72
    52
 73
    48
 74
     0
 42
0.000000001
 43
0.00000001
 40
0.0
 40
0.0
 40
0.0
 40
0.0
 40
0.0625000000000005
 40
0.0625000000000005
 40
0.0937500000000008
 40
0.0937500000000008
 40
0.125000000000001
 40
0.125000000000001
 40
0.1875000000000011
 40
0.1875000000000011
 40
0.218750000000001
 40
0.218750000000001
 40
0.2500000000000008
 40
0.2500000000000008
 40
0.3125000000000006
 40
0.3125000000000006
 40
0.3437500000000004
 40
0.3437500000000004
 40
0.3750000000000003
 40
0.3750000000000003
 40
0.4374999999999999
 40
0.4374999999999999
 40
0.4687499999999997
 40
0.4687499999999997
 40
0.4999999999999996
 40
0.4999999999999996
 40
0.5624999999999993
 40
0.5624999999999993
 40
0.624999999999999
 40
0.624999999999999
 40
0.6562499999999991
 40
0.6562499999999991
 40
0.6874999999999991
 40
0.6874999999999991
 40
0.7499999999999992
 40
0.7499999999999992
 40
0.7812499999999992
 40
0.7812499999999992
 40
0.8124999999999993
 40
0.8124999999999993
 40
0.8749999999999994
 40
0.8749999999999994
 40
0.9374999999999997
 40
0.9374999999999997
 40
0.9687499999999999
 40
0.9687499999999999
 40
1.0
 40
1.0
 40
1.0
 40
1.0
 10
69.85000000000002
 20
-9.913489182356626
 30
0.0
 10
69.02670371284904
 20
-9.89389473567039
 30
0.0
 10
68.19513954589499
 20
-9.839731927940427
 30
0.0
 10
66.95476882801437
 20
-9.707674378261606
 30
0.0
 10
66.54371208620566
 20
-9.655291492067175
 30
0.0
 10
65.71741031137054
 20
-9.533703358707443
 30
0.0
 10
65.30289911604238
 20
-9.464506705682467
 30
0.0
 10
64.06013602651427
 20
-9.23245346094136
 30
0.0
 10
63.23761741895544
 20
-9.045530331294904
 30
0.0
 10
61.99551543128707
 20
-8.718455140357383
 30
0.0
 10
61.58083096633751
 20
-8.601692702389226
 30
0.0
 10
60.75339987493943
 20
-8.353616620829156
 30
0.0
 10
60.34202576257989
 20
-8.222461733128611
 30
0.0
 10
59.10363294107293
 20
-7.807522979184365
 30
0.0
 10
58.27181547177632
 20
-7.502019700708339
 30
0.0
 10
57.03415269120002
 20
-7.007595895412638
 30
0.0
 10
56.6224214183596
 20
-6.836686800596542
 30
0.0
 10
55.79471664501352
 20
-6.482706276167299
 30
0.0
 10
55.38001730721282
 20
-6.299802852933266
 30
0.0
 10
54.13823718446391
 20
-5.735493072585903
 30
0.0
 10
53.3154979567386
 20
-5.338847580083354
 30
0.0
 10
52.07264592385678
 20
-4.716766861277644
 30
0.0
 10
51.65822752520106
 20
-4.50509863367092
 30
0.0
 10
50.83235382540884
 20
-4.074824437912342
 30
0.0
 10
50.4211371372068
 20
-3.856271117043954
 30
0.0
 10
49.18026739571122
 20
-3.189868077586995
 30
0.0
 10
48.35003312643242
 20
-2.732397541799153
 30
0.0
 10
46.70223384802642
 20
-1.804042503568375
 30
0.0
 10
45.87054957691051
 20
-1.330513388974551
 30
0.0
 10
44.6307327977128
 20
-0.617206752367326
 30
0.0
 10
44.21971338469277
 20
-0.3791291274965992
 30
0.0
 10
43.39302005437547
 20
0.0981648321868666
 30
0.0
 10
42.9784345234268
 20
0.337172077447672
 30
0.0
 10
41.73581564659003
 20
1.052473908472194
 30
0.0
 10
40.91341305126364
 20
1.526189696314921
 30
0.0
 10
39.67104437003202
 20
2.228031280752869
 30
0.0
 10
39.25639326476081
 20
2.460342355878747
 30
0.0
 10
38.4292725418954
 20
2.919883446242535
 30
0.0
 10
38.0181330192475
 20
3.146874263950038
 30
0.0
 10
36.7790647796152
 20
3.82011108404911
 30
0.0
 10
35.94728464553768
 20
4.258205093361078
 30
0.0
 10
34.29811367944394
 20
5.099360778065571
 30
0.0
 10
33.46935906449228
 20
5.504376078336197
 30
0.0
 10
32.22795593033876
 20
6.080855113196299
 30
0.0
 10
31.81637895913234
 20
6.26756213080556
 30
0.0
 10
30.99107572868194
 20
6.630122682414517
 30
0.0
 10
30.57679523123696
 20
6.806042882421155
 30
0.0
 10
30.16250000000002
 20
6.975893511659406
 30
0.0
1001
PE_URL
1000

  0
SPLINE
  5
BA
330
1F
100
AcDbEntity
  8
0
  6
Continuous
 62
     1
370
    15
100
AcDbSpline
210
0.0
220
0.0
230
1.0
 70
     8
 71
     3
 72
    12
 73
     8
 74
     0
 42
0.000000001
 43
0.00000001
 40
0.0
 40
0.0
 40
0.0
 40
0.0
 40
0.0190068042814979
 40
0.2557295950241474
 40
0.4924266025188563
 40
0.7461722257780323
 40
1.0
 40
1.0
 40
1.0
 40
1.0
 10
45.20432680075275
 20
-0.9444839678978828
 30
0.0
 10
45.10902883437215
 20
-0.9070409205039894
 30
0.0
 10
43.82682957624321
 20
-0.4032584221577868
 30
0.0
 10
41.35792215672811
 20
0.6132476074190425
 30
0.0
 10
37.71219638939135
 20
2.059942017827288
 30
0.0
 10
33.98034254622799
 20
3.468851551925716
 30
0.0
 10
31.43525149008683
 20
4.273563069319486
 30
0.0
 10
30.16250000000002
 20
4.675983949461125
 30
0.0
1001
PE_URL
1000

  0
SPLINE
  5
BB
330
1F
100
AcDbEntity
  8
외형선
  6
Continuous
370
    15
100
AcDbSpline
210
0.0
220
0.0
230
1.0
 70
    24
 71
     3
 72
    10
 73
     6
 74
     0
 42
0.000000001
 43
0.00000001
 40
0.0
 40
0.0
 40
0.0
 40
0.0
 40
0.5
 40
0.5
 40
1.0
 40
1.0
 40
1.0
 40
1.0
 10
30.16250000000002
 20
6.975893511659404
 30
0.0
 10
30.16250000000002
 20
6.735362087251333
 30
0.0
 10
30.16250000000002
 20
6.397755728618463
 30
0.0
 10
30.16250000000002
 20
5.598344110336972
 30
0.0
 10
30.16250000000002
 20
5.139157500302843
 30
0.0
 10
30.16250000000002
 20
4.675983949461125
 30
0.0
  0
SPLINE
  5
BC
330
1F
100
AcDbEntity
  8
0
  6
Continuous
 62
     1
370
    15
100
AcDbSpline
210
0.0
220
0.0
230
1.0
 70
     8
 71
     3
 72
    52
 73
    48
 74
     0
 42
0.000000001
 43
0.00000001
 40
0.0
 40
0.0
 40
0.0
 40
0.0
 40
0.0624999999999999
 40
0.0624999999999999
 40
0.0937500000000001
 40
0.0937500000000001
 40
0.1250000000000003
 40
0.1250000000000003
 40
0.1875000000000002
 40
0.1875000000000002
 40
0.2187500000000002
 40
0.2187500000000002
 40
0.2500000000000002
 40
0.2500000000000002
 40
0.3125000000000001
 40
0.3125000000000001
 40
0.3437500000000001
 40
0.3437500000000001
 40
0.3750000000000001
 40
0.3750000000000001
 40
0.4375000000000002
 40
0.4375000000000002
 40
0.4687500000000003
 40
0.4687500000000003
 40
0.5000000000000003
 40
0.5000000000000003
 40
0.5625000000000004
 40
0.5625000000000004
 40
0.6250000000000006
 40
0.6250000000000006
 40
0.6562500000000007
 40
0.6562500000000007
 40
0.6875000000000008
 40
0.6875000000000008
 40
0.7500000000000008
 40
0.7500000000000008
 40
0.7812500000000008
 40
0.7812500000000008
 40
0.8125000000000007
 40
0.8125000000000007
 40
0.8750000000000004
 40
0.8750000000000004
 40
0.9375000000000003
 40
0.9375000000000003
 40
0.9687500000000001
 40
0.9687500000000001
 40
1.0
 40
1.0
 40
1.0
 40
1.0
 10
69.85000000000002
 20
-9.415272686910258
 30
0.0
 10
69.02670371284897
 20
-9.264899640162243
 30
0.0
 10
68.19513954589488
 20
-9.081256788262833
 30
0.0
 10
66.95476882801412
 20
-8.759961127347982
 30
0.0
 10
66.54371208620543
 20
-8.645387357420608
 30
0.0
 10
65.71741031137026
 20
-8.401065684842619
 30
0.0
 10
65.30289911604206
 20
-8.271365720922244
 30
0.0
 10
64.06013602651386
 20
-7.861109543365891
 30
0.0
 10
63.23761741895493
 20
-7.560020120017956
 30
0.0
 10
61.99551543128648
 20
-7.069631856027832
 30
0.0
 10
61.5808309663369
 20
-6.899790507430652
 30
0.0
 10
60.75339987493877
 20
-6.548686508448664
 30
0.0
 10
60.34202576257921
 20
-6.36763529132294
 30
0.0
 10
59.10363294107216
 20
-5.807784656165393
 30
0.0
 10
58.27181547177548
 20
-5.412068702987213
 30
0.0
 10
57.0341526911991
 20
-4.794016172686268
 30
0.0
 10
56.62242141835863
 20
-4.583805765651969
 30
0.0
 10
55.79471664501249
 20
-4.155069161272106
 30
0.0
 10
55.38001730721176
 20
-3.936754327447757
 30
0.0
 10
54.13823718446278
 20
-3.27252619119542
 30
0.0
 10
53.31549795673741
 20
-2.817723160321266
 30
0.0
 10
52.07264592385549
 20
-2.121622902290731
 30
0.0
 10
51.65822752519973
 20
-1.887516234899018
 30
0.0
 10
50.83235382540747
 20
-1.416995070529444
 30
0.0
 10
50.42113713720541
 20
-1.18063000360931
 30
0.0
 10
49.18026739570973
 20
-0.4676995597131265
 30
0.0
 10
48.35003312643088
 20
0.0114389462575982
 30
0.0
 10
46.70223384802475
 20
0.9638943456496867
 30
0.0
 10
45.87054957690876
 20
1.43991506313739
 30
0.0
 10
44.63073279771099
 20
2.142517299658384
 30
0.0
 10
44.21971338469091
 20
2.37463997739603
 30
0.0
 10
43.39302005437355
 20
2.83523652172032
 30
0.0
 10
42.97843452342485
 20
3.063500687635082
 30
0.0
 10
41.73581564658797
 20
3.73950123960344
 30
0.0
 10
40.91341305126156
 20
4.177660197705332
 30
0.0
 10
39.67104437002983
 20
4.812435997459757
 30
0.0
 10
39.25639326475859
 20
5.020113981015798
 30
0.0
 10
38.42927254189313
 20
5.426031675711091
 30
0.0
 10
38.01813301924521
 20
5.624067970180716
 30
0.0
 10
36.7790647796128
 20
6.203945493923663
 30
0.0
 10
35.94728464553521
 20
6.571125123142458
 30
0.0
 10
34.2981136794414
 20
7.255335714495516
 30
0.0
 10
33.46935906448964
 20
7.573977803501367
 30
0.0
 10
32.22795593033604
 20
8.01062687309262
 30
0.0
 10
31.8163789591296
 20
8.149093094371388
 30
0.0
 10
30.99107572867914
 20
8.411913921150107
 30
0.0
 10
30.57679523123411
 20
8.536308589052396
 30
0.0
 10
30.16249999999714
 20
8.653172996247456
 30
0.0
1001
PE_URL
1000

  0
SPLINE
  5
BD
330
1F
100
AcDbEntity
  8
0
  6
Continuous
 62
     1
370
    15
100
AcDbSpline
210
0.0
220
0.0
230
1.0
 70
     8
 71
     3
 72
    15
 73
    11
 74
     0
 42
0.000000001
 43
0.00000001
 40
0.0
 40
0.0
 40
0.0
 40
0.0
 40
0.1382281649405478
 40
0.2764870094712689
 40
0.4147667369104834
 40
0.5530574992020856
 40
0.6913494211015125
 40
0.8296326245054138
 40
0.9678972527964429
 40
0.9999999999999999
 40
0.9999999999999999
 40
0.9999999999999999
 40
0.9999999999999999
 10
69.85000000000002
 20
-7.828084185528401
 30
0.0
 10
68.66321467873044
 20
-7.578863928711292
 30
0.0
 10
66.28938063048594
 20
-7.080368100913383
 30
0.0
 10
62.72815981860154
 20
-5.940004324037256
 30
0.0
 10
59.16633254354358
 20
-4.56923024965286
 30
0.0
 10
55.60417679110152
 20
-2.997128402361517
 30
0.0
 10
52.04198481385861
 20
-1.295798091262662
 30
0.0
 10
48.48006059983922
 20
0.4514262034332666
 30
0.0
 10
45.8299293657019
 20
1.764765105099094
 30
0.0
 10
44.36718691303172
 20
2.430569169637521
 30
0.0
 10
44.09155872397463
 20
2.556028281212889
 30
0.0
1001
PE_URL
1000

  0
LINE
  5
BE
330
1F
100
AcDbEntity
  8
0
  6
Continuous
 62
     1
370
    15
100
AcDbLine
 10
69.85000000000002
 20
-9.415272686910265
 30
0.0
 11
69.85000000000002
 21
-7.828084185528401
 31
0.0
1001
PE_URL
1000

  0
LINE
  5
BF
330
1F
100
AcDbEntity
  8
0
  6
Continuous
 62
     1
370
    15
100
AcDbLine
 10
69.85000000000002
 20
-9.913489182356626
 30
0.0
 11
69.85000000000002
 21
-9.415272686910264
 31
0.0
1001
PE_URL
1000

  0
SPLINE
  5
C0
330
1F
100
AcDbEntity
  8
0
  6
Continuous
 62
     1
370
    15
100
AcDbSpline
210
0.0
220
0.0
230
1.0
 70
     8
 71
     3
 72
    15
 73
    11
 74
     0
 42
0.000000001
 43
0.00000001
 40
0.0
 40
0.0
 40
0.0
 40
0.0
 40
0.1349633070602746
 40
0.2699264014996648
 40
0.4048892392296962
 40
0.5398517761780565
 40
0.6748139682913679
 40
0.8097757715379571
 40
0.9370201119905567
 40
1.0
 40
1.0
 40
1.0
 40
1.0
 10
64.85000000000008
 20
2.276811163158057
 30
0.0
 10
63.77077705525017
 20
2.746525601530044
 30
0.0
 10
61.61233286595574
 20
3.685953738286971
 30
0.0
 10
58.37467002336594
 20
4.943002695629306
 30
0.0
 10
55.13701524685139
 20
6.031189081627137
 30
0.0
 10
51.89936441954335
 20
6.903370569506945
 30
0.0
 10
48.66173876691747
 20
7.535506709642179
 30
0.0
 10
45.48577407327605
 20
7.879879305919529
 30
0.0
 10
42.88559019456878
 20
7.985760123836737
 30
0.0
 10
41.36453812757844
 20
7.886065430290594
 30
0.0
 10
40.86094460739392
 20
7.853058275074688
 30
0.0
1001
PE_URL
1000

  0
SPLINE
  5
C1
330
1F
100
AcDbEntity
  8
0
  6
Continuous
 62
     1
370
    15
100
AcDbSpline
210
0.0
220
0.0
230
1.0
 70
    24
 71
     3
 72
     8
 73
     4
 74
     0
 42
0.000000001
 43
0.00000001
 40
0.0
 40
0.0
 40
0.0
 40
0.0
 40
1.0
 40
1.0
 40
1.0
 40
1.0
 10
64.85000000000002
 20
1.664193252681322
 30
0.0
 10
64.85000000000002
 20
1.87037333542643
 30
0.0
 10
64.85000000000002
 20
2.074726746088103
 30
0.0
 10
64.85000000000002
 20
2.276811163158085
 30
0.0
1001
PE_URL
1000

  0
SPLINE
  5
C2
330
1F
100
AcDbEntity
  8
0
  6
Continuous
 62
     1
370
    15
100
AcDbSpline
210
0.0
220
0.0
230
1.0
 70
    24
 71
     3
 72
    10
 73
     6
 74
     0
 42
0.000000001
 43
0.00000001
 40
0.0
 40
0.0
 40
0.0
 40
0.0
 40
0.5
 40
0.5
 40
1.0
 40
1.0
 40
1.0
 40
1.0
 10
69.85000000000002
 20
-7.828084185528399
 30
0.0
 10
69.85000000000002
 20
-7.228000500272133
 30
0.0
 10
69.85000000000002
 20
-6.469771754384499
 30
0.0
 10
69.85000000000002
 20
-4.706962891573157
 30
0.0
 10
69.85000000000002
 20
-3.703909786524716
 30
0.0
 10
69.85000000000002
 20
-2.6515511051382
 30
0.0
1001
PE_URL
1000

  0
SPLINE
  5
C3
330
1F
100
AcDbEntity
  8
0
  6
Continuous
 62
     1
370
    15
100
AcDbSpline
210
0.0
220
0.0
230
1.0
 70
    24
 71
     3
 72
    10
 73
     6
 74
     0
 42
0.000000001
 43
0.00000001
 40
0.0
 40
0.0
 40
0.0
 40
0.0
 40
0.5
 40
0.5
 40
1.0
 40
1.0
 40
1.0
 40
1.0
 10
64.85000000000005
 20
2.27681116315808
 30
0.0
 10
64.85000000000004
 20
2.866157450423763
 30
0.0
 10
64.85000000000005
 20
3.426608041643027
 30
0.0
 10
64.85000000000005
 20
4.442741727599876
 30
0.0
 10
64.85000000000002
 20
4.898053491264493
 30
0.0
 10
64.85000000000002
 20
5.281384351391313
 30
0.0
1001
PE_URL
1000

  0
SPLINE
  5
C4
330
1F
100
AcDbEntity
  8
0
  6
Continuous
 62
     1
370
    15
100
AcDbSpline
210
0.0
220
0.0
230
1.0
 70
     8
 71
     3
 72
     9
 73
     5
 74
     0
 42
0.000000001
 43
0.00000001
 40
0.0
 40
0.0
 40
0.0
 40
0.0
 40
0.9655465011796753
 40
1.0
 40
1.0
 40
1.0
 40
1.0
 10
69.85000000000002
 20
6.945312499999995
 30
0.0
 10
68.6632189220635
 20
6.942574623199533
 30
0.0
 10
67.43409005412545
 20
6.939739051016195
 30
0.0
 10
66.20491725298005
 20
6.786337380859868
 30
0.0
 10
66.16256794932582
 20
6.7810521565981
 30
0.0
1001
PE_URL
1000

  0
SPLINE
  5
C5
330
1F
100
AcDbEntity
  8
0
  6
Continuous
 62
     1
370
    15
100
AcDbSpline
210
0.0
220
0.0
230
1.0
 70
     8
 71
     3
 72
    10
 73
     6
 74
     0
 42
0.000000001
 43
0.00000001
 40
0.0
 40
0.0
 40
0.0
 40
0.0
 40
0.5
 40
0.5
 40
1.0
 40
1.0
 40
1.0
 40
1.0
 10
69.85000000000002
 20
6.9453125
 30
0.0
 10
69.00754532421972
 20
6.716887238217097
 30
0.0
 10
68.16921531287332
 20
6.465090686036081
 30
0.0
 10
66.50129124841993
 20
5.912065141929346
 30
0.0
 10
65.6724653695014
 20
5.611572711227064
 30
0.0
 10
64.85000000000002
 20
5.281384351391317
 30
0.0
1001
PE_URL
1000

  0
SPLINE
  5
C6
330
1F
100
AcDbEntity
  8
0
  6
Continuous
 62
     1
370
    15
100
AcDbSpline
210
0.0
220
0.0
230
1.0
 70
     8
 71
     3
 72
    14
 73
    10
 74
     0
 42
0.000000001
 43
0.00000001
 40
0.0
 40
0.0
 40
0.0
 40
0.0
 40
0.0091101654654845
 40
0.1825242163696353
 40
0.3460220061271969
 40
0.5095180284085902
 40
0.6730127340209108
 40
0.8365065741004601
 40
1.0
 40
1.0
 40
1.0
 40
1.0
 10
48.83181223154855
 20
-7.455812594787282
 30
0.0
 10
48.77511684781766
 20
-7.466866056694445
 30
0.0
 10
47.63921206908866
 20
-7.688324654830893
 30
0.0
 10
45.48577251090765
 20
-7.871524897494343
 30
0.0
 10
42.37174207268266
 20
-7.98050759573807
 30
0.0
 10
39.31939015127438
 20
-7.810460610454689
 30
0.0
 10
36.26708048076182
 20
-7.398242574350541
 30
0.0
 10
33.21478527721766
 20
-6.764579727524933
 30
0.0
 10
31.17992756658509
 20
-6.167560702257608
 30
0.0
 10
30.16250000000002
 20
-5.869051567732471
 30
0.0
1001
PE_URL
1000

  0
SPLINE
  5
C7
330
1F
100
AcDbEntity
  8
외형선
  6
Continuous
370
    15
100
AcDbSpline
210
0.0
220
0.0
230
1.0
 70
    24
 71
     3
 72
    14
 73
    10
 74
     0
 42
0.000000001
 43
0.00000001
 40
0.0
 40
0.0
 40
0.0
 40
0.0
 40
0.25
 40
0.25
 40
0.5
 40
0.5
 40
0.75
 40
0.75
 40
1.0
 40
1.0
 40
1.0
 40
1.0
 10
30.16250000000002
 20
4.675983949461125
 30
0.0
 10
30.16250000000002
 20
3.915019219228068
 30
0.0
 10
30.16250000000002
 20
3.075707180165458
 30
0.0
 10
30.16250000000002
 20
1.301564409783114
 30
0.0
 10
30.16250000000002
 20
0.3674104166101562
 30
0.0
 10
30.16250000000002
 20
-1.506746419875
 30
0.0
 10
30.16250000000002
 20
-2.445750634069558
 30
0.0
 10
30.16250000000002
 20
-4.238374313681952
 30
0.0
 10
30.16250000000002
 20
-5.09129108351882
 30
0.0
 10
30.16250000000002
 20
-5.869051567732469
 30
0.0
  0
SPLINE
  5
C8
330
1F
100
AcDbEntity
  8
외형선
  6
Continuous
370
    15
100
AcDbSpline
210
0.0
220
0.0
230
1.0
 70
    24
 71
     3
 72
    12
 73
     8
 74
     0
 42
0.000000001
 43
0.00000001
 40
0.0
 40
0.0
 40
0.0
 40
0.0
 40
0.1824119273469441
 40
0.3648238546938881
 40
0.6317534756799064
 40
0.9064240737576166
 40
1.0
 40
1.0
 40
1.0
 40
1.0
 10
30.16250000000002
 20
-5.869051567732469
 30
0.0
 10
30.16250000000002
 20
-6.098743709718201
 30
0.0
 10
30.16250000000002
 20
-6.558127993689661
 30
0.0
 10
30.16250000000002
 20
-7.180240394288465
 30
0.0
 10
30.16250000000002
 20
-7.67594286377046
 30
0.0
 10
30.16250000000002
 20
-7.924704948192717
 30
0.0
 10
30.16250000000002
 20
-7.896065722070365
 30
0.0
 10
30.16250000000002
 20
-7.888788145951452
 30
0.0
  0
LINE
  5
C9
330
1F
100
AcDbEntity
  8
0
  6
Continuous
 62
     1
370
    15
100
AcDbLine
 10
69.85000000000002
 20
0.0
 30
0.0
 11
69.85000000000002
 21
6.945312499999996
 31
0.0
1001
PE_URL
1000

  0
SPLINE
  5
CA
330
1F
100
AcDbEntity
  8
0
  6
Continuous
 62
     1
370
    15
100
AcDbSpline
210
0.0
220
0.0
230
1.0
 70
     8
 71
     3
 72
    12
 73
     8
 74
     0
 42
0.000000001
 43
0.00000001
 40
0.0
 40
0.0
 40
0.0
 40
0.0
 40
0.1449035389125746
 40
0.3586458218106093
 40
0.5724054702085992
 40
0.7861882747874377
 40
1.0
 40
1.0
 40
1.0
 40
1.0
 10
56.23445335610519
 20
6.649962706874343
 30
0.0
 10
56.89207641480797
 20
6.930958178519449
 30
0.0
 10
58.51973688535289
 20
7.626440515317462
 30
0.0
 10
61.11754545106928
 20
8.499635360112306
 30
0.0
 10
64.02800211165017
 20
9.256633700868333
 30
0.0
 10
66.9388310321177
 20
9.7618286951198
 30
0.0
 10
68.87956658973599
 20
9.862933407183391
 30
0.0
 10
69.85000000000004
 20
9.913489182356617
 30
0.0
1001
PE_URL
1000

  0
SPLINE
  5
CB
330
1F
100
AcDbEntity
  8
0
  6
Continuous
 62
     1
370
    15
100
AcDbSpline
210
0.0
220
0.0
230
1.0
 70
    24
 71
     3
 72
    10
 73
     6
 74
     0
 42
0.000000001
 43
0.00000001
 40
0.0
 40
0.0
 40
0.0
 40
0.0
 40
0.5
 40
0.5
 40
1.0
 40
1.0
 40
1.0
 40
1.0
 10
69.85000000000002
 20
6.945312499999995
 30
0.0
 10
69.85000000000002
 20
7.366320048010058
 30
0.0
 10
69.85000000000002
 20
7.855569808290921
 30
0.0
 10
69.85000000000004
 20
8.88201448765848
 30
0.0
 10
69.85000000000002
 20
9.416587995842729
 30
0.0
 10
69.85000000000002
 20
9.913489182356615
 30
0.0
1001
PE_URL
1000

  0
LINE
  5
CC
330
1F
100
AcDbEntity
  8
0
  6
Continuous
 62
     1
370
    15
100
AcDbLine
 10
32.8079513926054
 20
-7.796820282581144
 30
0.0
 11
30.16249999999714
 21
-8.653172996247468
 31
0.0
1001
PE_URL
1000

  0
SPLINE
  5
CD
330
1F
100
AcDbEntity
  8
외형선
  6
Continuous
370
    15
100
AcDbSpline
210
0.0
220
0.0
230
1.0
 70
    24
 71
     3
 72
    11
 73
     7
 74
     0
 42
0.000000001
 43
0.00000001
 40
0.0
 40
0.0
 40
0.0
 40
0.0
 40
0.1904179844779643
 40
0.4905968582212788
 40
0.7911251766445161
 40
1.0
 40
1.0
 40
1.0
 40
1.0
 10
30.16250000000002
 20
-7.917997357362341
 30
0.0
 10
30.16250000000002
 20
-7.967689409377626
 30
0.0
 10
30.16250000000002
 20
-8.095717046389442
 30
0.0
 10
30.16250000000002
 20
-8.292514779998882
 30
0.0
 10
30.16250000000002
 20
-8.487714480840555
 30
0.0
 10
30.16250000000002
 20
-8.60505775415252
 30
0.0
 10
30.16250000000002
 20
-8.653172996236435
 30
0.0
  0
LINE
  5
CE
330
1F
100
AcDbEntity
  8
중심선
 62
     1
100
AcDbLine
 10
-76.85
 20
-0.0000000000000093
 30
0.0
 11
76.85
 21
0.0000000000000098
 31
0.0
  0
LINE
  5
CF
330
1F
100
AcDbEntity
  8
참조1
100
AcDbLine
 10
0.0
 20
-0.0000000000000094
 30
0.0
 11
0.0000000000000071
 21
-40.00000000000001
 31
0.0
  0
LINE
  5
D0
330
1F
100
AcDbEntity
  8
참조1
100
AcDbLine
 10
0.0000000000000071
 20
-40.00000000000001
 30
0.0
 11
-9.703215596699206
 21
-40.0
 31
0.0
  0
CIRCLE
  5
D1
330
1F
100
AcDbEntity
  8
해칭선
100
AcDbCircle
 10
0.0
 20
0.0
 30
0.0
 40
3.000000000000001
  0
INSERT
  5
D2
330
1F
100
AcDbEntity
  8
0
  6
Continuous
 62
     7
100
AcDbBlockReference
 66
     1
  2
블럭10
 10
-13.94027293212521
 20
-52.04717430164393
 30
0.0
  0
ATTRIB
  5
D3
330
D2
100
AcDbEntity
  8
FORMAT
 62
     2
100
AcDbText
 10
-23.12156822086649
 20
-49.97180738881174
 30
0.0
 40
4.233333333333333
  1
E2050050 [ 2 FLUTE ]
 41
0.75
  7
SLDTEXTSTYLE0
 11
-23.12156822086649
 21
-52.08847405547841
 31
0.0
100
AcDbAttribute
  2
AUTOATTR0
 70
     0
 74
     1
  0
SEQEND
  5
D4
330
D2
100
AcDbEntity
  8
0
  6
Continuous
 62
     7
  0
HATCH
  5
D5
330
1F
100
AcDbEntity
  8
중심선
100
AcDbHatch
 10
0.0
 20
0.0
 30
0.0
210
0.0
220
0.0
230
1.0
  2
SOLID
 70
     1
 71
     0
 91
        1
 92
        0
 93
        4
 72
     1
 10
-8.225363627744372
 20
-35.8
 11
-11.67163887158165
 21
-35.8
 72
     1
 10
-11.67163887158165
 20
-35.8
 11
-13.79986873078568
 21
-38.3363255805726
 72
     1
 10
-13.79986873078568
 20
-38.3363255805726
 11
-10.35356040183525
 21
-38.33628615127011
 72
     1
 10
-10.35356040183525
 20
-38.33628615127011
 11
-8.225363627744372
 21
-35.8
 97
        0
 75
     0
 76
     1
 98
        1
 10
19.75671167873053
 20
-0.0010749287238986
  0
HATCH
  5
D6
330
1F
100
AcDbEntity
  8
중심선
100
AcDbHatch
 10
0.0
 20
0.0
 30
0.0
210
0.0
220
0.0
230
1.0
  2
SOLID
 70
     1
 71
     0
 91
        1
 92
        0
 93
        4
 72
     1
 10
-3.212599636708418
 20
-35.79999999999998
 11
-6.658874880545675
 21
-35.8
 72
     1
 10
-6.658874880545675
 20
-35.8
 11
-11.19001288890309
 21
-41.20000000000002
 72
     1
 10
-11.19001288890309
 20
-41.20000000000002
 11
-7.743737645065806
 21
-41.20000000000002
 72
     1
 10
-7.743737645065806
 20
-41.20000000000002
 11
-3.212599636708418
 21
-35.79999999999998
 97
        0
 75
     0
 76
     1
 98
        1
 10
19.75671167873053
 20
-0.0010749287238986
  0
HATCH
  5
D7
330
1F
100
AcDbEntity
  8
중심선
100
AcDbHatch
 10
0.0
 20
0.0
 30
0.0
210
0.0
220
0.0
230
1.0
  2
SOLID
 70
     1
 71
     0
 91
        1
 92
        0
 93
        4
 72
     1
 10
1.80016435432745
 20
-35.80000000000003
 11
-1.646110889509639
 21
-35.8
 72
     1
 10
-1.646110889509639
 20
-35.8
 11
-8.69454779139889
 21
-44.20000000000002
 72
     1
 10
-8.69454779139889
 20
-44.20000000000002
 11
-5.248272547561605
 21
-44.20000000000002
 72
     1
 10
-5.248272547561605
 20
-44.20000000000002
 11
1.80016435432745
 21
-35.80000000000003
 97
        0
 75
     0
 76
     1
 98
        1
 10
19.75671167873053
 20
-0.0010749287238986
  0
HATCH
  5
D8
330
1F
100
AcDbEntity
  8
중심선
100
AcDbHatch
 10
0.0
 20
0.0
 30
0.0
210
0.0
220
0.0
230
1.0
  2
SOLID
 70
     1
 71
     0
 91
        1
 92
        0
 93
        6
 72
     3
 10
6.600054785339676
 20
-40.00000000005127
 11
3.960054785062283
 21
1.540882976769353E-10
 40
0.3939339440162628
 50
17.09539180608436
 51
320.0019657685082
 73
     0
 72
     1
 10
8.283054441040242
 20
-38.58789400463833
 11
10.58835631474131
 21
-36.65356729459038
 72
     3
 10
6.600054785286829
 20
-40.00000000000015
 11
6.600054785286829
 21
-1.278976924368180E-13
 40
0.636358354079598
 50
39.99873849337411
 51
368.4976242363724
 73
     1
 72
     1
 10
13.02538727718744
 20
-39.03999999993002
 11
5.280122092122751
 21
-39.03999999993002
 72
     1
 10
5.280122092122751
 20
-39.03999999993002
 11
5.280097047676817
 21
-40.95999999992991
 72
     1
 10
5.280097047676817
 20
-40.95999999992991
 11
9.721476817148854
 21
-40.95999999992988
 97
        0
 75
     0
 76
     1
 98
        1
 10
19.75671167873053
 20
-0.0010749287238986
  0
DIMENSION
  5
D9
330
1F
100
AcDbEntity
  8
치수문자_일반주서
100
AcDbDimension
  2
_D
 10
-84.84999999999992
 20
-11.11250000000023
 30
0.0
 11
-84.85000000000005
 21
30.78949999999993
 31
0.0
 70
   160
  1
%%c<>
 71
     2
 42
22.22499999999999
 52
-270.0
  3
SLDDIMSTYLE1
100
AcDbAlignedDimension
 13
-24.71902700723834
 23
11.11249999999998
 33
0.0
 14
-24.71902700723835
 24
-11.11250000000001
 34
0.0
 50
90.0000000000002
100
AcDbRotatedDimension
1001
PE_URL
1000

1001
ACAD
1000
DSTYLE
1002
{
1070
   171
1070
     8
1070
   273
1070
     7
1070
   140
1040
4.0
1002
}
1001
ACAD_DSTYLE_DIMFLIPARROW_SYMBOL
1070
   385
1070
     0
1001
ACAD_DSTYLE_DIMFLIPARROW_WHICH_SYMBOL
1070
   386
1070
     3
  0
DIMENSION
  5
EE
330
1F
100
AcDbEntity
  8
치수문자_일반주서
100
AcDbDimension
  2
_D_1
 10
84.85000000000002
 20
9.91348918235667
 30
0.0
 11
84.84999999999994
 21
32.09048918235667
 31
0.0
 70
   160
  1
%%c<>
 71
     2
 42
19.82697836471324
 52
-270.0
  3
SLDDIMSTYLE1
100
AcDbAlignedDimension
 13
69.85000000000002
 23
-9.913489182356626
 33
0.0
 14
69.85000000000002
 24
9.913489182356615
 34
0.0
 50
90.0000000000002
100
AcDbRotatedDimension
1001
ACAD
1000
DSTYLE
1002
{
1070
   140
1040
4.0
1070
   171
1070
     8
1070
   273
1070
     7
1002
}
1001
ACAD_DSTYLE_DIMFLIPARROW_SYMBOL
1070
   385
1070
     0
1001
ACAD_DSTYLE_DIMFLIPARROW_WHICH_SYMBOL
1070
   386
1070
     3
  0
DIMENSION
  5
102
330
1F
100
AcDbEntity
  8
치수문자_일반주서
100
AcDbDimension
  2
_D_2
 10
30.16250000000002
 20
26.1125
 30
0.0
 11
50.00625000000002
 21
26.1125
 31
0.0
 70
   160
  1
<>
 71
     2
 42
39.68750000000001
  3
SLDDIMSTYLE1
100
AcDbAlignedDimension
 13
69.85000000000002
 23
9.913489182356615
 33
0.0
 14
30.16250000000002
 24
8.653172996236423
 34
0.0
100
AcDbRotatedDimension
1001
PE_URL
1000

1001
ACAD
1000
DSTYLE
1002
{
1070
   171
1070
     8
1070
   273
1070
     7
1070
   140
1040
4.0
1002
}
  0
DIMENSION
  5
116
330
1F
100
AcDbEntity
  8
치수문자_일반주서
100
AcDbDimension
  2
_D_3
 10
69.85000000000002
 20
41.1125
 30
0.0
 11
0.0000000000000284
 21
41.1125
 31
0.0
 70
   160
  1
<>
 71
     2
 42
139.7
  3
SLDDIMSTYLE1
100
AcDbAlignedDimension
 13
-69.85000000000002
 23
9.913489182356603
 33
0.0
 14
69.85000000000002
 24
9.913489182356615
 34
0.0
 50
-0.0000000000000058
100
AcDbRotatedDimension
1001
PE_URL
1000

1001
ACAD
1000
DSTYLE
1002
{
1070
   171
1070
     8
1070
   273
1070
     7
1070
   140
1040
4.0
1002
}
  0
LINE
  5
12A
330
1F
100
AcDbEntity
  8
참조1
100
AcDbLine
 10
88.26912503295506
 20
7.439999999999997
 30
0.0
 11
88.26912503295506
 21
-7.440000000000007
 31
0.0
  0
LINE
  5
12B
330
1F
100
AcDbEntity
  8
참조1
100
AcDbLine
 10
100.9691250329551
 20
5.439999999999997
 30
0.0
 11
88.26912503295506
 21
5.439999999999997
 31
0.0
  0
SOLID
  5
12C
330
1F
100
AcDbEntity
  8
참조1
100
AcDbTrace
 10
88.26912503295506
 20
5.439999999999997
 30
0.0
 11
94.61912503295505
 21
4.423999999999997
 31
0.0
 12
94.61912503295505
 22
6.455999999999997
 32
0.0
 13
94.61912503295505
 23
6.455999999999997
 33
0.0
  0
LINE
  5
12D
330
1F
100
AcDbEntity
  8
참조1
100
AcDbLine
 10
100.9691250329551
 20
-5.440000000000007
 30
0.0
 11
88.26912503295506
 21
-5.440000000000007
 31
0.0
  0
SOLID
  5
12E
330
1F
100
AcDbEntity
  8
참조1
100
AcDbTrace
 10
88.26912503295506
 20
-5.440000000000007
 30
0.0
 11
94.61912503295505
 21
-6.456000000000008
 31
0.0
 12
94.61912503295505
 22
-4.424000000000007
 32
0.0
 13
94.61912503295505
 23
-4.424000000000007
 33
0.0
  0
MTEXT
  5
12F
330
1F
100
AcDbEntity
  8
참조1
100
AcDbMText
 10
97.65347516558106
 20
11.01029177718832
 30
0.0
 40
3.5
 41
0.0
 71
     1
 72
     1
  1
A
  7
SLDTEXTSTYLE0
 73
     1
 44
1.0
  0
MTEXT
  5
130
330
1F
100
AcDbEntity
  8
참조1
100
AcDbMText
 10
97.65347516558106
 20
0.1302917771883207
 30
0.0
 40
3.5
 41
0.0
 71
     1
 72
     1
  1
A
  7
SLDTEXTSTYLE0
 73
     1
 44
1.0
  0
INSERT
  5
137
330
1F
100
AcDbEntity
  8
해칭선
100
AcDbBlockReference
  2
SW_DOWELSYMBOL_0
 10
0.0
 20
0.0
 30
0.0
  0
LINE
  5
1C0
330
1F
100
AcDbEntity
  8
외형선
  6
Continuous
370
    15
100
AcDbLine
 10
-24.71902700723835
 20
11.11249999999998
 30
0.0
 11
-27.11252693670441
 21
10.4711636268156
 31
0.0
  0
LINE
  5
1C1
330
1F
100
AcDbEntity
  8
외형선
  6
Continuous
370
    15
100
AcDbLine
 10
-27.11252693670441
 20
-10.47116362681563
 30
0.0
 11
-24.71902700723835
 21
-11.11250000000001
 31
0.0
  0
SPLINE
  5
1C2
330
1F
100
AcDbEntity
  8
외형선
  6
Continuous
370
    15
100
AcDbSpline
210
0.0
220
0.0
230
1.0
 70
     8
 71
     3
 72
     9
 73
     5
 74
     0
 42
0.000000001
 43
0.00000001
 40
0.0
 40
0.0
 40
0.0
 40
0.0
 40
0.5084364117909487
 40
1.0
 40
1.0
 40
1.0
 40
1.0
 10
-27.11253724272627
 20
8.144165124480296
 30
0.0
 10
-27.63182147740061
 20
8.100185109550793
 30
0.0
 10
-28.65315713045737
 20
8.013684587736112
 30
0.0
 10
-29.6650770254415
 20
7.949532290690108
 30
0.0
 10
-30.16250000000002
 20
7.917997357362321
 30
0.0
  0
LINE
  5
1C3
330
1F
100
AcDbEntity
  8
0
  6
Continuous
 62
     1
370
    15
100
AcDbLine
 10
-38.67381467480062
 20
-2.784356377480094
 30
0.0
 11
-38.54972680333702
 21
-2.852636324149071
 31
0.0
1001
PE_URL
1000

  0
SPLINE
  5
1C4
330
1F
100
AcDbEntity
  8
0
  6
Continuous
 62
     1
370
    15
100
AcDbSpline
210
0.0
220
0.0
230
1.0
 70
     8
 71
     3
 72
     9
 73
     5
 74
     0
 42
0.000000001
 43
0.00000001
 40
0.0
 40
0.0
 40
0.0
 40
0.0
 40
0.4622950099661626
 40
1.0
 40
1.0
 40
1.0
 40
1.0
 10
-44.14540799252089
 20
-2.542398304688692
 30
0.0
 10
-43.7215840216885
 20
-2.744074501534303
 30
0.0
 10
-42.80480153064794
 20
-3.180324498825797
 30
0.0
 10
-41.88612591358147
 20
-3.660817642653242
 30
0.0
 10
-41.39214945006242
 20
-3.9191812037663
 30
0.0
1001
PE_URL
1000

  0
SPLINE
  5
1C5
330
1F
100
AcDbEntity
  8
0
  6
Continuous
 62
     1
370
    15
100
AcDbSpline
210
0.0
220
0.0
230
1.0
 70
     8
 71
     3
 72
    19
 73
    15
 74
     0
 42
0.000000001
 43
0.00000001
 40
0.0
 40
0.0
 40
0.0
 40
0.0
 40
0.1283110816093783
 40
0.2332321983047163
 40
0.3202204529669572
 40
0.3932622785306504
 40
0.4684114760165324
 40
0.5569759126384229
 40
0.6298014127723549
 40
0.7122375547122878
 40
0.807428844893721
 40
0.9258172430224791
 40
0.983879704104276
 40
1.0
 40
1.0
 40
1.0
 40
1.0
 10
-40.86570836687626
 20
-7.884310148305033
 30
0.0
 10
-40.53209665546619
 20
-7.867153507037102
 30
0.0
 10
-39.92568766992552
 20
-7.835967727069736
 30
0.0
 10
-39.05261270183309
 20
-7.803342259979622
 30
0.0
 10
-38.3273531736595
 20
-7.781607468159166
 30
0.0
 10
-37.69307335183561
 20
-7.766713979779212
 30
0.0
 10
-37.06233741001232
 20
-7.756069987189591
 30
0.0
 10
-36.42465654733498
 20
-7.749712234617462
 30
0.0
 10
-35.76922505576006
 20
-7.7477744368285
 30
0.0
 10
-35.09556652146956
 20
-7.75029484419634
 30
0.0
 10
-34.29950814894082
 20
-7.75937994965993
 30
0.0
 10
-33.5688626772999
 20
-7.774608148589913
 30
0.0
 10
-33.05089879946349
 20
-7.788897200311631
 30
0.0
 10
-32.85135884868984
 20
-7.795393569572191
 30
0.0
 10
-32.8079977877028
 20
-7.796805264135656
 30
0.0
1001
PE_URL
1000

  0
SPLINE
  5
1C6
330
1F
100
AcDbEntity
  8
0
  6
Continuous
 62
     1
370
    15
100
AcDbSpline
210
0.0
220
0.0
230
1.0
 70
     8
 71
     3
 72
    28
 73
    24
 74
     0
 42
0.000000001
 43
0.00000001
 40
0.0
 40
0.0
 40
0.0
 40
0.0
 40
0.0688147267229877
 40
0.1216203697266767
 40
0.1602455966029747
 40
0.1931857302206607
 40
0.2225897959578042
 40
0.2581662271324817
 40
0.2995335143139217
 40
0.3526255179331361
 40
0.4031217948199912
 40
0.4498204056761229
 40
0.495694443776858
 40
0.5530827097703742
 40
0.6051365367477054
 40
0.653793375462938
 40
0.7065500790760858
 40
0.7660160674691097
 40
0.8010744590131508
 40
0.8356759695396542
 40
0.8759401891458769
 40
0.9293560199126372
 40
1.0
 40
1.0
 40
1.0
 40
1.0
 10
-66.16397729237693
 20
-6.786092422958497
 30
0.0
 10
-65.7727359856187
 20
-6.754185036728693
 30
0.0
 10
-65.08127189579054
 20
-6.697793210515357
 30
0.0
 10
-64.15720363218111
 20
-6.64030050254123
 30
0.0
 10
-63.4230585823106
 20
-6.602721168245147
 30
0.0
 10
-62.8322557071081
 20
-6.577810636399199
 30
0.0
 10
-62.27009186938707
 20
-6.558672918178623
 30
0.0
 10
-61.65621544726386
 20
-6.542797691583473
 30
0.0
 10
-60.90378300604079
 20
-6.530757056695265
 30
0.0
 10
-60.06654628714786
 20
-6.527518580359725
 30
0.0
 10
-59.1978403106738
 20
-6.53577300651525
 30
0.0
 10
-58.37046615802424
 20
-6.553923580955122
 30
0.0
 10
-57.50352719393344
 20
-6.583202319345816
 30
0.0
 10
-56.60626611565886
 20
-6.625469134610469
 30
0.0
 10
-55.69190047809642
 20
-6.680938478862188
 30
0.0
 10
-54.80450562583999
 20
-6.745812502004526
 30
0.0
 10
-53.87598482260013
 20
-6.825434730694809
 30
0.0
 10
-53.02110200246838
 20
-6.910362652088999
 30
0.0
 10
-52.28578090184315
 20
-6.991121989412775
 30
0.0
 10
-51.64664784637193
 20
-7.06656388116086
 30
0.0
 10
-50.8873336958234
 20
-7.162693888791182
 30
0.0
 10
-49.93368372046547
 20
-7.293119329331674
 30
0.0
 10
-49.23039080169883
 20
-7.401094970502001
 30
0.0
 10
-48.82991130227936
 20
-7.46258006379886
 30
0.0
1001
PE_URL
1000

  0
SPLINE
  5
1C7
330
1F
100
AcDbEntity
  8
0
  6
Continuous
 62
     1
370
    15
100
AcDbSpline
210
0.0
220
0.0
230
1.0
 70
     8
 71
     3
 72
    18
 73
    14
 74
     0
 42
0.000000001
 43
0.00000001
 40
0.0
 40
0.0
 40
0.0
 40
0.0
 40
0.1046650182756282
 40
0.1855112022435071
 40
0.2832613473443616
 40
0.3751864116162474
 40
0.4818928692923107
 40
0.5798255318122777
 40
0.6599245581301961
 40
0.7266079359286688
 40
0.8335673603003187
 40
0.9446483744002339
 40
1.0
 40
1.0
 40
1.0
 40
1.0
 10
-48.82991130227936
 20
7.462580063798821
 30
0.0
 10
-49.05791683200175
 20
7.426277391856662
 30
0.0
 10
-49.46204020229134
 20
7.361933521979267
 30
0.0
 10
-50.17594871164368
 20
7.257362344728953
 30
0.0
 10
-50.86634779916152
 20
7.16665673462191
 30
0.0
 10
-51.61556522309633
 20
7.06987187659119
 30
0.0
 10
-52.34982747772116
 20
6.983499999597072
 30
0.0
 10
-53.05881983229447
 20
6.90689264532331
 30
0.0
 10
-53.66305431974303
 20
6.847068145526908
 30
0.0
 10
-54.28446660983869
 20
6.789781157541086
 30
0.0
 10
-54.99623907812573
 20
6.73122225515954
 30
0.0
 10
-55.68306397053678
 20
6.681790859070908
 30
0.0
 10
-56.095665605627
 20
6.657418470426865
 30
0.0
 10
-56.23288731447315
 20
6.649312780739848
 30
0.0
1001
PE_URL
1000

  0
SPLINE
  5
1C8
330
1F
100
AcDbEntity
  8
0
  6
Continuous
 62
     1
370
    15
100
AcDbSpline
210
0.0
220
0.0
230
1.0
 70
     8
 71
     3
 72
    26
 73
    22
 74
     0
 42
0.000000001
 43
0.00000001
 40
0.0
 40
0.0
 40
0.0
 40
0.0
 40
0.080073375335795
 40
0.139612426701456
 40
0.1787651743083515
 40
0.2062663100723753
 40
0.240100926724003
 40
0.2797653083739269
 40
0.3168620369537326
 40
0.3754244557971093
 40
0.4362516563097659
 40
0.5054654057418685
 40
0.5502794062882728
 40
0.5834541763673018
 40
0.619821631176564
 40
0.6774257228689642
 40
0.7357223672844795
 40
0.7808779859745442
 40
0.828498008880553
 40
0.9015226933576577
 40
1.0
 40
1.0
 40
1.0
 40
1.0
 10
-30.16250000000002
 20
7.917997357362317
 30
0.0
 10
-30.44910291036685
 20
7.901679735634595
 30
0.0
 10
-30.94881117979117
 20
7.873229045778572
 30
0.0
 10
-31.58828887713607
 20
7.843166422750858
 30
0.0
 10
-32.03964212510557
 20
7.824173221723782
 30
0.0
 10
-32.39926339357574
 20
7.810462482634914
 30
0.0
 10
-32.76063809649871
 20
7.797950798100693
 30
0.0
 10
-33.15627407201967
 20
7.785848138112225
 30
0.0
 10
-33.6366883600993
 20
7.773520815566638
 30
0.0
 10
-34.14332929799549
 20
7.761205131748081
 30
0.0
 10
-34.81861459464547
 20
7.750130304493855
 30
0.0
 10
-35.45709497311899
 20
7.748112443367834
 30
0.0
 10
-35.99242741542557
 20
7.748308418854045
 30
0.0
 10
-36.4068659281949
 20
7.750112011793842
 30
0.0
 10
-36.86027010237586
 20
7.753887092203083
 30
0.0
 10
-37.40543791201537
 20
7.761349734496736
 30
0.0
 10
-37.98160578481245
 20
7.773096412852148
 30
0.0
 10
-38.52387426876898
 20
7.787366377915596
 30
0.0
 10
-39.11854575113557
 20
7.80619846081613
 30
0.0
 10
-39.90120997133211
 20
7.835782674737398
 30
0.0
 10
-40.51389915394226
 20
7.866609328520987
 30
0.0
 10
-40.86570836687626
 20
7.884310148304994
 30
0.0
1001
PE_URL
1000

  0
LINE
  5
1C9
330
1F
100
AcDbEntity
  8
외형선
  6
Continuous
370
    15
100
AcDbLine
 10
-24.71902700723835
 20
-11.11250000000001
 30
0.0
 11
-24.71902700723835
 21
11.11249999999998
 31
0.0
  0
SPLINE
  5
1CA
330
1F
100
AcDbEntity
  8
외형선
  6
Continuous
370
    15
100
AcDbSpline
210
0.0
220
0.0
230
1.0
 70
     8
 71
     3
 72
     8
 73
     4
 74
     0
 42
0.000000001
 43
0.00000001
 40
0.0
 40
0.0
 40
0.0
 40
0.0
 40
1.0
 40
1.0
 40
1.0
 40
1.0
 10
-29.16250000000002
 20
-8.920627981159136
 30
0.0
 10
-28.47644125225893
 20
-9.224744407553715
 30
0.0
 10
-27.79380631999743
 20
-9.52097008807366
 30
0.0
 10
-27.11255516382323
 20
-9.806903327544184
 30
0.0
  0
LINE
  5
1CB
330
1F
100
AcDbEntity
  8
외형선
  6
Continuous
370
    15
100
AcDbLine
 10
-29.16250000000002
 20
-8.920627981159136
 30
0.0
 11
-29.16250000000002
 21
-7.374075019297685
 31
0.0
  0
SPLINE
  5
1CC
330
1F
100
AcDbEntity
  8
외형선
  6
Continuous
370
    15
100
AcDbSpline
210
0.0
220
0.0
230
1.0
 70
     8
 71
     3
 72
     8
 73
     4
 74
     0
 42
0.000000001
 43
0.00000001
 40
0.0
 40
0.0
 40
0.0
 40
0.0
 40
1.0
 40
1.0
 40
1.0
 40
1.0
 10
-27.1125269367044
 20
-8.43880984872591
 30
0.0
 10
-27.79724011620296
 20
-8.09271896507785
 30
0.0
 10
-28.47982980568106
 20
-7.73705034131288
 30
0.0
 10
-29.16250000000002
 20
-7.374075019297685
 30
0.0
  0
LINE
  5
1CD
330
1F
100
AcDbEntity
  8
외형선
  6
Continuous
370
    15
100
AcDbLine
 10
-27.11252693670441
 20
10.4711636268156
 30
0.0
 11
-27.1125269367044
 21
-8.43890933566366
 31
0.0
  0
SPLINE
  5
1CE
330
1F
100
AcDbEntity
  8
외형선
  6
Continuous
370
    15
100
AcDbSpline
210
0.0
220
0.0
230
1.0
 70
     8
 71
     3
 72
     8
 73
     4
 74
     0
 42
0.000000001
 43
0.00000001
 40
0.0
 40
0.0
 40
0.0
 40
0.0
 40
1.0
 40
1.0
 40
1.0
 40
1.0
 10
-29.16250000000002
 20
8.920627981159104
 30
0.0
 10
-28.47644125225893
 20
9.224744407553686
 30
0.0
 10
-27.79380631999744
 20
9.520970088073629
 30
0.0
 10
-27.11255516382323
 20
9.806903327544152
 30
0.0
  0
LINE
  5
1CF
330
1F
100
AcDbEntity
  8
외형선
  6
Continuous
370
    15
100
AcDbLine
 10
-27.11252693670441
 20
-9.806967330258239
 30
0.0
 11
-27.11252693670441
 21
-10.47116362681563
 31
0.0
  0
SPLINE
  5
1D0
330
1F
100
AcDbEntity
  8
외형선
  6
Continuous
370
    15
100
AcDbSpline
210
0.0
220
0.0
230
1.0
 70
    24
 71
     3
 72
    10
 73
     6
 74
     0
 42
0.000000001
 43
0.00000001
 40
0.0
 40
0.0
 40
0.0
 40
0.0
 40
0.5
 40
0.5
 40
1.0
 40
1.0
 40
1.0
 40
1.0
 10
-30.16250000000001
 20
-6.975893511659422
 30
0.0
 10
-30.16250000000001
 20
-6.735362087251353
 30
0.0
 10
-30.16250000000001
 20
-6.397755728618485
 30
0.0
 10
-30.16250000000001
 20
-5.598344110336988
 30
0.0
 10
-30.16250000000002
 20
-5.139157500302865
 30
0.0
 10
-30.16250000000002
 20
-4.675983949461148
 30
0.0
  0
SPLINE
  5
1D1
330
1F
100
AcDbEntity
  8
외형선
  6
Continuous
370
    15
100
AcDbSpline
210
0.0
220
0.0
230
1.0
 70
     8
 71
     3
 72
     8
 73
     4
 74
     0
 42
0.000000001
 43
0.00000001
 40
0.0
 40
0.0
 40
0.0
 40
0.0
 40
1.0
 40
1.0
 40
1.0
 40
1.0
 10
-30.16250000000002
 20
-4.675983949461148
 30
0.0
 10
-29.14358281730351
 20
-4.980032127554765
 30
0.0
 10
-28.1314034285877
 20
-5.258829053668833
 30
0.0
 10
-27.11253373603109
 20
-5.509217848364585
 30
0.0
  0
SPLINE
  5
1D2
330
1F
100
AcDbEntity
  8
외형선
  6
Continuous
370
    15
100
AcDbSpline
210
0.0
220
0.0
230
1.0
 70
     8
 71
     3
 72
     8
 73
     4
 74
     0
 42
0.000000001
 43
0.00000001
 40
0.0
 40
0.0
 40
0.0
 40
0.0
 40
1.0
 40
1.0
 40
1.0
 40
1.0
 10
-30.16250000000001
 20
-6.975893511659422
 30
0.0
 10
-29.82889345684981
 20
-7.112663807332105
 30
0.0
 10
-29.49527875396308
 20
-7.245499756765291
 30
0.0
 10
-29.16250000000002
 20
-7.374075019297685
 30
0.0
  0
SPLINE
  5
1D3
330
1F
100
AcDbEntity
  8
외형선
  6
Continuous
370
    15
100
AcDbSpline
210
0.0
220
0.0
230
1.0
 70
    24
 71
     3
 72
    14
 73
    10
 74
     0
 42
0.000000001
 43
0.00000001
 40
0.0
 40
0.0
 40
0.0
 40
0.0
 40
0.25
 40
0.25
 40
0.5
 40
0.5
 40
0.75
 40
0.75
 40
1.0
 40
1.0
 40
1.0
 40
1.0
 10
-30.16250000000002
 20
-4.675983949461148
 30
0.0
 10
-30.16250000000002
 20
-3.915019219228093
 30
0.0
 10
-30.16250000000002
 20
-3.07570718016548
 30
0.0
 10
-30.16250000000002
 20
-1.301564409783136
 30
0.0
 10
-30.16250000000002
 20
-0.367410416610177
 30
0.0
 10
-30.16250000000002
 20
1.506746419874979
 30
0.0
 10
-30.16250000000002
 20
2.445750634069537
 30
0.0
 10
-30.16250000000002
 20
4.238374313681931
 30
0.0
 10
-30.16250000000002
 20
5.091291083518797
 30
0.0
 10
-30.16250000000002
 20
5.869051567732448
 30
0.0
  0
SPLINE
  5
1D4
330
1F
100
AcDbEntity
  8
외형선
  6
Continuous
370
    15
100
AcDbSpline
210
0.0
220
0.0
230
1.0
 70
     8
 71
     3
 72
     8
 73
     4
 74
     0
 42
0.000000001
 43
0.00000001
 40
0.0
 40
0.0
 40
0.0
 40
0.0
 40
1.0
 40
1.0
 40
1.0
 40
1.0
 10
-30.16250000000002
 20
5.869051567732448
 30
0.0
 10
-29.14358398625638
 20
5.552655638320147
 30
0.0
 10
-28.13140576392247
 20
5.206109218204499
 30
0.0
 10
-27.11253724272627
 20
4.833339173439342
 30
0.0
  0
SPLINE
  5
1D5
330
1F
100
AcDbEntity
  8
외형선
  6
Continuous
370
    15
100
AcDbSpline
210
0.0
220
0.0
230
1.0
 70
     8
 71
     3
 72
     8
 73
     4
 74
     0
 42
0.000000001
 43
0.00000001
 40
0.0
 40
0.0
 40
0.0
 40
0.0
 40
1.0
 40
1.0
 40
1.0
 40
1.0
 10
-30.16250000000001
 20
-8.653172996246667
 30
0.0
 10
-29.82889345684981
 20
-8.747276736676525
 30
0.0
 10
-29.49527875396308
 20
-8.83649961429424
 30
0.0
 10
-29.16250000000002
 20
-8.920627981159143
 30
0.0
  0
LINE
  5
1D6
330
1F
100
AcDbEntity
  8
외형선
  6
Continuous
370
    15
100
AcDbLine
 10
-30.16250000000001
 20
-8.65317299624666
 30
0.0
 11
-30.16250000000001
 21
-6.975893511659422
 31
0.0
  0
SPLINE
  5
1D7
330
1F
100
AcDbEntity
  8
외형선
  6
Continuous
370
    15
100
AcDbSpline
210
0.0
220
0.0
230
1.0
 70
    24
 71
     3
 72
    12
 73
     8
 74
     0
 42
0.000000001
 43
0.00000001
 40
0.0
 40
0.0
 40
0.0
 40
0.0
 40
0.1822281840998107
 40
0.3644563681996214
 40
0.6311171113988118
 40
0.9055110342156611
 40
1.0
 40
1.0
 40
1.0
 40
1.0
 10
-30.16250000000002
 20
5.869051567732448
 30
0.0
 10
-30.16250000000002
 20
6.09874463396363
 30
0.0
 10
-30.16250000000002
 20
6.558130766425993
 30
0.0
 10
-30.16250000000002
 20
7.180227162170159
 30
0.0
 10
-30.16250000000002
 20
7.676019728272262
 30
0.0
 10
-30.16250000000002
 20
7.92488883572145
 30
0.0
 10
-30.16250000000002
 20
7.896058123054281
 30
0.0
 10
-30.16250000000002
 20
7.888673166183342
 30
0.0
  0
SPLINE
  5
1D8
330
1F
100
AcDbEntity
  8
외형선
  6
Continuous
370
    15
100
AcDbSpline
210
0.0
220
0.0
230
1.0
 70
     8
 71
     3
 72
     8
 73
     4
 74
     0
 42
0.000000001
 43
0.00000001
 40
0.0
 40
0.0
 40
0.0
 40
0.0
 40
1.0
 40
1.0
 40
1.0
 40
1.0
 10
-30.16250000000002
 20
8.653172996246635
 30
0.0
 10
-29.82889345684982
 20
8.747276736676497
 30
0.0
 10
-29.49527875396308
 20
8.836499614294208
 30
0.0
 10
-29.16250000000002
 20
8.920627981159107
 30
0.0
  0
SPLINE
  5
1D9
330
1F
100
AcDbEntity
  8
외형선
  6
Continuous
370
    15
100
AcDbSpline
210
0.0
220
0.0
230
1.0
 70
    24
 71
     3
 72
    10
 73
     6
 74
     0
 42
0.000000001
 43
0.00000001
 40
0.0
 40
0.0
 40
0.0
 40
0.0
 40
0.1877447957461185
 40
0.7904128737587272
 40
1.0
 40
1.0
 40
1.0
 40
1.0
 10
-30.16250000000002
 20
7.917997357362317
 30
0.0
 10
-30.16250000000002
 20
7.967747785493312
 30
0.0
 10
-30.16250000000002
 20
8.17719901802133
 30
0.0
 10
-30.16250000000002
 20
8.418031726204038
 30
0.0
 10
-30.16250000000002
 20
8.604943850138177
 30
0.0
 10
-30.16250000000002
 20
8.653172996236414
 30
0.0
  0
SPLINE
  5
1DA
330
1F
100
AcDbEntity
  8
0
  6
Continuous
 62
     1
370
    15
100
AcDbSpline
210
0.0
220
0.0
230
1.0
 70
     8
 71
     3
 72
    10
 73
     6
 74
     0
 42
0.000000001
 43
0.00000001
 40
0.0
 40
0.0
 40
0.0
 40
0.0
 40
0.5
 40
0.5
 40
1.0
 40
1.0
 40
1.0
 40
1.0
 10
-69.85000000000002
 20
2.651551105137859
 30
0.0
 10
-68.9930288375915
 20
1.977830329194013
 30
0.0
 10
-68.14770160643842
 20
1.281650481933241
 30
0.0
 10
-66.48030512533285
 20
-0.1555697194919787
 30
0.0
 10
-65.65717962182177
 20
-0.8974463025933517
 30
0.0
 10
-64.85000000000176
 20
-1.664193252683294
 30
0.0
1001
PE_URL
1000

  0
LINE
  5
1DB
330
1F
100
AcDbEntity
  8
0
  6
Continuous
 62
     1
370
    15
100
AcDbLine
 10
-64.85000000000002
 20
-2.937719435296611
 30
0.0
 11
-69.85000000000002
 21
-0.0000000000000249
 31
0.0
1001
PE_URL
1000

  0
LINE
  5
1DC
330
1F
100
AcDbEntity
  8
0
  6
Continuous
 62
     1
370
    15
100
AcDbLine
 10
-69.85000000000002
 20
-0.0000000000000249
 30
0.0
 11
-69.85000000000002
 21
2.651551105137859
 31
0.0
1001
PE_URL
1000

  0
SPLINE
  5
1DD
330
1F
100
AcDbEntity
  8
0
  6
Continuous
 62
     1
370
    15
100
AcDbSpline
210
0.0
220
0.0
230
1.0
 70
     8
 71
     3
 72
    52
 73
    48
 74
     0
 42
0.000000001
 43
0.00000001
 40
0.0
 40
0.0
 40
0.0
 40
0.0
 40
0.0625000000000005
 40
0.0625000000000005
 40
0.0937500000000008
 40
0.0937500000000008
 40
0.125000000000001
 40
0.125000000000001
 40
0.1875000000000011
 40
0.1875000000000011
 40
0.218750000000001
 40
0.218750000000001
 40
0.2500000000000008
 40
0.2500000000000008
 40
0.3125000000000006
 40
0.3125000000000006
 40
0.3437500000000004
 40
0.3437500000000004
 40
0.3750000000000003
 40
0.3750000000000003
 40
0.4374999999999999
 40
0.4374999999999999
 40
0.4687499999999997
 40
0.4687499999999997
 40
0.4999999999999996
 40
0.4999999999999996
 40
0.5624999999999993
 40
0.5624999999999993
 40
0.624999999999999
 40
0.624999999999999
 40
0.6562499999999991
 40
0.6562499999999991
 40
0.6874999999999991
 40
0.6874999999999991
 40
0.7499999999999992
 40
0.7499999999999992
 40
0.7812499999999992
 40
0.7812499999999992
 40
0.8124999999999993
 40
0.8124999999999993
 40
0.8749999999999994
 40
0.8749999999999994
 40
0.9374999999999997
 40
0.9374999999999997
 40
0.9687499999999999
 40
0.9687499999999999
 40
1.0
 40
1.0
 40
1.0
 40
1.0
 10
-69.85000000000002
 20
9.913489182356603
 30
0.0
 10
-69.02670371284904
 20
9.893894735670365
 30
0.0
 10
-68.19513954589499
 20
9.839731927940402
 30
0.0
 10
-66.95476882801437
 20
9.707674378261583
 30
0.0
 10
-66.54371208620566
 20
9.65529149206715
 30
0.0
 10
-65.71741031137054
 20
9.533703358707417
 30
0.0
 10
-65.30289911604238
 20
9.464506705682442
 30
0.0
 10
-64.06013602651427
 20
9.232453460941333
 30
0.0
 10
-63.23761741895544
 20
9.04553033129488
 30
0.0
 10
-61.99551543128707
 20
8.71845514035736
 30
0.0
 10
-61.58083096633751
 20
8.601692702389201
 30
0.0
 10
-60.75339987493943
 20
8.353616620829133
 30
0.0
 10
-60.34202576257989
 20
8.222461733128586
 30
0.0
 10
-59.10363294107293
 20
7.807522979184341
 30
0.0
 10
-58.27181547177632
 20
7.502019700708313
 30
0.0
 10
-57.03415269120002
 20
7.007595895412614
 30
0.0
 10
-56.6224214183596
 20
6.836686800596517
 30
0.0
 10
-55.79471664501352
 20
6.482706276167274
 30
0.0
 10
-55.38001730721282
 20
6.29980285293324
 30
0.0
 10
-54.13823718446391
 20
5.735493072585879
 30
0.0
 10
-53.3154979567386
 20
5.338847580083328
 30
0.0
 10
-52.07264592385678
 20
4.71676686127762
 30
0.0
 10
-51.65822752520106
 20
4.505098633670894
 30
0.0
 10
-50.83235382540884
 20
4.074824437912316
 30
0.0
 10
-50.4211371372068
 20
3.856271117043928
 30
0.0
 10
-49.18026739571122
 20
3.189868077586969
 30
0.0
 10
-48.35003312643242
 20
2.732397541799127
 30
0.0
 10
-46.70223384802642
 20
1.80404250356835
 30
0.0
 10
-45.87054957691051
 20
1.330513388974527
 30
0.0
 10
-44.6307327977128
 20
0.6172067523673022
 30
0.0
 10
-44.21971338469277
 20
0.3791291274965758
 30
0.0
 10
-43.39302005437547
 20
-0.0981648321868924
 30
0.0
 10
-42.9784345234268
 20
-0.3371720774476969
 30
0.0
 10
-41.73581564659003
 20
-1.052473908472219
 30
0.0
 10
-40.91341305126364
 20
-1.526189696314947
 30
0.0
 10
-39.67104437003202
 20
-2.228031280752894
 30
0.0
 10
-39.25639326476081
 20
-2.460342355878772
 30
0.0
 10
-38.4292725418954
 20
-2.919883446242562
 30
0.0
 10
-38.0181330192475
 20
-3.146874263950064
 30
0.0
 10
-36.7790647796152
 20
-3.820111084049131
 30
0.0
 10
-35.94728464553768
 20
-4.258205093361099
 30
0.0
 10
-34.29811367944394
 20
-5.099360778065595
 30
0.0
 10
-33.46935906449228
 20
-5.504376078336222
 30
0.0
 10
-32.22795593033876
 20
-6.080855113196321
 30
0.0
 10
-31.81637895913233
 20
-6.26756213080558
 30
0.0
 10
-30.99107572868194
 20
-6.630122682414537
 30
0.0
 10
-30.57679523123696
 20
-6.806042882421174
 30
0.0
 10
-30.16250000000001
 20
-6.975893511659429
 30
0.0
1001
PE_URL
1000

  0
SPLINE
  5
1DE
330
1F
100
AcDbEntity
  8
0
  6
Continuous
 62
     1
370
    15
100
AcDbSpline
210
0.0
220
0.0
230
1.0
 70
     8
 71
     3
 72
    12
 73
     8
 74
     0
 42
0.000000001
 43
0.00000001
 40
0.0
 40
0.0
 40
0.0
 40
0.0
 40
0.0190068042814979
 40
0.2557295950241474
 40
0.4924266025188563
 40
0.7461722257780323
 40
1.0
 40
1.0
 40
1.0
 40
1.0
 10
-45.20432680075275
 20
0.9444839678978596
 30
0.0
 10
-45.10902883437215
 20
0.9070409205039631
 30
0.0
 10
-43.82682957624321
 20
0.4032584221577622
 30
0.0
 10
-41.35792215672811
 20
-0.6132476074190656
 30
0.0
 10
-37.71219638939135
 20
-2.059942017827314
 30
0.0
 10
-33.98034254622799
 20
-3.468851551925741
 30
0.0
 10
-31.43525149008683
 20
-4.273563069319508
 30
0.0
 10
-30.16250000000002
 20
-4.675983949461148
 30
0.0
1001
PE_URL
1000

  0
SPLINE
  5
1DF
330
1F
100
AcDbEntity
  8
외형선
  6
Continuous
370
    15
100
AcDbSpline
210
0.0
220
0.0
230
1.0
 70
    24
 71
     3
 72
    10
 73
     6
 74
     0
 42
0.000000001
 43
0.00000001
 40
0.0
 40
0.0
 40
0.0
 40
0.0
 40
0.5
 40
0.5
 40
1.0
 40
1.0
 40
1.0
 40
1.0
 10
-30.16250000000001
 20
-6.975893511659422
 30
0.0
 10
-30.16250000000001
 20
-6.735362087251353
 30
0.0
 10
-30.16250000000001
 20
-6.397755728618485
 30
0.0
 10
-30.16250000000001
 20
-5.598344110336996
 30
0.0
 10
-30.16250000000002
 20
-5.139157500302865
 30
0.0
 10
-30.16250000000002
 20
-4.675983949461148
 30
0.0
  0
SPLINE
  5
1E0
330
1F
100
AcDbEntity
  8
0
  6
Continuous
 62
     1
370
    15
100
AcDbSpline
210
0.0
220
0.0
230
1.0
 70
     8
 71
     3
 72
    52
 73
    48
 74
     0
 42
0.000000001
 43
0.00000001
 40
0.0
 40
0.0
 40
0.0
 40
0.0
 40
0.0624999999999999
 40
0.0624999999999999
 40
0.0937500000000001
 40
0.0937500000000001
 40
0.1250000000000003
 40
0.1250000000000003
 40
0.1875000000000002
 40
0.1875000000000002
 40
0.2187500000000002
 40
0.2187500000000002
 40
0.2500000000000002
 40
0.2500000000000002
 40
0.3125000000000001
 40
0.3125000000000001
 40
0.3437500000000001
 40
0.3437500000000001
 40
0.3750000000000001
 40
0.3750000000000001
 40
0.4375000000000002
 40
0.4375000000000002
 40
0.4687500000000003
 40
0.4687500000000003
 40
0.5000000000000003
 40
0.5000000000000003
 40
0.5625000000000004
 40
0.5625000000000004
 40
0.6250000000000006
 40
0.6250000000000006
 40
0.6562500000000007
 40
0.6562500000000007
 40
0.6875000000000008
 40
0.6875000000000008
 40
0.7500000000000008
 40
0.7500000000000008
 40
0.7812500000000008
 40
0.7812500000000008
 40
0.8125000000000007
 40
0.8125000000000007
 40
0.8750000000000004
 40
0.8750000000000004
 40
0.9375000000000003
 40
0.9375000000000003
 40
0.9687500000000001
 40
0.9687500000000001
 40
1.0
 40
1.0
 40
1.0
 40
1.0
 10
-69.85000000000002
 20
9.415272686910232
 30
0.0
 10
-69.02670371284897
 20
9.264899640162216
 30
0.0
 10
-68.19513954589488
 20
9.08125678826281
 30
0.0
 10
-66.95476882801412
 20
8.759961127347957
 30
0.0
 10
-66.54371208620543
 20
8.645387357420585
 30
0.0
 10
-65.71741031137026
 20
8.401065684842596
 30
0.0
 10
-65.30289911604206
 20
8.271365720922219
 30
0.0
 10
-64.06013602651386
 20
7.861109543365867
 30
0.0
 10
-63.23761741895493
 20
7.560020120017931
 30
0.0
 10
-61.99551543128648
 20
7.069631856027808
 30
0.0
 10
-61.5808309663369
 20
6.899790507430627
 30
0.0
 10
-60.75339987493877
 20
6.54868650844864
 30
0.0
 10
-60.34202576257921
 20
6.367635291322916
 30
0.0
 10
-59.10363294107216
 20
5.807784656165367
 30
0.0
 10
-58.27181547177548
 20
5.412068702987188
 30
0.0
 10
-57.0341526911991
 20
4.794016172686245
 30
0.0
 10
-56.62242141835863
 20
4.583805765651945
 30
0.0
 10
-55.79471664501249
 20
4.155069161272081
 30
0.0
 10
-55.38001730721176
 20
3.936754327447733
 30
0.0
 10
-54.13823718446278
 20
3.272526191195393
 30
0.0
 10
-53.31549795673741
 20
2.81772316032124
 30
0.0
 10
-52.07264592385549
 20
2.121622902290706
 30
0.0
 10
-51.65822752519973
 20
1.887516234898992
 30
0.0
 10
-50.83235382540747
 20
1.416995070529421
 30
0.0
 10
-50.42113713720541
 20
1.180630003609284
 30
0.0
 10
-49.18026739570973
 20
0.4676995597131004
 30
0.0
 10
-48.35003312643088
 20
-0.0114389462576234
 30
0.0
 10
-46.70223384802475
 20
-0.9638943456497131
 30
0.0
 10
-45.87054957690876
 20
-1.439915063137416
 30
0.0
 10
-44.63073279771099
 20
-2.142517299658408
 30
0.0
 10
-44.21971338469091
 20
-2.374639977396054
 30
0.0
 10
-43.39302005437355
 20
-2.835236521720343
 30
0.0
 10
-42.97843452342485
 20
-3.063500687635106
 30
0.0
 10
-41.73581564658797
 20
-3.739501239603467
 30
0.0
 10
-40.91341305126156
 20
-4.17766019770535
 30
0.0
 10
-39.67104437002983
 20
-4.812435997459779
 30
0.0
 10
-39.25639326475859
 20
-5.020113981015818
 30
0.0
 10
-38.42927254189313
 20
-5.426031675711116
 30
0.0
 10
-38.01813301924521
 20
-5.624067970180739
 30
0.0
 10
-36.7790647796128
 20
-6.203945493923683
 30
0.0
 10
-35.94728464553521
 20
-6.57112512314248
 30
0.0
 10
-34.2981136794414
 20
-7.255335714495537
 30
0.0
 10
-33.46935906448964
 20
-7.573977803501386
 30
0.0
 10
-32.22795593033604
 20
-8.01062687309264
 30
0.0
 10
-31.8163789591296
 20
-8.149093094371409
 30
0.0
 10
-30.99107572867913
 20
-8.41191392115013
 30
0.0
 10
-30.57679523123411
 20
-8.536308589052418
 30
0.0
 10
-30.16249999999714
 20
-8.653172996247477
 30
0.0
1001
PE_URL
1000

  0
SPLINE
  5
1E1
330
1F
100
AcDbEntity
  8
0
  6
Continuous
 62
     1
370
    15
100
AcDbSpline
210
0.0
220
0.0
230
1.0
 70
     8
 71
     3
 72
    15
 73
    11
 74
     0
 42
0.000000001
 43
0.00000001
 40
0.0
 40
0.0
 40
0.0
 40
0.0
 40
0.1382281649405478
 40
0.2764870094712689
 40
0.4147667369104834
 40
0.5530574992020856
 40
0.6913494211015125
 40
0.8296326245054138
 40
0.9678972527964429
 40
0.9999999999999999
 40
0.9999999999999999
 40
0.9999999999999999
 40
0.9999999999999999
 10
-69.85000000000002
 20
7.828084185528375
 30
0.0
 10
-68.66321467873044
 20
7.578863928711268
 30
0.0
 10
-66.28938063048594
 20
7.080368100913358
 30
0.0
 10
-62.72815981860154
 20
5.940004324037229
 30
0.0
 10
-59.16633254354358
 20
4.569230249652836
 30
0.0
 10
-55.60417679110152
 20
2.997128402361493
 30
0.0
 10
-52.04198481385861
 20
1.295798091262636
 30
0.0
 10
-48.48006059983922
 20
-0.451426203433293
 30
0.0
 10
-45.8299293657019
 20
-1.764765105099119
 30
0.0
 10
-44.36718691303172
 20
-2.430569169637547
 30
0.0
 10
-44.09155872397463
 20
-2.556028281212914
 30
0.0
1001
PE_URL
1000

  0
LINE
  5
1E2
330
1F
100
AcDbEntity
  8
0
  6
Continuous
 62
     1
370
    15
100
AcDbLine
 10
-69.85000000000002
 20
9.415272686910239
 30
0.0
 11
-69.85000000000002
 21
7.828084185528375
 31
0.0
1001
PE_URL
1000

  0
LINE
  5
1E3
330
1F
100
AcDbEntity
  8
0
  6
Continuous
 62
     1
370
    15
100
AcDbLine
 10
-69.85000000000002
 20
9.913489182356603
 30
0.0
 11
-69.85000000000002
 21
9.415272686910239
 31
0.0
1001
PE_URL
1000

  0
SPLINE
  5
1E4
330
1F
100
AcDbEntity
  8
0
  6
Continuous
 62
     1
370
    15
100
AcDbSpline
210
0.0
220
0.0
230
1.0
 70
     8
 71
     3
 72
    15
 73
    11
 74
     0
 42
0.000000001
 43
0.00000001
 40
0.0
 40
0.0
 40
0.0
 40
0.0
 40
0.1349633070602746
 40
0.2699264014996648
 40
0.4048892392296962
 40
0.5398517761780565
 40
0.6748139682913679
 40
0.8097757715379571
 40
0.9370201119905567
 40
1.0
 40
1.0
 40
1.0
 40
1.0
 10
-64.85000000000008
 20
-2.276811163158083
 30
0.0
 10
-63.77077705525017
 20
-2.74652560153007
 30
0.0
 10
-61.61233286595574
 20
-3.685953738286997
 30
0.0
 10
-58.37467002336594
 20
-4.943002695629325
 30
0.0
 10
-55.13701524685139
 20
-6.031189081627161
 30
0.0
 10
-51.89936441954335
 20
-6.903370569506968
 30
0.0
 10
-48.66173876691747
 20
-7.535506709642199
 30
0.0
 10
-45.48577407327605
 20
-7.879879305919552
 30
0.0
 10
-42.88559019456878
 20
-7.985760123836755
 30
0.0
 10
-41.36453812757844
 20
-7.886065430290614
 30
0.0
 10
-40.86094460739392
 20
-7.853058275074709
 30
0.0
1001
PE_URL
1000

  0
SPLINE
  5
1E5
330
1F
100
AcDbEntity
  8
0
  6
Continuous
 62
     1
370
    15
100
AcDbSpline
210
0.0
220
0.0
230
1.0
 70
    24
 71
     3
 72
     8
 73
     4
 74
     0
 42
0.000000001
 43
0.00000001
 40
0.0
 40
0.0
 40
0.0
 40
0.0
 40
1.0
 40
1.0
 40
1.0
 40
1.0
 10
-64.85000000000002
 20
-1.664193252681347
 30
0.0
 10
-64.85000000000002
 20
-1.870373335426454
 30
0.0
 10
-64.85000000000002
 20
-2.074726746088128
 30
0.0
 10
-64.85000000000002
 20
-2.276811163158111
 30
0.0
1001
PE_URL
1000

  0
SPLINE
  5
1E6
330
1F
100
AcDbEntity
  8
0
  6
Continuous
 62
     1
370
    15
100
AcDbSpline
210
0.0
220
0.0
230
1.0
 70
    24
 71
     3
 72
    10
 73
     6
 74
     0
 42
0.000000001
 43
0.00000001
 40
0.0
 40
0.0
 40
0.0
 40
0.0
 40
0.5
 40
0.5
 40
1.0
 40
1.0
 40
1.0
 40
1.0
 10
-69.85000000000002
 20
7.828084185528375
 30
0.0
 10
-69.85000000000002
 20
7.228000500272106
 30
0.0
 10
-69.85000000000002
 20
6.469771754384475
 30
0.0
 10
-69.85000000000002
 20
4.706962891573131
 30
0.0
 10
-69.85000000000002
 20
3.70390978652469
 30
0.0
 10
-69.85000000000002
 20
2.651551105138175
 30
0.0
1001
PE_URL
1000

  0
SPLINE
  5
1E7
330
1F
100
AcDbEntity
  8
0
  6
Continuous
 62
     1
370
    15
100
AcDbSpline
210
0.0
220
0.0
230
1.0
 70
    24
 71
     3
 72
    10
 73
     6
 74
     0
 42
0.000000001
 43
0.00000001
 40
0.0
 40
0.0
 40
0.0
 40
0.0
 40
0.5
 40
0.5
 40
1.0
 40
1.0
 40
1.0
 40
1.0
 10
-64.85000000000005
 20
-2.276811163158104
 30
0.0
 10
-64.85000000000004
 20
-2.866157450423788
 30
0.0
 10
-64.85000000000005
 20
-3.426608041643053
 30
0.0
 10
-64.85000000000005
 20
-4.442741727599895
 30
0.0
 10
-64.85000000000002
 20
-4.898053491264513
 30
0.0
 10
-64.85000000000002
 20
-5.281384351391338
 30
0.0
1001
PE_URL
1000

  0
SPLINE
  5
1E8
330
1F
100
AcDbEntity
  8
0
  6
Continuous
 62
     1
370
    15
100
AcDbSpline
210
0.0
220
0.0
230
1.0
 70
     8
 71
     3
 72
     9
 73
     5
 74
     0
 42
0.000000001
 43
0.00000001
 40
0.0
 40
0.0
 40
0.0
 40
0.0
 40
0.9655465011796753
 40
1.0
 40
1.0
 40
1.0
 40
1.0
 10
-69.85000000000002
 20
-6.945312500000021
 30
0.0
 10
-68.6632189220635
 20
-6.942574623199562
 30
0.0
 10
-67.43409005412545
 20
-6.939739051016225
 30
0.0
 10
-66.20491725298005
 20
-6.786337380859891
 30
0.0
 10
-66.16256794932582
 20
-6.781052156598122
 30
0.0
1001
PE_URL
1000

  0
SPLINE
  5
1E9
330
1F
100
AcDbEntity
  8
0
  6
Continuous
 62
     1
370
    15
100
AcDbSpline
210
0.0
220
0.0
230
1.0
 70
     8
 71
     3
 72
    10
 73
     6
 74
     0
 42
0.000000001
 43
0.00000001
 40
0.0
 40
0.0
 40
0.0
 40
0.0
 40
0.5
 40
0.5
 40
1.0
 40
1.0
 40
1.0
 40
1.0
 10
-69.85000000000002
 20
-6.945312500000028
 30
0.0
 10
-69.00754532421972
 20
-6.716887238217126
 30
0.0
 10
-68.16921531287332
 20
-6.465090686036113
 30
0.0
 10
-66.50129124841993
 20
-5.912065141929368
 30
0.0
 10
-65.6724653695014
 20
-5.611572711227083
 30
0.0
 10
-64.85000000000002
 20
-5.281384351391338
 30
0.0
1001
PE_URL
1000

  0
SPLINE
  5
1EA
330
1F
100
AcDbEntity
  8
0
  6
Continuous
 62
     1
370
    15
100
AcDbSpline
210
0.0
220
0.0
230
1.0
 70
     8
 71
     3
 72
    14
 73
    10
 74
     0
 42
0.000000001
 43
0.00000001
 40
0.0
 40
0.0
 40
0.0
 40
0.0
 40
0.0091101654654845
 40
0.1825242163696353
 40
0.3460220061271969
 40
0.5095180284085902
 40
0.6730127340209108
 40
0.8365065741004601
 40
1.0
 40
1.0
 40
1.0
 40
1.0
 10
-48.83181223154855
 20
7.455812594787258
 30
0.0
 10
-48.77511684781766
 20
7.466866056694421
 30
0.0
 10
-47.63921206908866
 20
7.688324654830868
 30
0.0
 10
-45.48577251090765
 20
7.871524897494318
 30
0.0
 10
-42.37174207268266
 20
7.980507595738043
 30
0.0
 10
-39.31939015127438
 20
7.810460610454665
 30
0.0
 10
-36.26708048076182
 20
7.398242574350515
 30
0.0
 10
-33.21478527721766
 20
6.764579727524911
 30
0.0
 10
-31.17992756658509
 20
6.167560702257585
 30
0.0
 10
-30.16250000000002
 20
5.869051567732448
 30
0.0
1001
PE_URL
1000

  0
SPLINE
  5
1EB
330
1F
100
AcDbEntity
  8
외형선
  6
Continuous
370
    15
100
AcDbSpline
210
0.0
220
0.0
230
1.0
 70
    24
 71
     3
 72
    14
 73
    10
 74
     0
 42
0.000000001
 43
0.00000001
 40
0.0
 40
0.0
 40
0.0
 40
0.0
 40
0.25
 40
0.25
 40
0.5
 40
0.5
 40
0.75
 40
0.75
 40
1.0
 40
1.0
 40
1.0
 40
1.0
 10
-30.16250000000002
 20
-4.675983949461148
 30
0.0
 10
-30.16250000000002
 20
-3.915019219228093
 30
0.0
 10
-30.16250000000002
 20
-3.07570718016548
 30
0.0
 10
-30.16250000000002
 20
-1.301564409783136
 30
0.0
 10
-30.16250000000002
 20
-0.367410416610177
 30
0.0
 10
-30.16250000000002
 20
1.506746419874979
 30
0.0
 10
-30.16250000000002
 20
2.445750634069537
 30
0.0
 10
-30.16250000000002
 20
4.238374313681931
 30
0.0
 10
-30.16250000000002
 20
5.091291083518797
 30
0.0
 10
-30.16250000000002
 20
5.869051567732448
 30
0.0
  0
SPLINE
  5
1EC
330
1F
100
AcDbEntity
  8
외형선
  6
Continuous
370
    15
100
AcDbSpline
210
0.0
220
0.0
230
1.0
 70
    24
 71
     3
 72
    12
 73
     8
 74
     0
 42
0.000000001
 43
0.00000001
 40
0.0
 40
0.0
 40
0.0
 40
0.0
 40
0.1824119273469441
 40
0.3648238546938881
 40
0.6317534756799064
 40
0.9064240737576166
 40
1.0
 40
1.0
 40
1.0
 40
1.0
 10
-30.16250000000002
 20
5.869051567732448
 30
0.0
 10
-30.16250000000002
 20
6.098743709718178
 30
0.0
 10
-30.16250000000002
 20
6.558127993689638
 30
0.0
 10
-30.16250000000002
 20
7.180240394288443
 30
0.0
 10
-30.16250000000002
 20
7.675942863770437
 30
0.0
 10
-30.16250000000002
 20
7.924704948192694
 30
0.0
 10
-30.16250000000002
 20
7.896065722070343
 30
0.0
 10
-30.16250000000002
 20
7.88878814595143
 30
0.0
  0
LINE
  5
1ED
330
1F
100
AcDbEntity
  8
0
  6
Continuous
 62
     1
370
    15
100
AcDbLine
 10
-69.85000000000002
 20
-0.0000000000000249
 30
0.0
 11
-69.85000000000002
 21
-6.945312500000021
 31
0.0
1001
PE_URL
1000

  0
SPLINE
  5
1EE
330
1F
100
AcDbEntity
  8
0
  6
Continuous
 62
     1
370
    15
100
AcDbSpline
210
0.0
220
0.0
230
1.0
 70
     8
 71
     3
 72
    12
 73
     8
 74
     0
 42
0.000000001
 43
0.00000001
 40
0.0
 40
0.0
 40
0.0
 40
0.0
 40
0.1449035389125746
 40
0.3586458218106093
 40
0.5724054702085992
 40
0.7861882747874377
 40
1.0
 40
1.0
 40
1.0
 40
1.0
 10
-56.23445335610519
 20
-6.649962706874362
 30
0.0
 10
-56.89207641480797
 20
-6.930958178519468
 30
0.0
 10
-58.51973688535289
 20
-7.626440515317483
 30
0.0
 10
-61.11754545106928
 20
-8.499635360112329
 30
0.0
 10
-64.02800211165017
 20
-9.256633700868356
 30
0.0
 10
-66.9388310321177
 20
-9.761828695119817
 30
0.0
 10
-68.87956658973599
 20
-9.86293340718342
 30
0.0
 10
-69.85000000000004
 20
-9.913489182356649
 30
0.0
1001
PE_URL
1000

  0
SPLINE
  5
1EF
330
1F
100
AcDbEntity
  8
0
  6
Continuous
 62
     1
370
    15
100
AcDbSpline
210
0.0
220
0.0
230
1.0
 70
    24
 71
     3
 72
    10
 73
     6
 74
     0
 42
0.000000001
 43
0.00000001
 40
0.0
 40
0.0
 40
0.0
 40
0.0
 40
0.5
 40
0.5
 40
1.0
 40
1.0
 40
1.0
 40
1.0
 10
-69.85000000000002
 20
-6.945312500000021
 30
0.0
 10
-69.85000000000002
 20
-7.366320048010088
 30
0.0
 10
-69.85000000000002
 20
-7.855569808290952
 30
0.0
 10
-69.85000000000004
 20
-8.882014487658509
 30
0.0
 10
-69.85000000000002
 20
-9.416587995842754
 30
0.0
 10
-69.85000000000002
 20
-9.913489182356642
 30
0.0
1001
PE_URL
1000

  0
LINE
  5
1F0
330
1F
100
AcDbEntity
  8
0
  6
Continuous
 62
     1
370
    15
100
AcDbLine
 10
-32.8079513926054
 20
7.796820282581123
 30
0.0
 11
-30.16249999999714
 21
8.653172996247449
 31
0.0
1001
PE_URL
1000

  0
SPLINE
  5
1F1
330
1F
100
AcDbEntity
  8
외형선
  6
Continuous
370
    15
100
AcDbSpline
210
0.0
220
0.0
230
1.0
 70
    24
 71
     3
 72
    11
 73
     7
 74
     0
 42
0.000000001
 43
0.00000001
 40
0.0
 40
0.0
 40
0.0
 40
0.0
 40
0.1904179844779643
 40
0.4905968582212788
 40
0.7911251766445161
 40
1.0
 40
1.0
 40
1.0
 40
1.0
 10
-30.16250000000002
 20
7.917997357362321
 30
0.0
 10
-30.16250000000002
 20
7.967689409377606
 30
0.0
 10
-30.16250000000002
 20
8.09571704638942
 30
0.0
 10
-30.16250000000002
 20
8.29251477999886
 30
0.0
 10
-30.16250000000002
 20
8.487714480840534
 30
0.0
 10
-30.16250000000002
 20
8.605057754152497
 30
0.0
 10
-30.16250000000002
 20
8.653172996236414
 30
0.0
  0
LINE
  5
21B
330
1F
100
AcDbEntity
  8
외형선
  6
Continuous
370
    15
100
AcDbLine
 10
-5.791199999999996
 20
9.207499999999971
 30
0.0
 11
5.791200000000011
 21
9.207499999999971
 31
0.0
1001
PE_URL
1000

  0
LINE
  5
21C
330
1F
100
AcDbEntity
  8
외형선
  6
Continuous
370
    15
100
AcDbLine
 10
-5.791199999999996
 20
9.207499999999957
 30
0.0
 11
-7.69620000000014
 21
11.11249999999999
 31
0.0
1001
PE_URL
1000

  0
LINE
  5
21D
330
1F
100
AcDbEntity
  8
외형선
  6
Continuous
370
    15
100
AcDbLine
 10
5.791200000000011
 20
9.207499999999957
 30
0.0
 11
7.696199999999983
 21
11.11249999999999
 31
0.0
1001
PE_URL
1000

  0
LINE
  5
21E
330
1F
100
AcDbEntity
  8
외형선
  6
Continuous
370
    15
100
AcDbLine
 10
-7.696200000000143
 20
11.11249999999999
 30
0.0
 11
-24.71902700723833
 21
11.11249999999998
 31
0.0
  0
ENDSEC
  0
SECTION
  2
OBJECTS
  0
DICTIONARY
  5
C
330
0
100
AcDbDictionary
281
     1
  3
ACAD_GROUP
350
D
  3
ACAD_IMAGE_VARS
350
244
  3
ACAD_LAYOUT
350
1A
  3
ACAD_MLINESTYLE
350
17
  3
ACAD_PLOTSETTINGS
350
19
  3
ACAD_PLOTSTYLENAME
350
E
  3
ACAD_SCALELIST
350
47
  3
APPDATA
350
159
  3
DWGPROPS
350
245
  0
DICTIONARY
  5
17E
330
2
100
AcDbDictionary
280
     1
281
     1
  3
ACAD_LAYERSTATES
360
17F
  0
DICTIONARY
  5
D
102
{ACAD_REACTORS
330
C
102
}
330
C
100
AcDbDictionary
281
     1
  0
RASTERVARIABLES
  5
244
102
{ACAD_REACTORS
330
C
102
}
330
C
100
AcDbRasterVariables
 90
        0
 70
     1
 71
     1
 72
     1
  0
DICTIONARY
  5
1A
102
{ACAD_REACTORS
330
C
102
}
330
C
100
AcDbDictionary
281
     1
  3
Layout1
350
1E
  3
Layout2
350
26
  3
Model
350
22
  0
DICTIONARY
  5
17
102
{ACAD_REACTORS
330
C
102
}
330
C
100
AcDbDictionary
281
     1
  3
Standard
350
18
  0
DICTIONARY
  5
19
102
{ACAD_REACTORS
330
C
102
}
330
C
100
AcDbDictionary
281
     1
  0
ACDBDICTIONARYWDFLT
  5
E
102
{ACAD_REACTORS
330
C
102
}
330
C
100
AcDbDictionary
281
     1
  3
Normal
350
F
100
AcDbDictionaryWithDefault
340
F
  0
DICTIONARY
  5
47
102
{ACAD_REACTORS
330
C
102
}
330
C
100
AcDbDictionary
281
     1
  3
A0
350
48
  3
A1
350
49
  3
A2
350
4A
  3
A3
350
4B
  3
A4
350
4C
  3
A5
350
4D
  3
A6
350
4E
  3
A7
350
4F
  3
A8
350
50
  3
A9
350
51
  3
B0
350
52
  3
B1
350
53
  3
B2
350
54
  3
B3
350
55
  3
B4
350
56
  3
B5
350
57
  3
B6
350
58
  3
B7
350
59
  3
B8
350
5A
  3
B9
350
5B
  3
C0
350
5C
  3
C1
350
5D
  3
C2
350
5E
  3
C3
350
5F
  3
C4
350
60
  3
C5
350
61
  3
C6
350
62
  3
C7
350
63
  3
C8
350
64
  3
C9
350
65
  3
D0
350
66
  3
D1
350
67
  3
D2
350
68
  0
DICTIONARY
  5
159
102
{ACAD_REACTORS
330
C
102
}
330
C
100
AcDbDictionary
281
     1
  0
XRECORD
  5
245
102
{ACAD_REACTORS
330
C
102
}
330
C
100
AcDbXrecord
280
     1
  1
DWGPROPS COOKIE
  2

  3

  4

  6

  7

  8
12016016
  9

300
=
301
=
302
=
303
=
304
=
305
=
306
=
307
=
308
=
309
=
 40
0.0
 41
2458313.025759248
 42
2458330.402516794
  1

 90
        0
  0
DICTIONARY
  5
17F
102
{ACAD_REACTORS
330
17E
102
}
330
17E
100
AcDbDictionary
281
     1
  0
LAYOUT
  5
1E
102
{ACAD_REACTORS
330
1A
102
}
330
1A
100
AcDbPlotSettings
  1

  2
none_device
  4

  6

 40
0.0
 41
0.0
 42
0.0
 43
0.0
 44
0.0
 45
0.0
 46
0.0
 47
0.0
 48
0.0
 49
0.0
140
0.0
141
0.0
142
1.0
143
1.0
 70
   688
 72
     1
 73
     0
 74
     5
  7

 75
    16
147
1.0
148
0.0
149
0.0
100
AcDbLayout
  1
Layout1
 70
     1
 71
     1
 10
0.0
 20
0.0
 11
420.0
 21
297.0
 12
0.0
 22
0.0
 32
0.0
 14
1.000000000000000E+20
 24
1.000000000000000E+20
 34
1.000000000000000E+20
 15
-1.000000000000000E+20
 25
-1.000000000000000E+20
 35
-1.000000000000000E+20
146
0.0
 13
0.0
 23
0.0
 33
0.0
 16
1.0
 26
0.0
 36
0.0
 17
0.0
 27
1.0
 37
0.0
 76
     0
330
1B
  0
LAYOUT
  5
26
102
{ACAD_REACTORS
330
1A
102
}
330
1A
100
AcDbPlotSettings
  1

  2
none_device
  4

  6

 40
0.0
 41
0.0
 42
0.0
 43
0.0
 44
0.0
 45
0.0
 46
0.0
 47
0.0
 48
0.0
 49
0.0
140
0.0
141
0.0
142
1.0
143
1.0
 70
   688
 72
     1
 73
     0
 74
     5
  7

 75
    16
147
1.0
148
0.0
149
0.0
100
AcDbLayout
  1
Layout2
 70
     1
 71
     2
 10
0.0
 20
0.0
 11
0.0
 21
0.0
 12
0.0
 22
0.0
 32
0.0
 14
0.0
 24
0.0
 34
0.0
 15
0.0
 25
0.0
 35
0.0
146
0.0
 13
0.0
 23
0.0
 33
0.0
 16
1.0
 26
0.0
 36
0.0
 17
0.0
 27
1.0
 37
0.0
 76
     0
330
23
  0
LAYOUT
  5
22
102
{ACAD_REACTORS
330
1A
102
}
330
1A
100
AcDbPlotSettings
  1

  2
none_device
  4
ANSI_A_(11.00_x_8.50_Inches)
  6

 40
6.35
 41
19.05
 42
6.35000508
 43
19.05000254
 44
279.4
 45
215.9
 46
51.66973992666188
 47
36.18299803325392
 48
0.0
 49
0.0
140
0.0
141
0.0
142
0.0197575987143405
143
1.0
 70
  1696
 72
     0
 73
     0
 74
     0
  7

 75
     0
147
0.0235690232323232
148
0.0
149
0.0
100
AcDbLayout
  1
Model
 70
     1
 71
     0
 10
0.0
 20
0.0
 11
420.0
 21
297.0
 12
0.0
 22
0.0
 32
0.0
 14
-89.72500000000008
 24
-49.97180738881175
 34
0.0
 15
100.9691250329551
 25
50.96548918235666
 35
0.0
146
0.0
 13
0.0
 23
0.0
 33
0.0
 16
1.0
 26
0.0
 36
0.0
 17
0.0
 27
1.0
 37
0.0
 76
     0
330
1F
331
29
  0
MLINESTYLE
  5
18
102
{ACAD_REACTORS
330
17
102
}
330
17
100
AcDbMlineStyle
  2
Standard
 70
     0
  3

 62
   256
 51
90.0
 52
90.0
 71
     2
 49
0.5
 62
   256
  6
BYLAYER
 49
-0.5
 62
   256
  6
BYLAYER
  0
ACDBPLACEHOLDER
  5
F
102
{ACAD_REACTORS
330
E
102
}
330
E
  0
SCALE
  5
48
102
{ACAD_REACTORS
330
47
102
}
330
47
100
AcDbScale
 70
     0
300
1:1
140
1.0
141
1.0
290
     1
  0
SCALE
  5
49
102
{ACAD_REACTORS
330
47
102
}
330
47
100
AcDbScale
 70
     0
300
1:2
140
1.0
141
2.0
290
     0
  0
SCALE
  5
4A
102
{ACAD_REACTORS
330
47
102
}
330
47
100
AcDbScale
 70
     0
300
1:4
140
1.0
141
4.0
290
     0
  0
SCALE
  5
4B
102
{ACAD_REACTORS
330
47
102
}
330
47
100
AcDbScale
 70
     0
300
1:5
140
1.0
141
5.0
290
     0
  0
SCALE
  5
4C
102
{ACAD_REACTORS
330
47
102
}
330
47
100
AcDbScale
 70
     0
300
1:8
140
1.0
141
8.0
290
     0
  0
SCALE
  5
4D
102
{ACAD_REACTORS
330
47
102
}
330
47
100
AcDbScale
 70
     0
300
1:10
140
1.0
141
10.0
290
     0
  0
SCALE
  5
4E
102
{ACAD_REACTORS
330
47
102
}
330
47
100
AcDbScale
 70
     0
300
1:16
140
1.0
141
16.0
290
     0
  0
SCALE
  5
4F
102
{ACAD_REACTORS
330
47
102
}
330
47
100
AcDbScale
 70
     0
300
1:20
140
1.0
141
20.0
290
     0
  0
SCALE
  5
50
102
{ACAD_REACTORS
330
47
102
}
330
47
100
AcDbScale
 70
     0
300
1:30
140
1.0
141
30.0
290
     0
  0
SCALE
  5
51
102
{ACAD_REACTORS
330
47
102
}
330
47
100
AcDbScale
 70
     0
300
1:40
140
1.0
141
40.0
290
     0
  0
SCALE
  5
52
102
{ACAD_REACTORS
330
47
102
}
330
47
100
AcDbScale
 70
     0
300
1:50
140
1.0
141
50.0
290
     0
  0
SCALE
  5
53
102
{ACAD_REACTORS
330
47
102
}
330
47
100
AcDbScale
 70
     0
300
1:100
140
1.0
141
100.0
290
     0
  0
SCALE
  5
54
102
{ACAD_REACTORS
330
47
102
}
330
47
100
AcDbScale
 70
     0
300
2:1
140
2.0
141
1.0
290
     0
  0
SCALE
  5
55
102
{ACAD_REACTORS
330
47
102
}
330
47
100
AcDbScale
 70
     0
300
4:1
140
4.0
141
1.0
290
     0
  0
SCALE
  5
56
102
{ACAD_REACTORS
330
47
102
}
330
47
100
AcDbScale
 70
     0
300
8:1
140
8.0
141
1.0
290
     0
  0
SCALE
  5
57
102
{ACAD_REACTORS
330
47
102
}
330
47
100
AcDbScale
 70
     0
300
10:1
140
10.0
141
1.0
290
     0
  0
SCALE
  5
58
102
{ACAD_REACTORS
330
47
102
}
330
47
100
AcDbScale
 70
     0
300
100:1
140
100.0
141
1.0
290
     0
  0
SCALE
  5
59
102
{ACAD_REACTORS
330
47
102
}
330
47
100
AcDbScale
 70
     0
300
1/128" = 1'-0"
140
0.0078125
141
12.0
290
     0
  0
SCALE
  5
5A
102
{ACAD_REACTORS
330
47
102
}
330
47
100
AcDbScale
 70
     0
300
1/64" = 1'-0"
140
0.015625
141
12.0
290
     0
  0
SCALE
  5
5B
102
{ACAD_REACTORS
330
47
102
}
330
47
100
AcDbScale
 70
     0
300
1/32" = 1'-0"
140
0.03125
141
12.0
290
     0
  0
SCALE
  5
5C
102
{ACAD_REACTORS
330
47
102
}
330
47
100
AcDbScale
 70
     0
300
1/16" = 1'-0"
140
0.0625
141
12.0
290
     0
  0
SCALE
  5
5D
102
{ACAD_REACTORS
330
47
102
}
330
47
100
AcDbScale
 70
     0
300
3/32" = 1'-0"
140
0.09375
141
12.0
290
     0
  0
SCALE
  5
5E
102
{ACAD_REACTORS
330
47
102
}
330
47
100
AcDbScale
 70
     0
300
1/8" = 1'-0"
140
0.125
141
12.0
290
     0
  0
SCALE
  5
5F
102
{ACAD_REACTORS
330
47
102
}
330
47
100
AcDbScale
 70
     0
300
3/16" = 1'-0"
140
0.1875
141
12.0
290
     0
  0
SCALE
  5
60
102
{ACAD_REACTORS
330
47
102
}
330
47
100
AcDbScale
 70
     0
300
1/4" = 1'-0"
140
0.25
141
12.0
290
     0
  0
SCALE
  5
61
102
{ACAD_REACTORS
330
47
102
}
330
47
100
AcDbScale
 70
     0
300
3/8" = 1'-0"
140
0.375
141
12.0
290
     0
  0
SCALE
  5
62
102
{ACAD_REACTORS
330
47
102
}
330
47
100
AcDbScale
 70
     0
300
1/2" = 1'-0"
140
0.5
141
12.0
290
     0
  0
SCALE
  5
63
102
{ACAD_REACTORS
330
47
102
}
330
47
100
AcDbScale
 70
     0
300
3/4" = 1'-0"
140
0.75
141
12.0
290
     0
  0
SCALE
  5
64
102
{ACAD_REACTORS
330
47
102
}
330
47
100
AcDbScale
 70
     0
300
1" = 1'-0"
140
1.0
141
12.0
290
     0
  0
SCALE
  5
65
102
{ACAD_REACTORS
330
47
102
}
330
47
100
AcDbScale
 70
     0
300
1-1/2" = 1'-0"
140
1.5
141
12.0
290
     0
  0
SCALE
  5
66
102
{ACAD_REACTORS
330
47
102
}
330
47
100
AcDbScale
 70
     0
300
3" = 1'-0"
140
3.0
141
12.0
290
     0
  0
SCALE
  5
67
102
{ACAD_REACTORS
330
47
102
}
330
47
100
AcDbScale
 70
     0
300
6" = 1'-0"
140
6.0
141
12.0
290
     0
  0
SCALE
  5
68
102
{ACAD_REACTORS
330
47
102
}
330
47
100
AcDbScale
 70
     0
300
1'-0" = 1'-0"
140
12.0
141
12.0
290
     0
  0
ENDSEC
  0
EOF
