  0
SECTION
  2
HEADER
  9
$ACADVER
  1
AC1015
  9
$ACADMAINTVER
 70
     6
  9
$DWGCODEPAGE
  3
ANSI_949
  9
$INSBASE
 10
0.0
 20
0.0
 30
0.0
  9
$EXTMIN
 10
-89.72500000000008
 20
-49.97180738881175
 30
0.0
  9
$EXTMAX
 10
100.9691250329551
 20
49.86202874965095
 30
0.0
  9
$LIMMIN
 10
0.0
 20
0.0
  9
$LIMMAX
 10
420.0
 20
297.0
  9
$ORTHOMODE
 70
     1
  9
$REGENMODE
 70
     1
  9
$FILLMODE
 70
     1
  9
$QTEXTMODE
 70
     0
  9
$MIRRTEXT
 70
     1
  9
$LTSCALE
 40
1.0
  9
$ATTMODE
 70
     1
  9
$TEXTSIZE
 40
3.5
  9
$TRACEWID
 40
1.0
  9
$TEXTSTYLE
  7
Standard
  9
$CLAYER
  8
0
  9
$CELTYPE
  6
ByLayer
  9
$CECOLOR
 62
   256
  9
$CELTSCALE
 40
1.0
  9
$DISPSILH
 70
     0
  9
$DIMSCALE
 40
1.0
  9
$DIMASZ
 40
3.302
  9
$DIMEXO
 40
1.0
  9
$DIMDLI
 40
3.75
  9
$DIMRND
 40
0.0
  9
$DIMDLE
 40
0.0
  9
$DIMEXE
 40
1.0
  9
$DIMTP
 40
0.0
  9
$DIMTM
 40
0.0
  9
$DIMTXT
 40
3.5
  9
$DIMCEN
 40
2.5
  9
$DIMTSZ
 40
0.0
  9
$DIMTOL
 70
     0
  9
$DIMLIM
 70
     0
  9
$DIMTIH
 70
     1
  9
$DIMTOH
 70
     1
  9
$DIMSE1
 70
     0
  9
$DIMSE2
 70
     0
  9
$DIMTAD
 70
     1
  9
$DIMZIN
 70
     0
  9
$DIMBLK
  1

  9
$DIMASO
 70
     1
  9
$DIMSHO
 70
     1
  9
$DIMPOST
  1

  9
$DIMAPOST
  1

  9
$DIMALT
 70
     0
  9
$DIMALTD
 70
     3
  9
$DIMALTF
 40
0.0393700787401575
  9
$DIMLFAC
 40
1.0
  9
$DIMTOFL
 70
     1
  9
$DIMTVP
 40
0.0
  9
$DIMTIX
 70
     0
  9
$DIMSOXD
 70
     0
  9
$DIMSAH
 70
     0
  9
$DIMBLK1
  1

  9
$DIMBLK2
  1

  9
$DIMSTYLE
  2
ISO-25
  9
$DIMCLRD
 70
     0
  9
$DIMCLRE
 70
     0
  9
$DIMCLRT
 70
     0
  9
$DIMTFAC
 40
1.0
  9
$DIMGAP
 40
1.524
  9
$DIMJUST
 70
     0
  9
$DIMSD1
 70
     0
  9
$DIMSD2
 70
     0
  9
$DIMTOLJ
 70
     0
  9
$DIMTZIN
 70
     0
  9
$DIMALTZ
 70
     0
  9
$DIMALTTZ
 70
     0
  9
$DIMUPT
 70
     0
  9
$DIMDEC
 70
     2
  9
$DIMTDEC
 70
     2
  9
$DIMALTU
 70
     2
  9
$DIMALTTD
 70
     3
  9
$DIMTXSTY
  7
Standard
  9
$DIMAUNIT
 70
     0
  9
$DIMADEC
 70
     2
  9
$DIMALTRND
 40
0.0
  9
$DIMAZIN
 70
     0
  9
$DIMDSEP
 70
    44
  9
$DIMATFIT
 70
     3
  9
$DIMFRAC
 70
     0
  9
$DIMLDRBLK
  1

  9
$DIMLUNIT
 70
     2
  9
$DIMLWD
 70
    -2
  9
$DIMLWE
 70
    -2
  9
$DIMTMOVE
 70
     0
  9
$LUNITS
 70
     2
  9
$LUPREC
 70
     2
  9
$SKETCHINC
 40
1.0
  9
$FILLETRAD
 40
10.0
  9
$AUNITS
 70
     0
  9
$AUPREC
 70
     2
  9
$MENU
  1
.
  9
$ELEVATION
 40
0.0
  9
$PELEVATION
 40
0.0
  9
$THICKNESS
 40
0.0
  9
$LIMCHECK
 70
     0
  9
$CHAMFERA
 40
0.0
  9
$CHAMFERB
 40
0.0
  9
$CHAMFERC
 40
0.0
  9
$CHAMFERD
 40
0.0
  9
$SKPOLY
 70
     0
  9
$TDCREATE
 40
2458313.400971771
  9
$TDUCREATE
 40
2458313.025971771
  9
$TDUPDATE
 40
2458330.777463843
  9
$TDUUPDATE
 40
2458330.402463843
  9
$TDINDWG
 40
0.0007695949
  9
$TDUSRTIMER
 40
2458330.402424931
  9
$USRTIMER
 70
     1
  9
$ANGBASE
 50
0.0
  9
$ANGDIR
 70
     0
  9
$PDMODE
 70
     0
  9
$PDSIZE
 40
-1.0
  9
$PLINEWID
 40
0.0
  9
$SPLFRAME
 70
     0
  9
$SPLINETYPE
 70
     6
  9
$SPLINESEGS
 70
     8
  9
$HANDSEED
  5
253
  9
$SURFTAB1
 70
     6
  9
$SURFTAB2
 70
     6
  9
$SURFTYPE
 70
     6
  9
$SURFU
 70
     6
  9
$SURFV
 70
     6
  9
$UCSBASE
  2

  9
$UCSNAME
  2

  9
$UCSORG
 10
0.0
 20
0.0
 30
0.0
  9
$UCSXDIR
 10
1.0
 20
0.0
 30
0.0
  9
$UCSYDIR
 10
0.0
 20
1.0
 30
0.0
  9
$UCSORTHOREF
  2

  9
$UCSORTHOVIEW
 70
     0
  9
$UCSORGTOP
 10
0.0
 20
0.0
 30
0.0
  9
$UCSORGBOTTOM
 10
0.0
 20
0.0
 30
0.0
  9
$UCSORGLEFT
 10
0.0
 20
0.0
 30
0.0
  9
$UCSORGRIGHT
 10
0.0
 20
0.0
 30
0.0
  9
$UCSORGFRONT
 10
0.0
 20
0.0
 30
0.0
  9
$UCSORGBACK
 10
0.0
 20
0.0
 30
0.0
  9
$PUCSBASE
  2

  9
$PUCSNAME
  2

  9
$PUCSORG
 10
0.0
 20
0.0
 30
0.0
  9
$PUCSXDIR
 10
1.0
 20
0.0
 30
0.0
  9
$PUCSYDIR
 10
0.0
 20
1.0
 30
0.0
  9
$PUCSORTHOREF
  2

  9
$PUCSORTHOVIEW
 70
     0
  9
$PUCSORGTOP
 10
0.0
 20
0.0
 30
0.0
  9
$PUCSORGBOTTOM
 10
0.0
 20
0.0
 30
0.0
  9
$PUCSORGLEFT
 10
0.0
 20
0.0
 30
0.0
  9
$PUCSORGRIGHT
 10
0.0
 20
0.0
 30
0.0
  9
$PUCSORGFRONT
 10
0.0
 20
0.0
 30
0.0
  9
$PUCSORGBACK
 10
0.0
 20
0.0
 30
0.0
  9
$USERI1
 70
     0
  9
$USERI2
 70
     0
  9
$USERI3
 70
     0
  9
$USERI4
 70
     0
  9
$USERI5
 70
     0
  9
$USERR1
 40
0.0
  9
$USERR2
 40
0.0
  9
$USERR3
 40
0.0
  9
$USERR4
 40
0.0
  9
$USERR5
 40
0.0
  9
$WORLDVIEW
 70
     1
  9
$SHADEDGE
 70
     3
  9
$SHADEDIF
 70
    70
  9
$TILEMODE
 70
     1
  9
$MAXACTVP
 70
    64
  9
$PINSBASE
 10
0.0
 20
0.0
 30
0.0
  9
$PLIMCHECK
 70
     0
  9
$PEXTMIN
 10
1.000000000000000E+20
 20
1.000000000000000E+20
 30
1.000000000000000E+20
  9
$PEXTMAX
 10
-1.000000000000000E+20
 20
-1.000000000000000E+20
 30
-1.000000000000000E+20
  9
$PLIMMIN
 10
0.0
 20
0.0
  9
$PLIMMAX
 10
0.0
 20
0.0
  9
$UNITMODE
 70
     0
  9
$VISRETAIN
 70
     1
  9
$PLINEGEN
 70
     0
  9
$PSLTSCALE
 70
     1
  9
$TREEDEPTH
 70
  3020
  9
$CMLSTYLE
  2
Standard
  9
$CMLJUST
 70
     0
  9
$CMLSCALE
 40
20.0
  9
$PROXYGRAPHICS
 70
     1
  9
$MEASUREMENT
 70
     1
  9
$CELWEIGHT
370
    -1
  9
$ENDCAPS
280
     0
  9
$JOINSTYLE
280
     0
  9
$LWDISPLAY
290
     1
  9
$INSUNITS
 70
     4
  9
$HYPERLINKBASE
  1

  9
$STYLESHEET
  1

  9
$XEDIT
290
     1
  9
$CEPSNTYPE
380
     0
  9
$PSTYLEMODE
290
     1
  9
$FINGERPRINTGUID
  2
{A8D8BDCF-A636-4948-A1CC-71F4E4FA6D53}
  9
$VERSIONGUID
  2
{FAEB1C32-E019-11D5-929B-00C0DF256EC4}
  9
$EXTNAMES
290
     1
  9
$PSVPSCALE
 40
0.0
  9
$OLESTARTUP
290
     0
  0
ENDSEC
  0
SECTION
  2
CLASSES
  0
CLASS
  1
ACDBDICTIONARYWDFLT
  2
AcDbDictionaryWithDefault
  3
ObjectDBX Classes
 90
        0
280
     0
281
     0
  0
CLASS
  1
VISUALSTYLE
  2
AcDbVisualStyle
  3
ObjectDBX Classes
 90
     4095
280
     0
281
     0
  0
CLASS
  1
MATERIAL
  2
AcDbMaterial
  3
ObjectDBX Classes
 90
     1153
280
     0
281
     0
  0
CLASS
  1
SCALE
  2
AcDbScale
  3
ObjectDBX Classes
 90
     1153
280
     0
281
     0
  0
CLASS
  1
SUN
  2
AcDbSun
  3
SCENEOE
 90
     1153
280
     0
281
     0
  0
CLASS
  1
ACDBPLACEHOLDER
  2
AcDbPlaceHolder
  3
ObjectDBX Classes
 90
        0
280
     0
281
     0
  0
CLASS
  1
LAYOUT
  2
AcDbLayout
  3
ObjectDBX Classes
 90
        0
280
     0
281
     0
  0
CLASS
  1
TABLESTYLE
  2
AcDbTableStyle
  3
ObjectDBX Classes
 90
     4095
280
     0
281
     0
  0
CLASS
  1
MLEADERSTYLE
  2
AcDbMLeaderStyle
  3
ACDB_MLEADERSTYLE_CLASS
 90
     4095
280
     0
281
     0
  0
CLASS
  1
DICTIONARYVAR
  2
AcDbDictionaryVar
  3
ObjectDBX Classes
 90
        0
280
     0
281
     0
  0
CLASS
  1
RASTERVARIABLES
  2
AcDbRasterVariables
  3
ISM
 90
        0
280
     0
281
     0
  0
ENDSEC
  0
SECTION
  2
TABLES
  0
TABLE
  2
VPORT
  5
8
330
0
100
AcDbSymbolTable
 70
     1
  0
VPORT
  5
29
330
8
100
AcDbSymbolTableRecord
100
AcDbViewportTableRecord
  2
*Active
 70
     0
 10
0.0
 20
0.0
 11
1.0
 21
1.0
 12
5.622062516477484
 22
-0.0548893195804112
 13
0.0
 23
0.0
 14
10.0
 24
10.0
 15
10.0
 25
10.0
 16
0.0
 26
0.0
 36
1.0
 17
0.0
 27
0.0
 37
0.0
 40
109.1048227688551
 41
1.782762691853601
 42
50.0
 43
0.0
 44
0.0
 50
0.0
 51
0.0
 71
    16
 72
  2000
 73
     1
 74
     3
 75
     0
 76
     0
 77
     0
 78
     0
281
     0
 65
     1
110
0.0
120
0.0
130
0.0
111
1.0
121
0.0
131
0.0
112
0.0
122
1.0
132
0.0
 79
     0
146
0.0
  0
ENDTAB
  0
TABLE
  2
LTYPE
  5
5
330
0
100
AcDbSymbolTable
 70
     6
  0
LTYPE
  5
14
330
5
100
AcDbSymbolTableRecord
100
AcDbLinetypeTableRecord
  2
ByBlock
 70
     0
  3

 72
    65
 73
     0
 40
0.0
  0
LTYPE
  5
15
330
5
100
AcDbSymbolTableRecord
100
AcDbLinetypeTableRecord
  2
ByLayer
 70
     0
  3

 72
    65
 73
     0
 40
0.0
  0
LTYPE
  5
16
330
5
100
AcDbSymbolTableRecord
100
AcDbLinetypeTableRecord
  2
Continuous
 70
     0
  3
Solid line
 72
    65
 73
     0
 40
0.0
  0
LTYPE
  5
6A
330
5
100
AcDbSymbolTableRecord
100
AcDbLinetypeTableRecord
  2
HIDDEN
 70
     0
  3
Hidden __ __ __ __ __ __ __ __ __ __ __ __ __ __
 72
    65
 73
     2
 40
1.905
 49
1.27
 74
     0
 49
-0.635
 74
     0
  0
LTYPE
  5
6B
330
5
100
AcDbSymbolTableRecord
100
AcDbLinetypeTableRecord
  2
PHANTOM
 70
     0
  3
Phantom ______  __  __  ______  __  __  ______
 72
    65
 73
     6
 40
12.7
 49
6.35
 74
     0
 49
-1.27
 74
     0
 49
1.27
 74
     0
 49
-1.27
 74
     0
 49
1.27
 74
     0
 49
-1.27
 74
     0
  0
LTYPE
  5
6C
330
5
100
AcDbSymbolTableRecord
100
AcDbLinetypeTableRecord
  2
CENTER
 70
     0
  3
Center ____ _ ____ _ ____ _ ____ _ ____ _ ____
 72
    65
 73
     4
 40
10.16
 49
6.35
 74
     0
 49
-1.27
 74
     0
 49
1.27
 74
     0
 49
-1.27
 74
     0
  0
LTYPE
  5
6D
330
5
100
AcDbSymbolTableRecord
100
AcDbLinetypeTableRecord
  2
CENTERX2
 70
     0
  3
Center (2x) ________  __  ________  __  _____
 72
    65
 73
     4
 40
20.32
 49
12.7
 74
     0
 49
-2.54
 74
     0
 49
2.54
 74
     0
 49
-2.54
 74
     0
  0
LTYPE
  5
6E
330
5
100
AcDbSymbolTableRecord
100
AcDbLinetypeTableRecord
  2
DOT2
 70
     0
  3
Dot (.5x) ........................................
 72
    65
 73
     2
 40
0.635
 49
0.0
 74
     0
 49
-0.635
 74
     0
  0
ENDTAB
  0
TABLE
  2
LAYER
  5
2
102
{ACAD_XDICTIONARY
360
193
102
}
330
0
100
AcDbSymbolTable
 70
    18
  0
LAYER
  5
10
330
2
100
AcDbSymbolTableRecord
100
AcDbLayerTableRecord
  2
0
 70
     0
 62
     7
  6
Continuous
370
    -3
390
F
  0
LAYER
  5
6F
330
2
100
AcDbSymbolTableRecord
100
AcDbLayerTableRecord
  2
FORMAT
 70
     0
 62
     2
  6
Continuous
370
    -3
390
F
  0
LAYER
  5
70
330
2
100
AcDbSymbolTableRecord
100
AcDbLayerTableRecord
  2
외형선
 70
     0
 62
     4
  6
Continuous
370
    30
390
F
  0
LAYER
  5
71
330
2
100
AcDbSymbolTableRecord
100
AcDbLayerTableRecord
  2
숨은선
 70
     0
 62
     2
  6
HIDDEN
370
    15
390
F
  0
LAYER
  5
72
330
2
100
AcDbSymbolTableRecord
100
AcDbLayerTableRecord
  2
중심선
 70
     0
 62
     1
  6
CENTERX2
370
    -3
390
F
  0
LAYER
  5
73
330
2
100
AcDbSymbolTableRecord
100
AcDbLayerTableRecord
  2
파단선
 70
     0
 62
     4
  6
Continuous
370
    -3
390
F
  0
LAYER
  5
74
330
2
100
AcDbSymbolTableRecord
100
AcDbLayerTableRecord
  2
해칭선
 70
     0
 62
   100
  6
Continuous
370
    -3
390
F
  0
LAYER
  5
75
330
2
100
AcDbSymbolTableRecord
100
AcDbLayerTableRecord
  2
가는실선
 70
     0
 62
     4
  6
Continuous
370
    -3
390
F
  0
LAYER
  5
76
330
2
100
AcDbSymbolTableRecord
100
AcDbLayerTableRecord
  2
치수_보조선
 70
     0
 62
     4
  6
Continuous
370
    -3
390
F
  0
LAYER
  5
77
330
2
100
AcDbSymbolTableRecord
100
AcDbLayerTableRecord
  2
치수문자_일반주서
 70
     0
 62
     7
  6
Continuous
370
    15
390
F
  0
LAYER
  5
78
330
2
100
AcDbSymbolTableRecord
100
AcDbLayerTableRecord
  2
개별주서
 70
     0
 62
   100
  6
Continuous
370
    30
390
F
  0
LAYER
  5
79
330
2
100
AcDbSymbolTableRecord
100
AcDbLayerTableRecord
  2
중간선
 70
     0
 62
     2
  6
Continuous
370
    15
390
F
  0
LAYER
  5
7A
330
2
100
AcDbSymbolTableRecord
100
AcDbLayerTableRecord
  2
윤곽선
 70
     0
 62
     3
  6
Continuous
370
    40
390
F
  0
LAYER
  5
7B
330
2
100
AcDbSymbolTableRecord
100
AcDbLayerTableRecord
  2
중심마크
 70
     0
 62
   100
  6
Continuous
370
    30
390
F
  0
LAYER
  5
7C
330
2
100
AcDbSymbolTableRecord
100
AcDbLayerTableRecord
  2
가상선
 70
     0
 62
     4
  6
PHANTOM
370
    -3
390
F
  0
LAYER
  5
7D
330
2
100
AcDbSymbolTableRecord
100
AcDbLayerTableRecord
  2
특수지정선
 70
     0
 62
     5
  6
CENTERX2
370
    60
390
F
  0
LAYER
  5
7E
330
2
100
AcDbSymbolTableRecord
100
AcDbLayerTableRecord
  2
참조1
 70
     0
 62
    -4
  6
Continuous
370
    -3
390
F
  0
LAYER
  5
15B
330
2
100
AcDbSymbolTableRecord
100
AcDbLayerTableRecord
  2
Defpoints
 70
     0
 62
     7
  6
Continuous
290
     0
370
    -3
390
F
  0
ENDTAB
  0
TABLE
  2
STYLE
  5
3
330
0
100
AcDbSymbolTable
 70
     2
  0
STYLE
  5
11
330
3
100
AcDbSymbolTableRecord
100
AcDbTextStyleTableRecord
  2
Standard
 70
     0
 40
0.0
 41
1.0
 50
0.0
 71
     0
 42
3.5
  3
txt
  4

  0
STYLE
  5
94
330
3
100
AcDbSymbolTableRecord
100
AcDbTextStyleTableRecord
  2
SLDTEXTSTYLE0
 70
     0
 40
0.0
 41
0.75
 50
0.0
 71
     0
 42
3.5
  3
TXT
  4

  0
ENDTAB
  0
TABLE
  2
VIEW
  5
6
330
0
100
AcDbSymbolTable
 70
     0
  0
ENDTAB
  0
TABLE
  2
UCS
  5
7
330
0
100
AcDbSymbolTable
 70
     0
  0
ENDTAB
  0
TABLE
  2
APPID
  5
9
330
0
100
AcDbSymbolTable
 70
     4
  0
APPID
  5
12
330
9
100
AcDbSymbolTableRecord
100
AcDbRegAppTableRecord
  2
ACAD
 70
     0
  0
APPID
  5
163
330
9
100
AcDbSymbolTableRecord
100
AcDbRegAppTableRecord
  2
PE_URL
 70
     0
  0
APPID
  5
22D
330
9
100
AcDbSymbolTableRecord
100
AcDbRegAppTableRecord
  2
ACAD_DSTYLE_DIMFLIPARROW_SYMBOL
 70
     0
  0
APPID
  5
22E
330
9
100
AcDbSymbolTableRecord
100
AcDbRegAppTableRecord
  2
ACAD_DSTYLE_DIMFLIPARROW_WHICH_SYMBOL
 70
     0
  0
ENDTAB
  0
TABLE
  2
DIMSTYLE
  5
A
330
0
100
AcDbSymbolTable
 70
     4
100
AcDbDimStyleTable
  0
DIMSTYLE
105
27
330
A
100
AcDbSymbolTableRecord
100
AcDbDimStyleTableRecord
  2
ISO-25
 70
     0
 41
2.5
 42
0.625
 43
3.75
 44
1.25
 73
     0
 74
     0
 77
     1
 78
     8
140
2.5
141
2.5
143
0.03937007874016
147
0.625
171
     3
172
     1
178
     0
271
     2
272
     2
274
     3
278
    44
283
     0
284
     8
340
11
  0
DIMSTYLE
105
DA
330
A
100
AcDbSymbolTableRecord
100
AcDbDimStyleTableRecord
  2
SLDDIMSTYLE0
 70
     0
 41
3.302
 44
0.0
 45
0.000000001
 73
     0
 74
     0
 77
     1
 78
    12
 79
     3
140
3.5
143
0.0393700787401575
147
0.875
148
0.000000001
170
     1
172
     1
173
     1
178
     0
271
     2
272
     2
276
     2
284
    12
289
     0
340
94
  0
DIMSTYLE
105
EF
102
{ACAD_REACTORS
330
EE
330
102
330
116
330
D9
102
}
330
A
100
AcDbSymbolTableRecord
100
AcDbDimStyleTableRecord
  2
SLDDIMSTYLE1
 70
     0
 41
3.302
 44
0.0
 45
0.000000001
 73
     0
 74
     0
 77
     1
 78
    12
 79
     3
140
3.5
143
0.0393700787401575
147
0.875
148
0.000000001
170
     1
173
     1
178
     0
271
     2
272
     2
276
     2
284
    12
340
94
  0
DIMSTYLE
105
117
330
A
100
AcDbSymbolTableRecord
100
AcDbDimStyleTableRecord
  2
SLDDIMSTYLE2
 70
     0
 41
3.302
 44
0.0
 45
0.000000001
 73
     0
 74
     0
 77
     1
 78
     4
 79
     1
140
3.5
143
0.0393700787401575
147
0.875
148
0.000000001
170
     1
173
     1
178
     0
271
     2
272
     2
276
     2
284
    12
340
94
  0
ENDTAB
  0
TABLE
  2
BLOCK_RECORD
  5
1
330
0
100
AcDbSymbolTable
 70
     9
  0
BLOCK_RECORD
  5
1F
330
1
100
AcDbSymbolTableRecord
100
AcDbBlockTableRecord
  2
*Model_Space
340
22
  0
BLOCK_RECORD
  5
1B
330
1
100
AcDbSymbolTableRecord
100
AcDbBlockTableRecord
  2
*Paper_Space
340
1E
  0
BLOCK_RECORD
  5
23
330
1
100
AcDbSymbolTableRecord
100
AcDbBlockTableRecord
  2
*Paper_Space0
340
26
  0
BLOCK_RECORD
  5
7F
330
1
100
AcDbSymbolTableRecord
100
AcDbBlockTableRecord
  2
블럭10
340
0
102
{BLKREFS
331
D2
102
}
  0
BLOCK_RECORD
  5
DB
330
1
100
AcDbSymbolTableRecord
100
AcDbBlockTableRecord
  2
_D
340
0
  0
BLOCK_RECORD
  5
F0
330
1
100
AcDbSymbolTableRecord
100
AcDbBlockTableRecord
  2
_D_1
340
0
  0
BLOCK_RECORD
  5
103
330
1
100
AcDbSymbolTableRecord
100
AcDbBlockTableRecord
  2
_D_2
340
0
  0
BLOCK_RECORD
  5
118
330
1
100
AcDbSymbolTableRecord
100
AcDbBlockTableRecord
  2
_D_3
340
0
  0
BLOCK_RECORD
  5
131
330
1
100
AcDbSymbolTableRecord
100
AcDbBlockTableRecord
  2
SW_DOWELSYMBOL_0
340
0
102
{BLKREFS
331
137
102
}
  0
BLOCK_RECORD
  5
197
330
1
100
AcDbSymbolTableRecord
100
AcDbBlockTableRecord
  2
*D7
340
0
  0
BLOCK_RECORD
  5
1A9
330
1
100
AcDbSymbolTableRecord
100
AcDbBlockTableRecord
  2
*D8
340
0
  0
ENDTAB
  0
ENDSEC
  0
SECTION
  2
BLOCKS
  0
BLOCK
  5
20
330
1F
100
AcDbEntity
  8
0
100
AcDbBlockBegin
  2
*Model_Space
 70
     0
 10
0.0
 20
0.0
 30
0.0
  3
*Model_Space
  1
*Model_Space
  0
ENDBLK
  5
21
330
1F
100
AcDbEntity
  8
0
100
AcDbBlockEnd
  0
BLOCK
  5
1C
330
1B
100
AcDbEntity
 67
     1
  8
0
100
AcDbBlockBegin
  2
*Paper_Space
 70
     0
 10
0.0
 20
0.0
 30
0.0
  3
*Paper_Space
  1
*Paper_Space
  0
ENDBLK
  5
1D
330
1B
100
AcDbEntity
 67
     1
  8
0
100
AcDbBlockEnd
  0
BLOCK
  5
24
330
23
100
AcDbEntity
  8
0
100
AcDbBlockBegin
  2
*Paper_Space0
 70
     0
 10
0.0
 20
0.0
 30
0.0
  3
*Paper_Space0
  1
*Paper_Space0
  0
ENDBLK
  5
25
330
23
100
AcDbEntity
  8
0
100
AcDbBlockEnd
  0
BLOCK
  5
80
330
7F
100
AcDbEntity
  8
0
100
AcDbBlockBegin
  2
블럭10
 70
     2
 10
0.0
 20
0.0
 30
0.0
  3
블럭10
  1
블럭10
  0
ELLIPSE
  5
82
330
7F
100
AcDbEntity
  8
중심선
100
AcDbEllipse
 10
20.54032771741204
 20
12.0471743016438
 30
0.0
 11
6.600054785286829
 21
-1.261213355974178E-13
 31
0.0
210
0.0
220
0.0
230
1.0
 40
0.636358354079598
 41
0.9219305317359503
 42
6.513795318482858
  0
ELLIPSE
  5
83
330
7F
100
AcDbEntity
  8
중심선
100
AcDbEllipse
 10
20.54032771746488
 20
12.04717430159265
 30
0.0
 11
3.960054785062283
 21
1.540847449632565E-10
 31
0.0
210
0.0
220
0.0
230
1.0
 40
0.3939339440162632
 41
1.131841032648279
 42
5.62031148352944
  0
LINE
  5
84
330
7F
100
AcDbEntity
  8
중심선
100
AcDbLine
 10
2.268634060543552
 20
16.24717430164393
 30
0.0
 11
5.714909304380834
 21
16.24717430164393
 31
0.0
  0
LINE
  5
85
330
7F
100
AcDbEntity
  8
중심선
100
AcDbLine
 10
5.245725140726316
 20
7.84717430164391
 30
0.0
 11
8.692000384563599
 21
7.84717430164391
 31
0.0
  0
LINE
  5
86
330
7F
100
AcDbEntity
  8
중심선
100
AcDbLine
 10
15.74043728645272
 20
16.24717430164393
 30
0.0
 11
8.692000384563599
 21
7.84717430164391
 31
0.0
  0
LINE
  5
87
330
7F
100
AcDbEntity
  8
중심선
100
AcDbLine
 10
0.1404042013395286
 20
13.71084872107135
 30
0.0
 11
3.58671253028996
 21
13.71088815037384
 31
0.0
  0
LINE
  5
88
330
7F
100
AcDbEntity
  8
중심선
100
AcDbLine
 10
2.750260043222114
 20
10.84717430164391
 30
0.0
 11
6.196535287059397
 21
10.84717430164391
 31
0.0
  0
LINE
  5
89
330
7F
100
AcDbEntity
  8
중심선
100
AcDbLine
 10
12.29416204261559
 20
16.24717430164393
 30
0.0
 11
5.245725140726316
 21
7.84717430164391
 31
0.0
  0
LINE
  5
8A
330
7F
100
AcDbEntity
  8
중심선
100
AcDbLine
 10
10.72767329541681
 20
16.24717430164393
 30
0.0
 11
6.196535287059397
 21
10.84717430164391
 31
0.0
  0
LINE
  5
8B
330
7F
100
AcDbEntity
  8
중심선
100
AcDbLine
 10
7.28139805157953
 20
16.24717430164393
 30
0.0
 11
2.750260043222114
 21
10.84717430164391
 31
0.0
  0
LINE
  5
8C
330
7F
100
AcDbEntity
  8
중심선
100
AcDbLine
 10
5.714909304380834
 20
16.24717430164393
 30
0.0
 11
3.58671253028996
 21
13.71088815037384
 31
0.0
  0
LINE
  5
8D
330
7F
100
AcDbEntity
  8
중심선
100
AcDbLine
 10
2.268634060543552
 20
16.24717430164393
 30
0.0
 11
0.1404042013395286
 21
13.71084872107135
 31
0.0
  0
LINE
  5
8E
330
7F
100
AcDbEntity
  8
중심선
100
AcDbLine
 10
7.28139805157953
 20
16.24717430164393
 30
0.0
 11
10.72767329541681
 21
16.24717430164393
 31
0.0
  0
LINE
  5
8F
330
7F
100
AcDbEntity
  8
중심선
100
AcDbLine
 10
12.29416204261559
 20
16.24717430164393
 30
0.0
 11
15.74043728645272
 21
16.24717430164393
 31
0.0
  0
LINE
  5
90
330
7F
100
AcDbEntity
  8
중심선
100
AcDbLine
 10
19.22036997980202
 20
11.08717430171403
 30
0.0
 11
23.66174974927406
 21
11.08717430171406
 31
0.0
  0
LINE
  5
91
330
7F
100
AcDbEntity
  8
중심선
100
AcDbLine
 10
19.22039502424796
 20
13.00717430171391
 30
0.0
 11
19.22036997980202
 21
11.08717430171403
 31
0.0
  0
LINE
  5
92
330
7F
100
AcDbEntity
  8
중심선
100
AcDbLine
 10
19.22039502424796
 20
13.00717430171391
 30
0.0
 11
26.96566020931264
 21
13.00717430171391
 31
0.0
  0
LINE
  5
93
330
7F
100
AcDbEntity
  8
중심선
100
AcDbLine
 10
22.22332737316547
 20
13.45928029700563
 30
0.0
 11
24.52862924686651
 21
15.39360700705356
 31
0.0
  0
ATTDEF
  5
95
330
7F
100
AcDbEntity
  8
FORMAT
 62
     2
100
AcDbText
 10
4.408487351596664
 20
2.075366912832191
 30
0.0
 40
4.233333333333333
  1
E1050052
 41
0.75
  7
SLDTEXTSTYLE0
 11
4.408487351596664
 21
-0.0412997538344756
 31
0.0
100
AcDbAttributeDefinition
  3

  2
AUTOATTR0
 70
     0
 74
     1
  0
ENDBLK
  5
81
330
7F
100
AcDbEntity
  8
0
100
AcDbBlockEnd
  0
BLOCK
  5
DC
330
DB
100
AcDbEntity
  8
0
100
AcDbBlockBegin
  2
_D
 70
     0
 10
0.0
 20
0.0
 30
0.0
  3
_D
  1
_D
  0
LINE
  5
DE
330
DB
100
AcDbEntity
  8
치수문자_일반주서
 62
     0
370
    -2
100
AcDbLine
 10
-26.26268467149224
 20
11.11249999999998
 30
0.0
 11
-84.85
 21
11.11249999999976
 31
0.0
  0
LINE
  5
DF
330
DB
100
AcDbEntity
  8
치수문자_일반주서
 62
     0
370
    -2
100
AcDbLine
 10
-26.26268467149218
 20
-11.1125
 30
0.0
 11
-84.84999999999992
 21
-11.11250000000022
 31
0.0
  0
LINE
  5
E0
330
DB
100
AcDbEntity
  8
치수문자_일반주서
 62
     0
370
    -2
100
AcDbLine
 10
-84.85
 20
11.11249999999976
 30
0.0
 11
-84.85000000000011
 21
47.16449999999993
 31
0.0
  0
LINE
  5
E1
330
DB
100
AcDbEntity
  8
치수문자_일반주서
 62
     0
370
    -2
100
AcDbLine
 10
-84.85
 20
11.11249999999976
 30
0.0
 11
-84.84999999999992
 21
-11.11250000000022
 31
0.0
  0
LINE
  5
E2
330
DB
100
AcDbEntity
  8
치수문자_일반주서
 62
     0
370
    -2
100
AcDbLine
 10
-84.85000000000001
 20
14.41449999999976
 30
0.0
 11
-84.85000000000002
 21
17.71649999999976
 31
0.0
  0
LINE
  5
E3
330
DB
100
AcDbEntity
  8
치수문자_일반주서
 62
     0
370
    -2
100
AcDbLine
 10
-84.84999999999991
 20
-14.41450000000022
 30
0.0
 11
-84.8499999999999
 21
-17.71650000000022
 31
0.0
  0
SOLID
  5
E4
330
DB
100
AcDbEntity
  8
치수문자_일반주서
 62
     0
100
AcDbTrace
 10
-85.40033333333334
 20
14.41449999999976
 30
0.0
 11
-84.29966666666668
 21
14.41449999999976
 31
0.0
 12
-84.85
 22
11.11249999999976
 32
0.0
 13
-84.85
 23
11.11249999999976
 33
0.0
  0
SOLID
  5
E5
330
DB
100
AcDbEntity
  8
치수문자_일반주서
 62
     0
100
AcDbTrace
 10
-84.29966666666658
 20
-14.41450000000022
 30
0.0
 11
-85.40033333333324
 21
-14.41450000000023
 31
0.0
 12
-84.84999999999992
 22
-11.11250000000022
 32
0.0
 13
-84.84999999999992
 23
-11.11250000000022
 33
0.0
  0
MTEXT
  5
E6
330
DB
100
AcDbEntity
  8
치수문자_일반주서
 62
     0
100
AcDbMText
 10
-89.72500000000005
 20
30.78949999999992
 30
0.0
 40
4.0
 41
0.0
 71
     2
 72
     1
  1
\A1;%%c22.23 [7/8]
  7
SLDTEXTSTYLE0
 11
-3.197042680585380E-15
 21
1.0
 31
0.0
 73
     1
 44
1.0
  0
POINT
  5
1B9
330
DB
100
AcDbEntity
  8
Defpoints
 62
     0
100
AcDbPoint
 10
-26.20018467149224
 20
11.11249999999998
 30
0.0
  0
POINT
  5
1BA
330
DB
100
AcDbEntity
  8
Defpoints
 62
     0
100
AcDbPoint
 10
-26.20018467149218
 20
-11.1125
 30
0.0
  0
POINT
  5
1BB
330
DB
100
AcDbEntity
  8
Defpoints
 62
     0
100
AcDbPoint
 10
-84.84999999999992
 20
-11.11250000000022
 30
0.0
  0
ENDBLK
  5
DD
330
DB
100
AcDbEntity
  8
0
100
AcDbBlockEnd
  0
BLOCK
  5
F1
330
F0
100
AcDbEntity
  8
0
100
AcDbBlockBegin
  2
_D_1
 70
     0
 10
0.0
 20
0.0
 30
0.0
  3
_D_1
  1
_D_1
  0
LINE
  5
F3
330
F0
100
AcDbEntity
  8
치수문자_일반주서
 62
     0
370
    -2
100
AcDbLine
 10
69.91250000000002
 20
-10.31002874965089
 30
0.0
 11
84.85000000000008
 21
-10.31002874965083
 31
0.0
  0
LINE
  5
F4
330
F0
100
AcDbEntity
  8
치수문자_일반주서
 62
     0
370
    -2
100
AcDbLine
 10
69.91250000000002
 20
10.31002874965088
 30
0.0
 11
84.85000000000001
 21
10.31002874965094
 31
0.0
  0
LINE
  5
F5
330
F0
100
AcDbEntity
  8
치수문자_일반주서
 62
     0
370
    -2
100
AcDbLine
 10
84.85000000000001
 20
10.31002874965094
 30
0.0
 11
84.84999999999988
 21
49.86202874965094
 31
0.0
  0
LINE
  5
F6
330
F0
100
AcDbEntity
  8
치수문자_일반주서
 62
     0
370
    -2
100
AcDbLine
 10
84.85000000000008
 20
-10.31002874965083
 30
0.0
 11
84.85000000000001
 21
10.31002874965094
 31
0.0
  0
LINE
  5
F7
330
F0
100
AcDbEntity
  8
치수문자_일반주서
 62
     0
370
    -2
100
AcDbLine
 10
84.8500000000001
 20
-13.61202874965083
 30
0.0
 11
84.85000000000011
 21
-16.91402874965083
 31
0.0
  0
LINE
  5
F8
330
F0
100
AcDbEntity
  8
치수문자_일반주서
 62
     0
370
    -2
100
AcDbLine
 10
84.85
 20
13.61202874965094
 30
0.0
 11
84.84999999999998
 21
16.91402874965094
 31
0.0
  0
SOLID
  5
F9
330
F0
100
AcDbEntity
  8
치수문자_일반주서
 62
     0
100
AcDbTrace
 10
85.40033333333342
 20
-13.61202874965083
 30
0.0
 11
84.29966666666677
 21
-13.61202874965083
 31
0.0
 12
84.85000000000008
 22
-10.31002874965083
 32
0.0
 13
84.85000000000008
 23
-10.31002874965083
 33
0.0
  0
SOLID
  5
FA
330
F0
100
AcDbEntity
  8
치수문자_일반주서
 62
     0
100
AcDbTrace
 10
84.29966666666667
 20
13.61202874965094
 30
0.0
 11
85.40033333333332
 21
13.61202874965094
 31
0.0
 12
84.85000000000001
 22
10.31002874965094
 32
0.0
 13
84.85000000000001
 23
10.31002874965094
 33
0.0
  0
MTEXT
  5
FB
330
F0
100
AcDbEntity
  8
치수문자_일반주서
 62
     0
100
AcDbMText
 10
79.97499999999994
 20
31.73702874965092
 30
0.0
 40
4.0
 41
0.0
 71
     2
 72
     1
  1
\A1;%%c20.62 [13/16]
  7
SLDTEXTSTYLE0
 11
-3.445881447149991E-15
 21
1.0
 31
0.0
 73
     1
 44
1.0
  0
POINT
  5
FC
330
F0
100
AcDbEntity
  8
Defpoints
 62
     0
100
AcDbPoint
 10
69.85000000000002
 20
-10.31002874965089
 30
0.0
  0
POINT
  5
1BC
330
F0
100
AcDbEntity
  8
Defpoints
 62
     0
100
AcDbPoint
 10
69.85000000000002
 20
10.31002874965088
 30
0.0
  0
POINT
  5
1BD
330
F0
100
AcDbEntity
  8
Defpoints
 62
     0
100
AcDbPoint
 10
84.85000000000001
 20
10.31002874965094
 30
0.0
  0
ENDBLK
  5
F2
330
F0
100
AcDbEntity
  8
0
100
AcDbBlockEnd
  0
BLOCK
  5
104
330
103
100
AcDbEntity
  8
0
100
AcDbBlockBegin
  2
_D_2
 70
     0
 10
0.0
 20
0.0
 30
0.0
  3
_D_2
  1
_D_2
  0
LINE
  5
106
330
103
100
AcDbEntity
  8
치수문자_일반주서
 62
     0
370
    -2
100
AcDbLine
 10
69.85000000000002
 20
10.37252874965088
 30
0.0
 11
69.85000000000002
 21
26.11249999999999
 31
0.0
  0
LINE
  5
107
330
103
100
AcDbEntity
  8
치수문자_일반주서
 62
     0
370
    -2
100
AcDbLine
 10
30.16250000000002
 20
8.578237115673156
 30
0.0
 11
30.16250000000002
 21
26.11249999999999
 31
0.0
  0
LINE
  5
108
330
103
100
AcDbEntity
  8
치수문자_일반주서
 62
     0
370
    -2
100
AcDbLine
 10
66.54800000000003
 20
26.11249999999999
 30
0.0
 11
33.46450000000002
 21
26.11249999999999
 31
0.0
  0
SOLID
  5
109
330
103
100
AcDbEntity
  8
치수문자_일반주서
 62
     0
100
AcDbTrace
 10
66.54800000000003
 20
25.56216666666666
 30
0.0
 11
66.54800000000003
 21
26.66283333333332
 31
0.0
 12
69.85000000000002
 22
26.11249999999999
 32
0.0
 13
69.85000000000002
 23
26.11249999999999
 33
0.0
  0
SOLID
  5
10A
330
103
100
AcDbEntity
  8
치수문자_일반주서
 62
     0
100
AcDbTrace
 10
33.46450000000002
 20
26.66283333333332
 30
0.0
 11
33.46450000000002
 21
25.56216666666666
 31
0.0
 12
30.16250000000002
 22
26.11249999999999
 32
0.0
 13
30.16250000000002
 23
26.11249999999999
 33
0.0
  0
MTEXT
  5
10B
330
103
100
AcDbEntity
  8
치수문자_일반주서
 62
     0
100
AcDbMText
 10
50.00625000000002
 20
30.98749999999999
 30
0.0
 40
4.0
 41
0.0
 71
     2
 72
     1
  1
\A1;39.69 [1 9/16]
  7
SLDTEXTSTYLE0
 73
     1
 44
1.0
  0
POINT
  5
10C
330
103
100
AcDbEntity
  8
Defpoints
 62
     0
100
AcDbPoint
 10
69.85000000000002
 20
10.31002874965088
 30
0.0
  0
POINT
  5
10D
330
103
100
AcDbEntity
  8
Defpoints
 62
     0
100
AcDbPoint
 10
30.16250000000002
 20
8.515737115673156
 30
0.0
  0
POINT
  5
10E
330
103
100
AcDbEntity
  8
Defpoints
 62
     0
100
AcDbPoint
 10
30.16250000000002
 20
26.11249999999999
 30
0.0
  0
ENDBLK
  5
105
330
103
100
AcDbEntity
  8
0
100
AcDbBlockEnd
  0
BLOCK
  5
119
330
118
100
AcDbEntity
  8
0
100
AcDbBlockBegin
  2
_D_3
 70
     0
 10
0.0
 20
0.0
 30
0.0
  3
_D_3
  1
_D_3
  0
LINE
  5
11B
330
118
100
AcDbEntity
  8
치수문자_일반주서
 62
     0
370
    -2
100
AcDbLine
 10
-69.85
 20
10.3725287496508
 30
0.0
 11
-69.85
 21
41.11249999999999
 31
0.0
  0
LINE
  5
11C
330
118
100
AcDbEntity
  8
치수문자_일반주서
 62
     0
370
    -2
100
AcDbLine
 10
69.85000000000002
 20
10.37252874965088
 30
0.0
 11
69.85000000000002
 21
41.11249999999999
 31
0.0
  0
LINE
  5
11D
330
118
100
AcDbEntity
  8
치수문자_일반주서
 62
     0
370
    -2
100
AcDbLine
 10
-66.548
 20
41.11249999999999
 30
0.0
 11
66.54800000000003
 21
41.11249999999999
 31
0.0
  0
SOLID
  5
11E
330
118
100
AcDbEntity
  8
치수문자_일반주서
 62
     0
100
AcDbTrace
 10
-66.548
 20
41.66283333333332
 30
0.0
 11
-66.548
 21
40.56216666666666
 31
0.0
 12
-69.85
 22
41.11249999999999
 32
0.0
 13
-69.85
 23
41.11249999999999
 33
0.0
  0
SOLID
  5
11F
330
118
100
AcDbEntity
  8
치수문자_일반주서
 62
     0
100
AcDbTrace
 10
66.54800000000003
 20
40.56216666666666
 30
0.0
 11
66.54800000000003
 21
41.66283333333332
 31
0.0
 12
69.85000000000002
 22
41.11249999999999
 32
0.0
 13
69.85000000000002
 23
41.11249999999999
 33
0.0
  0
MTEXT
  5
120
330
118
100
AcDbEntity
  8
치수문자_일반주서
 62
     0
100
AcDbMText
 10
0.0000000000000284
 20
45.98749999999999
 30
0.0
 40
4.0
 41
0.0
 71
     2
 72
     1
  1
\A1;139.7 [5 1/2]
  7
SLDTEXTSTYLE0
 73
     1
 44
1.0
  0
POINT
  5
121
330
118
100
AcDbEntity
  8
Defpoints
 62
     0
100
AcDbPoint
 10
-69.85
 20
10.3100287496508
 30
0.0
  0
POINT
  5
122
330
118
100
AcDbEntity
  8
Defpoints
 62
     0
100
AcDbPoint
 10
69.85000000000002
 20
10.31002874965088
 30
0.0
  0
POINT
  5
123
330
118
100
AcDbEntity
  8
Defpoints
 62
     0
100
AcDbPoint
 10
69.85000000000002
 20
41.11249999999999
 30
0.0
  0
ENDBLK
  5
11A
330
118
100
AcDbEntity
  8
0
100
AcDbBlockEnd
  0
BLOCK
  5
132
330
131
100
AcDbEntity
  8
0
100
AcDbBlockBegin
  2
SW_DOWELSYMBOL_0
 70
     0
 10
0.0
 20
0.0
 30
0.0
  3
SW_DOWELSYMBOL_0
  1
SW_DOWELSYMBOL_0
  0
CIRCLE
  5
134
330
131
100
AcDbEntity
  8
해칭선
 62
     0
100
AcDbCircle
 10
0.0
 20
0.0
 30
0.0
 40
3.000000000000001
  0
HATCH
  5
135
330
131
100
AcDbEntity
  8
0
  6
Continuous
 62
     0
370
     0
100
AcDbHatch
 10
0.0
 20
0.0
 30
0.0
210
0.0
220
0.0
230
1.0
  2
SOLID
 70
     1
 71
     0
 91
        1
 92
        0
 93
        3
 72
     2
 10
0.0
 20
0.0
 40
3.000000000000001
 50
0.0
 51
90.0
 73
     1
 72
     1
 10
0.0
 20
3.000000000000001
 11
0.0
 21
0.0
 72
     1
 10
0.0
 20
0.0
 11
3.000000000000001
 21
0.0
 97
        0
 75
     0
 76
     1
 98
        1
 10
0.0
 20
0.0
  0
HATCH
  5
136
330
131
100
AcDbEntity
  8
0
  6
Continuous
 62
     0
370
     0
100
AcDbHatch
 10
0.0
 20
0.0
 30
0.0
210
0.0
220
0.0
230
1.0
  2
SOLID
 70
     1
 71
     0
 91
        1
 92
        0
 93
        3
 72
     2
 10
0.0
 20
0.0
 40
3.000000000000001
 50
180.0
 51
270.0000000000007
 73
     1
 72
     1
 10
0.0
 20
-3.000000000000001
 11
0.0
 21
0.0
 72
     1
 10
0.0
 20
0.0
 11
-3.000000000000001
 21
0.0
 97
        0
 75
     0
 76
     1
 98
        1
 10
0.0
 20
0.0
  0
ENDBLK
  5
133
330
131
100
AcDbEntity
  8
0
100
AcDbBlockEnd
  0
BLOCK
  5
198
330
197
100
AcDbEntity
  8
0
100
AcDbBlockBegin
  2
*D7
 70
     1
 10
0.0
 20
0.0
 30
0.0
  3
*D7
  1
*D7
  0
LINE
  5
19A
330
197
100
AcDbEntity
  8
치수문자_일반주서
 62
     0
370
    -2
100
AcDbLine
 10
77.54620000000017
 20
7.699178019198558
 30
0.0
 11
77.54620000000017
 21
23.83568883684194
 31
0.0
  0
LINE
  5
19B
330
197
100
AcDbEntity
  8
치수문자_일반주서
 62
     0
370
    -2
100
AcDbLine
 10
37.85870000000016
 20
6.438861833078366
 30
0.0
 11
37.85870000000016
 21
23.83568883684194
 31
0.0
  0
LINE
  5
19C
330
197
100
AcDbEntity
  8
치수문자_일반주서
 62
     0
370
    -2
100
AcDbLine
 10
74.24420000000018
 20
23.83568883684194
 30
0.0
 11
41.16070000000016
 21
23.83568883684194
 31
0.0
  0
SOLID
  5
19D
330
197
100
AcDbEntity
  8
치수문자_일반주서
 62
     0
100
AcDbTrace
 10
74.24420000000018
 20
23.28535550350861
 30
0.0
 11
74.24420000000018
 21
24.38602217017528
 31
0.0
 12
77.54620000000017
 22
23.83568883684194
 32
0.0
 13
77.54620000000017
 23
23.83568883684194
 33
0.0
  0
SOLID
  5
19E
330
197
100
AcDbEntity
  8
치수문자_일반주서
 62
     0
100
AcDbTrace
 10
41.16070000000016
 20
24.38602217017528
 30
0.0
 11
41.16070000000016
 21
23.28535550350861
 31
0.0
 12
37.85870000000016
 22
23.83568883684194
 32
0.0
 13
37.85870000000016
 23
23.83568883684194
 33
0.0
  0
MTEXT
  5
19F
330
197
100
AcDbEntity
  8
치수문자_일반주서
 62
     0
100
AcDbMText
 10
57.70245000000016
 20
28.71068883684194
 30
0.0
 40
4.0
 41
0.0
 71
     2
 72
     1
  1
\A1;39.69 [1 9/16]
  7
SLDTEXTSTYLE0
 73
     1
 44
1.0
  0
POINT
  5
1A0
330
197
100
AcDbEntity
  8
Defpoints
 62
     0
100
AcDbPoint
 10
77.54620000000017
 20
7.636678019198558
 30
0.0
  0
POINT
  5
1A1
330
197
100
AcDbEntity
  8
Defpoints
 62
     0
100
AcDbPoint
 10
37.85870000000016
 20
6.376361833078366
 30
0.0
  0
POINT
  5
1A2
330
197
100
AcDbEntity
  8
Defpoints
 62
     0
100
AcDbPoint
 10
37.85870000000016
 20
23.83568883684194
 30
0.0
  0
ENDBLK
  5
199
330
197
100
AcDbEntity
  8
0
100
AcDbBlockEnd
  0
BLOCK
  5
1AA
330
1A9
100
AcDbEntity
  8
0
100
AcDbBlockBegin
  2
*D8
 70
     1
 10
0.0
 20
0.0
 30
0.0
  3
*D8
  1
*D8
  0
LINE
  5
1AC
330
1A9
100
AcDbEntity
  8
치수문자_일반주서
 62
     0
370
    -2
100
AcDbLine
 10
125.5634604293762
 20
-27.00321675047313
 30
0.0
 11
125.5634604293762
 21
-10.86670593282974
 31
0.0
  0
LINE
  5
1AD
330
1A9
100
AcDbEntity
  8
치수문자_일반주서
 62
     0
370
    -2
100
AcDbLine
 10
85.87596042937619
 20
-28.26353293659332
 30
0.0
 11
85.87596042937619
 21
-10.86670593282974
 31
0.0
  0
LINE
  5
1AE
330
1A9
100
AcDbEntity
  8
치수문자_일반주서
 62
     0
370
    -2
100
AcDbLine
 10
122.2614604293762
 20
-10.86670593282974
 30
0.0
 11
89.17796042937618
 21
-10.86670593282974
 31
0.0
  0
SOLID
  5
1AF
330
1A9
100
AcDbEntity
  8
치수문자_일반주서
 62
     0
100
AcDbTrace
 10
122.2614604293762
 20
-11.41703926616307
 30
0.0
 11
122.2614604293762
 21
-10.31637259949641
 31
0.0
 12
125.5634604293762
 22
-10.86670593282974
 32
0.0
 13
125.5634604293762
 23
-10.86670593282974
 33
0.0
  0
SOLID
  5
1B0
330
1A9
100
AcDbEntity
  8
치수문자_일반주서
 62
     0
100
AcDbTrace
 10
89.17796042937618
 20
-10.31637259949641
 30
0.0
 11
89.17796042937618
 21
-11.41703926616307
 31
0.0
 12
85.87596042937619
 22
-10.86670593282974
 32
0.0
 13
85.87596042937619
 23
-10.86670593282974
 33
0.0
  0
MTEXT
  5
1B1
330
1A9
100
AcDbEntity
  8
치수문자_일반주서
 62
     0
100
AcDbMText
 10
105.7197104293762
 20
-5.991705932829742
 30
0.0
 40
4.0
 41
0.0
 71
     2
 72
     1
  1
\A1;39.69 [1 9/16]
  7
SLDTEXTSTYLE0
 73
     1
 44
1.0
  0
POINT
  5
1B2
330
1A9
100
AcDbEntity
  8
Defpoints
 62
     0
100
AcDbPoint
 10
125.5634604293762
 20
-27.06571675047313
 30
0.0
  0
POINT
  5
1B3
330
1A9
100
AcDbEntity
  8
Defpoints
 62
     0
100
AcDbPoint
 10
85.87596042937619
 20
-28.32603293659332
 30
0.0
  0
POINT
  5
1B4
330
1A9
100
AcDbEntity
  8
Defpoints
 62
     0
100
AcDbPoint
 10
85.87596042937619
 20
-10.86670593282974
 30
0.0
  0
ENDBLK
  5
1AB
330
1A9
100
AcDbEntity
  8
0
100
AcDbBlockEnd
  0
ENDSEC
  0
SECTION
  2
ENTITIES
  0
LINE
  5
96
330
1F
100
AcDbEntity
  8
외형선
  6
Continuous
370
    15
100
AcDbLine
 10
26.20018467149224
 20
11.11249999999999
 30
0.0
 11
7.69619999999998
 21
11.11249999999999
 31
0.0
  0
LINE
  5
97
330
1F
100
AcDbEntity
  8
외형선
  6
Continuous
370
    15
100
AcDbLine
 10
-26.20018467149219
 20
-11.1125
 30
0.0
 11
26.20018467149224
 21
-11.1125
 31
0.0
  0
LINE
  5
98
330
1F
100
AcDbEntity
  8
외형선
  6
Continuous
370
    15
100
AcDbLine
 10
26.20018467149225
 20
-11.1125
 30
0.0
 11
27.11240642797544
 21
-10.86807091703223
 31
0.0
  0
LINE
  5
99
330
1F
100
AcDbEntity
  8
외형선
  6
Continuous
370
    15
100
AcDbLine
 10
27.11240642797544
 20
10.86807091703222
 30
0.0
 11
26.20018467149224
 21
11.11249999999999
 31
0.0
  0
SPLINE
  5
9C
330
1F
100
AcDbEntity
  8
외형선
  6
Continuous
370
    15
100
AcDbSpline
210
0.0
220
0.0
230
1.0
 70
     8
 71
     3
 72
     9
 73
     5
 74
     0
 42
0.000000001
 43
0.00000001
 40
0.0
 40
0.0
 40
0.0
 40
0.0
 40
0.5595221753371526
 40
0.9999999999999999
 40
0.9999999999999999
 40
0.9999999999999999
 40
0.9999999999999999
 10
27.11237063701616
 20
-8.331985145186906
 30
0.0
 10
27.68152263976817
 20
-8.29246482881742
 30
0.0
 10
28.69873344541506
 20
-8.221832567735595
 30
0.0
 10
29.71490080982941
 20
-8.17382552373715
 30
0.0
 10
30.16250000000002
 20
-8.152679485428223
 30
0.0
  0
LINE
  5
9D
330
1F
100
AcDbEntity
  8
0
  6
Continuous
 62
     1
370
    15
100
AcDbLine
 10
37.39514100152176
 20
2.91373494853449
 30
0.0
 11
37.29900455441536
 21
2.96662580145629
 31
0.0
1001
PE_URL
1000

  0
SPLINE
  5
9E
330
1F
100
AcDbEntity
  8
0
  6
Continuous
 62
     1
370
    15
100
AcDbSpline
210
0.0
220
0.0
230
1.0
 70
     8
 71
     3
 72
     9
 73
     5
 74
     0
 42
0.000000001
 43
0.00000001
 40
0.0
 40
0.0
 40
0.0
 40
0.0
 40
0.5175995736950666
 40
1.0
 40
1.0
 40
1.0
 40
1.0
 10
43.11609794446302
 20
2.644189138952254
 30
0.0
 10
42.62219722806985
 20
2.879960468626608
 30
0.0
 10
41.66798331157203
 20
3.335469595095193
 30
0.0
 10
40.71438709700118
 20
3.834925470927685
 30
0.0
 10
40.25437187656943
 20
4.075863198349781
 30
0.0
1001
PE_URL
1000

  0
SPLINE
  5
9F
330
1F
100
AcDbEntity
  8
0
  6
Continuous
 62
     1
370
    15
100
AcDbSpline
210
0.0
220
0.0
230
1.0
 70
     8
 71
     3
 72
    20
 73
    16
 74
     0
 42
0.000000001
 43
0.00000001
 40
0.0
 40
0.0
 40
0.0
 40
0.0
 40
0.1297378057731585
 40
0.2320535117557422
 40
0.3154304192510169
 40
0.3859126283999485
 40
0.46169963069277
 40
0.5529164284829269
 40
0.6097209216080798
 40
0.6632950641977825
 40
0.7302701507848692
 40
0.8027089898191555
 40
0.8581201057372857
 40
0.9198526725209227
 40
1.0
 40
1.0
 40
1.0
 40
1.0
 10
39.70492613242062
 20
8.199679668447766
 30
0.0
 10
39.35057543902519
 20
8.181501588439517
 30
0.0
 10
38.71677157356392
 20
8.14898764789803
 30
0.0
 10
37.81473838452283
 20
8.11558134736001
 30
0.0
 10
37.07931039850526
 20
8.093011852560558
 30
0.0
 10
36.43554470068342
 20
8.077974005256449
 30
0.0
 10
35.78051635043039
 20
8.066715651559592
 30
0.0
 10
35.14807286091609
 20
8.060207701142122
 30
0.0
 10
34.58139894842679
 20
8.058121305737968
 30
0.0
 10
34.08229312462352
 20
8.05865577872119
 30
0.0
 10
33.53924125542216
 20
8.062089555688015
 30
0.0
 10
32.99103768286599
 20
8.068844605331911
 30
0.0
 10
32.45769813716686
 20
8.07847310408817
 30
0.0
 10
31.90269310908069
 20
8.09099862174619
 30
0.0
 10
31.50346227585324
 20
8.103438800052054
 30
0.0
 10
31.27793853623741
 20
8.110466201994797
 30
0.0
1001
PE_URL
1000

  0
SPLINE
  5
A0
330
1F
100
AcDbEntity
  8
0
  6
Continuous
 62
     1
370
    15
100
AcDbSpline
210
0.0
220
0.0
230
1.0
 70
     8
 71
     3
 72
    32
 73
    28
 74
     0
 42
0.000000001
 43
0.00000001
 40
0.0
 40
0.0
 40
0.0
 40
0.0
 40
0.0471446957550365
 40
0.0655305378756519
 40
0.0920162731172621
 40
0.1177616012109398
 40
0.143872918572537
 40
0.175819437922172
 40
0.2086338796379658
 40
0.2476612032050832
 40
0.2832828781892685
 40
0.3207495241032969
 40
0.3803640461302354
 40
0.4244772466238674
 40
0.4704887240582245
 40
0.5218868519515903
 40
0.5655680401303882
 40
0.6167240506185907
 40
0.6713727594410375
 40
0.713605941087716
 40
0.7697782074205697
 40
0.8024957827714079
 40
0.8238113385581879
 40
0.8485032296602952
 40
0.8844662545933896
 40
0.934169291501396
 40
1.0
 40
1.0
 40
1.0
 40
1.0
 10
66.0164246485962
 20
7.057535380383509
 30
0.0
 10
65.79101927267318
 20
7.03693571344803
 30
0.0
 10
65.4777086173017
 20
7.008302433866477
 30
0.0
 10
64.93716795843388
 20
6.964472131024904
 30
0.0
 10
64.4879675015004
 20
6.939037407598492
 30
0.0
 10
64.00416540908255
 20
6.911359106905856
 30
0.0
 10
63.47954874744863
 20
6.88250918411107
 30
0.0
 10
62.92864197790259
 20
6.856274106324111
 30
0.0
 10
62.29839744301915
 20
6.831503022079082
 30
0.0
 10
61.64906215278644
 20
6.811983034395454
 30
0.0
 10
60.97024186645999
 20
6.798065420320834
 30
0.0
 10
60.16707261026522
 20
6.78917815151794
 30
0.0
 10
59.31278062560629
 20
6.790525227233796
 30
0.0
 10
58.40797972010031
 20
6.804055380523349
 30
0.0
 10
57.55219301924052
 20
6.826757233460667
 30
0.0
 10
56.69482234078389
 20
6.860519105795574
 30
0.0
 10
55.82838136003458
 20
6.904611504557142
 30
0.0
 10
54.91926019812349
 20
6.961764485083459
 30
0.0
 10
54.0127577366201
 20
7.031326774935097
 30
0.0
 10
53.09284843185541
 20
7.112492039124405
 30
0.0
 10
52.29699081926309
 20
7.191950568126867
 30
0.0
 10
51.62622037647553
 20
7.2662432895446
 30
0.0
 10
51.16521598058765
 20
7.319923669095691
 30
0.0
 10
50.65934135896032
 20
7.382044897201068
 30
0.0
 10
49.97391772993998
 20
7.46986375829495
 30
0.0
 10
49.04595055593983
 20
7.597366370105774
 30
0.0
 10
48.37311969115379
 20
7.701653451932923
 30
0.0
 10
47.9897431082108
 20
7.761075852373343
 30
0.0
1001
PE_URL
1000

  0
SPLINE
  5
A1
330
1F
100
AcDbEntity
  8
0
  6
Continuous
 62
     1
370
    15
100
AcDbSpline
210
0.0
220
0.0
230
1.0
 70
     8
 71
     3
 72
    19
 73
    15
 74
     0
 42
0.000000001
 43
0.00000001
 40
0.0
 40
0.0
 40
0.0
 40
0.0
 40
0.1350086345807359
 40
0.2420775899938908
 40
0.3234951290212838
 40
0.3845602368823378
 40
0.4269363601105325
 40
0.4924609201871627
 40
0.5911746349403929
 40
0.6825114030962022
 40
0.7590404335467746
 40
0.8524207558317684
 40
0.9594555838366096
 40
1.0
 40
1.0
 40
1.0
 40
1.0
 10
47.9897431082108
 20
-7.761075852373354
 30
0.0
 10
48.32351774711985
 20
-7.709273736390746
 30
0.0
 10
48.92199324788394
 20
-7.616389815057894
 30
0.0
 10
49.75379304887231
 20
-7.49930034376317
 30
0.0
 10
50.41120119110938
 20
-7.413714824735359
 30
0.0
 10
50.8992428945301
 20
-7.352274245611811
 30
0.0
 10
51.33052935657079
 20
-7.30043508670307
 30
0.0
 10
51.85166791994632
 20
-7.240581442846199
 30
0.0
 10
52.51333946594011
 20
-7.169898476298391
 30
0.0
 10
53.19890364630759
 20
-7.103400287358486
 30
0.0
 10
53.86572013766185
 20
-7.044283322885319
 30
0.0
 10
54.58123313265395
 20
-6.987259490444354
 30
0.0
 10
55.20965229115431
 20
-6.942705453511566
 30
0.0
 10
55.58574434565815
 20
-6.921080061150558
 30
0.0
 10
55.68906804039239
 20
-6.915138921442717
 30
0.0
1001
PE_URL
1000

  0
SPLINE
  5
A2
330
1F
100
AcDbEntity
  8
0
  6
Continuous
 62
     1
370
    15
100
AcDbSpline
210
0.0
220
0.0
230
1.0
 70
     8
 71
     3
 72
    21
 73
    17
 74
     0
 42
0.000000001
 43
0.00000001
 40
0.0
 40
0.0
 40
0.0
 40
0.0
 40
0.1089429065486469
 40
0.18990387781164
 40
0.2446629034714609
 40
0.2945746562744403
 40
0.3457002936052638
 40
0.4089877668990625
 40
0.4594501675889729
 40
0.5116100085898704
 40
0.5921816262779672
 40
0.6591241360173632
 40
0.721380932429186
 40
0.7950275904732373
 40
0.8854028518903403
 40
1.0
 40
1.0
 40
1.0
 40
1.0
 10
30.16250000000002
 20
-8.152679485428223
 30
0.0
 10
30.50961082118311
 20
-8.13852368034675
 30
0.0
 10
31.11467720926978
 20
-8.113847982188128
 30
0.0
 10
31.89405292190552
 20
-8.091386209791986
 30
0.0
 10
32.48525382250539
 20
-8.077844666724479
 30
0.0
 10
32.98145814253898
 20
-8.069110837884484
 30
0.0
 10
33.50492042701846
 20
-8.062491311826419
 30
0.0
 10
34.03016134321517
 20
-8.05880553848261
 30
0.0
 10
34.55876576801018
 20
-8.058053606596758
 30
0.0
 10
35.14173351902075
 20
-8.060142934425732
 30
0.0
 10
35.7805138862672
 20
-8.066715506122835
 30
0.0
 10
36.43554525757627
 20
-8.077974038124694
 30
0.0
 10
37.07931022524993
 20
-8.09301184233491
 30
0.0
 10
37.81473844612243
 20
-8.115581350995678
 30
0.0
 10
38.71677155161457
 20
-8.148987646602574
 30
0.0
 10
39.35057543115418
 20
-8.181501587974974
 30
0.0
 10
39.70492613242062
 20
-8.199679668447779
 30
0.0
1001
PE_URL
1000

  0
LINE
  5
A3
330
1F
100
AcDbEntity
  8
외형선
  6
Continuous
370
    15
100
AcDbLine
 10
26.20018467149224
 20
11.11249999999999
 30
0.0
 11
26.20018467149225
 21
-11.1125
 31
0.0
  0
SPLINE
  5
A5
330
1F
100
AcDbEntity
  8
외형선
  6
Continuous
370
    15
100
AcDbSpline
210
0.0
220
0.0
230
1.0
 70
     8
 71
     3
 72
     8
 73
     4
 74
     0
 42
0.000000001
 43
0.00000001
 40
0.0
 40
0.0
 40
0.0
 40
0.0
 40
1.0
 40
1.0
 40
1.0
 40
1.0
 10
29.16250000000002
 20
8.828595872728624
 30
0.0
 10
28.47687074400563
 20
9.150193991030477
 30
0.0
 10
27.79347778970389
 20
9.465183663175962
 30
0.0
 10
27.11230841325751
 20
9.772710476047019
 30
0.0
  0
LINE
  5
A6
330
1F
100
AcDbEntity
  8
외형선
  6
Continuous
370
    15
100
AcDbLine
 10
29.16250000000002
 20
8.828595872728618
 30
0.0
 11
29.16250000000002
 21
7.009971664870656
 31
0.0
  0
SPLINE
  5
A7
330
1F
100
AcDbEntity
  8
외형선
  6
Continuous
370
    15
100
AcDbSpline
210
0.0
220
0.0
230
1.0
 70
     8
 71
     3
 72
     8
 73
     4
 74
     0
 42
0.000000001
 43
0.00000001
 40
0.0
 40
0.0
 40
0.0
 40
0.0
 40
1.0
 40
1.0
 40
1.0
 40
1.0
 10
27.11240642797545
 20
8.110309285225906
 30
0.0
 10
27.79684047940821
 20
7.750294934416434
 30
0.0
 10
28.48016813693561
 20
7.383539613823544
 30
0.0
 10
29.16250000000002
 20
7.009971664870658
 30
0.0
  0
LINE
  5
A8
330
1F
100
AcDbEntity
  8
외형선
  6
Continuous
370
    15
100
AcDbLine
 10
27.11240642797544
 20
-10.86807091703223
 30
0.0
 11
27.11240642797545
 21
8.110425502670221
 31
0.0
  0
SPLINE
  5
A9
330
1F
100
AcDbEntity
  8
외형선
  6
Continuous
370
    15
100
AcDbSpline
210
0.0
220
0.0
230
1.0
 70
     8
 71
     3
 72
     8
 73
     4
 74
     0
 42
0.000000001
 43
0.00000001
 40
0.0
 40
0.0
 40
0.0
 40
0.0
 40
1.0
 40
1.0
 40
1.0
 40
1.0
 10
29.16250000000002
 20
-8.828595872728634
 30
0.0
 10
28.47687074400563
 20
-9.150193991030488
 30
0.0
 10
27.79347778970389
 20
-9.465183663175972
 30
0.0
 10
27.11230841325751
 20
-9.77271047604703
 30
0.0
  0
LINE
  5
AA
330
1F
100
AcDbEntity
  8
외형선
  6
Continuous
370
    15
100
AcDbLine
 10
27.11240642797544
 20
9.772773331051997
 30
0.0
 11
27.11240642797544
 21
10.86807091703222
 31
0.0
  0
SPLINE
  5
AC
330
1F
100
AcDbEntity
  8
외형선
  6
Continuous
370
    15
100
AcDbSpline
210
0.0
220
0.0
230
1.0
 70
    24
 71
     3
 72
    10
 73
     6
 74
     0
 42
0.000000001
 43
0.00000001
 40
0.0
 40
0.0
 40
0.0
 40
0.0
 40
0.5
 40
0.5
 40
1.0
 40
1.0
 40
1.0
 40
1.0
 10
30.16250000000002
 20
6.575102188280895
 30
0.0
 10
30.16250000000002
 20
6.367748081963367
 30
0.0
 10
30.16250000000002
 20
6.056378735800468
 30
0.0
 10
30.16250000000002
 20
5.289214950888665
 30
0.0
 10
30.16250000000002
 20
4.836026014033536
 30
0.0
 10
30.16250000000002
 20
4.369853636003851
 30
0.0
  0
SPLINE
  5
AD
330
1F
100
AcDbEntity
  8
외형선
  6
Continuous
370
    15
100
AcDbSpline
210
0.0
220
0.0
230
1.0
 70
     8
 71
     3
 72
    10
 73
     6
 74
     0
 42
0.000000001
 43
0.00000001
 40
0.0
 40
0.0
 40
0.0
 40
0.0
 40
0.5
 40
0.5
 40
1.0
 40
1.0
 40
1.0
 40
1.0
 10
30.16250000000002
 20
4.369853636003848
 30
0.0
 10
29.65374504285408
 20
4.533485135187944
 30
0.0
 10
29.14797927430162
 20
4.691500052887603
 30
0.0
 10
28.13125192302993
 20
4.996313328752718
 30
0.0
 10
27.62124696939684
 20
5.142994511840017
 30
0.0
 10
27.1123828138287
 20
5.283144006128786
 30
0.0
  0
SPLINE
  5
AE
330
1F
100
AcDbEntity
  8
외형선
  6
Continuous
370
    15
100
AcDbSpline
210
0.0
220
0.0
230
1.0
 70
     8
 71
     3
 72
     8
 73
     4
 74
     0
 42
0.000000001
 43
0.00000001
 40
0.0
 40
0.0
 40
0.0
 40
0.0
 40
1.0
 40
1.0
 40
1.0
 40
1.0
 10
29.16250000000002
 20
7.009971664870655
 30
0.0
 10
29.49538546712242
 20
6.868668511249456
 30
0.0
 10
29.82840467401949
 20
6.723685979798067
 30
0.0
 10
30.16249999999993
 20
6.575102188280937
 30
0.0
  0
SPLINE
  5
AF
330
1F
100
AcDbEntity
  8
외형선
  6
Continuous
370
    15
100
AcDbSpline
210
0.0
220
0.0
230
1.0
 70
     8
 71
     3
 72
     8
 73
     4
 74
     0
 42
0.000000001
 43
0.00000001
 40
0.0
 40
0.0
 40
0.0
 40
0.0
 40
1.0
 40
1.0
 40
1.0
 40
1.0
 10
30.16250000000006
 20
8.515737115673142
 30
0.0
 10
29.82840467401958
 20
8.624614057317066
 30
0.0
 10
29.49538546712247
 20
8.728916650422093
 30
0.0
 10
29.16250000000002
 20
8.828595872728624
 30
0.0
  0
LINE
  5
B0
330
1F
100
AcDbEntity
  8
외형선
  6
Continuous
370
    15
100
AcDbLine
 10
30.16250000000002
 20
8.515737115673153
 30
0.0
 11
30.16250000000002
 21
6.57510218828106
 31
0.0
  0
SPLINE
  5
B1
330
1F
100
AcDbEntity
  8
외형선
  6
Continuous
370
    15
100
AcDbSpline
210
0.0
220
0.0
230
1.0
 70
     8
 71
     3
 72
    10
 73
     6
 74
     0
 42
0.000000001
 43
0.00000001
 40
0.0
 40
0.0
 40
0.0
 40
0.0
 40
0.5
 40
0.5
 40
1.0
 40
1.0
 40
1.0
 40
1.0
 10
30.16250000000002
 20
-6.572960215594859
 30
0.0
 10
29.6537430138208
 20
-6.43087188140006
 30
0.0
 10
29.14797523243483
 20
-6.281095580300265
 30
0.0
 10
28.13124380005999
 20
-5.96617131851949
 30
0.0
 10
27.62123680385512
 20
-5.801095034980653
 30
0.0
 10
27.11237063701616
 20
-5.629298139024056
 30
0.0
  0
SPLINE
  5
B2
330
1F
100
AcDbEntity
  8
외형선
  6
Continuous
370
    15
100
AcDbSpline
210
0.0
220
0.0
230
1.0
 70
    24
 71
     3
 72
    14
 73
    10
 74
     0
 42
0.000000001
 43
0.00000001
 40
0.0
 40
0.0
 40
0.0
 40
0.0
 40
0.25
 40
0.25
 40
0.5
 40
0.5
 40
0.75
 40
0.75
 40
1.0
 40
1.0
 40
1.0
 40
1.0
 10
30.16250000000002
 20
4.369853636003851
 30
0.0
 10
30.16250000000002
 20
3.540979174989859
 30
0.0
 10
30.16250000000002
 20
2.638250500297778
 30
0.0
 10
30.16250000000002
 20
0.7540455435521849
 30
0.0
 10
30.16250000000002
 20
-0.2266678825703911
 30
0.0
 10
30.16250000000002
 20
-2.171521397470286
 30
0.0
 10
30.16250000000002
 20
-3.134625186984
 30
0.0
 10
30.16250000000002
 20
-4.951731738462455
 30
0.0
 10
30.16250000000002
 20
-5.805065887826923
 30
0.0
 10
30.16250000000002
 20
-6.572960215594858
 30
0.0
  0
SPLINE
  5
B3
330
1F
100
AcDbEntity
  8
외형선
  6
Continuous
370
    15
100
AcDbSpline
210
0.0
220
0.0
230
1.0
 70
    24
 71
     3
 72
    11
 73
     7
 74
     0
 42
0.000000001
 43
0.00000001
 40
0.0
 40
0.0
 40
0.0
 40
0.0
 40
0.211114159081787
 40
0.4249714390350788
 40
0.7360520441554507
 40
1.0
 40
1.0
 40
1.0
 40
1.0
 10
30.16250000000002
 20
-6.572960215594861
 30
0.0
 10
30.16250000000002
 20
-6.77834474354419
 30
0.0
 10
30.16250000000002
 20
-7.191782472106742
 30
0.0
 10
30.16250000000002
 20
-7.709857300641525
 30
0.0
 10
30.16250000000002
 20
-8.091913173233284
 30
0.0
 10
30.16250000000002
 20
-8.117111213514617
 30
0.0
 10
30.16250000000002
 20
-8.128677545476261
 30
0.0
  0
SPLINE
  5
B4
330
1F
100
AcDbEntity
  8
외형선
  6
Continuous
370
    15
100
AcDbSpline
210
0.0
220
0.0
230
1.0
 70
     8
 71
     3
 72
     8
 73
     4
 74
     0
 42
0.000000001
 43
0.00000001
 40
0.0
 40
0.0
 40
0.0
 40
0.0
 40
1.0
 40
1.0
 40
1.0
 40
1.0
 10
30.16250000000006
 20
-8.515737115673153
 30
0.0
 10
29.82840467401958
 20
-8.624614057317078
 30
0.0
 10
29.49538546712247
 20
-8.728916650422104
 30
0.0
 10
29.16250000000002
 20
-8.828595872728634
 30
0.0
  0
SPLINE
  5
B5
330
1F
100
AcDbEntity
  8
외형선
  6
Continuous
370
    15
100
AcDbSpline
210
0.0
220
0.0
230
1.0
 70
    24
 71
     3
 72
     9
 73
     5
 74
     0
 42
0.000000001
 43
0.00000001
 40
0.0
 40
0.0
 40
0.0
 40
0.0
 40
0.4888420770452525
 40
1.0
 40
1.0
 40
1.0
 40
1.0
 10
30.16250000000002
 20
-8.245155317162617
 30
0.0
 10
30.16250000000002
 20
-8.291489458189144
 30
0.0
 10
30.16250000000002
 20
-8.386272913219422
 30
0.0
 10
30.16250000000002
 20
-8.471945099082797
 30
0.0
 10
30.16250000000002
 20
-8.515737115663715
 30
0.0
  0
SPLINE
  5
B6
330
1F
100
AcDbEntity
  8
0
  6
Continuous
 62
     1
370
    15
100
AcDbSpline
210
0.0
220
0.0
230
1.0
 70
     8
 71
     3
 72
    50
 73
    46
 74
     0
 42
0.000000001
 43
0.00000001
 40
0.0
 40
0.0
 40
0.0
 40
0.0
 40
0.0625
 40
0.0625
 40
0.1249999999999999
 40
0.1249999999999999
 40
0.1562499999999999
 40
0.1562499999999999
 40
0.1874999999999999
 40
0.1874999999999999
 40
0.2499999999999998
 40
0.2499999999999998
 40
0.2812499999999998
 40
0.2812499999999998
 40
0.3124999999999998
 40
0.3124999999999998
 40
0.3749999999999996
 40
0.3749999999999996
 40
0.4374999999999994
 40
0.4374999999999994
 40
0.4687499999999993
 40
0.4687499999999993
 40
0.4999999999999994
 40
0.4999999999999994
 40
0.5624999999999994
 40
0.5624999999999994
 40
0.5937499999999993
 40
0.5937499999999993
 40
0.6249999999999993
 40
0.6249999999999993
 40
0.6874999999999993
 40
0.6874999999999993
 40
0.7499999999999993
 40
0.7499999999999993
 40
0.7812499999999993
 40
0.7812499999999993
 40
0.8124999999999996
 40
0.8124999999999996
 40
0.8749999999999997
 40
0.8749999999999997
 40
0.9062499999999998
 40
0.9062499999999998
 40
0.9374999999999998
 40
0.9374999999999998
 40
1.0
 40
1.0
 40
1.0
 40
1.0
 10
30.16250000000001
 20
6.575102188280899
 30
0.0
 10
30.98993826899701
 20
6.207111660747612
 30
0.0
 10
31.81835809109202
 20
5.81780419498485
 30
0.0
 10
33.46820272990612
 20
5.005542766119929
 30
0.0
 10
34.29954948118971
 20
4.58093529025195
 30
0.0
 10
35.53827853628391
 20
3.925440807634407
 30
0.0
 10
35.94981256664038
 20
3.703866797280792
 30
0.0
 10
36.77714620920592
 20
3.254367648235732
 30
0.0
 10
37.19169655981564
 20
3.026661647175028
 30
0.0
 10
38.43350830201304
 20
2.337135755178997
 30
0.0
 10
39.25657936324175
 20
1.869364819123341
 30
0.0
 10
40.4990946693821
 20
1.159477214243616
 30
0.0
 10
40.91342366846276
 20
0.9216953286974168
 30
0.0
 10
41.7394081735999
 20
0.4455470076647163
 30
0.0
 10
42.1508519226863
 20
0.2072225497581033
 30
0.0
 10
43.39168717458595
 20
-0.5089267304418533
 30
0.0
 10
44.22096052057574
 20
-0.9866448315262388
 30
0.0
 10
45.87000359801753
 20
-1.930895331247014
 30
0.0
 10
46.70131142921015
 20
-2.399611498885904
 30
0.0
 10
47.94052766220965
 20
-3.08744426530878
 30
0.0
 10
48.35189918387556
 20
-3.314118955892073
 30
0.0
 10
49.17900703142573
 20
-3.762586263199115
 30
0.0
 10
49.59353531758993
 20
-3.98415207084319
 30
0.0
 10
50.83555416002167
 20
-4.638436076724725
 30
0.0
 10
51.65850246025923
 20
-5.060249384013375
 30
0.0
 10
52.90094346613595
 20
-5.667960785245974
 30
0.0
 10
53.31533893346619
 20
-5.866174771020742
 30
0.0
 10
54.14163725057094
 20
-6.252481350227159
 30
0.0
 10
54.55295460026884
 20
-6.440497206984434
 30
0.0
 10
55.79343462625311
 20
-6.989586869888628
 30
0.0
 10
56.62362231146626
 20
-7.334760031225716
 30
0.0
 10
58.27182020836107
 20
-7.974301140017753
 30
0.0
 10
59.10306670681926
 20
-8.270354674301093
 30
0.0
 10
60.342737187361
 20
-8.67236530669381
 30
0.0
 10
60.75401842174561
 20
-8.799321104046992
 30
0.0
 10
61.58087843502488
 20
-9.039357551358536
 30
0.0
 10
61.99537355035121
 20
-9.15231178117127
 30
0.0
 10
63.23756631331231
 20
-9.468725689255203
 30
0.0
 10
64.06045323032052
 20
-9.649509706132779
 30
0.0
 10
65.30278671861007
 20
-9.873987930289024
 30
0.0
 10
65.71723755967224
 20
-9.940951810516692
 30
0.0
 10
66.54382772147116
 20
-10.05870309684899
 30
0.0
 10
66.95509089799876
 20
-10.10947318338557
 30
0.0
 10
68.19518265535302
 20
-10.23760422886133
 30
0.0
 10
69.0263454139704
 20
-10.29043182381915
 30
0.0
 10
69.85000000000002
 20
-10.31002874965088
 30
0.0
1001
PE_URL
1000

  0
SPLINE
  5
B7
330
1F
100
AcDbEntity
  8
0
  6
Continuous
 62
     1
370
    15
100
AcDbSpline
210
0.0
220
0.0
230
1.0
 70
     8
 71
     3
 72
    11
 73
     7
 74
     0
 42
0.000000001
 43
0.00000001
 40
0.0
 40
0.0
 40
0.0
 40
0.0
 40
0.2034741167212946
 40
0.4568187711341548
 40
0.7284091524994772
 40
1.0
 40
1.0
 40
1.0
 40
1.0
 10
44.2201361269457
 20
-0.9825828967096829
 30
0.0
 10
43.26673663677873
 20
-0.5990770343619589
 30
0.0
 10
41.12626397855574
 20
0.2619301521216121
 30
0.0
 10
37.7131628318002
 20
1.637948053985445
 30
0.0
 10
33.98053764712995
 20
3.083531559143262
 30
0.0
 10
31.43517994381617
 20
3.941079365079881
 30
0.0
 10
30.16250000000002
 20
4.369853636003853
 30
0.0
1001
PE_URL
1000

  0
SPLINE
  5
B8
330
1F
100
AcDbEntity
  8
외형선
  6
Continuous
370
    15
100
AcDbSpline
210
0.0
220
0.0
230
1.0
 70
    24
 71
     3
 72
    10
 73
     6
 74
     0
 42
0.000000001
 43
0.00000001
 40
0.0
 40
0.0
 40
0.0
 40
0.0
 40
0.5
 40
0.5
 40
1.0
 40
1.0
 40
1.0
 40
1.0
 10
30.16250000000002
 20
6.575102188280897
 30
0.0
 10
30.16250000000002
 20
6.367748081963369
 30
0.0
 10
30.16250000000002
 20
6.05637873580047
 30
0.0
 10
30.16250000000002
 20
5.289214950888665
 30
0.0
 10
30.16250000000002
 20
4.836026014033538
 30
0.0
 10
30.16250000000002
 20
4.369853636003851
 30
0.0
  0
SPLINE
  5
B9
330
1F
100
AcDbEntity
  8
0
  6
Continuous
 62
     1
370
    15
100
AcDbSpline
210
0.0
220
0.0
230
1.0
 70
     8
 71
     3
 72
    50
 73
    46
 74
     0
 42
0.000000001
 43
0.00000001
 40
0.0
 40
0.0
 40
0.0
 40
0.0
 40
0.0624999999999993
 40
0.0624999999999993
 40
0.0937499999999992
 40
0.0937499999999992
 40
0.124999999999999
 40
0.124999999999999
 40
0.1874999999999991
 40
0.1874999999999991
 40
0.218749999999999
 40
0.218749999999999
 40
0.2499999999999989
 40
0.2499999999999989
 40
0.3124999999999988
 40
0.3124999999999988
 40
0.3749999999999987
 40
0.3749999999999987
 40
0.4062499999999987
 40
0.4062499999999987
 40
0.4374999999999987
 40
0.4374999999999987
 40
0.4999999999999986
 40
0.4999999999999986
 40
0.5312499999999986
 40
0.5312499999999986
 40
0.5624999999999987
 40
0.5624999999999987
 40
0.6249999999999987
 40
0.6249999999999987
 40
0.6874999999999989
 40
0.6874999999999989
 40
0.718749999999999
 40
0.718749999999999
 40
0.7499999999999991
 40
0.7499999999999991
 40
0.8124999999999993
 40
0.8124999999999993
 40
0.8437499999999994
 40
0.8437499999999994
 40
0.8749999999999994
 40
0.8749999999999994
 40
0.9374999999999997
 40
0.9374999999999997
 40
1.0
 40
1.0
 40
1.0
 40
1.0
 10
69.85000000000002
 20
-9.791883594386668
 30
0.0
 10
69.02634541397035
 20
-9.641491522010307
 30
0.0
 10
68.19518265535291
 20
-9.459140437705495
 30
0.0
 10
66.95509089799855
 20
-9.141436943982358
 30
0.0
 10
66.5438277214709
 20
-9.028307838759584
 30
0.0
 10
65.71723755967191
 20
-8.787385981649471
 30
0.0
 10
65.30278671860972
 20
-8.659656711611317
 30
0.0
 10
64.06045323032009
 20
-8.256005625292532
 30
0.0
 10
63.23756631331181
 20
-7.960119124647456
 30
0.0
 10
61.99537355035061
 20
-7.478496036901978
 30
0.0
 10
61.58087843502424
 20
-7.311755093715292
 30
0.0
 10
60.75401842174494
 20
-6.967095397338455
 30
0.0
 10
60.34273718736028
 20
-6.789344506199112
 30
0.0
 10
59.10306670681846
 20
-6.239359512691775
 30
0.0
 10
58.2718202083602
 20
-5.850698416222534
 30
0.0
 10
56.62362231146528
 20
-5.040651044070636
 30
0.0
 10
55.79343462625205
 20
-4.617120066876247
 30
0.0
 10
54.55295460026768
 20
-3.962440625340054
 30
0.0
 10
54.14163725056976
 20
-3.741247222051619
 30
0.0
 10
53.31533893346495
 20
-3.292565362448739
 30
0.0
 10
52.90094346613468
 20
-3.065174389681105
 30
0.0
 10
51.65850246025788
 20
-2.376294903314484
 30
0.0
 10
50.83555416002022
 20
-1.908928179536821
 30
0.0
 10
49.59353531758842
 20
-1.199518727182741
 30
0.0
 10
49.17900703142418
 20
-0.9617949029567818
 30
0.0
 10
48.35189918387393
 20
-0.4855575991242984
 30
0.0
 10
47.940527662208
 20
-0.2472779320458853
 30
0.0
 10
46.7013114292084
 20
0.4685629633230694
 30
0.0
 10
45.87000359801573
 20
0.9468034615555191
 30
0.0
 10
44.22096052057383
 20
1.891569252825985
 30
0.0
 10
43.39168717458394
 20
2.360292268900118
 30
0.0
 10
42.15085192268423
 20
3.049191096833688
 30
0.0
 10
41.73940817359779
 20
3.276162784021066
 30
0.0
 10
40.91342366846058
 20
3.725060344888805
 30
0.0
 10
40.49909466937991
 20
3.946940224645282
 30
0.0
 10
39.25657936323945
 20
4.602444914629995
 30
0.0
 10
38.43350830201068
 20
5.025146501402666
 30
0.0
 10
37.1916965598132
 20
5.634230876042039
 30
0.0
 10
36.77714620920345
 20
5.832991299322464
 30
0.0
 10
35.94981256663786
 20
6.220547542881798
 30
0.0
 10
35.53827853628135
 20
6.40916096117196
 30
0.0
 10
34.29954948118705
 20
6.959775261391472
 30
0.0
 10
33.46820272990338
 20
7.306415554518861
 30
0.0
 10
31.81835809108918
 20
7.948906542514884
 30
0.0
 10
30.98993826899409
 20
8.246086686225182
 30
0.0
 10
30.16249999999704
 20
8.515737115674126
 30
0.0
1001
PE_URL
1000

  0
SPLINE
  5
BA
330
1F
100
AcDbEntity
  8
0
  6
Continuous
 62
     1
370
    15
100
AcDbSpline
210
0.0
220
0.0
230
1.0
 70
     8
 71
     3
 72
    15
 73
    11
 74
     0
 42
0.000000001
 43
0.00000001
 40
0.0
 40
0.0
 40
0.0
 40
0.0
 40
0.1329499513481009
 40
0.2659332336425724
 40
0.3989367051950978
 40
0.5319471638933879
 40
0.6649513866888109
 40
0.7979361692186578
 40
0.9308883653082332
 40
1.0
 40
1.0
 40
1.0
 40
1.0
 10
69.85000000000002
 20
-8.141207552949535
 30
0.0
 10
68.6632249646551
 20
-7.893248829549463
 30
0.0
 10
66.2893773659507
 20
-7.397269218763336
 30
0.0
 10
62.72809486444746
 20
-6.274355866830359
 30
0.0
 10
59.16620543099511
 20
-4.926092596046945
 30
0.0
 10
55.60409663474039
 20
-3.377019099336487
 30
0.0
 10
52.04218444692474
 20
-1.694552186215221
 30
0.0
 10
48.48085450529278
 20
0.0499954371083935
 30
0.0
 10
45.49004657812308
 20
1.5303047169947
 30
0.0
 10
43.68631566861072
 20
2.367036708916022
 30
0.0
 10
43.06938788287868
 20
2.65322308644322
 30
0.0
1001
PE_URL
1000

  0
LINE
  5
BB
330
1F
100
AcDbEntity
  8
0
  6
Continuous
 62
     1
370
    15
100
AcDbLine
 10
69.85000000000002
 20
-9.791883594386675
 30
0.0
 11
69.85000000000002
 21
-8.141207552949535
 31
0.0
1001
PE_URL
1000

  0
LINE
  5
BC
330
1F
100
AcDbEntity
  8
0
  6
Continuous
 62
     1
370
    15
100
AcDbLine
 10
69.85000000000002
 20
-10.31002874965089
 30
0.0
 11
69.85000000000002
 21
-9.791883594386675
 31
0.0
1001
PE_URL
1000

  0
SPLINE
  5
BD
330
1F
100
AcDbEntity
  8
0
  6
Continuous
 62
     1
370
    15
100
AcDbSpline
210
0.0
220
0.0
230
1.0
 70
     8
 71
     3
 72
    10
 73
     6
 74
     0
 42
0.000000001
 43
0.00000001
 40
0.0
 40
0.0
 40
0.0
 40
0.0
 40
0.5
 40
0.5
 40
1.0
 40
1.0
 40
1.0
 40
1.0
 10
69.85000000000002
 20
-2.757613149343398
 30
0.0
 10
68.99405189114964
 20
-2.084697382489832
 30
0.0
 10
68.1492873179193
 20
-1.390213294025292
 30
0.0
 10
66.48202263426282
 20
0.0416936377457245
 30
0.0
 10
65.65947597532531
 20
0.7790267086136822
 30
0.0
 10
64.85000000000201
 20
1.541567613340704
 30
0.0
1001
PE_URL
1000

  0
LINE
  5
BE
330
1F
100
AcDbEntity
  8
0
  6
Continuous
 62
     1
370
    15
100
AcDbLine
 10
64.85000000000002
 20
2.937719435296586
 30
0.0
 11
69.85000000000002
 21
0.0
 31
0.0
1001
PE_URL
1000

  0
LINE
  5
BF
330
1F
100
AcDbEntity
  8
0
  6
Continuous
 62
     1
370
    15
100
AcDbLine
 10
69.85000000000002
 20
0.0
 30
0.0
 11
69.85000000000002
 21
-2.757613149343399
 31
0.0
1001
PE_URL
1000

  0
SPLINE
  5
C0
330
1F
100
AcDbEntity
  8
0
  6
Continuous
 62
     1
370
    15
100
AcDbSpline
210
0.0
220
0.0
230
1.0
 70
     8
 71
     3
 72
    15
 73
    11
 74
     0
 42
0.000000001
 43
0.00000001
 40
0.0
 40
0.0
 40
0.0
 40
0.0
 40
0.1130093867690797
 40
0.2260182230545421
 40
0.3676509434019014
 40
0.5092769315750019
 40
0.6508819311668159
 40
0.7924517487437828
 40
0.9340168287060014
 40
1.0
 40
1.0
 40
1.0
 40
1.0
 10
64.85000000007872
 20
2.279221589079051
 30
0.0
 10
63.9027008708884
 20
2.694231007486656
 30
0.0
 10
62.00810722692662
 20
3.524247822736289
 30
0.0
 10
58.92646552463883
 20
4.761369775229727
 30
0.0
 10
55.60407291908184
 20
5.944538113790259
 30
0.0
 10
52.04222514208408
 20
6.975074042108394
 30
0.0
 10
48.48089271091881
 20
7.734737208354738
 30
0.0
 10
44.92023778004236
 20
8.170259318610361
 30
0.0
 10
41.993571371146
 20
8.317646194789146
 30
0.0
 10
40.25359314823123
 20
8.197208438180713
 30
0.0
 10
39.7004240396721
 20
8.158919196635871
 30
0.0
1001
PE_URL
1000

  0
SPLINE
  5
C1
330
1F
100
AcDbEntity
  8
0
  6
Continuous
 62
     1
370
    15
100
AcDbSpline
210
0.0
220
0.0
230
1.0
 70
    24
 71
     3
 72
     8
 73
     4
 74
     0
 42
0.000000001
 43
0.00000001
 40
0.0
 40
0.0
 40
0.0
 40
0.0
 40
1.0
 40
1.0
 40
1.0
 40
1.0
 10
64.85000000000004
 20
1.541567613331835
 30
0.0
 10
64.85000000000004
 20
1.790034597079993
 30
0.0
 10
64.85000000000002
 20
2.036158352876973
 30
0.0
 10
64.85000000000002
 20
2.279221589113956
 30
0.0
1001
PE_URL
1000

  0
SPLINE
  5
C2
330
1F
100
AcDbEntity
  8
0
  6
Continuous
 62
     1
370
    15
100
AcDbSpline
210
0.0
220
0.0
230
1.0
 70
    24
 71
     3
 72
    10
 73
     6
 74
     0
 42
0.000000001
 43
0.00000001
 40
0.0
 40
0.0
 40
0.0
 40
0.0
 40
0.5
 40
0.5
 40
1.0
 40
1.0
 40
1.0
 40
1.0
 10
69.85000000000002
 20
-8.141207552949533
 30
0.0
 10
69.85000000000002
 20
-7.517120520283015
 30
0.0
 10
69.85000000000002
 20
-6.728562624559879
 30
0.0
 10
69.85000000000001
 20
-4.89524140723608
 30
0.0
 10
69.85000000000002
 20
-3.852066177985705
 30
0.0
 10
69.85000000000002
 20
-2.757613149343728
 30
0.0
1001
PE_URL
1000

  0
SPLINE
  5
C3
330
1F
100
AcDbEntity
  8
0
  6
Continuous
 62
     1
370
    15
100
AcDbSpline
210
0.0
220
0.0
230
1.0
 70
    24
 71
     3
 72
    10
 73
     6
 74
     0
 42
0.000000001
 43
0.00000001
 40
0.0
 40
0.0
 40
0.0
 40
0.0
 40
0.5
 40
0.5
 40
1.0
 40
1.0
 40
1.0
 40
1.0
 10
64.85000000000002
 20
2.279221589113954
 30
0.0
 10
64.85000000000001
 20
2.930490490764
 30
0.0
 10
64.85000000000002
 20
3.549290110444904
 30
0.0
 10
64.85000000000002
 20
4.664673689832865
 30
0.0
 10
64.85000000000002
 20
5.160757541772302
 30
0.0
 10
64.85000000000002
 20
5.572296685583259
 30
0.0
1001
PE_URL
1000

  0
SPLINE
  5
C4
330
1F
100
AcDbEntity
  8
0
  6
Continuous
 62
     1
370
    15
100
AcDbSpline
210
0.0
220
0.0
230
1.0
 70
     8
 71
     3
 72
     9
 73
     5
 74
     0
 42
0.000000001
 43
0.00000001
 40
0.0
 40
0.0
 40
0.0
 40
0.0
 40
0.9283567871659058
 40
1.0
 40
1.0
 40
1.0
 40
1.0
 10
69.85000000000002
 20
7.223124999999993
 30
0.0
 10
68.66323174165126
 20
7.218828710880026
 30
0.0
 10
67.3848781229184
 20
7.214200868245208
 30
0.0
 10
66.1064728865984
 20
7.058719678906982
 30
0.0
 10
66.0148838281645
 20
7.047580506967525
 30
0.0
1001
PE_URL
1000

  0
SPLINE
  5
C5
330
1F
100
AcDbEntity
  8
0
  6
Continuous
 62
     1
370
    15
100
AcDbSpline
210
0.0
220
0.0
230
1.0
 70
     8
 71
     3
 72
     8
 73
     4
 74
     0
 42
0.000000001
 43
0.00000001
 40
0.0
 40
0.0
 40
0.0
 40
0.0
 40
1.0
 40
1.0
 40
1.0
 40
1.0
 10
69.85000000000002
 20
7.223124999999999
 30
0.0
 10
68.16596526849708
 20
6.76655750917366
 30
0.0
 10
66.49621092951801
 20
6.223096727994649
 30
0.0
 10
64.85000000000002
 20
5.572296685583263
 30
0.0
1001
PE_URL
1000

  0
SPLINE
  5
C6
330
1F
100
AcDbEntity
  8
0
  6
Continuous
 62
     1
370
    15
100
AcDbSpline
210
0.0
220
0.0
230
1.0
 70
     8
 71
     3
 72
    12
 73
     8
 74
     0
 42
0.000000001
 43
0.00000001
 40
0.0
 40
0.0
 40
0.0
 40
0.0
 40
0.1725040592257122
 40
0.3721499948602474
 40
0.571847588117496
 40
0.7859236153916053
 40
1.0
 40
1.0
 40
1.0
 40
1.0
 10
47.99648340812902
 20
-7.741532055790611
 30
0.0
 10
46.97105554682793
 20
-7.888299835557262
 30
0.0
 10
44.75885848302762
 20
-8.204927912200619
 30
0.0
 10
41.35963053718697
 20
-8.303342178277024
 30
0.0
 10
37.71318908171969
 20
-8.098082976346282
 30
0.0
 10
33.98052933243161
 20
-7.552393246970392
 30
0.0
 10
31.43517715225745
 20
-6.899438074371293
 30
0.0
 10
30.16250000000002
 20
-6.572960215594861
 30
0.0
1001
PE_URL
1000

  0
SPLINE
  5
C7
330
1F
100
AcDbEntity
  8
외형선
  6
Continuous
370
    15
100
AcDbSpline
210
0.0
220
0.0
230
1.0
 70
    24
 71
     3
 72
    14
 73
    10
 74
     0
 42
0.000000001
 43
0.00000001
 40
0.0
 40
0.0
 40
0.0
 40
0.0
 40
0.25
 40
0.25
 40
0.5
 40
0.5
 40
0.75
 40
0.75
 40
1.0
 40
1.0
 40
1.0
 40
1.0
 10
30.16250000000002
 20
4.36985363600385
 30
0.0
 10
30.16250000000002
 20
3.540979174989856
 30
0.0
 10
30.16250000000002
 20
2.638250500297775
 30
0.0
 10
30.16250000000002
 20
0.754045543552182
 30
0.0
 10
30.16250000000002
 20
-0.2266678825703929
 30
0.0
 10
30.16250000000002
 20
-2.171521397470288
 30
0.0
 10
30.16250000000002
 20
-3.134625186984003
 30
0.0
 10
30.16250000000002
 20
-4.951731738462461
 30
0.0
 10
30.16250000000002
 20
-5.805065887826927
 30
0.0
 10
30.16250000000002
 20
-6.572960215594859
 30
0.0
  0
SPLINE
  5
C8
330
1F
100
AcDbEntity
  8
외형선
  6
Continuous
370
    15
100
AcDbSpline
210
0.0
220
0.0
230
1.0
 70
    24
 71
     3
 72
    11
 73
     7
 74
     0
 42
0.000000001
 43
0.00000001
 40
0.0
 40
0.0
 40
0.0
 40
0.0
 40
0.2112849362144183
 40
0.4253152123003316
 40
0.7366474606737698
 40
1.0
 40
1.0
 40
1.0
 40
1.0
 10
30.16250000000002
 20
-6.572960215594861
 30
0.0
 10
30.16250000000002
 20
-6.778346118651446
 30
0.0
 10
30.16250000000002
 20
-7.191786615296023
 30
0.0
 10
30.16250000000002
 20
-7.70983728530531
 30
0.0
 10
30.16250000000002
 20
-8.09162802680248
 30
0.0
 10
30.16250000000002
 20
-8.11684983093922
 30
0.0
 10
30.16250000000002
 20
-8.128407864678698
 30
0.0
  0
LINE
  5
C9
330
1F
100
AcDbEntity
  8
0
  6
Continuous
 62
     1
370
    15
100
AcDbLine
 10
69.85000000000002
 20
0.0
 30
0.0
 11
69.85000000000002
 21
7.223124999999997
 31
0.0
1001
PE_URL
1000

  0
SPLINE
  5
CA
330
1F
100
AcDbEntity
  8
0
  6
Continuous
 62
     1
370
    15
100
AcDbSpline
210
0.0
220
0.0
230
1.0
 70
    24
 71
     3
 72
    10
 73
     6
 74
     0
 42
0.000000001
 43
0.00000001
 40
0.0
 40
0.0
 40
0.0
 40
0.0
 40
0.5
 40
0.5
 40
1.0
 40
1.0
 40
1.0
 40
1.0
 10
69.85000000000002
 20
7.223124999999995
 30
0.0
 10
69.85000000000002
 20
7.660972849930463
 30
0.0
 10
69.85000000000002
 20
8.169792600622563
 30
0.0
 10
69.85000000000002
 20
9.237295067164823
 30
0.0
 10
69.85000000000002
 20
9.793251515676438
 30
0.0
 10
69.85000000000002
 20
10.31002874965088
 30
0.0
1001
PE_URL
1000

  0
SPLINE
  5
CB
330
1F
100
AcDbEntity
  8
0
  6
Continuous
 62
     1
370
    15
100
AcDbSpline
210
0.0
220
0.0
230
1.0
 70
     8
 71
     3
 72
    16
 73
    12
 74
     0
 42
0.000000001
 43
0.00000001
 40
0.0
 40
0.0
 40
0.0
 40
0.0
 40
0.0288327407286748
 40
0.1334711231632688
 40
0.2383809186749229
 40
0.3436550290604611
 40
0.506012434952263
 40
0.6690488226632583
 40
0.7515697455468425
 40
0.9170336399154517
 40
1.0
 40
1.0
 40
1.0
 40
1.0
 10
55.6533284847747
 20
6.917607745310771
 30
0.0
 10
55.78979127251661
 20
6.977365314739667
 30
0.0
 10
56.42149818242507
 20
7.253992153105039
 30
0.0
 10
57.5491062146846
 20
7.700604995110958
 30
0.0
 10
59.03924619806978
 20
8.249500871583857
 30
0.0
 10
60.80177592008912
 20
8.827737623749865
 30
0.0
 10
62.84051687918485
 20
9.390821546612228
 30
0.0
 10
64.77051843527704
 20
9.79405989583598
 30
0.0
 10
66.7157674051285
 20
10.09388625702366
 30
0.0
 10
68.28207724167498
 20
10.25480892815144
 30
0.0
 10
69.4574647765081
 20
10.29620426444689
 30
0.0
 10
69.84999999999977
 20
10.31002874965087
 30
0.0
1001
PE_URL
1000

  0
LINE
  5
CC
330
1F
100
AcDbEntity
  8
0
  6
Continuous
 62
     1
370
    15
100
AcDbLine
 10
31.27807886242679
 20
-8.110415217452731
 30
0.0
 11
30.16249999999704
 21
-8.515737115674137
 31
0.0
1001
PE_URL
1000

  0
SPLINE
  5
CD
330
1F
100
AcDbEntity
  8
외형선
  6
Continuous
370
    15
100
AcDbSpline
210
0.0
220
0.0
230
1.0
 70
    24
 71
     3
 72
     9
 73
     5
 74
     0
 42
0.000000001
 43
0.00000001
 40
0.0
 40
0.0
 40
0.0
 40
0.0
 40
0.4948831174657906
 40
1.0
 40
1.0
 40
1.0
 40
1.0
 10
30.16250000000002
 20
-8.245155317162618
 30
0.0
 10
30.16250000000002
 20
-8.291240301166695
 30
0.0
 10
30.16250000000002
 20
-8.384363267737209
 30
0.0
 10
30.16250000000002
 20
-8.471648082259591
 30
0.0
 10
30.16250000000002
 20
-8.515737115663716
 30
0.0
  0
LINE
  5
CE
330
1F
100
AcDbEntity
  8
중심선
 62
     1
100
AcDbLine
 10
-76.85
 20
-0.0000000000000035
 30
0.0
 11
76.85
 21
0.00000000000001
 31
0.0
  0
LINE
  5
CF
330
1F
100
AcDbEntity
  8
참조1
100
AcDbLine
 10
0.0
 20
-0.0000000000000094
 30
0.0
 11
0.0000000000000071
 21
-40.00000000000001
 31
0.0
  0
LINE
  5
D0
330
1F
100
AcDbEntity
  8
참조1
100
AcDbLine
 10
0.0000000000000071
 20
-40.00000000000001
 30
0.0
 11
-9.703215596699206
 21
-40.0
 31
0.0
  0
CIRCLE
  5
D1
330
1F
100
AcDbEntity
  8
해칭선
100
AcDbCircle
 10
0.0
 20
0.0
 30
0.0
 40
3.000000000000002
  0
INSERT
  5
D2
330
1F
100
AcDbEntity
  8
0
  6
Continuous
 62
     7
100
AcDbBlockReference
 66
     1
  2
블럭10
 10
-13.94027293212521
 20
-52.04717430164393
 30
0.0
  0
ATTRIB
  5
D3
330
D2
100
AcDbEntity
  8
FORMAT
 62
     2
100
AcDbText
 10
-23.12156822086649
 20
-49.97180738881174
 30
0.0
 40
4.233333333333333
  1
E2050052 [ 2 FLUTE ]
 41
0.75
  7
SLDTEXTSTYLE0
 11
-23.12156822086649
 21
-52.08847405547841
 31
0.0
100
AcDbAttribute
  2
AUTOATTR0
 70
     0
 74
     1
  0
SEQEND
  5
D4
330
D2
100
AcDbEntity
  8
0
  6
Continuous
 62
     7
  0
HATCH
  5
D5
330
1F
100
AcDbEntity
  8
중심선
100
AcDbHatch
 10
0.0
 20
0.0
 30
0.0
210
0.0
220
0.0
230
1.0
  2
SOLID
 70
     1
 71
     0
 91
        1
 92
        0
 93
        4
 72
     1
 10
-8.225363627744372
 20
-35.8
 11
-11.67163887158165
 21
-35.8
 72
     1
 10
-11.67163887158165
 20
-35.8
 11
-13.79986873078568
 21
-38.3363255805726
 72
     1
 10
-13.79986873078568
 20
-38.3363255805726
 11
-10.35356040183525
 21
-38.33628615127011
 72
     1
 10
-10.35356040183525
 20
-38.33628615127011
 11
-8.225363627744372
 21
-35.8
 97
        0
 75
     0
 76
     1
 98
        1
 10
19.75671167873053
 20
-0.0010749287238986
  0
HATCH
  5
D6
330
1F
100
AcDbEntity
  8
중심선
100
AcDbHatch
 10
0.0
 20
0.0
 30
0.0
210
0.0
220
0.0
230
1.0
  2
SOLID
 70
     1
 71
     0
 91
        1
 92
        0
 93
        4
 72
     1
 10
-3.212599636708418
 20
-35.79999999999998
 11
-6.658874880545675
 21
-35.8
 72
     1
 10
-6.658874880545675
 20
-35.8
 11
-11.19001288890309
 21
-41.20000000000002
 72
     1
 10
-11.19001288890309
 20
-41.20000000000002
 11
-7.743737645065806
 21
-41.20000000000002
 72
     1
 10
-7.743737645065806
 20
-41.20000000000002
 11
-3.212599636708418
 21
-35.79999999999998
 97
        0
 75
     0
 76
     1
 98
        1
 10
19.75671167873053
 20
-0.0010749287238986
  0
HATCH
  5
D7
330
1F
100
AcDbEntity
  8
중심선
100
AcDbHatch
 10
0.0
 20
0.0
 30
0.0
210
0.0
220
0.0
230
1.0
  2
SOLID
 70
     1
 71
     0
 91
        1
 92
        0
 93
        4
 72
     1
 10
1.80016435432745
 20
-35.80000000000003
 11
-1.646110889509639
 21
-35.8
 72
     1
 10
-1.646110889509639
 20
-35.8
 11
-8.69454779139889
 21
-44.20000000000002
 72
     1
 10
-8.69454779139889
 20
-44.20000000000002
 11
-5.248272547561605
 21
-44.20000000000002
 72
     1
 10
-5.248272547561605
 20
-44.20000000000002
 11
1.80016435432745
 21
-35.80000000000003
 97
        0
 75
     0
 76
     1
 98
        1
 10
19.75671167873053
 20
-0.0010749287238986
  0
HATCH
  5
D8
330
1F
100
AcDbEntity
  8
중심선
100
AcDbHatch
 10
0.0
 20
0.0
 30
0.0
210
0.0
220
0.0
230
1.0
  2
SOLID
 70
     1
 71
     0
 91
        1
 92
        0
 93
        6
 72
     3
 10
6.600054785339676
 20
-40.00000000005127
 11
3.960054785062283
 21
1.540882976769353E-10
 40
0.3939339440162628
 50
17.09539180608436
 51
320.0019657685082
 73
     0
 72
     1
 10
8.283054441040242
 20
-38.58789400463833
 11
10.58835631474131
 21
-36.65356729459038
 72
     3
 10
6.600054785286829
 20
-40.00000000000015
 11
6.600054785286829
 21
-1.278976924368180E-13
 40
0.636358354079598
 50
39.99873849337411
 51
368.4976242363724
 73
     1
 72
     1
 10
13.02538727718744
 20
-39.03999999993002
 11
5.280122092122751
 21
-39.03999999993002
 72
     1
 10
5.280122092122751
 20
-39.03999999993002
 11
5.280097047676817
 21
-40.95999999992991
 72
     1
 10
5.280097047676817
 20
-40.95999999992991
 11
9.721476817148854
 21
-40.95999999992988
 97
        0
 75
     0
 76
     1
 98
        1
 10
19.75671167873053
 20
-0.0010749287238986
  0
DIMENSION
  5
D9
330
1F
100
AcDbEntity
  8
치수문자_일반주서
100
AcDbDimension
  2
_D
 10
-84.84999999999992
 20
-11.11250000000022
 30
0.0
 11
-84.85000000000005
 21
30.78949999999993
 31
0.0
 70
   160
  1
%%c<>
 71
     2
 42
22.22499999999999
 52
-270.0
  3
SLDDIMSTYLE1
100
AcDbAlignedDimension
 13
-26.20018467149224
 23
11.11249999999998
 33
0.0
 14
-26.20018467149218
 24
-11.1125
 34
0.0
 50
90.0000000000002
100
AcDbRotatedDimension
1001
PE_URL
1000

1001
ACAD
1000
DSTYLE
1002
{
1070
   171
1070
     8
1070
   273
1070
     7
1070
   140
1040
4.0
1002
}
1001
ACAD_DSTYLE_DIMFLIPARROW_SYMBOL
1070
   385
1070
     0
1001
ACAD_DSTYLE_DIMFLIPARROW_WHICH_SYMBOL
1070
   386
1070
     3
  0
DIMENSION
  5
EE
330
1F
100
AcDbEntity
  8
치수문자_일반주서
100
AcDbDimension
  2
_D_1
 10
84.85000000000001
 20
10.31002874965094
 30
0.0
 11
84.84999999999994
 21
31.73702874965094
 31
0.0
 70
   160
  1
%%c<>
 71
     2
 42
20.62005749930177
 52
-270.0
  3
SLDDIMSTYLE1
100
AcDbAlignedDimension
 13
69.85000000000002
 23
-10.31002874965089
 33
0.0
 14
69.85000000000002
 24
10.31002874965088
 34
0.0
 50
90.0000000000002
100
AcDbRotatedDimension
1001
PE_URL
1000

1001
ACAD
1000
DSTYLE
1002
{
1070
   171
1070
     8
1070
   273
1070
     7
1070
   140
1040
4.0
1002
}
1001
ACAD_DSTYLE_DIMFLIPARROW_SYMBOL
1070
   385
1070
     0
1001
ACAD_DSTYLE_DIMFLIPARROW_WHICH_SYMBOL
1070
   386
1070
     3
  0
DIMENSION
  5
102
330
1F
100
AcDbEntity
  8
치수문자_일반주서
100
AcDbDimension
  2
_D_2
 10
30.16250000000002
 20
26.11249999999999
 30
0.0
 11
50.00625000000002
 21
26.11249999999999
 31
0.0
 70
   160
  1
<>
 71
     2
 42
39.6875
  3
SLDDIMSTYLE1
100
AcDbAlignedDimension
 13
69.85000000000002
 23
10.31002874965088
 33
0.0
 14
30.16250000000002
 24
8.515737115673156
 34
0.0
 50
0.0000000000000103
100
AcDbRotatedDimension
1001
PE_URL
1000

1001
ACAD
1000
DSTYLE
1002
{
1070
   171
1070
     8
1070
   273
1070
     7
1070
   140
1040
4.0
1002
}
  0
DIMENSION
  5
116
330
1F
100
AcDbEntity
  8
치수문자_일반주서
100
AcDbDimension
  2
_D_3
 10
69.85000000000002
 20
41.11249999999999
 30
0.0
 11
0.0000000000000284
 21
41.11249999999999
 31
0.0
 70
   160
  1
<>
 71
     2
 42
139.7
  3
SLDDIMSTYLE1
100
AcDbAlignedDimension
 13
-69.85
 23
10.3100287496508
 33
0.0
 14
69.85000000000002
 24
10.31002874965088
 34
0.0
 50
-0.0000000000000058
100
AcDbRotatedDimension
1001
PE_URL
1000

1001
ACAD
1000
DSTYLE
1002
{
1070
   171
1070
     8
1070
   273
1070
     7
1070
   140
1040
4.0
1002
}
  0
LINE
  5
12A
330
1F
100
AcDbEntity
  8
참조1
100
AcDbLine
 10
88.26912503295506
 20
7.439999999999997
 30
0.0
 11
88.26912503295506
 21
-7.440000000000007
 31
0.0
  0
LINE
  5
12B
330
1F
100
AcDbEntity
  8
참조1
100
AcDbLine
 10
100.9691250329551
 20
5.439999999999997
 30
0.0
 11
88.26912503295506
 21
5.439999999999997
 31
0.0
  0
SOLID
  5
12C
330
1F
100
AcDbEntity
  8
참조1
100
AcDbTrace
 10
88.26912503295506
 20
5.439999999999997
 30
0.0
 11
94.61912503295505
 21
4.423999999999997
 31
0.0
 12
94.61912503295505
 22
6.455999999999997
 32
0.0
 13
94.61912503295505
 23
6.455999999999997
 33
0.0
  0
LINE
  5
12D
330
1F
100
AcDbEntity
  8
참조1
100
AcDbLine
 10
100.9691250329551
 20
-5.440000000000007
 30
0.0
 11
88.26912503295506
 21
-5.440000000000007
 31
0.0
  0
SOLID
  5
12E
330
1F
100
AcDbEntity
  8
참조1
100
AcDbTrace
 10
88.26912503295506
 20
-5.440000000000007
 30
0.0
 11
94.61912503295505
 21
-6.456000000000008
 31
0.0
 12
94.61912503295505
 22
-4.424000000000007
 32
0.0
 13
94.61912503295505
 23
-4.424000000000007
 33
0.0
  0
MTEXT
  5
12F
330
1F
100
AcDbEntity
  8
참조1
100
AcDbMText
 10
97.65347516558106
 20
11.01029177718832
 30
0.0
 40
3.5
 41
0.0
 71
     1
 72
     1
  1
A
  7
SLDTEXTSTYLE0
 73
     1
 44
1.0
  0
MTEXT
  5
130
330
1F
100
AcDbEntity
  8
참조1
100
AcDbMText
 10
97.65347516558106
 20
0.1302917771883207
 30
0.0
 40
3.5
 41
0.0
 71
     1
 72
     1
  1
A
  7
SLDTEXTSTYLE0
 73
     1
 44
1.0
  0
INSERT
  5
137
330
1F
100
AcDbEntity
  8
해칭선
100
AcDbBlockReference
  2
SW_DOWELSYMBOL_0
 10
0.0
 20
0.0
 30
0.0
  0
LINE
  5
1A6
330
1F
100
AcDbEntity
  8
외형선
  6
Continuous
370
    15
100
AcDbLine
 10
-5.791200000000003
 20
9.207499999999968
 30
0.0
 11
5.791200000000003
 21
9.207499999999968
 31
0.0
1001
PE_URL
1000

  0
LINE
  5
1A7
330
1F
100
AcDbEntity
  8
외형선
  6
Continuous
370
    15
100
AcDbLine
 10
-5.791200000000003
 20
9.207499999999953
 30
0.0
 11
-7.696200000000147
 21
11.11249999999999
 31
0.0
1001
PE_URL
1000

  0
LINE
  5
1A8
330
1F
100
AcDbEntity
  8
외형선
  6
Continuous
370
    15
100
AcDbLine
 10
5.791200000000003
 20
9.207499999999953
 30
0.0
 11
7.696199999999976
 21
11.11249999999999
 31
0.0
1001
PE_URL
1000

  0
LINE
  5
1F1
330
1F
100
AcDbEntity
  8
외형선
  6
Continuous
370
    15
100
AcDbLine
 10
-26.20018467149223
 20
11.11249999999999
 30
0.0
 11
-27.11240642797542
 21
10.86807091703221
 31
0.0
  0
LINE
  5
1F2
330
1F
100
AcDbEntity
  8
외형선
  6
Continuous
370
    15
100
AcDbLine
 10
-27.11240642797538
 20
-10.86807091703224
 30
0.0
 11
-26.20018467149218
 21
-11.1125
 31
0.0
  0
SPLINE
  5
1F3
330
1F
100
AcDbEntity
  8
외형선
  6
Continuous
370
    15
100
AcDbSpline
210
0.0
220
0.0
230
1.0
 70
     8
 71
     3
 72
     9
 73
     5
 74
     0
 42
0.000000001
 43
0.00000001
 40
0.0
 40
0.0
 40
0.0
 40
0.0
 40
0.5595221753371526
 40
0.9999999999999999
 40
0.9999999999999999
 40
0.9999999999999999
 40
0.9999999999999999
 10
-27.11237063701614
 20
8.331985145186888
 30
0.0
 10
-27.68152263976815
 20
8.292464828817405
 30
0.0
 10
-28.69873344541504
 20
8.221832567735575
 30
0.0
 10
-29.71490080982939
 20
8.17382552373713
 30
0.0
 10
-30.1625
 20
8.152679485428198
 30
0.0
  0
LINE
  5
1F4
330
1F
100
AcDbEntity
  8
0
  6
Continuous
 62
     1
370
    15
100
AcDbLine
 10
-37.39514100152172
 20
-2.913734948534525
 30
0.0
 11
-37.29900455441532
 21
-2.966625801456324
 31
0.0
1001
PE_URL
1000

  0
SPLINE
  5
1F5
330
1F
100
AcDbEntity
  8
0
  6
Continuous
 62
     1
370
    15
100
AcDbSpline
210
0.0
220
0.0
230
1.0
 70
     8
 71
     3
 72
     9
 73
     5
 74
     0
 42
0.000000001
 43
0.00000001
 40
0.0
 40
0.0
 40
0.0
 40
0.0
 40
0.5175995736950666
 40
1.0
 40
1.0
 40
1.0
 40
1.0
 10
-43.11609794446298
 20
-2.644189138952299
 30
0.0
 10
-42.62219722806981
 20
-2.879960468626649
 30
0.0
 10
-41.66798331157199
 20
-3.335469595095233
 30
0.0
 10
-40.71438709700114
 20
-3.834925470927729
 30
0.0
 10
-40.25437187656939
 20
-4.075863198349822
 30
0.0
1001
PE_URL
1000

  0
SPLINE
  5
1F6
330
1F
100
AcDbEntity
  8
0
  6
Continuous
 62
     1
370
    15
100
AcDbSpline
210
0.0
220
0.0
230
1.0
 70
     8
 71
     3
 72
    20
 73
    16
 74
     0
 42
0.000000001
 43
0.00000001
 40
0.0
 40
0.0
 40
0.0
 40
0.0
 40
0.1297378057731585
 40
0.2320535117557422
 40
0.3154304192510169
 40
0.3859126283999485
 40
0.46169963069277
 40
0.5529164284829269
 40
0.6097209216080798
 40
0.6632950641977825
 40
0.7302701507848692
 40
0.8027089898191555
 40
0.8581201057372857
 40
0.9198526725209227
 40
1.0
 40
1.0
 40
1.0
 40
1.0
 10
-39.70492613242057
 20
-8.199679668447807
 30
0.0
 10
-39.35057543902514
 20
-8.181501588439552
 30
0.0
 10
-38.71677157356387
 20
-8.148987647898068
 30
0.0
 10
-37.81473838452278
 20
-8.115581347360042
 30
0.0
 10
-37.07931039850521
 20
-8.093011852560593
 30
0.0
 10
-36.43554470068337
 20
-8.077974005256486
 30
0.0
 10
-35.78051635043034
 20
-8.066715651559626
 30
0.0
 10
-35.14807286091604
 20
-8.060207701142147
 30
0.0
 10
-34.58139894842674
 20
-8.058121305737998
 30
0.0
 10
-34.08229312462347
 20
-8.058655778721217
 30
0.0
 10
-33.53924125542211
 20
-8.062089555688047
 30
0.0
 10
-32.99103768286594
 20
-8.06884460533194
 30
0.0
 10
-32.45769813716681
 20
-8.078473104088197
 30
0.0
 10
-31.90269310908064
 20
-8.090998621746216
 30
0.0
 10
-31.50346227585319
 20
-8.103438800052082
 30
0.0
 10
-31.27793853623736
 20
-8.110466201994825
 30
0.0
1001
PE_URL
1000

  0
SPLINE
  5
1F7
330
1F
100
AcDbEntity
  8
0
  6
Continuous
 62
     1
370
    15
100
AcDbSpline
210
0.0
220
0.0
230
1.0
 70
     8
 71
     3
 72
    32
 73
    28
 74
     0
 42
0.000000001
 43
0.00000001
 40
0.0
 40
0.0
 40
0.0
 40
0.0
 40
0.0471446957550365
 40
0.0655305378756519
 40
0.0920162731172621
 40
0.1177616012109398
 40
0.143872918572537
 40
0.175819437922172
 40
0.2086338796379658
 40
0.2476612032050832
 40
0.2832828781892685
 40
0.3207495241032969
 40
0.3803640461302354
 40
0.4244772466238674
 40
0.4704887240582245
 40
0.5218868519515903
 40
0.5655680401303882
 40
0.6167240506185907
 40
0.6713727594410375
 40
0.713605941087716
 40
0.7697782074205697
 40
0.8024957827714079
 40
0.8238113385581879
 40
0.8485032296602952
 40
0.8844662545933896
 40
0.934169291501396
 40
1.0
 40
1.0
 40
1.0
 40
1.0
 10
-66.01642464859614
 20
-7.057535380383598
 30
0.0
 10
-65.79101927267314
 20
-7.036935713448116
 30
0.0
 10
-65.47770861730166
 20
-7.008302433866561
 30
0.0
 10
-64.93716795843383
 20
-6.964472131024991
 30
0.0
 10
-64.48796750150035
 20
-6.939037407598576
 30
0.0
 10
-64.0041654090825
 20
-6.911359106905934
 30
0.0
 10
-63.47954874744858
 20
-6.88250918411115
 30
0.0
 10
-62.92864197790254
 20
-6.856274106324186
 30
0.0
 10
-62.2983974430191
 20
-6.831503022079161
 30
0.0
 10
-61.64906215278639
 20
-6.811983034395531
 30
0.0
 10
-60.97024186645994
 20
-6.79806542032091
 30
0.0
 10
-60.16707261026517
 20
-6.789178151518009
 30
0.0
 10
-59.31278062560624
 20
-6.790525227233864
 30
0.0
 10
-58.40797972010026
 20
-6.804055380523423
 30
0.0
 10
-57.55219301924047
 20
-6.826757233460739
 30
0.0
 10
-56.69482234078384
 20
-6.860519105795646
 30
0.0
 10
-55.82838136003453
 20
-6.904611504557202
 30
0.0
 10
-54.91926019812344
 20
-6.961764485083521
 30
0.0
 10
-54.01275773662005
 20
-7.03132677493516
 30
0.0
 10
-53.09284843185536
 20
-7.112492039124469
 30
0.0
 10
-52.29699081926304
 20
-7.191950568126934
 30
0.0
 10
-51.62622037647548
 20
-7.266243289544654
 30
0.0
 10
-51.1652159805876
 20
-7.319923669095751
 30
0.0
 10
-50.65934135896027
 20
-7.382044897201126
 30
0.0
 10
-49.97391772993993
 20
-7.469863758295006
 30
0.0
 10
-49.04595055593978
 20
-7.597366370105831
 30
0.0
 10
-48.37311969115374
 20
-7.701653451932977
 30
0.0
 10
-47.98974310821075
 20
-7.761075852373402
 30
0.0
1001
PE_URL
1000

  0
SPLINE
  5
1F8
330
1F
100
AcDbEntity
  8
0
  6
Continuous
 62
     1
370
    15
100
AcDbSpline
210
0.0
220
0.0
230
1.0
 70
     8
 71
     3
 72
    19
 73
    15
 74
     0
 42
0.000000001
 43
0.00000001
 40
0.0
 40
0.0
 40
0.0
 40
0.0
 40
0.1350086345807359
 40
0.2420775899938908
 40
0.3234951290212838
 40
0.3845602368823378
 40
0.4269363601105325
 40
0.4924609201871627
 40
0.5911746349403929
 40
0.6825114030962022
 40
0.7590404335467746
 40
0.8524207558317684
 40
0.9594555838366096
 40
1.0
 40
1.0
 40
1.0
 40
1.0
 10
-47.98974310821078
 20
7.761075852373299
 30
0.0
 10
-48.32351774711983
 20
7.709273736390692
 30
0.0
 10
-48.92199324788392
 20
7.616389815057836
 30
0.0
 10
-49.75379304887229
 20
7.499300343763114
 30
0.0
 10
-50.41120119110936
 20
7.413714824735301
 30
0.0
 10
-50.89924289453008
 20
7.352274245611749
 30
0.0
 10
-51.33052935657076
 20
7.300435086703008
 30
0.0
 10
-51.8516679199463
 20
7.240581442846139
 30
0.0
 10
-52.51333946594009
 20
7.169898476298332
 30
0.0
 10
-53.19890364630757
 20
7.103400287358422
 30
0.0
 10
-53.86572013766182
 20
7.044283322885256
 30
0.0
 10
-54.58123313265393
 20
6.987259490444291
 30
0.0
 10
-55.20965229115428
 20
6.942705453511497
 30
0.0
 10
-55.58574434565812
 20
6.921080061150491
 30
0.0
 10
-55.68906804039236
 20
6.915138921442651
 30
0.0
1001
PE_URL
1000

  0
SPLINE
  5
1F9
330
1F
100
AcDbEntity
  8
0
  6
Continuous
 62
     1
370
    15
100
AcDbSpline
210
0.0
220
0.0
230
1.0
 70
     8
 71
     3
 72
    21
 73
    17
 74
     0
 42
0.000000001
 43
0.00000001
 40
0.0
 40
0.0
 40
0.0
 40
0.0
 40
0.1089429065486469
 40
0.18990387781164
 40
0.2446629034714609
 40
0.2945746562744403
 40
0.3457002936052638
 40
0.4089877668990625
 40
0.4594501675889729
 40
0.5116100085898704
 40
0.5921816262779672
 40
0.6591241360173632
 40
0.721380932429186
 40
0.7950275904732373
 40
0.8854028518903403
 40
1.0
 40
1.0
 40
1.0
 40
1.0
 10
-30.16249999999999
 20
8.152679485428198
 30
0.0
 10
-30.50961082118309
 20
8.138523680346726
 30
0.0
 10
-31.11467720926975
 20
8.113847982188101
 30
0.0
 10
-31.8940529219055
 20
8.09138620979196
 30
0.0
 10
-32.48525382250537
 20
8.077844666724452
 30
0.0
 10
-32.98145814253895
 20
8.069110837884455
 30
0.0
 10
-33.50492042701844
 20
8.062491311826392
 30
0.0
 10
-34.03016134321515
 20
8.05880553848258
 30
0.0
 10
-34.55876576801015
 20
8.058053606596726
 30
0.0
 10
-35.14173351902073
 20
8.060142934425702
 30
0.0
 10
-35.78051388626718
 20
8.0667155061228
 30
0.0
 10
-36.43554525757624
 20
8.077974038124658
 30
0.0
 10
-37.07931022524991
 20
8.093011842334874
 30
0.0
 10
-37.81473844612241
 20
8.11558135099564
 30
0.0
 10
-38.71677155161455
 20
8.148987646602535
 30
0.0
 10
-39.35057543115416
 20
8.181501587974935
 30
0.0
 10
-39.7049261324206
 20
8.19967966844774
 30
0.0
1001
PE_URL
1000

  0
LINE
  5
1FA
330
1F
100
AcDbEntity
  8
외형선
  6
Continuous
370
    15
100
AcDbLine
 10
-26.20018467149218
 20
-11.1125
 30
0.0
 11
-26.20018467149223
 21
11.11249999999999
 31
0.0
  0
SPLINE
  5
1FB
330
1F
100
AcDbEntity
  8
외형선
  6
Continuous
370
    15
100
AcDbSpline
210
0.0
220
0.0
230
1.0
 70
     8
 71
     3
 72
     8
 73
     4
 74
     0
 42
0.000000001
 43
0.00000001
 40
0.0
 40
0.0
 40
0.0
 40
0.0
 40
1.0
 40
1.0
 40
1.0
 40
1.0
 10
-29.16249999999997
 20
-8.828595872728648
 30
0.0
 10
-28.47687074400558
 20
-9.150193991030498
 30
0.0
 10
-27.79347778970384
 20
-9.465183663175985
 30
0.0
 10
-27.11230841325745
 20
-9.772710476047038
 30
0.0
  0
LINE
  5
1FC
330
1F
100
AcDbEntity
  8
외형선
  6
Continuous
370
    15
100
AcDbLine
 10
-29.16249999999997
 20
-8.828595872728641
 30
0.0
 11
-29.16249999999997
 21
-7.009971664870676
 31
0.0
  0
SPLINE
  5
1FD
330
1F
100
AcDbEntity
  8
외형선
  6
Continuous
370
    15
100
AcDbSpline
210
0.0
220
0.0
230
1.0
 70
     8
 71
     3
 72
     8
 73
     4
 74
     0
 42
0.000000001
 43
0.00000001
 40
0.0
 40
0.0
 40
0.0
 40
0.0
 40
1.0
 40
1.0
 40
1.0
 40
1.0
 10
-27.1124064279754
 20
-8.11030928522593
 30
0.0
 10
-27.79684047940816
 20
-7.750294934416452
 30
0.0
 10
-28.48016813693556
 20
-7.383539613823565
 30
0.0
 10
-29.16249999999997
 20
-7.009971664870683
 30
0.0
  0
LINE
  5
1FE
330
1F
100
AcDbEntity
  8
외형선
  6
Continuous
370
    15
100
AcDbLine
 10
-27.11240642797542
 20
10.86807091703221
 30
0.0
 11
-27.1124064279754
 21
-8.110425502670246
 31
0.0
  0
SPLINE
  5
1FF
330
1F
100
AcDbEntity
  8
외형선
  6
Continuous
370
    15
100
AcDbSpline
210
0.0
220
0.0
230
1.0
 70
     8
 71
     3
 72
     8
 73
     4
 74
     0
 42
0.000000001
 43
0.00000001
 40
0.0
 40
0.0
 40
0.0
 40
0.0
 40
1.0
 40
1.0
 40
1.0
 40
1.0
 10
-29.1625
 20
8.828595872728613
 30
0.0
 10
-28.47687074400561
 20
9.150193991030466
 30
0.0
 10
-27.79347778970387
 20
9.465183663175953
 30
0.0
 10
-27.11230841325748
 20
9.772710476047013
 30
0.0
  0
LINE
  5
200
330
1F
100
AcDbEntity
  8
외형선
  6
Continuous
370
    15
100
AcDbLine
 10
-27.11240642797539
 20
-9.772773331052015
 30
0.0
 11
-27.11240642797538
 21
-10.86807091703224
 31
0.0
  0
SPLINE
  5
201
330
1F
100
AcDbEntity
  8
외형선
  6
Continuous
370
    15
100
AcDbSpline
210
0.0
220
0.0
230
1.0
 70
    24
 71
     3
 72
    10
 73
     6
 74
     0
 42
0.000000001
 43
0.00000001
 40
0.0
 40
0.0
 40
0.0
 40
0.0
 40
0.5
 40
0.5
 40
1.0
 40
1.0
 40
1.0
 40
1.0
 10
-30.16249999999997
 20
-6.575102188280916
 30
0.0
 10
-30.16249999999998
 20
-6.367748081963391
 30
0.0
 10
-30.16249999999998
 20
-6.056378735800486
 30
0.0
 10
-30.16249999999998
 20
-5.289214950888685
 30
0.0
 10
-30.16249999999998
 20
-4.836026014033557
 30
0.0
 10
-30.16249999999998
 20
-4.369853636003874
 30
0.0
  0
SPLINE
  5
202
330
1F
100
AcDbEntity
  8
외형선
  6
Continuous
370
    15
100
AcDbSpline
210
0.0
220
0.0
230
1.0
 70
     8
 71
     3
 72
    10
 73
     6
 74
     0
 42
0.000000001
 43
0.00000001
 40
0.0
 40
0.0
 40
0.0
 40
0.0
 40
0.5
 40
0.5
 40
1.0
 40
1.0
 40
1.0
 40
1.0
 10
-30.16249999999997
 20
-4.369853636003867
 30
0.0
 10
-29.65374504285404
 20
-4.533485135187966
 30
0.0
 10
-29.14797927430158
 20
-4.691500052887626
 30
0.0
 10
-28.13125192302988
 20
-4.996313328752741
 30
0.0
 10
-27.62124696939679
 20
-5.142994511840037
 30
0.0
 10
-27.11238281382865
 20
-5.283144006128808
 30
0.0
  0
SPLINE
  5
203
330
1F
100
AcDbEntity
  8
외형선
  6
Continuous
370
    15
100
AcDbSpline
210
0.0
220
0.0
230
1.0
 70
     8
 71
     3
 72
     8
 73
     4
 74
     0
 42
0.000000001
 43
0.00000001
 40
0.0
 40
0.0
 40
0.0
 40
0.0
 40
1.0
 40
1.0
 40
1.0
 40
1.0
 10
-29.16249999999997
 20
-7.009971664870676
 30
0.0
 10
-29.49538546712237
 20
-6.868668511249474
 30
0.0
 10
-29.82840467401944
 20
-6.723685979798091
 30
0.0
 10
-30.16249999999988
 20
-6.575102188280958
 30
0.0
  0
SPLINE
  5
204
330
1F
100
AcDbEntity
  8
외형선
  6
Continuous
370
    15
100
AcDbSpline
210
0.0
220
0.0
230
1.0
 70
     8
 71
     3
 72
     8
 73
     4
 74
     0
 42
0.000000001
 43
0.00000001
 40
0.0
 40
0.0
 40
0.0
 40
0.0
 40
1.0
 40
1.0
 40
1.0
 40
1.0
 10
-30.16250000000001
 20
-8.515737115673161
 30
0.0
 10
-29.82840467401953
 20
-8.624614057317089
 30
0.0
 10
-29.49538546712241
 20
-8.728916650422114
 30
0.0
 10
-29.16249999999997
 20
-8.828595872728648
 30
0.0
  0
LINE
  5
205
330
1F
100
AcDbEntity
  8
외형선
  6
Continuous
370
    15
100
AcDbLine
 10
-30.16249999999997
 20
-8.515737115673176
 30
0.0
 11
-30.16249999999997
 21
-6.575102188281079
 31
0.0
  0
SPLINE
  5
206
330
1F
100
AcDbEntity
  8
외형선
  6
Continuous
370
    15
100
AcDbSpline
210
0.0
220
0.0
230
1.0
 70
     8
 71
     3
 72
    10
 73
     6
 74
     0
 42
0.000000001
 43
0.00000001
 40
0.0
 40
0.0
 40
0.0
 40
0.0
 40
0.5
 40
0.5
 40
1.0
 40
1.0
 40
1.0
 40
1.0
 10
-30.16249999999999
 20
6.572960215594836
 30
0.0
 10
-29.65374301382078
 20
6.430871881400037
 30
0.0
 10
-29.1479752324348
 20
6.281095580300246
 30
0.0
 10
-28.13124380005997
 20
5.966171318519468
 30
0.0
 10
-27.62123680385509
 20
5.801095034980637
 30
0.0
 10
-27.11237063701613
 20
5.629298139024037
 30
0.0
  0
SPLINE
  5
207
330
1F
100
AcDbEntity
  8
외형선
  6
Continuous
370
    15
100
AcDbSpline
210
0.0
220
0.0
230
1.0
 70
    24
 71
     3
 72
    14
 73
    10
 74
     0
 42
0.000000001
 43
0.00000001
 40
0.0
 40
0.0
 40
0.0
 40
0.0
 40
0.25
 40
0.25
 40
0.5
 40
0.5
 40
0.75
 40
0.75
 40
1.0
 40
1.0
 40
1.0
 40
1.0
 10
-30.16249999999997
 20
-4.369853636003874
 30
0.0
 10
-30.16249999999997
 20
-3.540979174989879
 30
0.0
 10
-30.16249999999997
 20
-2.638250500297801
 30
0.0
 10
-30.16249999999998
 20
-0.7540455435522091
 30
0.0
 10
-30.16249999999998
 20
0.2266678825703679
 30
0.0
 10
-30.16249999999998
 20
2.171521397470261
 30
0.0
 10
-30.16249999999998
 20
3.134625186983975
 30
0.0
 10
-30.16249999999999
 20
4.951731738462431
 30
0.0
 10
-30.16249999999999
 20
5.805065887826899
 30
0.0
 10
-30.16249999999999
 20
6.572960215594833
 30
0.0
  0
SPLINE
  5
208
330
1F
100
AcDbEntity
  8
외형선
  6
Continuous
370
    15
100
AcDbSpline
210
0.0
220
0.0
230
1.0
 70
    24
 71
     3
 72
    11
 73
     7
 74
     0
 42
0.000000001
 43
0.00000001
 40
0.0
 40
0.0
 40
0.0
 40
0.0
 40
0.211114159081787
 40
0.4249714390350788
 40
0.7360520441554507
 40
1.0
 40
1.0
 40
1.0
 40
1.0
 10
-30.1625
 20
6.572960215594836
 30
0.0
 10
-30.1625
 20
6.778344743544164
 30
0.0
 10
-30.1625
 20
7.191782472106716
 30
0.0
 10
-30.1625
 20
7.709857300641499
 30
0.0
 10
-30.1625
 20
8.091913173233259
 30
0.0
 10
-30.1625
 20
8.117111213514594
 30
0.0
 10
-30.1625
 20
8.128677545476236
 30
0.0
  0
SPLINE
  5
209
330
1F
100
AcDbEntity
  8
외형선
  6
Continuous
370
    15
100
AcDbSpline
210
0.0
220
0.0
230
1.0
 70
     8
 71
     3
 72
     8
 73
     4
 74
     0
 42
0.000000001
 43
0.00000001
 40
0.0
 40
0.0
 40
0.0
 40
0.0
 40
1.0
 40
1.0
 40
1.0
 40
1.0
 10
-30.16250000000004
 20
8.51573711567313
 30
0.0
 10
-29.82840467401956
 20
8.624614057317057
 30
0.0
 10
-29.49538546712245
 20
8.728916650422082
 30
0.0
 10
-29.1625
 20
8.828595872728613
 30
0.0
  0
SPLINE
  5
20A
330
1F
100
AcDbEntity
  8
외형선
  6
Continuous
370
    15
100
AcDbSpline
210
0.0
220
0.0
230
1.0
 70
    24
 71
     3
 72
     9
 73
     5
 74
     0
 42
0.000000001
 43
0.00000001
 40
0.0
 40
0.0
 40
0.0
 40
0.0
 40
0.4888420770452525
 40
1.0
 40
1.0
 40
1.0
 40
1.0
 10
-30.1625
 20
8.245155317162592
 30
0.0
 10
-30.1625
 20
8.291489458189119
 30
0.0
 10
-30.1625
 20
8.386272913219397
 30
0.0
 10
-30.1625
 20
8.47194509908277
 30
0.0
 10
-30.1625
 20
8.51573711566369
 30
0.0
  0
SPLINE
  5
20B
330
1F
100
AcDbEntity
  8
0
  6
Continuous
 62
     1
370
    15
100
AcDbSpline
210
0.0
220
0.0
230
1.0
 70
     8
 71
     3
 72
    50
 73
    46
 74
     0
 42
0.000000001
 43
0.00000001
 40
0.0
 40
0.0
 40
0.0
 40
0.0
 40
0.0625
 40
0.0625
 40
0.1249999999999999
 40
0.1249999999999999
 40
0.1562499999999999
 40
0.1562499999999999
 40
0.1874999999999999
 40
0.1874999999999999
 40
0.2499999999999998
 40
0.2499999999999998
 40
0.2812499999999998
 40
0.2812499999999998
 40
0.3124999999999998
 40
0.3124999999999998
 40
0.3749999999999996
 40
0.3749999999999996
 40
0.4374999999999994
 40
0.4374999999999994
 40
0.4687499999999993
 40
0.4687499999999993
 40
0.4999999999999994
 40
0.4999999999999994
 40
0.5624999999999994
 40
0.5624999999999994
 40
0.5937499999999993
 40
0.5937499999999993
 40
0.6249999999999993
 40
0.6249999999999993
 40
0.6874999999999993
 40
0.6874999999999993
 40
0.7499999999999993
 40
0.7499999999999993
 40
0.7812499999999993
 40
0.7812499999999993
 40
0.8124999999999996
 40
0.8124999999999996
 40
0.8749999999999997
 40
0.8749999999999997
 40
0.9062499999999998
 40
0.9062499999999998
 40
0.9374999999999998
 40
0.9374999999999998
 40
1.0
 40
1.0
 40
1.0
 40
1.0
 10
-30.16249999999996
 20
-6.575102188280923
 30
0.0
 10
-30.98993826899696
 20
-6.207111660747636
 30
0.0
 10
-31.81835809109197
 20
-5.81780419498488
 30
0.0
 10
-33.46820272990607
 20
-5.005542766119959
 30
0.0
 10
-34.29954948118967
 20
-4.580935290251979
 30
0.0
 10
-35.53827853628387
 20
-3.925440807634445
 30
0.0
 10
-35.94981256664034
 20
-3.703866797280831
 30
0.0
 10
-36.77714620920588
 20
-3.254367648235764
 30
0.0
 10
-37.1916965598156
 20
-3.026661647175061
 30
0.0
 10
-38.433508302013
 20
-2.337135755179034
 30
0.0
 10
-39.25657936324171
 20
-1.86936481912338
 30
0.0
 10
-40.49909466938207
 20
-1.159477214243658
 30
0.0
 10
-40.91342366846273
 20
-0.9216953286974601
 30
0.0
 10
-41.73940817359986
 20
-0.4455470076647572
 30
0.0
 10
-42.15085192268626
 20
-0.2072225497581464
 30
0.0
 10
-43.39168717458592
 20
0.5089267304418073
 30
0.0
 10
-44.2209605205757
 20
0.986644831526192
 30
0.0
 10
-45.8700035980175
 20
1.930895331246965
 30
0.0
 10
-46.70131142921012
 20
2.39961149888585
 30
0.0
 10
-47.94052766220962
 20
3.087444265308726
 30
0.0
 10
-48.35189918387553
 20
3.31411895589202
 30
0.0
 10
-49.17900703142571
 20
3.762586263199058
 30
0.0
 10
-49.5935353175899
 20
3.984152070843134
 30
0.0
 10
-50.83555416002164
 20
4.638436076724663
 30
0.0
 10
-51.6585024602592
 20
5.060249384013314
 30
0.0
 10
-52.90094346613592
 20
5.667960785245914
 30
0.0
 10
-53.31533893346616
 20
5.866174771020678
 30
0.0
 10
-54.14163725057091
 20
6.252481350227093
 30
0.0
 10
-54.55295460026881
 20
6.440497206984368
 30
0.0
 10
-55.79343462625309
 20
6.989586869888559
 30
0.0
 10
-56.62362231146624
 20
7.334760031225649
 30
0.0
 10
-58.27182020836105
 20
7.97430114001768
 30
0.0
 10
-59.10306670681924
 20
8.270354674301021
 30
0.0
 10
-60.34273718736097
 20
8.672365306693735
 30
0.0
 10
-60.75401842174559
 20
8.799321104046918
 30
0.0
 10
-61.58087843502486
 20
9.039357551358457
 30
0.0
 10
-61.99537355035119
 20
9.152311781171193
 30
0.0
 10
-63.23756631331229
 20
9.468725689255123
 30
0.0
 10
-64.06045323032049
 20
9.649509706132697
 30
0.0
 10
-65.30278671861004
 20
9.873987930288944
 30
0.0
 10
-65.71723755967221
 20
9.940951810516609
 30
0.0
 10
-66.54382772147113
 20
10.0587030968489
 30
0.0
 10
-66.95509089799873
 20
10.10947318338548
 30
0.0
 10
-68.195182655353
 20
10.23760422886124
 30
0.0
 10
-69.02634541397038
 20
10.29043182381906
 30
0.0
 10
-69.85
 20
10.31002874965078
 30
0.0
1001
PE_URL
1000

  0
SPLINE
  5
20C
330
1F
100
AcDbEntity
  8
0
  6
Continuous
 62
     1
370
    15
100
AcDbSpline
210
0.0
220
0.0
230
1.0
 70
     8
 71
     3
 72
    11
 73
     7
 74
     0
 42
0.000000001
 43
0.00000001
 40
0.0
 40
0.0
 40
0.0
 40
0.0
 40
0.2034741167212946
 40
0.4568187711341548
 40
0.7284091524994772
 40
1.0
 40
1.0
 40
1.0
 40
1.0
 10
-44.22013612694566
 20
0.982582896709637
 30
0.0
 10
-43.2667366367787
 20
0.5990770343619118
 30
0.0
 10
-41.12626397855571
 20
-0.2619301521216535
 30
0.0
 10
-37.71316283180015
 20
-1.637948053985482
 30
0.0
 10
-33.98053764712991
 20
-3.083531559143289
 30
0.0
 10
-31.43517994381613
 20
-3.941079365079908
 30
0.0
 10
-30.16249999999997
 20
-4.369853636003874
 30
0.0
1001
PE_URL
1000

  0
SPLINE
  5
20D
330
1F
100
AcDbEntity
  8
외형선
  6
Continuous
370
    15
100
AcDbSpline
210
0.0
220
0.0
230
1.0
 70
    24
 71
     3
 72
    10
 73
     6
 74
     0
 42
0.000000001
 43
0.00000001
 40
0.0
 40
0.0
 40
0.0
 40
0.0
 40
0.5
 40
0.5
 40
1.0
 40
1.0
 40
1.0
 40
1.0
 10
-30.16249999999997
 20
-6.575102188280916
 30
0.0
 10
-30.16249999999998
 20
-6.367748081963391
 30
0.0
 10
-30.16249999999998
 20
-6.056378735800493
 30
0.0
 10
-30.16249999999998
 20
-5.289214950888685
 30
0.0
 10
-30.16249999999998
 20
-4.836026014033557
 30
0.0
 10
-30.16249999999998
 20
-4.369853636003874
 30
0.0
  0
SPLINE
  5
20E
330
1F
100
AcDbEntity
  8
0
  6
Continuous
 62
     1
370
    15
100
AcDbSpline
210
0.0
220
0.0
230
1.0
 70
     8
 71
     3
 72
    50
 73
    46
 74
     0
 42
0.000000001
 43
0.00000001
 40
0.0
 40
0.0
 40
0.0
 40
0.0
 40
0.0624999999999993
 40
0.0624999999999993
 40
0.0937499999999992
 40
0.0937499999999992
 40
0.124999999999999
 40
0.124999999999999
 40
0.1874999999999991
 40
0.1874999999999991
 40
0.218749999999999
 40
0.218749999999999
 40
0.2499999999999989
 40
0.2499999999999989
 40
0.3124999999999988
 40
0.3124999999999988
 40
0.3749999999999987
 40
0.3749999999999987
 40
0.4062499999999987
 40
0.4062499999999987
 40
0.4374999999999987
 40
0.4374999999999987
 40
0.4999999999999986
 40
0.4999999999999986
 40
0.5312499999999986
 40
0.5312499999999986
 40
0.5624999999999987
 40
0.5624999999999987
 40
0.6249999999999987
 40
0.6249999999999987
 40
0.6874999999999989
 40
0.6874999999999989
 40
0.718749999999999
 40
0.718749999999999
 40
0.7499999999999991
 40
0.7499999999999991
 40
0.8124999999999993
 40
0.8124999999999993
 40
0.8437499999999994
 40
0.8437499999999994
 40
0.8749999999999994
 40
0.8749999999999994
 40
0.9374999999999997
 40
0.9374999999999997
 40
1.0
 40
1.0
 40
1.0
 40
1.0
 10
-69.85
 20
9.791883594386576
 30
0.0
 10
-69.02634541397032
 20
9.641491522010217
 30
0.0
 10
-68.19518265535288
 20
9.459140437705404
 30
0.0
 10
-66.95509089799853
 20
9.14143694398227
 30
0.0
 10
-66.54382772147088
 20
9.028307838759499
 30
0.0
 10
-65.71723755967187
 20
8.787385981649386
 30
0.0
 10
-65.3027867186097
 20
8.659656711611238
 30
0.0
 10
-64.06045323032006
 20
8.256005625292449
 30
0.0
 10
-63.23756631331179
 20
7.960119124647377
 30
0.0
 10
-61.99537355035059
 20
7.478496036901902
 30
0.0
 10
-61.58087843502422
 20
7.311755093715213
 30
0.0
 10
-60.75401842174492
 20
6.96709539733838
 30
0.0
 10
-60.34273718736025
 20
6.789344506199036
 30
0.0
 10
-59.10306670681843
 20
6.239359512691703
 30
0.0
 10
-58.27182020836018
 20
5.850698416222464
 30
0.0
 10
-56.62362231146525
 20
5.040651044070568
 30
0.0
 10
-55.79343462625202
 20
4.617120066876179
 30
0.0
 10
-54.55295460026765
 20
3.96244062533999
 30
0.0
 10
-54.14163725056973
 20
3.741247222051555
 30
0.0
 10
-53.31533893346492
 20
3.292565362448677
 30
0.0
 10
-52.90094346613465
 20
3.065174389681044
 30
0.0
 10
-51.65850246025784
 20
2.376294903314424
 30
0.0
 10
-50.83555416002019
 20
1.908928179536762
 30
0.0
 10
-49.59353531758838
 20
1.199518727182685
 30
0.0
 10
-49.17900703142415
 20
0.9617949029567257
 30
0.0
 10
-48.3518991838739
 20
0.4855575991242453
 30
0.0
 10
-47.94052766220796
 20
0.2472779320458329
 30
0.0
 10
-46.70131142920837
 20
-0.468562963323123
 30
0.0
 10
-45.87000359801569
 20
-0.946803461555568
 30
0.0
 10
-44.22096052057378
 20
-1.891569252826031
 30
0.0
 10
-43.3916871745839
 20
-2.36029226890016
 30
0.0
 10
-42.15085192268418
 20
-3.049191096833731
 30
0.0
 10
-41.73940817359775
 20
-3.27616278402111
 30
0.0
 10
-40.91342366846054
 20
-3.725060344888846
 30
0.0
 10
-40.49909466937987
 20
-3.946940224645324
 30
0.0
 10
-39.25657936323941
 20
-4.602444914630034
 30
0.0
 10
-38.43350830201064
 20
-5.025146501402702
 30
0.0
 10
-37.19169655981315
 20
-5.634230876042075
 30
0.0
 10
-36.7771462092034
 20
-5.832991299322501
 30
0.0
 10
-35.94981256663781
 20
-6.220547542881832
 30
0.0
 10
-35.5382785362813
 20
-6.409160961171999
 30
0.0
 10
-34.299549481187
 20
-6.959775261391499
 30
0.0
 10
-33.46820272990333
 20
-7.306415554518892
 30
0.0
 10
-31.81835809108913
 20
-7.948906542514912
 30
0.0
 10
-30.98993826899404
 20
-8.246086686225205
 30
0.0
 10
-30.16249999999699
 20
-8.515737115674149
 30
0.0
1001
PE_URL
1000

  0
SPLINE
  5
20F
330
1F
100
AcDbEntity
  8
0
  6
Continuous
 62
     1
370
    15
100
AcDbSpline
210
0.0
220
0.0
230
1.0
 70
     8
 71
     3
 72
    15
 73
    11
 74
     0
 42
0.000000001
 43
0.00000001
 40
0.0
 40
0.0
 40
0.0
 40
0.0
 40
0.1329499513481009
 40
0.2659332336425724
 40
0.3989367051950978
 40
0.5319471638933879
 40
0.6649513866888109
 40
0.7979361692186578
 40
0.9308883653082332
 40
1.0
 40
1.0
 40
1.0
 40
1.0
 10
-69.85
 20
8.141207552949442
 30
0.0
 10
-68.66322496465506
 20
7.893248829549375
 30
0.0
 10
-66.28937736595066
 20
7.397269218763249
 30
0.0
 10
-62.72809486444743
 20
6.27435586683028
 30
0.0
 10
-59.16620543099508
 20
4.926092596046871
 30
0.0
 10
-55.60409663474036
 20
3.377019099336419
 30
0.0
 10
-52.0421844469247
 20
1.694552186215162
 30
0.0
 10
-48.48085450529275
 20
-0.0499954371084463
 30
0.0
 10
-45.49004657812304
 20
-1.530304716994749
 30
0.0
 10
-43.68631566861067
 20
-2.367036708916075
 30
0.0
 10
-43.06938788287864
 20
-2.653223086443262
 30
0.0
1001
PE_URL
1000

  0
LINE
  5
210
330
1F
100
AcDbEntity
  8
0
  6
Continuous
 62
     1
370
    15
100
AcDbLine
 10
-69.85
 20
9.791883594386583
 30
0.0
 11
-69.85
 21
8.141207552949442
 31
0.0
1001
PE_URL
1000

  0
LINE
  5
211
330
1F
100
AcDbEntity
  8
0
  6
Continuous
 62
     1
370
    15
100
AcDbLine
 10
-69.85
 20
10.3100287496508
 30
0.0
 11
-69.85
 21
9.791883594386583
 31
0.0
1001
PE_URL
1000

  0
SPLINE
  5
212
330
1F
100
AcDbEntity
  8
0
  6
Continuous
 62
     1
370
    15
100
AcDbSpline
210
0.0
220
0.0
230
1.0
 70
     8
 71
     3
 72
    10
 73
     6
 74
     0
 42
0.000000001
 43
0.00000001
 40
0.0
 40
0.0
 40
0.0
 40
0.0
 40
0.5
 40
0.5
 40
1.0
 40
1.0
 40
1.0
 40
1.0
 10
-69.85
 20
2.757613149343307
 30
0.0
 10
-68.99405189114961
 20
2.084697382489743
 30
0.0
 10
-68.14928731791926
 20
1.390213294025202
 30
0.0
 10
-66.48202263426276
 20
-0.0416936377458086
 30
0.0
 10
-65.65947597532525
 20
-0.7790267086137668
 30
0.0
 10
-64.85000000000196
 20
-1.541567613340785
 30
0.0
1001
PE_URL
1000

  0
LINE
  5
213
330
1F
100
AcDbEntity
  8
0
  6
Continuous
 62
     1
370
    15
100
AcDbLine
 10
-64.84999999999997
 20
-2.937719435296671
 30
0.0
 11
-69.84999999999997
 21
-0.0000000000000924
 31
0.0
1001
PE_URL
1000

  0
LINE
  5
214
330
1F
100
AcDbEntity
  8
0
  6
Continuous
 62
     1
370
    15
100
AcDbLine
 10
-69.84999999999997
 20
-0.0000000000000924
 30
0.0
 11
-69.85
 21
2.757613149343307
 31
0.0
1001
PE_URL
1000

  0
SPLINE
  5
215
330
1F
100
AcDbEntity
  8
0
  6
Continuous
 62
     1
370
    15
100
AcDbSpline
210
0.0
220
0.0
230
1.0
 70
     8
 71
     3
 72
    15
 73
    11
 74
     0
 42
0.000000001
 43
0.00000001
 40
0.0
 40
0.0
 40
0.0
 40
0.0
 40
0.1130093867690797
 40
0.2260182230545421
 40
0.3676509434019014
 40
0.5092769315750019
 40
0.6508819311668159
 40
0.7924517487437828
 40
0.9340168287060014
 40
1.0
 40
1.0
 40
1.0
 40
1.0
 10
-64.85000000007867
 20
-2.279221589079135
 30
0.0
 10
-63.90270087088835
 20
-2.694231007486735
 30
0.0
 10
-62.00810722692658
 20
-3.524247822736363
 30
0.0
 10
-58.92646552463879
 20
-4.761369775229795
 30
0.0
 10
-55.60407291908179
 20
-5.944538113790323
 30
0.0
 10
-52.04222514208403
 20
-6.97507404210846
 30
0.0
 10
-48.48089271091876
 20
-7.734737208354794
 30
0.0
 10
-44.92023778004231
 20
-8.170259318610412
 30
0.0
 10
-41.99357137114595
 20
-8.31764619478919
 30
0.0
 10
-40.25359314823118
 20
-8.197208438180752
 30
0.0
 10
-39.70042403967205
 20
-8.158919196635914
 30
0.0
1001
PE_URL
1000

  0
SPLINE
  5
216
330
1F
100
AcDbEntity
  8
0
  6
Continuous
 62
     1
370
    15
100
AcDbSpline
210
0.0
220
0.0
230
1.0
 70
    24
 71
     3
 72
     8
 73
     4
 74
     0
 42
0.000000001
 43
0.00000001
 40
0.0
 40
0.0
 40
0.0
 40
0.0
 40
1.0
 40
1.0
 40
1.0
 40
1.0
 10
-64.85
 20
-1.541567613331917
 30
0.0
 10
-64.85
 20
-1.790034597080076
 30
0.0
 10
-64.84999999999997
 20
-2.036158352877056
 30
0.0
 10
-64.84999999999997
 20
-2.279221589114044
 30
0.0
1001
PE_URL
1000

  0
SPLINE
  5
217
330
1F
100
AcDbEntity
  8
0
  6
Continuous
 62
     1
370
    15
100
AcDbSpline
210
0.0
220
0.0
230
1.0
 70
    24
 71
     3
 72
    10
 73
     6
 74
     0
 42
0.000000001
 43
0.00000001
 40
0.0
 40
0.0
 40
0.0
 40
0.0
 40
0.5
 40
0.5
 40
1.0
 40
1.0
 40
1.0
 40
1.0
 10
-69.85
 20
8.141207552949439
 30
0.0
 10
-69.85
 20
7.517120520282923
 30
0.0
 10
-69.85
 20
6.728562624559785
 30
0.0
 10
-69.84999999999997
 20
4.895241407235986
 30
0.0
 10
-69.85
 20
3.852066177985613
 30
0.0
 10
-69.85
 20
2.757613149343637
 30
0.0
1001
PE_URL
1000

  0
SPLINE
  5
218
330
1F
100
AcDbEntity
  8
0
  6
Continuous
 62
     1
370
    15
100
AcDbSpline
210
0.0
220
0.0
230
1.0
 70
    24
 71
     3
 72
    10
 73
     6
 74
     0
 42
0.000000001
 43
0.00000001
 40
0.0
 40
0.0
 40
0.0
 40
0.0
 40
0.5
 40
0.5
 40
1.0
 40
1.0
 40
1.0
 40
1.0
 10
-64.84999999999997
 20
-2.279221589114037
 30
0.0
 10
-64.84999999999997
 20
-2.930490490764086
 30
0.0
 10
-64.84999999999997
 20
-3.549290110444993
 30
0.0
 10
-64.84999999999997
 20
-4.664673689832952
 30
0.0
 10
-64.84999999999997
 20
-5.160757541772384
 30
0.0
 10
-64.84999999999997
 20
-5.572296685583346
 30
0.0
1001
PE_URL
1000

  0
SPLINE
  5
219
330
1F
100
AcDbEntity
  8
0
  6
Continuous
 62
     1
370
    15
100
AcDbSpline
210
0.0
220
0.0
230
1.0
 70
     8
 71
     3
 72
     9
 73
     5
 74
     0
 42
0.000000001
 43
0.00000001
 40
0.0
 40
0.0
 40
0.0
 40
0.0
 40
0.9283567871659058
 40
1.0
 40
1.0
 40
1.0
 40
1.0
 10
-69.84999999999997
 20
-7.223125000000088
 30
0.0
 10
-68.6632317416512
 20
-7.218828710880118
 30
0.0
 10
-67.38487812291834
 20
-7.214200868245292
 30
0.0
 10
-66.10647288659834
 20
-7.058719678907067
 30
0.0
 10
-66.01488382816444
 20
-7.047580506967613
 30
0.0
1001
PE_URL
1000

  0
SPLINE
  5
21A
330
1F
100
AcDbEntity
  8
0
  6
Continuous
 62
     1
370
    15
100
AcDbSpline
210
0.0
220
0.0
230
1.0
 70
     8
 71
     3
 72
     8
 73
     4
 74
     0
 42
0.000000001
 43
0.00000001
 40
0.0
 40
0.0
 40
0.0
 40
0.0
 40
1.0
 40
1.0
 40
1.0
 40
1.0
 10
-69.84999999999997
 20
-7.223125000000088
 30
0.0
 10
-68.16596526849702
 20
-6.766557509173744
 30
0.0
 10
-66.49621092951796
 20
-6.223096727994736
 30
0.0
 10
-64.84999999999997
 20
-5.572296685583346
 30
0.0
1001
PE_URL
1000

  0
SPLINE
  5
21B
330
1F
100
AcDbEntity
  8
0
  6
Continuous
 62
     1
370
    15
100
AcDbSpline
210
0.0
220
0.0
230
1.0
 70
     8
 71
     3
 72
    12
 73
     8
 74
     0
 42
0.000000001
 43
0.00000001
 40
0.0
 40
0.0
 40
0.0
 40
0.0
 40
0.1725040592257122
 40
0.3721499948602474
 40
0.571847588117496
 40
0.7859236153916053
 40
1.0
 40
1.0
 40
1.0
 40
1.0
 10
-47.996483408129
 20
7.741532055790557
 30
0.0
 10
-46.97105554682791
 20
7.888299835557209
 30
0.0
 10
-44.75885848302759
 20
8.204927912200567
 30
0.0
 10
-41.35963053718695
 20
8.303342178276981
 30
0.0
 10
-37.71318908171967
 20
8.098082976346248
 30
0.0
 10
-33.98052933243159
 20
7.552393246970365
 30
0.0
 10
-31.43517715225743
 20
6.899438074371268
 30
0.0
 10
-30.16249999999999
 20
6.572960215594836
 30
0.0
1001
PE_URL
1000

  0
SPLINE
  5
21C
330
1F
100
AcDbEntity
  8
외형선
  6
Continuous
370
    15
100
AcDbSpline
210
0.0
220
0.0
230
1.0
 70
    24
 71
     3
 72
    14
 73
    10
 74
     0
 42
0.000000001
 43
0.00000001
 40
0.0
 40
0.0
 40
0.0
 40
0.0
 40
0.25
 40
0.25
 40
0.5
 40
0.5
 40
0.75
 40
0.75
 40
1.0
 40
1.0
 40
1.0
 40
1.0
 10
-30.16249999999998
 20
-4.369853636003874
 30
0.0
 10
-30.16249999999998
 20
-3.540979174989879
 30
0.0
 10
-30.16249999999998
 20
-2.638250500297794
 30
0.0
 10
-30.16249999999998
 20
-0.7540455435522055
 30
0.0
 10
-30.16249999999999
 20
0.2266678825703679
 30
0.0
 10
-30.16249999999999
 20
2.171521397470261
 30
0.0
 10
-30.16249999999999
 20
3.134625186983978
 30
0.0
 10
-30.16249999999999
 20
4.951731738462435
 30
0.0
 10
-30.16249999999999
 20
5.805065887826903
 30
0.0
 10
-30.1625
 20
6.572960215594836
 30
0.0
  0
SPLINE
  5
21D
330
1F
100
AcDbEntity
  8
외형선
  6
Continuous
370
    15
100
AcDbSpline
210
0.0
220
0.0
230
1.0
 70
    24
 71
     3
 72
    11
 73
     7
 74
     0
 42
0.000000001
 43
0.00000001
 40
0.0
 40
0.0
 40
0.0
 40
0.0
 40
0.2112849362144183
 40
0.4253152123003316
 40
0.7366474606737698
 40
1.0
 40
1.0
 40
1.0
 40
1.0
 10
-30.1625
 20
6.572960215594836
 30
0.0
 10
-30.1625
 20
6.77834611865142
 30
0.0
 10
-30.1625
 20
7.191786615295999
 30
0.0
 10
-30.1625
 20
7.709837285305287
 30
0.0
 10
-30.1625
 20
8.091628026802457
 30
0.0
 10
-30.1625
 20
8.116849830939195
 30
0.0
 10
-30.1625
 20
8.128407864678675
 30
0.0
  0
LINE
  5
21E
330
1F
100
AcDbEntity
  8
0
  6
Continuous
 62
     1
370
    15
100
AcDbLine
 10
-69.84999999999997
 20
-0.0000000000000924
 30
0.0
 11
-69.84999999999997
 21
-7.223125000000088
 31
0.0
1001
PE_URL
1000

  0
SPLINE
  5
21F
330
1F
100
AcDbEntity
  8
0
  6
Continuous
 62
     1
370
    15
100
AcDbSpline
210
0.0
220
0.0
230
1.0
 70
    24
 71
     3
 72
    10
 73
     6
 74
     0
 42
0.000000001
 43
0.00000001
 40
0.0
 40
0.0
 40
0.0
 40
0.0
 40
0.5
 40
0.5
 40
1.0
 40
1.0
 40
1.0
 40
1.0
 10
-69.84999999999997
 20
-7.223125000000088
 30
0.0
 10
-69.84999999999997
 20
-7.660972849930552
 30
0.0
 10
-69.84999999999997
 20
-8.169792600622657
 30
0.0
 10
-69.84999999999997
 20
-9.237295067164915
 30
0.0
 10
-69.84999999999997
 20
-9.79325151567653
 30
0.0
 10
-69.84999999999997
 20
-10.31002874965098
 30
0.0
1001
PE_URL
1000

  0
SPLINE
  5
220
330
1F
100
AcDbEntity
  8
0
  6
Continuous
 62
     1
370
    15
100
AcDbSpline
210
0.0
220
0.0
230
1.0
 70
     8
 71
     3
 72
    16
 73
    12
 74
     0
 42
0.000000001
 43
0.00000001
 40
0.0
 40
0.0
 40
0.0
 40
0.0
 40
0.0288327407286748
 40
0.1334711231632688
 40
0.2383809186749229
 40
0.3436550290604611
 40
0.506012434952263
 40
0.6690488226632583
 40
0.7515697455468425
 40
0.9170336399154517
 40
1.0
 40
1.0
 40
1.0
 40
1.0
 10
-55.65332848477465
 20
-6.917607745310832
 30
0.0
 10
-55.78979127251656
 20
-6.977365314739728
 30
0.0
 10
-56.42149818242502
 20
-7.253992153105109
 30
0.0
 10
-57.54910621468455
 20
-7.700604995111028
 30
0.0
 10
-59.03924619806973
 20
-8.249500871583926
 30
0.0
 10
-60.80177592008907
 20
-8.827737623749947
 30
0.0
 10
-62.8405168791848
 20
-9.390821546612308
 30
0.0
 10
-64.77051843527698
 20
-9.794059895836064
 30
0.0
 10
-66.71576740512845
 20
-10.09388625702375
 30
0.0
 10
-68.28207724167493
 20
-10.25480892815153
 30
0.0
 10
-69.45746477650803
 20
-10.29620426444698
 30
0.0
 10
-69.84999999999971
 20
-10.31002874965096
 30
0.0
1001
PE_URL
1000

  0
LINE
  5
221
330
1F
100
AcDbEntity
  8
0
  6
Continuous
 62
     1
370
    15
100
AcDbLine
 10
-31.27807886242677
 20
8.110415217452708
 30
0.0
 11
-30.16249999999702
 21
8.51573711567411
 31
0.0
1001
PE_URL
1000

  0
SPLINE
  5
222
330
1F
100
AcDbEntity
  8
외형선
  6
Continuous
370
    15
100
AcDbSpline
210
0.0
220
0.0
230
1.0
 70
    24
 71
     3
 72
     9
 73
     5
 74
     0
 42
0.000000001
 43
0.00000001
 40
0.0
 40
0.0
 40
0.0
 40
0.0
 40
0.4948831174657906
 40
1.0
 40
1.0
 40
1.0
 40
1.0
 10
-30.1625
 20
8.245155317162595
 30
0.0
 10
-30.1625
 20
8.29124030116667
 30
0.0
 10
-30.1625
 20
8.384363267737182
 30
0.0
 10
-30.1625
 20
8.471648082259566
 30
0.0
 10
-30.1625
 20
8.515737115663693
 30
0.0
  0
LINE
  5
22A
330
1F
100
AcDbEntity
  8
외형선
  6
Continuous
370
    15
100
AcDbLine
 10
-7.696200000000136
 20
11.11249999999999
 30
0.0
 11
-26.20018467149223
 21
11.11249999999998
 31
0.0
  0
ENDSEC
  0
SECTION
  2
OBJECTS
  0
DICTIONARY
  5
C
330
0
100
AcDbDictionary
281
     1
  3
ACAD_DETAILVIEWSTYLE
350
228
  3
ACAD_GROUP
350
D
  3
ACAD_IMAGE_VARS
350
251
  3
ACAD_LAYOUT
350
1A
  3
ACAD_MLINESTYLE
350
17
  3
ACAD_PLOTSETTINGS
350
19
  3
ACAD_PLOTSTYLENAME
350
E
  3
ACAD_SCALELIST
350
47
  3
ACAD_SECTIONVIEWSTYLE
350
229
  3
AcDbVariableDictionary
350
223
  3
APPDATA
350
159
  3
DWGPROPS
350
252
  0
DICTIONARY
  5
193
330
2
100
AcDbDictionary
280
     1
281
     1
  3
ACAD_LAYERSTATES
360
194
  0
DICTIONARY
  5
228
102
{ACAD_REACTORS
330
C
102
}
330
C
100
AcDbDictionary
281
     1
  0
DICTIONARY
  5
D
102
{ACAD_REACTORS
330
C
102
}
330
C
100
AcDbDictionary
281
     1
  0
RASTERVARIABLES
  5
251
102
{ACAD_REACTORS
330
C
102
}
330
C
100
AcDbRasterVariables
 90
        0
 70
     1
 71
     1
 72
     1
  0
DICTIONARY
  5
1A
102
{ACAD_REACTORS
330
C
102
}
330
C
100
AcDbDictionary
281
     1
  3
Layout1
350
1E
  3
Layout2
350
26
  3
Model
350
22
  0
DICTIONARY
  5
17
102
{ACAD_REACTORS
330
C
102
}
330
C
100
AcDbDictionary
281
     1
  3
Standard
350
18
  0
DICTIONARY
  5
19
102
{ACAD_REACTORS
330
C
102
}
330
C
100
AcDbDictionary
281
     1
  0
ACDBDICTIONARYWDFLT
  5
E
102
{ACAD_REACTORS
330
C
102
}
330
C
100
AcDbDictionary
281
     1
  3
Normal
350
F
100
AcDbDictionaryWithDefault
340
F
  0
DICTIONARY
  5
47
102
{ACAD_REACTORS
330
C
102
}
330
C
100
AcDbDictionary
281
     1
  3
A0
350
48
  3
A1
350
49
  3
A2
350
4A
  3
A3
350
4B
  3
A4
350
4C
  3
A5
350
4D
  3
A6
350
4E
  3
A7
350
4F
  3
A8
350
50
  3
A9
350
51
  3
B0
350
52
  3
B1
350
53
  3
B2
350
54
  3
B3
350
55
  3
B4
350
56
  3
B5
350
57
  3
B6
350
58
  3
B7
350
59
  3
B8
350
5A
  3
B9
350
5B
  3
C0
350
5C
  3
C1
350
5D
  3
C2
350
5E
  3
C3
350
5F
  3
C4
350
60
  3
C5
350
61
  3
C6
350
62
  3
C7
350
63
  3
C8
350
64
  3
C9
350
65
  3
D0
350
66
  3
D1
350
67
  3
D2
350
68
  0
DICTIONARY
  5
229
102
{ACAD_REACTORS
330
C
102
}
330
C
100
AcDbDictionary
281
     1
  0
DICTIONARY
  5
223
102
{ACAD_REACTORS
330
C
102
}
330
C
100
AcDbDictionary
281
     1
  0
DICTIONARY
  5
159
102
{ACAD_REACTORS
330
C
102
}
330
C
100
AcDbDictionary
281
     1
  0
XRECORD
  5
252
102
{ACAD_REACTORS
330
C
102
}
330
C
100
AcDbXrecord
280
     1
  1
DWGPROPS COOKIE
  2

  3

  4

  6

  7

  8
12016016
  9

300
=
301
=
302
=
303
=
304
=
305
=
306
=
307
=
308
=
309
=
 40
0.0
 41
2458313.025971771
 42
2458330.402463843
  1

 90
        0
  0
DICTIONARY
  5
194
102
{ACAD_REACTORS
330
193
102
}
330
193
100
AcDbDictionary
281
     1
  0
LAYOUT
  5
1E
102
{ACAD_REACTORS
330
1A
102
}
330
1A
100
AcDbPlotSettings
  1

  2
none_device
  4

  6

 40
0.0
 41
0.0
 42
0.0
 43
0.0
 44
0.0
 45
0.0
 46
0.0
 47
0.0
 48
0.0
 49
0.0
140
0.0
141
0.0
142
1.0
143
1.0
 70
   688
 72
     1
 73
     0
 74
     5
  7

 75
    16
147
1.0
148
0.0
149
0.0
100
AcDbLayout
  1
Layout1
 70
     1
 71
     1
 10
0.0
 20
0.0
 11
420.0
 21
297.0
 12
0.0
 22
0.0
 32
0.0
 14
1.000000000000000E+20
 24
1.000000000000000E+20
 34
1.000000000000000E+20
 15
-1.000000000000000E+20
 25
-1.000000000000000E+20
 35
-1.000000000000000E+20
146
0.0
 13
0.0
 23
0.0
 33
0.0
 16
1.0
 26
0.0
 36
0.0
 17
0.0
 27
1.0
 37
0.0
 76
     0
330
1B
  0
LAYOUT
  5
26
102
{ACAD_REACTORS
330
1A
102
}
330
1A
100
AcDbPlotSettings
  1

  2
none_device
  4

  6

 40
0.0
 41
0.0
 42
0.0
 43
0.0
 44
0.0
 45
0.0
 46
0.0
 47
0.0
 48
0.0
 49
0.0
140
0.0
141
0.0
142
1.0
143
1.0
 70
   688
 72
     1
 73
     0
 74
     5
  7

 75
    16
147
1.0
148
0.0
149
0.0
100
AcDbLayout
  1
Layout2
 70
     1
 71
     2
 10
0.0
 20
0.0
 11
0.0
 21
0.0
 12
0.0
 22
0.0
 32
0.0
 14
0.0
 24
0.0
 34
0.0
 15
0.0
 25
0.0
 35
0.0
146
0.0
 13
0.0
 23
0.0
 33
0.0
 16
1.0
 26
0.0
 36
0.0
 17
0.0
 27
1.0
 37
0.0
 76
     0
330
23
  0
LAYOUT
  5
22
102
{ACAD_REACTORS
330
1A
102
}
330
1A
100
AcDbPlotSettings
  1

  2
none_device
  4
ANSI_A_(11.00_x_8.50_Inches)
  6

 40
6.35
 41
19.05
 42
6.35000508
 43
19.05000254
 44
279.4
 45
215.9
 46
51.66973992666186
 47
33.65020391249466
 48
0.0
 49
0.0
140
0.0
141
0.0
142
0.0197575987143405
143
1.0
 70
  1696
 72
     0
 73
     0
 74
     0
  7

 75
     0
147
0.0235690232323232
148
0.0
149
0.0
100
AcDbLayout
  1
Model
 70
     1
 71
     0
 10
0.0
 20
0.0
 11
420.0
 21
297.0
 12
0.0
 22
0.0
 32
0.0
 14
-89.72500000000008
 24
-49.97180738881175
 34
0.0
 15
100.9691250329551
 25
49.86202874965095
 35
0.0
146
0.0
 13
0.0
 23
0.0
 33
0.0
 16
1.0
 26
0.0
 36
0.0
 17
0.0
 27
1.0
 37
0.0
 76
     0
330
1F
331
29
  0
MLINESTYLE
  5
18
102
{ACAD_REACTORS
330
17
102
}
330
17
100
AcDbMlineStyle
  2
Standard
 70
     0
  3

 62
   256
 51
90.0
 52
90.0
 71
     2
 49
0.5
 62
   256
  6
BYLAYER
 49
-0.5
 62
   256
  6
BYLAYER
  0
ACDBPLACEHOLDER
  5
F
102
{ACAD_REACTORS
330
E
102
}
330
E
  0
SCALE
  5
48
102
{ACAD_REACTORS
330
47
102
}
330
47
100
AcDbScale
 70
     0
300
1:1
140
1.0
141
1.0
290
     1
  0
SCALE
  5
49
102
{ACAD_REACTORS
330
47
102
}
330
47
100
AcDbScale
 70
     0
300
1:2
140
1.0
141
2.0
290
     0
  0
SCALE
  5
4A
102
{ACAD_REACTORS
330
47
102
}
330
47
100
AcDbScale
 70
     0
300
1:4
140
1.0
141
4.0
290
     0
  0
SCALE
  5
4B
102
{ACAD_REACTORS
330
47
102
}
330
47
100
AcDbScale
 70
     0
300
1:5
140
1.0
141
5.0
290
     0
  0
SCALE
  5
4C
102
{ACAD_REACTORS
330
47
102
}
330
47
100
AcDbScale
 70
     0
300
1:8
140
1.0
141
8.0
290
     0
  0
SCALE
  5
4D
102
{ACAD_REACTORS
330
47
102
}
330
47
100
AcDbScale
 70
     0
300
1:10
140
1.0
141
10.0
290
     0
  0
SCALE
  5
4E
102
{ACAD_REACTORS
330
47
102
}
330
47
100
AcDbScale
 70
     0
300
1:16
140
1.0
141
16.0
290
     0
  0
SCALE
  5
4F
102
{ACAD_REACTORS
330
47
102
}
330
47
100
AcDbScale
 70
     0
300
1:20
140
1.0
141
20.0
290
     0
  0
SCALE
  5
50
102
{ACAD_REACTORS
330
47
102
}
330
47
100
AcDbScale
 70
     0
300
1:30
140
1.0
141
30.0
290
     0
  0
SCALE
  5
51
102
{ACAD_REACTORS
330
47
102
}
330
47
100
AcDbScale
 70
     0
300
1:40
140
1.0
141
40.0
290
     0
  0
SCALE
  5
52
102
{ACAD_REACTORS
330
47
102
}
330
47
100
AcDbScale
 70
     0
300
1:50
140
1.0
141
50.0
290
     0
  0
SCALE
  5
53
102
{ACAD_REACTORS
330
47
102
}
330
47
100
AcDbScale
 70
     0
300
1:100
140
1.0
141
100.0
290
     0
  0
SCALE
  5
54
102
{ACAD_REACTORS
330
47
102
}
330
47
100
AcDbScale
 70
     0
300
2:1
140
2.0
141
1.0
290
     0
  0
SCALE
  5
55
102
{ACAD_REACTORS
330
47
102
}
330
47
100
AcDbScale
 70
     0
300
4:1
140
4.0
141
1.0
290
     0
  0
SCALE
  5
56
102
{ACAD_REACTORS
330
47
102
}
330
47
100
AcDbScale
 70
     0
300
8:1
140
8.0
141
1.0
290
     0
  0
SCALE
  5
57
102
{ACAD_REACTORS
330
47
102
}
330
47
100
AcDbScale
 70
     0
300
10:1
140
10.0
141
1.0
290
     0
  0
SCALE
  5
58
102
{ACAD_REACTORS
330
47
102
}
330
47
100
AcDbScale
 70
     0
300
100:1
140
100.0
141
1.0
290
     0
  0
SCALE
  5
59
102
{ACAD_REACTORS
330
47
102
}
330
47
100
AcDbScale
 70
     0
300
1/128" = 1'-0"
140
0.0078125
141
12.0
290
     0
  0
SCALE
  5
5A
102
{ACAD_REACTORS
330
47
102
}
330
47
100
AcDbScale
 70
     0
300
1/64" = 1'-0"
140
0.015625
141
12.0
290
     0
  0
SCALE
  5
5B
102
{ACAD_REACTORS
330
47
102
}
330
47
100
AcDbScale
 70
     0
300
1/32" = 1'-0"
140
0.03125
141
12.0
290
     0
  0
SCALE
  5
5C
102
{ACAD_REACTORS
330
47
102
}
330
47
100
AcDbScale
 70
     0
300
1/16" = 1'-0"
140
0.0625
141
12.0
290
     0
  0
SCALE
  5
5D
102
{ACAD_REACTORS
330
47
102
}
330
47
100
AcDbScale
 70
     0
300
3/32" = 1'-0"
140
0.09375
141
12.0
290
     0
  0
SCALE
  5
5E
102
{ACAD_REACTORS
330
47
102
}
330
47
100
AcDbScale
 70
     0
300
1/8" = 1'-0"
140
0.125
141
12.0
290
     0
  0
SCALE
  5
5F
102
{ACAD_REACTORS
330
47
102
}
330
47
100
AcDbScale
 70
     0
300
3/16" = 1'-0"
140
0.1875
141
12.0
290
     0
  0
SCALE
  5
60
102
{ACAD_REACTORS
330
47
102
}
330
47
100
AcDbScale
 70
     0
300
1/4" = 1'-0"
140
0.25
141
12.0
290
     0
  0
SCALE
  5
61
102
{ACAD_REACTORS
330
47
102
}
330
47
100
AcDbScale
 70
     0
300
3/8" = 1'-0"
140
0.375
141
12.0
290
     0
  0
SCALE
  5
62
102
{ACAD_REACTORS
330
47
102
}
330
47
100
AcDbScale
 70
     0
300
1/2" = 1'-0"
140
0.5
141
12.0
290
     0
  0
SCALE
  5
63
102
{ACAD_REACTORS
330
47
102
}
330
47
100
AcDbScale
 70
     0
300
3/4" = 1'-0"
140
0.75
141
12.0
290
     0
  0
SCALE
  5
64
102
{ACAD_REACTORS
330
47
102
}
330
47
100
AcDbScale
 70
     0
300
1" = 1'-0"
140
1.0
141
12.0
290
     0
  0
SCALE
  5
65
102
{ACAD_REACTORS
330
47
102
}
330
47
100
AcDbScale
 70
     0
300
1-1/2" = 1'-0"
140
1.5
141
12.0
290
     0
  0
SCALE
  5
66
102
{ACAD_REACTORS
330
47
102
}
330
47
100
AcDbScale
 70
     0
300
3" = 1'-0"
140
3.0
141
12.0
290
     0
  0
SCALE
  5
67
102
{ACAD_REACTORS
330
47
102
}
330
47
100
AcDbScale
 70
     0
300
6" = 1'-0"
140
6.0
141
12.0
290
     0
  0
SCALE
  5
68
102
{ACAD_REACTORS
330
47
102
}
330
47
100
AcDbScale
 70
     0
300
1'-0" = 1'-0"
140
12.0
141
12.0
290
     0
  0
ENDSEC
  0
EOF
