  0
SECTION
  2
HEADER
  9
$ACADVER
  1
AC1015
  9
$ACADMAINTVER
 70
     6
  9
$DWGCODEPAGE
  3
ANSI_949
  9
$INSBASE
 10
0.0
 20
0.0
 30
0.0
  9
$EXTMIN
 10
-89.72500000000008
 20
-49.97180738881175
 30
0.0
  9
$EXTMAX
 10
100.9691250329551
 20
47.16449999999993
 30
0.0
  9
$LIMMIN
 10
0.0
 20
0.0
  9
$LIMMAX
 10
420.0
 20
297.0
  9
$ORTHOMODE
 70
     1
  9
$REGENMODE
 70
     1
  9
$FILLMODE
 70
     1
  9
$QTEXTMODE
 70
     0
  9
$MIRRTEXT
 70
     1
  9
$LTSCALE
 40
1.0
  9
$ATTMODE
 70
     1
  9
$TEXTSIZE
 40
3.5
  9
$TRACEWID
 40
1.0
  9
$TEXTSTYLE
  7
Standard
  9
$CLAYER
  8
0
  9
$CELTYPE
  6
ByLayer
  9
$CECOLOR
 62
   256
  9
$CELTSCALE
 40
1.0
  9
$DISPSILH
 70
     0
  9
$DIMSCALE
 40
1.0
  9
$DIMASZ
 40
3.302
  9
$DIMEXO
 40
1.0
  9
$DIMDLI
 40
3.75
  9
$DIMRND
 40
0.0
  9
$DIMDLE
 40
0.0
  9
$DIMEXE
 40
1.0
  9
$DIMTP
 40
0.0
  9
$DIMTM
 40
0.0
  9
$DIMTXT
 40
3.5
  9
$DIMCEN
 40
2.5
  9
$DIMTSZ
 40
0.0
  9
$DIMTOL
 70
     0
  9
$DIMLIM
 70
     0
  9
$DIMTIH
 70
     1
  9
$DIMTOH
 70
     1
  9
$DIMSE1
 70
     0
  9
$DIMSE2
 70
     0
  9
$DIMTAD
 70
     1
  9
$DIMZIN
 70
     0
  9
$DIMBLK
  1

  9
$DIMASO
 70
     1
  9
$DIMSHO
 70
     1
  9
$DIMPOST
  1

  9
$DIMAPOST
  1

  9
$DIMALT
 70
     0
  9
$DIMALTD
 70
     3
  9
$DIMALTF
 40
0.0393700787401575
  9
$DIMLFAC
 40
1.0
  9
$DIMTOFL
 70
     1
  9
$DIMTVP
 40
0.0
  9
$DIMTIX
 70
     0
  9
$DIMSOXD
 70
     0
  9
$DIMSAH
 70
     0
  9
$DIMBLK1
  1

  9
$DIMBLK2
  1

  9
$DIMSTYLE
  2
ISO-25
  9
$DIMCLRD
 70
     0
  9
$DIMCLRE
 70
     0
  9
$DIMCLRT
 70
     0
  9
$DIMTFAC
 40
1.0
  9
$DIMGAP
 40
1.524
  9
$DIMJUST
 70
     0
  9
$DIMSD1
 70
     0
  9
$DIMSD2
 70
     0
  9
$DIMTOLJ
 70
     0
  9
$DIMTZIN
 70
     0
  9
$DIMALTZ
 70
     0
  9
$DIMALTTZ
 70
     0
  9
$DIMUPT
 70
     0
  9
$DIMDEC
 70
     2
  9
$DIMTDEC
 70
     2
  9
$DIMALTU
 70
     2
  9
$DIMALTTD
 70
     3
  9
$DIMTXSTY
  7
Standard
  9
$DIMAUNIT
 70
     0
  9
$DIMADEC
 70
     2
  9
$DIMALTRND
 40
0.0
  9
$DIMAZIN
 70
     0
  9
$DIMDSEP
 70
    44
  9
$DIMATFIT
 70
     3
  9
$DIMFRAC
 70
     0
  9
$DIMLDRBLK
  1

  9
$DIMLUNIT
 70
     2
  9
$DIMLWD
 70
    -2
  9
$DIMLWE
 70
    -2
  9
$DIMTMOVE
 70
     0
  9
$LUNITS
 70
     2
  9
$LUPREC
 70
     2
  9
$SKETCHINC
 40
1.0
  9
$FILLETRAD
 40
10.0
  9
$AUNITS
 70
     0
  9
$AUPREC
 70
     2
  9
$MENU
  1
.
  9
$ELEVATION
 40
0.0
  9
$PELEVATION
 40
0.0
  9
$THICKNESS
 40
0.0
  9
$LIMCHECK
 70
     0
  9
$CHAMFERA
 40
0.0
  9
$CHAMFERB
 40
0.0
  9
$CHAMFERC
 40
0.0
  9
$CHAMFERD
 40
0.0
  9
$SKPOLY
 70
     0
  9
$TDCREATE
 40
2458313.40139463
  9
$TDUCREATE
 40
2458313.02639463
  9
$TDUPDATE
 40
2458330.777371609
  9
$TDUUPDATE
 40
2458330.402371609
  9
$TDINDWG
 40
0.0030682176
  9
$TDUSRTIMER
 40
2458330.402335614
  9
$USRTIMER
 70
     1
  9
$ANGBASE
 50
0.0
  9
$ANGDIR
 70
     0
  9
$PDMODE
 70
     0
  9
$PDSIZE
 40
-1.0
  9
$PLINEWID
 40
0.0
  9
$SPLFRAME
 70
     0
  9
$SPLINETYPE
 70
     6
  9
$SPLINESEGS
 70
     8
  9
$HANDSEED
  5
299
  9
$SURFTAB1
 70
     6
  9
$SURFTAB2
 70
     6
  9
$SURFTYPE
 70
     6
  9
$SURFU
 70
     6
  9
$SURFV
 70
     6
  9
$UCSBASE
  2

  9
$UCSNAME
  2

  9
$UCSORG
 10
0.0
 20
0.0
 30
0.0
  9
$UCSXDIR
 10
1.0
 20
0.0
 30
0.0
  9
$UCSYDIR
 10
0.0
 20
1.0
 30
0.0
  9
$UCSORTHOREF
  2

  9
$UCSORTHOVIEW
 70
     0
  9
$UCSORGTOP
 10
0.0
 20
0.0
 30
0.0
  9
$UCSORGBOTTOM
 10
0.0
 20
0.0
 30
0.0
  9
$UCSORGLEFT
 10
0.0
 20
0.0
 30
0.0
  9
$UCSORGRIGHT
 10
0.0
 20
0.0
 30
0.0
  9
$UCSORGFRONT
 10
0.0
 20
0.0
 30
0.0
  9
$UCSORGBACK
 10
0.0
 20
0.0
 30
0.0
  9
$PUCSBASE
  2

  9
$PUCSNAME
  2

  9
$PUCSORG
 10
0.0
 20
0.0
 30
0.0
  9
$PUCSXDIR
 10
1.0
 20
0.0
 30
0.0
  9
$PUCSYDIR
 10
0.0
 20
1.0
 30
0.0
  9
$PUCSORTHOREF
  2

  9
$PUCSORTHOVIEW
 70
     0
  9
$PUCSORGTOP
 10
0.0
 20
0.0
 30
0.0
  9
$PUCSORGBOTTOM
 10
0.0
 20
0.0
 30
0.0
  9
$PUCSORGLEFT
 10
0.0
 20
0.0
 30
0.0
  9
$PUCSORGRIGHT
 10
0.0
 20
0.0
 30
0.0
  9
$PUCSORGFRONT
 10
0.0
 20
0.0
 30
0.0
  9
$PUCSORGBACK
 10
0.0
 20
0.0
 30
0.0
  9
$USERI1
 70
     0
  9
$USERI2
 70
     0
  9
$USERI3
 70
     0
  9
$USERI4
 70
     0
  9
$USERI5
 70
     0
  9
$USERR1
 40
0.0
  9
$USERR2
 40
0.0
  9
$USERR3
 40
0.0
  9
$USERR4
 40
0.0
  9
$USERR5
 40
0.0
  9
$WORLDVIEW
 70
     1
  9
$SHADEDGE
 70
     3
  9
$SHADEDIF
 70
    70
  9
$TILEMODE
 70
     1
  9
$MAXACTVP
 70
    64
  9
$PINSBASE
 10
0.0
 20
0.0
 30
0.0
  9
$PLIMCHECK
 70
     0
  9
$PEXTMIN
 10
1.000000000000000E+20
 20
1.000000000000000E+20
 30
1.000000000000000E+20
  9
$PEXTMAX
 10
-1.000000000000000E+20
 20
-1.000000000000000E+20
 30
-1.000000000000000E+20
  9
$PLIMMIN
 10
0.0
 20
0.0
  9
$PLIMMAX
 10
0.0
 20
0.0
  9
$UNITMODE
 70
     0
  9
$VISRETAIN
 70
     1
  9
$PLINEGEN
 70
     0
  9
$PSLTSCALE
 70
     1
  9
$TREEDEPTH
 70
  3020
  9
$CMLSTYLE
  2
Standard
  9
$CMLJUST
 70
     0
  9
$CMLSCALE
 40
20.0
  9
$PROXYGRAPHICS
 70
     1
  9
$MEASUREMENT
 70
     1
  9
$CELWEIGHT
370
    -1
  9
$ENDCAPS
280
     0
  9
$JOINSTYLE
280
     0
  9
$LWDISPLAY
290
     1
  9
$INSUNITS
 70
     4
  9
$HYPERLINKBASE
  1

  9
$STYLESHEET
  1

  9
$XEDIT
290
     1
  9
$CEPSNTYPE
380
     0
  9
$PSTYLEMODE
290
     1
  9
$FINGERPRINTGUID
  2
{6859657D-1368-4FE9-A438-2E58DD44444B}
  9
$VERSIONGUID
  2
{FAEB1C32-E019-11D5-929B-00C0DF256EC4}
  9
$EXTNAMES
290
     1
  9
$PSVPSCALE
 40
0.0
  9
$OLESTARTUP
290
     0
  0
ENDSEC
  0
SECTION
  2
CLASSES
  0
CLASS
  1
ACDBDICTIONARYWDFLT
  2
AcDbDictionaryWithDefault
  3
ObjectDBX Classes
 90
        0
280
     0
281
     0
  0
CLASS
  1
VISUALSTYLE
  2
AcDbVisualStyle
  3
ObjectDBX Classes
 90
     4095
280
     0
281
     0
  0
CLASS
  1
MATERIAL
  2
AcDbMaterial
  3
ObjectDBX Classes
 90
     1153
280
     0
281
     0
  0
CLASS
  1
SCALE
  2
AcDbScale
  3
ObjectDBX Classes
 90
     1153
280
     0
281
     0
  0
CLASS
  1
SUN
  2
AcDbSun
  3
SCENEOE
 90
     1153
280
     0
281
     0
  0
CLASS
  1
ACDBPLACEHOLDER
  2
AcDbPlaceHolder
  3
ObjectDBX Classes
 90
        0
280
     0
281
     0
  0
CLASS
  1
LAYOUT
  2
AcDbLayout
  3
ObjectDBX Classes
 90
        0
280
     0
281
     0
  0
CLASS
  1
TABLESTYLE
  2
AcDbTableStyle
  3
ObjectDBX Classes
 90
     4095
280
     0
281
     0
  0
CLASS
  1
MLEADERSTYLE
  2
AcDbMLeaderStyle
  3
ACDB_MLEADERSTYLE_CLASS
 90
     4095
280
     0
281
     0
  0
CLASS
  1
DICTIONARYVAR
  2
AcDbDictionaryVar
  3
ObjectDBX Classes
 90
        0
280
     0
281
     0
  0
CLASS
  1
RASTERVARIABLES
  2
AcDbRasterVariables
  3
ISM
 90
        0
280
     0
281
     0
  0
ENDSEC
  0
SECTION
  2
TABLES
  0
TABLE
  2
VPORT
  5
8
330
0
100
AcDbSymbolTable
 70
     1
  0
VPORT
  5
29
330
8
100
AcDbSymbolTableRecord
100
AcDbViewportTableRecord
  2
*Active
 70
     0
 10
0.0
 20
0.0
 11
1.0
 21
1.0
 12
5.622062516477499
 22
-1.403653694405847
 13
0.0
 23
0.0
 14
10.0
 24
10.0
 15
10.0
 25
10.0
 16
0.0
 26
0.0
 36
1.0
 17
0.0
 27
0.0
 37
0.0
 40
109.1048227688551
 41
1.782762691853601
 42
50.0
 43
0.0
 44
0.0
 50
0.0
 51
0.0
 71
    16
 72
  2000
 73
     1
 74
     3
 75
     0
 76
     0
 77
     0
 78
     0
281
     0
 65
     1
110
0.0
120
0.0
130
0.0
111
1.0
121
0.0
131
0.0
112
0.0
122
1.0
132
0.0
 79
     0
146
0.0
  0
ENDTAB
  0
TABLE
  2
LTYPE
  5
5
330
0
100
AcDbSymbolTable
 70
     6
  0
LTYPE
  5
14
330
5
100
AcDbSymbolTableRecord
100
AcDbLinetypeTableRecord
  2
ByBlock
 70
     0
  3

 72
    65
 73
     0
 40
0.0
  0
LTYPE
  5
15
330
5
100
AcDbSymbolTableRecord
100
AcDbLinetypeTableRecord
  2
ByLayer
 70
     0
  3

 72
    65
 73
     0
 40
0.0
  0
LTYPE
  5
16
330
5
100
AcDbSymbolTableRecord
100
AcDbLinetypeTableRecord
  2
Continuous
 70
     0
  3
Solid line
 72
    65
 73
     0
 40
0.0
  0
LTYPE
  5
6A
330
5
100
AcDbSymbolTableRecord
100
AcDbLinetypeTableRecord
  2
HIDDEN
 70
     0
  3
Hidden __ __ __ __ __ __ __ __ __ __ __ __ __ __
 72
    65
 73
     2
 40
1.905
 49
1.27
 74
     0
 49
-0.635
 74
     0
  0
LTYPE
  5
6B
330
5
100
AcDbSymbolTableRecord
100
AcDbLinetypeTableRecord
  2
PHANTOM
 70
     0
  3
Phantom ______  __  __  ______  __  __  ______
 72
    65
 73
     6
 40
12.7
 49
6.35
 74
     0
 49
-1.27
 74
     0
 49
1.27
 74
     0
 49
-1.27
 74
     0
 49
1.27
 74
     0
 49
-1.27
 74
     0
  0
LTYPE
  5
6C
330
5
100
AcDbSymbolTableRecord
100
AcDbLinetypeTableRecord
  2
CENTER
 70
     0
  3
Center ____ _ ____ _ ____ _ ____ _ ____ _ ____
 72
    65
 73
     4
 40
10.16
 49
6.35
 74
     0
 49
-1.27
 74
     0
 49
1.27
 74
     0
 49
-1.27
 74
     0
  0
LTYPE
  5
6D
330
5
100
AcDbSymbolTableRecord
100
AcDbLinetypeTableRecord
  2
CENTERX2
 70
     0
  3
Center (2x) ________  __  ________  __  _____
 72
    65
 73
     4
 40
20.32
 49
12.7
 74
     0
 49
-2.54
 74
     0
 49
2.54
 74
     0
 49
-2.54
 74
     0
  0
LTYPE
  5
6E
330
5
100
AcDbSymbolTableRecord
100
AcDbLinetypeTableRecord
  2
DOT2
 70
     0
  3
Dot (.5x) ........................................
 72
    65
 73
     2
 40
0.635
 49
0.0
 74
     0
 49
-0.635
 74
     0
  0
ENDTAB
  0
TABLE
  2
LAYER
  5
2
102
{ACAD_XDICTIONARY
360
18D
102
}
330
0
100
AcDbSymbolTable
 70
    18
  0
LAYER
  5
10
330
2
100
AcDbSymbolTableRecord
100
AcDbLayerTableRecord
  2
0
 70
     0
 62
     7
  6
Continuous
370
    -3
390
F
  0
LAYER
  5
6F
330
2
100
AcDbSymbolTableRecord
100
AcDbLayerTableRecord
  2
FORMAT
 70
     0
 62
     2
  6
Continuous
370
    -3
390
F
  0
LAYER
  5
70
330
2
100
AcDbSymbolTableRecord
100
AcDbLayerTableRecord
  2
외형선
 70
     0
 62
     4
  6
Continuous
370
    30
390
F
  0
LAYER
  5
71
330
2
100
AcDbSymbolTableRecord
100
AcDbLayerTableRecord
  2
숨은선
 70
     0
 62
     2
  6
HIDDEN
370
    15
390
F
  0
LAYER
  5
72
330
2
100
AcDbSymbolTableRecord
100
AcDbLayerTableRecord
  2
중심선
 70
     0
 62
     1
  6
CENTERX2
370
    -3
390
F
  0
LAYER
  5
73
330
2
100
AcDbSymbolTableRecord
100
AcDbLayerTableRecord
  2
파단선
 70
     0
 62
     4
  6
Continuous
370
    -3
390
F
  0
LAYER
  5
74
330
2
100
AcDbSymbolTableRecord
100
AcDbLayerTableRecord
  2
해칭선
 70
     0
 62
   100
  6
Continuous
370
    -3
390
F
  0
LAYER
  5
75
330
2
100
AcDbSymbolTableRecord
100
AcDbLayerTableRecord
  2
가는실선
 70
     0
 62
     4
  6
Continuous
370
    -3
390
F
  0
LAYER
  5
76
330
2
100
AcDbSymbolTableRecord
100
AcDbLayerTableRecord
  2
치수_보조선
 70
     0
 62
     4
  6
Continuous
370
    -3
390
F
  0
LAYER
  5
77
330
2
100
AcDbSymbolTableRecord
100
AcDbLayerTableRecord
  2
치수문자_일반주서
 70
     0
 62
     7
  6
Continuous
370
    15
390
F
  0
LAYER
  5
78
330
2
100
AcDbSymbolTableRecord
100
AcDbLayerTableRecord
  2
개별주서
 70
     0
 62
   100
  6
Continuous
370
    30
390
F
  0
LAYER
  5
79
330
2
100
AcDbSymbolTableRecord
100
AcDbLayerTableRecord
  2
중간선
 70
     0
 62
     2
  6
Continuous
370
    15
390
F
  0
LAYER
  5
7A
330
2
100
AcDbSymbolTableRecord
100
AcDbLayerTableRecord
  2
윤곽선
 70
     0
 62
     3
  6
Continuous
370
    40
390
F
  0
LAYER
  5
7B
330
2
100
AcDbSymbolTableRecord
100
AcDbLayerTableRecord
  2
중심마크
 70
     0
 62
   100
  6
Continuous
370
    30
390
F
  0
LAYER
  5
7C
330
2
100
AcDbSymbolTableRecord
100
AcDbLayerTableRecord
  2
가상선
 70
     0
 62
     4
  6
PHANTOM
370
    -3
390
F
  0
LAYER
  5
7D
330
2
100
AcDbSymbolTableRecord
100
AcDbLayerTableRecord
  2
특수지정선
 70
     0
 62
     5
  6
CENTERX2
370
    60
390
F
  0
LAYER
  5
7E
330
2
100
AcDbSymbolTableRecord
100
AcDbLayerTableRecord
  2
참조1
 70
     0
 62
    -4
  6
Continuous
370
    -3
390
F
  0
LAYER
  5
154
330
2
100
AcDbSymbolTableRecord
100
AcDbLayerTableRecord
  2
Defpoints
 70
     0
 62
     7
  6
Continuous
290
     0
370
    -3
390
F
  0
ENDTAB
  0
TABLE
  2
STYLE
  5
3
330
0
100
AcDbSymbolTable
 70
     2
  0
STYLE
  5
11
330
3
100
AcDbSymbolTableRecord
100
AcDbTextStyleTableRecord
  2
Standard
 70
     0
 40
0.0
 41
1.0
 50
0.0
 71
     0
 42
3.5
  3
txt
  4

  0
STYLE
  5
94
330
3
100
AcDbSymbolTableRecord
100
AcDbTextStyleTableRecord
  2
SLDTEXTSTYLE0
 70
     0
 40
0.0
 41
0.75
 50
0.0
 71
     0
 42
3.5
  3
TXT
  4

  0
ENDTAB
  0
TABLE
  2
VIEW
  5
6
330
0
100
AcDbSymbolTable
 70
     0
  0
ENDTAB
  0
TABLE
  2
UCS
  5
7
330
0
100
AcDbSymbolTable
 70
     0
  0
ENDTAB
  0
TABLE
  2
APPID
  5
9
330
0
100
AcDbSymbolTable
 70
     4
  0
APPID
  5
12
330
9
100
AcDbSymbolTableRecord
100
AcDbRegAppTableRecord
  2
ACAD
 70
     0
  0
APPID
  5
15D
330
9
100
AcDbSymbolTableRecord
100
AcDbRegAppTableRecord
  2
PE_URL
 70
     0
  0
APPID
  5
273
330
9
100
AcDbSymbolTableRecord
100
AcDbRegAppTableRecord
  2
ACAD_DSTYLE_DIMFLIPARROW_SYMBOL
 70
     0
  0
APPID
  5
274
330
9
100
AcDbSymbolTableRecord
100
AcDbRegAppTableRecord
  2
ACAD_DSTYLE_DIMFLIPARROW_WHICH_SYMBOL
 70
     0
  0
ENDTAB
  0
TABLE
  2
DIMSTYLE
  5
A
330
0
100
AcDbSymbolTable
 70
     4
100
AcDbDimStyleTable
  0
DIMSTYLE
105
27
330
A
100
AcDbSymbolTableRecord
100
AcDbDimStyleTableRecord
  2
ISO-25
 70
     0
 41
2.5
 42
0.625
 43
3.75
 44
1.25
 73
     0
 74
     0
 77
     1
 78
     8
140
2.5
141
2.5
143
0.03937007874016
147
0.625
171
     3
172
     1
178
     0
271
     2
272
     2
274
     3
278
    44
283
     0
284
     8
340
11
  0
DIMSTYLE
105
D4
330
A
100
AcDbSymbolTableRecord
100
AcDbDimStyleTableRecord
  2
SLDDIMSTYLE0
 70
     0
 41
3.302
 44
0.0
 45
0.000000001
 73
     0
 74
     0
 77
     1
 78
    12
 79
     3
140
3.5
143
0.0393700787401575
147
0.875
148
0.000000001
170
     1
172
     1
173
     1
178
     0
271
     2
272
     2
276
     2
284
    12
289
     0
340
94
  0
DIMSTYLE
105
E9
102
{ACAD_REACTORS
330
E8
330
FC
330
110
330
D3
102
}
330
A
100
AcDbSymbolTableRecord
100
AcDbDimStyleTableRecord
  2
SLDDIMSTYLE1
 70
     0
 41
3.302
 44
0.0
 45
0.000000001
 73
     0
 74
     0
 77
     1
 78
    12
 79
     3
140
3.5
143
0.0393700787401575
147
0.875
148
0.000000001
170
     1
173
     1
178
     0
271
     2
272
     2
276
     2
284
    12
340
94
  0
DIMSTYLE
105
111
330
A
100
AcDbSymbolTableRecord
100
AcDbDimStyleTableRecord
  2
SLDDIMSTYLE2
 70
     0
 41
3.302
 44
0.0
 45
0.000000001
 73
     0
 74
     0
 77
     1
 78
     4
 79
     1
140
3.5
143
0.0393700787401575
147
0.875
148
0.000000001
170
     1
173
     1
178
     0
271
     2
272
     2
276
     2
284
    12
340
94
  0
ENDTAB
  0
TABLE
  2
BLOCK_RECORD
  5
1
330
0
100
AcDbSymbolTable
 70
     9
  0
BLOCK_RECORD
  5
1F
330
1
100
AcDbSymbolTableRecord
100
AcDbBlockTableRecord
  2
*Model_Space
340
22
  0
BLOCK_RECORD
  5
1B
330
1
100
AcDbSymbolTableRecord
100
AcDbBlockTableRecord
  2
*Paper_Space
340
1E
  0
BLOCK_RECORD
  5
23
330
1
100
AcDbSymbolTableRecord
100
AcDbBlockTableRecord
  2
*Paper_Space0
340
26
  0
BLOCK_RECORD
  5
7F
330
1
100
AcDbSymbolTableRecord
100
AcDbBlockTableRecord
  2
블럭10
340
0
102
{BLKREFS
331
CC
102
}
  0
BLOCK_RECORD
  5
D5
330
1
100
AcDbSymbolTableRecord
100
AcDbBlockTableRecord
  2
_D
340
0
  0
BLOCK_RECORD
  5
EA
330
1
100
AcDbSymbolTableRecord
100
AcDbBlockTableRecord
  2
_D_1
340
0
  0
BLOCK_RECORD
  5
FD
330
1
100
AcDbSymbolTableRecord
100
AcDbBlockTableRecord
  2
_D_2
340
0
  0
BLOCK_RECORD
  5
112
330
1
100
AcDbSymbolTableRecord
100
AcDbBlockTableRecord
  2
_D_3
340
0
  0
BLOCK_RECORD
  5
12B
330
1
100
AcDbSymbolTableRecord
100
AcDbBlockTableRecord
  2
SW_DOWELSYMBOL_0
340
0
102
{BLKREFS
331
131
102
}
  0
BLOCK_RECORD
  5
191
330
1
100
AcDbSymbolTableRecord
100
AcDbBlockTableRecord
  2
*D7
340
0
  0
BLOCK_RECORD
  5
1A3
330
1
100
AcDbSymbolTableRecord
100
AcDbBlockTableRecord
  2
*D8
340
0
  0
ENDTAB
  0
ENDSEC
  0
SECTION
  2
BLOCKS
  0
BLOCK
  5
20
330
1F
100
AcDbEntity
  8
0
100
AcDbBlockBegin
  2
*Model_Space
 70
     0
 10
0.0
 20
0.0
 30
0.0
  3
*Model_Space
  1
*Model_Space
  0
ENDBLK
  5
21
330
1F
100
AcDbEntity
  8
0
100
AcDbBlockEnd
  0
BLOCK
  5
1C
330
1B
100
AcDbEntity
 67
     1
  8
0
100
AcDbBlockBegin
  2
*Paper_Space
 70
     0
 10
0.0
 20
0.0
 30
0.0
  3
*Paper_Space
  1
*Paper_Space
  0
ENDBLK
  5
1D
330
1B
100
AcDbEntity
 67
     1
  8
0
100
AcDbBlockEnd
  0
BLOCK
  5
24
330
23
100
AcDbEntity
  8
0
100
AcDbBlockBegin
  2
*Paper_Space0
 70
     0
 10
0.0
 20
0.0
 30
0.0
  3
*Paper_Space0
  1
*Paper_Space0
  0
ENDBLK
  5
25
330
23
100
AcDbEntity
  8
0
100
AcDbBlockEnd
  0
BLOCK
  5
80
330
7F
100
AcDbEntity
  8
0
100
AcDbBlockBegin
  2
블럭10
 70
     2
 10
0.0
 20
0.0
 30
0.0
  3
블럭10
  1
블럭10
  0
ELLIPSE
  5
82
330
7F
100
AcDbEntity
  8
중심선
100
AcDbEllipse
 10
20.54032771741204
 20
12.0471743016438
 30
0.0
 11
6.600054785286829
 21
-1.261213355974178E-13
 31
0.0
210
0.0
220
0.0
230
1.0
 40
0.636358354079598
 41
0.9219305317359503
 42
6.513795318482858
  0
ELLIPSE
  5
83
330
7F
100
AcDbEntity
  8
중심선
100
AcDbEllipse
 10
20.54032771746488
 20
12.04717430159265
 30
0.0
 11
3.960054785062283
 21
1.540847449632565E-10
 31
0.0
210
0.0
220
0.0
230
1.0
 40
0.3939339440162632
 41
1.131841032648279
 42
5.62031148352944
  0
LINE
  5
84
330
7F
100
AcDbEntity
  8
중심선
100
AcDbLine
 10
2.268634060543552
 20
16.24717430164393
 30
0.0
 11
5.714909304380834
 21
16.24717430164393
 31
0.0
  0
LINE
  5
85
330
7F
100
AcDbEntity
  8
중심선
100
AcDbLine
 10
5.245725140726316
 20
7.84717430164391
 30
0.0
 11
8.692000384563599
 21
7.84717430164391
 31
0.0
  0
LINE
  5
86
330
7F
100
AcDbEntity
  8
중심선
100
AcDbLine
 10
15.74043728645272
 20
16.24717430164393
 30
0.0
 11
8.692000384563599
 21
7.84717430164391
 31
0.0
  0
LINE
  5
87
330
7F
100
AcDbEntity
  8
중심선
100
AcDbLine
 10
0.1404042013395286
 20
13.71084872107135
 30
0.0
 11
3.58671253028996
 21
13.71088815037384
 31
0.0
  0
LINE
  5
88
330
7F
100
AcDbEntity
  8
중심선
100
AcDbLine
 10
2.750260043222114
 20
10.84717430164391
 30
0.0
 11
6.196535287059397
 21
10.84717430164391
 31
0.0
  0
LINE
  5
89
330
7F
100
AcDbEntity
  8
중심선
100
AcDbLine
 10
12.29416204261559
 20
16.24717430164393
 30
0.0
 11
5.245725140726316
 21
7.84717430164391
 31
0.0
  0
LINE
  5
8A
330
7F
100
AcDbEntity
  8
중심선
100
AcDbLine
 10
10.72767329541681
 20
16.24717430164393
 30
0.0
 11
6.196535287059397
 21
10.84717430164391
 31
0.0
  0
LINE
  5
8B
330
7F
100
AcDbEntity
  8
중심선
100
AcDbLine
 10
7.28139805157953
 20
16.24717430164393
 30
0.0
 11
2.750260043222114
 21
10.84717430164391
 31
0.0
  0
LINE
  5
8C
330
7F
100
AcDbEntity
  8
중심선
100
AcDbLine
 10
5.714909304380834
 20
16.24717430164393
 30
0.0
 11
3.58671253028996
 21
13.71088815037384
 31
0.0
  0
LINE
  5
8D
330
7F
100
AcDbEntity
  8
중심선
100
AcDbLine
 10
2.268634060543552
 20
16.24717430164393
 30
0.0
 11
0.1404042013395286
 21
13.71084872107135
 31
0.0
  0
LINE
  5
8E
330
7F
100
AcDbEntity
  8
중심선
100
AcDbLine
 10
7.28139805157953
 20
16.24717430164393
 30
0.0
 11
10.72767329541681
 21
16.24717430164393
 31
0.0
  0
LINE
  5
8F
330
7F
100
AcDbEntity
  8
중심선
100
AcDbLine
 10
12.29416204261559
 20
16.24717430164393
 30
0.0
 11
15.74043728645272
 21
16.24717430164393
 31
0.0
  0
LINE
  5
90
330
7F
100
AcDbEntity
  8
중심선
100
AcDbLine
 10
19.22036997980202
 20
11.08717430171403
 30
0.0
 11
23.66174974927406
 21
11.08717430171406
 31
0.0
  0
LINE
  5
91
330
7F
100
AcDbEntity
  8
중심선
100
AcDbLine
 10
19.22039502424796
 20
13.00717430171391
 30
0.0
 11
19.22036997980202
 21
11.08717430171403
 31
0.0
  0
LINE
  5
92
330
7F
100
AcDbEntity
  8
중심선
100
AcDbLine
 10
19.22039502424796
 20
13.00717430171391
 30
0.0
 11
26.96566020931264
 21
13.00717430171391
 31
0.0
  0
LINE
  5
93
330
7F
100
AcDbEntity
  8
중심선
100
AcDbLine
 10
22.22332737316547
 20
13.45928029700563
 30
0.0
 11
24.52862924686651
 21
15.39360700705356
 31
0.0
  0
ATTDEF
  5
95
330
7F
100
AcDbEntity
  8
FORMAT
 62
     2
100
AcDbText
 10
4.408487351596664
 20
2.075366912832191
 30
0.0
 40
4.233333333333333
  1
E1050056
 41
0.75
  7
SLDTEXTSTYLE0
 11
4.408487351596664
 21
-0.0412997538344756
 31
0.0
100
AcDbAttributeDefinition
  3

  2
AUTOATTR0
 70
     0
 74
     1
  0
ENDBLK
  5
81
330
7F
100
AcDbEntity
  8
0
100
AcDbBlockEnd
  0
BLOCK
  5
D6
330
D5
100
AcDbEntity
  8
0
100
AcDbBlockBegin
  2
_D
 70
     0
 10
0.0
 20
0.0
 30
0.0
  3
_D
  1
_D
  0
LINE
  5
D8
330
D5
100
AcDbEntity
  8
치수문자_일반주서
 62
     0
370
    -2
100
AcDbLine
 10
-27.17489328089065
 20
11.11249999999999
 30
0.0
 11
-84.85
 21
11.11249999999977
 31
0.0
  0
LINE
  5
D9
330
D5
100
AcDbEntity
  8
치수문자_일반주서
 62
     0
370
    -2
100
AcDbLine
 10
-27.17489328089064
 20
-11.11250000000001
 30
0.0
 11
-84.84999999999992
 21
-11.11250000000023
 31
0.0
  0
LINE
  5
DA
330
D5
100
AcDbEntity
  8
치수문자_일반주서
 62
     0
370
    -2
100
AcDbLine
 10
-84.85
 20
11.11249999999977
 30
0.0
 11
-84.85000000000011
 21
47.16449999999993
 31
0.0
  0
LINE
  5
DB
330
D5
100
AcDbEntity
  8
치수문자_일반주서
 62
     0
370
    -2
100
AcDbLine
 10
-84.85
 20
11.11249999999977
 30
0.0
 11
-84.84999999999992
 21
-11.11250000000023
 31
0.0
  0
LINE
  5
DC
330
D5
100
AcDbEntity
  8
치수문자_일반주서
 62
     0
370
    -2
100
AcDbLine
 10
-84.85000000000001
 20
14.41449999999977
 30
0.0
 11
-84.85000000000002
 21
17.71649999999977
 31
0.0
  0
LINE
  5
DD
330
D5
100
AcDbEntity
  8
치수문자_일반주서
 62
     0
370
    -2
100
AcDbLine
 10
-84.84999999999991
 20
-14.41450000000023
 30
0.0
 11
-84.8499999999999
 21
-17.71650000000023
 31
0.0
  0
SOLID
  5
DE
330
D5
100
AcDbEntity
  8
치수문자_일반주서
 62
     0
100
AcDbTrace
 10
-85.40033333333334
 20
14.41449999999977
 30
0.0
 11
-84.29966666666668
 21
14.41449999999977
 31
0.0
 12
-84.85
 22
11.11249999999977
 32
0.0
 13
-84.85
 23
11.11249999999977
 33
0.0
  0
SOLID
  5
DF
330
D5
100
AcDbEntity
  8
치수문자_일반주서
 62
     0
100
AcDbTrace
 10
-84.29966666666658
 20
-14.41450000000023
 30
0.0
 11
-85.40033333333324
 21
-14.41450000000023
 31
0.0
 12
-84.84999999999992
 22
-11.11250000000023
 32
0.0
 13
-84.84999999999992
 23
-11.11250000000023
 33
0.0
  0
MTEXT
  5
E0
330
D5
100
AcDbEntity
  8
치수문자_일반주서
 62
     0
100
AcDbMText
 10
-89.72500000000005
 20
30.78949999999992
 30
0.0
 40
4.0
 41
0.0
 71
     2
 72
     1
  1
\A1;%%c22.23 [7/8]
  7
SLDTEXTSTYLE0
 11
-3.197042680585378E-15
 21
1.0
 31
0.0
 73
     1
 44
1.0
  0
POINT
  5
1BA
330
D5
100
AcDbEntity
  8
Defpoints
 62
     0
100
AcDbPoint
 10
-27.11239328089065
 20
11.11249999999999
 30
0.0
  0
POINT
  5
1BB
330
D5
100
AcDbEntity
  8
Defpoints
 62
     0
100
AcDbPoint
 10
-27.11239328089064
 20
-11.11250000000001
 30
0.0
  0
POINT
  5
1BC
330
D5
100
AcDbEntity
  8
Defpoints
 62
     0
100
AcDbPoint
 10
-84.84999999999992
 20
-11.11250000000023
 30
0.0
  0
ENDBLK
  5
D7
330
D5
100
AcDbEntity
  8
0
100
AcDbBlockEnd
  0
BLOCK
  5
EB
330
EA
100
AcDbEntity
  8
0
100
AcDbBlockBegin
  2
_D_1
 70
     0
 10
0.0
 20
0.0
 30
0.0
  3
_D_1
  1
_D_1
  0
LINE
  5
ED
330
EA
100
AcDbEntity
  8
치수문자_일반주서
 62
     0
370
    -2
100
AcDbLine
 10
69.91250000000002
 20
-11.11249999999991
 30
0.0
 11
84.85000000000007
 21
-11.11249999999985
 31
0.0
  0
LINE
  5
EE
330
EA
100
AcDbEntity
  8
치수문자_일반주서
 62
     0
370
    -2
100
AcDbLine
 10
69.91250000000002
 20
11.1125
 30
0.0
 11
84.85
 21
11.11250000000005
 31
0.0
  0
LINE
  5
EF
330
EA
100
AcDbEntity
  8
치수문자_일반주서
 62
     0
370
    -2
100
AcDbLine
 10
84.85
 20
11.11250000000005
 30
0.0
 11
84.84999999999988
 21
47.16450000000005
 31
0.0
  0
LINE
  5
F0
330
EA
100
AcDbEntity
  8
치수문자_일반주서
 62
     0
370
    -2
100
AcDbLine
 10
84.85000000000007
 20
-11.11249999999985
 30
0.0
 11
84.85
 21
11.11250000000005
 31
0.0
  0
LINE
  5
F1
330
EA
100
AcDbEntity
  8
치수문자_일반주서
 62
     0
370
    -2
100
AcDbLine
 10
84.85000000000008
 20
-14.41449999999985
 30
0.0
 11
84.8500000000001
 21
-17.71649999999985
 31
0.0
  0
LINE
  5
F2
330
EA
100
AcDbEntity
  8
치수문자_일반주서
 62
     0
370
    -2
100
AcDbLine
 10
84.84999999999998
 20
14.41450000000005
 30
0.0
 11
84.84999999999997
 21
17.71650000000005
 31
0.0
  0
SOLID
  5
F3
330
EA
100
AcDbEntity
  8
치수문자_일반주서
 62
     0
100
AcDbTrace
 10
85.4003333333334
 20
-14.41449999999985
 30
0.0
 11
84.29966666666675
 21
-14.41449999999985
 31
0.0
 12
84.85000000000007
 22
-11.11249999999985
 32
0.0
 13
84.85000000000007
 23
-11.11249999999985
 33
0.0
  0
SOLID
  5
F4
330
EA
100
AcDbEntity
  8
치수문자_일반주서
 62
     0
100
AcDbTrace
 10
84.29966666666665
 20
14.41450000000005
 30
0.0
 11
85.40033333333331
 21
14.41450000000006
 31
0.0
 12
84.85
 22
11.11250000000005
 32
0.0
 13
84.85
 23
11.11250000000005
 33
0.0
  0
MTEXT
  5
F5
330
EA
100
AcDbEntity
  8
치수문자_일반주서
 62
     0
100
AcDbMText
 10
79.97499999999994
 20
30.78950000000004
 30
0.0
 40
4.0
 41
0.0
 71
     2
 72
     1
  1
\A1;%%c22.23 [7/8]
  7
SLDTEXTSTYLE0
 11
-3.197042680585391E-15
 21
1.0
 31
0.0
 73
     1
 44
1.0
  0
POINT
  5
F6
330
EA
100
AcDbEntity
  8
Defpoints
 62
     0
100
AcDbPoint
 10
69.85000000000002
 20
-11.11249999999991
 30
0.0
  0
POINT
  5
1BD
330
EA
100
AcDbEntity
  8
Defpoints
 62
     0
100
AcDbPoint
 10
69.85000000000002
 20
11.1125
 30
0.0
  0
POINT
  5
1BE
330
EA
100
AcDbEntity
  8
Defpoints
 62
     0
100
AcDbPoint
 10
84.85
 20
11.11250000000006
 30
0.0
  0
ENDBLK
  5
EC
330
EA
100
AcDbEntity
  8
0
100
AcDbBlockEnd
  0
BLOCK
  5
FE
330
FD
100
AcDbEntity
  8
0
100
AcDbBlockBegin
  2
_D_2
 70
     0
 10
0.0
 20
0.0
 30
0.0
  3
_D_2
  1
_D_2
  0
LINE
  5
100
330
FD
100
AcDbEntity
  8
치수문자_일반주서
 62
     0
370
    -2
100
AcDbLine
 10
69.85000000000002
 20
11.175
 30
0.0
 11
69.85000000000002
 21
26.11250000000001
 31
0.0
  0
LINE
  5
101
330
FD
100
AcDbEntity
  8
치수문자_일반주서
 62
     0
370
    -2
100
AcDbLine
 10
30.16250000000002
 20
8.752484119139957
 30
0.0
 11
30.16250000000002
 21
26.11250000000001
 31
0.0
  0
LINE
  5
102
330
FD
100
AcDbEntity
  8
치수문자_일반주서
 62
     0
370
    -2
100
AcDbLine
 10
66.54800000000003
 20
26.11250000000001
 30
0.0
 11
33.46450000000002
 21
26.11250000000001
 31
0.0
  0
SOLID
  5
103
330
FD
100
AcDbEntity
  8
치수문자_일반주서
 62
     0
100
AcDbTrace
 10
66.54800000000003
 20
25.56216666666668
 30
0.0
 11
66.54800000000003
 21
26.66283333333335
 31
0.0
 12
69.85000000000002
 22
26.11250000000001
 32
0.0
 13
69.85000000000002
 23
26.11250000000001
 33
0.0
  0
SOLID
  5
104
330
FD
100
AcDbEntity
  8
치수문자_일반주서
 62
     0
100
AcDbTrace
 10
33.46450000000002
 20
26.66283333333335
 30
0.0
 11
33.46450000000002
 21
25.56216666666668
 31
0.0
 12
30.16250000000002
 22
26.11250000000001
 32
0.0
 13
30.16250000000002
 23
26.11250000000001
 33
0.0
  0
MTEXT
  5
105
330
FD
100
AcDbEntity
  8
치수문자_일반주서
 62
     0
100
AcDbMText
 10
50.00625000000001
 20
30.98750000000001
 30
0.0
 40
4.0
 41
0.0
 71
     2
 72
     1
  1
\A1;39.69 [1 9/16]
  7
SLDTEXTSTYLE0
 73
     1
 44
1.0
  0
POINT
  5
106
330
FD
100
AcDbEntity
  8
Defpoints
 62
     0
100
AcDbPoint
 10
69.85000000000002
 20
11.1125
 30
0.0
  0
POINT
  5
107
330
FD
100
AcDbEntity
  8
Defpoints
 62
     0
100
AcDbPoint
 10
30.16250000000002
 20
8.689984119139957
 30
0.0
  0
POINT
  5
108
330
FD
100
AcDbEntity
  8
Defpoints
 62
     0
100
AcDbPoint
 10
30.16250000000002
 20
26.11250000000001
 30
0.0
  0
ENDBLK
  5
FF
330
FD
100
AcDbEntity
  8
0
100
AcDbBlockEnd
  0
BLOCK
  5
113
330
112
100
AcDbEntity
  8
0
100
AcDbBlockBegin
  2
_D_3
 70
     0
 10
0.0
 20
0.0
 30
0.0
  3
_D_3
  1
_D_3
  0
LINE
  5
115
330
112
100
AcDbEntity
  8
치수문자_일반주서
 62
     0
370
    -2
100
AcDbLine
 10
-69.85000000000002
 20
11.17499999999989
 30
0.0
 11
-69.85000000000002
 21
41.11250000000001
 31
0.0
  0
LINE
  5
116
330
112
100
AcDbEntity
  8
치수문자_일반주서
 62
     0
370
    -2
100
AcDbLine
 10
69.85000000000002
 20
11.175
 30
0.0
 11
69.85000000000002
 21
41.11250000000001
 31
0.0
  0
LINE
  5
117
330
112
100
AcDbEntity
  8
치수문자_일반주서
 62
     0
370
    -2
100
AcDbLine
 10
-66.54800000000003
 20
41.11250000000001
 30
0.0
 11
66.54800000000003
 21
41.11250000000001
 31
0.0
  0
SOLID
  5
118
330
112
100
AcDbEntity
  8
치수문자_일반주서
 62
     0
100
AcDbTrace
 10
-66.54800000000003
 20
41.66283333333335
 30
0.0
 11
-66.54800000000003
 21
40.56216666666668
 31
0.0
 12
-69.85000000000002
 22
41.11250000000001
 32
0.0
 13
-69.85000000000002
 23
41.11250000000001
 33
0.0
  0
SOLID
  5
119
330
112
100
AcDbEntity
  8
치수문자_일반주서
 62
     0
100
AcDbTrace
 10
66.54800000000003
 20
40.56216666666668
 30
0.0
 11
66.54800000000003
 21
41.66283333333335
 31
0.0
 12
69.85000000000002
 22
41.11250000000001
 32
0.0
 13
69.85000000000002
 23
41.11250000000001
 33
0.0
  0
MTEXT
  5
11A
330
112
100
AcDbEntity
  8
치수문자_일반주서
 62
     0
100
AcDbMText
 10
0.0000000000000284
 20
45.98750000000001
 30
0.0
 40
4.0
 41
0.0
 71
     2
 72
     1
  1
\A1;139.7 [5 1/2]
  7
SLDTEXTSTYLE0
 73
     1
 44
1.0
  0
POINT
  5
11B
330
112
100
AcDbEntity
  8
Defpoints
 62
     0
100
AcDbPoint
 10
-69.85000000000002
 20
11.11249999999989
 30
0.0
  0
POINT
  5
11C
330
112
100
AcDbEntity
  8
Defpoints
 62
     0
100
AcDbPoint
 10
69.85000000000002
 20
11.1125
 30
0.0
  0
POINT
  5
11D
330
112
100
AcDbEntity
  8
Defpoints
 62
     0
100
AcDbPoint
 10
69.85000000000002
 20
41.11250000000001
 30
0.0
  0
ENDBLK
  5
114
330
112
100
AcDbEntity
  8
0
100
AcDbBlockEnd
  0
BLOCK
  5
12C
330
12B
100
AcDbEntity
  8
0
100
AcDbBlockBegin
  2
SW_DOWELSYMBOL_0
 70
     0
 10
0.0
 20
0.0
 30
0.0
  3
SW_DOWELSYMBOL_0
  1
SW_DOWELSYMBOL_0
  0
CIRCLE
  5
12E
330
12B
100
AcDbEntity
  8
해칭선
 62
     0
100
AcDbCircle
 10
0.0
 20
0.0
 30
0.0
 40
3.000000000000001
  0
HATCH
  5
12F
330
12B
100
AcDbEntity
  8
0
  6
Continuous
 62
     0
370
     0
100
AcDbHatch
 10
0.0
 20
0.0
 30
0.0
210
0.0
220
0.0
230
1.0
  2
SOLID
 70
     1
 71
     0
 91
        1
 92
        0
 93
        3
 72
     2
 10
0.0
 20
0.0
 40
3.000000000000001
 50
0.0
 51
90.0
 73
     1
 72
     1
 10
0.0
 20
3.000000000000001
 11
0.0
 21
0.0
 72
     1
 10
0.0
 20
0.0
 11
3.000000000000001
 21
0.0
 97
        0
 75
     0
 76
     1
 98
        1
 10
0.0
 20
0.0
  0
HATCH
  5
130
330
12B
100
AcDbEntity
  8
0
  6
Continuous
 62
     0
370
     0
100
AcDbHatch
 10
0.0
 20
0.0
 30
0.0
210
0.0
220
0.0
230
1.0
  2
SOLID
 70
     1
 71
     0
 91
        1
 92
        0
 93
        3
 72
     2
 10
0.0
 20
0.0
 40
3.000000000000001
 50
180.0
 51
270.0000000000007
 73
     1
 72
     1
 10
0.0
 20
-3.000000000000001
 11
0.0
 21
0.0
 72
     1
 10
0.0
 20
0.0
 11
-3.000000000000001
 21
0.0
 97
        0
 75
     0
 76
     1
 98
        1
 10
0.0
 20
0.0
  0
ENDBLK
  5
12D
330
12B
100
AcDbEntity
  8
0
100
AcDbBlockEnd
  0
BLOCK
  5
192
330
191
100
AcDbEntity
  8
0
100
AcDbBlockBegin
  2
*D7
 70
     1
 10
0.0
 20
0.0
 30
0.0
  3
*D7
  1
*D7
  0
LINE
  5
194
330
191
100
AcDbEntity
  8
치수문자_일반주서
 62
     0
370
    -2
100
AcDbLine
 10
77.54620000000017
 20
7.699178019198558
 30
0.0
 11
77.54620000000017
 21
23.83568883684194
 31
0.0
  0
LINE
  5
195
330
191
100
AcDbEntity
  8
치수문자_일반주서
 62
     0
370
    -2
100
AcDbLine
 10
37.85870000000016
 20
6.438861833078366
 30
0.0
 11
37.85870000000016
 21
23.83568883684194
 31
0.0
  0
LINE
  5
196
330
191
100
AcDbEntity
  8
치수문자_일반주서
 62
     0
370
    -2
100
AcDbLine
 10
74.24420000000018
 20
23.83568883684194
 30
0.0
 11
41.16070000000016
 21
23.83568883684194
 31
0.0
  0
SOLID
  5
197
330
191
100
AcDbEntity
  8
치수문자_일반주서
 62
     0
100
AcDbTrace
 10
74.24420000000018
 20
23.28535550350861
 30
0.0
 11
74.24420000000018
 21
24.38602217017528
 31
0.0
 12
77.54620000000017
 22
23.83568883684194
 32
0.0
 13
77.54620000000017
 23
23.83568883684194
 33
0.0
  0
SOLID
  5
198
330
191
100
AcDbEntity
  8
치수문자_일반주서
 62
     0
100
AcDbTrace
 10
41.16070000000016
 20
24.38602217017528
 30
0.0
 11
41.16070000000016
 21
23.28535550350861
 31
0.0
 12
37.85870000000016
 22
23.83568883684194
 32
0.0
 13
37.85870000000016
 23
23.83568883684194
 33
0.0
  0
MTEXT
  5
199
330
191
100
AcDbEntity
  8
치수문자_일반주서
 62
     0
100
AcDbMText
 10
57.70245000000016
 20
28.71068883684194
 30
0.0
 40
4.0
 41
0.0
 71
     2
 72
     1
  1
\A1;39.69 [1 9/16]
  7
SLDTEXTSTYLE0
 73
     1
 44
1.0
  0
POINT
  5
19A
330
191
100
AcDbEntity
  8
Defpoints
 62
     0
100
AcDbPoint
 10
77.54620000000017
 20
7.636678019198558
 30
0.0
  0
POINT
  5
19B
330
191
100
AcDbEntity
  8
Defpoints
 62
     0
100
AcDbPoint
 10
37.85870000000016
 20
6.376361833078366
 30
0.0
  0
POINT
  5
19C
330
191
100
AcDbEntity
  8
Defpoints
 62
     0
100
AcDbPoint
 10
37.85870000000016
 20
23.83568883684194
 30
0.0
  0
ENDBLK
  5
193
330
191
100
AcDbEntity
  8
0
100
AcDbBlockEnd
  0
BLOCK
  5
1A4
330
1A3
100
AcDbEntity
  8
0
100
AcDbBlockBegin
  2
*D8
 70
     1
 10
0.0
 20
0.0
 30
0.0
  3
*D8
  1
*D8
  0
LINE
  5
1A6
330
1A3
100
AcDbEntity
  8
치수문자_일반주서
 62
     0
370
    -2
100
AcDbLine
 10
131.2030408896919
 20
-25.50332379292002
 30
0.0
 11
131.2030408896919
 21
-9.366812975276641
 31
0.0
  0
LINE
  5
1A7
330
1A3
100
AcDbEntity
  8
치수문자_일반주서
 62
     0
370
    -2
100
AcDbLine
 10
91.51554088969186
 20
-26.76363997904022
 30
0.0
 11
91.51554088969186
 21
-9.366812975276641
 31
0.0
  0
LINE
  5
1A8
330
1A3
100
AcDbEntity
  8
치수문자_일반주서
 62
     0
370
    -2
100
AcDbLine
 10
127.9010408896919
 20
-9.366812975276641
 30
0.0
 11
94.81754088969186
 21
-9.366812975276641
 31
0.0
  0
SOLID
  5
1A9
330
1A3
100
AcDbEntity
  8
치수문자_일반주서
 62
     0
100
AcDbTrace
 10
127.9010408896919
 20
-9.917146308609974
 30
0.0
 11
127.9010408896919
 21
-8.816479641943308
 31
0.0
 12
131.2030408896919
 22
-9.366812975276641
 32
0.0
 13
131.2030408896919
 23
-9.366812975276641
 33
0.0
  0
SOLID
  5
1AA
330
1A3
100
AcDbEntity
  8
치수문자_일반주서
 62
     0
100
AcDbTrace
 10
94.81754088969186
 20
-8.816479641943308
 30
0.0
 11
94.81754088969186
 21
-9.917146308609974
 31
0.0
 12
91.51554088969186
 22
-9.366812975276641
 32
0.0
 13
91.51554088969186
 23
-9.366812975276641
 33
0.0
  0
MTEXT
  5
1AB
330
1A3
100
AcDbEntity
  8
치수문자_일반주서
 62
     0
100
AcDbMText
 10
111.3592908896919
 20
-4.491812975276641
 30
0.0
 40
4.0
 41
0.0
 71
     2
 72
     1
  1
\A1;39.69 [1 9/16]
  7
SLDTEXTSTYLE0
 73
     1
 44
1.0
  0
POINT
  5
1AC
330
1A3
100
AcDbEntity
  8
Defpoints
 62
     0
100
AcDbPoint
 10
131.2030408896919
 20
-25.56582379292002
 30
0.0
  0
POINT
  5
1AD
330
1A3
100
AcDbEntity
  8
Defpoints
 62
     0
100
AcDbPoint
 10
91.51554088969186
 20
-26.82613997904022
 30
0.0
  0
POINT
  5
1AE
330
1A3
100
AcDbEntity
  8
Defpoints
 62
     0
100
AcDbPoint
 10
91.51554088969186
 20
-9.366812975276641
 30
0.0
  0
ENDBLK
  5
1A5
330
1A3
100
AcDbEntity
  8
0
100
AcDbBlockEnd
  0
ENDSEC
  0
SECTION
  2
ENTITIES
  0
LINE
  5
96
330
1F
100
AcDbEntity
  8
외형선
  6
Continuous
370
    15
100
AcDbLine
 10
27.11239328089064
 20
11.1125
 30
0.0
 11
7.696199999999976
 21
11.11249999999999
 31
0.0
  0
LINE
  5
97
330
1F
100
AcDbEntity
  8
외형선
  6
Continuous
370
    15
100
AcDbLine
 10
-27.11239328089068
 20
-11.11250000000001
 30
0.0
 11
27.11239328089064
 21
-11.11250000000001
 31
0.0
  0
SPLINE
  5
9A
330
1F
100
AcDbEntity
  8
외형선
  6
Continuous
370
    15
100
AcDbSpline
210
0.0
220
0.0
230
1.0
 70
     8
 71
     3
 72
     9
 73
     5
 74
     0
 42
0.000000001
 43
0.00000001
 40
0.0
 40
0.0
 40
0.0
 40
0.0
 40
0.7359797110480482
 40
1.0
 40
1.0
 40
1.0
 40
1.0
 10
30.16250000000002
 20
8.689983492246508
 30
0.0
 10
29.72732399788056
 20
8.697237566311099
 30
0.0
 10
29.13603595612223
 20
8.707093916908406
 30
0.0
 10
28.54453545832918
 20
8.727881419909487
 30
0.0
 10
28.38836732598664
 20
8.733369742458423
 30
0.0
  0
SPLINE
  5
9B
330
1F
100
AcDbEntity
  8
외형선
  6
Continuous
370
    15
100
AcDbSpline
210
0.0
220
0.0
230
1.0
 70
     8
 71
     3
 72
     9
 73
     5
 74
     0
 42
0.000000001
 43
0.00000001
 40
0.0
 40
0.0
 40
0.0
 40
0.0
 40
0.5006972427251825
 40
1.0
 40
1.0
 40
1.0
 40
1.0
 10
27.11235246443424
 20
-8.779687788671795
 30
0.0
 10
27.62152829001291
 20
-8.759240713876048
 30
0.0
 10
28.63846184212785
 20
-8.71840351116956
 30
0.0
 10
29.65495977790322
 20
-8.699448020835709
 30
0.0
 10
30.16250000000002
 20
-8.68998349224652
 30
0.0
  0
SPLINE
  5
9C
330
1F
100
AcDbEntity
  8
외형선
  6
Continuous
370
    15
100
AcDbSpline
210
0.0
220
0.0
230
1.0
 70
     8
 71
     3
 72
     9
 73
     5
 74
     0
 42
0.000000001
 43
0.00000001
 40
0.0
 40
0.0
 40
0.0
 40
0.0
 40
0.3562215484195558
 40
1.0
 40
1.0
 40
1.0
 40
1.0
 10
27.14029147646053
 20
9.19129729157145
 30
0.0
 10
27.13338227467588
 20
9.19924372223093
 30
0.0
 10
27.1139864750245
 20
9.221551274075383
 30
0.0
 10
27.11301724822126
 20
9.22366250643264
 30
0.0
 10
27.11239328089064
 20
9.225021672330522
 30
0.0
  0
LINE
  5
9D
330
1F
100
AcDbEntity
  8
0
  6
Continuous
 62
     1
370
    15
100
AcDbLine
 10
34.95750092967085
 20
3.105425030219575
 30
0.0
 11
34.79508703662602
 21
3.194824909320527
 31
0.0
1001
PE_URL
1000

  0
SPLINE
  5
9E
330
1F
100
AcDbEntity
  8
0
  6
Continuous
 62
     1
370
    15
100
AcDbSpline
210
0.0
220
0.0
230
1.0
 70
     8
 71
     3
 72
    10
 73
     6
 74
     0
 42
0.000000001
 43
0.00000001
 40
0.0
 40
0.0
 40
0.0
 40
0.0
 40
0.4219007087713509
 40
0.5964608323005721
 40
1.0
 40
1.0
 40
1.0
 40
1.0
 10
41.05961948461895
 20
2.847599732972541
 30
0.0
 10
40.6266148875257
 20
3.053541935152821
 30
0.0
 10
40.01445596718554
 20
3.3446920914917
 30
0.0
 10
38.98630080240719
 20
3.861695773074984
 30
0.0
 10
38.39230905985956
 20
4.172496196607091
 30
0.0
 10
37.97767625015906
 20
4.389448796507735
 30
0.0
1001
PE_URL
1000

  0
SPLINE
  5
9F
330
1F
100
AcDbEntity
  8
0
  6
Continuous
 62
     1
370
    15
100
AcDbSpline
210
0.0
220
0.0
230
1.0
 70
     8
 71
     3
 72
    19
 73
    15
 74
     0
 42
0.000000001
 43
0.00000001
 40
0.0
 40
0.0
 40
0.0
 40
0.0
 40
0.1134153933633062
 40
0.1638635316850532
 40
0.2130365979246142
 40
0.2814657046493864
 40
0.3531820074737277
 40
0.4190300958985598
 40
0.4787136317671132
 40
0.5332146088530391
 40
0.6060336400931642
 40
0.707686889577897
 40
0.8390420538895412
 40
1.0
 40
1.0
 40
1.0
 40
1.0
 10
37.38602863863642
 20
8.830421823071056
 30
0.0
 10
37.2138062756156
 20
8.817912166404312
 30
0.0
 10
36.96497793051313
 20
8.799838107312409
 30
0.0
 10
36.49611180178142
 20
8.765788332658424
 30
0.0
 10
36.08576697719855
 20
8.744136935694817
 30
0.0
 10
35.59544274184793
 20
8.729993819617613
 30
0.0
 10
35.07884514682387
 20
8.721671363106303
 30
0.0
 10
34.57851665668188
 20
8.711870827724983
 30
0.0
 10
34.12166865175917
 20
8.703523543756631
 30
0.0
 10
33.64541525349578
 20
8.69523503943126
 30
0.0
 10
33.06105064930931
 20
8.68603278575232
 30
0.0
 10
32.28762150517684
 20
8.678632902796817
 30
0.0
 10
31.29624888980719
 20
8.676716610914436
 30
0.0
 10
30.56509771736666
 20
8.685272381886104
 30
0.0
 10
30.16250000000002
 20
8.689983492246508
 30
0.0
1001
PE_URL
1000

  0
SPLINE
  5
A0
330
1F
100
AcDbEntity
  8
0
  6
Continuous
 62
     1
370
    15
100
AcDbSpline
210
0.0
220
0.0
230
1.0
 70
     8
 71
     3
 72
    26
 73
    22
 74
     0
 42
0.000000001
 43
0.00000001
 40
0.0
 40
0.0
 40
0.0
 40
0.0
 40
0.0727699576727876
 40
0.1366954533435526
 40
0.1934179207502295
 40
0.2431481579081883
 40
0.2832891661195602
 40
0.3223611638855636
 40
0.3980769138244233
 40
0.4650377294727665
 40
0.5329591849580504
 40
0.6002029959790937
 40
0.6611074672649369
 40
0.7175987086592313
 40
0.7739862255477621
 40
0.8010596492150217
 40
0.8265840375017741
 40
0.855214299382926
 40
0.8897731204017075
 40
0.9370435317101972
 40
0.9999999999999999
 40
0.9999999999999999
 40
0.9999999999999999
 40
0.9999999999999999
 10
65.72157463695233
 20
7.600426192827109
 30
0.0
 10
65.29211811237847
 20
7.564021791529893
 30
0.0
 10
64.48540121717376
 20
7.495637580542719
 30
0.0
 10
63.25384705640692
 20
7.413476520657146
 30
0.0
 10
62.11140289716598
 20
7.366361777751311
 30
0.0
 10
61.12615224549535
 20
7.338505382292108
 30
0.0
 10
60.26609554769028
 20
7.320375775744227
 30
0.0
 10
59.26619457147329
 20
7.310166453397076
 30
0.0
 10
58.08049578628957
 20
7.315368684321744
 30
0.0
 10
56.71241894771202
 20
7.34668087365644
 30
0.0
 10
55.39248892296153
 20
7.399871030272368
 30
0.0
 10
54.09860375891851
 20
7.473906441611851
 30
0.0
 10
52.9206348554121
 20
7.561305996794657
 30
0.0
 10
51.8149277259935
 20
7.657841958440692
 30
0.0
 10
50.87322744973687
 20
7.752757400481491
 30
0.0
 10
50.14985454928699
 20
7.833128720684519
 30
0.0
 10
49.67085360729112
 20
7.89012274577819
 30
0.0
 10
49.08919759845913
 20
7.961572265578773
 30
0.0
 10
48.35083878191477
 20
8.057506402475473
 30
0.0
 10
47.40291449833128
 20
8.18873319601453
 30
0.0
 10
46.70609283045334
 20
8.296527738123482
 30
0.0
 10
46.30810069462149
 20
8.358094968338362
 30
0.0
1001
PE_URL
1000

  0
SPLINE
  5
A1
330
1F
100
AcDbEntity
  8
0
  6
Continuous
 62
     1
370
    15
100
AcDbSpline
210
0.0
220
0.0
230
1.0
 70
     8
 71
     3
 72
    19
 73
    15
 74
     0
 42
0.000000001
 43
0.00000001
 40
0.0
 40
0.0
 40
0.0
 40
0.0
 40
0.0972894457997394
 40
0.1718194650108184
 40
0.2511975672762174
 40
0.3406411297285759
 40
0.4139290918476126
 40
0.4757124606799415
 40
0.541708069512797
 40
0.6314854597906048
 40
0.742124698285245
 40
0.8710245707805189
 40
0.9718874834362515
 40
1.0
 40
1.0
 40
1.0
 40
1.0
 10
46.30810069462149
 20
-8.358094968338373
 30
0.0
 10
46.54356183663804
 20
-8.320484590818248
 30
0.0
 10
46.95940146980232
 20
-8.254062227207864
 30
0.0
 10
47.66457342558143
 20
-8.149379214151052
 30
0.0
 10
48.36008035461438
 20
-8.057285794433161
 30
0.0
 10
49.04969184967268
 20
-7.966409445319095
 30
0.0
 10
49.6832023278904
 20
-7.888220223965327
 30
0.0
 10
50.24474261783227
 20
-7.822710680725004
 30
0.0
 10
50.83284800507037
 20
-7.758048909936222
 30
0.0
 10
51.5753955625085
 20
-7.681906696238839
 30
0.0
 10
52.49621150485905
 20
-7.59695901906915
 30
0.0
 10
53.4464602888003
 20
-7.521529659707375
 30
0.0
 10
54.16546097594105
 20
-7.471664766616093
 30
0.0
 10
54.52448880511303
 20
-7.451379951775313
 30
0.0
 10
54.60274538356
 20
-7.446958511221442
 30
0.0
1001
PE_URL
1000

  0
SPLINE
  5
A2
330
1F
100
AcDbEntity
  8
0
  6
Continuous
 62
     1
370
    15
100
AcDbSpline
210
0.0
220
0.0
230
1.0
 70
     8
 71
     3
 72
    18
 73
    14
 74
     0
 42
0.000000001
 43
0.00000001
 40
0.0
 40
0.0
 40
0.0
 40
0.0
 40
0.1896179843546253
 40
0.3365188964072558
 40
0.4410820372793275
 40
0.510070381422979
 40
0.580952374484278
 40
0.6468032175842333
 40
0.7185225205733482
 40
0.7869544899470229
 40
0.8361296132823248
 40
0.8865798620409103
 40
1.0
 40
1.0
 40
1.0
 40
1.0
 10
30.16250000000002
 20
-8.689983492246522
 30
0.0
 10
30.63689515827238
 20
-8.684708361920979
 30
0.0
 10
31.47881390171917
 20
-8.675346480759774
 30
0.0
 10
32.58989620461303
 20
-8.680439689916673
 30
0.0
 10
33.40387002455122
 20
-8.691035809570204
 30
0.0
 10
34.02825946772543
 20
-8.70185446237005
 30
0.0
 10
34.5500757304731
 20
-8.71131035214891
 30
0.0
 10
35.07885746290135
 20
-8.721672568340264
 30
0.0
 10
35.59543946087412
 20
-8.729993498546156
 30
0.0
 10
36.08576757109759
 20
-8.74413699381295
 30
0.0
 10
36.49611166521515
 20
-8.765788319294252
 30
0.0
 10
36.96497801795035
 20
-8.799838115868905
 30
0.0
 10
37.21380631138004
 20
-8.817912169904181
 30
0.0
 10
37.38602863863642
 20
-8.830421823071068
 30
0.0
1001
PE_URL
1000

  0
SPLINE
  5
A3
330
1F
100
AcDbEntity
  8
외형선
  6
Continuous
370
    15
100
AcDbSpline
210
0.0
220
0.0
230
1.0
 70
     8
 71
     3
 72
    10
 73
     6
 74
     0
 42
0.000000001
 43
0.00000001
 40
0.0
 40
0.0
 40
0.0
 40
0.0
 40
0.5
 40
0.5
 40
1.0
 40
1.0
 40
1.0
 40
1.0
 10
30.1625000000001
 20
8.064421773513867
 30
0.0
 10
29.6542944901381
 20
8.266337619647874
 30
0.0
 10
29.14845927873169
 20
8.45951766600055
 30
0.0
 10
28.1310112370417
 20
8.828508869526784
 30
0.0
 10
27.62106006761717
 20
9.004088490843424
 30
0.0
 10
27.11228150630279
 20
9.169924879976266
 30
0.0
  0
LINE
  5
A4
330
1F
100
AcDbEntity
  8
외형선
  6
Continuous
370
    15
100
AcDbLine
 10
30.16250000000002
 20
8.0644217735139
 30
0.0
 11
30.16250000000002
 21
5.63923815420656
 31
0.0
  0
SPLINE
  5
A5
330
1F
100
AcDbEntity
  8
외형선
  6
Continuous
370
    15
100
AcDbSpline
210
0.0
220
0.0
230
1.0
 70
     8
 71
     3
 72
    10
 73
     6
 74
     0
 42
0.000000001
 43
0.00000001
 40
0.0
 40
0.0
 40
0.0
 40
0.0
 40
0.5
 40
0.5
 40
1.0
 40
1.0
 40
1.0
 40
1.0
 10
27.11239328089064
 20
7.079643782557775
 30
0.0
 10
27.62115338475122
 20
6.853354784389404
 30
0.0
 10
28.13108583524158
 20
6.619468795450335
 30
0.0
 10
29.14849644310876
 20
6.13870546057952
 30
0.0
 10
29.65431309825041
 20
5.892112661311989
 30
0.0
 10
30.16250000000004
 20
5.639238154206573
 30
0.0
  0
LINE
  5
A6
330
1F
100
AcDbEntity
  8
외형선
  6
Continuous
370
    15
100
AcDbLine
 10
28.38949326456482
 20
-8.732984553419225
 30
0.0
 11
27.11228150630279
 21
-9.169924879976277
 31
0.0
  0
LINE
  5
A7
330
1F
100
AcDbEntity
  8
외형선
  6
Continuous
370
    15
100
AcDbLine
 10
27.11239328089064
 20
9.170193884085178
 30
0.0
 11
27.11239328089064
 21
11.1125
 31
0.0
  0
LINE
  5
A9
330
1F
100
AcDbEntity
  8
외형선
  6
Continuous
370
    15
100
AcDbLine
 10
27.11239328089064
 20
-11.11250000000001
 30
0.0
 11
27.11239328089064
 21
7.079645089233166
 31
0.0
  0
SPLINE
  5
AB
330
1F
100
AcDbEntity
  8
외형선
  6
Continuous
370
    15
100
AcDbSpline
210
0.0
220
0.0
230
1.0
 70
    24
 71
     3
 72
    10
 73
     6
 74
     0
 42
0.000000001
 43
0.00000001
 40
0.0
 40
0.0
 40
0.0
 40
0.0
 40
0.5000000000000003
 40
0.5000000000000003
 40
1.0
 40
1.0
 40
1.0
 40
1.0
 10
30.16250000000002
 20
5.639238154206584
 30
0.0
 10
30.16250000000002
 20
5.50233731246098
 30
0.0
 10
30.16250000000002
 20
5.249752902914052
 30
0.0
 10
30.16250000000002
 20
4.5628485388522
 30
0.0
 10
30.16250000000002
 20
4.13105361401613
 30
0.0
 10
30.16250000000002
 20
3.668612268547625
 30
0.0
  0
SPLINE
  5
AC
330
1F
100
AcDbEntity
  8
외형선
  6
Continuous
370
    15
100
AcDbSpline
210
0.0
220
0.0
230
1.0
 70
     8
 71
     3
 72
    10
 73
     6
 74
     0
 42
0.000000001
 43
0.00000001
 40
0.0
 40
0.0
 40
0.0
 40
0.0
 40
0.5
 40
0.5
 40
1.0
 40
1.0
 40
1.0
 40
1.0
 10
30.16250000000001
 20
3.668612268547629
 30
0.0
 10
29.65430861514695
 20
3.849761598027706
 30
0.0
 10
29.14848748939401
 20
4.026798447688181
 30
0.0
 10
28.13106786289585
 20
4.372749316482874
 30
0.0
 10
27.62113090260178
 20
4.541459944534386
 30
0.0
 10
27.11236635193125
 20
4.705111380738508
 30
0.0
  0
SPLINE
  5
AD
330
1F
100
AcDbEntity
  8
외형선
  6
Continuous
370
    15
100
AcDbSpline
210
0.0
220
0.0
230
1.0
 70
     8
 71
     3
 72
    10
 73
     6
 74
     0
 42
0.000000001
 43
0.00000001
 40
0.0
 40
0.0
 40
0.0
 40
0.0
 40
0.5
 40
0.5
 40
1.0
 40
1.0
 40
1.0
 40
1.0
 10
30.16250000000002
 20
-7.839219918338867
 30
0.0
 10
29.65430630317165
 20
-7.728493419819031
 30
0.0
 10
29.14848287188546
 20
-7.609752173806488
 30
0.0
 10
28.13105859440109
 20
-7.356149719452825
 30
0.0
 10
27.62111930836236
 20
-7.221400613984525
 30
0.0
 10
27.11235246443424
 20
-7.079336892346496
 30
0.0
  0
SPLINE
  5
AE
330
1F
100
AcDbEntity
  8
외형선
  6
Continuous
370
    15
100
AcDbSpline
210
0.0
220
0.0
230
1.0
 70
    24
 71
     3
 72
    14
 73
    10
 74
     0
 42
0.000000001
 43
0.00000001
 40
0.0
 40
0.0
 40
0.0
 40
0.0
 40
0.25
 40
0.25
 40
0.5
 40
0.5
 40
0.75
 40
0.75
 40
1.0
 40
1.0
 40
1.0
 40
1.0
 10
30.1625
 20
3.66861226854763
 30
0.0
 10
30.1625
 20
2.721631068750332
 30
0.0
 10
30.16250000000001
 20
1.711290206587525
 30
0.0
 10
30.1625
 20
-0.3530680471446698
 30
0.0
 10
30.16250000000001
 20
-1.406166805656338
 30
0.0
 10
30.1625
 20
-3.451440368842697
 30
0.0
 10
30.1625
 20
-4.442525366253671
 30
0.0
 10
30.1625
 20
-6.270591153145294
 30
0.0
 10
30.1625
 20
-7.106985195087642
 30
0.0
 10
30.1625
 20
-7.83921991833886
 30
0.0
  0
SPLINE
  5
AF
330
1F
100
AcDbEntity
  8
외형선
  6
Continuous
370
    15
100
AcDbSpline
210
0.0
220
0.0
230
1.0
 70
    24
 71
     3
 72
    10
 73
     6
 74
     0
 42
0.000000001
 43
0.00000001
 40
0.0
 40
0.0
 40
0.0
 40
0.0
 40
0.0624790749484294
 40
0.660300395359937
 40
1.0
 40
1.0
 40
1.0
 40
1.0
 10
30.16250000000002
 20
8.67379407561904
 30
0.0
 10
30.16250000000002
 20
8.67900775991816
 30
0.0
 10
30.16250000000002
 20
8.734107772311615
 30
0.0
 10
30.16250000000002
 20
8.576319022030704
 30
0.0
 10
30.16250000000002
 20
8.272320753929545
 30
0.0
 10
30.16250000000002
 20
8.162170581569876
 30
0.0
  0
SPLINE
  5
B0
330
1F
100
AcDbEntity
  8
외형선
  6
Continuous
370
    15
100
AcDbSpline
210
0.0
220
0.0
230
1.0
 70
    24
 71
     3
 72
    10
 73
     6
 74
     0
 42
0.000000001
 43
0.00000001
 40
0.0
 40
0.0
 40
0.0
 40
0.0
 40
0.3004674648948305
 40
0.6048390666687127
 40
1.0
 40
1.0
 40
1.0
 40
1.0
 10
30.16250000000002
 20
-7.839219918338865
 30
0.0
 10
30.16250000000002
 20
-7.992780087617965
 30
0.0
 10
30.16250000000002
 20
-8.301895716815187
 30
0.0
 10
30.16250000000002
 20
-8.620501047767078
 30
0.0
 10
30.16250000000002
 20
-8.654562203371071
 30
0.0
 10
30.16250000000002
 20
-8.673803106922172
 30
0.0
  0
SPLINE
  5
B1
330
1F
100
AcDbEntity
  8
0
  6
Continuous
 62
     1
370
    15
100
AcDbSpline
210
0.0
220
0.0
230
1.0
 70
     8
 71
     3
 72
    50
 73
    46
 74
     0
 42
0.000000001
 43
0.00000001
 40
0.0
 40
0.0
 40
0.0
 40
0.0
 40
0.0624999999999998
 40
0.0624999999999998
 40
0.1249999999999996
 40
0.1249999999999996
 40
0.1874999999999993
 40
0.1874999999999993
 40
0.2187499999999992
 40
0.2187499999999992
 40
0.2499999999999992
 40
0.2499999999999992
 40
0.3124999999999991
 40
0.3124999999999991
 40
0.3437499999999991
 40
0.3437499999999991
 40
0.374999999999999
 40
0.374999999999999
 40
0.4374999999999989
 40
0.4374999999999989
 40
0.4687499999999989
 40
0.4687499999999989
 40
0.4999999999999988
 40
0.4999999999999988
 40
0.5624999999999987
 40
0.5624999999999987
 40
0.5937499999999986
 40
0.5937499999999986
 40
0.6249999999999984
 40
0.6249999999999984
 40
0.6874999999999984
 40
0.6874999999999984
 40
0.7499999999999984
 40
0.7499999999999984
 40
0.8124999999999984
 40
0.8124999999999984
 40
0.8437499999999987
 40
0.8437499999999987
 40
0.8749999999999989
 40
0.8749999999999989
 40
0.9062499999999991
 40
0.9062499999999991
 40
0.9374999999999992
 40
0.9374999999999992
 40
1.0
 40
1.0
 40
1.0
 40
1.0
 10
30.16249999999983
 20
5.639238154206702
 30
0.0
 10
30.98900971559785
 20
5.227965773454444
 30
0.0
 10
31.81990117744414
 20
4.800302635465265
 30
0.0
 10
33.46983362426357
 20
3.922857477060767
 30
0.0
 10
34.2975636890406
 20
3.471566730206305
 30
0.0
 10
35.95330566610575
 20
2.552200744897076
 30
0.0
 10
36.77609856523522
 20
2.085125529605292
 30
0.0
 10
38.01838200368742
 20
1.376279618742201
 30
0.0
 10
38.43282146604722
 20
1.138814035848214
 30
0.0
 10
39.25981044102395
 20
0.6629967387552128
 30
0.0
 10
39.67122153619812
 20
0.4248652232388533
 30
0.0
 10
40.91009677080058
 20
-0.2908078192078811
 30
0.0
 10
41.74104540598236
 20
-0.7694032964121152
 30
0.0
 10
42.97955208679124
 20
-1.480610632711998
 30
0.0
 10
43.39109062402579
 20
-1.716573465778378
 30
0.0
 10
44.21825402626654
 20
-2.186575671120986
 30
0.0
 10
44.632719278255
 20
-2.420391733789264
 30
0.0
 10
45.87489501260283
 20
-3.116095386839493
 30
0.0
 10
46.69764035557314
 20
-3.571556518708581
 30
0.0
 10
47.93960110589365
 20
-4.23948542953089
 30
0.0
 10
48.35409590166752
 20
-4.459434197231271
 30
0.0
 10
49.18152018996668
 20
-4.892577634728945
 30
0.0
 10
49.59335838114134
 20
-5.105588322020429
 30
0.0
 10
50.83122234896862
 20
-5.734008931615331
 30
0.0
 10
51.66214521371069
 20
-6.139158093691249
 30
0.0
 10
52.90158743351714
 20
-6.718614133450556
 30
0.0
 10
53.31287988159607
 20
-6.90697163666472
 30
0.0
 10
54.13955722287798
 20
-7.274497983969682
 30
0.0
 10
54.55394158016455
 20
-7.453504826831823
 30
0.0
 10
55.79636354998306
 20
-7.974555108077899
 30
0.0
 10
56.61931254190967
 20
-8.300067509460847
 30
0.0
 10
58.27466603136762
 20
-8.90465136582371
 30
0.0
 10
59.10342721516743
 20
-9.18317734776752
 30
0.0
 10
60.75240202283955
 20
-9.68708101570596
 30
0.0
 10
61.58321618197468
 20
-9.913499482498253
 30
0.0
 10
62.82347182612807
 20
-10.21049909008239
 30
0.0
 10
63.23480953603307
 20
-10.3023476969044
 30
0.0
 10
64.06091928057748
 20
-10.4719368968919
 30
0.0
 10
64.4751816303744
 20
-10.54962302968495
 30
0.0
 10
65.30354503563497
 20
-10.6902552738105
 30
0.0
 10
65.71764430555044
 20
-10.75320108998843
 30
0.0
 10
66.54310510452956
 20
-10.86401250666371
 30
0.0
 10
66.95477941235578
 20
-10.91190952470758
 30
0.0
 10
68.19572609821726
 20
-11.03307765284971
 30
0.0
 10
69.02634865288479
 20
-11.08351103547014
 30
0.0
 10
69.85000000000002
 20
-11.1125
 30
0.0
1001
PE_URL
1000

  0
SPLINE
  5
B2
330
1F
100
AcDbEntity
  8
0
  6
Continuous
 62
     1
370
    15
100
AcDbSpline
210
0.0
220
0.0
230
1.0
 70
     8
 71
     3
 72
    11
 73
     7
 74
     0
 42
0.000000001
 43
0.00000001
 40
0.0
 40
0.0
 40
0.0
 40
0.0
 40
0.0727041522430441
 40
0.3676924846405393
 40
0.6838652740853514
 40
0.9999999999999999
 40
0.9999999999999999
 40
0.9999999999999999
 40
0.9999999999999999
 10
42.23697128079878
 20
-1.051714665819691
 30
0.0
 10
41.94435542470769
 20
-0.935838711699062
 30
0.0
 10
40.46448601076173
 20
-0.3498100439239882
 30
0.0
 10
37.71214798824317
 20
0.7734112602368493
 30
0.0
 10
33.97980943615285
 20
2.265877959480474
 30
0.0
 10
31.43488541243
 20
3.201052930688217
 30
0.0
 10
30.16250000000001
 20
3.668612268547627
 30
0.0
1001
PE_URL
1000

  0
SPLINE
  5
B3
330
1F
100
AcDbEntity
  8
외형선
  6
Continuous
370
    15
100
AcDbSpline
210
0.0
220
0.0
230
1.0
 70
    24
 71
     3
 72
    10
 73
     6
 74
     0
 42
0.000000001
 43
0.00000001
 40
0.0
 40
0.0
 40
0.0
 40
0.0
 40
0.5000000000000003
 40
0.5000000000000003
 40
1.0
 40
1.0
 40
1.0
 40
1.0
 10
30.16250000000002
 20
5.639238154206584
 30
0.0
 10
30.16250000000002
 20
5.50233731246098
 30
0.0
 10
30.16250000000002
 20
5.249752902914052
 30
0.0
 10
30.16250000000002
 20
4.5628485388522
 30
0.0
 10
30.16250000000002
 20
4.13105361401613
 30
0.0
 10
30.16250000000002
 20
3.668612268547625
 30
0.0
  0
SPLINE
  5
B4
330
1F
100
AcDbEntity
  8
0
  6
Continuous
 62
     1
370
    15
100
AcDbSpline
210
0.0
220
0.0
230
1.0
 70
     8
 71
     3
 72
    50
 73
    46
 74
     0
 42
0.000000001
 43
0.00000001
 40
0.0
 40
0.0
 40
0.0
 40
0.0
 40
0.0624999999999994
 40
0.0624999999999994
 40
0.0937499999999993
 40
0.0937499999999993
 40
0.1249999999999992
 40
0.1249999999999992
 40
0.1562499999999991
 40
0.1562499999999991
 40
0.1874999999999989
 40
0.1874999999999989
 40
0.2499999999999991
 40
0.2499999999999991
 40
0.3124999999999993
 40
0.3124999999999993
 40
0.3749999999999994
 40
0.3749999999999994
 40
0.4062499999999996
 40
0.4062499999999996
 40
0.4374999999999998
 40
0.4374999999999998
 40
0.5000000000000002
 40
0.5000000000000002
 40
0.5312500000000003
 40
0.5312500000000003
 40
0.5625000000000004
 40
0.5625000000000004
 40
0.6250000000000007
 40
0.6250000000000007
 40
0.6562500000000006
 40
0.6562500000000006
 40
0.6875000000000004
 40
0.6875000000000004
 40
0.7500000000000004
 40
0.7500000000000004
 40
0.7812500000000003
 40
0.7812500000000003
 40
0.8125000000000002
 40
0.8125000000000002
 40
0.8750000000000002
 40
0.8750000000000002
 40
0.9375000000000001
 40
0.9375000000000001
 40
1.0
 40
1.0
 40
1.0
 40
1.0
 10
69.85000000000002
 20
-10.54510540933949
 30
0.0
 10
69.02634865288474
 20
-10.39471392836036
 30
0.0
 10
68.19572609821714
 20
-10.21466531575243
 30
0.0
 10
66.95477941235555
 20
-9.903268393963964
 30
0.0
 10
66.54310510452933
 20
-9.792716228140694
 30
0.0
 10
65.71764430555011
 20
-9.55805372826067
 30
0.0
 10
65.30354503563461
 20
-9.433898077762661
 30
0.0
 10
64.47518163037398
 20
-9.172664334686031
 30
0.0
 10
64.06091928057705
 20
-9.03558679821927
 30
0.0
 10
63.23480953603259
 20
-8.74939782656084
 30
0.0
 10
62.82347182612755
 20
-8.600361958162665
 30
0.0
 10
61.58321618197407
 20
-8.134971314442534
 30
0.0
 10
60.75240202283887
 20
-7.800745097204357
 30
0.0
 10
59.10342721516665
 20
-7.092777783685879
 30
0.0
 10
58.27466603136674
 20
-6.717553085243123
 30
0.0
 10
56.61931254190868
 20
-5.932300088503897
 30
0.0
 10
55.79636354998199
 20
-5.522924792289844
 30
0.0
 10
54.5539415801634
 20
-4.886329205377476
 30
0.0
 10
54.1395572228768
 20
-4.670553408957928
 30
0.0
 10
53.31287988159482
 20
-4.233203431927444
 30
0.0
 10
52.90158743351589
 20
-4.011814333649253
 30
0.0
 10
51.66214521370932
 20
-3.338795125252602
 30
0.0
 10
50.83122234896717
 20
-2.878761666040695
 30
0.0
 10
49.59335838113982
 20
-2.180257839592542
 30
0.0
 10
49.18152018996513
 20
-1.945904189777296
 30
0.0
 10
48.35409590166591
 20
-1.474118798795718
 30
0.0
 10
47.93960110589199
 20
-1.236892424048437
 30
0.0
 10
46.69764035557139
 20
-0.5234263141499097
 30
0.0
 10
45.87489501260102
 20
-0.0460194251982352
 30
0.0
 10
44.63271927825308
 20
0.6698494467752507
 30
0.0
 10
44.2182540262646
 20
0.9082512642708782
 30
0.0
 10
43.3910906240238
 20
1.38312938322274
 30
0.0
 10
42.97955208678923
 20
1.619385429501379
 30
0.0
 10
41.74104540598023
 20
2.325050324255034
 30
0.0
 10
40.9100967707984
 20
2.791339958090227
 30
0.0
 10
39.67122153619586
 20
3.475863133897112
 30
0.0
 10
39.25981044102166
 20
3.701510842073023
 30
0.0
 10
38.43282146604486
 20
4.148132661894453
 30
0.0
 10
38.01838200368502
 20
4.368894448878483
 30
0.0
 10
36.77609856523272
 20
5.021457782884029
 30
0.0
 10
35.9533056661032
 20
5.442864117892642
 30
0.0
 10
34.29756368903791
 20
6.254976910050075
 30
0.0
 10
33.46983362426086
 20
6.644769019597499
 30
0.0
 10
31.81990117744128
 20
7.38467398810542
 30
0.0
 10
30.98900971559492
 20
7.736040035567751
 30
0.0
 10
30.16249999999686
 20
8.06442177351516
 30
0.0
1001
PE_URL
1000

  0
SPLINE
  5
B5
330
1F
100
AcDbEntity
  8
0
  6
Continuous
 62
     1
370
    15
100
AcDbSpline
210
0.0
220
0.0
230
1.0
 70
     8
 71
     3
 72
    16
 73
    12
 74
     0
 42
0.000000001
 43
0.00000001
 40
0.0
 40
0.0
 40
0.0
 40
0.0
 40
0.1233964245690741
 40
0.2468002076575841
 40
0.370210350665781
 40
0.493625851588126
 40
0.6170457055464555
 40
0.7404689053264396
 40
0.8638944419167272
 40
0.9873213050501574
 40
1.0
 40
1.0
 40
1.0
 40
1.0
 10
69.85000000000002
 20
-8.767454287791807
 30
0.0
 10
68.66308712690845
 20
-8.5217402579391
 30
0.0
 10
66.28919060135325
 20
-8.03029754552823
 30
0.0
 10
62.72820813577529
 20
-6.938813478187261
 30
0.0
 10
59.16701749539715
 20
-5.631982205351141
 30
0.0
 10
55.60564862001439
 20
-4.126879055028524
 30
0.0
 10
52.04413568003898
 20
-2.483242514048726
 30
0.0
 10
48.48251180957555
 20
-0.7512829568917253
 30
0.0
 10
44.92081053353439
 20
0.994607924508159
 30
0.0
 10
42.42436267370831
 20
2.224934476384626
 30
0.0
 10
41.11515351848945
 20
2.818321750643634
 30
0.0
 10
40.99319623960739
 20
2.873597790383655
 30
0.0
1001
PE_URL
1000

  0
LINE
  5
B6
330
1F
100
AcDbEntity
  8
0
  6
Continuous
 62
     1
370
    15
100
AcDbLine
 10
69.85000000000002
 20
-10.54510540933949
 30
0.0
 11
69.85000000000002
 21
-8.767454287791807
 31
0.0
1001
PE_URL
1000

  0
LINE
  5
B7
330
1F
100
AcDbEntity
  8
0
  6
Continuous
 62
     1
370
    15
100
AcDbLine
 10
69.85000000000002
 20
-11.11249999999991
 30
0.0
 11
69.85000000000002
 21
-10.54510540933949
 31
0.0
1001
PE_URL
1000

  0
SPLINE
  5
B8
330
1F
100
AcDbEntity
  8
0
  6
Continuous
 62
     1
370
    15
100
AcDbSpline
210
0.0
220
0.0
230
1.0
 70
     8
 71
     3
 72
    10
 73
     6
 74
     0
 42
0.000000001
 43
0.00000001
 40
0.0
 40
0.0
 40
0.0
 40
0.0
 40
0.5
 40
0.5
 40
1.0
 40
1.0
 40
1.0
 40
1.0
 10
69.85000000000002
 20
-2.969737237754428
 30
0.0
 10
68.99442494795372
 20
-2.297114754807687
 30
0.0
 10
68.14994764956617
 20
-1.604994341206969
 30
0.0
 10
66.48286042874409
 20
-0.1823341551849934
 30
0.0
 10
65.66023187812706
 20
0.5481728889002339
 30
0.0
 10
64.85000000000002
 20
1.300459967754858
 30
0.0
1001
PE_URL
1000

  0
LINE
  5
B9
330
1F
100
AcDbEntity
  8
0
  6
Continuous
 62
     1
370
    15
100
AcDbLine
 10
64.85000000000002
 20
2.937719435296586
 30
0.0
 11
69.85000000000002
 21
0.0
 31
0.0
1001
PE_URL
1000

  0
LINE
  5
BA
330
1F
100
AcDbEntity
  8
0
  6
Continuous
 62
     1
370
    15
100
AcDbLine
 10
69.85000000000002
 20
0.0
 30
0.0
 11
69.85000000000002
 21
-2.969737237754429
 31
0.0
1001
PE_URL
1000

  0
SPLINE
  5
BB
330
1F
100
AcDbEntity
  8
0
  6
Continuous
 62
     1
370
    15
100
AcDbSpline
210
0.0
220
0.0
230
1.0
 70
     8
 71
     3
 72
    16
 73
    12
 74
     0
 42
0.000000001
 43
0.00000001
 40
0.0
 40
0.0
 40
0.0
 40
0.0
 40
0.1034596944397206
 40
0.2069388008245422
 40
0.3366084382357438
 40
0.4662827130964291
 40
0.5959605524517553
 40
0.7256408814270281
 40
0.8553226238058592
 40
0.9850047026098744
 40
1.0
 40
1.0
 40
1.0
 40
1.0
 10
64.85000000000002
 20
2.283536363151121
 30
0.0
 10
63.90294797106446
 20
2.701575636807281
 30
0.0
 10
62.00866621962783
 20
3.537732620031036
 30
0.0
 10
58.92740748801015
 20
4.799811441433945
 30
0.0
 10
55.60564340180527
 20
6.02956288456819
 30
0.0
 10
52.04417248565485
 20
7.141451675081703
 30
0.0
 10
48.48254319393678
 20
8.00758342940861
 30
0.0
 10
44.9208583773335
 20
8.608952370778585
 30
0.0
 10
41.35908943686638
 20
8.883896858122586
 30
0.0
 10
38.8473794836946
 20
8.94951802882658
 30
0.0
 10
37.52277708474249
 20
8.826543507318492
 30
0.0
 10
37.38548673971088
 20
8.813797633914294
 30
0.0
1001
PE_URL
1000

  0
SPLINE
  5
BC
330
1F
100
AcDbEntity
  8
0
  6
Continuous
 62
     1
370
    15
100
AcDbSpline
210
0.0
220
0.0
230
1.0
 70
    24
 71
     3
 72
     8
 73
     4
 74
     0
 42
0.000000001
 43
0.00000001
 40
0.0
 40
0.0
 40
0.0
 40
0.0
 40
1.0
 40
1.0
 40
1.0
 40
1.0
 10
64.85000000000002
 20
1.300459967738047
 30
0.0
 10
64.85000000000002
 20
1.631923426794615
 30
0.0
 10
64.85000000000002
 20
1.960107858706737
 30
0.0
 10
64.85000000000002
 20
2.28353636315112
 30
0.0
1001
PE_URL
1000

  0
SPLINE
  5
BD
330
1F
100
AcDbEntity
  8
0
  6
Continuous
 62
     1
370
    15
100
AcDbSpline
210
0.0
220
0.0
230
1.0
 70
    24
 71
     3
 72
    10
 73
     6
 74
     0
 42
0.000000001
 43
0.00000001
 40
0.0
 40
0.0
 40
0.0
 40
0.0
 40
0.5
 40
0.5
 40
1.0
 40
1.0
 40
1.0
 40
1.0
 10
69.85000000000002
 20
-8.767454287791804
 30
0.0
 10
69.85000000000002
 20
-8.095360560304787
 30
0.0
 10
69.85000000000002
 20
-7.246144364910636
 30
0.0
 10
69.85000000000002
 20
-5.271798438561935
 30
0.0
 10
69.85000000000002
 20
-4.148378960907682
 30
0.0
 10
69.85000000000002
 20
-2.969737237754784
 30
0.0
1001
PE_URL
1000

  0
SPLINE
  5
BE
330
1F
100
AcDbEntity
  8
외형선
  6
Continuous
370
    15
100
AcDbSpline
210
0.0
220
0.0
230
1.0
 70
    24
 71
     3
 72
    10
 73
     6
 74
     0
 42
0.000000001
 43
0.00000001
 40
0.0
 40
0.0
 40
0.0
 40
0.0
 40
0.0662513124979283
 40
0.6616672209634327
 40
1.0
 40
1.0
 40
1.0
 40
1.0
 10
30.16250000000002
 20
8.672874943492547
 30
0.0
 10
30.16250000000002
 20
8.678454644076686
 30
0.0
 10
30.16250000000002
 20
8.734180407689756
 30
0.0
 10
30.16250000000002
 20
8.576438621027247
 30
0.0
 10
30.16250000000002
 20
8.272352563418115
 30
0.0
 10
30.16250000000002
 20
8.162170581569876
 30
0.0
  0
SPLINE
  5
BF
330
1F
100
AcDbEntity
  8
0
  6
Continuous
 62
     1
370
    15
100
AcDbSpline
210
0.0
220
0.0
230
1.0
 70
    24
 71
     3
 72
    10
 73
     6
 74
     0
 42
0.000000001
 43
0.00000001
 40
0.0
 40
0.0
 40
0.0
 40
0.0
 40
0.5000000000000001
 40
0.5000000000000001
 40
1.0
 40
1.0
 40
1.0
 40
1.0
 10
64.85000000000002
 20
2.283536363151123
 30
0.0
 10
64.85000000000002
 20
3.059531527112042
 30
0.0
 10
64.85000000000002
 20
3.79600373863071
 30
0.0
 10
64.85000000000002
 20
5.109618802043816
 30
0.0
 10
64.85000000000002
 20
5.68593737983019
 30
0.0
 10
64.85000000000002
 20
6.150941962892349
 30
0.0
1001
PE_URL
1000

  0
SPLINE
  5
C0
330
1F
100
AcDbEntity
  8
0
  6
Continuous
 62
     1
370
    15
100
AcDbSpline
210
0.0
220
0.0
230
1.0
 70
     8
 71
     3
 72
     9
 73
     5
 74
     0
 42
0.000000001
 43
0.00000001
 40
0.0
 40
0.0
 40
0.0
 40
0.0
 40
0.8617312231481868
 40
1.0
 40
1.0
 40
1.0
 40
1.0
 10
69.85000000000002
 20
7.778749999999992
 30
0.0
 10
68.66309046619403
 20
7.771978294958114
 30
0.0
 10
67.28573578538087
 20
7.764120038392757
 30
0.0
 10
65.9083678772972
 20
7.604832351226595
 30
0.0
 10
65.71792090137151
 20
7.582807837554572
 30
0.0
1001
PE_URL
1000

  0
SPLINE
  5
C1
330
1F
100
AcDbEntity
  8
0
  6
Continuous
 62
     1
370
    15
100
AcDbSpline
210
0.0
220
0.0
230
1.0
 70
     8
 71
     3
 72
     8
 73
     4
 74
     0
 42
0.000000001
 43
0.00000001
 40
0.0
 40
0.0
 40
0.0
 40
0.0
 40
1.0
 40
1.0
 40
1.0
 40
1.0
 10
69.85000000000002
 20
7.778749999999997
 30
0.0
 10
68.16749199506566
 20
7.322596428023166
 30
0.0
 10
66.49835003005506
 20
6.785187056975842
 30
0.0
 10
64.85000000000002
 20
6.150941962891933
 30
0.0
1001
PE_URL
1000

  0
SPLINE
  5
C2
330
1F
100
AcDbEntity
  8
0
  6
Continuous
 62
     1
370
    15
100
AcDbSpline
210
0.0
220
0.0
230
1.0
 70
     8
 71
     3
 72
    12
 73
     8
 74
     0
 42
0.000000001
 43
0.00000001
 40
0.0
 40
0.0
 40
0.0
 40
0.0
 40
0.0864797105930769
 40
0.3069510536466677
 40
0.5274229686551907
 40
0.7637253377705624
 40
1.0
 40
1.0
 40
1.0
 40
1.0
 10
46.31795472158007
 20
-8.322686043301111
 30
0.0
 10
45.85225808921146
 20
-8.404607479088778
 30
0.0
 10
44.19931462993154
 20
-8.695379393782094
 30
0.0
 10
41.35909833627304
 20
-8.894008205921935
 30
0.0
 10
37.71216075058231
 20
-8.900692879220928
 30
0.0
 10
33.97979470204859
 20
-8.580635506427619
 30
0.0
 10
31.43488183181726
 20
-8.086348787798158
 30
0.0
 10
30.16250000000002
 20
-7.839219918338865
 30
0.0
1001
PE_URL
1000

  0
SPLINE
  5
C3
330
1F
100
AcDbEntity
  8
외형선
  6
Continuous
370
    15
100
AcDbSpline
210
0.0
220
0.0
230
1.0
 70
    24
 71
     3
 72
    14
 73
    10
 74
     0
 42
0.000000001
 43
0.00000001
 40
0.0
 40
0.0
 40
0.0
 40
0.0
 40
0.25
 40
0.25
 40
0.5
 40
0.5
 40
0.75
 40
0.75
 40
1.0
 40
1.0
 40
1.0
 40
1.0
 10
30.1625
 20
3.668612268547631
 30
0.0
 10
30.1625
 20
2.721631068750333
 30
0.0
 10
30.1625
 20
1.711290206587527
 30
0.0
 10
30.1625
 20
-0.3530680471446674
 30
0.0
 10
30.1625
 20
-1.406166805656335
 30
0.0
 10
30.1625
 20
-3.451440368842693
 30
0.0
 10
30.1625
 20
-4.442525366253667
 30
0.0
 10
30.1625
 20
-6.270591153145291
 30
0.0
 10
30.1625
 20
-7.106985195087637
 30
0.0
 10
30.1625
 20
-7.839219918338855
 30
0.0
  0
LINE
  5
C4
330
1F
100
AcDbEntity
  8
0
  6
Continuous
 62
     1
370
    15
100
AcDbLine
 10
69.85000000000002
 20
0.0
 30
0.0
 11
69.85000000000002
 21
7.778749999999997
 31
0.0
1001
PE_URL
1000

  0
SPLINE
  5
C5
330
1F
100
AcDbEntity
  8
외형선
  6
Continuous
370
    15
100
AcDbSpline
210
0.0
220
0.0
230
1.0
 70
    24
 71
     3
 72
    10
 73
     6
 74
     0
 42
0.000000001
 43
0.00000001
 40
0.0
 40
0.0
 40
0.0
 40
0.0
 40
0.3013966636362575
 40
0.6067095377352264
 40
1.0
 40
1.0
 40
1.0
 40
1.0
 10
30.16250000000002
 20
-7.839219918338865
 30
0.0
 10
30.16250000000002
 20
-7.992766401956334
 30
0.0
 10
30.16250000000002
 20
-8.301854482005062
 30
0.0
 10
30.16250000000002
 20
-8.619706367693349
 30
0.0
 10
30.16250000000002
 20
-8.653729053763792
 30
0.0
 10
30.16250000000002
 20
-8.67288269537361
 30
0.0
  0
SPLINE
  5
C6
330
1F
100
AcDbEntity
  8
0
  6
Continuous
 62
     1
370
    15
100
AcDbSpline
210
0.0
220
0.0
230
1.0
 70
    24
 71
     3
 72
    10
 73
     6
 74
     0
 42
0.000000001
 43
0.00000001
 40
0.0
 40
0.0
 40
0.0
 40
0.0
 40
0.5
 40
0.5
 40
1.0
 40
1.0
 40
1.0
 40
1.0
 10
69.85000000000002
 20
7.778749999999993
 30
0.0
 10
69.85000000000002
 20
8.250278453771267
 30
0.0
 10
69.85000000000005
 20
8.79823818528583
 30
0.0
 10
69.85000000000002
 20
9.947856226177494
 30
0.0
 10
69.85000000000002
 20
10.54657855534385
 30
0.0
 10
69.85000000000002
 20
11.1125
 30
0.0
1001
PE_URL
1000

  0
SPLINE
  5
C7
330
1F
100
AcDbEntity
  8
0
  6
Continuous
 62
     1
370
    15
100
AcDbSpline
210
0.0
220
0.0
230
1.0
 70
     8
 71
     3
 72
    16
 73
    12
 74
     0
 42
0.000000001
 43
0.00000001
 40
0.0
 40
0.0
 40
0.0
 40
0.0
 40
0.1229184935161635
 40
0.230422566571585
 40
0.3383205327115474
 40
0.4464164504919149
 40
0.5549106366739384
 40
0.6656428750637348
 40
0.7765896404870359
 40
0.888185010014722
 40
1.0
 40
1.0
 40
1.0
 40
1.0
 10
54.57461080718019
 20
7.450442856084697
 30
0.0
 10
55.20059303058504
 20
7.71585326683373
 30
0.0
 10
56.37405705881255
 20
8.213390669792295
 30
0.0
 10
58.0966214320177
 20
8.844080870733187
 30
0.0
 10
59.74383793301241
 20
9.39022491361025
 30
0.0
 10
61.39591408153818
 20
9.867068995568136
 30
0.0
 10
63.06270818765292
 20
10.27494014270052
 30
0.0
 10
64.74366789964762
 20
10.60888453963031
 30
0.0
 10
66.44075636324415
 20
10.86193337396399
 30
0.0
 10
68.14309696296678
 20
11.03737550278512
 30
0.0
 10
69.28065956593844
 20
11.08118273572358
 30
0.0
 10
69.84999999999974
 20
11.1125
 30
0.0
1001
PE_URL
1000

  0
LINE
  5
C8
330
1F
100
AcDbEntity
  8
중심선
 62
     1
100
AcDbLine
 10
-76.85
 20
-0.0000000000000083
 30
0.0
 11
76.85
 21
0.0000000000000091
 31
0.0
  0
LINE
  5
C9
330
1F
100
AcDbEntity
  8
참조1
100
AcDbLine
 10
0.0
 20
-0.0000000000000094
 30
0.0
 11
0.0000000000000071
 21
-40.00000000000001
 31
0.0
  0
LINE
  5
CA
330
1F
100
AcDbEntity
  8
참조1
100
AcDbLine
 10
0.0000000000000071
 20
-40.00000000000001
 30
0.0
 11
-9.703215596699206
 21
-40.0
 31
0.0
  0
CIRCLE
  5
CB
330
1F
100
AcDbEntity
  8
해칭선
100
AcDbCircle
 10
0.0
 20
0.0
 30
0.0
 40
3.000000000000001
  0
INSERT
  5
CC
330
1F
100
AcDbEntity
  8
0
  6
Continuous
 62
     7
100
AcDbBlockReference
 66
     1
  2
블럭10
 10
-13.94027293212521
 20
-52.04717430164393
 30
0.0
  0
ATTRIB
  5
CD
330
CC
100
AcDbEntity
  8
FORMAT
 62
     2
100
AcDbText
 10
-23.12156822086649
 20
-49.97180738881174
 30
0.0
 40
4.233333333333333
  1
E2050056 [ 2 FLUTE ]
 41
0.75
  7
SLDTEXTSTYLE0
 11
-23.12156822086649
 21
-52.08847405547841
 31
0.0
100
AcDbAttribute
  2
AUTOATTR0
 70
     0
 74
     1
  0
SEQEND
  5
CE
330
CC
100
AcDbEntity
  8
0
  6
Continuous
 62
     7
  0
HATCH
  5
CF
330
1F
100
AcDbEntity
  8
중심선
100
AcDbHatch
 10
0.0
 20
0.0
 30
0.0
210
0.0
220
0.0
230
1.0
  2
SOLID
 70
     1
 71
     0
 91
        1
 92
        0
 93
        4
 72
     1
 10
-8.225363627744372
 20
-35.8
 11
-11.67163887158165
 21
-35.8
 72
     1
 10
-11.67163887158165
 20
-35.8
 11
-13.79986873078568
 21
-38.3363255805726
 72
     1
 10
-13.79986873078568
 20
-38.3363255805726
 11
-10.35356040183525
 21
-38.33628615127011
 72
     1
 10
-10.35356040183525
 20
-38.33628615127011
 11
-8.225363627744372
 21
-35.8
 97
        0
 75
     0
 76
     1
 98
        1
 10
19.75671167873053
 20
-0.0010749287238986
  0
HATCH
  5
D0
330
1F
100
AcDbEntity
  8
중심선
100
AcDbHatch
 10
0.0
 20
0.0
 30
0.0
210
0.0
220
0.0
230
1.0
  2
SOLID
 70
     1
 71
     0
 91
        1
 92
        0
 93
        4
 72
     1
 10
-3.212599636708418
 20
-35.79999999999998
 11
-6.658874880545675
 21
-35.8
 72
     1
 10
-6.658874880545675
 20
-35.8
 11
-11.19001288890309
 21
-41.20000000000002
 72
     1
 10
-11.19001288890309
 20
-41.20000000000002
 11
-7.743737645065806
 21
-41.20000000000002
 72
     1
 10
-7.743737645065806
 20
-41.20000000000002
 11
-3.212599636708418
 21
-35.79999999999998
 97
        0
 75
     0
 76
     1
 98
        1
 10
19.75671167873053
 20
-0.0010749287238986
  0
HATCH
  5
D1
330
1F
100
AcDbEntity
  8
중심선
100
AcDbHatch
 10
0.0
 20
0.0
 30
0.0
210
0.0
220
0.0
230
1.0
  2
SOLID
 70
     1
 71
     0
 91
        1
 92
        0
 93
        4
 72
     1
 10
1.80016435432745
 20
-35.80000000000003
 11
-1.646110889509639
 21
-35.8
 72
     1
 10
-1.646110889509639
 20
-35.8
 11
-8.69454779139889
 21
-44.20000000000002
 72
     1
 10
-8.69454779139889
 20
-44.20000000000002
 11
-5.248272547561605
 21
-44.20000000000002
 72
     1
 10
-5.248272547561605
 20
-44.20000000000002
 11
1.80016435432745
 21
-35.80000000000003
 97
        0
 75
     0
 76
     1
 98
        1
 10
19.75671167873053
 20
-0.0010749287238986
  0
HATCH
  5
D2
330
1F
100
AcDbEntity
  8
중심선
100
AcDbHatch
 10
0.0
 20
0.0
 30
0.0
210
0.0
220
0.0
230
1.0
  2
SOLID
 70
     1
 71
     0
 91
        1
 92
        0
 93
        6
 72
     3
 10
6.600054785339676
 20
-40.00000000005127
 11
3.960054785062283
 21
1.540882976769353E-10
 40
0.3939339440162628
 50
17.09539180608436
 51
320.0019657685082
 73
     0
 72
     1
 10
8.283054441040242
 20
-38.58789400463833
 11
10.58835631474131
 21
-36.65356729459038
 72
     3
 10
6.600054785286829
 20
-40.00000000000015
 11
6.600054785286829
 21
-1.278976924368180E-13
 40
0.636358354079598
 50
39.99873849337411
 51
368.4976242363724
 73
     1
 72
     1
 10
13.02538727718744
 20
-39.03999999993002
 11
5.280122092122751
 21
-39.03999999993002
 72
     1
 10
5.280122092122751
 20
-39.03999999993002
 11
5.280097047676817
 21
-40.95999999992991
 72
     1
 10
5.280097047676817
 20
-40.95999999992991
 11
9.721476817148854
 21
-40.95999999992988
 97
        0
 75
     0
 76
     1
 98
        1
 10
19.75671167873053
 20
-0.0010749287238986
  0
DIMENSION
  5
D3
330
1F
100
AcDbEntity
  8
치수문자_일반주서
100
AcDbDimension
  2
_D
 10
-84.84999999999992
 20
-11.11250000000023
 30
0.0
 11
-84.85000000000005
 21
30.78949999999993
 31
0.0
 70
   160
  1
%%c<>
 71
     2
 42
22.225
 52
-270.0
  3
SLDDIMSTYLE1
100
AcDbAlignedDimension
 13
-27.11239328089065
 23
11.11249999999999
 33
0.0
 14
-27.11239328089064
 24
-11.11250000000001
 34
0.0
 50
90.0000000000002
100
AcDbRotatedDimension
1001
PE_URL
1000

1001
ACAD
1000
DSTYLE
1002
{
1070
   171
1070
     8
1070
   273
1070
     7
1070
   140
1040
4.0
1002
}
1001
ACAD_DSTYLE_DIMFLIPARROW_SYMBOL
1070
   385
1070
     0
1001
ACAD_DSTYLE_DIMFLIPARROW_WHICH_SYMBOL
1070
   386
1070
     3
  0
DIMENSION
  5
E8
330
1F
100
AcDbEntity
  8
치수문자_일반주서
100
AcDbDimension
  2
_D_1
 10
84.85
 20
11.11250000000005
 30
0.0
 11
84.84999999999994
 21
30.78950000000005
 31
0.0
 70
   160
  1
%%c<>
 71
     2
 42
22.22499999999991
 52
-270.0
  3
SLDDIMSTYLE1
100
AcDbAlignedDimension
 13
69.85000000000002
 23
-11.11249999999991
 33
0.0
 14
69.85000000000002
 24
11.1125
 34
0.0
 50
90.0000000000002
100
AcDbRotatedDimension
1001
PE_URL
1000

1001
ACAD
1000
DSTYLE
1002
{
1070
   171
1070
     8
1070
   273
1070
     7
1070
   140
1040
4.0
1002
}
1001
ACAD_DSTYLE_DIMFLIPARROW_SYMBOL
1070
   385
1070
     0
1001
ACAD_DSTYLE_DIMFLIPARROW_WHICH_SYMBOL
1070
   386
1070
     3
  0
DIMENSION
  5
FC
330
1F
100
AcDbEntity
  8
치수문자_일반주서
100
AcDbDimension
  2
_D_2
 10
30.16250000000002
 20
26.11250000000001
 30
0.0
 11
50.00625000000001
 21
26.11250000000001
 31
0.0
 70
   160
  1
<>
 71
     2
 42
39.68750000000001
  3
SLDDIMSTYLE1
100
AcDbAlignedDimension
 13
69.85000000000002
 23
11.1125
 33
0.0
 14
30.16250000000002
 24
8.689984119139957
 34
0.0
100
AcDbRotatedDimension
1001
PE_URL
1000

1001
ACAD
1000
DSTYLE
1002
{
1070
   171
1070
     8
1070
   273
1070
     7
1070
   140
1040
4.0
1002
}
  0
DIMENSION
  5
110
330
1F
100
AcDbEntity
  8
치수문자_일반주서
100
AcDbDimension
  2
_D_3
 10
69.85000000000002
 20
41.11250000000001
 30
0.0
 11
0.0000000000000284
 21
41.11250000000001
 31
0.0
 70
   160
  1
<>
 71
     2
 42
139.7
  3
SLDDIMSTYLE1
100
AcDbAlignedDimension
 13
-69.85000000000002
 23
11.11249999999989
 33
0.0
 14
69.85000000000002
 24
11.1125
 34
0.0
 50
-0.0000000000000058
100
AcDbRotatedDimension
1001
PE_URL
1000

1001
ACAD
1000
DSTYLE
1002
{
1070
   171
1070
     8
1070
   273
1070
     7
1070
   140
1040
4.0
1002
}
  0
LINE
  5
124
330
1F
100
AcDbEntity
  8
참조1
100
AcDbLine
 10
88.26912503295506
 20
7.439999999999997
 30
0.0
 11
88.26912503295506
 21
-7.440000000000007
 31
0.0
  0
LINE
  5
125
330
1F
100
AcDbEntity
  8
참조1
100
AcDbLine
 10
100.9691250329551
 20
5.439999999999997
 30
0.0
 11
88.26912503295506
 21
5.439999999999997
 31
0.0
  0
SOLID
  5
126
330
1F
100
AcDbEntity
  8
참조1
100
AcDbTrace
 10
88.26912503295506
 20
5.439999999999997
 30
0.0
 11
94.61912503295505
 21
4.423999999999997
 31
0.0
 12
94.61912503295505
 22
6.455999999999997
 32
0.0
 13
94.61912503295505
 23
6.455999999999997
 33
0.0
  0
LINE
  5
127
330
1F
100
AcDbEntity
  8
참조1
100
AcDbLine
 10
100.9691250329551
 20
-5.440000000000007
 30
0.0
 11
88.26912503295506
 21
-5.440000000000007
 31
0.0
  0
SOLID
  5
128
330
1F
100
AcDbEntity
  8
참조1
100
AcDbTrace
 10
88.26912503295506
 20
-5.440000000000007
 30
0.0
 11
94.61912503295505
 21
-6.456000000000008
 31
0.0
 12
94.61912503295505
 22
-4.424000000000007
 32
0.0
 13
94.61912503295505
 23
-4.424000000000007
 33
0.0
  0
MTEXT
  5
129
330
1F
100
AcDbEntity
  8
참조1
100
AcDbMText
 10
97.65347516558106
 20
11.01029177718832
 30
0.0
 40
3.5
 41
0.0
 71
     1
 72
     1
  1
A
  7
SLDTEXTSTYLE0
 73
     1
 44
1.0
  0
MTEXT
  5
12A
330
1F
100
AcDbEntity
  8
참조1
100
AcDbMText
 10
97.65347516558106
 20
0.1302917771883207
 30
0.0
 40
3.5
 41
0.0
 71
     1
 72
     1
  1
A
  7
SLDTEXTSTYLE0
 73
     1
 44
1.0
  0
INSERT
  5
131
330
1F
100
AcDbEntity
  8
해칭선
100
AcDbBlockReference
  2
SW_DOWELSYMBOL_0
 10
0.0
 20
0.0
 30
0.0
  0
LINE
  5
1A0
330
1F
100
AcDbEntity
  8
외형선
  6
Continuous
370
    15
100
AcDbLine
 10
-5.791200000000003
 20
9.207499999999975
 30
0.0
 11
5.791200000000003
 21
9.207499999999975
 31
0.0
1001
PE_URL
1000

  0
LINE
  5
1A1
330
1F
100
AcDbEntity
  8
외형선
  6
Continuous
370
    15
100
AcDbLine
 10
-5.791200000000003
 20
9.20749999999996
 30
0.0
 11
-7.696200000000147
 21
11.11249999999999
 31
0.0
1001
PE_URL
1000

  0
LINE
  5
1A2
330
1F
100
AcDbEntity
  8
외형선
  6
Continuous
370
    15
100
AcDbLine
 10
5.791200000000003
 20
9.20749999999996
 30
0.0
 11
7.696199999999976
 21
11.11249999999999
 31
0.0
1001
PE_URL
1000

  0
LINE
  5
217
330
1F
100
AcDbEntity
  8
외형선
  6
Continuous
370
    15
100
AcDbLine
 10
-7.696200000000147
 20
11.11249999999999
 30
0.0
 11
-27.11239328089065
 21
11.11249999999999
 31
0.0
  0
SPLINE
  5
245
330
1F
100
AcDbEntity
  8
외형선
  6
Continuous
370
    15
100
AcDbSpline
210
0.0
220
0.0
230
1.0
 70
     8
 71
     3
 72
     9
 73
     5
 74
     0
 42
0.000000001
 43
0.00000001
 40
0.0
 40
0.0
 40
0.0
 40
0.0
 40
0.7359797110480482
 40
1.0
 40
1.0
 40
1.0
 40
1.0
 10
-30.16250000000003
 20
-8.689983492246526
 30
0.0
 10
-29.72732399788056
 20
-8.697237566311117
 30
0.0
 10
-29.13603595612223
 20
-8.70709391690842
 30
0.0
 10
-28.54453545832918
 20
-8.727881419909501
 30
0.0
 10
-28.38836732598664
 20
-8.733369742458436
 30
0.0
  0
SPLINE
  5
246
330
1F
100
AcDbEntity
  8
외형선
  6
Continuous
370
    15
100
AcDbSpline
210
0.0
220
0.0
230
1.0
 70
     8
 71
     3
 72
     9
 73
     5
 74
     0
 42
0.000000001
 43
0.00000001
 40
0.0
 40
0.0
 40
0.0
 40
0.0
 40
0.5006972427251825
 40
1.0
 40
1.0
 40
1.0
 40
1.0
 10
-27.11235246443425
 20
8.77968778867178
 30
0.0
 10
-27.62152829001292
 20
8.759240713876032
 30
0.0
 10
-28.63846184212786
 20
8.718403511169548
 30
0.0
 10
-29.65495977790322
 20
8.699448020835696
 30
0.0
 10
-30.16250000000002
 20
8.689983492246505
 30
0.0
  0
SPLINE
  5
247
330
1F
100
AcDbEntity
  8
외형선
  6
Continuous
370
    15
100
AcDbSpline
210
0.0
220
0.0
230
1.0
 70
     8
 71
     3
 72
     9
 73
     5
 74
     0
 42
0.000000001
 43
0.00000001
 40
0.0
 40
0.0
 40
0.0
 40
0.0
 40
0.3562215484195558
 40
1.0
 40
1.0
 40
1.0
 40
1.0
 10
-27.14029147646053
 20
-9.191297291571466
 30
0.0
 10
-27.13338227467588
 20
-9.199243722230946
 30
0.0
 10
-27.1139864750245
 20
-9.221551274075395
 30
0.0
 10
-27.11301724822127
 20
-9.223662506432653
 30
0.0
 10
-27.11239328089065
 20
-9.225021672330534
 30
0.0
  0
LINE
  5
248
330
1F
100
AcDbEntity
  8
0
  6
Continuous
 62
     1
370
    15
100
AcDbLine
 10
-34.95750092967086
 20
-3.105425030219592
 30
0.0
 11
-34.79508703662603
 21
-3.194824909320545
 31
0.0
1001
PE_URL
1000

  0
SPLINE
  5
249
330
1F
100
AcDbEntity
  8
0
  6
Continuous
 62
     1
370
    15
100
AcDbSpline
210
0.0
220
0.0
230
1.0
 70
     8
 71
     3
 72
    10
 73
     6
 74
     0
 42
0.000000001
 43
0.00000001
 40
0.0
 40
0.0
 40
0.0
 40
0.0
 40
0.4219007087713509
 40
0.5964608323005721
 40
1.0
 40
1.0
 40
1.0
 40
1.0
 10
-41.05961948461896
 20
-2.847599732972554
 30
0.0
 10
-40.6266148875257
 20
-3.053541935152836
 30
0.0
 10
-40.01445596718555
 20
-3.344692091491716
 30
0.0
 10
-38.98630080240719
 20
-3.861695773074999
 30
0.0
 10
-38.39230905985956
 20
-4.172496196607106
 30
0.0
 10
-37.97767625015907
 20
-4.38944879650775
 30
0.0
1001
PE_URL
1000

  0
SPLINE
  5
24A
330
1F
100
AcDbEntity
  8
0
  6
Continuous
 62
     1
370
    15
100
AcDbSpline
210
0.0
220
0.0
230
1.0
 70
     8
 71
     3
 72
    19
 73
    15
 74
     0
 42
0.000000001
 43
0.00000001
 40
0.0
 40
0.0
 40
0.0
 40
0.0
 40
0.1134153933633062
 40
0.1638635316850532
 40
0.2130365979246142
 40
0.2814657046493864
 40
0.3531820074737277
 40
0.4190300958985598
 40
0.4787136317671132
 40
0.5332146088530391
 40
0.6060336400931642
 40
0.707686889577897
 40
0.8390420538895412
 40
1.0
 40
1.0
 40
1.0
 40
1.0
 10
-37.38602863863643
 20
-8.83042182307107
 30
0.0
 10
-37.2138062756156
 20
-8.817912166404327
 30
0.0
 10
-36.96497793051314
 20
-8.799838107312425
 30
0.0
 10
-36.49611180178143
 20
-8.765788332658438
 30
0.0
 10
-36.08576697719856
 20
-8.744136935694833
 30
0.0
 10
-35.59544274184794
 20
-8.729993819617626
 30
0.0
 10
-35.07884514682388
 20
-8.721671363106317
 30
0.0
 10
-34.57851665668189
 20
-8.711870827724994
 30
0.0
 10
-34.12166865175917
 20
-8.703523543756646
 30
0.0
 10
-33.64541525349579
 20
-8.695235039431275
 30
0.0
 10
-33.06105064930932
 20
-8.686032785752332
 30
0.0
 10
-32.28762150517685
 20
-8.678632902796835
 30
0.0
 10
-31.29624888980719
 20
-8.676716610914454
 30
0.0
 10
-30.56509771736666
 20
-8.685272381886122
 30
0.0
 10
-30.16250000000002
 20
-8.689983492246526
 30
0.0
1001
PE_URL
1000

  0
SPLINE
  5
24B
330
1F
100
AcDbEntity
  8
0
  6
Continuous
 62
     1
370
    15
100
AcDbSpline
210
0.0
220
0.0
230
1.0
 70
     8
 71
     3
 72
    26
 73
    22
 74
     0
 42
0.000000001
 43
0.00000001
 40
0.0
 40
0.0
 40
0.0
 40
0.0
 40
0.0727699576727876
 40
0.1366954533435526
 40
0.1934179207502295
 40
0.2431481579081883
 40
0.2832891661195602
 40
0.3223611638855636
 40
0.3980769138244233
 40
0.4650377294727665
 40
0.5329591849580504
 40
0.6002029959790937
 40
0.6611074672649369
 40
0.7175987086592313
 40
0.7739862255477621
 40
0.8010596492150217
 40
0.8265840375017741
 40
0.855214299382926
 40
0.8897731204017075
 40
0.9370435317101972
 40
0.9999999999999999
 40
0.9999999999999999
 40
0.9999999999999999
 40
0.9999999999999999
 10
-65.72157463695234
 20
-7.600426192827122
 30
0.0
 10
-65.29211811237849
 20
-7.56402179152991
 30
0.0
 10
-64.48540121717377
 20
-7.495637580542734
 30
0.0
 10
-63.25384705640693
 20
-7.413476520657163
 30
0.0
 10
-62.11140289716599
 20
-7.366361777751322
 30
0.0
 10
-61.12615224549535
 20
-7.338505382292119
 30
0.0
 10
-60.26609554769029
 20
-7.320375775744239
 30
0.0
 10
-59.26619457147329
 20
-7.310166453397088
 30
0.0
 10
-58.08049578628958
 20
-7.315368684321754
 30
0.0
 10
-56.71241894771202
 20
-7.346680873656453
 30
0.0
 10
-55.39248892296153
 20
-7.399871030272379
 30
0.0
 10
-54.09860375891852
 20
-7.473906441611867
 30
0.0
 10
-52.9206348554121
 20
-7.561305996794673
 30
0.0
 10
-51.81492772599351
 20
-7.657841958440706
 30
0.0
 10
-50.87322744973688
 20
-7.752757400481507
 30
0.0
 10
-50.14985454928699
 20
-7.833128720684535
 30
0.0
 10
-49.67085360729113
 20
-7.890122745778207
 30
0.0
 10
-49.08919759845914
 20
-7.961572265578788
 30
0.0
 10
-48.35083878191478
 20
-8.05750640247549
 30
0.0
 10
-47.40291449833129
 20
-8.188733196014546
 30
0.0
 10
-46.70609283045334
 20
-8.296527738123494
 30
0.0
 10
-46.30810069462149
 20
-8.358094968338378
 30
0.0
1001
PE_URL
1000

  0
SPLINE
  5
24C
330
1F
100
AcDbEntity
  8
0
  6
Continuous
 62
     1
370
    15
100
AcDbSpline
210
0.0
220
0.0
230
1.0
 70
     8
 71
     3
 72
    19
 73
    15
 74
     0
 42
0.000000001
 43
0.00000001
 40
0.0
 40
0.0
 40
0.0
 40
0.0
 40
0.0972894457997394
 40
0.1718194650108184
 40
0.2511975672762174
 40
0.3406411297285759
 40
0.4139290918476126
 40
0.4757124606799415
 40
0.541708069512797
 40
0.6314854597906048
 40
0.742124698285245
 40
0.8710245707805189
 40
0.9718874834362515
 40
1.0
 40
1.0
 40
1.0
 40
1.0
 10
-46.30810069462149
 20
8.358094968338353
 30
0.0
 10
-46.54356183663805
 20
8.320484590818229
 30
0.0
 10
-46.95940146980232
 20
8.254062227207847
 30
0.0
 10
-47.66457342558144
 20
8.149379214151036
 30
0.0
 10
-48.36008035461439
 20
8.057285794433145
 30
0.0
 10
-49.04969184967269
 20
7.966409445319076
 30
0.0
 10
-49.68320232789041
 20
7.888220223965309
 30
0.0
 10
-50.24474261783227
 20
7.822710680724985
 30
0.0
 10
-50.83284800507038
 20
7.758048909936203
 30
0.0
 10
-51.57539556250851
 20
7.681906696238823
 30
0.0
 10
-52.49621150485906
 20
7.596959019069132
 30
0.0
 10
-53.4464602888003
 20
7.521529659707358
 30
0.0
 10
-54.16546097594106
 20
7.471664766616076
 30
0.0
 10
-54.52448880511304
 20
7.451379951775294
 30
0.0
 10
-54.60274538356001
 20
7.446958511221425
 30
0.0
1001
PE_URL
1000

  0
SPLINE
  5
24D
330
1F
100
AcDbEntity
  8
0
  6
Continuous
 62
     1
370
    15
100
AcDbSpline
210
0.0
220
0.0
230
1.0
 70
     8
 71
     3
 72
    18
 73
    14
 74
     0
 42
0.000000001
 43
0.00000001
 40
0.0
 40
0.0
 40
0.0
 40
0.0
 40
0.1896179843546253
 40
0.3365188964072558
 40
0.4410820372793275
 40
0.510070381422979
 40
0.580952374484278
 40
0.6468032175842333
 40
0.7185225205733482
 40
0.7869544899470229
 40
0.8361296132823248
 40
0.8865798620409103
 40
1.0
 40
1.0
 40
1.0
 40
1.0
 10
-30.16250000000002
 20
8.689983492246508
 30
0.0
 10
-30.63689515827238
 20
8.684708361920965
 30
0.0
 10
-31.47881390171917
 20
8.67534648075976
 30
0.0
 10
-32.58989620461304
 20
8.68043968991666
 30
0.0
 10
-33.40387002455122
 20
8.691035809570185
 30
0.0
 10
-34.02825946772544
 20
8.701854462370033
 30
0.0
 10
-34.5500757304731
 20
8.711310352148892
 30
0.0
 10
-35.07885746290136
 20
8.721672568340246
 30
0.0
 10
-35.59543946087413
 20
8.72999349854614
 30
0.0
 10
-36.0857675710976
 20
8.744136993812933
 30
0.0
 10
-36.49611166521516
 20
8.765788319294234
 30
0.0
 10
-36.96497801795036
 20
8.799838115868887
 30
0.0
 10
-37.21380631138005
 20
8.817912169904165
 30
0.0
 10
-37.38602863863643
 20
8.830421823071053
 30
0.0
1001
PE_URL
1000

  0
SPLINE
  5
24E
330
1F
100
AcDbEntity
  8
외형선
  6
Continuous
370
    15
100
AcDbSpline
210
0.0
220
0.0
230
1.0
 70
     8
 71
     3
 72
    10
 73
     6
 74
     0
 42
0.000000001
 43
0.00000001
 40
0.0
 40
0.0
 40
0.0
 40
0.0
 40
0.5
 40
0.5
 40
1.0
 40
1.0
 40
1.0
 40
1.0
 10
-30.16250000000011
 20
-8.064421773513885
 30
0.0
 10
-29.6542944901381
 20
-8.266337619647885
 30
0.0
 10
-29.14845927873169
 20
-8.459517666000565
 30
0.0
 10
-28.13101123704171
 20
-8.8285088695268
 30
0.0
 10
-27.62106006761717
 20
-9.004088490843436
 30
0.0
 10
-27.1122815063028
 20
-9.169924879976278
 30
0.0
  0
LINE
  5
24F
330
1F
100
AcDbEntity
  8
외형선
  6
Continuous
370
    15
100
AcDbLine
 10
-30.16250000000002
 20
-8.064421773513914
 30
0.0
 11
-30.16250000000002
 21
-5.639238154206573
 31
0.0
  0
SPLINE
  5
250
330
1F
100
AcDbEntity
  8
외형선
  6
Continuous
370
    15
100
AcDbSpline
210
0.0
220
0.0
230
1.0
 70
     8
 71
     3
 72
    10
 73
     6
 74
     0
 42
0.000000001
 43
0.00000001
 40
0.0
 40
0.0
 40
0.0
 40
0.0
 40
0.5
 40
0.5
 40
1.0
 40
1.0
 40
1.0
 40
1.0
 10
-27.11239328089065
 20
-7.079643782557788
 30
0.0
 10
-27.62115338475122
 20
-6.853354784389417
 30
0.0
 10
-28.13108583524158
 20
-6.619468795450352
 30
0.0
 10
-29.14849644310877
 20
-6.138705460579537
 30
0.0
 10
-29.65431309825041
 20
-5.892112661312005
 30
0.0
 10
-30.16250000000004
 20
-5.639238154206588
 30
0.0
  0
LINE
  5
251
330
1F
100
AcDbEntity
  8
외형선
  6
Continuous
370
    15
100
AcDbLine
 10
-28.38949326456483
 20
8.732984553419211
 30
0.0
 11
-27.1122815063028
 21
9.169924879976264
 31
0.0
  0
LINE
  5
252
330
1F
100
AcDbEntity
  8
외형선
  6
Continuous
370
    15
100
AcDbLine
 10
-27.11239328089065
 20
-9.170193884085194
 30
0.0
 11
-27.11239328089065
 21
-11.11250000000001
 31
0.0
  0
LINE
  5
253
330
1F
100
AcDbEntity
  8
외형선
  6
Continuous
370
    15
100
AcDbLine
 10
-27.11239328089065
 20
11.11249999999999
 30
0.0
 11
-27.11239328089065
 21
-7.079645089233182
 31
0.0
  0
SPLINE
  5
254
330
1F
100
AcDbEntity
  8
외형선
  6
Continuous
370
    15
100
AcDbSpline
210
0.0
220
0.0
230
1.0
 70
    24
 71
     3
 72
    10
 73
     6
 74
     0
 42
0.000000001
 43
0.00000001
 40
0.0
 40
0.0
 40
0.0
 40
0.0
 40
0.5000000000000003
 40
0.5000000000000003
 40
1.0
 40
1.0
 40
1.0
 40
1.0
 10
-30.16250000000002
 20
-5.639238154206595
 30
0.0
 10
-30.16250000000002
 20
-5.502337312460995
 30
0.0
 10
-30.16250000000002
 20
-5.249752902914068
 30
0.0
 10
-30.16250000000002
 20
-4.562848538852215
 30
0.0
 10
-30.16250000000002
 20
-4.131053614016146
 30
0.0
 10
-30.16250000000002
 20
-3.668612268547641
 30
0.0
  0
SPLINE
  5
255
330
1F
100
AcDbEntity
  8
외형선
  6
Continuous
370
    15
100
AcDbSpline
210
0.0
220
0.0
230
1.0
 70
     8
 71
     3
 72
    10
 73
     6
 74
     0
 42
0.000000001
 43
0.00000001
 40
0.0
 40
0.0
 40
0.0
 40
0.0
 40
0.5
 40
0.5
 40
1.0
 40
1.0
 40
1.0
 40
1.0
 10
-30.16250000000001
 20
-3.668612268547641
 30
0.0
 10
-29.65430861514696
 20
-3.849761598027719
 30
0.0
 10
-29.14848748939401
 20
-4.026798447688194
 30
0.0
 10
-28.13106786289586
 20
-4.372749316482889
 30
0.0
 10
-27.62113090260179
 20
-4.541459944534402
 30
0.0
 10
-27.11236635193126
 20
-4.705111380738522
 30
0.0
  0
SPLINE
  5
256
330
1F
100
AcDbEntity
  8
외형선
  6
Continuous
370
    15
100
AcDbSpline
210
0.0
220
0.0
230
1.0
 70
     8
 71
     3
 72
    10
 73
     6
 74
     0
 42
0.000000001
 43
0.00000001
 40
0.0
 40
0.0
 40
0.0
 40
0.0
 40
0.5
 40
0.5
 40
1.0
 40
1.0
 40
1.0
 40
1.0
 10
-30.16250000000003
 20
7.839219918338852
 30
0.0
 10
-29.65430630317166
 20
7.728493419819017
 30
0.0
 10
-29.14848287188546
 20
7.609752173806474
 30
0.0
 10
-28.1310585944011
 20
7.356149719452809
 30
0.0
 10
-27.62111930836237
 20
7.22140061398451
 30
0.0
 10
-27.11235246443425
 20
7.079336892346483
 30
0.0
  0
SPLINE
  5
257
330
1F
100
AcDbEntity
  8
외형선
  6
Continuous
370
    15
100
AcDbSpline
210
0.0
220
0.0
230
1.0
 70
    24
 71
     3
 72
    14
 73
    10
 74
     0
 42
0.000000001
 43
0.00000001
 40
0.0
 40
0.0
 40
0.0
 40
0.0
 40
0.25
 40
0.25
 40
0.5
 40
0.5
 40
0.75
 40
0.75
 40
1.0
 40
1.0
 40
1.0
 40
1.0
 10
-30.16250000000001
 20
-3.668612268547648
 30
0.0
 10
-30.16250000000001
 20
-2.721631068750348
 30
0.0
 10
-30.16250000000001
 20
-1.711290206587542
 30
0.0
 10
-30.16250000000001
 20
0.3530680471446566
 30
0.0
 10
-30.16250000000002
 20
1.406166805656323
 30
0.0
 10
-30.16250000000001
 20
3.451440368842682
 30
0.0
 10
-30.16250000000001
 20
4.442525366253655
 30
0.0
 10
-30.16250000000001
 20
6.270591153145279
 30
0.0
 10
-30.16250000000001
 20
7.106985195087628
 30
0.0
 10
-30.16250000000001
 20
7.839219918338845
 30
0.0
  0
SPLINE
  5
258
330
1F
100
AcDbEntity
  8
외형선
  6
Continuous
370
    15
100
AcDbSpline
210
0.0
220
0.0
230
1.0
 70
    24
 71
     3
 72
    10
 73
     6
 74
     0
 42
0.000000001
 43
0.00000001
 40
0.0
 40
0.0
 40
0.0
 40
0.0
 40
0.0624790749484294
 40
0.660300395359937
 40
1.0
 40
1.0
 40
1.0
 40
1.0
 10
-30.16250000000002
 20
-8.673794075619057
 30
0.0
 10
-30.16250000000002
 20
-8.679007759918179
 30
0.0
 10
-30.16250000000002
 20
-8.734107772311631
 30
0.0
 10
-30.16250000000002
 20
-8.576319022030717
 30
0.0
 10
-30.16250000000002
 20
-8.272320753929563
 30
0.0
 10
-30.16250000000002
 20
-8.162170581569889
 30
0.0
  0
SPLINE
  5
259
330
1F
100
AcDbEntity
  8
외형선
  6
Continuous
370
    15
100
AcDbSpline
210
0.0
220
0.0
230
1.0
 70
    24
 71
     3
 72
    10
 73
     6
 74
     0
 42
0.000000001
 43
0.00000001
 40
0.0
 40
0.0
 40
0.0
 40
0.0
 40
0.3004674648948305
 40
0.6048390666687127
 40
1.0
 40
1.0
 40
1.0
 40
1.0
 10
-30.16250000000002
 20
7.839219918338852
 30
0.0
 10
-30.16250000000002
 20
7.992780087617952
 30
0.0
 10
-30.16250000000002
 20
8.301895716815174
 30
0.0
 10
-30.16250000000002
 20
8.620501047767064
 30
0.0
 10
-30.16250000000002
 20
8.654562203371057
 30
0.0
 10
-30.16250000000002
 20
8.673803106922158
 30
0.0
  0
SPLINE
  5
25A
330
1F
100
AcDbEntity
  8
0
  6
Continuous
 62
     1
370
    15
100
AcDbSpline
210
0.0
220
0.0
230
1.0
 70
     8
 71
     3
 72
    50
 73
    46
 74
     0
 42
0.000000001
 43
0.00000001
 40
0.0
 40
0.0
 40
0.0
 40
0.0
 40
0.0624999999999998
 40
0.0624999999999998
 40
0.1249999999999996
 40
0.1249999999999996
 40
0.1874999999999993
 40
0.1874999999999993
 40
0.2187499999999992
 40
0.2187499999999992
 40
0.2499999999999992
 40
0.2499999999999992
 40
0.3124999999999991
 40
0.3124999999999991
 40
0.3437499999999991
 40
0.3437499999999991
 40
0.374999999999999
 40
0.374999999999999
 40
0.4374999999999989
 40
0.4374999999999989
 40
0.4687499999999989
 40
0.4687499999999989
 40
0.4999999999999988
 40
0.4999999999999988
 40
0.5624999999999987
 40
0.5624999999999987
 40
0.5937499999999986
 40
0.5937499999999986
 40
0.6249999999999984
 40
0.6249999999999984
 40
0.6874999999999984
 40
0.6874999999999984
 40
0.7499999999999984
 40
0.7499999999999984
 40
0.8124999999999984
 40
0.8124999999999984
 40
0.8437499999999987
 40
0.8437499999999987
 40
0.8749999999999989
 40
0.8749999999999989
 40
0.9062499999999991
 40
0.9062499999999991
 40
0.9374999999999992
 40
0.9374999999999992
 40
1.0
 40
1.0
 40
1.0
 40
1.0
 10
-30.16249999999983
 20
-5.639238154206716
 30
0.0
 10
-30.98900971559785
 20
-5.227965773454457
 30
0.0
 10
-31.81990117744415
 20
-4.800302635465279
 30
0.0
 10
-33.46983362426358
 20
-3.922857477060781
 30
0.0
 10
-34.29756368904061
 20
-3.47156673020632
 30
0.0
 10
-35.95330566610576
 20
-2.552200744897092
 30
0.0
 10
-36.77609856523522
 20
-2.085125529605307
 30
0.0
 10
-38.01838200368743
 20
-1.376279618742217
 30
0.0
 10
-38.43282146604722
 20
-1.138814035848227
 30
0.0
 10
-39.25981044102396
 20
-0.6629967387552256
 30
0.0
 10
-39.67122153619813
 20
-0.4248652232388679
 30
0.0
 10
-40.91009677080059
 20
0.2908078192078634
 30
0.0
 10
-41.74104540598236
 20
0.7694032964120971
 30
0.0
 10
-42.97955208679125
 20
1.480610632711979
 30
0.0
 10
-43.3910906240258
 20
1.71657346577836
 30
0.0
 10
-44.21825402626655
 20
2.186575671120966
 30
0.0
 10
-44.63271927825501
 20
2.420391733789248
 30
0.0
 10
-45.87489501260283
 20
3.116095386839476
 30
0.0
 10
-46.69764035557315
 20
3.571556518708562
 30
0.0
 10
-47.93960110589366
 20
4.239485429530873
 30
0.0
 10
-48.35409590166753
 20
4.459434197231253
 30
0.0
 10
-49.18152018996668
 20
4.892577634728926
 30
0.0
 10
-49.59335838114135
 20
5.105588322020413
 30
0.0
 10
-50.83122234896863
 20
5.734008931615314
 30
0.0
 10
-51.6621452137107
 20
6.139158093691233
 30
0.0
 10
-52.90158743351715
 20
6.71861413345054
 30
0.0
 10
-53.31287988159607
 20
6.906971636664704
 30
0.0
 10
-54.13955722287798
 20
7.274497983969663
 30
0.0
 10
-54.55394158016456
 20
7.453504826831807
 30
0.0
 10
-55.79636354998307
 20
7.974555108077883
 30
0.0
 10
-56.61931254190968
 20
8.300067509460828
 30
0.0
 10
-58.27466603136762
 20
8.904651365823693
 30
0.0
 10
-59.10342721516744
 20
9.1831773477675
 30
0.0
 10
-60.75240202283956
 20
9.687081015705942
 30
0.0
 10
-61.58321618197469
 20
9.913499482498235
 30
0.0
 10
-62.82347182612808
 20
10.21049909008237
 30
0.0
 10
-63.23480953603308
 20
10.30234769690438
 30
0.0
 10
-64.06091928057748
 20
10.47193689689188
 30
0.0
 10
-64.47518163037441
 20
10.54962302968493
 30
0.0
 10
-65.30354503563498
 20
10.69025527381048
 30
0.0
 10
-65.71764430555044
 20
10.75320108998842
 30
0.0
 10
-66.54310510452956
 20
10.86401250666369
 30
0.0
 10
-66.95477941235578
 20
10.91190952470756
 30
0.0
 10
-68.19572609821728
 20
11.03307765284969
 30
0.0
 10
-69.02634865288479
 20
11.08351103547012
 30
0.0
 10
-69.85000000000002
 20
11.11249999999998
 30
0.0
1001
PE_URL
1000

  0
SPLINE
  5
25B
330
1F
100
AcDbEntity
  8
0
  6
Continuous
 62
     1
370
    15
100
AcDbSpline
210
0.0
220
0.0
230
1.0
 70
     8
 71
     3
 72
    11
 73
     7
 74
     0
 42
0.000000001
 43
0.00000001
 40
0.0
 40
0.0
 40
0.0
 40
0.0
 40
0.0727041522430441
 40
0.3676924846405393
 40
0.6838652740853514
 40
0.9999999999999999
 40
0.9999999999999999
 40
0.9999999999999999
 40
0.9999999999999999
 10
-42.23697128079879
 20
1.051714665819674
 30
0.0
 10
-41.94435542470769
 20
0.935838711699045
 30
0.0
 10
-40.46448601076174
 20
0.34981004392397
 30
0.0
 10
-37.71214798824318
 20
-0.7734112602368626
 30
0.0
 10
-33.97980943615286
 20
-2.265877959480491
 30
0.0
 10
-31.43488541243
 20
-3.201052930688228
 30
0.0
 10
-30.16250000000001
 20
-3.668612268547641
 30
0.0
1001
PE_URL
1000

  0
SPLINE
  5
25C
330
1F
100
AcDbEntity
  8
외형선
  6
Continuous
370
    15
100
AcDbSpline
210
0.0
220
0.0
230
1.0
 70
    24
 71
     3
 72
    10
 73
     6
 74
     0
 42
0.000000001
 43
0.00000001
 40
0.0
 40
0.0
 40
0.0
 40
0.0
 40
0.5000000000000003
 40
0.5000000000000003
 40
1.0
 40
1.0
 40
1.0
 40
1.0
 10
-30.16250000000002
 20
-5.639238154206595
 30
0.0
 10
-30.16250000000002
 20
-5.502337312460995
 30
0.0
 10
-30.16250000000002
 20
-5.249752902914068
 30
0.0
 10
-30.16250000000002
 20
-4.562848538852215
 30
0.0
 10
-30.16250000000002
 20
-4.131053614016146
 30
0.0
 10
-30.16250000000002
 20
-3.668612268547641
 30
0.0
  0
SPLINE
  5
25D
330
1F
100
AcDbEntity
  8
0
  6
Continuous
 62
     1
370
    15
100
AcDbSpline
210
0.0
220
0.0
230
1.0
 70
     8
 71
     3
 72
    50
 73
    46
 74
     0
 42
0.000000001
 43
0.00000001
 40
0.0
 40
0.0
 40
0.0
 40
0.0
 40
0.0624999999999994
 40
0.0624999999999994
 40
0.0937499999999993
 40
0.0937499999999993
 40
0.1249999999999992
 40
0.1249999999999992
 40
0.1562499999999991
 40
0.1562499999999991
 40
0.1874999999999989
 40
0.1874999999999989
 40
0.2499999999999991
 40
0.2499999999999991
 40
0.3124999999999993
 40
0.3124999999999993
 40
0.3749999999999994
 40
0.3749999999999994
 40
0.4062499999999996
 40
0.4062499999999996
 40
0.4374999999999998
 40
0.4374999999999998
 40
0.5000000000000002
 40
0.5000000000000002
 40
0.5312500000000003
 40
0.5312500000000003
 40
0.5625000000000004
 40
0.5625000000000004
 40
0.6250000000000007
 40
0.6250000000000007
 40
0.6562500000000006
 40
0.6562500000000006
 40
0.6875000000000004
 40
0.6875000000000004
 40
0.7500000000000004
 40
0.7500000000000004
 40
0.7812500000000003
 40
0.7812500000000003
 40
0.8125000000000002
 40
0.8125000000000002
 40
0.8750000000000002
 40
0.8750000000000002
 40
0.9375000000000001
 40
0.9375000000000001
 40
1.0
 40
1.0
 40
1.0
 40
1.0
 10
-69.85000000000002
 20
10.54510540933947
 30
0.0
 10
-69.02634865288474
 20
10.39471392836035
 30
0.0
 10
-68.19572609821714
 20
10.21466531575241
 30
0.0
 10
-66.95477941235555
 20
9.903268393963945
 30
0.0
 10
-66.54310510452933
 20
9.792716228140677
 30
0.0
 10
-65.71764430555012
 20
9.558053728260653
 30
0.0
 10
-65.30354503563461
 20
9.433898077762645
 30
0.0
 10
-64.47518163037398
 20
9.172664334686015
 30
0.0
 10
-64.06091928057705
 20
9.035586798219253
 30
0.0
 10
-63.2348095360326
 20
8.74939782656082
 30
0.0
 10
-62.82347182612756
 20
8.600361958162647
 30
0.0
 10
-61.58321618197407
 20
8.134971314442517
 30
0.0
 10
-60.75240202283887
 20
7.800745097204338
 30
0.0
 10
-59.10342721516665
 20
7.092777783685861
 30
0.0
 10
-58.27466603136675
 20
6.717553085243107
 30
0.0
 10
-56.61931254190869
 20
5.932300088503879
 30
0.0
 10
-55.796363549982
 20
5.522924792289825
 30
0.0
 10
-54.5539415801634
 20
4.886329205377457
 30
0.0
 10
-54.1395572228768
 20
4.670553408957911
 30
0.0
 10
-53.31287988159482
 20
4.233203431927425
 30
0.0
 10
-52.90158743351589
 20
4.011814333649237
 30
0.0
 10
-51.66214521370933
 20
3.338795125252584
 30
0.0
 10
-50.83122234896718
 20
2.878761666040678
 30
0.0
 10
-49.59335838113983
 20
2.180257839592525
 30
0.0
 10
-49.18152018996513
 20
1.945904189777277
 30
0.0
 10
-48.35409590166591
 20
1.474118798795701
 30
0.0
 10
-47.939601105892
 20
1.23689242404842
 30
0.0
 10
-46.6976403555714
 20
0.5234263141498907
 30
0.0
 10
-45.87489501260102
 20
0.0460194251982244
 30
0.0
 10
-44.63271927825308
 20
-0.6698494467752667
 30
0.0
 10
-44.21825402626461
 20
-0.9082512642708949
 30
0.0
 10
-43.39109062402381
 20
-1.383129383222752
 30
0.0
 10
-42.97955208678923
 20
-1.619385429501392
 30
0.0
 10
-41.74104540598024
 20
-2.325050324255045
 30
0.0
 10
-40.9100967707984
 20
-2.791339958090241
 30
0.0
 10
-39.67122153619587
 20
-3.475863133897128
 30
0.0
 10
-39.25981044102166
 20
-3.701510842073034
 30
0.0
 10
-38.43282146604486
 20
-4.148132661894465
 30
0.0
 10
-38.01838200368503
 20
-4.3688944488785
 30
0.0
 10
-36.77609856523273
 20
-5.021457782884042
 30
0.0
 10
-35.9533056661032
 20
-5.442864117892654
 30
0.0
 10
-34.29756368903792
 20
-6.25497691005009
 30
0.0
 10
-33.46983362426087
 20
-6.644769019597511
 30
0.0
 10
-31.81990117744128
 20
-7.384673988105433
 30
0.0
 10
-30.98900971559492
 20
-7.736040035567768
 30
0.0
 10
-30.16249999999686
 20
-8.064421773515178
 30
0.0
1001
PE_URL
1000

  0
SPLINE
  5
25E
330
1F
100
AcDbEntity
  8
0
  6
Continuous
 62
     1
370
    15
100
AcDbSpline
210
0.0
220
0.0
230
1.0
 70
     8
 71
     3
 72
    16
 73
    12
 74
     0
 42
0.000000001
 43
0.00000001
 40
0.0
 40
0.0
 40
0.0
 40
0.0
 40
0.1233964245690741
 40
0.2468002076575841
 40
0.370210350665781
 40
0.493625851588126
 40
0.6170457055464555
 40
0.7404689053264396
 40
0.8638944419167272
 40
0.9873213050501574
 40
1.0
 40
1.0
 40
1.0
 40
1.0
 10
-69.85000000000002
 20
8.76745428779179
 30
0.0
 10
-68.66308712690847
 20
8.521740257939083
 30
0.0
 10
-66.28919060135325
 20
8.03029754552821
 30
0.0
 10
-62.7282081357753
 20
6.938813478187242
 30
0.0
 10
-59.16701749539716
 20
5.631982205351125
 30
0.0
 10
-55.60564862001439
 20
4.126879055028507
 30
0.0
 10
-52.04413568003898
 20
2.483242514048708
 30
0.0
 10
-48.48251180957556
 20
0.751282956891707
 30
0.0
 10
-44.9208105335344
 20
-0.9946079245081734
 30
0.0
 10
-42.42436267370832
 20
-2.224934476384639
 30
0.0
 10
-41.11515351848946
 20
-2.818321750643648
 30
0.0
 10
-40.99319623960739
 20
-2.87359779038367
 30
0.0
1001
PE_URL
1000

  0
LINE
  5
25F
330
1F
100
AcDbEntity
  8
0
  6
Continuous
 62
     1
370
    15
100
AcDbLine
 10
-69.85000000000002
 20
10.54510540933947
 30
0.0
 11
-69.85000000000002
 21
8.76745428779179
 31
0.0
1001
PE_URL
1000

  0
LINE
  5
260
330
1F
100
AcDbEntity
  8
0
  6
Continuous
 62
     1
370
    15
100
AcDbLine
 10
-69.85000000000002
 20
11.11249999999989
 30
0.0
 11
-69.85000000000002
 21
10.54510540933947
 31
0.0
1001
PE_URL
1000

  0
SPLINE
  5
261
330
1F
100
AcDbEntity
  8
0
  6
Continuous
 62
     1
370
    15
100
AcDbSpline
210
0.0
220
0.0
230
1.0
 70
     8
 71
     3
 72
    10
 73
     6
 74
     0
 42
0.000000001
 43
0.00000001
 40
0.0
 40
0.0
 40
0.0
 40
0.0
 40
0.5
 40
0.5
 40
1.0
 40
1.0
 40
1.0
 40
1.0
 10
-69.85000000000002
 20
2.969737237754412
 30
0.0
 10
-68.99442494795372
 20
2.297114754807669
 30
0.0
 10
-68.14994764956617
 20
1.60499434120695
 30
0.0
 10
-66.48286042874409
 20
0.1823341551849751
 30
0.0
 10
-65.66023187812706
 20
-0.5481728889002468
 30
0.0
 10
-64.85000000000002
 20
-1.300459967754875
 30
0.0
1001
PE_URL
1000

  0
LINE
  5
262
330
1F
100
AcDbEntity
  8
0
  6
Continuous
 62
     1
370
    15
100
AcDbLine
 10
-64.85000000000002
 20
-2.9377194352966
 30
0.0
 11
-69.85000000000002
 21
-0.0000000000000213
 31
0.0
1001
PE_URL
1000

  0
LINE
  5
263
330
1F
100
AcDbEntity
  8
0
  6
Continuous
 62
     1
370
    15
100
AcDbLine
 10
-69.85000000000002
 20
-0.0000000000000213
 30
0.0
 11
-69.85000000000002
 21
2.969737237754412
 31
0.0
1001
PE_URL
1000

  0
SPLINE
  5
264
330
1F
100
AcDbEntity
  8
0
  6
Continuous
 62
     1
370
    15
100
AcDbSpline
210
0.0
220
0.0
230
1.0
 70
     8
 71
     3
 72
    16
 73
    12
 74
     0
 42
0.000000001
 43
0.00000001
 40
0.0
 40
0.0
 40
0.0
 40
0.0
 40
0.1034596944397206
 40
0.2069388008245422
 40
0.3366084382357438
 40
0.4662827130964291
 40
0.5959605524517553
 40
0.7256408814270281
 40
0.8553226238058592
 40
0.9850047026098744
 40
1.0
 40
1.0
 40
1.0
 40
1.0
 10
-64.85000000000002
 20
-2.283536363151136
 30
0.0
 10
-63.90294797106447
 20
-2.701575636807291
 30
0.0
 10
-62.00866621962784
 20
-3.537732620031051
 30
0.0
 10
-58.92740748801016
 20
-4.79981144143396
 30
0.0
 10
-55.60564340180527
 20
-6.029562884568207
 30
0.0
 10
-52.04417248565485
 20
-7.141451675081719
 30
0.0
 10
-48.48254319393678
 20
-8.007583429408626
 30
0.0
 10
-44.92085837733351
 20
-8.608952370778596
 30
0.0
 10
-41.35908943686638
 20
-8.883896858122597
 30
0.0
 10
-38.8473794836946
 20
-8.949518028826596
 30
0.0
 10
-37.52277708474249
 20
-8.826543507318505
 30
0.0
 10
-37.38548673971089
 20
-8.813797633914305
 30
0.0
1001
PE_URL
1000

  0
SPLINE
  5
265
330
1F
100
AcDbEntity
  8
0
  6
Continuous
 62
     1
370
    15
100
AcDbSpline
210
0.0
220
0.0
230
1.0
 70
    24
 71
     3
 72
     8
 73
     4
 74
     0
 42
0.000000001
 43
0.00000001
 40
0.0
 40
0.0
 40
0.0
 40
0.0
 40
1.0
 40
1.0
 40
1.0
 40
1.0
 10
-64.85000000000002
 20
-1.300459967738064
 30
0.0
 10
-64.85000000000002
 20
-1.631923426794629
 30
0.0
 10
-64.85000000000002
 20
-1.960107858706749
 30
0.0
 10
-64.85000000000002
 20
-2.283536363151136
 30
0.0
1001
PE_URL
1000

  0
SPLINE
  5
266
330
1F
100
AcDbEntity
  8
0
  6
Continuous
 62
     1
370
    15
100
AcDbSpline
210
0.0
220
0.0
230
1.0
 70
    24
 71
     3
 72
    10
 73
     6
 74
     0
 42
0.000000001
 43
0.00000001
 40
0.0
 40
0.0
 40
0.0
 40
0.0
 40
0.5
 40
0.5
 40
1.0
 40
1.0
 40
1.0
 40
1.0
 10
-69.85000000000002
 20
8.767454287791786
 30
0.0
 10
-69.85000000000002
 20
8.09536056030477
 30
0.0
 10
-69.85000000000002
 20
7.246144364910617
 30
0.0
 10
-69.85000000000002
 20
5.271798438561916
 30
0.0
 10
-69.85000000000002
 20
4.148378960907664
 30
0.0
 10
-69.85000000000002
 20
2.969737237754767
 30
0.0
1001
PE_URL
1000

  0
SPLINE
  5
267
330
1F
100
AcDbEntity
  8
외형선
  6
Continuous
370
    15
100
AcDbSpline
210
0.0
220
0.0
230
1.0
 70
    24
 71
     3
 72
    10
 73
     6
 74
     0
 42
0.000000001
 43
0.00000001
 40
0.0
 40
0.0
 40
0.0
 40
0.0
 40
0.0662513124979283
 40
0.6616672209634327
 40
1.0
 40
1.0
 40
1.0
 40
1.0
 10
-30.16250000000002
 20
-8.672874943492559
 30
0.0
 10
-30.16250000000002
 20
-8.678454644076702
 30
0.0
 10
-30.16250000000002
 20
-8.73418040768977
 30
0.0
 10
-30.16250000000002
 20
-8.576438621027265
 30
0.0
 10
-30.16250000000002
 20
-8.272352563418131
 30
0.0
 10
-30.16250000000002
 20
-8.162170581569889
 30
0.0
  0
SPLINE
  5
268
330
1F
100
AcDbEntity
  8
0
  6
Continuous
 62
     1
370
    15
100
AcDbSpline
210
0.0
220
0.0
230
1.0
 70
    24
 71
     3
 72
    10
 73
     6
 74
     0
 42
0.000000001
 43
0.00000001
 40
0.0
 40
0.0
 40
0.0
 40
0.0
 40
0.5000000000000001
 40
0.5000000000000001
 40
1.0
 40
1.0
 40
1.0
 40
1.0
 10
-64.85000000000002
 20
-2.283536363151136
 30
0.0
 10
-64.85000000000002
 20
-3.059531527112057
 30
0.0
 10
-64.85000000000002
 20
-3.796003738630723
 30
0.0
 10
-64.85000000000002
 20
-5.109618802043833
 30
0.0
 10
-64.85000000000002
 20
-5.685937379830207
 30
0.0
 10
-64.85000000000002
 20
-6.150941962892361
 30
0.0
1001
PE_URL
1000

  0
SPLINE
  5
269
330
1F
100
AcDbEntity
  8
0
  6
Continuous
 62
     1
370
    15
100
AcDbSpline
210
0.0
220
0.0
230
1.0
 70
     8
 71
     3
 72
     9
 73
     5
 74
     0
 42
0.000000001
 43
0.00000001
 40
0.0
 40
0.0
 40
0.0
 40
0.0
 40
0.8617312231481868
 40
1.0
 40
1.0
 40
1.0
 40
1.0
 10
-69.85000000000002
 20
-7.778750000000009
 30
0.0
 10
-68.66309046619403
 20
-7.771978294958139
 30
0.0
 10
-67.28573578538087
 20
-7.764120038392775
 30
0.0
 10
-65.9083678772972
 20
-7.604832351226605
 30
0.0
 10
-65.71792090137151
 20
-7.582807837554583
 30
0.0
1001
PE_URL
1000

  0
SPLINE
  5
26A
330
1F
100
AcDbEntity
  8
0
  6
Continuous
 62
     1
370
    15
100
AcDbSpline
210
0.0
220
0.0
230
1.0
 70
     8
 71
     3
 72
     8
 73
     4
 74
     0
 42
0.000000001
 43
0.00000001
 40
0.0
 40
0.0
 40
0.0
 40
0.0
 40
1.0
 40
1.0
 40
1.0
 40
1.0
 10
-69.85000000000002
 20
-7.778750000000016
 30
0.0
 10
-68.16749199506566
 20
-7.322596428023189
 30
0.0
 10
-66.49835003005506
 20
-6.785187056975865
 30
0.0
 10
-64.85000000000002
 20
-6.150941962891949
 30
0.0
1001
PE_URL
1000

  0
SPLINE
  5
26B
330
1F
100
AcDbEntity
  8
0
  6
Continuous
 62
     1
370
    15
100
AcDbSpline
210
0.0
220
0.0
230
1.0
 70
     8
 71
     3
 72
    12
 73
     8
 74
     0
 42
0.000000001
 43
0.00000001
 40
0.0
 40
0.0
 40
0.0
 40
0.0
 40
0.0864797105930769
 40
0.3069510536466677
 40
0.5274229686551907
 40
0.7637253377705624
 40
1.0
 40
1.0
 40
1.0
 40
1.0
 10
-46.31795472158007
 20
8.322686043301093
 30
0.0
 10
-45.85225808921147
 20
8.40460747908876
 30
0.0
 10
-44.19931462993154
 20
8.695379393782076
 30
0.0
 10
-41.35909833627304
 20
8.894008205921917
 30
0.0
 10
-37.71216075058231
 20
8.900692879220909
 30
0.0
 10
-33.9797947020486
 20
8.580635506427601
 30
0.0
 10
-31.43488183181726
 20
8.086348787798144
 30
0.0
 10
-30.16250000000003
 20
7.839219918338852
 30
0.0
1001
PE_URL
1000

  0
SPLINE
  5
26C
330
1F
100
AcDbEntity
  8
외형선
  6
Continuous
370
    15
100
AcDbSpline
210
0.0
220
0.0
230
1.0
 70
    24
 71
     3
 72
    14
 73
    10
 74
     0
 42
0.000000001
 43
0.00000001
 40
0.0
 40
0.0
 40
0.0
 40
0.0
 40
0.25
 40
0.25
 40
0.5
 40
0.5
 40
0.75
 40
0.75
 40
1.0
 40
1.0
 40
1.0
 40
1.0
 10
-30.1625
 20
-3.668612268547648
 30
0.0
 10
-30.1625
 20
-2.721631068750348
 30
0.0
 10
-30.1625
 20
-1.711290206587542
 30
0.0
 10
-30.16250000000001
 20
0.353068047144653
 30
0.0
 10
-30.1625
 20
1.406166805656319
 30
0.0
 10
-30.16250000000001
 20
3.451440368842679
 30
0.0
 10
-30.1625
 20
4.442525366253655
 30
0.0
 10
-30.16250000000001
 20
6.270591153145276
 30
0.0
 10
-30.16250000000001
 20
7.106985195087624
 30
0.0
 10
-30.1625
 20
7.839219918338841
 30
0.0
  0
LINE
  5
26D
330
1F
100
AcDbEntity
  8
0
  6
Continuous
 62
     1
370
    15
100
AcDbLine
 10
-69.85000000000002
 20
-0.0000000000000213
 30
0.0
 11
-69.85000000000002
 21
-7.778750000000016
 31
0.0
1001
PE_URL
1000

  0
SPLINE
  5
26E
330
1F
100
AcDbEntity
  8
외형선
  6
Continuous
370
    15
100
AcDbSpline
210
0.0
220
0.0
230
1.0
 70
    24
 71
     3
 72
    10
 73
     6
 74
     0
 42
0.000000001
 43
0.00000001
 40
0.0
 40
0.0
 40
0.0
 40
0.0
 40
0.3013966636362575
 40
0.6067095377352264
 40
1.0
 40
1.0
 40
1.0
 40
1.0
 10
-30.16250000000003
 20
7.839219918338852
 30
0.0
 10
-30.16250000000002
 20
7.99276640195632
 30
0.0
 10
-30.16250000000002
 20
8.301854482005048
 30
0.0
 10
-30.16250000000002
 20
8.619706367693333
 30
0.0
 10
-30.16250000000002
 20
8.653729053763776
 30
0.0
 10
-30.16250000000002
 20
8.672882695373595
 30
0.0
  0
SPLINE
  5
26F
330
1F
100
AcDbEntity
  8
0
  6
Continuous
 62
     1
370
    15
100
AcDbSpline
210
0.0
220
0.0
230
1.0
 70
    24
 71
     3
 72
    10
 73
     6
 74
     0
 42
0.000000001
 43
0.00000001
 40
0.0
 40
0.0
 40
0.0
 40
0.0
 40
0.5
 40
0.5
 40
1.0
 40
1.0
 40
1.0
 40
1.0
 10
-69.85000000000002
 20
-7.778750000000016
 30
0.0
 10
-69.85000000000002
 20
-8.250278453771287
 30
0.0
 10
-69.85000000000005
 20
-8.798238185285854
 30
0.0
 10
-69.85000000000002
 20
-9.947856226177514
 30
0.0
 10
-69.85000000000002
 20
-10.54657855534387
 30
0.0
 10
-69.85000000000002
 20
-11.11250000000002
 30
0.0
1001
PE_URL
1000

  0
SPLINE
  5
270
330
1F
100
AcDbEntity
  8
0
  6
Continuous
 62
     1
370
    15
100
AcDbSpline
210
0.0
220
0.0
230
1.0
 70
     8
 71
     3
 72
    16
 73
    12
 74
     0
 42
0.000000001
 43
0.00000001
 40
0.0
 40
0.0
 40
0.0
 40
0.0
 40
0.1229184935161635
 40
0.230422566571585
 40
0.3383205327115474
 40
0.4464164504919149
 40
0.5549106366739384
 40
0.6656428750637348
 40
0.7765896404870359
 40
0.888185010014722
 40
1.0
 40
1.0
 40
1.0
 40
1.0
 10
-54.57461080718019
 20
-7.450442856084713
 30
0.0
 10
-55.20059303058505
 20
-7.715853266833747
 30
0.0
 10
-56.37405705881256
 20
-8.213390669792311
 30
0.0
 10
-58.09662143201771
 20
-8.844080870733201
 30
0.0
 10
-59.74383793301241
 20
-9.390224913610268
 30
0.0
 10
-61.39591408153819
 20
-9.867068995568147
 30
0.0
 10
-63.06270818765293
 20
-10.27494014270053
 30
0.0
 10
-64.74366789964762
 20
-10.60888453963032
 30
0.0
 10
-66.44075636324416
 20
-10.86193337396401
 30
0.0
 10
-68.14309696296678
 20
-11.03737550278515
 30
0.0
 10
-69.28065956593844
 20
-11.08118273572359
 30
0.0
 10
-69.84999999999974
 20
-11.11250000000002
 30
0.0
1001
PE_URL
1000

  0
ENDSEC
  0
SECTION
  2
OBJECTS
  0
DICTIONARY
  5
C
330
0
100
AcDbDictionary
281
     1
  3
ACAD_DETAILVIEWSTYLE
350
1B4
  3
ACAD_GROUP
350
D
  3
ACAD_IMAGE_VARS
350
297
  3
ACAD_LAYOUT
350
1A
  3
ACAD_MLINESTYLE
350
17
  3
ACAD_PLOTSETTINGS
350
19
  3
ACAD_PLOTSTYLENAME
350
E
  3
ACAD_SCALELIST
350
47
  3
ACAD_SECTIONVIEWSTYLE
350
1B5
  3
AcDbVariableDictionary
350
1AF
  3
APPDATA
350
153
  3
DWGPROPS
350
298
  0
DICTIONARY
  5
18D
330
2
100
AcDbDictionary
280
     1
281
     1
  3
ACAD_LAYERSTATES
360
18E
  0
DICTIONARY
  5
1B4
102
{ACAD_REACTORS
330
C
102
}
330
C
100
AcDbDictionary
281
     1
  0
DICTIONARY
  5
D
102
{ACAD_REACTORS
330
C
102
}
330
C
100
AcDbDictionary
281
     1
  0
RASTERVARIABLES
  5
297
102
{ACAD_REACTORS
330
C
102
}
330
C
100
AcDbRasterVariables
 90
        0
 70
     1
 71
     1
 72
     1
  0
DICTIONARY
  5
1A
102
{ACAD_REACTORS
330
C
102
}
330
C
100
AcDbDictionary
281
     1
  3
Layout1
350
1E
  3
Layout2
350
26
  3
Model
350
22
  0
DICTIONARY
  5
17
102
{ACAD_REACTORS
330
C
102
}
330
C
100
AcDbDictionary
281
     1
  3
Standard
350
18
  0
DICTIONARY
  5
19
102
{ACAD_REACTORS
330
C
102
}
330
C
100
AcDbDictionary
281
     1
  0
ACDBDICTIONARYWDFLT
  5
E
102
{ACAD_REACTORS
330
C
102
}
330
C
100
AcDbDictionary
281
     1
  3
Normal
350
F
100
AcDbDictionaryWithDefault
340
F
  0
DICTIONARY
  5
47
102
{ACAD_REACTORS
330
C
102
}
330
C
100
AcDbDictionary
281
     1
  3
A0
350
48
  3
A1
350
49
  3
A2
350
4A
  3
A3
350
4B
  3
A4
350
4C
  3
A5
350
4D
  3
A6
350
4E
  3
A7
350
4F
  3
A8
350
50
  3
A9
350
51
  3
B0
350
52
  3
B1
350
53
  3
B2
350
54
  3
B3
350
55
  3
B4
350
56
  3
B5
350
57
  3
B6
350
58
  3
B7
350
59
  3
B8
350
5A
  3
B9
350
5B
  3
C0
350
5C
  3
C1
350
5D
  3
C2
350
5E
  3
C3
350
5F
  3
C4
350
60
  3
C5
350
61
  3
C6
350
62
  3
C7
350
63
  3
C8
350
64
  3
C9
350
65
  3
D0
350
66
  3
D1
350
67
  3
D2
350
68
  0
DICTIONARY
  5
1B5
102
{ACAD_REACTORS
330
C
102
}
330
C
100
AcDbDictionary
281
     1
  0
DICTIONARY
  5
1AF
102
{ACAD_REACTORS
330
C
102
}
330
C
100
AcDbDictionary
281
     1
  0
DICTIONARY
  5
153
102
{ACAD_REACTORS
330
C
102
}
330
C
100
AcDbDictionary
281
     1
  0
XRECORD
  5
298
102
{ACAD_REACTORS
330
C
102
}
330
C
100
AcDbXrecord
280
     1
  1
DWGPROPS COOKIE
  2

  3

  4

  6

  7

  8
12016016
  9

300
=
301
=
302
=
303
=
304
=
305
=
306
=
307
=
308
=
309
=
 40
0.0
 41
2458313.02639463
 42
2458330.402371609
  1

 90
        0
  0
DICTIONARY
  5
18E
102
{ACAD_REACTORS
330
18D
102
}
330
18D
100
AcDbDictionary
281
     1
  0
LAYOUT
  5
1E
102
{ACAD_REACTORS
330
1A
102
}
330
1A
100
AcDbPlotSettings
  1

  2
none_device
  4

  6

 40
0.0
 41
0.0
 42
0.0
 43
0.0
 44
0.0
 45
0.0
 46
0.0
 47
0.0
 48
0.0
 49
0.0
140
0.0
141
0.0
142
1.0
143
1.0
 70
   688
 72
     1
 73
     0
 74
     5
  7

 75
    16
147
1.0
148
0.0
149
0.0
100
AcDbLayout
  1
Layout1
 70
     1
 71
     1
 10
0.0
 20
0.0
 11
420.0
 21
297.0
 12
0.0
 22
0.0
 32
0.0
 14
1.000000000000000E+20
 24
1.000000000000000E+20
 34
1.000000000000000E+20
 15
-1.000000000000000E+20
 25
-1.000000000000000E+20
 35
-1.000000000000000E+20
146
0.0
 13
0.0
 23
0.0
 33
0.0
 16
1.0
 26
0.0
 36
0.0
 17
0.0
 27
1.0
 37
0.0
 76
     0
330
1B
  0
LAYOUT
  5
26
102
{ACAD_REACTORS
330
1A
102
}
330
1A
100
AcDbPlotSettings
  1

  2
none_device
  4

  6

 40
0.0
 41
0.0
 42
0.0
 43
0.0
 44
0.0
 45
0.0
 46
0.0
 47
0.0
 48
0.0
 49
0.0
140
0.0
141
0.0
142
1.0
143
1.0
 70
   688
 72
     1
 73
     0
 74
     5
  7

 75
    16
147
1.0
148
0.0
149
0.0
100
AcDbLayout
  1
Layout2
 70
     1
 71
     2
 10
0.0
 20
0.0
 11
0.0
 21
0.0
 12
0.0
 22
0.0
 32
0.0
 14
0.0
 24
0.0
 34
0.0
 15
0.0
 25
0.0
 35
0.0
146
0.0
 13
0.0
 23
0.0
 33
0.0
 16
1.0
 26
0.0
 36
0.0
 17
0.0
 27
1.0
 37
0.0
 76
     0
330
23
  0
LAYOUT
  5
22
102
{ACAD_REACTORS
330
1A
102
}
330
1A
100
AcDbPlotSettings
  1

  2
none_device
  4
ANSI_A_(11.00_x_8.50_Inches)
  6

 40
6.35
 41
19.05
 42
6.35000508
 43
19.05000254
 44
279.4
 45
215.9
 46
51.66973992666188
 47
28.58461567097628
 48
0.0
 49
0.0
140
0.0
141
0.0
142
0.0197575987143405
143
1.0
 70
  1696
 72
     0
 73
     0
 74
     0
  7

 75
     0
147
0.0235690232323232
148
0.0
149
0.0
100
AcDbLayout
  1
Model
 70
     1
 71
     0
 10
0.0
 20
0.0
 11
420.0
 21
297.0
 12
0.0
 22
0.0
 32
0.0
 14
-89.72500000000008
 24
-49.97180738881175
 34
0.0
 15
100.9691250329551
 25
47.16449999999993
 35
0.0
146
0.0
 13
0.0
 23
0.0
 33
0.0
 16
1.0
 26
0.0
 36
0.0
 17
0.0
 27
1.0
 37
0.0
 76
     0
330
1F
331
29
  0
MLINESTYLE
  5
18
102
{ACAD_REACTORS
330
17
102
}
330
17
100
AcDbMlineStyle
  2
Standard
 70
     0
  3

 62
   256
 51
90.0
 52
90.0
 71
     2
 49
0.5
 62
   256
  6
BYLAYER
 49
-0.5
 62
   256
  6
BYLAYER
  0
ACDBPLACEHOLDER
  5
F
102
{ACAD_REACTORS
330
E
102
}
330
E
  0
SCALE
  5
48
102
{ACAD_REACTORS
330
47
102
}
330
47
100
AcDbScale
 70
     0
300
1:1
140
1.0
141
1.0
290
     1
  0
SCALE
  5
49
102
{ACAD_REACTORS
330
47
102
}
330
47
100
AcDbScale
 70
     0
300
1:2
140
1.0
141
2.0
290
     0
  0
SCALE
  5
4A
102
{ACAD_REACTORS
330
47
102
}
330
47
100
AcDbScale
 70
     0
300
1:4
140
1.0
141
4.0
290
     0
  0
SCALE
  5
4B
102
{ACAD_REACTORS
330
47
102
}
330
47
100
AcDbScale
 70
     0
300
1:5
140
1.0
141
5.0
290
     0
  0
SCALE
  5
4C
102
{ACAD_REACTORS
330
47
102
}
330
47
100
AcDbScale
 70
     0
300
1:8
140
1.0
141
8.0
290
     0
  0
SCALE
  5
4D
102
{ACAD_REACTORS
330
47
102
}
330
47
100
AcDbScale
 70
     0
300
1:10
140
1.0
141
10.0
290
     0
  0
SCALE
  5
4E
102
{ACAD_REACTORS
330
47
102
}
330
47
100
AcDbScale
 70
     0
300
1:16
140
1.0
141
16.0
290
     0
  0
SCALE
  5
4F
102
{ACAD_REACTORS
330
47
102
}
330
47
100
AcDbScale
 70
     0
300
1:20
140
1.0
141
20.0
290
     0
  0
SCALE
  5
50
102
{ACAD_REACTORS
330
47
102
}
330
47
100
AcDbScale
 70
     0
300
1:30
140
1.0
141
30.0
290
     0
  0
SCALE
  5
51
102
{ACAD_REACTORS
330
47
102
}
330
47
100
AcDbScale
 70
     0
300
1:40
140
1.0
141
40.0
290
     0
  0
SCALE
  5
52
102
{ACAD_REACTORS
330
47
102
}
330
47
100
AcDbScale
 70
     0
300
1:50
140
1.0
141
50.0
290
     0
  0
SCALE
  5
53
102
{ACAD_REACTORS
330
47
102
}
330
47
100
AcDbScale
 70
     0
300
1:100
140
1.0
141
100.0
290
     0
  0
SCALE
  5
54
102
{ACAD_REACTORS
330
47
102
}
330
47
100
AcDbScale
 70
     0
300
2:1
140
2.0
141
1.0
290
     0
  0
SCALE
  5
55
102
{ACAD_REACTORS
330
47
102
}
330
47
100
AcDbScale
 70
     0
300
4:1
140
4.0
141
1.0
290
     0
  0
SCALE
  5
56
102
{ACAD_REACTORS
330
47
102
}
330
47
100
AcDbScale
 70
     0
300
8:1
140
8.0
141
1.0
290
     0
  0
SCALE
  5
57
102
{ACAD_REACTORS
330
47
102
}
330
47
100
AcDbScale
 70
     0
300
10:1
140
10.0
141
1.0
290
     0
  0
SCALE
  5
58
102
{ACAD_REACTORS
330
47
102
}
330
47
100
AcDbScale
 70
     0
300
100:1
140
100.0
141
1.0
290
     0
  0
SCALE
  5
59
102
{ACAD_REACTORS
330
47
102
}
330
47
100
AcDbScale
 70
     0
300
1/128" = 1'-0"
140
0.0078125
141
12.0
290
     0
  0
SCALE
  5
5A
102
{ACAD_REACTORS
330
47
102
}
330
47
100
AcDbScale
 70
     0
300
1/64" = 1'-0"
140
0.015625
141
12.0
290
     0
  0
SCALE
  5
5B
102
{ACAD_REACTORS
330
47
102
}
330
47
100
AcDbScale
 70
     0
300
1/32" = 1'-0"
140
0.03125
141
12.0
290
     0
  0
SCALE
  5
5C
102
{ACAD_REACTORS
330
47
102
}
330
47
100
AcDbScale
 70
     0
300
1/16" = 1'-0"
140
0.0625
141
12.0
290
     0
  0
SCALE
  5
5D
102
{ACAD_REACTORS
330
47
102
}
330
47
100
AcDbScale
 70
     0
300
3/32" = 1'-0"
140
0.09375
141
12.0
290
     0
  0
SCALE
  5
5E
102
{ACAD_REACTORS
330
47
102
}
330
47
100
AcDbScale
 70
     0
300
1/8" = 1'-0"
140
0.125
141
12.0
290
     0
  0
SCALE
  5
5F
102
{ACAD_REACTORS
330
47
102
}
330
47
100
AcDbScale
 70
     0
300
3/16" = 1'-0"
140
0.1875
141
12.0
290
     0
  0
SCALE
  5
60
102
{ACAD_REACTORS
330
47
102
}
330
47
100
AcDbScale
 70
     0
300
1/4" = 1'-0"
140
0.25
141
12.0
290
     0
  0
SCALE
  5
61
102
{ACAD_REACTORS
330
47
102
}
330
47
100
AcDbScale
 70
     0
300
3/8" = 1'-0"
140
0.375
141
12.0
290
     0
  0
SCALE
  5
62
102
{ACAD_REACTORS
330
47
102
}
330
47
100
AcDbScale
 70
     0
300
1/2" = 1'-0"
140
0.5
141
12.0
290
     0
  0
SCALE
  5
63
102
{ACAD_REACTORS
330
47
102
}
330
47
100
AcDbScale
 70
     0
300
3/4" = 1'-0"
140
0.75
141
12.0
290
     0
  0
SCALE
  5
64
102
{ACAD_REACTORS
330
47
102
}
330
47
100
AcDbScale
 70
     0
300
1" = 1'-0"
140
1.0
141
12.0
290
     0
  0
SCALE
  5
65
102
{ACAD_REACTORS
330
47
102
}
330
47
100
AcDbScale
 70
     0
300
1-1/2" = 1'-0"
140
1.5
141
12.0
290
     0
  0
SCALE
  5
66
102
{ACAD_REACTORS
330
47
102
}
330
47
100
AcDbScale
 70
     0
300
3" = 1'-0"
140
3.0
141
12.0
290
     0
  0
SCALE
  5
67
102
{ACAD_REACTORS
330
47
102
}
330
47
100
AcDbScale
 70
     0
300
6" = 1'-0"
140
6.0
141
12.0
290
     0
  0
SCALE
  5
68
102
{ACAD_REACTORS
330
47
102
}
330
47
100
AcDbScale
 70
     0
300
1'-0" = 1'-0"
140
12.0
141
12.0
290
     0
  0
ENDSEC
  0
EOF
